  0
SECTION
  2
HEADER
  9
$ACADVER
  1
AC1015
  9
$ACADMAINTVER
 70
    20
  9
$DWGCODEPAGE
  3
ANSI_1252
  9
$INSBASE
 10
0.0
 20
0.0
 30
0.0
  9
$EXTMIN
 10
-208.09585492228
 20
-100.103626943005
 30
0.0
  9
$EXTMAX
 10
143.354922279793
 20
106.7646657571623
 30
0.0
  9
$LIMMIN
 10
0.0
 20
0.0
  9
$LIMMAX
 10
12.0
 20
9.0
  9
$ORTHOMODE
 70
     0
  9
$REGENMODE
 70
     1
  9
$FILLMODE
 70
     1
  9
$QTEXTMODE
 70
     0
  9
$MIRRTEXT
 70
     1
  9
$LTSCALE
 40
1.0
  9
$ATTMODE
 70
     1
  9
$TEXTSIZE
 40
0.2
  9
$TRACEWID
 40
0.05
  9
$TEXTSTYLE
  7
Standard
  9
$CLAYER
  8
0
  9
$CELTYPE
  6
ByLayer
  9
$CECOLOR
 62
   256
  9
$CELTSCALE
 40
1.0
  9
$DISPSILH
 70
     0
  9
$DIMSCALE
 40
1.0
  9
$DIMASZ
 40
2.5
  9
$DIMEXO
 40
0.625
  9
$DIMDLI
 40
0.38
  9
$DIMRND
 40
0.0
  9
$DIMDLE
 40
0.0
  9
$DIMEXE
 40
1.25
  9
$DIMTP
 40
0.0
  9
$DIMTM
 40
0.000000001
  9
$DIMTXT
 40
2.5
  9
$DIMCEN
 40
0.09
  9
$DIMTSZ
 40
0.0
  9
$DIMTOL
 70
     1
  9
$DIMLIM
 70
     0
  9
$DIMTIH
 70
     0
  9
$DIMTOH
 70
     0
  9
$DIMSE1
 70
     0
  9
$DIMSE2
 70
     0
  9
$DIMTAD
 70
     1
  9
$DIMZIN
 70
     0
  9
$DIMBLK
  1
VDDIM_DEFAULT
  9
$DIMASO
 70
     1
  9
$DIMSHO
 70
     1
  9
$DIMPOST
  1

  9
$DIMAPOST
  1

  9
$DIMALT
 70
     0
  9
$DIMALTD
 70
     2
  9
$DIMALTF
 40
25.4
  9
$DIMLFAC
 40
1.0
  9
$DIMTOFL
 70
     0
  9
$DIMTVP
 40
0.0
  9
$DIMTIX
 70
     0
  9
$DIMSOXD
 70
     0
  9
$DIMSAH
 70
     0
  9
$DIMBLK1
  1

  9
$DIMBLK2
  1

  9
$DIMSTYLE
  2
BEM-ISBE
  9
$DIMCLRD
 70
     0
  9
$DIMCLRE
 70
     0
  9
$DIMCLRT
 70
     0
  9
$DIMTFAC
 40
0.5
  9
$DIMGAP
 40
0.625
  9
$DIMJUST
 70
     0
  9
$DIMSD1
 70
     0
  9
$DIMSD2
 70
     0
  9
$DIMTOLJ
 70
     1
  9
$DIMTZIN
 70
     0
  9
$DIMALTZ
 70
     0
  9
$DIMALTTZ
 70
     0
  9
$DIMUPT
 70
     0
  9
$DIMDEC
 70
     3
  9
$DIMTDEC
 70
     3
  9
$DIMALTU
 70
     2
  9
$DIMALTTD
 70
     2
  9
$DIMTXSTY
  7
Standard
  9
$DIMAUNIT
 70
     0
  9
$DIMADEC
 70
     3
  9
$DIMALTRND
 40
0.0
  9
$DIMAZIN
 70
     0
  9
$DIMDSEP
 70
    46
  9
$DIMATFIT
 70
     3
  9
$DIMFRAC
 70
     0
  9
$DIMLDRBLK
  1

  9
$DIMLUNIT
 70
     2
  9
$DIMLWD
 70
    -2
  9
$DIMLWE
 70
    -2
  9
$DIMTMOVE
 70
     0
  9
$LUNITS
 70
     2
  9
$LUPREC
 70
     4
  9
$SKETCHINC
 40
0.1
  9
$FILLETRAD
 40
0.0
  9
$AUNITS
 70
     0
  9
$AUPREC
 70
     0
  9
$MENU
  1
.
  9
$ELEVATION
 40
0.0
  9
$PELEVATION
 40
0.0
  9
$THICKNESS
 40
0.0
  9
$LIMCHECK
 70
     0
  9
$CHAMFERA
 40
0.5
  9
$CHAMFERB
 40
0.5
  9
$CHAMFERC
 40
1.0
  9
$CHAMFERD
 40
0.0
  9
$SKPOLY
 70
     0
  9
$TDCREATE
 40
2457011.413572605
  9
$TDUCREATE
 40
2457011.371905938
  9
$TDUPDATE
 40
2457011.414372836
  9
$TDUUPDATE
 40
2457011.372706169
  9
$TDINDWG
 40
0.0008102083
  9
$TDUSRTIMER
 40
0.0008101736
  9
$USRTIMER
 70
     1
  9
$ANGBASE
 50
0.0
  9
$ANGDIR
 70
     0
  9
$PDMODE
 70
     0
  9
$PDSIZE
 40
0.0
  9
$PLINEWID
 40
0.0
  9
$SPLFRAME
 70
     0
  9
$SPLINETYPE
 70
     6
  9
$SPLINESEGS
 70
     8
  9
$HANDSEED
  5
F10A9E
  9
$SURFTAB1
 70
     6
  9
$SURFTAB2
 70
     6
  9
$SURFTYPE
 70
     6
  9
$SURFU
 70
     6
  9
$SURFV
 70
     6
  9
$UCSBASE
  2

  9
$UCSNAME
  2

  9
$UCSORG
 10
-0.7954732852759321
 20
0.0287381044974318
 30
0.0
  9
$UCSXDIR
 10
1.0
 20
0.0
 30
0.0
  9
$UCSYDIR
 10
0.0
 20
1.0
 30
0.0
  9
$UCSORTHOREF
  2

  9
$UCSORTHOVIEW
 70
     0
  9
$UCSORGTOP
 10
0.0
 20
0.0
 30
0.0
  9
$UCSORGBOTTOM
 10
0.0
 20
0.0
 30
0.0
  9
$UCSORGLEFT
 10
0.0
 20
0.0
 30
0.0
  9
$UCSORGRIGHT
 10
0.0
 20
0.0
 30
0.0
  9
$UCSORGFRONT
 10
0.0
 20
0.0
 30
0.0
  9
$UCSORGBACK
 10
0.0
 20
0.0
 30
0.0
  9
$PUCSBASE
  2

  9
$PUCSNAME
  2

  9
$PUCSORG
 10
0.0
 20
0.0
 30
0.0
  9
$PUCSXDIR
 10
1.0
 20
0.0
 30
0.0
  9
$PUCSYDIR
 10
0.0
 20
1.0
 30
0.0
  9
$PUCSORTHOREF
  2

  9
$PUCSORTHOVIEW
 70
     0
  9
$PUCSORGTOP
 10
0.0
 20
0.0
 30
0.0
  9
$PUCSORGBOTTOM
 10
0.0
 20
0.0
 30
0.0
  9
$PUCSORGLEFT
 10
0.0
 20
0.0
 30
0.0
  9
$PUCSORGRIGHT
 10
0.0
 20
0.0
 30
0.0
  9
$PUCSORGFRONT
 10
0.0
 20
0.0
 30
0.0
  9
$PUCSORGBACK
 10
0.0
 20
0.0
 30
0.0
  9
$USERI1
 70
     0
  9
$USERI2
 70
     0
  9
$USERI3
 70
     0
  9
$USERI4
 70
     0
  9
$USERI5
 70
     0
  9
$USERR1
 40
0.0
  9
$USERR2
 40
0.0
  9
$USERR3
 40
0.0
  9
$USERR4
 40
0.0
  9
$USERR5
 40
0.0
  9
$WORLDVIEW
 70
     1
  9
$SHADEDGE
 70
     3
  9
$SHADEDIF
 70
    70
  9
$TILEMODE
 70
     1
  9
$MAXACTVP
 70
    64
  9
$PINSBASE
 10
0.0
 20
0.0
 30
0.0
  9
$PLIMCHECK
 70
     0
  9
$PEXTMIN
 10
1.000000000000000E+20
 20
1.000000000000000E+20
 30
1.000000000000000E+20
  9
$PEXTMAX
 10
-1.000000000000000E+20
 20
-1.000000000000000E+20
 30
-1.000000000000000E+20
  9
$PLIMMIN
 10
0.0
 20
0.0
  9
$PLIMMAX
 10
12.0
 20
9.0
  9
$UNITMODE
 70
     0
  9
$VISRETAIN
 70
     1
  9
$PLINEGEN
 70
     0
  9
$PSLTSCALE
 70
     1
  9
$TREEDEPTH
 70
  3020
  9
$CMLSTYLE
  2
Standard
  9
$CMLJUST
 70
     0
  9
$CMLSCALE
 40
1.0
  9
$PROXYGRAPHICS
 70
     1
  9
$MEASUREMENT
 70
     0
  9
$CELWEIGHT
370
    -1
  9
$ENDCAPS
280
     0
  9
$JOINSTYLE
280
     0
  9
$LWDISPLAY
290
     0
  9
$INSUNITS
 70
     4
  9
$HYPERLINKBASE
  1

  9
$STYLESHEET
  1

  9
$XEDIT
290
     1
  9
$CEPSNTYPE
380
     0
  9
$PSTYLEMODE
290
     0
  9
$FINGERPRINTGUID
  2
{FAEB1C30-E019-11D5-929B-00C0DF256EC4}
  9
$VERSIONGUID
  2
{55EE3B8C-9BE4-4A93-ACD5-DB5E4E6D3D85}
  9
$EXTNAMES
290
     1
  9
$PSVPSCALE
 40
0.0
  9
$OLESTARTUP
290
     0
  0
ENDSEC
  0
SECTION
  2
CLASSES
  0
CLASS
  1
ACDBDICTIONARYWDFLT
  2
AcDbDictionaryWithDefault
  3
ObjectDBX Classes
 90
        0
280
     0
281
     0
  0
CLASS
  1
MATERIAL
  2
AcDbMaterial
  3
ObjectDBX Classes
 90
     1153
280
     0
281
     0
  0
CLASS
  1
MLEADERSTYLE
  2
AcDbMLeaderStyle
  3
ACDB_MLEADERSTYLE_CLASS
 90
     4095
280
     0
281
     0
  0
CLASS
  1
SCALE
  2
AcDbScale
  3
ObjectDBX Classes
 90
     1153
280
     0
281
     0
  0
CLASS
  1
TABLESTYLE
  2
AcDbTableStyle
  3
ObjectDBX Classes
 90
     4095
280
     0
281
     0
  0
CLASS
  1
VISUALSTYLE
  2
AcDbVisualStyle
  3
ObjectDBX Classes
 90
     4095
280
     0
281
     0
  0
CLASS
  1
DICTIONARYVAR
  2
AcDbDictionaryVar
  3
ObjectDBX Classes
 90
        0
280
     0
281
     0
  0
CLASS
  1
CELLSTYLEMAP
  2
AcDbCellStyleMap
  3
ObjectDBX Classes
 90
     1152
280
     0
281
     0
  0
CLASS
  1
AMGSETTINGSOBJ
  2
AmgSettingsObj
  3
"AcadM|Product Description: AutoCAD Mechanical|Company: Autodesk, Inc."
 90
     1024
280
     0
281
     0
  0
CLASS
  1
ACME_DOCUMENT
  2
AcMeDbDoc
  3
AcMeServices
 90
     1024
280
     0
281
     0
  0
CLASS
  1
ACMESCOPE
  2
AcMeScope
  3
AcMeServices
 90
     1024
280
     0
281
     0
  0
CLASS
  1
ACMECOMMANDHISTORY
  2
AcMeCommandHistory
  3
AcMeServices
 90
     1024
280
     0
281
     0
  0
CLASS
  1
ACIMSYSVARMAN
  2
AcImSysVarManager
  3
AcMeServices
 90
     1024
280
     0
281
     0
  0
CLASS
  1
ACIMINTSYSVAR
  2
AcImIntSysVar
  3
AcMeServices
 90
     1024
280
     0
281
     0
  0
CLASS
  1
ACMESTATEMGR
  2
AcMeStateMgr
  3
AcMeServices
 90
     1024
280
     0
281
     0
  0
CLASS
  1
ACDBENTITYCACHE
  2
AcMeEntityCache
  3
AcMeServices
 90
     1024
280
     0
281
     0
  0
CLASS
  1
ACGREFMASTER
  2
AcGrefMaster
  3
AcAttribServices
 90
     1024
280
     0
281
     0
  0
CLASS
  1
AM_DRAWING_MGR
  2
AcDmDwgMgr
  3
AcMechDwgViewMgmt
 90
     1024
280
     0
281
     0
  0
CLASS
  1
AM_DWG_DOCUMENT
  2
AcDmDwgDocument
  3
AcMechDwgViewMgmt
 90
     1024
280
     0
281
     0
  0
CLASS
  1
AM_DWG_SHEET
  2
AcDmSheet
  3
AcMechDwgViewMgmt
 90
     1024
280
     0
281
     0
  0
CLASS
  1
AM_VIEWDIMPARMAP
  2
AcDmViewDimParMap
  3
AcMechDwgViewMgmt
 90
     1024
280
     0
281
     0
  0
CLASS
  1
AMDTINTERNALREACTOR
  2
AmdtInternalReactor
  3
AcMeServices
 90
     1024
280
     0
281
     0
  0
CLASS
  1
ACIMREALSYSVAR
  2
AcImRealSysVar
  3
AcMeServices
 90
     1024
280
     0
281
     0
  0
CLASS
  1
AM_DWGMGR_NAME
  2
AcDmDwgMgrName
  3
AcMechDwgViewMgmt
 90
     1024
280
     0
281
     0
  0
CLASS
  1
ACME_DATABASE
  2
AcMeDbDatabase
  3
AcMeServices
 90
     1024
280
     0
281
     0
  0
CLASS
  1
ACRFINSADJUSTERMGR
  2
AcRfInsAdjusterMgr
  3
AcMeServices
 90
     1024
280
     0
281
     0
  0
CLASS
  1
ACGREFACADMASTER
  2
AcGrefacadMaster
  3
AcGrefServices
 90
     1024
280
     0
281
     0
  0
CLASS
  1
AMDTMENUSTATEMGR
  2
AmdtMenuStateMgr
  3
McadcomServices
 90
     1024
280
     0
281
     0
  0
CLASS
  1
AMDTMCOMMENUSTATE
  2
AmdtMcomMenuState
  3
McadcomServices
 90
     1024
280
     0
281
     0
  0
CLASS
  1
AMIMASTER
  2
AmiMaster
  3
AmiServices
 90
     1024
280
     0
281
     0
  0
CLASS
  1
MAPIAMMOUDLE
  2
MApiAmModule
  3
MApiAmServices
 90
     1024
280
     0
281
     0
  0
CLASS
  1
ACIMSTRSYSVAR
  2
AcImStrSysVar
  3
AcMeServices
 90
     1024
280
     0
281
     0
  0
CLASS
  1
AMDTDMMENUSTATE
  2
AmdtDmMenuState
  3
AcMechDwgViewMgmt
 90
     1024
280
     0
281
     0
  0
CLASS
  1
AMDTAMMENUSTATE
  2
AmdtAmMenuState
  3
DesignerAssemblies
 90
     1024
280
     0
281
     0
  0
CLASS
  1
ACAMPROJECT
  2
AcAmProject
  3
DesignerAssemblies
 90
     1024
280
     0
281
     0
  0
CLASS
  1
ACAMGRCOMPDEF
  2
AcAmGrCompDef
  3
DesignerAssemblies
 90
     1024
280
     0
281
     0
  0
CLASS
  1
ACAMCOMPDEF
  2
AcAmCompDef
  3
DesignerAssemblies
 90
     1024
280
     0
281
     0
  0
CLASS
  1
ACAMCOMPDEFMGR
  2
AcAmCompDefMgr
  3
DesignerAssemblies
 90
     1024
280
     0
281
     0
  0
CLASS
  1
AMCONTEXTMGR
  2
AcAmContextMgr
  3
DesignerAssemblies
 90
     1024
280
     0
281
     0
  0
CLASS
  1
ACAMCONTEXTMODELER
  2
AcAmContextModeler
  3
DesignerAssemblies
 90
     1024
280
     0
281
     0
  0
CLASS
  1
ACMDATADICTIONARY
  2
AcmDataDictionary
  3
"AcmSymBB|Product Description: AutoCAD Mechanical|Company: Autodesk, Inc."
 90
     1024
280
     0
281
     0
  0
CLASS
  1
ACAMGRCOMPDEFSET
  2
AcAmGrCompDefSet
  3
DesignerAssemblies
 90
     1024
280
     0
281
     0
  0
CLASS
  1
AMDTBROWSERDBTAB
  2
AmdtBrowserDbTab
  3
McadcomServices
 90
     1024
280
     0
281
     0
  0
CLASS
  1
CBROWSERAPPOBJECT
  2
CBrowserAppObject
  3
McadcomServices
 90
     1024
280
     0
281
     0
  0
CLASS
  1
DM_PLACEHOLDER
  2
AcDmSelsetPlaceholder
  3
AcMechDwgViewMgmt
 90
     1024
280
     0
281
     0
  0
CLASS
  1
EXACXREFPANELOBJECT
  2
ExAcXREFPanelObject
  3
EXAC_ESW
 90
     1025
280
     0
281
     0
  0
CLASS
  1
NPOCOLLECTION
  2
AcDbImpNonPersistentObjectsCollection
  3
ObjectDBX Classes
 90
     1153
280
     0
281
     0
  0
CLASS
  1
ACMSTANDARDANSI
  2
AcmStandardANSI
  3
"Amdt_StdImp|Product Description: AutoCAD Mechanical|Company: Autodesk, Inc."
 90
     1024
280
     0
281
     0
  0
CLASS
  1
ACMSURFSTANDARDANSI
  2
AcmSurfTextStdANSI
  3
"Amdt_StdImp|Product Description: AutoCAD Mechanical|Company: Autodesk, Inc."
 90
     1024
280
     0
281
     0
  0
CLASS
  1
ACMFCFSTANDARDANSI
  2
AcmFCFStdANSI
  3
"Amdt_StdImp|Product Description: AutoCAD Mechanical|Company: Autodesk, Inc."
 90
     1024
280
     0
281
     0
  0
CLASS
  1
ACMWELDSTANDARDANSI
  2
AcmWeldingStdANSI
  3
"Amdt_StdImp|Product Description: AutoCAD Mechanical|Company: Autodesk, Inc."
 90
     1024
280
     0
281
     0
  0
CLASS
  1
ACMIDSTANDARDANSI
  2
AcmIdStdANSI
  3
"Amdt_StdImp|Product Description: AutoCAD Mechanical|Company: Autodesk, Inc."
 90
     1024
280
     0
281
     0
  0
CLASS
  1
ACMDATUMSTANDARDANSI
  2
AcmDatumStdANSI
  3
"Amdt_StdImp|Product Description: AutoCAD Mechanical|Company: Autodesk, Inc."
 90
     1024
280
     0
281
     0
  0
CLASS
  1
ACMBOMSTANDARDANSI
  2
AcmBOMStdANSI
  3
"Amdt_StdImp|Product Description: AutoCAD Mechanical|Company: Autodesk, Inc."
 90
     1024
280
     0
281
     0
  0
CLASS
  1
ACMDETAILSTANDARDANSI
  2
AmdtDetailSymStdANSI
  3
"Amdt_StdImp|Product Description: AutoCAD Mechanical|Company: Autodesk, Inc."
 90
     1024
280
     0
281
     0
  0
CLASS
  1
ACMSECTIONSTANDARDANSI
  2
AmdtSectionSymStdANSI
  3
"Amdt_StdImp|Product Description: AutoCAD Mechanical|Company: Autodesk, Inc."
 90
     1024
280
     0
281
     0
  0
CLASS
  1
ACMCENTERLINESTANDARDANSI
  2
AmdtCenterLineStdANSI
  3
"Amdt_StdImp|Product Description: AutoCAD Mechanical|Company: Autodesk, Inc."
 90
     1024
280
     0
281
     0
  0
CLASS
  1
ACMTHREADLINESTANDARDANSI
  2
AmdtThreadLineStdANSI
  3
"Amdt_StdImp|Product Description: AutoCAD Mechanical|Company: Autodesk, Inc."
 90
     1024
280
     0
281
     0
  0
CLASS
  1
ACMNOTESTANDARDANSI
  2
AmdtNoteStdANSI
  3
"Amdt_StdImp|Product Description: AutoCAD Mechanical|Company: Autodesk, Inc."
 90
     1024
280
     0
281
     0
  0
CLASS
  1
ACMTAPERSTANDARDANSI
  2
AcmTaperStdANSI
  3
"Amdt_StdImp|Product Description: AutoCAD Mechanical|Company: Autodesk, Inc."
 90
     1024
280
     0
281
     0
  0
CLASS
  1
ACMANOOTATIONVIEWSTANDARDANSI
  2
AmdtAnViewStdANSI
  3
"Amdt_StdImp|Product Description: AutoCAD Mechanical|Company: Autodesk, Inc."
 90
     1024
280
     0
281
     0
  0
CLASS
  1
ACAMGLAYSTD
  2
AcAmgLayStd
  3
"AmgLay|Product Description: AutoCAD Mechanical|Company: Autodesk, Inc."
 90
     1024
280
     0
281
     0
  0
CLASS
  1
ACAMGDIMSTD
  2
AcAmgDimStd
  3
"AmgDim|Product Description: AutoCAD Mechanical|Company: Autodesk, Inc."
 90
     1024
280
     0
281
     0
  0
CLASS
  1
AMGOBJPROPCFG
  2
AmgObjPropCfg
  3
"AmgLay|Product Description: AutoCAD Mechanical|Company: Autodesk, Inc."
 90
     1025
280
     0
281
     0
  0
CLASS
  1
ACAMGHOLECHARTSTDANSI
  2
AcAmgHoleChartStdANSI
  3
AmgDim|Product Description: AutoCAD Mechanical|Company: Autodesk, Inc.
 90
     1024
280
     0
281
     0
  0
CLASS
  1
ACAMGTITLESTD
  2
AcAmgTitleStd
  3
"AmgTitle|Product Description: AutoCAD Mechanical|Company: Autodesk, Inc."
 90
     4095
280
     0
281
     0
  0
CLASS
  1
AMDTNOTETEMPLATEDB
  2
AmdtNoteTemplateDB
  3
AcmSymBB|Product Description: AutoCAD Mechanical|Company: Autodesk, Inc.
 90
     1024
280
     0
281
     0
  0
CLASS
  1
ACAMGFILTERDAT
  2
AcAmgFilterDat
  3
"AcadM|Product Description: AutoCAD Mechanical|Company: Autodesk, Inc."
 90
     1024
280
     0
281
     0
  0
CLASS
  1
ACDBPLACEHOLDER
  2
AcDbPlaceHolder
  3
ObjectDBX Classes
 90
        0
280
     0
281
     0
  0
CLASS
  1
LAYOUT
  2
AcDbLayout
  3
ObjectDBX Classes
 90
        0
280
     0
281
     0
  0
ENDSEC
  0
SECTION
  2
TABLES
  0
TABLE
  2
VPORT
  5
24A
330
0
100
AcDbSymbolTable
 70
     1
  0
VPORT
  5
26B
330
24A
100
AcDbSymbolTableRecord
100
AcDbViewportTableRecord
  2
*Active
 70
     0
 10
0.0
 20
0.0
 11
1.0
 21
1.0
 12
-25.77163237017709
 22
9.264490203247135
 13
0.0
 23
0.0
 14
10.0
 24
10.0
 15
10.0
 25
10.0
 16
0.0
 26
0.0
 36
1.0
 17
0.0
 27
0.0
 37
0.0
 40
290.1893437981574
 41
1.492489270386266
 42
1.0
 43
0.0
 44
0.0
 50
0.0
 51
0.0000000000007958
 71
     0
 72
   100
 73
     1
 74
     3
 75
     0
 76
     0
 77
     0
 78
     1
281
     0
 65
     0
110
0.0
120
0.0
130
0.0
111
1.0
121
0.0
131
0.0
112
0.0
122
1.0
132
0.0
 79
     0
146
0.0
  0
ENDTAB
  0
TABLE
  2
LTYPE
  5
247
330
0
100
AcDbSymbolTable
 70
    36
  0
LTYPE
  5
256
330
247
100
AcDbSymbolTableRecord
100
AcDbLinetypeTableRecord
  2
ByBlock
 70
     0
  3

 72
    65
 73
     0
 40
0.0
  0
LTYPE
  5
257
330
247
100
AcDbSymbolTableRecord
100
AcDbLinetypeTableRecord
  2
ByLayer
 70
     0
  3

 72
    65
 73
     0
 40
0.0
  0
LTYPE
  5
258
330
247
100
AcDbSymbolTableRecord
100
AcDbLinetypeTableRecord
  2
Continuous
 70
     0
  3
Solid line
 72
    65
 73
     0
 40
0.0
  0
LTYPE
  5
273
330
247
100
AcDbSymbolTableRecord
100
AcDbLinetypeTableRecord
  2
CENTER
 70
     0
  3
Center ____ _ ____ _ ____ _ ____ _ ____ _ ____
 72
    65
 73
     4
 40
2.0
 49
1.25
 74
     0
 49
-0.25
 74
     0
 49
0.25
 74
     0
 49
-0.25
 74
     0
  0
LTYPE
  5
274
330
247
100
AcDbSymbolTableRecord
100
AcDbLinetypeTableRecord
  2
DASHDOT
 70
     0
  3
Dashdot __ . __ . __ . __ . __ . __ . __ . __
 72
    65
 73
     4
 40
1.0
 49
0.5
 74
     0
 49
-0.25
 74
     0
 49
0.0
 74
     0
 49
-0.25
 74
     0
  0
LTYPE
  5
275
330
247
100
AcDbSymbolTableRecord
100
AcDbLinetypeTableRecord
  2
DASHED
 70
     0
  3
Dashed __ __ __ __ __ __ __ __ __ __ __ __ __ _
 72
    65
 73
     2
 40
0.75
 49
0.5
 74
     0
 49
-0.25
 74
     0
  0
LTYPE
  5
276
330
247
100
AcDbSymbolTableRecord
100
AcDbLinetypeTableRecord
  2
HIDDEN
 70
     0
  3
Hidden __ __ __ __ __ __ __ __ __ __ __ __ __ __
 72
    65
 73
     2
 40
0.375
 49
0.25
 74
     0
 49
-0.125
 74
     0
  0
LTYPE
  5
277
330
247
100
AcDbSymbolTableRecord
100
AcDbLinetypeTableRecord
  2
HIDDEN2
 70
     0
  3
Hidden2 _ _ _ _ _ _ _ _ _ _ _ _ _ _ _ _ _
 72
    65
 73
     2
 40
0.1875
 49
0.125
 74
     0
 49
-0.0625
 74
     0
  0
LTYPE
  5
278
330
247
100
AcDbSymbolTableRecord
100
AcDbLinetypeTableRecord
  2
BORDER
 70
     0
  3
Border __ __ . __ __ . __ __ . __ __ . __ __ .
 72
    65
 73
     6
 40
1.75
 49
0.5
 74
     0
 49
-0.25
 74
     0
 49
0.5
 74
     0
 49
-0.25
 74
     0
 49
0.0
 74
     0
 49
-0.25
 74
     0
  0
LTYPE
  5
279
330
247
100
AcDbSymbolTableRecord
100
AcDbLinetypeTableRecord
  2
BORDER2
 70
     0
  3
Border2 __.__.__.__.__.__.__.__.__.__.__.
 72
    65
 73
     6
 40
0.875
 49
0.25
 74
     0
 49
-0.125
 74
     0
 49
0.25
 74
     0
 49
-0.125
 74
     0
 49
0.0
 74
     0
 49
-0.125
 74
     0
  0
LTYPE
  5
27A
330
247
100
AcDbSymbolTableRecord
100
AcDbLinetypeTableRecord
  2
BORDERX2
 70
     0
  3
Borderx2  ____  ____  .  ____  ____  .  ___
 72
    65
 73
     6
 40
3.5
 49
1.0
 74
     0
 49
-0.5
 74
     0
 49
1.0
 74
     0
 49
-0.5
 74
     0
 49
0.0
 74
     0
 49
-0.5
 74
     0
  0
LTYPE
  5
27B
330
247
100
AcDbSymbolTableRecord
100
AcDbLinetypeTableRecord
  2
CENTER2
 70
     0
  3
Center2  ___ _ ___ _ ___ _ ___ _ ___ _ ___
 72
    65
 73
     4
 40
1.125
 49
0.75
 74
     0
 49
-0.125
 74
     0
 49
0.125
 74
     0
 49
-0.125
 74
     0
  0
LTYPE
  5
27C
330
247
100
AcDbSymbolTableRecord
100
AcDbLinetypeTableRecord
  2
CENTERX2
 70
     0
  3
Centerx2  ________  __  ________  __  _____
 72
    65
 73
     4
 40
4.0
 49
2.5
 74
     0
 49
-0.5
 74
     0
 49
0.5
 74
     0
 49
-0.5
 74
     0
  0
LTYPE
  5
27D
330
247
100
AcDbSymbolTableRecord
100
AcDbLinetypeTableRecord
  2
DASHDOT2
 70
     0
  3
Dashdot2  _._._._._._._._._._._._._._._.
 72
    65
 73
     4
 40
0.5
 49
0.25
 74
     0
 49
-0.125
 74
     0
 49
0.0
 74
     0
 49
-0.125
 74
     0
  0
LTYPE
  5
27E
330
247
100
AcDbSymbolTableRecord
100
AcDbLinetypeTableRecord
  2
DASHDOTX2
 70
     0
  3
Dashdotx2 ____  .  ____  .  ____  .  ___
 72
    65
 73
     4
 40
2.0
 49
1.0
 74
     0
 49
-0.5
 74
     0
 49
0.0
 74
     0
 49
-0.5
 74
     0
  0
LTYPE
  5
27F
330
247
100
AcDbSymbolTableRecord
100
AcDbLinetypeTableRecord
  2
DASHED2
 70
     0
  3
Dashed2 _ _ _ _ _ _ _ _ _ _ _ _ _ _ _ _ _
 72
    65
 73
     2
 40
0.375
 49
0.25
 74
     0
 49
-0.125
 74
     0
  0
LTYPE
  5
280
330
247
100
AcDbSymbolTableRecord
100
AcDbLinetypeTableRecord
  2
DASHEDX2
 70
     0
  3
Dashedx2 ____  ____  ____  ____  ____  ___
 72
    65
 73
     2
 40
1.5
 49
1.0
 74
     0
 49
-0.5
 74
     0
  0
LTYPE
  5
281
330
247
100
AcDbSymbolTableRecord
100
AcDbLinetypeTableRecord
  2
DIVIDE
 70
     0
  3
Divide ____ . . ____ . . ____ . . ____ . . ____
 72
    65
 73
     6
 40
1.25
 49
0.5
 74
     0
 49
-0.25
 74
     0
 49
0.0
 74
     0
 49
-0.25
 74
     0
 49
0.0
 74
     0
 49
-0.25
 74
     0
  0
LTYPE
  5
282
330
247
100
AcDbSymbolTableRecord
100
AcDbLinetypeTableRecord
  2
DIVIDE2
 70
     0
  3
Divide2 __..__..__..__..__..__..__..__.._
 72
    65
 73
     6
 40
0.625
 49
0.25
 74
     0
 49
-0.125
 74
     0
 49
0.0
 74
     0
 49
-0.125
 74
     0
 49
0.0
 74
     0
 49
-0.125
 74
     0
  0
LTYPE
  5
283
330
247
100
AcDbSymbolTableRecord
100
AcDbLinetypeTableRecord
  2
DIVIDEX2
 70
     0
  3
Dividex2 ________  .  .  ________  .  .  _
 72
    65
 73
     6
 40
2.5
 49
1.0
 74
     0
 49
-0.5
 74
     0
 49
0.0
 74
     0
 49
-0.5
 74
     0
 49
0.0
 74
     0
 49
-0.5
 74
     0
  0
LTYPE
  5
284
330
247
100
AcDbSymbolTableRecord
100
AcDbLinetypeTableRecord
  2
DOT
 70
     0
  3
Dot . . . . . . . . . . . . . . . . . . . . . . . .
 72
    65
 73
     2
 40
0.25
 49
0.0
 74
     0
 49
-0.25
 74
     0
  0
LTYPE
  5
285
330
247
100
AcDbSymbolTableRecord
100
AcDbLinetypeTableRecord
  2
DOT2
 70
     0
  3
Dot2 ........................................
 72
    65
 73
     2
 40
0.125
 49
0.0
 74
     0
 49
-0.125
 74
     0
  0
LTYPE
  5
286
330
247
100
AcDbSymbolTableRecord
100
AcDbLinetypeTableRecord
  2
DOTX2
 70
     0
  3
Dotx2 .  .  .  .  .  .  .  .  .  .  .  .  .  .
 72
    65
 73
     2
 40
0.5
 49
0.0
 74
     0
 49
-0.5
 74
     0
  0
LTYPE
  5
287
330
247
100
AcDbSymbolTableRecord
100
AcDbLinetypeTableRecord
  2
HIDDENX2
 70
     0
  3
Hiddenx2 ____ ____ ____ ____ ____ ____ ____
 72
    65
 73
     2
 40
0.75
 49
0.5
 74
     0
 49
-0.25
 74
     0
  0
LTYPE
  5
288
330
247
100
AcDbSymbolTableRecord
100
AcDbLinetypeTableRecord
  2
PHANTOM
 70
     0
  3
Phantom ______  __  __  ______  __  __  ______
 72
    65
 73
     6
 40
2.5
 49
1.25
 74
     0
 49
-0.25
 74
     0
 49
0.25
 74
     0
 49
-0.25
 74
     0
 49
0.25
 74
     0
 49
-0.25
 74
     0
  0
LTYPE
  5
289
330
247
100
AcDbSymbolTableRecord
100
AcDbLinetypeTableRecord
  2
PHANTOM2
 70
     0
  3
Phantom2 ___ _ _ ___ _ _ ___ _ _ ___ _ _
 72
    65
 73
     6
 40
1.25
 49
0.625
 74
     0
 49
-0.125
 74
     0
 49
0.125
 74
     0
 49
-0.125
 74
     0
 49
0.125
 74
     0
 49
-0.125
 74
     0
  0
LTYPE
  5
28A
330
247
100
AcDbSymbolTableRecord
100
AcDbLinetypeTableRecord
  2
PHANTOMX2
 70
     0
  3
Phantomx2 ____________    ____    ____   _
 72
    65
 73
     6
 40
5.0
 49
2.5
 74
     0
 49
-0.5
 74
     0
 49
0.5
 74
     0
 49
-0.5
 74
     0
 49
0.5
 74
     0
 49
-0.5
 74
     0
  0
LTYPE
  5
F10973
330
247
100
AcDbSymbolTableRecord
100
AcDbLinetypeTableRecord
  2
AM_ISO02W050
 70
     0
  3
__ __ __ __ __ __ __ __ __ __ __ __ __ __ __
 72
    65
 73
     2
 40
7.5
 49
6.0
 74
     0
 49
-1.5
 74
     0
  0
LTYPE
  5
F10974
330
247
100
AcDbSymbolTableRecord
100
AcDbLinetypeTableRecord
  2
AM_ISO08W050
 70
     0
  3
____ . ____ . ____ . ____ . ____ . ____ . ____
 72
    65
 73
     4
 40
18.0
 49
12.0
 74
     0
 49
-1.5
 74
     0
 49
3.0
 74
     0
 49
-1.5
 74
     0
  0
LTYPE
  5
F10975
330
247
100
AcDbSymbolTableRecord
100
AcDbLinetypeTableRecord
  2
AM_ISO09W050
 70
     0
  3
_____ . . _____ . . _____ . . ____ .. ____
 72
    65
 73
     6
 40
22.5
 49
12.0
 74
     0
 49
-1.5
 74
     0
 49
3.0
 74
     0
 49
-1.5
 74
     0
 49
3.0
 74
     0
 49
-1.5
 74
     0
  0
LTYPE
  5
F10976
330
247
100
AcDbSymbolTableRecord
100
AcDbLinetypeTableRecord
  2
Amconstr
 70
     0
  3
_______________________
 72
    65
 73
     2
 40
9999.0
 49
9999.0
 74
     0
 49
0.0
 74
     0
  0
LTYPE
  5
F10977
330
247
100
AcDbSymbolTableRecord
100
AcDbLinetypeTableRecord
  2
AM_ISO08W050x2
 70
     0
  3
__ . __ . __ . __ . __ . __
 72
    65
 73
     4
 40
9.0
 49
6.0
 74
     0
 49
-0.75
 74
     0
 49
1.5
 74
     0
 49
-0.75
 74
     0
  0
LTYPE
  5
F10978
330
247
100
AcDbSymbolTableRecord
100
AcDbLinetypeTableRecord
  2
AM_ISO02W050x2
 70
     0
  3
 _ _ _ _ _ _ _ _ _ _ _ _
 72
    65
 73
     2
 40
3.75
 49
3.0
 74
     0
 49
-0.75
 74
     0
  0
LTYPE
  5
F1097B
330
247
100
AcDbSymbolTableRecord
100
AcDbLinetypeTableRecord
  2
Amzigzag
 70
     0
  3
/\/-/\/-/\/-/\/-/\/-/\/
 72
    65
 73
     2
 40
11.0001
 49
0.0001
 74
     4
 75
   136
340
F1097A
 46
0.04
 50
0.0
 44
0.0
 45
0.0
 49
-11.0
 74
     0
  0
LTYPE
  5
F1097C
330
247
100
AcDbSymbolTableRecord
100
AcDbLinetypeTableRecord
  2
Amzigzag2
 70
     0
  3
/\/-/\/-/\/-/\/-/\/-/\/
 72
    65
 73
     2
 40
0.4401
 49
0.0001
 74
     4
 75
   136
340
F1097A
 46
0.0016
 50
0.0
 44
0.0
 45
0.0
 49
-0.4400000000000001
 74
     0
  0
LTYPE
  5
F1098A
330
247
100
AcDbSymbolTableRecord
100
AcDbLinetypeTableRecord
  2
ACANSTGB
 70
     0
  3
__ . . __ . .
 72
    65
 73
     6
 40
0.35433070866
 49
0.15748031496
 74
     0
 49
-0.03937007874
 74
     0
 49
0.03937007874
 74
     0
 49
-0.03937007874
 74
     0
 49
0.03937007874
 74
     0
 49
-0.03937007874
 74
     0
  0
LTYPE
  5
F1098B
330
247
100
AcDbSymbolTableRecord
100
AcDbLinetypeTableRecord
  2
ACANSTGL
 70
     0
  3
_ _ _ _ _
 72
    65
 73
     2
 40
0.11811023622
 49
0.07874015748
 74
     0
 49
-0.03937007874
 74
     0
  0
ENDTAB
  0
TABLE
  2
LAYER
  5
244
330
0
100
AcDbSymbolTable
 70
     6
  0
LAYER
  5
252
102
{ACAD_XDICTIONARY
360
F10A44
102
}
330
244
100
AcDbSymbolTableRecord
100
AcDbLayerTableRecord
  2
0
 70
     0
 62
     7
  6
Continuous
370
     0
390
19
  0
LAYER
  5
23F
102
{ACAD_XDICTIONARY
360
F10A46
102
}
330
244
100
AcDbSymbolTableRecord
100
AcDbLayerTableRecord
  2
Bemassung
 70
     0
 62
     7
  6
Continuous
370
     0
390
19
  0
LAYER
  5
240
102
{ACAD_XDICTIONARY
360
F10A48
102
}
330
244
100
AcDbSymbolTableRecord
100
AcDbLayerTableRecord
  2
Rahmen
 70
     0
 62
     7
  6
Continuous
370
     0
390
19
  0
LAYER
  5
241
102
{ACAD_XDICTIONARY
360
F10A4A
102
}
330
244
100
AcDbSymbolTableRecord
100
AcDbLayerTableRecord
  2
Geo
 70
     0
 62
     7
  6
Continuous
370
     0
390
19
  0
LAYER
  5
33A
330
244
100
AcDbSymbolTableRecord
100
AcDbLayerTableRecord
  2
Defpoints
 70
     0
 62
     7
  6
Continuous
290
     0
370
    -3
390
19
  0
LAYER
  5
57E
102
{ACAD_XDICTIONARY
360
F10A4C
102
}
330
244
100
AcDbSymbolTableRecord
100
AcDbLayerTableRecord
  2
Text
 70
     0
 62
     7
  6
Continuous
370
     0
390
19
1001
AcAecLayerStandard
1000

1000

  0
ENDTAB
  0
TABLE
  2
STYLE
  5
245
330
0
100
AcDbSymbolTable
 70
     5
  0
STYLE
  5
253
330
245
100
AcDbSymbolTableRecord
100
AcDbTextStyleTableRecord
  2
Standard
 70
     0
 40
0.0
 41
1.0
 50
0.0
 71
     0
 42
0.2
  3
Arial
  4

1001
ACAD
1000
Arial
1071
        0
  0
STYLE
  5
132
330
245
100
AcDbSymbolTableRecord
100
AcDbTextStyleTableRecord
  2
Beschriftung
 70
     0
 40
0.0
 41
1.0
 50
0.0
 71
     0
 42
0.2
  3
Arial
  4

1001
ACAD
1000
Arial
1071
        0
1001
AcadAnnotative
1000
AnnotativeData
1070
     1
1070
     1
  0
STYLE
  5
F1097A
330
245
100
AcDbSymbolTableRecord
100
AcDbTextStyleTableRecord
  2

 70
     1
 40
0.0
 41
1.0
 50
0.0
 71
     0
 42
0.2
  3
genltshp.shx
  4

  0
STYLE
  5
F10988
330
245
100
AcDbSymbolTableRecord
100
AcDbTextStyleTableRecord
  2
ACANSTS
 70
     0
 40
1.0
 41
1.0
 50
0.0
 71
     0
 42
0.2
  3
romans.shx
  4

  0
STYLE
  5
F10989
330
245
100
AcDbSymbolTableRecord
100
AcDbTextStyleTableRecord
  2
ACANSGDT
 70
     0
 40
0.0
 41
1.0
 50
0.0
 71
     0
 42
0.2
  3
amgdt.shx
  4

  0
ENDTAB
  0
TABLE
  2
VIEW
  5
248
330
0
100
AcDbSymbolTable
 70
     0
  0
ENDTAB
  0
TABLE
  2
UCS
  5
249
330
0
100
AcDbSymbolTable
 70
     0
  0
ENDTAB
  0
TABLE
  2
APPID
  5
24B
330
0
100
AcDbSymbolTable
 70
    28
  0
APPID
  5
254
330
24B
100
AcDbSymbolTableRecord
100
AcDbRegAppTableRecord
  2
ACAD
 70
     0
  0
APPID
  5
26C
330
24B
100
AcDbSymbolTableRecord
100
AcDbRegAppTableRecord
  2
VD_INVISIBLE_NOT_FOR_READ
 70
     0
  0
APPID
  5
26D
330
24B
100
AcDbSymbolTableRecord
100
AcDbRegAppTableRecord
  2
VD_TEMPHATCH
 70
     0
  0
APPID
  5
26E
330
24B
100
AcDbSymbolTableRecord
100
AcDbRegAppTableRecord
  2
VDEXTRAPARAM
 70
     0
  0
APPID
  5
26F
330
24B
100
AcDbSymbolTableRecord
100
AcDbRegAppTableRecord
  2
PE_URL
 70
     0
  0
APPID
  5
270
330
24B
100
AcDbSymbolTableRecord
100
AcDbRegAppTableRecord
  2
VD_UNKNOWN
 70
     0
  0
APPID
  5
28F
330
24B
100
AcDbSymbolTableRecord
100
AcDbRegAppTableRecord
  2
AcadAnnotative
 70
     0
  0
APPID
  5
290
330
24B
100
AcDbSymbolTableRecord
100
AcDbRegAppTableRecord
  2
ACAD_DSTYLE_DIMJAG
 70
     0
  0
APPID
  5
291
330
24B
100
AcDbSymbolTableRecord
100
AcDbRegAppTableRecord
  2
ACAD_DSTYLE_DIMTALN
 70
     0
  0
APPID
  5
293
330
24B
100
AcDbSymbolTableRecord
100
AcDbRegAppTableRecord
  2
ACAD_PSEXT
 70
     0
  0
APPID
  5
42A
330
24B
100
AcDbSymbolTableRecord
100
AcDbRegAppTableRecord
  2
ACAD_MLEADERVER
 70
     0
  0
APPID
  5
532
330
24B
100
AcDbSymbolTableRecord
100
AcDbRegAppTableRecord
  2
ACAD_EXEMPT_FROM_CAD_STANDARDS
 70
     0
  0
APPID
  5
57F
330
24B
100
AcDbSymbolTableRecord
100
AcDbRegAppTableRecord
  2
AcAecLayerStandard
 70
     0
  0
APPID
  5
F1090D
330
24B
100
AcDbSymbolTableRecord
100
AcDbRegAppTableRecord
  2
MCAD_NO_VIS
 70
     0
  0
APPID
  5
F1090E
330
24B
100
AcDbSymbolTableRecord
100
AcDbRegAppTableRecord
  2
ACAD_TEMP_GRAPHIC
 70
     0
  0
APPID
  5
F10937
330
24B
100
AcDbSymbolTableRecord
100
AcDbRegAppTableRecord
  2
AD_DRAW
 70
     0
  0
APPID
  5
F1093A
330
24B
100
AcDbSymbolTableRecord
100
AcDbRegAppTableRecord
  2
ACATTRIBSERVICES
 70
     0
  0
APPID
  5
F10953
330
24B
100
AcDbSymbolTableRecord
100
AcDbRegAppTableRecord
  2
DESIGNERASSEMBLIES
 70
     0
  0
APPID
  5
F10958
330
24B
100
AcDbSymbolTableRecord
100
AcDbRegAppTableRecord
  2
ACADM_DIM_EDIT
 70
     0
  0
APPID
  5
F10959
330
24B
100
AcDbSymbolTableRecord
100
AcDbRegAppTableRecord
  2
AMDT_DM_ADJ
 70
     0
  0
APPID
  5
F10971
330
24B
100
AcDbSymbolTableRecord
100
AcDbRegAppTableRecord
  2
ACAD_DSTYLE_DIMBREAK
 70
     0
  0
APPID
  5
F10992
330
24B
100
AcDbSymbolTableRecord
100
AcDbRegAppTableRecord
  2
GENIUS_GENSCREG_15
 70
     0
  0
APPID
  5
F10993
330
24B
100
AcDbSymbolTableRecord
100
AcDbRegAppTableRecord
  2
GENIUS_GENOBJ-N-SDF_13
 70
     0
  0
APPID
  5
F10994
330
24B
100
AcDbSymbolTableRecord
100
AcDbRegAppTableRecord
  2
GENIUS_GENODEF_13
 70
     0
  0
APPID
  5
F10A9A
330
24B
100
AcDbSymbolTableRecord
100
AcDbRegAppTableRecord
  2
ACAD_DSTYLE_DIMARC_LENGTH_SYMBOL
 70
     0
  0
APPID
  5
F10A9B
330
24B
100
AcDbSymbolTableRecord
100
AcDbRegAppTableRecord
  2
ACAD_DSTYLE_DIM_LINETYPE
 70
     0
  0
APPID
  5
F10A9C
330
24B
100
AcDbSymbolTableRecord
100
AcDbRegAppTableRecord
  2
ACAD_DSTYLE_DIM_EXT1_LINETYPE
 70
     0
  0
APPID
  5
F10A9D
330
24B
100
AcDbSymbolTableRecord
100
AcDbRegAppTableRecord
  2
ACAD_DSTYLE_DIM_EXT2_LINETYPE
 70
     0
  0
ENDTAB
  0
TABLE
  2
DIMSTYLE
  5
24C
330
0
100
AcDbSymbolTable
 70
     9
100
AcDbDimStyleTable
 71
     2
340
27
340
269
  0
DIMSTYLE
105
269
330
24C
100
AcDbSymbolTableRecord
100
AcDbDimStyleTableRecord
  2
Standard
 70
     0
172
     1
174
     1
288
     1
340
253
342
23C
  0
DIMSTYLE
105
137
330
24C
100
AcDbSymbolTableRecord
100
AcDbDimStyleTableRecord
  2
Beschriftung
 70
     0
 41
2.5
 42
0.625
 44
1.25
 73
     0
 74
     0
 77
     1
140
2.5
147
0.625
172
     1
174
     1
271
     2
288
     1
340
253
342
23C
1001
AcadAnnotative
1000
AnnotativeData
1070
     1
1070
     1
1001
ACAD_DSTYLE_DIMJAG
1070
   388
1040
1.5
1001
ACAD_DSTYLE_DIMTALN
1070
   392
1070
     0
  0
DIMSTYLE
105
27
102
{ACAD_REACTORS
330
F1000D
330
F10017
330
F10021
330
F10008
330
F10012
102
}
330
24C
100
AcDbSymbolTableRecord
100
AcDbDimStyleTableRecord
  2
BEM-ISBE
 70
     0
 41
2.5
 42
0.625
 44
1.25
 48
0.000000001
 71
     1
 73
     0
 74
     0
 77
     1
140
2.5
146
0.5
147
0.625
171
     3
172
     1
179
     3
271
     3
272
     3
274
     3
340
253
342
23C
1001
ACAD_DSTYLE_DIMJAG
1070
   388
1040
1.5
1001
ACAD_DSTYLE_DIMTALN
1070
   392
1070
     1
  0
DIMSTYLE
105
F10970
102
{ACAD_REACTORS
330
F10960
102
}
330
24C
100
AcDbSymbolTableRecord
100
AcDbDimStyleTableRecord
  2
AM_ANSI
 70
     0
  4
mm
 41
0.12
 42
0.05
 43
0.5
 44
0.1
 47
0.1
 48
0.1
 78
     7
 79
     2
140
0.12
141
0.0
146
0.71
147
0.06
176
   256
177
   256
178
     2
274
     4
284
     7
340
253
371
    -1
372
    -1
1001
ACAD_DSTYLE_DIMJAG
1070
   388
1040
1.5
1001
ACAD_DSTYLE_DIMBREAK
1070
   391
1040
0.125
1001
ACAD_DSTYLE_DIMARC_LENGTH_SYMBOL
1070
   379
1070
     1
1001
ACAD_DSTYLE_DIM_LINETYPE
1070
   380
1005
256
1001
ACAD_DSTYLE_DIM_EXT1_LINETYPE
1070
   381
1005
256
1001
ACAD_DSTYLE_DIM_EXT2_LINETYPE
1070
   382
1005
256
  0
DIMSTYLE
105
F1097D
330
24C
100
AcDbSymbolTableRecord
100
AcDbDimStyleTableRecord
  2
AM_ANSI$3
 70
     0
  4
mm
 41
0.12
 42
0.05
 43
0.5
 44
0.1
 47
0.1
 48
0.1
 78
     7
 79
     2
140
0.12
141
0.0
146
0.71
147
0.06
176
   256
177
   256
178
     2
274
     4
284
     7
288
     1
289
     0
340
253
371
    -1
372
    -1
1001
ACAD_DSTYLE_DIMBREAK
1070
   391
1040
0.125
1001
ACAD_DSTYLE_DIMJAG
1070
   388
1040
1.5
1001
ACAD_DSTYLE_DIMARC_LENGTH_SYMBOL
1070
   379
1070
     1
1001
ACAD_DSTYLE_DIM_LINETYPE
1070
   380
1005
256
1001
ACAD_DSTYLE_DIM_EXT1_LINETYPE
1070
   381
1005
256
1001
ACAD_DSTYLE_DIM_EXT2_LINETYPE
1070
   382
1005
256
  0
DIMSTYLE
105
F1097E
330
24C
100
AcDbSymbolTableRecord
100
AcDbDimStyleTableRecord
  2
AM_ANSI$4
 70
     0
  4
mm
 41
0.12
 42
0.05
 43
0.5
 44
0.1
 47
0.1
 48
0.1
 78
     7
 79
     2
140
0.12
141
0.0
146
0.71
147
0.06
176
   256
177
   256
178
     2
274
     4
284
     7
288
     1
289
     0
340
253
371
    -1
372
    -1
1001
ACAD_DSTYLE_DIMBREAK
1070
   391
1040
0.125
1001
ACAD_DSTYLE_DIMJAG
1070
   388
1040
1.5
1001
ACAD_DSTYLE_DIMARC_LENGTH_SYMBOL
1070
   379
1070
     1
1001
ACAD_DSTYLE_DIM_LINETYPE
1070
   380
1005
256
1001
ACAD_DSTYLE_DIM_EXT1_LINETYPE
1070
   381
1005
256
1001
ACAD_DSTYLE_DIM_EXT2_LINETYPE
1070
   382
1005
256
  0
DIMSTYLE
105
F1097F
330
24C
100
AcDbSymbolTableRecord
100
AcDbDimStyleTableRecord
  2
AM_ANSI$7
 70
     0
  4
mm
 41
0.12
 42
0.05
 43
0.5
 44
0.1
 47
0.1
 48
0.1
 78
     7
 79
     2
140
0.12
141
0.0
146
0.71
147
0.06
176
   256
177
   256
178
     2
274
     4
284
     7
340
253
371
    -1
372
    -1
1001
ACAD_DSTYLE_DIMBREAK
1070
   391
1040
0.125
1001
ACAD_DSTYLE_DIMJAG
1070
   388
1040
1.5
1001
ACAD_DSTYLE_DIMARC_LENGTH_SYMBOL
1070
   379
1070
     1
1001
ACAD_DSTYLE_DIM_LINETYPE
1070
   380
1005
256
1001
ACAD_DSTYLE_DIM_EXT1_LINETYPE
1070
   381
1005
256
1001
ACAD_DSTYLE_DIM_EXT2_LINETYPE
1070
   382
1005
256
  0
DIMSTYLE
105
F10980
330
24C
100
AcDbSymbolTableRecord
100
AcDbDimStyleTableRecord
  2
AM_ANSI$SF
 70
     0
  4
mm
 41
0.12
 42
0.05
 43
0.5
 44
0.1
 47
0.1
 48
0.1
 75
     1
 76
     1
 78
     7
 79
     2
140
0.12
141
0.0
146
0.71
147
0.06
176
   256
177
   256
178
     2
274
     4
284
     7
340
253
371
    -1
372
    -1
1001
ACAD_DSTYLE_DIMBREAK
1070
   391
1040
0.125
1001
ACAD_DSTYLE_DIMJAG
1070
   388
1040
1.5
1001
ACAD_DSTYLE_DIMARC_LENGTH_SYMBOL
1070
   379
1070
     1
1001
ACAD_DSTYLE_DIM_LINETYPE
1070
   380
1005
256
1001
ACAD_DSTYLE_DIM_EXT1_LINETYPE
1070
   381
1005
256
1001
ACAD_DSTYLE_DIM_EXT2_LINETYPE
1070
   382
1005
256
  0
DIMSTYLE
105
F10985
330
24C
100
AcDbSymbolTableRecord
100
AcDbDimStyleTableRecord
  2
AM_ANSI$SH
 70
     0
  4
mm
 41
0.12
 42
0.05
 43
0.5
 44
0.1
 47
0.1
 48
0.1
 75
     1
 76
     1
 78
     7
 79
     2
140
0.12
141
0.0
146
0.71
147
0.06
173
     1
176
   256
177
   256
178
     2
274
     4
284
     7
340
253
343
F10981
371
    -1
372
    -1
1001
ACAD_DSTYLE_DIMBREAK
1070
   391
1040
0.125
1001
ACAD_DSTYLE_DIMJAG
1070
   388
1040
1.5
1001
ACAD_DSTYLE_DIMARC_LENGTH_SYMBOL
1070
   379
1070
     1
1001
ACAD_DSTYLE_DIM_LINETYPE
1070
   380
1005
256
1001
ACAD_DSTYLE_DIM_EXT1_LINETYPE
1070
   381
1005
256
1001
ACAD_DSTYLE_DIM_EXT2_LINETYPE
1070
   382
1005
256
  0
ENDTAB
  0
TABLE
  2
BLOCK_RECORD
  5
243
330
0
100
AcDbSymbolTable
 70
    12
  0
BLOCK_RECORD
  5
261
330
243
100
AcDbSymbolTableRecord
100
AcDbBlockTableRecord
  2
*Model_Space
340
FD0
  0
BLOCK_RECORD
  5
25D
330
243
100
AcDbSymbolTableRecord
100
AcDbBlockTableRecord
  2
*Paper_Space
340
FD1
  0
BLOCK_RECORD
  5
265
330
243
100
AcDbSymbolTableRecord
100
AcDbBlockTableRecord
  2
*Paper_Space0
340
0
  0
BLOCK_RECORD
  5
23C
330
243
100
AcDbSymbolTableRecord
100
AcDbBlockTableRecord
  2
VDDIM_DEFAULT
340
0
102
{BLKREFS
331
F109A2
331
F109A3
331
F109D1
331
F109D2
331
F10A19
331
F10A1A
331
F10A22
331
F10A23
331
F10A2C
331
F10A2D
331
F10A35
331
F10A36
331
F10A3E
331
F10A3F
102
}
  0
BLOCK_RECORD
  5
23E
330
243
100
AcDbSymbolTableRecord
100
AcDbBlockTableRecord
  2
VDDIM_NONE
340
0
  0
BLOCK_RECORD
  5
F10002
330
243
100
AcDbSymbolTableRecord
100
AcDbBlockTableRecord
  2
*D3
340
0
  0
BLOCK_RECORD
  5
F1000C
330
243
100
AcDbSymbolTableRecord
100
AcDbBlockTableRecord
  2
*D4
340
0
  0
BLOCK_RECORD
  5
F10016
330
243
100
AcDbSymbolTableRecord
100
AcDbBlockTableRecord
  2
*D5
340
0
  0
BLOCK_RECORD
  5
F1001B
330
243
100
AcDbSymbolTableRecord
100
AcDbBlockTableRecord
  2
*D6
340
0
  0
BLOCK_RECORD
  5
F10020
330
243
100
AcDbSymbolTableRecord
100
AcDbBlockTableRecord
  2
*D7
340
0
  0
BLOCK_RECORD
  5
F10007
330
243
100
AcDbSymbolTableRecord
100
AcDbBlockTableRecord
  2
*D8
340
0
  0
BLOCK_RECORD
  5
F10011
330
243
100
AcDbSymbolTableRecord
100
AcDbBlockTableRecord
  2
*D9
340
0
  0
BLOCK_RECORD
  5
F10981
330
243
100
AcDbSymbolTableRecord
100
AcDbBlockTableRecord
  2
GENAXEH
340
0
  0
ENDTAB
  0
ENDSEC
  0
SECTION
  2
BLOCKS
  0
BLOCK
  5
262
330
261
100
AcDbEntity
  8
0
100
AcDbBlockBegin
  2
*Model_Space
 70
     0
 10
0.0
 20
0.0
 30
0.0
  3
*Model_Space
  1

  0
ENDBLK
  5
263
330
261
100
AcDbEntity
  8
0
100
AcDbBlockEnd
  0
BLOCK
  5
25E
330
25D
100
AcDbEntity
 67
     1
  8
0
100
AcDbBlockBegin
  2
*Paper_Space
 70
     0
 10
0.0
 20
0.0
 30
0.0
  3
*Paper_Space
  1

  0
ENDBLK
  5
25F
330
25D
100
AcDbEntity
 67
     1
  8
0
100
AcDbBlockEnd
  0
BLOCK
  5
266
330
265
100
AcDbEntity
  8
0
100
AcDbBlockBegin
  2
*Paper_Space0
 70
     0
 10
0.0
 20
0.0
 30
0.0
  3
*Paper_Space0
  1

  0
VIEWPORT
  5
296
102
{ACAD_XDICTIONARY
360
F10A5D
102
}
330
265
100
AcDbEntity
  8
0
 60
     1
100
AcDbViewport
 10
0.0
 20
0.0
 30
0.0
 40
10.0
 41
10.0
 69
     0
 12
0.0
 22
0.0
 13
0.0
 23
0.0
 14
1.0
 24
1.0
 15
0.0
 25
0.0
 16
0.0
 26
0.0
 36
1.0
 17
0.0
 27
0.0
 37
0.0
 42
0.0
 43
0.0
 44
0.0
 45
10.0
 50
0.0
 51
0.0000000000007958
 72
   100
 90
   163872
  1

281
     0
 71
     0
 74
     0
110
0.0
120
0.0
130
0.0
111
1.0
121
0.0
131
0.0
112
0.0
122
1.0
132
0.0
 79
     0
146
0.0
1001
VD_INVISIBLE_NOT_FOR_READ
1000
VD_INVISIBLE_NOT_FOR_READ
  0
VIEWPORT
  5
297
102
{ACAD_XDICTIONARY
360
F10A5F
102
}
330
265
100
AcDbEntity
  8
0
 60
     1
100
AcDbViewport
 10
0.0
 20
0.0
 30
0.0
 40
10.0
 41
10.0
 69
     0
 12
0.0
 22
0.0
 13
0.0
 23
0.0
 14
1.0
 24
1.0
 15
0.0
 25
0.0
 16
0.0
 26
0.0
 36
1.0
 17
0.0
 27
0.0
 37
0.0
 42
0.0
 43
0.0
 44
0.0
 45
10.0
 50
0.0
 51
0.0000000000007958
 72
   100
 90
   163872
  1

281
     0
 71
     0
 74
     0
110
0.0
120
0.0
130
0.0
111
1.0
121
0.0
131
0.0
112
0.0
122
1.0
132
0.0
 79
     0
146
0.0
1001
VD_INVISIBLE_NOT_FOR_READ
1000
VD_INVISIBLE_NOT_FOR_READ
  0
ENDBLK
  5
267
330
265
100
AcDbEntity
  8
0
100
AcDbBlockEnd
  0
BLOCK
  5
28B
330
23C
100
AcDbEntity
  8
0
100
AcDbBlockBegin
  2
VDDIM_DEFAULT
 70
     0
 10
0.0
 20
0.0
 30
0.0
  3
VDDIM_DEFAULT
  1

  0
LWPOLYLINE
  5
23D
330
23C
100
AcDbEntity
  8
0
  6
Continuous
 62
     0
100
AcDbPolyline
 90
        4
 70
     0
 43
0.0
 10
0.0
 20
0.0
 10
-1.0
 20
-0.1665
 10
-1.0
 20
0.1665
 10
0.0
 20
0.0
1001
VDEXTRAPARAM
1071
        1
1071
        0
1071
        0
1040
1.0
1000

1000

1040
0.0
1040
0.0
  0
HATCH
  5
292
330
23C
100
AcDbEntity
  8
0
  6
Continuous
 62
     0
100
AcDbHatch
 10
0.0
 20
0.0
 30
0.0
210
0.0
220
0.0
230
1.0
  2
SOLID
 70
     1
 71
     0
 91
        1
 92
        2
 72
     0
 73
     1
 93
        3
 10
0.0
 20
0.0
 10
-1.0
 20
-0.1665
 10
-1.0
 20
0.1665
 97
        0
 75
     0
 76
     1
 98
        1
 10
0.0
 20
0.0
1001
VDEXTRAPARAM
1071
        1
1071
        0
1071
        0
1040
1.0
1000

1000

1040
0.0
1040
0.0
1001
VD_TEMPHATCH
1000
VD_TEMPHATCH
  0
ENDBLK
  5
28C
330
23C
100
AcDbEntity
  8
0
100
AcDbBlockEnd
  0
BLOCK
  5
28D
330
23E
100
AcDbEntity
  8
0
100
AcDbBlockBegin
  2
VDDIM_NONE
 70
     0
 10
0.0
 20
0.0
 30
0.0
  3
VDDIM_NONE
  1

  0
ENDBLK
  5
28E
330
23E
100
AcDbEntity
  8
0
100
AcDbBlockEnd
  0
BLOCK
  5
F10025
330
F10002
100
AcDbEntity
  8
0
100
AcDbBlockBegin
  2
*D3
 70
     1
 10
0.0
 20
0.0
 30
0.0
  3
*D3
  1

  0
LINE
  5
F1099D
330
F10002
100
AcDbEntity
  8
Bemassung
 62
     0
370
    -2
100
AcDbLine
 10
-75.6277533039648
 20
-14.1723568281938
 30
0.0
 11
-75.6277533039648
 21
43.4526431718062
 31
0.0
  0
LINE
  5
F1099E
330
F10002
100
AcDbEntity
  8
Bemassung
 62
     0
370
    -2
100
AcDbLine
 10
-75.50775330396479
 20
27.8276431718062
 30
0.0
 11
-75.50775330396479
 21
43.4526431718062
 31
0.0
  0
LINE
  5
F1099F
330
F10002
100
AcDbEntity
  8
Bemassung
 62
     0
370
    -2
100
AcDbLine
 10
-78.1277533039648
 20
42.2026431718062
 30
0.0
 11
-80.6277533039648
 21
42.2026431718062
 31
0.0
  0
LINE
  5
F109A0
330
F10002
100
AcDbEntity
  8
Bemassung
 62
     0
370
    -2
100
AcDbLine
 10
-73.00775330396479
 20
42.2026431718062
 30
0.0
 11
-62.78947226712986
 21
42.2026431718062
 31
0.0
  0
LINE
  5
F109A1
330
F10002
100
AcDbEntity
  8
Bemassung
 62
     0
370
    -2
100
AcDbLine
 10
-75.6277533039648
 20
42.2026431718062
 30
0.0
 11
-75.50775330396479
 21
42.2026431718062
 31
0.0
  0
INSERT
  5
F109A2
330
F10002
100
AcDbEntity
  8
Bemassung
 62
     0
370
    -2
100
AcDbBlockReference
  2
VDDIM_DEFAULT
 10
-75.6277533039648
 20
42.2026431718062
 30
0.0
 41
2.5
 42
2.5
 43
2.5
  0
INSERT
  5
F109A3
330
F10002
100
AcDbEntity
  8
Bemassung
 62
     0
370
    -2
100
AcDbBlockReference
  2
VDDIM_DEFAULT
 10
-75.50775330396479
 20
42.2026431718062
 30
0.0
 41
2.5
 42
2.5
 43
2.5
 50
180.0
  0
MTEXT
  5
F109A4
330
F10002
100
AcDbEntity
  8
Bemassung
 62
     0
100
AcDbMText
 10
-66.64861278554733
 20
42.8276431718062
 30
0.0
 40
2.5
 41
0.0
 71
     8
 72
     1
  1
\A1;0.12
 73
     1
 44
1.0
1001
ACAD
1000
MTEXTBEGIN
1070
    73
1070
     1
1070
    44
1040
1.0
1070
    74
1070
     0
1000
MTEXTEND
  0
POINT
  5
F109A5
330
F10002
100
AcDbEntity
  8
Defpoints
 62
     0
100
AcDbPoint
 10
-75.6277533039648
 20
-14.7973568281938
 30
0.0
  0
POINT
  5
F109A6
330
F10002
100
AcDbEntity
  8
Defpoints
 62
     0
100
AcDbPoint
 10
-75.50775330396479
 20
27.2026431718062
 30
0.0
  0
POINT
  5
F109A7
330
F10002
100
AcDbEntity
  8
Defpoints
 62
     0
100
AcDbPoint
 10
-75.50775330396479
 20
42.2026431718062
 30
0.0
  0
ENDBLK
  5
F1002E
330
F10002
100
AcDbEntity
  8
0
100
AcDbBlockEnd
  0
BLOCK
  5
F1002F
330
F1000C
100
AcDbEntity
  8
0
100
AcDbBlockBegin
  2
*D4
 70
     1
 10
0.0
 20
0.0
 30
0.0
  3
*D4
  1

  0
LINE
  5
F10A1F
330
F1000C
100
AcDbEntity
  8
Bemassung
 62
     0
370
    -2
100
AcDbLine
 10
-0.7954732852759321
 20
5.653738104497431
 30
0.0
 11
-0.7954732852759311
 21
21.27873810449743
 31
0.0
  0
LINE
  5
F10A20
330
F1000C
100
AcDbEntity
  8
Bemassung
 62
     0
370
    -2
100
AcDbLine
 10
39.20452671472407
 20
5.153738104497431
 30
0.0
 11
39.20452671472407
 21
21.27873810449743
 31
0.0
  0
LINE
  5
F10A21
330
F1000C
100
AcDbEntity
  8
Bemassung
 62
     0
370
    -2
100
AcDbLine
 10
1.704526714724068
 20
20.02873810449743
 30
0.0
 11
36.70452671472407
 21
20.02873810449743
 31
0.0
  0
INSERT
  5
F10A22
330
F1000C
100
AcDbEntity
  8
Bemassung
 62
     0
370
    -2
100
AcDbBlockReference
  2
VDDIM_DEFAULT
 10
-0.7954732852759312
 20
20.02873810449743
 30
0.0
 41
2.5
 42
2.5
 43
2.5
 50
180.0
  0
INSERT
  5
F10A23
330
F1000C
100
AcDbEntity
  8
Bemassung
 62
     0
370
    -2
100
AcDbBlockReference
  2
VDDIM_DEFAULT
 10
39.20452671472407
 20
20.02873810449743
 30
0.0
 41
2.5
 42
2.5
 43
2.5
  0
MTEXT
  5
F10A24
330
F1000C
100
AcDbEntity
  8
Bemassung
 62
     0
100
AcDbMText
 10
19.20452671472407
 20
20.65373810449743
 30
0.0
 40
2.5
 41
0.0
 71
     8
 72
     1
  1
\A1;40
 73
     1
 44
1.0
1001
ACAD
1000
MTEXTBEGIN
1070
    73
1070
     1
1070
    44
1040
1.0
1070
    74
1070
     0
1000
MTEXTEND
  0
POINT
  5
F10A25
330
F1000C
100
AcDbEntity
  8
Defpoints
 62
     0
100
AcDbPoint
 10
-0.7954732852759321
 20
5.028738104497431
 30
0.0
  0
POINT
  5
F10A26
330
F1000C
100
AcDbEntity
  8
Defpoints
 62
     0
100
AcDbPoint
 10
39.20452671472407
 20
4.528738104497431
 30
0.0
  0
POINT
  5
F10A27
330
F1000C
100
AcDbEntity
  8
Defpoints
 62
     0
100
AcDbPoint
 10
39.20452671472407
 20
20.02873810449743
 30
0.0
  0
ENDBLK
  5
F10038
330
F1000C
100
AcDbEntity
  8
0
100
AcDbBlockEnd
  0
BLOCK
  5
F10039
330
F10016
100
AcDbEntity
  8
0
100
AcDbBlockBegin
  2
*D5
 70
     1
 10
0.0
 20
0.0
 30
0.0
  3
*D5
  1

  0
LINE
  5
F10A32
330
F10016
100
AcDbEntity
  8
Bemassung
 62
     0
370
    -2
100
AcDbLine
 10
-18.79547328527593
 20
-5.596261895502568
 30
0.0
 11
-18.79547328527593
 21
-21.22126189550257
 31
0.0
  0
LINE
  5
F10A33
330
F10016
100
AcDbEntity
  8
Bemassung
 62
     0
370
    -2
100
AcDbLine
 10
-40.79547328527593
 20
-0.5962618955025647
 30
0.0
 11
-40.79547328527593
 21
-21.22126189550257
 31
0.0
  0
LINE
  5
F10A34
330
F10016
100
AcDbEntity
  8
Bemassung
 62
     0
370
    -2
100
AcDbLine
 10
-21.29547328527593
 20
-19.97126189550256
 30
0.0
 11
-38.29547328527593
 21
-19.97126189550256
 31
0.0
  0
INSERT
  5
F10A35
330
F10016
100
AcDbEntity
  8
Bemassung
 62
     0
370
    -2
100
AcDbBlockReference
  2
VDDIM_DEFAULT
 10
-18.79547328527593
 20
-19.97126189550256
 30
0.0
 41
2.5
 42
2.5
 43
2.5
  0
INSERT
  5
F10A36
330
F10016
100
AcDbEntity
  8
Bemassung
 62
     0
370
    -2
100
AcDbBlockReference
  2
VDDIM_DEFAULT
 10
-40.79547328527593
 20
-19.97126189550256
 30
0.0
 41
2.5
 42
2.5
 43
2.5
 50
180.0
  0
MTEXT
  5
F10A37
330
F10016
100
AcDbEntity
  8
Bemassung
 62
     0
100
AcDbMText
 10
-29.79547328527593
 20
-19.34626189550256
 30
0.0
 40
2.5
 41
0.0
 71
     8
 72
     1
  1
\A1;22
 73
     1
 44
1.0
1001
ACAD
1000
MTEXTBEGIN
1070
    73
1070
     1
1070
    44
1040
1.0
1070
    74
1070
     0
1000
MTEXTEND
  0
POINT
  5
F10A38
330
F10016
100
AcDbEntity
  8
Defpoints
 62
     0
100
AcDbPoint
 10
-18.79547328527593
 20
-4.971261895502568
 30
0.0
  0
POINT
  5
F10A39
330
F10016
100
AcDbEntity
  8
Defpoints
 62
     0
100
AcDbPoint
 10
-40.79547328527593
 20
0.0287381044974353
 30
0.0
  0
POINT
  5
F10A3A
330
F10016
100
AcDbEntity
  8
Defpoints
 62
     0
100
AcDbPoint
 10
-40.79547328527593
 20
-19.97126189550256
 30
0.0
  0
ENDBLK
  5
F10042
330
F10016
100
AcDbEntity
  8
0
100
AcDbBlockEnd
  0
BLOCK
  5
F10043
330
F1001B
100
AcDbEntity
  8
0
100
AcDbBlockBegin
  2
*D6
 70
     1
 10
0.0
 20
0.0
 30
0.0
  3
*D6
  1

  0
LINE
  5
F109CE
330
F1001B
100
AcDbEntity
  8
Bemassung
 62
     0
370
    -2
100
AcDbLine
 10
-39.0277533039648
 20
16.57764317180619
 30
0.0
 11
-39.0277533039648
 21
-14.0473568281938
 31
0.0
  0
LINE
  5
F109CF
330
F1001B
100
AcDbEntity
  8
Bemassung
 62
     0
370
    -2
100
AcDbLine
 10
-75.6277533039648
 20
-14.1723568281938
 30
0.0
 11
-75.6277533039648
 21
-11.5473568281938
 31
0.0
  0
LINE
  5
F109D0
330
F1001B
100
AcDbEntity
  8
Bemassung
 62
     0
370
    -2
100
AcDbLine
 10
-41.52775330396479
 20
-12.7973568281938
 30
0.0
 11
-73.1277533039648
 21
-12.7973568281938
 31
0.0
  0
INSERT
  5
F109D1
330
F1001B
100
AcDbEntity
  8
Bemassung
 62
     0
370
    -2
100
AcDbBlockReference
  2
VDDIM_DEFAULT
 10
-39.0277533039648
 20
-12.7973568281938
 30
0.0
 41
2.5
 42
2.5
 43
2.5
  0
INSERT
  5
F109D2
330
F1001B
100
AcDbEntity
  8
Bemassung
 62
     0
370
    -2
100
AcDbBlockReference
  2
VDDIM_DEFAULT
 10
-75.6277533039648
 20
-12.7973568281938
 30
0.0
 41
2.5
 42
2.5
 43
2.5
 50
180.0
  0
MTEXT
  5
F109D3
330
F1001B
100
AcDbEntity
  8
Bemassung
 62
     0
100
AcDbMText
 10
-57.3277533039648
 20
-12.1723568281938
 30
0.0
 40
2.5
 41
0.0
 71
     8
 72
     1
  1
\A1;36.6
 73
     1
 44
1.0
1001
ACAD
1000
MTEXTBEGIN
1070
    73
1070
     1
1070
    44
1040
1.0
1070
    74
1070
     0
1000
MTEXTEND
  0
POINT
  5
F109D4
330
F1001B
100
AcDbEntity
  8
Defpoints
 62
     0
100
AcDbPoint
 10
-39.0277533039648
 20
17.20264317180619
 30
0.0
  0
POINT
  5
F109D5
330
F1001B
100
AcDbEntity
  8
Defpoints
 62
     0
100
AcDbPoint
 10
-75.6277533039648
 20
-14.7973568281938
 30
0.0
  0
POINT
  5
F109D6
330
F1001B
100
AcDbEntity
  8
Defpoints
 62
     0
100
AcDbPoint
 10
-75.6277533039648
 20
-12.7973568281938
 30
0.0
  0
ENDBLK
  5
F1004C
330
F1001B
100
AcDbEntity
  8
0
100
AcDbBlockEnd
  0
BLOCK
  5
F1004D
330
F10020
100
AcDbEntity
  8
0
100
AcDbBlockBegin
  2
*D7
 70
     1
 10
0.0
 20
0.0
 30
0.0
  3
*D7
  1

  0
LINE
  5
F10A3B
330
F10020
100
AcDbEntity
  8
Bemassung
 62
     0
370
    -2
100
AcDbLine
 10
39.20452671472407
 20
5.153738104497431
 30
0.0
 11
39.20452671472407
 21
36.27873810449744
 31
0.0
  0
LINE
  5
F10A3C
330
F10020
100
AcDbEntity
  8
Bemassung
 62
     0
370
    -2
100
AcDbLine
 10
-40.79547328527593
 20
0.6537381044974353
 30
0.0
 11
-40.79547328527593
 21
36.27873810449744
 31
0.0
  0
LINE
  5
F10A3D
330
F10020
100
AcDbEntity
  8
Bemassung
 62
     0
370
    -2
100
AcDbLine
 10
36.70452671472407
 20
35.02873810449744
 30
0.0
 11
-38.29547328527593
 21
35.02873810449744
 31
0.0
  0
INSERT
  5
F10A3E
330
F10020
100
AcDbEntity
  8
Bemassung
 62
     0
370
    -2
100
AcDbBlockReference
  2
VDDIM_DEFAULT
 10
39.20452671472407
 20
35.02873810449744
 30
0.0
 41
2.5
 42
2.5
 43
2.5
  0
INSERT
  5
F10A3F
330
F10020
100
AcDbEntity
  8
Bemassung
 62
     0
370
    -2
100
AcDbBlockReference
  2
VDDIM_DEFAULT
 10
-40.79547328527593
 20
35.02873810449744
 30
0.0
 41
2.5
 42
2.5
 43
2.5
 50
180.0
  0
MTEXT
  5
F10A40
330
F10020
100
AcDbEntity
  8
Bemassung
 62
     0
100
AcDbMText
 10
-0.7954732852759285
 20
35.65373810449744
 30
0.0
 40
2.5
 41
0.0
 71
     8
 72
     1
  1
\A1;80
 73
     1
 44
1.0
1001
ACAD
1000
MTEXTBEGIN
1070
    73
1070
     1
1070
    44
1040
1.0
1070
    74
1070
     0
1000
MTEXTEND
  0
POINT
  5
F10A41
330
F10020
100
AcDbEntity
  8
Defpoints
 62
     0
100
AcDbPoint
 10
39.20452671472407
 20
4.528738104497431
 30
0.0
  0
POINT
  5
F10A42
330
F10020
100
AcDbEntity
  8
Defpoints
 62
     0
100
AcDbPoint
 10
-40.79547328527593
 20
0.0287381044974353
 30
0.0
  0
POINT
  5
F10A43
330
F10020
100
AcDbEntity
  8
Defpoints
 62
     0
100
AcDbPoint
 10
-40.79547328527593
 20
35.02873810449744
 30
0.0
  0
ENDBLK
  5
F10056
330
F10020
100
AcDbEntity
  8
0
100
AcDbBlockEnd
  0
BLOCK
  5
F10057
330
F10007
100
AcDbEntity
  8
0
100
AcDbBlockBegin
  2
*D8
 70
     1
 10
0.0
 20
0.0
 30
0.0
  3
*D8
  1

  0
LINE
  5
F10A16
330
F10007
100
AcDbEntity
  8
Bemassung
 62
     0
370
    -2
100
AcDbLine
 10
-41.30047328527592
 20
-4.971261895502568
 30
0.0
 11
-52.04547328527593
 21
-4.971261895502564
 31
0.0
  0
LINE
  5
F10A17
330
F10007
100
AcDbEntity
  8
Bemassung
 62
     0
370
    -2
100
AcDbLine
 10
-41.30047328527592
 20
5.028738104497431
 30
0.0
 11
-52.04547328527593
 21
5.028738104497435
 31
0.0
  0
LINE
  5
F10A18
330
F10007
100
AcDbEntity
  8
Bemassung
 62
     0
370
    -2
100
AcDbLine
 10
-50.79547328527593
 20
-2.471261895502565
 30
0.0
 11
-50.79547328527593
 21
2.528738104497434
 31
0.0
  0
INSERT
  5
F10A19
330
F10007
100
AcDbEntity
  8
Bemassung
 62
     0
370
    -2
100
AcDbBlockReference
  2
VDDIM_DEFAULT
 10
-50.79547328527593
 20
-4.971261895502564
 30
0.0
 41
2.5
 42
2.5
 43
2.5
 50
270.0
  0
INSERT
  5
F10A1A
330
F10007
100
AcDbEntity
  8
Bemassung
 62
     0
370
    -2
100
AcDbBlockReference
  2
VDDIM_DEFAULT
 10
-50.79547328527593
 20
5.028738104497435
 30
0.0
 41
2.5
 42
2.5
 43
2.5
 50
90.0
  0
MTEXT
  5
F10A1B
330
F10007
100
AcDbEntity
  8
Bemassung
 62
     0
100
AcDbMText
 10
-51.42047328527593
 20
0.0287381044974271
 30
0.0
 40
2.5
 41
0.0
 71
     8
 72
     1
  1
\A1;%%c10
 11
0.0000000000000001
 21
1.0
 31
0.0
 73
     1
 44
1.0
1001
ACAD
1000
MTEXTBEGIN
1070
    73
1070
     1
1070
    44
1040
1.0
1070
    74
1070
     0
1000
MTEXTEND
  0
POINT
  5
F10A1C
330
F10007
100
AcDbEntity
  8
Defpoints
 62
     0
100
AcDbPoint
 10
-40.67547328527592
 20
-4.971261895502568
 30
0.0
  0
POINT
  5
F10A1D
330
F10007
100
AcDbEntity
  8
Defpoints
 62
     0
100
AcDbPoint
 10
-40.67547328527592
 20
5.028738104497431
 30
0.0
  0
POINT
  5
F10A1E
330
F10007
100
AcDbEntity
  8
Defpoints
 62
     0
100
AcDbPoint
 10
-50.79547328527593
 20
5.028738104497435
 30
0.0
  0
ENDBLK
  5
F10060
330
F10007
100
AcDbEntity
  8
0
100
AcDbBlockEnd
  0
BLOCK
  5
F10061
330
F10011
100
AcDbEntity
  8
0
100
AcDbBlockBegin
  2
*D9
 70
     1
 10
0.0
 20
0.0
 30
0.0
  3
*D9
  1

  0
LINE
  5
F10A28
330
F10011
100
AcDbEntity
  8
Bemassung
 62
     0
370
    -2
100
AcDbLine
 10
39.32952671472408
 20
-4.971261895502568
 30
0.0
 11
50.45452671472406
 21
-4.971261895502571
 31
0.0
  0
LINE
  5
F10A29
330
F10011
100
AcDbEntity
  8
Bemassung
 62
     0
370
    -2
100
AcDbLine
 10
39.32952671472408
 20
5.028738104497431
 30
0.0
 11
50.45452671472406
 21
5.028738104497428
 31
0.0
  0
LINE
  5
F10A2A
330
F10011
100
AcDbEntity
  8
Bemassung
 62
     0
370
    -2
100
AcDbLine
 10
49.20452671472406
 20
-2.471261895502571
 30
0.0
 11
49.20452671472406
 21
2.528738104497428
 31
0.0
  0
LINE
  5
F10A2B
330
F10011
100
AcDbEntity
  8
Bemassung
 62
     0
370
    -2
100
AcDbLine
 10
49.20452671472406
 20
5.028738104497429
 30
0.0
 11
49.20452671472407
 21
19.93324015088215
 31
0.0
  0
INSERT
  5
F10A2C
330
F10011
100
AcDbEntity
  8
Bemassung
 62
     0
370
    -2
100
AcDbBlockReference
  2
VDDIM_DEFAULT
 10
49.20452671472406
 20
-4.97126189550257
 30
0.0
 41
2.5
 42
2.5
 43
2.5
 50
270.0
  0
INSERT
  5
F10A2D
330
F10011
100
AcDbEntity
  8
Bemassung
 62
     0
370
    -2
100
AcDbBlockReference
  2
VDDIM_DEFAULT
 10
49.20452671472406
 20
5.028738104497429
 30
0.0
 41
2.5
 42
2.5
 43
2.5
 50
90.0
  0
MTEXT
  5
F10A2E
330
F10011
100
AcDbEntity
  8
Bemassung
 62
     0
100
AcDbMText
 10
48.57952671472406
 20
13.73098912768979
 30
0.0
 40
2.5
 41
0.0
 71
     8
 72
     1
  1
\A1;%%c10 h6
 11
0.0000000000000001
 21
1.0
 31
0.0
 73
     1
 44
1.0
1001
ACAD
1000
MTEXTBEGIN
1070
    73
1070
     1
1070
    44
1040
1.0
1070
    74
1070
     0
1000
MTEXTEND
  0
POINT
  5
F10A2F
330
F10011
100
AcDbEntity
  8
Defpoints
 62
     0
100
AcDbPoint
 10
38.70452671472408
 20
-4.971261895502568
 30
0.0
  0
POINT
  5
F10A30
330
F10011
100
AcDbEntity
  8
Defpoints
 62
     0
100
AcDbPoint
 10
38.70452671472408
 20
5.028738104497431
 30
0.0
  0
POINT
  5
F10A31
330
F10011
100
AcDbEntity
  8
Defpoints
 62
     0
100
AcDbPoint
 10
49.20452671472406
 20
5.028738104497429
 30
0.0
  0
ENDBLK
  5
F1006A
330
F10011
100
AcDbEntity
  8
0
100
AcDbBlockEnd
  0
BLOCK
  5
F10983
330
F10981
100
AcDbEntity
  8
0
100
AcDbBlockBegin
  2
GENAXEH
 70
     0
 10
0.0
 20
0.0
 30
0.0
  3
GENAXEH
  1

  0
LINE
  5
F10982
330
F10981
100
AcDbEntity
  8
0
100
AcDbLine
 10
-1.0
 20
0.0
 30
0.0
 11
1.0
 21
0.0
 31
0.0
  0
ENDBLK
  5
F10984
330
F10981
100
AcDbEntity
  8
0
100
AcDbBlockEnd
  0
ENDSEC
  0
SECTION
  2
ENTITIES
  0
DIMENSION
  5
F1000D
330
261
100
AcDbEntity
  8
Bemassung
100
AcDbDimension
  2
*D4
 10
39.20452671472407
 20
20.02873810449743
 30
0.0
 11
19.20452671472407
 21
21.93017057380167
 31
0.0
 70
    32
  1
<>
 71
     8
 42
40.0
  3
BEM-ISBE
100
AcDbAlignedDimension
 13
-0.7954732852759321
 23
5.028738104497431
 33
0.0
 14
39.20452671472407
 24
4.528738104497431
 34
0.0
100
AcDbRotatedDimension
1001
ACAD
1000
DSTYLE
1002
{
1070
   147
1040
0.625
1070
    72
1070
     0
1070
    71
1070
     0
1070
   284
1070
     8
1070
    78
1070
     8
1070
   144
1040
1.0
1070
    47
1040
2.0
1070
    48
1040
0.0
1002
}
  0
DIMENSION
  5
F10017
330
261
100
AcDbEntity
  8
Bemassung
100
AcDbDimension
  2
*D5
 10
-40.79547328527593
 20
-19.97126189550256
 30
0.0
 11
-29.79547328527593
 21
-18.09114593370174
 31
0.0
 70
    32
  1
<>
 71
     8
 42
22.0
  3
BEM-ISBE
100
AcDbAlignedDimension
 13
-18.79547328527593
 23
-4.971261895502568
 33
0.0
 14
-40.79547328527593
 24
0.0287381044974353
 34
0.0
100
AcDbRotatedDimension
1001
ACAD
1000
DSTYLE
1002
{
1070
   147
1040
0.625
1070
    72
1070
     0
1070
    71
1070
     0
1070
   284
1070
     8
1070
    78
1070
     8
1070
   144
1040
1.0
1070
    47
1040
1.5
1070
    48
1040
0.0
1002
}
  0
DIMENSION
  5
F10021
330
261
100
AcDbEntity
  8
Bemassung
100
AcDbDimension
  2
*D7
 10
-40.79547328527593
 20
35.02873810449744
 30
0.0
 11
-0.7954732852759285
 21
36.93017057380167
 31
0.0
 70
    32
  1
<>
 71
     8
 42
80.0
  3
BEM-ISBE
100
AcDbAlignedDimension
 13
39.20452671472407
 23
4.528738104497431
 33
0.0
 14
-40.79547328527593
 24
0.0287381044974353
 34
0.0
100
AcDbRotatedDimension
1001
ACAD
1000
DSTYLE
1002
{
1070
   147
1040
0.625
1070
    72
1070
     0
1070
    71
1070
     0
1070
   284
1070
     8
1070
    78
1070
     8
1070
   144
1040
1.0
1070
    47
1040
1.0
1070
    48
1040
0.0
1002
}
  0
DIMENSION
  5
F10008
330
261
100
AcDbEntity
  8
Bemassung
100
AcDbDimension
  2
*D8
 10
-50.79547328527593
 20
5.028738104497435
 30
0.0
 11
-52.76682389919135
 21
0.0287381044974271
 31
0.0
 70
    32
  1
%%c<>
 71
     8
 42
10.0
  3
BEM-ISBE
100
AcDbAlignedDimension
 13
-40.67547328527592
 23
-4.971261895502568
 33
0.0
 14
-40.67547328527592
 24
5.028738104497431
 34
0.0
 50
90.0
100
AcDbRotatedDimension
1001
ACAD
1000
DSTYLE
1002
{
1070
   147
1040
0.625
1070
    72
1070
     0
1070
    71
1070
     0
1070
   284
1070
     8
1070
    78
1070
     8
1070
   144
1040
1.0
1070
    47
1040
0.0
1070
    48
1040
-0.058
1002
}
  0
DIMENSION
  5
F10012
330
261
100
AcDbEntity
  8
Bemassung
100
AcDbDimension
  2
*D9
 10
49.20452671472406
 20
5.028738104497429
 30
0.0
 11
47.23317610080864
 21
13.73098912768979
 31
0.0
 70
    32
  1
%%c<> h6
 71
     8
 42
10.0
  3
BEM-ISBE
100
AcDbAlignedDimension
 13
38.70452671472408
 23
-4.971261895502568
 33
0.0
 14
38.70452671472408
 24
5.028738104497431
 34
0.0
 50
90.0
100
AcDbRotatedDimension
1001
ACAD
1000
DSTYLE
1002
{
1070
   284
1070
     8
1070
    78
1070
     8
1070
   144
1040
1.0
1070
   147
1040
0.625
1070
    72
1070
     0
1070
    71
1070
     0
1002
}
  0
LINE
  5
F1006B
330
261
100
AcDbEntity
  8
Geo
100
AcDbLine
 10
-40.79547328527593
 20
0.0287381044974318
 30
0.0
 11
-40.79547328527593
 21
4.90873810449743
 31
0.0
  0
LINE
  5
F1006D
330
261
100
AcDbEntity
  8
Geo
100
AcDbLine
 10
-40.79547328527593
 20
4.90873810449743
 30
0.0
 11
-40.67547328527592
 21
5.028738104497431
 31
0.0
  0
LINE
  5
F1006F
330
261
100
AcDbEntity
  8
Geo
100
AcDbLine
 10
-40.67547328527592
 20
5.028738104497431
 30
0.0
 11
-0.7954732852759321
 21
5.028738104497431
 31
0.0
  0
LINE
  5
F10071
330
261
100
AcDbEntity
  8
Geo
100
AcDbLine
 10
-0.7954732852759321
 20
5.028738104497431
 30
0.0
 11
14.20452671472406
 21
5.028738104497431
 31
0.0
  0
LINE
  5
F10073
330
261
100
AcDbEntity
  8
Geo
100
AcDbLine
 10
14.20452671472406
 20
5.028738104497431
 30
0.0
 11
15.70452671472406
 21
3.528738104497431
 31
0.0
  0
LINE
  5
F10075
330
261
100
AcDbEntity
  8
Geo
100
AcDbLine
 10
15.70452671472406
 20
3.528738104497431
 30
0.0
 11
22.70452671472406
 21
3.528738104497431
 31
0.0
  0
LINE
  5
F10077
330
261
100
AcDbEntity
  8
Geo
100
AcDbLine
 10
22.70452671472406
 20
3.528738104497431
 30
0.0
 11
24.20452671472406
 21
5.028738104497431
 31
0.0
  0
LINE
  5
F10079
330
261
100
AcDbEntity
  8
Geo
100
AcDbLine
 10
24.20452671472406
 20
5.028738104497431
 30
0.0
 11
38.70452671472408
 21
5.028738104497431
 31
0.0
  0
LINE
  5
F1007B
330
261
100
AcDbEntity
  8
Geo
100
AcDbLine
 10
38.70452671472408
 20
5.028738104497431
 30
0.0
 11
39.20452671472407
 21
4.528738104497431
 31
0.0
  0
LINE
  5
F1007D
330
261
100
AcDbEntity
  8
Geo
100
AcDbLine
 10
-21.99547328527593
 20
5.028695884778034
 30
0.0
 11
-21.89547328527593
 21
5.028599813562834
 31
0.0
  0
LINE
  5
F1007F
330
261
100
AcDbEntity
  8
Geo
100
AcDbLine
 10
-21.89547328527593
 20
5.028599813562834
 30
0.0
 11
-21.79547328527593
 21
5.027837101526834
 31
0.0
  0
LINE
  5
F10081
330
261
100
AcDbEntity
  8
Geo
100
AcDbLine
 10
-21.79547328527593
 20
5.027837101526834
 30
0.0
 11
-21.69547328527593
 21
5.026407850364034
 31
0.0
  0
LINE
  5
F10083
330
261
100
AcDbEntity
  8
Geo
100
AcDbLine
 10
-21.69547328527593
 20
5.026407850364034
 30
0.0
 11
-21.59547328527594
 21
5.024312250638931
 31
0.0
  0
LINE
  5
F10085
330
261
100
AcDbEntity
  8
Geo
100
AcDbLine
 10
-21.59547328527594
 20
5.024312250638931
 30
0.0
 11
-21.49547328527594
 21
5.021550581761935
 31
0.0
  0
LINE
  5
F10087
330
261
100
AcDbEntity
  8
Geo
100
AcDbLine
 10
-21.49547328527594
 20
5.021550581761935
 30
0.0
 11
-21.39547328527593
 21
5.018123211951234
 31
0.0
  0
LINE
  5
F10089
330
261
100
AcDbEntity
  8
Geo
100
AcDbLine
 10
-21.39547328527593
 20
5.018123211951234
 30
0.0
 11
-21.29547328527593
 21
5.014030598184632
 31
0.0
  0
LINE
  5
F1008B
330
261
100
AcDbEntity
  8
Geo
100
AcDbLine
 10
-21.29547328527593
 20
5.014030598184632
 30
0.0
 11
-21.19547328527593
 21
5.00927328613773
 31
0.0
  0
LINE
  5
F1008D
330
261
100
AcDbEntity
  8
Geo
100
AcDbLine
 10
-21.19547328527593
 20
5.00927328613773
 30
0.0
 11
-21.09547328527594
 21
5.003851910111837
 31
0.0
  0
LINE
  5
F1008F
330
261
100
AcDbEntity
  8
Geo
100
AcDbLine
 10
-21.09547328527594
 20
5.003851910111837
 30
0.0
 11
-20.99547328527593
 21
4.997767192949034
 31
0.0
  0
LINE
  5
F10091
330
261
100
AcDbEntity
  8
Geo
100
AcDbLine
 10
-20.99547328527593
 20
4.997767192949034
 30
0.0
 11
-20.89547328527594
 21
4.991019945935935
 31
0.0
  0
LINE
  5
F10093
330
261
100
AcDbEntity
  8
Geo
100
AcDbLine
 10
-20.89547328527594
 20
4.991019945935935
 30
0.0
 11
-20.79547328527593
 21
4.983611068695434
 31
0.0
  0
LINE
  5
F10095
330
261
100
AcDbEntity
  8
Geo
100
AcDbLine
 10
-20.79547328527593
 20
4.983611068695434
 30
0.0
 11
-20.69547328527593
 21
4.975541549066932
 31
0.0
  0
LINE
  5
F10097
330
261
100
AcDbEntity
  8
Geo
100
AcDbLine
 10
-20.69547328527593
 20
4.975541549066932
 30
0.0
 11
-20.59547328527594
 21
4.966812462974431
 31
0.0
  0
LINE
  5
F10099
330
261
100
AcDbEntity
  8
Geo
100
AcDbLine
 10
-20.59547328527594
 20
4.966812462974431
 30
0.0
 11
-20.49547328527594
 21
4.957424974283036
 31
0.0
  0
LINE
  5
F1009B
330
261
100
AcDbEntity
  8
Geo
100
AcDbLine
 10
-20.49547328527594
 20
4.957424974283036
 30
0.0
 11
-20.39547328527593
 21
4.947380334644034
 31
0.0
  0
LINE
  5
F1009D
330
261
100
AcDbEntity
  8
Geo
100
AcDbLine
 10
-20.39547328527593
 20
4.947380334644034
 30
0.0
 11
-20.29547328527593
 21
4.936679883327936
 31
0.0
  0
LINE
  5
F1009F
330
261
100
AcDbEntity
  8
Geo
100
AcDbLine
 10
-20.29547328527593
 20
4.936679883327936
 30
0.0
 11
-20.19547328527593
 21
4.925325047045635
 31
0.0
  0
LINE
  5
F100A1
330
261
100
AcDbEntity
  8
Geo
100
AcDbLine
 10
-20.19547328527593
 20
4.925325047045635
 30
0.0
 11
-20.09547328527593
 21
4.913317339758432
 31
0.0
  0
LINE
  5
F100A3
330
261
100
AcDbEntity
  8
Geo
100
AcDbLine
 10
-20.09547328527593
 20
4.913317339758432
 30
0.0
 11
-19.99547328527593
 21
4.900658362476232
 31
0.0
  0
LINE
  5
F100A5
330
261
100
AcDbEntity
  8
Geo
100
AcDbLine
 10
-19.99547328527593
 20
4.900658362476232
 30
0.0
 11
-19.89547328527593
 21
4.887349803044035
 31
0.0
  0
LINE
  5
F100A7
330
261
100
AcDbEntity
  8
Geo
100
AcDbLine
 10
-19.89547328527593
 20
4.887349803044035
 30
0.0
 11
-19.79547328527593
 21
4.873393435916536
 31
0.0
  0
LINE
  5
F100A9
330
261
100
AcDbEntity
  8
Geo
100
AcDbLine
 10
-19.79547328527593
 20
4.873393435916536
 30
0.0
 11
-19.69547328527593
 21
4.858791121922134
 31
0.0
  0
LINE
  5
F100AB
330
261
100
AcDbEntity
  8
Geo
100
AcDbLine
 10
-19.69547328527593
 20
4.858791121922134
 30
0.0
 11
-19.59547328527593
 21
4.843544808014332
 31
0.0
  0
LINE
  5
F100AD
330
261
100
AcDbEntity
  8
Geo
100
AcDbLine
 10
-19.59547328527593
 20
4.843544808014332
 30
0.0
 11
-19.49547328527593
 21
4.827656527012337
 31
0.0
  0
LINE
  5
F100AF
330
261
100
AcDbEntity
  8
Geo
100
AcDbLine
 10
-19.49547328527593
 20
4.827656527012337
 30
0.0
 11
-19.39547328527593
 21
4.811128397330236
 31
0.0
  0
LINE
  5
F100B1
330
261
100
AcDbEntity
  8
Geo
100
AcDbLine
 10
-19.39547328527593
 20
4.811128397330236
 30
0.0
 11
-19.29547328527593
 21
4.793962622694031
 31
0.0
  0
LINE
  5
F100B3
330
261
100
AcDbEntity
  8
Geo
100
AcDbLine
 10
-19.29547328527593
 20
4.793962622694031
 30
0.0
 11
-19.19547328527593
 21
4.776161491848334
 31
0.0
  0
LINE
  5
F100B5
330
261
100
AcDbEntity
  8
Geo
100
AcDbLine
 10
-19.19547328527593
 20
4.776161491848334
 30
0.0
 11
-19.09547328527593
 21
4.757727378250834
 31
0.0
  0
LINE
  5
F100B7
330
261
100
AcDbEntity
  8
Geo
100
AcDbLine
 10
-19.09547328527593
 20
4.757727378250834
 30
0.0
 11
-18.99547328527593
 21
4.738662739756033
 31
0.0
  0
LINE
  5
F100B9
330
261
100
AcDbEntity
  8
Geo
100
AcDbLine
 10
-18.99547328527593
 20
4.738662739756033
 30
0.0
 11
-18.89547328527593
 21
4.718970118287533
 31
0.0
  0
LINE
  5
F100BB
330
261
100
AcDbEntity
  8
Geo
100
AcDbLine
 10
-18.89547328527593
 20
4.718970118287533
 30
0.0
 11
-18.79547328527593
 21
4.698652139498932
 31
0.0
  0
LINE
  5
F100BD
330
261
100
AcDbEntity
  8
Geo
100
AcDbLine
 10
-18.79547328527593
 20
4.698652139498932
 30
0.0
 11
-18.79547328527593
 21
4.698652139498932
 31
0.0
  0
LINE
  5
F100BF
330
261
100
AcDbEntity
  8
Geo
100
AcDbLine
 10
-18.79547328527593
 20
4.698652139498932
 30
0.0
 11
-18.69547328527593
 21
4.641652309339335
 31
0.0
  0
LINE
  5
F100C1
330
261
100
AcDbEntity
  8
Geo
100
AcDbLine
 10
-18.69547328527593
 20
4.641652309339335
 30
0.0
 11
-18.59547328527593
 21
4.580665888821833
 31
0.0
  0
LINE
  5
F100C3
330
261
100
AcDbEntity
  8
Geo
100
AcDbLine
 10
-18.59547328527593
 20
4.580665888821833
 30
0.0
 11
-18.49547328527593
 21
4.515821527446629
 31
0.0
  0
LINE
  5
F100C5
330
261
100
AcDbEntity
  8
Geo
100
AcDbLine
 10
-18.49547328527593
 20
4.515821527446629
 30
0.0
 11
-18.39547328527593
 21
4.447249403578336
 31
0.0
  0
LINE
  5
F100C7
330
261
100
AcDbEntity
  8
Geo
100
AcDbLine
 10
-18.39547328527593
 20
4.447249403578336
 30
0.0
 11
-18.29547328527593
 21
4.37508098180843
 31
0.0
  0
LINE
  5
F100C9
330
261
100
AcDbEntity
  8
Geo
100
AcDbLine
 10
-18.29547328527593
 20
4.37508098180843
 30
0.0
 11
-18.19547328527593
 21
4.299448776889231
 31
0.0
  0
LINE
  5
F100CB
330
261
100
AcDbEntity
  8
Geo
100
AcDbLine
 10
-18.19547328527593
 20
4.299448776889231
 30
0.0
 11
-18.09547328527593
 21
4.220486124427932
 31
0.0
  0
LINE
  5
F100CD
330
261
100
AcDbEntity
  8
Geo
100
AcDbLine
 10
-18.09547328527593
 20
4.220486124427932
 30
0.0
 11
-17.99547328527593
 21
4.138326958505533
 31
0.0
  0
LINE
  5
F100CF
330
261
100
AcDbEntity
  8
Geo
100
AcDbLine
 10
-17.99547328527593
 20
4.138326958505533
 30
0.0
 11
-17.89547328527593
 21
4.053105596366432
 31
0.0
  0
LINE
  5
F100D1
330
261
100
AcDbEntity
  8
Geo
100
AcDbLine
 10
-17.89547328527593
 20
4.053105596366432
 30
0.0
 11
-17.79547328527593
 21
3.964956530298731
 31
0.0
  0
LINE
  5
F100D3
330
261
100
AcDbEntity
  8
Geo
100
AcDbLine
 10
-17.79547328527593
 20
3.964956530298731
 30
0.0
 11
-17.69547328527593
 21
3.874014226808835
 31
0.0
  0
LINE
  5
F100D5
330
261
100
AcDbEntity
  8
Geo
100
AcDbLine
 10
-17.69547328527593
 20
3.874014226808835
 30
0.0
 11
-17.59547328527593
 21
3.780412933170431
 31
0.0
  0
LINE
  5
F100D7
330
261
100
AcDbEntity
  8
Geo
100
AcDbLine
 10
-17.59547328527593
 20
3.780412933170431
 30
0.0
 11
-17.49547328527593
 21
3.684286491413033
 31
0.0
  0
LINE
  5
F100D9
330
261
100
AcDbEntity
  8
Geo
100
AcDbLine
 10
-17.49547328527593
 20
3.684286491413033
 30
0.0
 11
-17.39547328527593
 21
3.585768159791232
 31
0.0
  0
LINE
  5
F100DB
330
261
100
AcDbEntity
  8
Geo
100
AcDbLine
 10
-17.39547328527593
 20
3.585768159791232
 30
0.0
 11
-17.29547328527593
 21
3.484990441764633
 31
0.0
  0
LINE
  5
F100DD
330
261
100
AcDbEntity
  8
Geo
100
AcDbLine
 10
-17.29547328527593
 20
3.484990441764633
 30
0.0
 11
-17.19547328527593
 21
3.382084922496336
 31
0.0
  0
LINE
  5
F100DF
330
261
100
AcDbEntity
  8
Geo
100
AcDbLine
 10
-17.19547328527593
 20
3.382084922496336
 30
0.0
 11
-17.09547328527593
 21
3.277182112865038
 31
0.0
  0
LINE
  5
F100E1
330
261
100
AcDbEntity
  8
Geo
100
AcDbLine
 10
-17.09547328527593
 20
3.277182112865038
 30
0.0
 11
-16.99547328527593
 21
3.170411300969433
 31
0.0
  0
LINE
  5
F100E3
330
261
100
AcDbEntity
  8
Geo
100
AcDbLine
 10
-16.99547328527593
 20
3.170411300969433
 30
0.0
 11
-16.89547328527593
 21
3.061900411089432
 31
0.0
  0
LINE
  5
F100E5
330
261
100
AcDbEntity
  8
Geo
100
AcDbLine
 10
-16.89547328527593
 20
3.061900411089432
 30
0.0
 11
-16.79547328527593
 21
2.951775870054234
 31
0.0
  0
LINE
  5
F100E7
330
261
100
AcDbEntity
  8
Geo
100
AcDbLine
 10
-16.79547328527593
 20
2.951775870054234
 30
0.0
 11
-16.69547328527593
 21
2.840162480957236
 31
0.0
  0
LINE
  5
F100E9
330
261
100
AcDbEntity
  8
Geo
100
AcDbLine
 10
-16.69547328527593
 20
2.840162480957236
 30
0.0
 11
-16.59547328527593
 21
2.727183304140336
 31
0.0
  0
LINE
  5
F100EB
330
261
100
AcDbEntity
  8
Geo
100
AcDbLine
 10
-16.59547328527593
 20
2.727183304140336
 30
0.0
 11
-16.49547328527593
 21
2.612959545365932
 31
0.0
  0
LINE
  5
F100ED
330
261
100
AcDbEntity
  8
Geo
100
AcDbLine
 10
-16.49547328527593
 20
2.612959545365932
 30
0.0
 11
-16.39547328527593
 21
2.497610451076834
 31
0.0
  0
LINE
  5
F100EF
330
261
100
AcDbEntity
  8
Geo
100
AcDbLine
 10
-16.39547328527593
 20
2.497610451076834
 30
0.0
 11
-16.29547328527593
 21
2.381253210640835
 31
0.0
  0
LINE
  5
F100F1
330
261
100
AcDbEntity
  8
Geo
100
AcDbLine
 10
-16.29547328527593
 20
2.381253210640835
 30
0.0
 11
-16.19547328527593
 21
2.26400286546373
 31
0.0
  0
LINE
  5
F100F3
330
261
100
AcDbEntity
  8
Geo
100
AcDbLine
 10
-16.19547328527593
 20
2.26400286546373
 30
0.0
 11
-16.09547328527593
 21
2.14597222484593
 31
0.0
  0
LINE
  5
F100F5
330
261
100
AcDbEntity
  8
Geo
100
AcDbLine
 10
-16.09547328527593
 20
2.14597222484593
 30
0.0
 11
-15.99547328527593
 21
2.027271788453834
 31
0.0
  0
LINE
  5
F100F7
330
261
100
AcDbEntity
  8
Geo
100
AcDbLine
 10
-15.99547328527593
 20
2.027271788453834
 30
0.0
 11
-15.89547328527593
 21
1.908009675264935
 31
0.0
  0
LINE
  5
F100F9
330
261
100
AcDbEntity
  8
Geo
100
AcDbLine
 10
-15.89547328527593
 20
1.908009675264935
 30
0.0
 11
-15.79547328527593
 21
1.788291558843432
 31
0.0
  0
LINE
  5
F100FB
330
261
100
AcDbEntity
  8
Geo
100
AcDbLine
 10
-15.79547328527593
 20
1.788291558843432
 30
0.0
 11
-15.69547328527593
 21
1.668220608793632
 31
0.0
  0
LINE
  5
F100FD
330
261
100
AcDbEntity
  8
Geo
100
AcDbLine
 10
-15.69547328527593
 20
1.668220608793632
 30
0.0
 11
-15.59547328527593
 21
1.547897438237733
 31
0.0
  0
LINE
  5
F100FF
330
261
100
AcDbEntity
  8
Geo
100
AcDbLine
 10
-15.59547328527593
 20
1.547897438237733
 30
0.0
 11
-15.49547328527593
 21
1.427420057154336
 31
0.0
  0
LINE
  5
F10101
330
261
100
AcDbEntity
  8
Geo
100
AcDbLine
 10
-15.49547328527593
 20
1.427420057154336
 30
0.0
 11
-15.39547328527593
 21
1.306883831414836
 31
0.0
  0
LINE
  5
F10103
330
261
100
AcDbEntity
  8
Geo
100
AcDbLine
 10
-15.39547328527593
 20
1.306883831414836
 30
0.0
 11
-15.29547328527584
 21
1.186381447349532
 31
0.0
  0
LINE
  5
F10105
330
261
100
AcDbEntity
  8
Geo
100
AcDbLine
 10
-15.29547328527584
 20
1.186381447349532
 30
0.0
 11
-15.19547328527584
 21
1.066002881670534
 31
0.0
  0
LINE
  5
F10107
330
261
100
AcDbEntity
  8
Geo
100
AcDbLine
 10
-15.19547328527584
 20
1.066002881670534
 30
0.0
 11
-15.09547328527584
 21
0.9458353765799323
 31
0.0
  0
LINE
  5
F10109
330
261
100
AcDbEntity
  8
Geo
100
AcDbLine
 10
-15.09547328527584
 20
0.9458353765799323
 30
0.0
 11
-14.99547328527583
 21
0.8259634198862357
 31
0.0
  0
LINE
  5
F1010B
330
261
100
AcDbEntity
  8
Geo
100
AcDbLine
 10
-14.99547328527583
 20
0.8259634198862357
 30
0.0
 11
-14.89547328527584
 21
0.7064687299516344
 31
0.0
  0
LINE
  5
F1010D
330
261
100
AcDbEntity
  8
Geo
100
AcDbLine
 10
-14.89547328527584
 20
0.7064687299516344
 30
0.0
 11
-14.79547328527584
 21
0.587430245293934
 31
0.0
  0
LINE
  5
F1010F
330
261
100
AcDbEntity
  8
Geo
100
AcDbLine
 10
-14.79547328527584
 20
0.587430245293934
 30
0.0
 11
-14.69547328527584
 21
0.468924118661537
 31
0.0
  0
LINE
  5
F10111
330
261
100
AcDbEntity
  8
Geo
100
AcDbLine
 10
-14.69547328527584
 20
0.468924118661537
 30
0.0
 11
-14.59547328527583
 21
0.3510237154049349
 31
0.0
  0
LINE
  5
F10113
330
261
100
AcDbEntity
  8
Geo
100
AcDbLine
 10
-14.59547328527583
 20
0.3510237154049349
 30
0.0
 11
-14.49547328527583
 21
0.2337996159641342
 31
0.0
  0
LINE
  5
F10115
330
261
100
AcDbEntity
  8
Geo
100
AcDbLine
 10
-14.49547328527583
 20
0.2337996159641342
 30
0.0
 11
-14.39547328527584
 21
0.1173196222950352
 31
0.0
  0
LINE
  5
F10117
330
261
100
AcDbEntity
  8
Geo
100
AcDbLine
 10
-14.39547328527584
 20
0.1173196222950352
 30
0.0
 11
-14.29547328527584
 21
0.0016487680559329
 31
0.0
  0
LINE
  5
F10119
330
261
100
AcDbEntity
  8
Geo
100
AcDbLine
 10
-14.29547328527584
 20
0.0016487680559329
 30
0.0
 11
-14.19547328527584
 21
-0.113150667621067
 31
0.0
  0
LINE
  5
F1011B
330
261
100
AcDbEntity
  8
Geo
100
AcDbLine
 10
-14.19547328527584
 20
-0.113150667621067
 30
0.0
 11
-14.09547328527583
 21
-0.2270191429479667
 31
0.0
  0
LINE
  5
F1011D
330
261
100
AcDbEntity
  8
Geo
100
AcDbLine
 10
-14.09547328527583
 20
-0.2270191429479667
 30
0.0
 11
-13.99547328527583
 21
-0.3398998330634662
 31
0.0
  0
LINE
  5
F1011F
330
261
100
AcDbEntity
  8
Geo
100
AcDbLine
 10
-13.99547328527583
 20
-0.3398998330634662
 30
0.0
 11
-13.89547328527584
 21
-0.4517386065475684
 31
0.0
  0
LINE
  5
F10121
330
261
100
AcDbEntity
  8
Geo
100
AcDbLine
 10
-13.89547328527584
 20
-0.4517386065475684
 30
0.0
 11
-13.79547328527584
 21
-0.5624839990401683
 31
0.0
  0
LINE
  5
F10123
330
261
100
AcDbEntity
  8
Geo
100
AcDbLine
 10
-13.79547328527584
 20
-0.5624839990401683
 30
0.0
 11
-13.69547328527584
 21
-0.672087184127264
 31
0.0
  0
LINE
  5
F10125
330
261
100
AcDbEntity
  8
Geo
100
AcDbLine
 10
-13.69547328527584
 20
-0.672087184127264
 30
0.0
 11
-13.59547328527584
 21
-0.7805019416590647
 31
0.0
  0
LINE
  5
F10127
330
261
100
AcDbEntity
  8
Geo
100
AcDbLine
 10
-13.59547328527584
 20
-0.7805019416590647
 30
0.0
 11
-13.49547328527583
 21
-0.8876846236604656
 31
0.0
  0
LINE
  5
F10129
330
261
100
AcDbEntity
  8
Geo
100
AcDbLine
 10
-13.49547328527583
 20
-0.8876846236604656
 30
0.0
 11
-13.39547328527584
 21
-0.9935941179905682
 31
0.0
  0
LINE
  5
F1012B
330
261
100
AcDbEntity
  8
Geo
100
AcDbLine
 10
-13.39547328527584
 20
-0.9935941179905682
 30
0.0
 11
-13.29547328527584
 21
-1.098191809905266
 31
0.0
  0
LINE
  5
F1012D
330
261
100
AcDbEntity
  8
Geo
100
AcDbLine
 10
-13.29547328527584
 20
-1.098191809905266
 30
0.0
 11
-13.19547328527584
 21
-1.201441541674366
 31
0.0
  0
LINE
  5
F1012F
330
261
100
AcDbEntity
  8
Geo
100
AcDbLine
 10
-13.19547328527584
 20
-1.201441541674366
 30
0.0
 11
-13.09547328527584
 21
-1.303309570398266
 31
0.0
  0
LINE
  5
F10131
330
261
100
AcDbEntity
  8
Geo
100
AcDbLine
 10
-13.09547328527584
 20
-1.303309570398266
 30
0.0
 11
-12.99547328527583
 21
-1.403764524169464
 31
0.0
  0
LINE
  5
F10133
330
261
100
AcDbEntity
  8
Geo
100
AcDbLine
 10
-12.99547328527583
 20
-1.403764524169464
 30
0.0
 11
-12.89547328527584
 21
-1.502777356717064
 31
0.0
  0
LINE
  5
F10135
330
261
100
AcDbEntity
  8
Geo
100
AcDbLine
 10
-12.89547328527584
 20
-1.502777356717064
 30
0.0
 11
-12.79547328527584
 21
-1.600321300670767
 31
0.0
  0
LINE
  5
F10137
330
261
100
AcDbEntity
  8
Geo
100
AcDbLine
 10
-12.79547328527584
 20
-1.600321300670767
 30
0.0
 11
-12.69547328527584
 21
-1.696371819575265
 31
0.0
  0
LINE
  5
F10139
330
261
100
AcDbEntity
  8
Geo
100
AcDbLine
 10
-12.69547328527584
 20
-1.696371819575265
 30
0.0
 11
-12.59547328527583
 21
-1.790906558783369
 31
0.0
  0
LINE
  5
F1013B
330
261
100
AcDbEntity
  8
Geo
100
AcDbLine
 10
-12.59547328527583
 20
-1.790906558783369
 30
0.0
 11
-12.49547328527583
 21
-1.883905295350967
 31
0.0
  0
LINE
  5
F1013D
330
261
100
AcDbEntity
  8
Geo
100
AcDbLine
 10
-12.49547328527583
 20
-1.883905295350967
 30
0.0
 11
-12.39547328527584
 21
-1.975349887054466
 31
0.0
  0
LINE
  5
F1013F
330
261
100
AcDbEntity
  8
Geo
100
AcDbLine
 10
-12.39547328527584
 20
-1.975349887054466
 30
0.0
 11
-12.29547328527584
 21
-2.065224220644367
 31
0.0
  0
LINE
  5
F10141
330
261
100
AcDbEntity
  8
Geo
100
AcDbLine
 10
-12.29547328527584
 20
-2.065224220644367
 30
0.0
 11
-12.19547328527584
 21
-2.153514159448164
 31
0.0
  0
LINE
  5
F10143
330
261
100
AcDbEntity
  8
Geo
100
AcDbLine
 10
-12.19547328527584
 20
-2.153514159448164
 30
0.0
 11
-12.09547328527583
 21
-2.240207490428165
 31
0.0
  0
LINE
  5
F10145
330
261
100
AcDbEntity
  8
Geo
100
AcDbLine
 10
-12.09547328527583
 20
-2.240207490428165
 30
0.0
 11
-11.99547328527583
 21
-2.325293870798663
 31
0.0
  0
LINE
  5
F10147
330
261
100
AcDbEntity
  8
Geo
100
AcDbLine
 10
-11.99547328527583
 20
-2.325293870798663
 30
0.0
 11
-11.89547328527584
 21
-2.408764774299868
 31
0.0
  0
LINE
  5
F10149
330
261
100
AcDbEntity
  8
Geo
100
AcDbLine
 10
-11.89547328527584
 20
-2.408764774299868
 30
0.0
 11
-11.79547328527584
 21
-2.490613437224865
 31
0.0
  0
LINE
  5
F1014B
330
261
100
AcDbEntity
  8
Geo
100
AcDbLine
 10
-11.79547328527584
 20
-2.490613437224865
 30
0.0
 11
-11.69547328527584
 21
-2.570834804289368
 31
0.0
  0
LINE
  5
F1014D
330
261
100
AcDbEntity
  8
Geo
100
AcDbLine
 10
-11.69547328527584
 20
-2.570834804289368
 30
0.0
 11
-11.59547328527583
 21
-2.649425474430366
 31
0.0
  0
LINE
  5
F1014F
330
261
100
AcDbEntity
  8
Geo
100
AcDbLine
 10
-11.59547328527583
 20
-2.649425474430366
 30
0.0
 11
-11.49547328527583
 21
-2.726383646618163
 31
0.0
  0
LINE
  5
F10151
330
261
100
AcDbEntity
  8
Geo
100
AcDbLine
 10
-11.49547328527583
 20
-2.726383646618163
 30
0.0
 11
-11.39547328527584
 21
-2.801709065758366
 31
0.0
  0
LINE
  5
F10153
330
261
100
AcDbEntity
  8
Geo
100
AcDbLine
 10
-11.39547328527584
 20
-2.801709065758366
 30
0.0
 11
-11.29547328527584
 21
-2.875402968760067
 31
0.0
  0
LINE
  5
F10155
330
261
100
AcDbEntity
  8
Geo
100
AcDbLine
 10
-11.29547328527584
 20
-2.875402968760067
 30
0.0
 11
-11.19547328527584
 21
-2.947468030839566
 31
0.0
  0
LINE
  5
F10157
330
261
100
AcDbEntity
  8
Geo
100
AcDbLine
 10
-11.19547328527584
 20
-2.947468030839566
 30
0.0
 11
-11.09547328527583
 21
-3.017908312128767
 31
0.0
  0
LINE
  5
F10159
330
261
100
AcDbEntity
  8
Geo
100
AcDbLine
 10
-11.09547328527583
 20
-3.017908312128767
 30
0.0
 11
-10.99547328527583
 21
-3.086729204649266
 31
0.0
  0
LINE
  5
F1015B
330
261
100
AcDbEntity
  8
Geo
100
AcDbLine
 10
-10.99547328527583
 20
-3.086729204649266
 30
0.0
 11
-10.89547328527584
 21
-3.153937379713465
 31
0.0
  0
LINE
  5
F1015D
330
261
100
AcDbEntity
  8
Geo
100
AcDbLine
 10
-10.89547328527584
 20
-3.153937379713465
 30
0.0
 11
-10.79547328527584
 21
-3.219540735807967
 31
0.0
  0
LINE
  5
F1015F
330
261
100
AcDbEntity
  8
Geo
100
AcDbLine
 10
-10.79547328527584
 20
-3.219540735807967
 30
0.0
 11
-10.69547328527584
 21
-3.283548347011766
 31
0.0
  0
LINE
  5
F10161
330
261
100
AcDbEntity
  8
Geo
100
AcDbLine
 10
-10.69547328527584
 20
-3.283548347011766
 30
0.0
 11
-10.59547328527584
 21
-3.345970411999068
 31
0.0
  0
LINE
  5
F10163
330
261
100
AcDbEntity
  8
Geo
100
AcDbLine
 10
-10.59547328527584
 20
-3.345970411999068
 30
0.0
 11
-10.49547328527583
 21
-3.406818203671463
 31
0.0
  0
LINE
  5
F10165
330
261
100
AcDbEntity
  8
Geo
100
AcDbLine
 10
-10.49547328527583
 20
-3.406818203671463
 30
0.0
 11
-10.39547328527584
 21
-3.466104019462868
 31
0.0
  0
LINE
  5
F10167
330
261
100
AcDbEntity
  8
Geo
100
AcDbLine
 10
-10.39547328527584
 20
-3.466104019462868
 30
0.0
 11
-10.29547328527584
 21
-3.523841132355666
 31
0.0
  0
LINE
  5
F10169
330
261
100
AcDbEntity
  8
Geo
100
AcDbLine
 10
-10.29547328527584
 20
-3.523841132355666
 30
0.0
 11
-10.19547328527584
 21
-3.580043742645166
 31
0.0
  0
LINE
  5
F1016B
330
261
100
AcDbEntity
  8
Geo
100
AcDbLine
 10
-10.19547328527584
 20
-3.580043742645166
 30
0.0
 11
-10.09547328527583
 21
-3.634726930484767
 31
0.0
  0
LINE
  5
F1016D
330
261
100
AcDbEntity
  8
Geo
100
AcDbLine
 10
-10.09547328527583
 20
-3.634726930484767
 30
0.0
 11
-9.995473285275835
 21
-3.687906609243068
 31
0.0
  0
LINE
  5
F1016F
330
261
100
AcDbEntity
  8
Geo
100
AcDbLine
 10
-9.995473285275835
 20
-3.687906609243068
 30
0.0
 11
-9.895473285275841
 21
-3.739599479699165
 31
0.0
  0
LINE
  5
F10171
330
261
100
AcDbEntity
  8
Geo
100
AcDbLine
 10
-9.895473285275841
 20
-3.739599479699165
 30
0.0
 11
-9.795473285275839
 21
-3.789822985102365
 31
0.0
  0
LINE
  5
F10173
330
261
100
AcDbEntity
  8
Geo
100
AcDbLine
 10
-9.795473285275839
 20
-3.789822985102365
 30
0.0
 11
-9.695473285275838
 21
-3.838595267116666
 31
0.0
  0
LINE
  5
F10175
330
261
100
AcDbEntity
  8
Geo
100
AcDbLine
 10
-9.695473285275838
 20
-3.838595267116666
 30
0.0
 11
-9.595473285275836
 21
-3.885935122672368
 31
0.0
  0
LINE
  5
F10177
330
261
100
AcDbEntity
  8
Geo
100
AcDbLine
 10
-9.595473285275836
 20
-3.885935122672368
 30
0.0
 11
-9.495473285275835
 21
-3.931861961738064
 31
0.0
  0
LINE
  5
F10179
330
261
100
AcDbEntity
  8
Geo
100
AcDbLine
 10
-9.495473285275835
 20
-3.931861961738064
 30
0.0
 11
-9.395473285275841
 21
-3.976395766032066
 31
0.0
  0
LINE
  5
F1017B
330
261
100
AcDbEntity
  8
Geo
100
AcDbLine
 10
-9.395473285275841
 20
-3.976395766032066
 30
0.0
 11
-9.295473285275839
 21
-4.019557048682266
 31
0.0
  0
LINE
  5
F1017D
330
261
100
AcDbEntity
  8
Geo
100
AcDbLine
 10
-9.295473285275839
 20
-4.019557048682266
 30
0.0
 11
-9.195473285275838
 21
-4.061366814847367
 31
0.0
  0
LINE
  5
F1017F
330
261
100
AcDbEntity
  8
Geo
100
AcDbLine
 10
-9.195473285275838
 20
-4.061366814847367
 30
0.0
 11
-9.095473285275836
 21
-4.101846523305869
 31
0.0
  0
LINE
  5
F10181
330
261
100
AcDbEntity
  8
Geo
100
AcDbLine
 10
-9.095473285275836
 20
-4.101846523305869
 30
0.0
 11
-8.995473285275835
 21
-4.141018049020566
 31
0.0
  0
LINE
  5
F10183
330
261
100
AcDbEntity
  8
Geo
100
AcDbLine
 10
-8.995473285275835
 20
-4.141018049020566
 30
0.0
 11
-8.895473285275841
 21
-4.178903646682663
 31
0.0
  0
LINE
  5
F10185
330
261
100
AcDbEntity
  8
Geo
100
AcDbLine
 10
-8.895473285275841
 20
-4.178903646682663
 30
0.0
 11
-8.795473285275839
 21
-4.215525915237066
 31
0.0
  0
LINE
  5
F10187
330
261
100
AcDbEntity
  8
Geo
100
AcDbLine
 10
-8.795473285275839
 20
-4.215525915237066
 30
0.0
 11
-8.695473285275838
 21
-4.250907763391165
 31
0.0
  0
LINE
  5
F10189
330
261
100
AcDbEntity
  8
Geo
100
AcDbLine
 10
-8.695473285275838
 20
-4.250907763391165
 30
0.0
 11
-8.595473285275836
 21
-4.285072376106164
 31
0.0
  0
LINE
  5
F1018B
330
261
100
AcDbEntity
  8
Geo
100
AcDbLine
 10
-8.595473285275836
 20
-4.285072376106164
 30
0.0
 11
-8.495473285275835
 21
-4.318043182067366
 31
0.0
  0
LINE
  5
F1018D
330
261
100
AcDbEntity
  8
Geo
100
AcDbLine
 10
-8.495473285275835
 20
-4.318043182067366
 30
0.0
 11
-8.395473285275841
 21
-4.349843822131266
 31
0.0
  0
LINE
  5
F1018F
330
261
100
AcDbEntity
  8
Geo
100
AcDbLine
 10
-8.395473285275841
 20
-4.349843822131266
 30
0.0
 11
-8.295473285275839
 21
-4.380498118743865
 31
0.0
  0
LINE
  5
F10191
330
261
100
AcDbEntity
  8
Geo
100
AcDbLine
 10
-8.295473285275839
 20
-4.380498118743865
 30
0.0
 11
-8.195473285275745
 21
-4.410030046322766
 31
0.0
  0
LINE
  5
F10193
330
261
100
AcDbEntity
  8
Geo
100
AcDbLine
 10
-8.195473285275745
 20
-4.410030046322766
 30
0.0
 11
-8.095473285275737
 21
-4.438463702597164
 31
0.0
  0
LINE
  5
F10195
330
261
100
AcDbEntity
  8
Geo
100
AcDbLine
 10
-8.095473285275737
 20
-4.438463702597164
 30
0.0
 11
-7.995473285275735
 21
-4.465823280894763
 31
0.0
  0
LINE
  5
F10197
330
261
100
AcDbEntity
  8
Geo
100
AcDbLine
 10
-7.995473285275735
 20
-4.465823280894763
 30
0.0
 11
-7.895473285275734
 21
-4.492133043367964
 31
0.0
  0
LINE
  5
F10199
330
261
100
AcDbEntity
  8
Geo
100
AcDbLine
 10
-7.895473285275734
 20
-4.492133043367964
 30
0.0
 11
-7.79547328527574
 21
-4.517417295146465
 31
0.0
  0
LINE
  5
F1019B
330
261
100
AcDbEntity
  8
Geo
100
AcDbLine
 10
-7.79547328527574
 20
-4.517417295146465
 30
0.0
 11
-7.695473285275738
 21
-4.541700359405766
 31
0.0
  0
LINE
  5
F1019D
330
261
100
AcDbEntity
  8
Geo
100
AcDbLine
 10
-7.695473285275738
 20
-4.541700359405766
 30
0.0
 11
-7.595473285275737
 21
-4.565006553337369
 31
0.0
  0
LINE
  5
F1019F
330
261
100
AcDbEntity
  8
Geo
100
AcDbLine
 10
-7.595473285275737
 20
-4.565006553337369
 30
0.0
 11
-7.495473285275735
 21
-4.587360165009464
 31
0.0
  0
LINE
  5
F101A1
330
261
100
AcDbEntity
  8
Geo
100
AcDbLine
 10
-7.495473285275735
 20
-4.587360165009464
 30
0.0
 11
-7.395473285275734
 21
-4.608785431100667
 31
0.0
  0
LINE
  5
F101A3
330
261
100
AcDbEntity
  8
Geo
100
AcDbLine
 10
-7.395473285275734
 20
-4.608785431100667
 30
0.0
 11
-7.29547328527574
 21
-4.629306515494864
 31
0.0
  0
LINE
  5
F101A5
330
261
100
AcDbEntity
  8
Geo
100
AcDbLine
 10
-7.29547328527574
 20
-4.629306515494864
 30
0.0
 11
-7.195473285275738
 21
-4.648947488719365
 31
0.0
  0
LINE
  5
F101A7
330
261
100
AcDbEntity
  8
Geo
100
AcDbLine
 10
-7.195473285275738
 20
-4.648947488719365
 30
0.0
 11
-7.095473285275737
 21
-4.667732308211064
 31
0.0
  0
LINE
  5
F101A9
330
261
100
AcDbEntity
  8
Geo
100
AcDbLine
 10
-7.095473285275737
 20
-4.667732308211064
 30
0.0
 11
-6.995473285275735
 21
-4.685684799394465
 31
0.0
  0
LINE
  5
F101AB
330
261
100
AcDbEntity
  8
Geo
100
AcDbLine
 10
-6.995473285275735
 20
-4.685684799394465
 30
0.0
 11
-6.895473285275734
 21
-4.702828637553064
 31
0.0
  0
LINE
  5
F101AD
330
261
100
AcDbEntity
  8
Geo
100
AcDbLine
 10
-6.895473285275734
 20
-4.702828637553064
 30
0.0
 11
-6.79547328527574
 21
-4.719187330477566
 31
0.0
  0
LINE
  5
F101AF
330
261
100
AcDbEntity
  8
Geo
100
AcDbLine
 10
-6.79547328527574
 20
-4.719187330477566
 30
0.0
 11
-6.695473285275738
 21
-4.734784201872567
 31
0.0
  0
LINE
  5
F101B1
330
261
100
AcDbEntity
  8
Geo
100
AcDbLine
 10
-6.695473285275738
 20
-4.734784201872567
 30
0.0
 11
-6.595473285275737
 21
-4.749642375503867
 31
0.0
  0
LINE
  5
F101B3
330
261
100
AcDbEntity
  8
Geo
100
AcDbLine
 10
-6.595473285275737
 20
-4.749642375503867
 30
0.0
 11
-6.495473285275735
 21
-4.763784760067466
 31
0.0
  0
LINE
  5
F101B5
330
261
100
AcDbEntity
  8
Geo
100
AcDbLine
 10
-6.495473285275735
 20
-4.763784760067466
 30
0.0
 11
-6.395473285275734
 21
-4.777234034761868
 31
0.0
  0
LINE
  5
F101B7
330
261
100
AcDbEntity
  8
Geo
100
AcDbLine
 10
-6.395473285275734
 20
-4.777234034761868
 30
0.0
 11
-6.29547328527574
 21
-4.790012635544165
 31
0.0
  0
LINE
  5
F101B9
330
261
100
AcDbEntity
  8
Geo
100
AcDbLine
 10
-6.29547328527574
 20
-4.790012635544165
 30
0.0
 11
-6.195473285275738
 21
-4.802142742052467
 31
0.0
  0
LINE
  5
F101BB
330
261
100
AcDbEntity
  8
Geo
100
AcDbLine
 10
-6.195473285275738
 20
-4.802142742052467
 30
0.0
 11
-6.095473285275737
 21
-4.813646265172565
 31
0.0
  0
LINE
  5
F101BD
330
261
100
AcDbEntity
  8
Geo
100
AcDbLine
 10
-6.095473285275737
 20
-4.813646265172565
 30
0.0
 11
-5.995473285275735
 21
-4.824544835233865
 31
0.0
  0
LINE
  5
F101BF
330
261
100
AcDbEntity
  8
Geo
100
AcDbLine
 10
-5.995473285275735
 20
-4.824544835233865
 30
0.0
 11
-5.895473285275734
 21
-4.834859790810764
 31
0.0
  0
LINE
  5
F101C1
330
261
100
AcDbEntity
  8
Geo
100
AcDbLine
 10
-5.895473285275734
 20
-4.834859790810764
 30
0.0
 11
-5.79547328527574
 21
-4.844612168113766
 31
0.0
  0
LINE
  5
F101C3
330
261
100
AcDbEntity
  8
Geo
100
AcDbLine
 10
-5.79547328527574
 20
-4.844612168113766
 30
0.0
 11
-5.695473285275738
 21
-4.853822690949364
 31
0.0
  0
LINE
  5
F101C5
330
261
100
AcDbEntity
  8
Geo
100
AcDbLine
 10
-5.695473285275738
 20
-4.853822690949364
 30
0.0
 11
-5.595473285275737
 21
-4.862511761230166
 31
0.0
  0
LINE
  5
F101C7
330
261
100
AcDbEntity
  8
Geo
100
AcDbLine
 10
-5.595473285275737
 20
-4.862511761230166
 30
0.0
 11
-5.495473285275735
 21
-4.870699450015965
 31
0.0
  0
LINE
  5
F101C9
330
261
100
AcDbEntity
  8
Geo
100
AcDbLine
 10
-5.495473285275735
 20
-4.870699450015965
 30
0.0
 11
-5.395473285275734
 21
-4.878405489066963
 31
0.0
  0
LINE
  5
F101CB
330
261
100
AcDbEntity
  8
Geo
100
AcDbLine
 10
-5.395473285275734
 20
-4.878405489066963
 30
0.0
 11
-5.29547328527574
 21
-4.885649262890265
 31
0.0
  0
LINE
  5
F101CD
330
261
100
AcDbEntity
  8
Geo
100
AcDbLine
 10
-5.29547328527574
 20
-4.885649262890265
 30
0.0
 11
-5.195473285275738
 21
-4.892449801261268
 31
0.0
  0
LINE
  5
F101CF
330
261
100
AcDbEntity
  8
Geo
100
AcDbLine
 10
-5.195473285275738
 20
-4.892449801261268
 30
0.0
 11
-5.095473285275737
 21
-4.898825772201163
 31
0.0
  0
LINE
  5
F101D1
330
261
100
AcDbEntity
  8
Geo
100
AcDbLine
 10
-5.095473285275737
 20
-4.898825772201163
 30
0.0
 11
-4.995473285275735
 21
-4.904795475392866
 31
0.0
  0
LINE
  5
F101D3
330
261
100
AcDbEntity
  8
Geo
100
AcDbLine
 10
-4.995473285275735
 20
-4.904795475392866
 30
0.0
 11
-4.895473285275734
 21
-4.910376836016464
 31
0.0
  0
LINE
  5
F101D5
330
261
100
AcDbEntity
  8
Geo
100
AcDbLine
 10
-4.895473285275734
 20
-4.910376836016464
 30
0.0
 11
-4.79547328527574
 21
-4.915587398987767
 31
0.0
  0
LINE
  5
F101D7
330
261
100
AcDbEntity
  8
Geo
100
AcDbLine
 10
-4.79547328527574
 20
-4.915587398987767
 30
0.0
 11
-4.695473285275738
 21
-4.920444323581364
 31
0.0
  0
LINE
  5
F101D9
330
261
100
AcDbEntity
  8
Geo
100
AcDbLine
 10
-4.695473285275738
 20
-4.920444323581364
 30
0.0
 11
-4.595473285275737
 21
-4.924964378421364
 31
0.0
  0
LINE
  5
F101DB
330
261
100
AcDbEntity
  8
Geo
100
AcDbLine
 10
-4.595473285275737
 20
-4.924964378421364
 30
0.0
 11
-4.495473285275735
 21
-4.929163936823165
 31
0.0
  0
LINE
  5
F101DD
330
261
100
AcDbEntity
  8
Geo
100
AcDbLine
 10
-4.495473285275735
 20
-4.929163936823165
 30
0.0
 11
-4.395473285275734
 21
-4.933058972469765
 31
0.0
  0
LINE
  5
F101DF
330
261
100
AcDbEntity
  8
Geo
100
AcDbLine
 10
-4.395473285275734
 20
-4.933058972469765
 30
0.0
 11
-4.29547328527574
 21
-4.936665055405264
 31
0.0
  0
LINE
  5
F101E1
330
261
100
AcDbEntity
  8
Geo
100
AcDbLine
 10
-4.29547328527574
 20
-4.936665055405264
 30
0.0
 11
-4.19547328527593
 21
-4.939997348331864
 31
0.0
  0
LINE
  5
F101E3
330
261
100
AcDbEntity
  8
Geo
100
AcDbLine
 10
-40.79547328527593
 20
3.479419196687835
 30
0.0
 11
-40.69547328527593
 21
3.509234491816833
 31
0.0
  0
LINE
  5
F101E5
330
261
100
AcDbEntity
  8
Geo
100
AcDbLine
 10
-40.69547328527593
 20
3.509234491816833
 30
0.0
 11
-40.59547328527592
 21
3.481686842751535
 31
0.0
  0
LINE
  5
F101E7
330
261
100
AcDbEntity
  8
Geo
100
AcDbLine
 10
-40.59547328527592
 20
3.481686842751535
 30
0.0
 11
-40.49547328527594
 21
3.439700908498732
 31
0.0
  0
LINE
  5
F101E9
330
261
100
AcDbEntity
  8
Geo
100
AcDbLine
 10
-40.49547328527594
 20
3.439700908498732
 30
0.0
 11
-40.39547328527592
 21
3.397260184258737
 31
0.0
  0
LINE
  5
F101EB
330
261
100
AcDbEntity
  8
Geo
100
AcDbLine
 10
-40.39547328527592
 20
3.397260184258737
 30
0.0
 11
-40.29547328527593
 21
3.354370328731736
 31
0.0
  0
LINE
  5
F101ED
330
261
100
AcDbEntity
  8
Geo
100
AcDbLine
 10
-40.29547328527593
 20
3.354370328731736
 30
0.0
 11
-40.19547328527593
 21
3.311037060501735
 31
0.0
  0
LINE
  5
F101EF
330
261
100
AcDbEntity
  8
Geo
100
AcDbLine
 10
-40.19547328527593
 20
3.311037060501735
 30
0.0
 11
-40.09547328527593
 21
3.267266157273535
 31
0.0
  0
LINE
  5
F101F1
330
261
100
AcDbEntity
  8
Geo
100
AcDbLine
 10
-40.09547328527593
 20
3.267266157273535
 30
0.0
 11
-39.99547328527594
 21
3.223063455102838
 31
0.0
  0
LINE
  5
F101F3
330
261
100
AcDbEntity
  8
Geo
100
AcDbLine
 10
-39.99547328527594
 20
3.223063455102838
 30
0.0
 11
-39.89547328527592
 21
3.178434847617634
 31
0.0
  0
LINE
  5
F101F5
330
261
100
AcDbEntity
  8
Geo
100
AcDbLine
 10
-39.89547328527592
 20
3.178434847617634
 30
0.0
 11
-39.79547328527593
 21
3.133386285232933
 31
0.0
  0
LINE
  5
F101F7
330
261
100
AcDbEntity
  8
Geo
100
AcDbLine
 10
-39.79547328527593
 20
3.133386285232933
 30
0.0
 11
-39.69547328527594
 21
3.087923774356834
 31
0.0
  0
LINE
  5
F101F9
330
261
100
AcDbEntity
  8
Geo
100
AcDbLine
 10
-39.69547328527594
 20
3.087923774356834
 30
0.0
 11
-39.59547328527593
 21
3.042053376590235
 31
0.0
  0
LINE
  5
F101FB
330
261
100
AcDbEntity
  8
Geo
100
AcDbLine
 10
-39.59547328527593
 20
3.042053376590235
 30
0.0
 11
-39.49547328527593
 21
2.995781207918231
 31
0.0
  0
LINE
  5
F101FD
330
261
100
AcDbEntity
  8
Geo
100
AcDbLine
 10
-39.49547328527593
 20
2.995781207918231
 30
0.0
 11
-39.39547328527593
 21
2.949113437894634
 31
0.0
  0
LINE
  5
F101FF
330
261
100
AcDbEntity
  8
Geo
100
AcDbLine
 10
-39.39547328527593
 20
2.949113437894634
 30
0.0
 11
-39.29547328527593
 21
2.902056288819736
 31
0.0
  0
LINE
  5
F10201
330
261
100
AcDbEntity
  8
Geo
100
AcDbLine
 10
-39.29547328527593
 20
2.902056288819736
 30
0.0
 11
-39.19547328527594
 21
2.854616034910332
 31
0.0
  0
LINE
  5
F10203
330
261
100
AcDbEntity
  8
Geo
100
AcDbLine
 10
-39.19547328527594
 20
2.854616034910332
 30
0.0
 11
-39.09547328527593
 21
2.806799001463435
 31
0.0
  0
LINE
  5
F10205
330
261
100
AcDbEntity
  8
Geo
100
AcDbLine
 10
-39.09547328527593
 20
2.806799001463435
 30
0.0
 11
-38.99547328527594
 21
2.758611564012436
 31
0.0
  0
LINE
  5
F10207
330
261
100
AcDbEntity
  8
Geo
100
AcDbLine
 10
-38.99547328527594
 20
2.758611564012436
 30
0.0
 11
-38.89547328527593
 21
2.710060147477836
 31
0.0
  0
LINE
  5
F10209
330
261
100
AcDbEntity
  8
Geo
100
AcDbLine
 10
-38.89547328527593
 20
2.710060147477836
 30
0.0
 11
-38.79547328527593
 21
2.661151225309733
 31
0.0
  0
LINE
  5
F1020B
330
261
100
AcDbEntity
  8
Geo
100
AcDbLine
 10
-38.79547328527593
 20
2.661151225309733
 30
0.0
 11
-38.69547328527594
 21
2.611891318625435
 31
0.0
  0
LINE
  5
F1020D
330
261
100
AcDbEntity
  8
Geo
100
AcDbLine
 10
-38.69547328527594
 20
2.611891318625435
 30
0.0
 11
-38.59547328527593
 21
2.562286995339434
 31
0.0
  0
LINE
  5
F1020F
330
261
100
AcDbEntity
  8
Geo
100
AcDbLine
 10
-38.59547328527593
 20
2.562286995339434
 30
0.0
 11
-38.49547328527594
 21
2.512344869288032
 31
0.0
  0
LINE
  5
F10211
330
261
100
AcDbEntity
  8
Geo
100
AcDbLine
 10
-38.49547328527594
 20
2.512344869288032
 30
0.0
 11
-38.39547328527593
 21
2.462071599347432
 31
0.0
  0
LINE
  5
F10213
330
261
100
AcDbEntity
  8
Geo
100
AcDbLine
 10
-38.39547328527593
 20
2.462071599347432
 30
0.0
 11
-38.29547328527593
 21
2.411473888545735
 31
0.0
  0
LINE
  5
F10215
330
261
100
AcDbEntity
  8
Geo
100
AcDbLine
 10
-38.29547328527593
 20
2.411473888545735
 30
0.0
 11
-38.19547328527594
 21
2.360558483169533
 31
0.0
  0
LINE
  5
F10217
330
261
100
AcDbEntity
  8
Geo
100
AcDbLine
 10
-38.19547328527594
 20
2.360558483169533
 30
0.0
 11
-38.09547328527593
 21
2.309332171864035
 31
0.0
  0
LINE
  5
F10219
330
261
100
AcDbEntity
  8
Geo
100
AcDbLine
 10
-38.09547328527593
 20
2.309332171864035
 30
0.0
 11
-37.99547328527594
 21
2.257801784728133
 31
0.0
  0
LINE
  5
F1021B
330
261
100
AcDbEntity
  8
Geo
100
AcDbLine
 10
-37.99547328527594
 20
2.257801784728133
 30
0.0
 11
-37.89547328527593
 21
2.205974192403836
 31
0.0
  0
LINE
  5
F1021D
330
261
100
AcDbEntity
  8
Geo
100
AcDbLine
 10
-37.89547328527593
 20
2.205974192403836
 30
0.0
 11
-37.79547328527594
 21
2.153856305160033
 31
0.0
  0
LINE
  5
F1021F
330
261
100
AcDbEntity
  8
Geo
100
AcDbLine
 10
-37.79547328527594
 20
2.153856305160033
 30
0.0
 11
-37.69547328527594
 21
2.101455071971134
 31
0.0
  0
LINE
  5
F10221
330
261
100
AcDbEntity
  8
Geo
100
AcDbLine
 10
-37.69547328527594
 20
2.101455071971134
 30
0.0
 11
-37.59547328527593
 21
2.048777479590533
 31
0.0
  0
LINE
  5
F10223
330
261
100
AcDbEntity
  8
Geo
100
AcDbLine
 10
-37.59547328527593
 20
2.048777479590533
 30
0.0
 11
-37.49547328527594
 21
1.995830551619231
 31
0.0
  0
LINE
  5
F10225
330
261
100
AcDbEntity
  8
Geo
100
AcDbLine
 10
-37.49547328527594
 20
1.995830551619231
 30
0.0
 11
-37.39547328527593
 21
1.942621347569236
 31
0.0
  0
LINE
  5
F10227
330
261
100
AcDbEntity
  8
Geo
100
AcDbLine
 10
-37.39547328527593
 20
1.942621347569236
 30
0.0
 11
-37.29547328527593
 21
1.889156961922132
 31
0.0
  0
LINE
  5
F10229
330
261
100
AcDbEntity
  8
Geo
100
AcDbLine
 10
-37.29547328527593
 20
1.889156961922132
 30
0.0
 11
-37.19547328527594
 21
1.835444523183628
 31
0.0
  0
LINE
  5
F1022B
330
261
100
AcDbEntity
  8
Geo
100
AcDbLine
 10
-37.19547328527594
 20
1.835444523183628
 30
0.0
 11
-37.09547328527593
 21
1.781491192932431
 31
0.0
  0
LINE
  5
F1022D
330
261
100
AcDbEntity
  8
Geo
100
AcDbLine
 10
-37.09547328527593
 20
1.781491192932431
 30
0.0
 11
-36.99547328527593
 21
1.727304164866236
 31
0.0
  0
LINE
  5
F1022F
330
261
100
AcDbEntity
  8
Geo
100
AcDbLine
 10
-36.99547328527593
 20
1.727304164866236
 30
0.0
 11
-36.89547328527593
 21
1.672890663841631
 31
0.0
  0
LINE
  5
F10231
330
261
100
AcDbEntity
  8
Geo
100
AcDbLine
 10
-36.89547328527593
 20
1.672890663841631
 30
0.0
 11
-36.79547328527593
 21
1.618257944911537
 31
0.0
  0
LINE
  5
F10233
330
261
100
AcDbEntity
  8
Geo
100
AcDbLine
 10
-36.79547328527593
 20
1.618257944911537
 30
0.0
 11
-36.69547328527594
 21
1.563413292357534
 31
0.0
  0
LINE
  5
F10235
330
261
100
AcDbEntity
  8
Geo
100
AcDbLine
 10
-36.69547328527594
 20
1.563413292357534
 30
0.0
 11
-36.59547328527593
 21
1.508364018718836
 31
0.0
  0
LINE
  5
F10237
330
261
100
AcDbEntity
  8
Geo
100
AcDbLine
 10
-36.59547328527593
 20
1.508364018718836
 30
0.0
 11
-36.49547328527594
 21
1.453117463816838
 31
0.0
  0
LINE
  5
F10239
330
261
100
AcDbEntity
  8
Geo
100
AcDbLine
 10
-36.49547328527594
 20
1.453117463816838
 30
0.0
 11
-36.39547328527593
 21
1.397680993777129
 31
0.0
  0
LINE
  5
F1023B
330
261
100
AcDbEntity
  8
Geo
100
AcDbLine
 10
-36.39547328527593
 20
1.397680993777129
 30
0.0
 11
-36.29547328527593
 21
1.342062000046933
 31
0.0
  0
LINE
  5
F1023D
330
261
100
AcDbEntity
  8
Geo
100
AcDbLine
 10
-36.29547328527593
 20
1.342062000046933
 30
0.0
 11
-36.19547328527594
 21
1.286267898409732
 31
0.0
  0
LINE
  5
F1023F
330
261
100
AcDbEntity
  8
Geo
100
AcDbLine
 10
-36.19547328527594
 20
1.286267898409732
 30
0.0
 11
-36.09547328527593
 21
1.230306127996232
 31
0.0
  0
LINE
  5
F10241
330
261
100
AcDbEntity
  8
Geo
100
AcDbLine
 10
-36.09547328527593
 20
1.230306127996232
 30
0.0
 11
-35.99547328527594
 21
1.174184150293033
 31
0.0
  0
LINE
  5
F10243
330
261
100
AcDbEntity
  8
Geo
100
AcDbLine
 10
-35.99547328527594
 20
1.174184150293033
 30
0.0
 11
-35.89547328527593
 21
1.117909448147333
 31
0.0
  0
LINE
  5
F10245
330
261
100
AcDbEntity
  8
Geo
100
AcDbLine
 10
-35.89547328527593
 20
1.117909448147333
 30
0.0
 11
-35.79547328527593
 21
1.061489524769434
 31
0.0
  0
LINE
  5
F10247
330
261
100
AcDbEntity
  8
Geo
100
AcDbLine
 10
-35.79547328527593
 20
1.061489524769434
 30
0.0
 11
-35.69547328527594
 21
1.004931902732131
 31
0.0
  0
LINE
  5
F10249
330
261
100
AcDbEntity
  8
Geo
100
AcDbLine
 10
-35.69547328527594
 20
1.004931902732131
 30
0.0
 11
-35.59547328527593
 21
0.9482441229679317
 31
0.0
  0
LINE
  5
F1024B
330
261
100
AcDbEntity
  8
Geo
100
AcDbLine
 10
-35.59547328527593
 20
0.9482441229679317
 30
0.0
 11
-35.49547328527594
 21
0.8914337437635353
 31
0.0
  0
LINE
  5
F1024D
330
261
100
AcDbEntity
  8
Geo
100
AcDbLine
 10
-35.49547328527594
 20
0.8914337437635353
 30
0.0
 11
-35.39547328527593
 21
0.8345083397519346
 31
0.0
  0
LINE
  5
F1024F
330
261
100
AcDbEntity
  8
Geo
100
AcDbLine
 10
-35.39547328527593
 20
0.8345083397519346
 30
0.0
 11
-35.29547328527594
 21
0.7774755009027317
 31
0.0
  0
LINE
  5
F10251
330
261
100
AcDbEntity
  8
Geo
100
AcDbLine
 10
-35.29547328527594
 20
0.7774755009027317
 30
0.0
 11
-35.19547328527594
 21
0.7203428315099317
 31
0.0
  0
LINE
  5
F10253
330
261
100
AcDbEntity
  8
Geo
100
AcDbLine
 10
-35.19547328527594
 20
0.7203428315099317
 30
0.0
 11
-35.09547328527593
 21
0.6631179491780373
 31
0.0
  0
LINE
  5
F10255
330
261
100
AcDbEntity
  8
Geo
100
AcDbLine
 10
-35.09547328527593
 20
0.6631179491780373
 30
0.0
 11
-34.99547328527594
 21
0.6058084838067331
 31
0.0
  0
LINE
  5
F10257
330
261
100
AcDbEntity
  8
Geo
100
AcDbLine
 10
-34.99547328527594
 20
0.6058084838067331
 30
0.0
 11
-34.89547328527593
 21
0.5484220765730364
 31
0.0
  0
LINE
  5
F10259
330
261
100
AcDbEntity
  8
Geo
100
AcDbLine
 10
-34.89547328527593
 20
0.5484220765730364
 30
0.0
 11
-34.79547328527593
 21
0.4909663789130328
 31
0.0
  0
LINE
  5
F1025B
330
261
100
AcDbEntity
  8
Geo
100
AcDbLine
 10
-34.79547328527593
 20
0.4909663789130328
 30
0.0
 11
-34.69547328527594
 21
0.4334490515012348
 31
0.0
  0
LINE
  5
F1025D
330
261
100
AcDbEntity
  8
Geo
100
AcDbLine
 10
-34.69547328527594
 20
0.4334490515012348
 30
0.0
 11
-34.59547328527593
 21
0.3758777632293366
 31
0.0
  0
LINE
  5
F1025F
330
261
100
AcDbEntity
  8
Geo
100
AcDbLine
 10
-34.59547328527593
 20
0.3758777632293366
 30
0.0
 11
-34.49547328527593
 21
0.3182601901839348
 31
0.0
  0
LINE
  5
F10261
330
261
100
AcDbEntity
  8
Geo
100
AcDbLine
 10
-34.49547328527593
 20
0.3182601901839348
 30
0.0
 11
-34.39547328527593
 21
0.2606040146226327
 31
0.0
  0
LINE
  5
F10263
330
261
100
AcDbEntity
  8
Geo
100
AcDbLine
 10
-34.39547328527593
 20
0.2606040146226327
 30
0.0
 11
-34.29547328527593
 21
0.2029169239502302
 31
0.0
  0
LINE
  5
F10265
330
261
100
AcDbEntity
  8
Geo
100
AcDbLine
 10
-34.29547328527593
 20
0.2029169239502302
 30
0.0
 11
-34.19547328527594
 21
0.1452066096932363
 31
0.0
  0
LINE
  5
F10267
330
261
100
AcDbEntity
  8
Geo
100
AcDbLine
 10
-34.19547328527594
 20
0.1452066096932363
 30
0.0
 11
-34.09547328527593
 21
0.0874807664747302
 31
0.0
  0
LINE
  5
F10269
330
261
100
AcDbEntity
  8
Geo
100
AcDbLine
 10
-34.09547328527593
 20
0.0874807664747302
 30
0.0
 11
-33.99547328527594
 21
0.0297470909883337
 31
0.0
  0
LINE
  5
F1026B
330
261
100
AcDbEntity
  8
Geo
100
AcDbLine
 10
-33.99547328527594
 20
0.0297470909883337
 30
0.0
 11
-33.89547328527593
 21
-0.0279867190280676
 31
0.0
  0
LINE
  5
F1026D
330
261
100
AcDbEntity
  8
Geo
100
AcDbLine
 10
-33.89547328527593
 20
-0.0279867190280676
 30
0.0
 11
-33.79547328527593
 21
-0.0857129658186651
 31
0.0
  0
LINE
  5
F1026F
330
261
100
AcDbEntity
  8
Geo
100
AcDbLine
 10
-33.79547328527593
 20
-0.0857129658186651
 30
0.0
 11
-33.69547328527594
 21
-0.1434239526361622
 31
0.0
  0
LINE
  5
F10271
330
261
100
AcDbEntity
  8
Geo
100
AcDbLine
 10
-33.69547328527594
 20
-0.1434239526361622
 30
0.0
 11
-33.59547328527593
 21
-0.2011119847677669
 31
0.0
  0
LINE
  5
F10273
330
261
100
AcDbEntity
  8
Geo
100
AcDbLine
 10
-33.59547328527593
 20
-0.2011119847677669
 30
0.0
 11
-33.49547328527594
 21
-0.2587693705613674
 31
0.0
  0
LINE
  5
F10275
330
261
100
AcDbEntity
  8
Geo
100
AcDbLine
 10
-33.49547328527594
 20
-0.2587693705613674
 30
0.0
 11
-33.39547328527593
 21
-0.3163884224507676
 31
0.0
  0
LINE
  5
F10277
330
261
100
AcDbEntity
  8
Geo
100
AcDbLine
 10
-33.39547328527593
 20
-0.3163884224507676
 30
0.0
 11
-33.29547328527593
 21
-0.3739614579812631
 31
0.0
  0
LINE
  5
F10279
330
261
100
AcDbEntity
  8
Geo
100
AcDbLine
 10
-33.29547328527593
 20
-0.3739614579812631
 30
0.0
 11
-33.19547328527594
 21
-0.43148080083337
 31
0.0
  0
LINE
  5
F1027B
330
261
100
AcDbEntity
  8
Geo
100
AcDbLine
 10
-33.19547328527594
 20
-0.43148080083337
 30
0.0
 11
-33.09547328527593
 21
-0.4889387818465672
 31
0.0
  0
LINE
  5
F1027D
330
261
100
AcDbEntity
  8
Geo
100
AcDbLine
 10
-33.09547328527593
 20
-0.4889387818465672
 30
0.0
 11
-32.99547328527594
 21
-0.5463277400418676
 31
0.0
  0
LINE
  5
F1027F
330
261
100
AcDbEntity
  8
Geo
100
AcDbLine
 10
-32.99547328527594
 20
-0.5463277400418676
 30
0.0
 11
-32.89547328527593
 21
-0.6036400236431661
 31
0.0
  0
LINE
  5
F10281
330
261
100
AcDbEntity
  8
Geo
100
AcDbLine
 10
-32.89547328527593
 20
-0.6036400236431661
 30
0.0
 11
-32.79547328527594
 21
-0.6608679910975681
 31
0.0
  0
LINE
  5
F10283
330
261
100
AcDbEntity
  8
Geo
100
AcDbLine
 10
-32.79547328527594
 20
-0.6608679910975681
 30
0.0
 11
-32.69547328527594
 21
-0.7180040120941662
 31
0.0
  0
LINE
  5
F10285
330
261
100
AcDbEntity
  8
Geo
100
AcDbLine
 10
-32.69547328527594
 20
-0.7180040120941662
 30
0.0
 11
-32.59547328527593
 21
-0.7750404685814658
 31
0.0
  0
LINE
  5
F10287
330
261
100
AcDbEntity
  8
Geo
100
AcDbLine
 10
-32.59547328527593
 20
-0.7750404685814658
 30
0.0
 11
-32.49547328527594
 21
-0.8319697557831631
 31
0.0
  0
LINE
  5
F10289
330
261
100
AcDbEntity
  8
Geo
100
AcDbLine
 10
-32.49547328527594
 20
-0.8319697557831631
 30
0.0
 11
-32.39547328527593
 21
-0.8887842832119652
 31
0.0
  0
LINE
  5
F1028B
330
261
100
AcDbEntity
  8
Geo
100
AcDbLine
 10
-32.39547328527593
 20
-0.8887842832119652
 30
0.0
 11
-32.29547328527593
 21
-0.9454764756816658
 31
0.0
  0
LINE
  5
F1028D
330
261
100
AcDbEntity
  8
Geo
100
AcDbLine
 10
-32.29547328527593
 20
-0.9454764756816658
 30
0.0
 11
-32.19547328527594
 21
-1.002038774317266
 31
0.0
  0
LINE
  5
F1028F
330
261
100
AcDbEntity
  8
Geo
100
AcDbLine
 10
-32.19547328527594
 20
-1.002038774317266
 30
0.0
 11
-32.09547328527593
 21
-1.058463637562866
 31
0.0
  0
LINE
  5
F10291
330
261
100
AcDbEntity
  8
Geo
100
AcDbLine
 10
-32.09547328527593
 20
-1.058463637562866
 30
0.0
 11
-31.99547328527593
 21
-1.114743542186765
 31
0.0
  0
LINE
  5
F10293
330
261
100
AcDbEntity
  8
Geo
100
AcDbLine
 10
-31.99547328527593
 20
-1.114743542186765
 30
0.0
 11
-31.89547328527593
 21
-1.170870984285166
 31
0.0
  0
LINE
  5
F10295
330
261
100
AcDbEntity
  8
Geo
100
AcDbLine
 10
-31.89547328527593
 20
-1.170870984285166
 30
0.0
 11
-31.79547328527593
 21
-1.226838480282165
 31
0.0
  0
LINE
  5
F10297
330
261
100
AcDbEntity
  8
Geo
100
AcDbLine
 10
-31.79547328527593
 20
-1.226838480282165
 30
0.0
 11
-31.69547328527594
 21
-1.282638567928067
 31
0.0
  0
LINE
  5
F10299
330
261
100
AcDbEntity
  8
Geo
100
AcDbLine
 10
-31.69547328527594
 20
-1.282638567928067
 30
0.0
 11
-31.59547328527593
 21
-1.338263807293767
 31
0.0
  0
LINE
  5
F1029B
330
261
100
AcDbEntity
  8
Geo
100
AcDbLine
 10
-31.59547328527593
 20
-1.338263807293767
 30
0.0
 11
-31.49547328527594
 21
-1.393706781762965
 31
0.0
  0
LINE
  5
F1029D
330
261
100
AcDbEntity
  8
Geo
100
AcDbLine
 10
-31.49547328527594
 20
-1.393706781762965
 30
0.0
 11
-31.39547328527593
 21
-1.448960099021466
 31
0.0
  0
LINE
  5
F1029F
330
261
100
AcDbEntity
  8
Geo
100
AcDbLine
 10
-31.39547328527593
 20
-1.448960099021466
 30
0.0
 11
-31.29547328527593
 21
-1.504016392041869
 31
0.0
  0
LINE
  5
F102A1
330
261
100
AcDbEntity
  8
Geo
100
AcDbLine
 10
-31.29547328527593
 20
-1.504016392041869
 30
0.0
 11
-31.19547328527594
 21
-1.558868320066867
 31
0.0
  0
LINE
  5
F102A3
330
261
100
AcDbEntity
  8
Geo
100
AcDbLine
 10
-31.19547328527594
 20
-1.558868320066867
 30
0.0
 11
-31.09547328527593
 21
-1.613508569587263
 31
0.0
  0
LINE
  5
F102A5
330
261
100
AcDbEntity
  8
Geo
100
AcDbLine
 10
-31.09547328527593
 20
-1.613508569587263
 30
0.0
 11
-30.99547328527594
 21
-1.667929855317368
 31
0.0
  0
LINE
  5
F102A7
330
261
100
AcDbEntity
  8
Geo
100
AcDbLine
 10
-30.99547328527594
 20
-1.667929855317368
 30
0.0
 11
-30.89547328527593
 21
-1.722124921166365
 31
0.0
  0
LINE
  5
F102A9
330
261
100
AcDbEntity
  8
Geo
100
AcDbLine
 10
-30.89547328527593
 20
-1.722124921166365
 30
0.0
 11
-30.79547328527593
 21
-1.776086541205867
 31
0.0
  0
LINE
  5
F102AB
330
261
100
AcDbEntity
  8
Geo
100
AcDbLine
 10
-30.79547328527593
 20
-1.776086541205867
 30
0.0
 11
-30.69547328527594
 21
-1.829807520633067
 31
0.0
  0
LINE
  5
F102AD
330
261
100
AcDbEntity
  8
Geo
100
AcDbLine
 10
-30.69547328527594
 20
-1.829807520633067
 30
0.0
 11
-30.59547328527593
 21
-1.883280696730267
 31
0.0
  0
LINE
  5
F102AF
330
261
100
AcDbEntity
  8
Geo
100
AcDbLine
 10
-30.59547328527593
 20
-1.883280696730267
 30
0.0
 11
-30.49547328527594
 21
-1.936498939819966
 31
0.0
  0
LINE
  5
F102B1
330
261
100
AcDbEntity
  8
Geo
100
AcDbLine
 10
-30.49547328527594
 20
-1.936498939819966
 30
0.0
 11
-30.39547328527593
 21
-1.989455154215164
 31
0.0
  0
LINE
  5
F102B3
330
261
100
AcDbEntity
  8
Geo
100
AcDbLine
 10
-30.39547328527593
 20
-1.989455154215164
 30
0.0
 11
-30.29547328527594
 21
-2.042142279165766
 31
0.0
  0
LINE
  5
F102B5
330
261
100
AcDbEntity
  8
Geo
100
AcDbLine
 10
-30.29547328527594
 20
-2.042142279165766
 30
0.0
 11
-30.19547328527594
 21
-2.094553289799868
 31
0.0
  0
LINE
  5
F102B7
330
261
100
AcDbEntity
  8
Geo
100
AcDbLine
 10
-30.19547328527594
 20
-2.094553289799868
 30
0.0
 11
-30.09547328527593
 21
-2.146681198060267
 31
0.0
  0
LINE
  5
F102B9
330
261
100
AcDbEntity
  8
Geo
100
AcDbLine
 10
-30.09547328527593
 20
-2.146681198060267
 30
0.0
 11
-29.99547328527594
 21
-2.198519053636566
 31
0.0
  0
LINE
  5
F102BB
330
261
100
AcDbEntity
  8
Geo
100
AcDbLine
 10
-29.99547328527594
 20
-2.198519053636566
 30
0.0
 11
-29.89547328527592
 21
-2.250059944891368
 31
0.0
  0
LINE
  5
F102BD
330
261
100
AcDbEntity
  8
Geo
100
AcDbLine
 10
-29.89547328527592
 20
-2.250059944891368
 30
0.0
 11
-29.79547328527593
 21
-2.301296999782266
 31
0.0
  0
LINE
  5
F102BF
330
261
100
AcDbEntity
  8
Geo
100
AcDbLine
 10
-29.79547328527593
 20
-2.301296999782266
 30
0.0
 11
-29.69547328527594
 21
-2.352223386777765
 31
0.0
  0
LINE
  5
F102C1
330
261
100
AcDbEntity
  8
Geo
100
AcDbLine
 10
-29.69547328527594
 20
-2.352223386777765
 30
0.0
 11
-29.59547328527593
 21
-2.402832315768463
 31
0.0
  0
LINE
  5
F102C3
330
261
100
AcDbEntity
  8
Geo
100
AcDbLine
 10
-29.59547328527593
 20
-2.402832315768463
 30
0.0
 11
-29.49547328527593
 21
-2.453117038972067
 31
0.0
  0
LINE
  5
F102C5
330
261
100
AcDbEntity
  8
Geo
100
AcDbLine
 10
-29.49547328527593
 20
-2.453117038972067
 30
0.0
 11
-29.39547328527593
 21
-2.503070851833367
 31
0.0
  0
LINE
  5
F102C7
330
261
100
AcDbEntity
  8
Geo
100
AcDbLine
 10
-29.39547328527593
 20
-2.503070851833367
 30
0.0
 11
-29.29547328527593
 21
-2.552687093917963
 31
0.0
  0
LINE
  5
F102C9
330
261
100
AcDbEntity
  8
Geo
100
AcDbLine
 10
-29.29547328527593
 20
-2.552687093917963
 30
0.0
 11
-29.19547328527594
 21
-2.601959149800464
 31
0.0
  0
LINE
  5
F102CB
330
261
100
AcDbEntity
  8
Geo
100
AcDbLine
 10
-29.19547328527594
 20
-2.601959149800464
 30
0.0
 11
-29.09547328527594
 21
-2.650880449946367
 31
0.0
  0
LINE
  5
F102CD
330
261
100
AcDbEntity
  8
Geo
100
AcDbLine
 10
-29.09547328527594
 20
-2.650880449946367
 30
0.0
 11
-28.99547328527594
 21
-2.699444471588066
 31
0.0
  0
LINE
  5
F102CF
330
261
100
AcDbEntity
  8
Geo
100
AcDbLine
 10
-28.99547328527594
 20
-2.699444471588066
 30
0.0
 11
-28.89547328527593
 21
-2.747644739594765
 31
0.0
  0
LINE
  5
F102D1
330
261
100
AcDbEntity
  8
Geo
100
AcDbLine
 10
-28.89547328527593
 20
-2.747644739594765
 30
0.0
 11
-28.79547328527593
 21
-2.795474827335368
 31
0.0
  0
LINE
  5
F102D3
330
261
100
AcDbEntity
  8
Geo
100
AcDbLine
 10
-28.79547328527593
 20
-2.795474827335368
 30
0.0
 11
-28.69547328527593
 21
-2.842928357535665
 31
0.0
  0
LINE
  5
F102D5
330
261
100
AcDbEntity
  8
Geo
100
AcDbLine
 10
-28.69547328527593
 20
-2.842928357535665
 30
0.0
 11
-28.59547328527593
 21
-2.889999003128664
 31
0.0
  0
LINE
  5
F102D7
330
261
100
AcDbEntity
  8
Geo
100
AcDbLine
 10
-28.59547328527593
 20
-2.889999003128664
 30
0.0
 11
-28.49547328527594
 21
-2.936680488098065
 31
0.0
  0
LINE
  5
F102D9
330
261
100
AcDbEntity
  8
Geo
100
AcDbLine
 10
-28.49547328527594
 20
-2.936680488098065
 30
0.0
 11
-28.39547328527594
 21
-2.982966588315065
 31
0.0
  0
LINE
  5
F102DB
330
261
100
AcDbEntity
  8
Geo
100
AcDbLine
 10
-28.39547328527594
 20
-2.982966588315065
 30
0.0
 11
-28.29547328527593
 21
-3.028851132367964
 31
0.0
  0
LINE
  5
F102DD
330
261
100
AcDbEntity
  8
Geo
100
AcDbLine
 10
-28.29547328527593
 20
-3.028851132367964
 30
0.0
 11
-28.19547328527593
 21
-3.074328002385765
 31
0.0
  0
LINE
  5
F102DF
330
261
100
AcDbEntity
  8
Geo
100
AcDbLine
 10
-28.19547328527593
 20
-3.074328002385765
 30
0.0
 11
-28.09547328527594
 21
-3.119391134853067
 31
0.0
  0
LINE
  5
F102E1
330
261
100
AcDbEntity
  8
Geo
100
AcDbLine
 10
-28.09547328527594
 20
-3.119391134853067
 30
0.0
 11
-27.99547328527594
 21
-3.164034521419065
 31
0.0
  0
LINE
  5
F102E3
330
261
100
AcDbEntity
  8
Geo
100
AcDbLine
 10
-27.99547328527594
 20
-3.164034521419065
 30
0.0
 11
-27.89547328527593
 21
-3.208252209698265
 31
0.0
  0
LINE
  5
F102E5
330
261
100
AcDbEntity
  8
Geo
100
AcDbLine
 10
-27.89547328527593
 20
-3.208252209698265
 30
0.0
 11
-27.79547328527594
 21
-3.252038304064367
 31
0.0
  0
LINE
  5
F102E7
330
261
100
AcDbEntity
  8
Geo
100
AcDbLine
 10
-27.79547328527594
 20
-3.252038304064367
 30
0.0
 11
-27.69547328527593
 21
-3.295386966436367
 31
0.0
  0
LINE
  5
F102E9
330
261
100
AcDbEntity
  8
Geo
100
AcDbLine
 10
-27.69547328527593
 20
-3.295386966436367
 30
0.0
 11
-27.59547328527594
 21
-3.338292417056965
 31
0.0
  0
LINE
  5
F102EB
330
261
100
AcDbEntity
  8
Geo
100
AcDbLine
 10
-27.59547328527594
 20
-3.338292417056965
 30
0.0
 11
-27.49547328527594
 21
-3.380748935262765
 31
0.0
  0
LINE
  5
F102ED
330
261
100
AcDbEntity
  8
Geo
100
AcDbLine
 10
-27.49547328527594
 20
-3.380748935262765
 30
0.0
 11
-27.39547328527593
 21
-3.422750860247663
 31
0.0
  0
LINE
  5
F102EF
330
261
100
AcDbEntity
  8
Geo
100
AcDbLine
 10
-27.39547328527593
 20
-3.422750860247663
 30
0.0
 11
-27.29547328527593
 21
-3.464292591817265
 31
0.0
  0
LINE
  5
F102F1
330
261
100
AcDbEntity
  8
Geo
100
AcDbLine
 10
-27.29547328527593
 20
-3.464292591817265
 30
0.0
 11
-27.19547328527593
 21
-3.505368591135567
 31
0.0
  0
LINE
  5
F102F3
330
261
100
AcDbEntity
  8
Geo
100
AcDbLine
 10
-27.19547328527593
 20
-3.505368591135567
 30
0.0
 11
-27.09547328527594
 21
-3.545973381463365
 31
0.0
  0
LINE
  5
F102F5
330
261
100
AcDbEntity
  8
Geo
100
AcDbLine
 10
-27.09547328527594
 20
-3.545973381463365
 30
0.0
 11
-26.99547328527593
 21
-3.586101548888965
 31
0.0
  0
LINE
  5
F102F7
330
261
100
AcDbEntity
  8
Geo
100
AcDbLine
 10
-26.99547328527593
 20
-3.586101548888965
 30
0.0
 11
-26.89547328527594
 21
-3.625747743049366
 31
0.0
  0
LINE
  5
F102F9
330
261
100
AcDbEntity
  8
Geo
100
AcDbLine
 10
-26.89547328527594
 20
-3.625747743049366
 30
0.0
 11
-26.79547328527593
 21
-3.664906677844165
 31
0.0
  0
LINE
  5
F102FB
330
261
100
AcDbEntity
  8
Geo
100
AcDbLine
 10
-26.79547328527593
 20
-3.664906677844165
 30
0.0
 11
-26.69547328527593
 21
-3.703573132139965
 31
0.0
  0
LINE
  5
F102FD
330
261
100
AcDbEntity
  8
Geo
100
AcDbLine
 10
-26.69547328527593
 20
-3.703573132139965
 30
0.0
 11
-26.59547328527594
 21
-3.741741950466966
 31
0.0
  0
LINE
  5
F102FF
330
261
100
AcDbEntity
  8
Geo
100
AcDbLine
 10
-26.59547328527594
 20
-3.741741950466966
 30
0.0
 11
-26.49547328527594
 21
-3.779408043705764
 31
0.0
  0
LINE
  5
F10301
330
261
100
AcDbEntity
  8
Geo
100
AcDbLine
 10
-26.49547328527594
 20
-3.779408043705764
 30
0.0
 11
-26.39547328527593
 21
-3.816566389766464
 31
0.0
  0
LINE
  5
F10303
330
261
100
AcDbEntity
  8
Geo
100
AcDbLine
 10
-26.39547328527593
 20
-3.816566389766464
 30
0.0
 11
-26.29547328527593
 21
-3.853212034258067
 31
0.0
  0
LINE
  5
F10305
330
261
100
AcDbEntity
  8
Geo
100
AcDbLine
 10
-26.29547328527593
 20
-3.853212034258067
 30
0.0
 11
-26.19547328527593
 21
-3.889340091148767
 31
0.0
  0
LINE
  5
F10307
330
261
100
AcDbEntity
  8
Geo
100
AcDbLine
 10
-26.19547328527593
 20
-3.889340091148767
 30
0.0
 11
-26.09547328527594
 21
-3.924945743417964
 31
0.0
  0
LINE
  5
F10309
330
261
100
AcDbEntity
  8
Geo
100
AcDbLine
 10
-26.09547328527594
 20
-3.924945743417964
 30
0.0
 11
-25.99547328527594
 21
-3.960024243698068
 31
0.0
  0
LINE
  5
F1030B
330
261
100
AcDbEntity
  8
Geo
100
AcDbLine
 10
-25.99547328527594
 20
-3.960024243698068
 30
0.0
 11
-25.89547328527594
 21
-3.994570914907566
 31
0.0
  0
LINE
  5
F1030D
330
261
100
AcDbEntity
  8
Geo
100
AcDbLine
 10
-25.89547328527594
 20
-3.994570914907566
 30
0.0
 11
-25.79547328527593
 21
-4.028581150874963
 31
0.0
  0
LINE
  5
F1030F
330
261
100
AcDbEntity
  8
Geo
100
AcDbLine
 10
-25.79547328527593
 20
-4.028581150874963
 30
0.0
 11
-25.69547328527593
 21
-4.062050416952466
 31
0.0
  0
LINE
  5
F10311
330
261
100
AcDbEntity
  8
Geo
100
AcDbLine
 10
-25.69547328527593
 20
-4.062050416952466
 30
0.0
 11
-25.59547328527594
 21
-4.094974250620868
 31
0.0
  0
LINE
  5
F10313
330
261
100
AcDbEntity
  8
Geo
100
AcDbLine
 10
-25.59547328527594
 20
-4.094974250620868
 30
0.0
 11
-25.49547328527594
 21
-4.127348262084463
 31
0.0
  0
LINE
  5
F10315
330
261
100
AcDbEntity
  8
Geo
100
AcDbLine
 10
-25.49547328527594
 20
-4.127348262084463
 30
0.0
 11
-25.39547328527593
 21
-4.159168134856265
 31
0.0
  0
LINE
  5
F10317
330
261
100
AcDbEntity
  8
Geo
100
AcDbLine
 10
-25.39547328527593
 20
-4.159168134856265
 30
0.0
 11
-25.29547328527594
 21
-4.190429626333763
 31
0.0
  0
LINE
  5
F10319
330
261
100
AcDbEntity
  8
Geo
100
AcDbLine
 10
-25.29547328527594
 20
-4.190429626333763
 30
0.0
 11
-25.19547328527593
 21
-4.221128568364367
 31
0.0
  0
LINE
  5
F1031B
330
261
100
AcDbEntity
  8
Geo
100
AcDbLine
 10
-25.19547328527593
 20
-4.221128568364367
 30
0.0
 11
-25.09547328527594
 21
-4.251260867801367
 31
0.0
  0
LINE
  5
F1031D
330
261
100
AcDbEntity
  8
Geo
100
AcDbLine
 10
-25.09547328527594
 20
-4.251260867801367
 30
0.0
 11
-24.99547328527594
 21
-4.280822507049464
 31
0.0
  0
LINE
  5
F1031F
330
261
100
AcDbEntity
  8
Geo
100
AcDbLine
 10
-24.99547328527594
 20
-4.280822507049464
 30
0.0
 11
-24.89547328527593
 21
-4.309809544600465
 31
0.0
  0
LINE
  5
F10321
330
261
100
AcDbEntity
  8
Geo
100
AcDbLine
 10
-24.89547328527593
 20
-4.309809544600465
 30
0.0
 11
-24.79547328527593
 21
-4.338218115559165
 31
0.0
  0
LINE
  5
F10323
330
261
100
AcDbEntity
  8
Geo
100
AcDbLine
 10
-24.79547328527593
 20
-4.338218115559165
 30
0.0
 11
-24.69547328527593
 21
-4.366044432157966
 31
0.0
  0
LINE
  5
F10325
330
261
100
AcDbEntity
  8
Geo
100
AcDbLine
 10
-24.69547328527593
 20
-4.366044432157966
 30
0.0
 11
-24.59547328527594
 21
-4.393284784262565
 31
0.0
  0
LINE
  5
F10327
330
261
100
AcDbEntity
  8
Geo
100
AcDbLine
 10
-24.59547328527594
 20
-4.393284784262565
 30
0.0
 11
-24.49547328527593
 21
-4.419935539866564
 31
0.0
  0
LINE
  5
F10329
330
261
100
AcDbEntity
  8
Geo
100
AcDbLine
 10
-24.49547328527593
 20
-4.419935539866564
 30
0.0
 11
-24.39547328527594
 21
-4.445993145575265
 31
0.0
  0
LINE
  5
F1032B
330
261
100
AcDbEntity
  8
Geo
100
AcDbLine
 10
-24.39547328527594
 20
-4.445993145575265
 30
0.0
 11
-24.29547328527593
 21
-4.471454127079766
 31
0.0
  0
LINE
  5
F1032D
330
261
100
AcDbEntity
  8
Geo
100
AcDbLine
 10
-24.29547328527593
 20
-4.471454127079766
 30
0.0
 11
-24.19547328527593
 21
-4.496315089620264
 31
0.0
  0
LINE
  5
F1032F
330
261
100
AcDbEntity
  8
Geo
100
AcDbLine
 10
-24.19547328527593
 20
-4.496315089620264
 30
0.0
 11
-24.09547328527594
 21
-4.520572718438664
 31
0.0
  0
LINE
  5
F10331
330
261
100
AcDbEntity
  8
Geo
100
AcDbLine
 10
-24.09547328527594
 20
-4.520572718438664
 30
0.0
 11
-23.99547328527594
 21
-4.544223779220466
 31
0.0
  0
LINE
  5
F10333
330
261
100
AcDbEntity
  8
Geo
100
AcDbLine
 10
-23.99547328527594
 20
-4.544223779220466
 30
0.0
 11
-23.89547328527593
 21
-4.567265118525664
 31
0.0
  0
LINE
  5
F10335
330
261
100
AcDbEntity
  8
Geo
100
AcDbLine
 10
-23.89547328527593
 20
-4.567265118525664
 30
0.0
 11
-23.79547328527593
 21
-4.589693664210066
 31
0.0
  0
LINE
  5
F10337
330
261
100
AcDbEntity
  8
Geo
100
AcDbLine
 10
-23.79547328527593
 20
-4.589693664210066
 30
0.0
 11
-23.69547328527593
 21
-4.611506425834065
 31
0.0
  0
LINE
  5
F10339
330
261
100
AcDbEntity
  8
Geo
100
AcDbLine
 10
-23.69547328527593
 20
-4.611506425834065
 30
0.0
 11
-23.59547328527594
 21
-4.632700495061765
 31
0.0
  0
LINE
  5
F1033B
330
261
100
AcDbEntity
  8
Geo
100
AcDbLine
 10
-23.59547328527594
 20
-4.632700495061765
 30
0.0
 11
-23.49547328527593
 21
-4.653273046048667
 31
0.0
  0
LINE
  5
F1033D
330
261
100
AcDbEntity
  8
Geo
100
AcDbLine
 10
-23.49547328527593
 20
-4.653273046048667
 30
0.0
 11
-23.39547328527594
 21
-4.673221335818467
 31
0.0
  0
LINE
  5
F1033F
330
261
100
AcDbEntity
  8
Geo
100
AcDbLine
 10
-23.39547328527594
 20
-4.673221335818467
 30
0.0
 11
-23.29547328527593
 21
-4.692542704628667
 31
0.0
  0
LINE
  5
F10341
330
261
100
AcDbEntity
  8
Geo
100
AcDbLine
 10
-23.29547328527593
 20
-4.692542704628667
 30
0.0
 11
-23.19547328527593
 21
-4.711234576325566
 31
0.0
  0
LINE
  5
F10343
330
261
100
AcDbEntity
  8
Geo
100
AcDbLine
 10
-23.19547328527593
 20
-4.711234576325566
 30
0.0
 11
-23.09547328527594
 21
-4.729294458687064
 31
0.0
  0
LINE
  5
F10345
330
261
100
AcDbEntity
  8
Geo
100
AcDbLine
 10
-23.09547328527594
 20
-4.729294458687064
 30
0.0
 11
-22.99547328527594
 21
-4.746719943755667
 31
0.0
  0
LINE
  5
F10347
330
261
100
AcDbEntity
  8
Geo
100
AcDbLine
 10
-22.99547328527594
 20
-4.746719943755667
 30
0.0
 11
-22.89547328527593
 21
-4.763508708159363
 31
0.0
  0
LINE
  5
F10349
330
261
100
AcDbEntity
  8
Geo
100
AcDbLine
 10
-22.89547328527593
 20
-4.763508708159363
 30
0.0
 11
-22.79547328527593
 21
-4.779658513420866
 31
0.0
  0
LINE
  5
F1034B
330
261
100
AcDbEntity
  8
Geo
100
AcDbLine
 10
-22.79547328527593
 20
-4.779658513420866
 30
0.0
 11
-22.69547328527593
 21
-4.795167206256866
 31
0.0
  0
LINE
  5
F1034D
330
261
100
AcDbEntity
  8
Geo
100
AcDbLine
 10
-22.69547328527593
 20
-4.795167206256866
 30
0.0
 11
-22.59547328527593
 21
-4.810032718864565
 31
0.0
  0
LINE
  5
F1034F
330
261
100
AcDbEntity
  8
Geo
100
AcDbLine
 10
-22.59547328527593
 20
-4.810032718864565
 30
0.0
 11
-22.49547328527594
 21
-4.824253069197666
 31
0.0
  0
LINE
  5
F10351
330
261
100
AcDbEntity
  8
Geo
100
AcDbLine
 10
-22.49547328527594
 20
-4.824253069197666
 30
0.0
 11
-22.39547328527593
 21
-4.837826361230565
 31
0.0
  0
LINE
  5
F10353
330
261
100
AcDbEntity
  8
Geo
100
AcDbLine
 10
-22.39547328527593
 20
-4.837826361230565
 30
0.0
 11
-22.29547328527593
 21
-4.850750785210966
 31
0.0
  0
LINE
  5
F10355
330
261
100
AcDbEntity
  8
Geo
100
AcDbLine
 10
-22.29547328527593
 20
-4.850750785210966
 30
0.0
 11
-22.19547328527593
 21
-4.863024617901665
 31
0.0
  0
LINE
  5
F10357
330
261
100
AcDbEntity
  8
Geo
100
AcDbLine
 10
-22.19547328527593
 20
-4.863024617901665
 30
0.0
 11
-22.09547328527594
 21
-4.874646222809765
 31
0.0
  0
LINE
  5
F10359
330
261
100
AcDbEntity
  8
Geo
100
AcDbLine
 10
-22.09547328527594
 20
-4.874646222809765
 30
0.0
 11
-21.99547328527593
 21
-4.885614050405067
 31
0.0
  0
LINE
  5
F1035B
330
261
100
AcDbEntity
  8
Geo
100
AcDbLine
 10
-21.99547328527593
 20
-4.885614050405067
 30
0.0
 11
-21.89547328527593
 21
-4.895926638326866
 31
0.0
  0
LINE
  5
F1035D
330
261
100
AcDbEntity
  8
Geo
100
AcDbLine
 10
-21.89547328527593
 20
-4.895926638326866
 30
0.0
 11
-21.79547328527593
 21
-4.905582611578765
 31
0.0
  0
LINE
  5
F1035F
330
261
100
AcDbEntity
  8
Geo
100
AcDbLine
 10
-21.79547328527593
 20
-4.905582611578765
 30
0.0
 11
-21.69547328527593
 21
-4.914580682711864
 31
0.0
  0
LINE
  5
F10361
330
261
100
AcDbEntity
  8
Geo
100
AcDbLine
 10
-21.69547328527593
 20
-4.914580682711864
 30
0.0
 11
-21.59547328527594
 21
-4.922919651996863
 31
0.0
  0
LINE
  5
F10363
330
261
100
AcDbEntity
  8
Geo
100
AcDbLine
 10
-21.59547328527594
 20
-4.922919651996863
 30
0.0
 11
-21.49547328527594
 21
-4.930598407583268
 31
0.0
  0
LINE
  5
F10365
330
261
100
AcDbEntity
  8
Geo
100
AcDbLine
 10
-21.49547328527594
 20
-4.930598407583268
 30
0.0
 11
-21.39547328527593
 21
-4.937615925648668
 31
0.0
  0
LINE
  5
F10367
330
261
100
AcDbEntity
  8
Geo
100
AcDbLine
 10
-21.39547328527593
 20
-4.937615925648668
 30
0.0
 11
-21.29547328527593
 21
-4.943971270534166
 31
0.0
  0
LINE
  5
F10369
330
261
100
AcDbEntity
  8
Geo
100
AcDbLine
 10
-21.29547328527593
 20
-4.943971270534166
 30
0.0
 11
-21.19547328527593
 21
-4.949663594869864
 31
0.0
  0
LINE
  5
F1036B
330
261
100
AcDbEntity
  8
Geo
100
AcDbLine
 10
-21.19547328527593
 20
-4.949663594869864
 30
0.0
 11
-21.09547328527594
 21
-4.954692139687868
 31
0.0
  0
LINE
  5
F1036D
330
261
100
AcDbEntity
  8
Geo
100
AcDbLine
 10
-21.09547328527594
 20
-4.954692139687868
 30
0.0
 11
-20.99547328527593
 21
-4.959056234522666
 31
0.0
  0
LINE
  5
F1036F
330
261
100
AcDbEntity
  8
Geo
100
AcDbLine
 10
-20.99547328527593
 20
-4.959056234522666
 30
0.0
 11
-20.89547328527594
 21
-4.962755297501569
 31
0.0
  0
LINE
  5
F10371
330
261
100
AcDbEntity
  8
Geo
100
AcDbLine
 10
-20.89547328527594
 20
-4.962755297501569
 30
0.0
 11
-20.79547328527593
 21
-4.965788835421665
 31
0.0
  0
LINE
  5
F10373
330
261
100
AcDbEntity
  8
Geo
100
AcDbLine
 10
-20.79547328527593
 20
-4.965788835421665
 30
0.0
 11
-20.69547328527593
 21
-4.968156443815768
 31
0.0
  0
LINE
  5
F10375
330
261
100
AcDbEntity
  8
Geo
100
AcDbLine
 10
-20.69547328527593
 20
-4.968156443815768
 30
0.0
 11
-20.59547328527594
 21
-4.969857807006167
 31
0.0
  0
LINE
  5
F10377
330
261
100
AcDbEntity
  8
Geo
100
AcDbLine
 10
-20.59547328527594
 20
-4.969857807006167
 30
0.0
 11
-20.49547328527594
 21
-4.970892698146965
 31
0.0
  0
LINE
  5
F10379
330
261
100
AcDbEntity
  8
Geo
100
AcDbLine
 10
-20.49547328527594
 20
-4.970892698146965
 30
0.0
 11
-20.39547328527593
 21
-4.971260979254164
 31
0.0
  0
LINE
  5
F1037B
330
261
100
AcDbEntity
  8
Geo
100
AcDbLine
 10
-12.19547328527584
 20
-4.971261893271666
 30
0.0
 11
-12.09547328527583
 21
-4.971250642666664
 31
0.0
  0
LINE
  5
F1037D
330
261
100
AcDbEntity
  8
Geo
100
AcDbLine
 10
-12.09547328527583
 20
-4.971250642666664
 30
0.0
 11
-11.99547328527583
 21
-4.971216654311366
 31
0.0
  0
LINE
  5
F1037F
330
261
100
AcDbEntity
  8
Geo
100
AcDbLine
 10
-11.99547328527583
 20
-4.971216654311366
 30
0.0
 11
-11.89547328527584
 21
-4.971160537705067
 31
0.0
  0
LINE
  5
F10381
330
261
100
AcDbEntity
  8
Geo
100
AcDbLine
 10
-11.89547328527584
 20
-4.971160537705067
 30
0.0
 11
-11.79547328527584
 21
-4.971082896993568
 31
0.0
  0
LINE
  5
F10383
330
261
100
AcDbEntity
  8
Geo
100
AcDbLine
 10
-11.79547328527584
 20
-4.971082896993568
 30
0.0
 11
-11.69547328527584
 21
-4.970984330961364
 31
0.0
  0
LINE
  5
F10385
330
261
100
AcDbEntity
  8
Geo
100
AcDbLine
 10
-11.69547328527584
 20
-4.970984330961364
 30
0.0
 11
-11.59547328527583
 21
-4.970865433022567
 31
0.0
  0
LINE
  5
F10387
330
261
100
AcDbEntity
  8
Geo
100
AcDbLine
 10
-11.59547328527583
 20
-4.970865433022567
 30
0.0
 11
-11.49547328527583
 21
-4.970726791213365
 31
0.0
  0
LINE
  5
F10389
330
261
100
AcDbEntity
  8
Geo
100
AcDbLine
 10
-11.49547328527583
 20
-4.970726791213365
 30
0.0
 11
-11.39547328527584
 21
-4.970568988184265
 31
0.0
  0
LINE
  5
F1038B
330
261
100
AcDbEntity
  8
Geo
100
AcDbLine
 10
-11.39547328527584
 20
-4.970568988184265
 30
0.0
 11
-11.29547328527584
 21
-4.970392601192767
 31
0.0
  0
LINE
  5
F1038D
330
261
100
AcDbEntity
  8
Geo
100
AcDbLine
 10
-11.29547328527584
 20
-4.970392601192767
 30
0.0
 11
-11.19547328527584
 21
-4.970198202096366
 31
0.0
  0
LINE
  5
F1038F
330
261
100
AcDbEntity
  8
Geo
100
AcDbLine
 10
-11.19547328527584
 20
-4.970198202096366
 30
0.0
 11
-11.09547328527583
 21
-4.969986357345867
 31
0.0
  0
LINE
  5
F10391
330
261
100
AcDbEntity
  8
Geo
100
AcDbLine
 10
-11.09547328527583
 20
-4.969986357345867
 30
0.0
 11
-10.99547328527583
 21
-4.969757627979465
 31
0.0
  0
LINE
  5
F10393
330
261
100
AcDbEntity
  8
Geo
100
AcDbLine
 10
-10.99547328527583
 20
-4.969757627979465
 30
0.0
 11
-10.89547328527584
 21
-4.969512569615865
 31
0.0
  0
LINE
  5
F10395
330
261
100
AcDbEntity
  8
Geo
100
AcDbLine
 10
-10.89547328527584
 20
-4.969512569615865
 30
0.0
 11
-10.79547328527584
 21
-4.969251732449567
 31
0.0
  0
LINE
  5
F10397
330
261
100
AcDbEntity
  8
Geo
100
AcDbLine
 10
-10.79547328527584
 20
-4.969251732449567
 30
0.0
 11
-10.69547328527584
 21
-4.968975661244463
 31
0.0
  0
LINE
  5
F10399
330
261
100
AcDbEntity
  8
Geo
100
AcDbLine
 10
-10.69547328527584
 20
-4.968975661244463
 30
0.0
 11
-10.59547328527584
 21
-4.968684895329364
 31
0.0
  0
LINE
  5
F1039B
330
261
100
AcDbEntity
  8
Geo
100
AcDbLine
 10
-10.59547328527584
 20
-4.968684895329364
 30
0.0
 11
-10.49547328527583
 21
-4.968379968592863
 31
0.0
  0
LINE
  5
F1039D
330
261
100
AcDbEntity
  8
Geo
100
AcDbLine
 10
-10.49547328527583
 20
-4.968379968592863
 30
0.0
 11
-10.39547328527584
 21
-4.968061409478767
 31
0.0
  0
LINE
  5
F1039F
330
261
100
AcDbEntity
  8
Geo
100
AcDbLine
 10
-10.39547328527584
 20
-4.968061409478767
 30
0.0
 11
-10.29547328527584
 21
-4.967729740981667
 31
0.0
  0
LINE
  5
F103A1
330
261
100
AcDbEntity
  8
Geo
100
AcDbLine
 10
-10.29547328527584
 20
-4.967729740981667
 30
0.0
 11
-10.19547328527584
 21
-4.967385480643066
 31
0.0
  0
LINE
  5
F103A3
330
261
100
AcDbEntity
  8
Geo
100
AcDbLine
 10
-10.19547328527584
 20
-4.967385480643066
 30
0.0
 11
-10.09547328527583
 21
-4.967029140547264
 31
0.0
  0
LINE
  5
F103A5
330
261
100
AcDbEntity
  8
Geo
100
AcDbLine
 10
-10.09547328527583
 20
-4.967029140547264
 30
0.0
 11
-9.995473285275835
 21
-4.966661227317963
 31
0.0
  0
LINE
  5
F103A7
330
261
100
AcDbEntity
  8
Geo
100
AcDbLine
 10
-9.995473285275835
 20
-4.966661227317963
 30
0.0
 11
-9.895473285275841
 21
-4.966282242115067
 31
0.0
  0
LINE
  5
F103A9
330
261
100
AcDbEntity
  8
Geo
100
AcDbLine
 10
-9.895473285275841
 20
-4.966282242115067
 30
0.0
 11
-9.795473285275839
 21
-4.965892680631167
 31
0.0
  0
LINE
  5
F103AB
330
261
100
AcDbEntity
  8
Geo
100
AcDbLine
 10
-9.795473285275839
 20
-4.965892680631167
 30
0.0
 11
-9.695473285275838
 21
-4.965493033088865
 31
0.0
  0
LINE
  5
F103AD
330
261
100
AcDbEntity
  8
Geo
100
AcDbLine
 10
-9.695473285275838
 20
-4.965493033088865
 30
0.0
 11
-9.595473285275836
 21
-4.965083784238366
 31
0.0
  0
LINE
  5
F103AF
330
261
100
AcDbEntity
  8
Geo
100
AcDbLine
 10
-9.595473285275836
 20
-4.965083784238366
 30
0.0
 11
-9.495473285275835
 21
-4.964665413354463
 31
0.0
  0
LINE
  5
F103B1
330
261
100
AcDbEntity
  8
Geo
100
AcDbLine
 10
-9.495473285275835
 20
-4.964665413354463
 30
0.0
 11
-9.395473285275841
 21
-4.964238394234666
 31
0.0
  0
LINE
  5
F103B3
330
261
100
AcDbEntity
  8
Geo
100
AcDbLine
 10
-9.395473285275841
 20
-4.964238394234666
 30
0.0
 11
-9.295473285275839
 21
-4.963803195197364
 31
0.0
  0
LINE
  5
F103B5
330
261
100
AcDbEntity
  8
Geo
100
AcDbLine
 10
-9.295473285275839
 20
-4.963803195197364
 30
0.0
 11
-9.195473285275838
 21
-4.963360279079168
 31
0.0
  0
LINE
  5
F103B7
330
261
100
AcDbEntity
  8
Geo
100
AcDbLine
 10
-9.195473285275838
 20
-4.963360279079168
 30
0.0
 11
-9.095473285275836
 21
-4.962910103234268
 31
0.0
  0
LINE
  5
F103B9
330
261
100
AcDbEntity
  8
Geo
100
AcDbLine
 10
-9.095473285275836
 20
-4.962910103234268
 30
0.0
 11
-8.995473285275835
 21
-4.962453119532167
 31
0.0
  0
LINE
  5
F103BB
330
261
100
AcDbEntity
  8
Geo
100
AcDbLine
 10
-8.995473285275835
 20
-4.962453119532167
 30
0.0
 11
-8.895473285275841
 21
-4.961989774356666
 31
0.0
  0
LINE
  5
F103BD
330
261
100
AcDbEntity
  8
Geo
100
AcDbLine
 10
-8.895473285275841
 20
-4.961989774356666
 30
0.0
 11
-8.795473285275839
 21
-4.961520508604767
 31
0.0
  0
LINE
  5
F103BF
330
261
100
AcDbEntity
  8
Geo
100
AcDbLine
 10
-8.795473285275839
 20
-4.961520508604767
 30
0.0
 11
-8.695473285275838
 21
-4.961045757685766
 31
0.0
  0
LINE
  5
F103C1
330
261
100
AcDbEntity
  8
Geo
100
AcDbLine
 10
-8.695473285275838
 20
-4.961045757685766
 30
0.0
 11
-8.595473285275836
 21
-4.960565951520266
 31
0.0
  0
LINE
  5
F103C3
330
261
100
AcDbEntity
  8
Geo
100
AcDbLine
 10
-8.595473285275836
 20
-4.960565951520266
 30
0.0
 11
-8.495473285275835
 21
-4.960081514539567
 31
0.0
  0
LINE
  5
F103C5
330
261
100
AcDbEntity
  8
Geo
100
AcDbLine
 10
-8.495473285275835
 20
-4.960081514539567
 30
0.0
 11
-8.395473285275841
 21
-4.959592865685266
 31
0.0
  0
LINE
  5
F103C7
330
261
100
AcDbEntity
  8
Geo
100
AcDbLine
 10
-8.395473285275841
 20
-4.959592865685266
 30
0.0
 11
-8.295473285275839
 21
-4.959100418408667
 31
0.0
  0
LINE
  5
F103C9
330
261
100
AcDbEntity
  8
Geo
100
AcDbLine
 10
-8.295473285275839
 20
-4.959100418408667
 30
0.0
 11
-8.195473285275745
 21
-4.958604580670964
 31
0.0
  0
LINE
  5
F103CB
330
261
100
AcDbEntity
  8
Geo
100
AcDbLine
 10
-8.195473285275745
 20
-4.958604580670964
 30
0.0
 11
-8.095473285275737
 21
-4.958105754942863
 31
0.0
  0
LINE
  5
F103CD
330
261
100
AcDbEntity
  8
Geo
100
AcDbLine
 10
-8.095473285275737
 20
-4.958105754942863
 30
0.0
 11
-7.995473285275735
 21
-4.957604338204568
 31
0.0
  0
LINE
  5
F103CF
330
261
100
AcDbEntity
  8
Geo
100
AcDbLine
 10
-7.995473285275735
 20
-4.957604338204568
 30
0.0
 11
-7.895473285275734
 21
-4.957100721946066
 31
0.0
  0
LINE
  5
F103D1
330
261
100
AcDbEntity
  8
Geo
100
AcDbLine
 10
-7.895473285275734
 20
-4.957100721946066
 30
0.0
 11
-7.79547328527574
 21
-4.956595292167666
 31
0.0
  0
LINE
  5
F103D3
330
261
100
AcDbEntity
  8
Geo
100
AcDbLine
 10
-7.79547328527574
 20
-4.956595292167666
 30
0.0
 11
-7.695473285275738
 21
-4.956088429379668
 31
0.0
  0
LINE
  5
F103D5
330
261
100
AcDbEntity
  8
Geo
100
AcDbLine
 10
-7.695473285275738
 20
-4.956088429379668
 30
0.0
 11
-7.595473285275737
 21
-4.955580508603667
 31
0.0
  0
LINE
  5
F103D7
330
261
100
AcDbEntity
  8
Geo
100
AcDbLine
 10
-7.595473285275737
 20
-4.955580508603667
 30
0.0
 11
-7.495473285275735
 21
-4.955071899372764
 31
0.0
  0
LINE
  5
F103D9
330
261
100
AcDbEntity
  8
Geo
100
AcDbLine
 10
-7.495473285275735
 20
-4.955071899372764
 30
0.0
 11
-7.395473285275734
 21
-4.954562965732264
 31
0.0
  0
LINE
  5
F103DB
330
261
100
AcDbEntity
  8
Geo
100
AcDbLine
 10
-7.395473285275734
 20
-4.954562965732264
 30
0.0
 11
-7.29547328527574
 21
-4.954054066240466
 31
0.0
  0
LINE
  5
F103DD
330
261
100
AcDbEntity
  8
Geo
100
AcDbLine
 10
-7.29547328527574
 20
-4.954054066240466
 30
0.0
 11
-7.195473285275738
 21
-4.953545553969767
 31
0.0
  0
LINE
  5
F103DF
330
261
100
AcDbEntity
  8
Geo
100
AcDbLine
 10
-7.195473285275738
 20
-4.953545553969767
 30
0.0
 11
-7.095473285275737
 21
-4.953037776507464
 31
0.0
  0
LINE
  5
F103E1
330
261
100
AcDbEntity
  8
Geo
100
AcDbLine
 10
-7.095473285275737
 20
-4.953037776507464
 30
0.0
 11
-6.995473285275735
 21
-4.952531075956766
 31
0.0
  0
LINE
  5
F103E3
330
261
100
AcDbEntity
  8
Geo
100
AcDbLine
 10
-6.995473285275735
 20
-4.952531075956766
 30
0.0
 11
-6.895473285275734
 21
-4.952025788937866
 31
0.0
  0
LINE
  5
F103E5
330
261
100
AcDbEntity
  8
Geo
100
AcDbLine
 10
-6.895473285275734
 20
-4.952025788937866
 30
0.0
 11
-6.79547328527574
 21
-4.951522246589465
 31
0.0
  0
LINE
  5
F103E7
330
261
100
AcDbEntity
  8
Geo
100
AcDbLine
 10
-6.79547328527574
 20
-4.951522246589465
 30
0.0
 11
-6.695473285275738
 21
-4.951020774569865
 31
0.0
  0
LINE
  5
F103E9
330
261
100
AcDbEntity
  8
Geo
100
AcDbLine
 10
-6.695473285275738
 20
-4.951020774569865
 30
0.0
 11
-6.595473285275737
 21
-4.950521693057865
 31
0.0
  0
LINE
  5
F103EB
330
261
100
AcDbEntity
  8
Geo
100
AcDbLine
 10
-6.595473285275737
 20
-4.950521693057865
 30
0.0
 11
-6.495473285275735
 21
-4.950025316754963
 31
0.0
  0
LINE
  5
F103ED
330
261
100
AcDbEntity
  8
Geo
100
AcDbLine
 10
-6.495473285275735
 20
-4.950025316754963
 30
0.0
 11
-6.395473285275734
 21
-4.949531954886065
 31
0.0
  0
LINE
  5
F103EF
330
261
100
AcDbEntity
  8
Geo
100
AcDbLine
 10
-6.395473285275734
 20
-4.949531954886065
 30
0.0
 11
-6.29547328527574
 21
-4.949041911201668
 31
0.0
  0
LINE
  5
F103F1
330
261
100
AcDbEntity
  8
Geo
100
AcDbLine
 10
-6.29547328527574
 20
-4.949041911201668
 30
0.0
 11
-6.195473285275738
 21
-4.948555483978466
 31
0.0
  0
LINE
  5
F103F3
330
261
100
AcDbEntity
  8
Geo
100
AcDbLine
 10
-6.195473285275738
 20
-4.948555483978466
 30
0.0
 11
-6.095473285275737
 21
-4.948072966021964
 31
0.0
  0
LINE
  5
F103F5
330
261
100
AcDbEntity
  8
Geo
100
AcDbLine
 10
-6.095473285275737
 20
-4.948072966021964
 30
0.0
 11
-5.995473285275735
 21
-4.947594644667265
 31
0.0
  0
LINE
  5
F103F7
330
261
100
AcDbEntity
  8
Geo
100
AcDbLine
 10
-5.995473285275735
 20
-4.947594644667265
 30
0.0
 11
-5.895473285275734
 21
-4.947120801781366
 31
0.0
  0
LINE
  5
F103F9
330
261
100
AcDbEntity
  8
Geo
100
AcDbLine
 10
-5.895473285275734
 20
-4.947120801781366
 30
0.0
 11
-5.79547328527574
 21
-4.946651713764165
 31
0.0
  0
LINE
  5
F103FB
330
261
100
AcDbEntity
  8
Geo
100
AcDbLine
 10
-5.79547328527574
 20
-4.946651713764165
 30
0.0
 11
-5.695473285275738
 21
-4.946187651550868
 31
0.0
  0
LINE
  5
F103FD
330
261
100
AcDbEntity
  8
Geo
100
AcDbLine
 10
-5.695473285275738
 20
-4.946187651550868
 30
0.0
 11
-5.595473285275737
 21
-4.945728880613266
 31
0.0
  0
LINE
  5
F103FF
330
261
100
AcDbEntity
  8
Geo
100
AcDbLine
 10
-5.595473285275737
 20
-4.945728880613266
 30
0.0
 11
-5.495473285275735
 21
-4.945275660961666
 31
0.0
  0
LINE
  5
F10401
330
261
100
AcDbEntity
  8
Geo
100
AcDbLine
 10
-5.495473285275735
 20
-4.945275660961666
 30
0.0
 11
-5.395473285275734
 21
-4.944828247146666
 31
0.0
  0
LINE
  5
F10403
330
261
100
AcDbEntity
  8
Geo
100
AcDbLine
 10
-5.395473285275734
 20
-4.944828247146666
 30
0.0
 11
-5.29547328527574
 21
-4.944386888260765
 31
0.0
  0
LINE
  5
F10405
330
261
100
AcDbEntity
  8
Geo
100
AcDbLine
 10
-5.29547328527574
 20
-4.944386888260765
 30
0.0
 11
-5.195473285275738
 21
-4.943951827940466
 31
0.0
  0
LINE
  5
F10407
330
261
100
AcDbEntity
  8
Geo
100
AcDbLine
 10
-5.195473285275738
 20
-4.943951827940466
 30
0.0
 11
-5.095473285275737
 21
-4.943523304367865
 31
0.0
  0
LINE
  5
F10409
330
261
100
AcDbEntity
  8
Geo
100
AcDbLine
 10
-5.095473285275737
 20
-4.943523304367865
 30
0.0
 11
-4.995473285275735
 21
-4.943101550272466
 31
0.0
  0
LINE
  5
F1040B
330
261
100
AcDbEntity
  8
Geo
100
AcDbLine
 10
-4.995473285275735
 20
-4.943101550272466
 30
0.0
 11
-4.895473285275734
 21
-4.942686792933066
 31
0.0
  0
LINE
  5
F1040D
330
261
100
AcDbEntity
  8
Geo
100
AcDbLine
 10
-4.895473285275734
 20
-4.942686792933066
 30
0.0
 11
-4.79547328527574
 21
-4.942279254179766
 31
0.0
  0
LINE
  5
F1040F
330
261
100
AcDbEntity
  8
Geo
100
AcDbLine
 10
-4.79547328527574
 20
-4.942279254179766
 30
0.0
 11
-4.695473285275738
 21
-4.941879150395166
 31
0.0
  0
LINE
  5
F10411
330
261
100
AcDbEntity
  8
Geo
100
AcDbLine
 10
-4.695473285275738
 20
-4.941879150395166
 30
0.0
 11
-4.595473285275737
 21
-4.941486692516864
 31
0.0
  0
LINE
  5
F10413
330
261
100
AcDbEntity
  8
Geo
100
AcDbLine
 10
-4.595473285275737
 20
-4.941486692516864
 30
0.0
 11
-4.495473285275735
 21
-4.941102086038966
 31
0.0
  0
LINE
  5
F10415
330
261
100
AcDbEntity
  8
Geo
100
AcDbLine
 10
-4.495473285275735
 20
-4.941102086038966
 30
0.0
 11
-4.395473285275734
 21
-4.940725531013665
 31
0.0
  0
LINE
  5
F10417
330
261
100
AcDbEntity
  8
Geo
100
AcDbLine
 10
-4.395473285275734
 20
-4.940725531013665
 30
0.0
 11
-4.29547328527574
 21
-4.940357222053268
 31
0.0
  0
LINE
  5
F10419
330
261
100
AcDbEntity
  8
Geo
100
AcDbLine
 10
-4.29547328527574
 20
-4.940357222053268
 30
0.0
 11
-4.19547328527593
 21
-4.939997348331864
 31
0.0
  0
LINE
  5
F1041B
330
261
100
AcDbEntity
  8
Geo
100
AcDbLine
 10
-40.79547328527593
 20
2.800885001633531
 30
0.0
 11
-40.69547328527593
 21
2.810178737970037
 31
0.0
  0
LINE
  5
F1041D
330
261
100
AcDbEntity
  8
Geo
100
AcDbLine
 10
-40.69547328527593
 20
2.810178737970037
 30
0.0
 11
-40.59547328527592
 21
2.77327347227143
 31
0.0
  0
LINE
  5
F1041F
330
261
100
AcDbEntity
  8
Geo
100
AcDbLine
 10
-40.59547328527592
 20
2.77327347227143
 30
0.0
 11
-40.49547328527594
 21
2.724831828278535
 31
0.0
  0
LINE
  5
F10421
330
261
100
AcDbEntity
  8
Geo
100
AcDbLine
 10
-40.49547328527594
 20
2.724831828278535
 30
0.0
 11
-40.39547328527592
 21
2.676030709116734
 31
0.0
  0
LINE
  5
F10423
330
261
100
AcDbEntity
  8
Geo
100
AcDbLine
 10
-40.39547328527592
 20
2.676030709116734
 30
0.0
 11
-40.29547328527593
 21
2.626876621529532
 31
0.0
  0
LINE
  5
F10425
330
261
100
AcDbEntity
  8
Geo
100
AcDbLine
 10
-40.29547328527593
 20
2.626876621529532
 30
0.0
 11
-40.19547328527593
 21
2.577376119322536
 31
0.0
  0
LINE
  5
F10427
330
261
100
AcDbEntity
  8
Geo
100
AcDbLine
 10
-40.19547328527593
 20
2.577376119322536
 30
0.0
 11
-40.09547328527593
 21
2.527535802489236
 31
0.0
  0
LINE
  5
F10429
330
261
100
AcDbEntity
  8
Geo
100
AcDbLine
 10
-40.09547328527593
 20
2.527535802489236
 30
0.0
 11
-39.99547328527594
 21
2.477362316331433
 31
0.0
  0
LINE
  5
F1042B
330
261
100
AcDbEntity
  8
Geo
100
AcDbLine
 10
-39.99547328527594
 20
2.477362316331433
 30
0.0
 11
-39.89547328527592
 21
2.426862350573031
 31
0.0
  0
LINE
  5
F1042D
330
261
100
AcDbEntity
  8
Geo
100
AcDbLine
 10
-39.89547328527592
 20
2.426862350573031
 30
0.0
 11
-39.79547328527593
 21
2.376042638467833
 31
0.0
  0
LINE
  5
F1042F
330
261
100
AcDbEntity
  8
Geo
100
AcDbLine
 10
-39.79547328527593
 20
2.376042638467833
 30
0.0
 11
-39.69547328527594
 21
2.324909955902235
 31
0.0
  0
LINE
  5
F10431
330
261
100
AcDbEntity
  8
Geo
100
AcDbLine
 10
-39.69547328527594
 20
2.324909955902235
 30
0.0
 11
-39.59547328527593
 21
2.273471120491535
 31
0.0
  0
LINE
  5
F10433
330
261
100
AcDbEntity
  8
Geo
100
AcDbLine
 10
-39.59547328527593
 20
2.273471120491535
 30
0.0
 11
-39.49547328527593
 21
2.221732990670933
 31
0.0
  0
LINE
  5
F10435
330
261
100
AcDbEntity
  8
Geo
100
AcDbLine
 10
-39.49547328527593
 20
2.221732990670933
 30
0.0
 11
-39.39547328527593
 21
2.169702464781035
 31
0.0
  0
LINE
  5
F10437
330
261
100
AcDbEntity
  8
Geo
100
AcDbLine
 10
-39.39547328527593
 20
2.169702464781035
 30
0.0
 11
-39.29547328527593
 21
2.117386480148134
 31
0.0
  0
LINE
  5
F10439
330
261
100
AcDbEntity
  8
Geo
100
AcDbLine
 10
-39.29547328527593
 20
2.117386480148134
 30
0.0
 11
-39.19547328527594
 21
2.064792012159433
 31
0.0
  0
LINE
  5
F1043B
330
261
100
AcDbEntity
  8
Geo
100
AcDbLine
 10
-39.19547328527594
 20
2.064792012159433
 30
0.0
 11
-39.09547328527593
 21
2.011926073332837
 31
0.0
  0
LINE
  5
F1043D
330
261
100
AcDbEntity
  8
Geo
100
AcDbLine
 10
-39.09547328527593
 20
2.011926073332837
 30
0.0
 11
-38.99547328527594
 21
1.958795712381732
 31
0.0
  0
LINE
  5
F1043F
330
261
100
AcDbEntity
  8
Geo
100
AcDbLine
 10
-38.99547328527594
 20
1.958795712381732
 30
0.0
 11
-38.89547328527593
 21
1.905408013275536
 31
0.0
  0
LINE
  5
F10441
330
261
100
AcDbEntity
  8
Geo
100
AcDbLine
 10
-38.89547328527593
 20
1.905408013275536
 30
0.0
 11
-38.79547328527593
 21
1.851770094295133
 31
0.0
  0
LINE
  5
F10443
330
261
100
AcDbEntity
  8
Geo
100
AcDbLine
 10
-38.79547328527593
 20
1.851770094295133
 30
0.0
 11
-38.69547328527594
 21
1.797889107083435
 31
0.0
  0
LINE
  5
F10445
330
261
100
AcDbEntity
  8
Geo
100
AcDbLine
 10
-38.69547328527594
 20
1.797889107083435
 30
0.0
 11
-38.59547328527593
 21
1.743772235692432
 31
0.0
  0
LINE
  5
F10447
330
261
100
AcDbEntity
  8
Geo
100
AcDbLine
 10
-38.59547328527593
 20
1.743772235692432
 30
0.0
 11
-38.49547328527594
 21
1.689426695624735
 31
0.0
  0
LINE
  5
F10449
330
261
100
AcDbEntity
  8
Geo
100
AcDbLine
 10
-38.49547328527594
 20
1.689426695624735
 30
0.0
 11
-38.39547328527593
 21
1.634859732871735
 31
0.0
  0
LINE
  5
F1044B
330
261
100
AcDbEntity
  8
Geo
100
AcDbLine
 10
-38.39547328527593
 20
1.634859732871735
 30
0.0
 11
-38.29547328527593
 21
1.580078622947734
 31
0.0
  0
LINE
  5
F1044D
330
261
100
AcDbEntity
  8
Geo
100
AcDbLine
 10
-38.29547328527593
 20
1.580078622947734
 30
0.0
 11
-38.19547328527594
 21
1.525090669919631
 31
0.0
  0
LINE
  5
F1044F
330
261
100
AcDbEntity
  8
Geo
100
AcDbLine
 10
-38.19547328527594
 20
1.525090669919631
 30
0.0
 11
-38.09547328527593
 21
1.469903205432839
 31
0.0
  0
LINE
  5
F10451
330
261
100
AcDbEntity
  8
Geo
100
AcDbLine
 10
-38.09547328527593
 20
1.469903205432839
 30
0.0
 11
-37.99547328527594
 21
1.414523587734436
 31
0.0
  0
LINE
  5
F10453
330
261
100
AcDbEntity
  8
Geo
100
AcDbLine
 10
-37.99547328527594
 20
1.414523587734436
 30
0.0
 11
-37.89547328527593
 21
1.358959200691131
 31
0.0
  0
LINE
  5
F10455
330
261
100
AcDbEntity
  8
Geo
100
AcDbLine
 10
-37.89547328527593
 20
1.358959200691131
 30
0.0
 11
-37.79547328527594
 21
1.303217452805732
 31
0.0
  0
LINE
  5
F10457
330
261
100
AcDbEntity
  8
Geo
100
AcDbLine
 10
-37.79547328527594
 20
1.303217452805732
 30
0.0
 11
-37.69547328527594
 21
1.247305776228735
 31
0.0
  0
LINE
  5
F10459
330
261
100
AcDbEntity
  8
Geo
100
AcDbLine
 10
-37.69547328527594
 20
1.247305776228735
 30
0.0
 11
-37.59547328527593
 21
1.191231625767432
 31
0.0
  0
LINE
  5
F1045B
330
261
100
AcDbEntity
  8
Geo
100
AcDbLine
 10
-37.59547328527593
 20
1.191231625767432
 30
0.0
 11
-37.49547328527594
 21
1.135002477892129
 31
0.0
  0
LINE
  5
F1045D
330
261
100
AcDbEntity
  8
Geo
100
AcDbLine
 10
-37.49547328527594
 20
1.135002477892129
 30
0.0
 11
-37.39547328527593
 21
1.078625829739234
 31
0.0
  0
LINE
  5
F1045F
330
261
100
AcDbEntity
  8
Geo
100
AcDbLine
 10
-37.39547328527593
 20
1.078625829739234
 30
0.0
 11
-37.29547328527593
 21
1.022109198111731
 31
0.0
  0
LINE
  5
F10461
330
261
100
AcDbEntity
  8
Geo
100
AcDbLine
 10
-37.29547328527593
 20
1.022109198111731
 30
0.0
 11
-37.19547328527594
 21
0.9654601184767308
 31
0.0
  0
LINE
  5
F10463
330
261
100
AcDbEntity
  8
Geo
100
AcDbLine
 10
-37.19547328527594
 20
0.9654601184767308
 30
0.0
 11
-37.09547328527593
 21
0.9086861439609315
 31
0.0
  0
LINE
  5
F10465
330
261
100
AcDbEntity
  8
Geo
100
AcDbLine
 10
-37.09547328527593
 20
0.9086861439609315
 30
0.0
 11
-36.99547328527593
 21
0.8517948443435372
 31
0.0
  0
LINE
  5
F10467
330
261
100
AcDbEntity
  8
Geo
100
AcDbLine
 10
-36.99547328527593
 20
0.8517948443435372
 30
0.0
 11
-36.89547328527593
 21
0.7947938050468331
 31
0.0
  0
LINE
  5
F10469
330
261
100
AcDbEntity
  8
Geo
100
AcDbLine
 10
-36.89547328527593
 20
0.7947938050468331
 30
0.0
 11
-36.79547328527593
 21
0.7376906261249339
 31
0.0
  0
LINE
  5
F1046B
330
261
100
AcDbEntity
  8
Geo
100
AcDbLine
 10
-36.79547328527593
 20
0.7376906261249339
 30
0.0
 11
-36.69547328527594
 21
0.6804929212504334
 31
0.0
  0
LINE
  5
F1046D
330
261
100
AcDbEntity
  8
Geo
100
AcDbLine
 10
-36.69547328527594
 20
0.6804929212504334
 30
0.0
 11
-36.59547328527593
 21
0.6232083166992375
 31
0.0
  0
LINE
  5
F1046F
330
261
100
AcDbEntity
  8
Geo
100
AcDbLine
 10
-36.59547328527593
 20
0.6232083166992375
 30
0.0
 11
-36.49547328527594
 21
0.5658444503337315
 31
0.0
  0
LINE
  5
F10471
330
261
100
AcDbEntity
  8
Geo
100
AcDbLine
 10
-36.49547328527594
 20
0.5658444503337315
 30
0.0
 11
-36.39547328527593
 21
0.508408970584533
 31
0.0
  0
LINE
  5
F10473
330
261
100
AcDbEntity
  8
Geo
100
AcDbLine
 10
-36.39547328527593
 20
0.508408970584533
 30
0.0
 11
-36.29547328527593
 21
0.4509095354305331
 31
0.0
  0
LINE
  5
F10475
330
261
100
AcDbEntity
  8
Geo
100
AcDbLine
 10
-36.29547328527593
 20
0.4509095354305331
 30
0.0
 11
-36.19547328527594
 21
0.3933538113778319
 31
0.0
  0
LINE
  5
F10477
330
261
100
AcDbEntity
  8
Geo
100
AcDbLine
 10
-36.19547328527594
 20
0.3933538113778319
 30
0.0
 11
-36.09547328527593
 21
0.3357494724376338
 31
0.0
  0
LINE
  5
F10479
330
261
100
AcDbEntity
  8
Geo
100
AcDbLine
 10
-36.09547328527593
 20
0.3357494724376338
 30
0.0
 11
-35.99547328527594
 21
0.278104199103236
 31
0.0
  0
LINE
  5
F1047B
330
261
100
AcDbEntity
  8
Geo
100
AcDbLine
 10
-35.99547328527594
 20
0.278104199103236
 30
0.0
 11
-35.89547328527593
 21
0.220425677325732
 31
0.0
  0
LINE
  5
F1047D
330
261
100
AcDbEntity
  8
Geo
100
AcDbLine
 10
-35.89547328527593
 20
0.220425677325732
 30
0.0
 11
-35.79547328527593
 21
0.1627215974890355
 31
0.0
  0
LINE
  5
F1047F
330
261
100
AcDbEntity
  8
Geo
100
AcDbLine
 10
-35.79547328527593
 20
0.1627215974890355
 30
0.0
 11
-35.69547328527594
 21
0.1049996533852315
 31
0.0
  0
LINE
  5
F10481
330
261
100
AcDbEntity
  8
Geo
100
AcDbLine
 10
-35.69547328527594
 20
0.1049996533852315
 30
0.0
 11
-35.59547328527593
 21
0.0472675411878321
 31
0.0
  0
LINE
  5
F10483
330
261
100
AcDbEntity
  8
Geo
100
AcDbLine
 10
-35.59547328527593
 20
0.0472675411878321
 30
0.0
 11
-35.49547328527594
 21
-0.0104670415736656
 31
0.0
  0
LINE
  5
F10485
330
261
100
AcDbEntity
  8
Geo
100
AcDbLine
 10
-35.49547328527594
 20
-0.0104670415736656
 30
0.0
 11
-35.39547328527593
 21
-0.0681963970404631
 31
0.0
  0
LINE
  5
F10487
330
261
100
AcDbEntity
  8
Geo
100
AcDbLine
 10
-35.39547328527593
 20
-0.0681963970404631
 30
0.0
 11
-35.29547328527594
 21
-0.1259128280506623
 31
0.0
  0
LINE
  5
F10489
330
261
100
AcDbEntity
  8
Geo
100
AcDbLine
 10
-35.29547328527594
 20
-0.1259128280506623
 30
0.0
 11
-35.19547328527594
 21
-0.1836086391655662
 31
0.0
  0
LINE
  5
F1048B
330
261
100
AcDbEntity
  8
Geo
100
AcDbLine
 10
-35.19547328527594
 20
-0.1836086391655662
 30
0.0
 11
-35.09547328527593
 21
-0.2412761376959658
 31
0.0
  0
LINE
  5
F1048D
330
261
100
AcDbEntity
  8
Geo
100
AcDbLine
 10
-35.09547328527593
 20
-0.2412761376959658
 30
0.0
 11
-34.99547328527594
 21
-0.2989076347274668
 31
0.0
  0
LINE
  5
F1048F
330
261
100
AcDbEntity
  8
Geo
100
AcDbLine
 10
-34.99547328527594
 20
-0.2989076347274668
 30
0.0
 11
-34.89547328527593
 21
-0.3564954461457646
 31
0.0
  0
LINE
  5
F10491
330
261
100
AcDbEntity
  8
Geo
100
AcDbLine
 10
-34.89547328527593
 20
-0.3564954461457646
 30
0.0
 11
-34.79547328527593
 21
-0.4140318936612673
 31
0.0
  0
LINE
  5
F10493
330
261
100
AcDbEntity
  8
Geo
100
AcDbLine
 10
-34.79547328527593
 20
-0.4140318936612673
 30
0.0
 11
-34.69547328527594
 21
-0.4715093058330631
 31
0.0
  0
LINE
  5
F10495
330
261
100
AcDbEntity
  8
Geo
100
AcDbLine
 10
-34.69547328527594
 20
-0.4715093058330631
 30
0.0
 11
-34.59547328527593
 21
-0.5289200190912631
 31
0.0
  0
LINE
  5
F10497
330
261
100
AcDbEntity
  8
Geo
100
AcDbLine
 10
-34.59547328527593
 20
-0.5289200190912631
 30
0.0
 11
-34.49547328527593
 21
-0.5862563787590674
 31
0.0
  0
LINE
  5
F10499
330
261
100
AcDbEntity
  8
Geo
100
AcDbLine
 10
-34.49547328527593
 20
-0.5862563787590674
 30
0.0
 11
-34.39547328527593
 21
-0.6435107400735696
 31
0.0
  0
LINE
  5
F1049B
330
261
100
AcDbEntity
  8
Geo
100
AcDbLine
 10
-34.39547328527593
 20
-0.6435107400735696
 30
0.0
 11
-34.29547328527593
 21
-0.7006754692047644
 31
0.0
  0
LINE
  5
F1049D
330
261
100
AcDbEntity
  8
Geo
100
AcDbLine
 10
-34.29547328527593
 20
-0.7006754692047644
 30
0.0
 11
-34.19547328527594
 21
-0.7577429442733675
 31
0.0
  0
LINE
  5
F1049F
330
261
100
AcDbEntity
  8
Geo
100
AcDbLine
 10
-34.19547328527594
 20
-0.7577429442733675
 30
0.0
 11
-34.09547328527593
 21
-0.8147055563672651
 31
0.0
  0
LINE
  5
F104A1
330
261
100
AcDbEntity
  8
Geo
100
AcDbLine
 10
-34.09547328527593
 20
-0.8147055563672651
 30
0.0
 11
-33.99547328527594
 21
-0.8715557105559668
 31
0.0
  0
LINE
  5
F104A3
330
261
100
AcDbEntity
  8
Geo
100
AcDbLine
 10
-33.99547328527594
 20
-0.8715557105559668
 30
0.0
 11
-33.89547328527593
 21
-0.9282858269030676
 31
0.0
  0
LINE
  5
F104A5
330
261
100
AcDbEntity
  8
Geo
100
AcDbLine
 10
-33.89547328527593
 20
-0.9282858269030676
 30
0.0
 11
-33.79547328527593
 21
-0.9848883414770668
 31
0.0
  0
LINE
  5
F104A7
330
261
100
AcDbEntity
  8
Geo
100
AcDbLine
 10
-33.79547328527593
 20
-0.9848883414770668
 30
0.0
 11
-33.69547328527594
 21
-1.041355707359965
 31
0.0
  0
LINE
  5
F104A9
330
261
100
AcDbEntity
  8
Geo
100
AcDbLine
 10
-33.69547328527594
 20
-1.041355707359965
 30
0.0
 11
-33.59547328527593
 21
-1.09768039565337
 31
0.0
  0
LINE
  5
F104AB
330
261
100
AcDbEntity
  8
Geo
100
AcDbLine
 10
-33.59547328527593
 20
-1.09768039565337
 30
0.0
 11
-33.49547328527594
 21
-1.153854896482066
 31
0.0
  0
LINE
  5
F104AD
330
261
100
AcDbEntity
  8
Geo
100
AcDbLine
 10
-33.49547328527594
 20
-1.153854896482066
 30
0.0
 11
-33.39547328527593
 21
-1.209871719995966
 31
0.0
  0
LINE
  5
F104AF
330
261
100
AcDbEntity
  8
Geo
100
AcDbLine
 10
-33.39547328527593
 20
-1.209871719995966
 30
0.0
 11
-33.29547328527593
 21
-1.265723397368265
 31
0.0
  0
LINE
  5
F104B1
330
261
100
AcDbEntity
  8
Geo
100
AcDbLine
 10
-33.29547328527593
 20
-1.265723397368265
 30
0.0
 11
-33.19547328527594
 21
-1.321402481791366
 31
0.0
  0
LINE
  5
F104B3
330
261
100
AcDbEntity
  8
Geo
100
AcDbLine
 10
-33.19547328527594
 20
-1.321402481791366
 30
0.0
 11
-33.09547328527593
 21
-1.376901549469767
 31
0.0
  0
LINE
  5
F104B5
330
261
100
AcDbEntity
  8
Geo
100
AcDbLine
 10
-33.09547328527593
 20
-1.376901549469767
 30
0.0
 11
-32.99547328527594
 21
-1.432213200610068
 31
0.0
  0
LINE
  5
F104B7
330
261
100
AcDbEntity
  8
Geo
100
AcDbLine
 10
-32.99547328527594
 20
-1.432213200610068
 30
0.0
 11
-32.89547328527593
 21
-1.487330060407465
 31
0.0
  0
LINE
  5
F104B9
330
261
100
AcDbEntity
  8
Geo
100
AcDbLine
 10
-32.89547328527593
 20
-1.487330060407465
 30
0.0
 11
-32.79547328527594
 21
-1.542244780028866
 31
0.0
  0
LINE
  5
F104BB
330
261
100
AcDbEntity
  8
Geo
100
AcDbLine
 10
-32.79547328527594
 20
-1.542244780028866
 30
0.0
 11
-32.69547328527594
 21
-1.596950037592964
 31
0.0
  0
LINE
  5
F104BD
330
261
100
AcDbEntity
  8
Geo
100
AcDbLine
 10
-32.69547328527594
 20
-1.596950037592964
 30
0.0
 11
-32.59547328527593
 21
-1.651438539146568
 31
0.0
  0
LINE
  5
F104BF
330
261
100
AcDbEntity
  8
Geo
100
AcDbLine
 10
-32.59547328527593
 20
-1.651438539146568
 30
0.0
 11
-32.49547328527594
 21
-1.705703019636867
 31
0.0
  0
LINE
  5
F104C1
330
261
100
AcDbEntity
  8
Geo
100
AcDbLine
 10
-32.49547328527594
 20
-1.705703019636867
 30
0.0
 11
-32.39547328527593
 21
-1.759736243880066
 31
0.0
  0
LINE
  5
F104C3
330
261
100
AcDbEntity
  8
Geo
100
AcDbLine
 10
-32.39547328527593
 20
-1.759736243880066
 30
0.0
 11
-32.29547328527593
 21
-1.813531007526467
 31
0.0
  0
LINE
  5
F104C5
330
261
100
AcDbEntity
  8
Geo
100
AcDbLine
 10
-32.29547328527593
 20
-1.813531007526467
 30
0.0
 11
-32.19547328527594
 21
-1.867080138020568
 31
0.0
  0
LINE
  5
F104C7
330
261
100
AcDbEntity
  8
Geo
100
AcDbLine
 10
-32.19547328527594
 20
-1.867080138020568
 30
0.0
 11
-32.09547328527593
 21
-1.920376495557466
 31
0.0
  0
LINE
  5
F104C9
330
261
100
AcDbEntity
  8
Geo
100
AcDbLine
 10
-32.09547328527593
 20
-1.920376495557466
 30
0.0
 11
-31.99547328527593
 21
-1.973412974035365
 31
0.0
  0
LINE
  5
F104CB
330
261
100
AcDbEntity
  8
Geo
100
AcDbLine
 10
-31.99547328527593
 20
-1.973412974035365
 30
0.0
 11
-31.89547328527593
 21
-2.026182502002267
 31
0.0
  0
LINE
  5
F104CD
330
261
100
AcDbEntity
  8
Geo
100
AcDbLine
 10
-31.89547328527593
 20
-2.026182502002267
 30
0.0
 11
-31.79547328527593
 21
-2.078678043599264
 31
0.0
  0
LINE
  5
F104CF
330
261
100
AcDbEntity
  8
Geo
100
AcDbLine
 10
-31.79547328527593
 20
-2.078678043599264
 30
0.0
 11
-31.69547328527594
 21
-2.130892599498565
 31
0.0
  0
LINE
  5
F104D1
330
261
100
AcDbEntity
  8
Geo
100
AcDbLine
 10
-31.69547328527594
 20
-2.130892599498565
 30
0.0
 11
-31.59547328527593
 21
-2.182819207836868
 31
0.0
  0
LINE
  5
F104D3
330
261
100
AcDbEntity
  8
Geo
100
AcDbLine
 10
-31.59547328527593
 20
-2.182819207836868
 30
0.0
 11
-31.49547328527594
 21
-2.234450945143066
 31
0.0
  0
LINE
  5
F104D5
330
261
100
AcDbEntity
  8
Geo
100
AcDbLine
 10
-31.49547328527594
 20
-2.234450945143066
 30
0.0
 11
-31.39547328527593
 21
-2.285780927262266
 31
0.0
  0
LINE
  5
F104D7
330
261
100
AcDbEntity
  8
Geo
100
AcDbLine
 10
-31.39547328527593
 20
-2.285780927262266
 30
0.0
 11
-31.29547328527593
 21
-2.336802310272865
 31
0.0
  0
LINE
  5
F104D9
330
261
100
AcDbEntity
  8
Geo
100
AcDbLine
 10
-31.29547328527593
 20
-2.336802310272865
 30
0.0
 11
-31.19547328527594
 21
-2.387508291399264
 31
0.0
  0
LINE
  5
F104DB
330
261
100
AcDbEntity
  8
Geo
100
AcDbLine
 10
-31.19547328527594
 20
-2.387508291399264
 30
0.0
 11
-31.09547328527593
 21
-2.437892109919069
 31
0.0
  0
LINE
  5
F104DD
330
261
100
AcDbEntity
  8
Geo
100
AcDbLine
 10
-31.09547328527593
 20
-2.437892109919069
 30
0.0
 11
-30.99547328527594
 21
-2.487947048064665
 31
0.0
  0
LINE
  5
F104DF
330
261
100
AcDbEntity
  8
Geo
100
AcDbLine
 10
-30.99547328527594
 20
-2.487947048064665
 30
0.0
 11
-30.89547328527593
 21
-2.537666431918264
 31
0.0
  0
LINE
  5
F104E1
330
261
100
AcDbEntity
  8
Geo
100
AcDbLine
 10
-30.89547328527593
 20
-2.537666431918264
 30
0.0
 11
-30.79547328527593
 21
-2.587043632302368
 31
0.0
  0
LINE
  5
F104E3
330
261
100
AcDbEntity
  8
Geo
100
AcDbLine
 10
-30.79547328527593
 20
-2.587043632302368
 30
0.0
 11
-30.69547328527594
 21
-2.636072065663466
 31
0.0
  0
LINE
  5
F104E5
330
261
100
AcDbEntity
  8
Geo
100
AcDbLine
 10
-30.69547328527594
 20
-2.636072065663466
 30
0.0
 11
-30.59547328527593
 21
-2.684745194949766
 31
0.0
  0
LINE
  5
F104E7
330
261
100
AcDbEntity
  8
Geo
100
AcDbLine
 10
-30.59547328527593
 20
-2.684745194949766
 30
0.0
 11
-30.49547328527594
 21
-2.733056530482766
 31
0.0
  0
LINE
  5
F104E9
330
261
100
AcDbEntity
  8
Geo
100
AcDbLine
 10
-30.49547328527594
 20
-2.733056530482766
 30
0.0
 11
-30.39547328527593
 21
-2.780999630822567
 31
0.0
  0
LINE
  5
F104EB
330
261
100
AcDbEntity
  8
Geo
100
AcDbLine
 10
-30.39547328527593
 20
-2.780999630822567
 30
0.0
 11
-30.29547328527594
 21
-2.828568103626867
 31
0.0
  0
LINE
  5
F104ED
330
261
100
AcDbEntity
  8
Geo
100
AcDbLine
 10
-30.29547328527594
 20
-2.828568103626867
 30
0.0
 11
-30.19547328527594
 21
-2.875755606503165
 31
0.0
  0
LINE
  5
F104EF
330
261
100
AcDbEntity
  8
Geo
100
AcDbLine
 10
-30.19547328527594
 20
-2.875755606503165
 30
0.0
 11
-30.09547328527593
 21
-2.922555847854265
 31
0.0
  0
LINE
  5
F104F1
330
261
100
AcDbEntity
  8
Geo
100
AcDbLine
 10
-30.09547328527593
 20
-2.922555847854265
 30
0.0
 11
-29.99547328527594
 21
-2.968962587717367
 31
0.0
  0
LINE
  5
F104F3
330
261
100
AcDbEntity
  8
Geo
100
AcDbLine
 10
-29.99547328527594
 20
-2.968962587717367
 30
0.0
 11
-29.89547328527592
 21
-3.014969638595765
 31
0.0
  0
LINE
  5
F104F5
330
261
100
AcDbEntity
  8
Geo
100
AcDbLine
 10
-29.89547328527592
 20
-3.014969638595765
 30
0.0
 11
-29.79547328527593
 21
-3.060570866284368
 31
0.0
  0
LINE
  5
F104F7
330
261
100
AcDbEntity
  8
Geo
100
AcDbLine
 10
-29.79547328527593
 20
-3.060570866284368
 30
0.0
 11
-29.69547328527594
 21
-3.105760190686865
 31
0.0
  0
LINE
  5
F104F9
330
261
100
AcDbEntity
  8
Geo
100
AcDbLine
 10
-29.69547328527594
 20
-3.105760190686865
 30
0.0
 11
-29.59547328527593
 21
-3.150531586626964
 31
0.0
  0
LINE
  5
F104FB
330
261
100
AcDbEntity
  8
Geo
100
AcDbLine
 10
-29.59547328527593
 20
-3.150531586626964
 30
0.0
 11
-29.49547328527593
 21
-3.194879084651663
 31
0.0
  0
LINE
  5
F104FD
330
261
100
AcDbEntity
  8
Geo
100
AcDbLine
 10
-29.49547328527593
 20
-3.194879084651663
 30
0.0
 11
-29.39547328527593
 21
-3.238796771826866
 31
0.0
  0
LINE
  5
F104FF
330
261
100
AcDbEntity
  8
Geo
100
AcDbLine
 10
-29.39547328527593
 20
-3.238796771826866
 30
0.0
 11
-29.29547328527593
 21
-3.282278792525964
 31
0.0
  0
LINE
  5
F10501
330
261
100
AcDbEntity
  8
Geo
100
AcDbLine
 10
-29.29547328527593
 20
-3.282278792525964
 30
0.0
 11
-29.19547328527594
 21
-3.325319349210566
 31
0.0
  0
LINE
  5
F10503
330
261
100
AcDbEntity
  8
Geo
100
AcDbLine
 10
-29.19547328527594
 20
-3.325319349210566
 30
0.0
 11
-29.09547328527594
 21
-3.367912703203764
 31
0.0
  0
LINE
  5
F10505
330
261
100
AcDbEntity
  8
Geo
100
AcDbLine
 10
-29.09547328527594
 20
-3.367912703203764
 30
0.0
 11
-28.99547328527594
 21
-3.410053175454564
 31
0.0
  0
LINE
  5
F10507
330
261
100
AcDbEntity
  8
Geo
100
AcDbLine
 10
-28.99547328527594
 20
-3.410053175454564
 30
0.0
 11
-28.89547328527593
 21
-3.451735147295867
 31
0.0
  0
LINE
  5
F10509
330
261
100
AcDbEntity
  8
Geo
100
AcDbLine
 10
-28.89547328527593
 20
-3.451735147295867
 30
0.0
 11
-28.79547328527593
 21
-3.492953061193265
 31
0.0
  0
LINE
  5
F1050B
330
261
100
AcDbEntity
  8
Geo
100
AcDbLine
 10
-28.79547328527593
 20
-3.492953061193265
 30
0.0
 11
-28.69547328527593
 21
-3.533701421485766
 31
0.0
  0
LINE
  5
F1050D
330
261
100
AcDbEntity
  8
Geo
100
AcDbLine
 10
-28.69547328527593
 20
-3.533701421485766
 30
0.0
 11
-28.59547328527593
 21
-3.573974795119166
 31
0.0
  0
LINE
  5
F1050F
330
261
100
AcDbEntity
  8
Geo
100
AcDbLine
 10
-28.59547328527593
 20
-3.573974795119166
 30
0.0
 11
-28.49547328527594
 21
-3.613767812369868
 31
0.0
  0
LINE
  5
F10511
330
261
100
AcDbEntity
  8
Geo
100
AcDbLine
 10
-28.49547328527594
 20
-3.613767812369868
 30
0.0
 11
-28.39547328527594
 21
-3.653075167561368
 31
0.0
  0
LINE
  5
F10513
330
261
100
AcDbEntity
  8
Geo
100
AcDbLine
 10
-28.39547328527594
 20
-3.653075167561368
 30
0.0
 11
-28.29547328527593
 21
-3.691891619771066
 31
0.0
  0
LINE
  5
F10515
330
261
100
AcDbEntity
  8
Geo
100
AcDbLine
 10
-28.29547328527593
 20
-3.691891619771066
 30
0.0
 11
-28.19547328527593
 21
-3.730211993529568
 31
0.0
  0
LINE
  5
F10517
330
261
100
AcDbEntity
  8
Geo
100
AcDbLine
 10
-28.19547328527593
 20
-3.730211993529568
 30
0.0
 11
-28.09547328527594
 21
-3.768031179510465
 31
0.0
  0
LINE
  5
F10519
330
261
100
AcDbEntity
  8
Geo
100
AcDbLine
 10
-28.09547328527594
 20
-3.768031179510465
 30
0.0
 11
-27.99547328527594
 21
-3.805344135211566
 31
0.0
  0
LINE
  5
F1051B
330
261
100
AcDbEntity
  8
Geo
100
AcDbLine
 10
-27.99547328527594
 20
-3.805344135211566
 30
0.0
 11
-27.89547328527593
 21
-3.842145885627566
 31
0.0
  0
LINE
  5
F1051D
330
261
100
AcDbEntity
  8
Geo
100
AcDbLine
 10
-27.89547328527593
 20
-3.842145885627566
 30
0.0
 11
-27.79547328527594
 21
-3.878431523912766
 31
0.0
  0
LINE
  5
F1051F
330
261
100
AcDbEntity
  8
Geo
100
AcDbLine
 10
-27.79547328527594
 20
-3.878431523912766
 30
0.0
 11
-27.69547328527593
 21
-3.914196212035964
 31
0.0
  0
LINE
  5
F10521
330
261
100
AcDbEntity
  8
Geo
100
AcDbLine
 10
-27.69547328527593
 20
-3.914196212035964
 30
0.0
 11
-27.59547328527594
 21
-3.949435181424966
 31
0.0
  0
LINE
  5
F10523
330
261
100
AcDbEntity
  8
Geo
100
AcDbLine
 10
-27.59547328527594
 20
-3.949435181424966
 30
0.0
 11
-27.49547328527594
 21
-3.984143733602664
 31
0.0
  0
LINE
  5
F10525
330
261
100
AcDbEntity
  8
Geo
100
AcDbLine
 10
-27.49547328527594
 20
-3.984143733602664
 30
0.0
 11
-27.39547328527593
 21
-4.018317240813665
 31
0.0
  0
LINE
  5
F10527
330
261
100
AcDbEntity
  8
Geo
100
AcDbLine
 10
-27.39547328527593
 20
-4.018317240813665
 30
0.0
 11
-27.29547328527593
 21
-4.051951146640867
 31
0.0
  0
LINE
  5
F10529
330
261
100
AcDbEntity
  8
Geo
100
AcDbLine
 10
-27.29547328527593
 20
-4.051951146640867
 30
0.0
 11
-27.19547328527593
 21
-4.085040966613366
 31
0.0
  0
LINE
  5
F1052B
330
261
100
AcDbEntity
  8
Geo
100
AcDbLine
 10
-27.19547328527593
 20
-4.085040966613366
 30
0.0
 11
-27.09547328527594
 21
-4.117582288804165
 31
0.0
  0
LINE
  5
F1052D
330
261
100
AcDbEntity
  8
Geo
100
AcDbLine
 10
-27.09547328527594
 20
-4.117582288804165
 30
0.0
 11
-26.99547328527593
 21
-4.149570774418567
 31
0.0
  0
LINE
  5
F1052F
330
261
100
AcDbEntity
  8
Geo
100
AcDbLine
 10
-26.99547328527593
 20
-4.149570774418567
 30
0.0
 11
-26.89547328527594
 21
-4.181002158372464
 31
0.0
  0
LINE
  5
F10531
330
261
100
AcDbEntity
  8
Geo
100
AcDbLine
 10
-26.89547328527594
 20
-4.181002158372464
 30
0.0
 11
-26.79547328527593
 21
-4.211872249861265
 31
0.0
  0
LINE
  5
F10533
330
261
100
AcDbEntity
  8
Geo
100
AcDbLine
 10
-26.79547328527593
 20
-4.211872249861265
 30
0.0
 11
-26.69547328527593
 21
-4.242176932918567
 31
0.0
  0
LINE
  5
F10535
330
261
100
AcDbEntity
  8
Geo
100
AcDbLine
 10
-26.69547328527593
 20
-4.242176932918567
 30
0.0
 11
-26.59547328527594
 21
-4.271912166964767
 31
0.0
  0
LINE
  5
F10537
330
261
100
AcDbEntity
  8
Geo
100
AcDbLine
 10
-26.59547328527594
 20
-4.271912166964767
 30
0.0
 11
-26.49547328527594
 21
-4.301073987346065
 31
0.0
  0
LINE
  5
F10539
330
261
100
AcDbEntity
  8
Geo
100
AcDbLine
 10
-26.49547328527594
 20
-4.301073987346065
 30
0.0
 11
-26.39547328527593
 21
-4.329658505862965
 31
0.0
  0
LINE
  5
F1053B
330
261
100
AcDbEntity
  8
Geo
100
AcDbLine
 10
-26.39547328527593
 20
-4.329658505862965
 30
0.0
 11
-26.29547328527593
 21
-4.357661911288662
 31
0.0
  0
LINE
  5
F1053D
330
261
100
AcDbEntity
  8
Geo
100
AcDbLine
 10
-26.29547328527593
 20
-4.357661911288662
 30
0.0
 11
-26.19547328527593
 21
-4.385080469877369
 31
0.0
  0
LINE
  5
F1053F
330
261
100
AcDbEntity
  8
Geo
100
AcDbLine
 10
-26.19547328527593
 20
-4.385080469877369
 30
0.0
 11
-26.09547328527594
 21
-4.411910525861664
 31
0.0
  0
LINE
  5
F10541
330
261
100
AcDbEntity
  8
Geo
100
AcDbLine
 10
-26.09547328527594
 20
-4.411910525861664
 30
0.0
 11
-25.99547328527594
 21
-4.438148501940663
 31
0.0
  0
LINE
  5
F10543
330
261
100
AcDbEntity
  8
Geo
100
AcDbLine
 10
-25.99547328527594
 20
-4.438148501940663
 30
0.0
 11
-25.89547328527594
 21
-4.463790899756368
 31
0.0
  0
LINE
  5
F10545
330
261
100
AcDbEntity
  8
Geo
100
AcDbLine
 10
-25.89547328527594
 20
-4.463790899756368
 30
0.0
 11
-25.79547328527593
 21
-4.488834300360366
 31
0.0
  0
LINE
  5
F10547
330
261
100
AcDbEntity
  8
Geo
100
AcDbLine
 10
-25.79547328527593
 20
-4.488834300360366
 30
0.0
 11
-25.69547328527593
 21
-4.513275364669766
 31
0.0
  0
LINE
  5
F10549
330
261
100
AcDbEntity
  8
Geo
100
AcDbLine
 10
-25.69547328527593
 20
-4.513275364669766
 30
0.0
 11
-25.59547328527594
 21
-4.537110833912166
 31
0.0
  0
LINE
  5
F1054B
330
261
100
AcDbEntity
  8
Geo
100
AcDbLine
 10
-25.59547328527594
 20
-4.537110833912166
 30
0.0
 11
-25.49547328527594
 21
-4.560337530060365
 31
0.0
  0
LINE
  5
F1054D
330
261
100
AcDbEntity
  8
Geo
100
AcDbLine
 10
-25.49547328527594
 20
-4.560337530060365
 30
0.0
 11
-25.39547328527593
 21
-4.582952356255766
 31
0.0
  0
LINE
  5
F1054F
330
261
100
AcDbEntity
  8
Geo
100
AcDbLine
 10
-25.39547328527593
 20
-4.582952356255766
 30
0.0
 11
-25.29547328527594
 21
-4.604952297221863
 31
0.0
  0
LINE
  5
F10551
330
261
100
AcDbEntity
  8
Geo
100
AcDbLine
 10
-25.29547328527594
 20
-4.604952297221863
 30
0.0
 11
-25.19547328527593
 21
-4.626334419665866
 31
0.0
  0
LINE
  5
F10553
330
261
100
AcDbEntity
  8
Geo
100
AcDbLine
 10
-25.19547328527593
 20
-4.626334419665866
 30
0.0
 11
-25.09547328527594
 21
-4.647095872669567
 31
0.0
  0
LINE
  5
F10555
330
261
100
AcDbEntity
  8
Geo
100
AcDbLine
 10
-25.09547328527594
 20
-4.647095872669567
 30
0.0
 11
-24.99547328527594
 21
-4.667233888070164
 31
0.0
  0
LINE
  5
F10557
330
261
100
AcDbEntity
  8
Geo
100
AcDbLine
 10
-24.99547328527594
 20
-4.667233888070164
 30
0.0
 11
-24.89547328527593
 21
-4.686745780828665
 31
0.0
  0
LINE
  5
F10559
330
261
100
AcDbEntity
  8
Geo
100
AcDbLine
 10
-24.89547328527593
 20
-4.686745780828665
 30
0.0
 11
-24.79547328527593
 21
-4.705628949388366
 31
0.0
  0
LINE
  5
F1055B
330
261
100
AcDbEntity
  8
Geo
100
AcDbLine
 10
-24.79547328527593
 20
-4.705628949388366
 30
0.0
 11
-24.69547328527593
 21
-4.723880876021464
 31
0.0
  0
LINE
  5
F1055D
330
261
100
AcDbEntity
  8
Geo
100
AcDbLine
 10
-24.69547328527593
 20
-4.723880876021464
 30
0.0
 11
-24.59547328527594
 21
-4.741499127164566
 31
0.0
  0
LINE
  5
F1055F
330
261
100
AcDbEntity
  8
Geo
100
AcDbLine
 10
-24.59547328527594
 20
-4.741499127164566
 30
0.0
 11
-24.49547328527593
 21
-4.758481353743864
 31
0.0
  0
LINE
  5
F10561
330
261
100
AcDbEntity
  8
Geo
100
AcDbLine
 10
-24.49547328527593
 20
-4.758481353743864
 30
0.0
 11
-24.39547328527594
 21
-4.774825291487566
 31
0.0
  0
LINE
  5
F10563
330
261
100
AcDbEntity
  8
Geo
100
AcDbLine
 10
-24.39547328527594
 20
-4.774825291487566
 30
0.0
 11
-24.29547328527593
 21
-4.790528761228067
 31
0.0
  0
LINE
  5
F10565
330
261
100
AcDbEntity
  8
Geo
100
AcDbLine
 10
-24.29547328527593
 20
-4.790528761228067
 30
0.0
 11
-24.19547328527593
 21
-4.805589669192865
 31
0.0
  0
LINE
  5
F10567
330
261
100
AcDbEntity
  8
Geo
100
AcDbLine
 10
-24.19547328527593
 20
-4.805589669192865
 30
0.0
 11
-24.09547328527594
 21
-4.820006007283065
 31
0.0
  0
LINE
  5
F10569
330
261
100
AcDbEntity
  8
Geo
100
AcDbLine
 10
-24.09547328527594
 20
-4.820006007283065
 30
0.0
 11
-23.99547328527594
 21
-4.833775853341567
 31
0.0
  0
LINE
  5
F1056B
330
261
100
AcDbEntity
  8
Geo
100
AcDbLine
 10
-23.99547328527594
 20
-4.833775853341567
 30
0.0
 11
-23.89547328527593
 21
-4.846897371409465
 31
0.0
  0
LINE
  5
F1056D
330
261
100
AcDbEntity
  8
Geo
100
AcDbLine
 10
-23.89547328527593
 20
-4.846897371409465
 30
0.0
 11
-23.79547328527593
 21
-4.859368811970366
 31
0.0
  0
LINE
  5
F1056F
330
261
100
AcDbEntity
  8
Geo
100
AcDbLine
 10
-23.79547328527593
 20
-4.859368811970366
 30
0.0
 11
-23.69547328527593
 21
-4.871188512184065
 31
0.0
  0
LINE
  5
F10571
330
261
100
AcDbEntity
  8
Geo
100
AcDbLine
 10
-23.69547328527593
 20
-4.871188512184065
 30
0.0
 11
-23.59547328527594
 21
-4.882354896107866
 31
0.0
  0
LINE
  5
F10573
330
261
100
AcDbEntity
  8
Geo
100
AcDbLine
 10
-23.59547328527594
 20
-4.882354896107866
 30
0.0
 11
-23.49547328527593
 21
-4.892866474907364
 31
0.0
  0
LINE
  5
F10575
330
261
100
AcDbEntity
  8
Geo
100
AcDbLine
 10
-23.49547328527593
 20
-4.892866474907364
 30
0.0
 11
-23.39547328527594
 21
-4.902721847054166
 31
0.0
  0
LINE
  5
F10577
330
261
100
AcDbEntity
  8
Geo
100
AcDbLine
 10
-23.39547328527594
 20
-4.902721847054166
 30
0.0
 11
-23.29547328527593
 21
-4.911919698513166
 31
0.0
  0
LINE
  5
F10579
330
261
100
AcDbEntity
  8
Geo
100
AcDbLine
 10
-23.29547328527593
 20
-4.911919698513166
 30
0.0
 11
-23.19547328527593
 21
-4.920458802917966
 31
0.0
  0
LINE
  5
F1057B
330
261
100
AcDbEntity
  8
Geo
100
AcDbLine
 10
-23.19547328527593
 20
-4.920458802917966
 30
0.0
 11
-23.09547328527594
 21
-4.928338021733864
 31
0.0
  0
LINE
  5
F1057D
330
261
100
AcDbEntity
  8
Geo
100
AcDbLine
 10
-23.09547328527594
 20
-4.928338021733864
 30
0.0
 11
-22.99547328527594
 21
-4.935556304410066
 31
0.0
  0
LINE
  5
F1057F
330
261
100
AcDbEntity
  8
Geo
100
AcDbLine
 10
-22.99547328527594
 20
-4.935556304410066
 30
0.0
 11
-22.89547328527593
 21
-4.942112688519568
 31
0.0
  0
LINE
  5
F10581
330
261
100
AcDbEntity
  8
Geo
100
AcDbLine
 10
-22.89547328527593
 20
-4.942112688519568
 30
0.0
 11
-22.79547328527593
 21
-4.948006299887467
 31
0.0
  0
LINE
  5
F10583
330
261
100
AcDbEntity
  8
Geo
100
AcDbLine
 10
-22.79547328527593
 20
-4.948006299887467
 30
0.0
 11
-22.69547328527593
 21
-4.953236352707765
 31
0.0
  0
LINE
  5
F10585
330
261
100
AcDbEntity
  8
Geo
100
AcDbLine
 10
-22.69547328527593
 20
-4.953236352707765
 30
0.0
 11
-22.59547328527593
 21
-4.957802149647765
 31
0.0
  0
LINE
  5
F10587
330
261
100
AcDbEntity
  8
Geo
100
AcDbLine
 10
-22.59547328527593
 20
-4.957802149647765
 30
0.0
 11
-22.49547328527594
 21
-4.961703081941266
 31
0.0
  0
LINE
  5
F10589
330
261
100
AcDbEntity
  8
Geo
100
AcDbLine
 10
-22.49547328527594
 20
-4.961703081941266
 30
0.0
 11
-22.39547328527593
 21
-4.964938629469866
 31
0.0
  0
LINE
  5
F1058B
330
261
100
AcDbEntity
  8
Geo
100
AcDbLine
 10
-22.39547328527593
 20
-4.964938629469866
 30
0.0
 11
-22.29547328527593
 21
-4.967508360831864
 31
0.0
  0
LINE
  5
F1058D
330
261
100
AcDbEntity
  8
Geo
100
AcDbLine
 10
-22.29547328527593
 20
-4.967508360831864
 30
0.0
 11
-22.19547328527593
 21
-4.969411933400365
 31
0.0
  0
LINE
  5
F1058F
330
261
100
AcDbEntity
  8
Geo
100
AcDbLine
 10
-22.19547328527593
 20
-4.969411933400365
 30
0.0
 11
-22.09547328527594
 21
-4.970649093368365
 31
0.0
  0
LINE
  5
F10591
330
261
100
AcDbEntity
  8
Geo
100
AcDbLine
 10
-22.09547328527594
 20
-4.970649093368365
 30
0.0
 11
-21.99547328527593
 21
-4.971219675783167
 31
0.0
  0
LINE
  5
F10593
330
261
100
AcDbEntity
  8
Geo
100
AcDbLine
 10
-20.39547328527593
 20
5.028737188249134
 30
0.0
 11
-20.29547328527593
 21
5.028438810219235
 31
0.0
  0
LINE
  5
F10595
330
261
100
AcDbEntity
  8
Geo
100
AcDbLine
 10
-20.29547328527593
 20
5.028438810219235
 30
0.0
 11
-20.19547328527593
 21
5.027473812835534
 31
0.0
  0
LINE
  5
F10597
330
261
100
AcDbEntity
  8
Geo
100
AcDbLine
 10
-20.19547328527593
 20
5.027473812835534
 30
0.0
 11
-20.09547328527593
 21
5.025842324762933
 31
0.0
  0
LINE
  5
F10599
330
261
100
AcDbEntity
  8
Geo
100
AcDbLine
 10
-20.09547328527593
 20
5.025842324762933
 30
0.0
 11
-19.99547328527593
 21
5.023544563530734
 31
0.0
  0
LINE
  5
F1059B
330
261
100
AcDbEntity
  8
Geo
100
AcDbLine
 10
-19.99547328527593
 20
5.023544563530734
 30
0.0
 11
-19.89547328527593
 21
5.020580835503633
 31
0.0
  0
LINE
  5
F1059D
330
261
100
AcDbEntity
  8
Geo
100
AcDbLine
 10
-19.89547328527593
 20
5.020580835503633
 30
0.0
 11
-19.79547328527593
 21
5.016951535841034
 31
0.0
  0
LINE
  5
F1059F
330
261
100
AcDbEntity
  8
Geo
100
AcDbLine
 10
-19.79547328527593
 20
5.016951535841034
 30
0.0
 11
-19.69547328527593
 21
5.01265714844413
 31
0.0
  0
LINE
  5
F105A1
330
261
100
AcDbEntity
  8
Geo
100
AcDbLine
 10
-19.69547328527593
 20
5.01265714844413
 30
0.0
 11
-19.59547328527593
 21
5.007698245891631
 31
0.0
  0
LINE
  5
F105A3
330
261
100
AcDbEntity
  8
Geo
100
AcDbLine
 10
-19.59547328527593
 20
5.007698245891631
 30
0.0
 11
-19.49547328527593
 21
5.002075489363136
 31
0.0
  0
LINE
  5
F105A5
330
261
100
AcDbEntity
  8
Geo
100
AcDbLine
 10
-19.49547328527593
 20
5.002075489363136
 30
0.0
 11
-19.39547328527593
 21
4.995789628551232
 31
0.0
  0
LINE
  5
F105A7
330
261
100
AcDbEntity
  8
Geo
100
AcDbLine
 10
-19.39547328527593
 20
4.995789628551232
 30
0.0
 11
-19.29547328527593
 21
4.988841501561235
 31
0.0
  0
LINE
  5
F105A9
330
261
100
AcDbEntity
  8
Geo
100
AcDbLine
 10
-19.29547328527593
 20
4.988841501561235
 30
0.0
 11
-19.19547328527593
 21
4.981232034800036
 31
0.0
  0
LINE
  5
F105AB
330
261
100
AcDbEntity
  8
Geo
100
AcDbLine
 10
-19.19547328527593
 20
4.981232034800036
 30
0.0
 11
-19.09547328527593
 21
4.972962242851732
 31
0.0
  0
LINE
  5
F105AD
330
261
100
AcDbEntity
  8
Geo
100
AcDbLine
 10
-19.09547328527593
 20
4.972962242851732
 30
0.0
 11
-18.99547328527593
 21
4.964033228343037
 31
0.0
  0
LINE
  5
F105AF
330
261
100
AcDbEntity
  8
Geo
100
AcDbLine
 10
-18.99547328527593
 20
4.964033228343037
 30
0.0
 11
-18.89547328527593
 21
4.954446181796033
 31
0.0
  0
LINE
  5
F105B1
330
261
100
AcDbEntity
  8
Geo
100
AcDbLine
 10
-18.89547328527593
 20
4.954446181796033
 30
0.0
 11
-18.79547328527593
 21
4.944202381469434
 31
0.0
  0
LINE
  5
F105B3
330
261
100
AcDbEntity
  8
Geo
100
AcDbLine
 10
-18.79547328527593
 20
4.944202381469434
 30
0.0
 11
-18.79547328527593
 21
4.944202381469434
 31
0.0
  0
LINE
  5
F105B5
330
261
100
AcDbEntity
  8
Geo
100
AcDbLine
 10
-18.79547328527593
 20
4.944202381469434
 30
0.0
 11
-18.69547328527593
 21
4.947294692577838
 31
0.0
  0
LINE
  5
F105B7
330
261
100
AcDbEntity
  8
Geo
100
AcDbLine
 10
-18.69547328527593
 20
4.947294692577838
 30
0.0
 11
-18.59547328527593
 21
4.950313047526833
 31
0.0
  0
LINE
  5
F105B9
330
261
100
AcDbEntity
  8
Geo
100
AcDbLine
 10
-18.59547328527593
 20
4.950313047526833
 30
0.0
 11
-18.49547328527593
 21
4.953258364781735
 31
0.0
  0
LINE
  5
F105BB
330
261
100
AcDbEntity
  8
Geo
100
AcDbLine
 10
-18.49547328527593
 20
4.953258364781735
 30
0.0
 11
-18.39547328527593
 21
4.956131559243836
 31
0.0
  0
LINE
  5
F105BD
330
261
100
AcDbEntity
  8
Geo
100
AcDbLine
 10
-18.39547328527593
 20
4.956131559243836
 30
0.0
 11
-18.29547328527593
 21
4.958933542199332
 31
0.0
  0
LINE
  5
F105BF
330
261
100
AcDbEntity
  8
Geo
100
AcDbLine
 10
-18.29547328527593
 20
4.958933542199332
 30
0.0
 11
-18.19547328527593
 21
4.961665221268432
 31
0.0
  0
LINE
  5
F105C1
330
261
100
AcDbEntity
  8
Geo
100
AcDbLine
 10
-18.19547328527593
 20
4.961665221268432
 30
0.0
 11
-18.09547328527593
 21
4.964327500356134
 31
0.0
  0
LINE
  5
F105C3
330
261
100
AcDbEntity
  8
Geo
100
AcDbLine
 10
-18.09547328527593
 20
4.964327500356134
 30
0.0
 11
-17.99547328527593
 21
4.966921279602736
 31
0.0
  0
LINE
  5
F105C5
330
261
100
AcDbEntity
  8
Geo
100
AcDbLine
 10
-17.99547328527593
 20
4.966921279602736
 30
0.0
 11
-17.89547328527593
 21
4.969447455336837
 31
0.0
  0
LINE
  5
F105C7
330
261
100
AcDbEntity
  8
Geo
100
AcDbLine
 10
-17.89547328527593
 20
4.969447455336837
 30
0.0
 11
-17.79547328527593
 21
4.971906920027929
 31
0.0
  0
LINE
  5
F105C9
330
261
100
AcDbEntity
  8
Geo
100
AcDbLine
 10
-17.79547328527593
 20
4.971906920027929
 30
0.0
 11
-17.69547328527593
 21
4.974300562240838
 31
0.0
  0
LINE
  5
F105CB
330
261
100
AcDbEntity
  8
Geo
100
AcDbLine
 10
-17.69547328527593
 20
4.974300562240838
 30
0.0
 11
-17.59547328527593
 21
4.976629266590236
 31
0.0
  0
LINE
  5
F105CD
330
261
100
AcDbEntity
  8
Geo
100
AcDbLine
 10
-17.59547328527593
 20
4.976629266590236
 30
0.0
 11
-17.49547328527593
 21
4.978893913696737
 31
0.0
  0
LINE
  5
F105CF
330
261
100
AcDbEntity
  8
Geo
100
AcDbLine
 10
-17.49547328527593
 20
4.978893913696737
 30
0.0
 11
-17.39547328527593
 21
4.981095380143631
 31
0.0
  0
LINE
  5
F105D1
330
261
100
AcDbEntity
  8
Geo
100
AcDbLine
 10
-17.39547328527593
 20
4.981095380143631
 30
0.0
 11
-17.29547328527593
 21
4.983234538434231
 31
0.0
  0
LINE
  5
F105D3
330
261
100
AcDbEntity
  8
Geo
100
AcDbLine
 10
-17.29547328527593
 20
4.983234538434231
 30
0.0
 11
-17.19547328527593
 21
4.985312256950635
 31
0.0
  0
LINE
  5
F105D5
330
261
100
AcDbEntity
  8
Geo
100
AcDbLine
 10
-17.19547328527593
 20
4.985312256950635
 30
0.0
 11
-17.09547328527593
 21
4.987329399912731
 31
0.0
  0
LINE
  5
F105D7
330
261
100
AcDbEntity
  8
Geo
100
AcDbLine
 10
-17.09547328527593
 20
4.987329399912731
 30
0.0
 11
-16.99547328527593
 21
4.989286827338432
 31
0.0
  0
LINE
  5
F105D9
330
261
100
AcDbEntity
  8
Geo
100
AcDbLine
 10
-16.99547328527593
 20
4.989286827338432
 30
0.0
 11
-16.89547328527593
 21
4.991185395004734
 31
0.0
  0
LINE
  5
F105DB
330
261
100
AcDbEntity
  8
Geo
100
AcDbLine
 10
-16.89547328527593
 20
4.991185395004734
 30
0.0
 11
-16.79547328527593
 21
4.993025954409336
 31
0.0
  0
LINE
  5
F105DD
330
261
100
AcDbEntity
  8
Geo
100
AcDbLine
 10
-16.79547328527593
 20
4.993025954409336
 30
0.0
 11
-16.69547328527593
 21
4.994809352733334
 31
0.0
  0
LINE
  5
F105DF
330
261
100
AcDbEntity
  8
Geo
100
AcDbLine
 10
-16.69547328527593
 20
4.994809352733334
 30
0.0
 11
-16.59547328527593
 21
4.996536432804333
 31
0.0
  0
LINE
  5
F105E1
330
261
100
AcDbEntity
  8
Geo
100
AcDbLine
 10
-16.59547328527593
 20
4.996536432804333
 30
0.0
 11
-16.49547328527593
 21
4.99820803306143
 31
0.0
  0
LINE
  5
F105E3
330
261
100
AcDbEntity
  8
Geo
100
AcDbLine
 10
-16.49547328527593
 20
4.99820803306143
 30
0.0
 11
-16.39547328527593
 21
4.999824987519033
 31
0.0
  0
LINE
  5
F105E5
330
261
100
AcDbEntity
  8
Geo
100
AcDbLine
 10
-16.39547328527593
 20
4.999824987519033
 30
0.0
 11
-16.29547328527593
 21
5.00138812573363
 31
0.0
  0
LINE
  5
F105E7
330
261
100
AcDbEntity
  8
Geo
100
AcDbLine
 10
-16.29547328527593
 20
5.00138812573363
 30
0.0
 11
-16.19547328527593
 21
5.002898272769535
 31
0.0
  0
LINE
  5
F105E9
330
261
100
AcDbEntity
  8
Geo
100
AcDbLine
 10
-16.19547328527593
 20
5.002898272769535
 30
0.0
 11
-16.09547328527593
 21
5.004356249166736
 31
0.0
  0
LINE
  5
F105EB
330
261
100
AcDbEntity
  8
Geo
100
AcDbLine
 10
-16.09547328527593
 20
5.004356249166736
 30
0.0
 11
-15.99547328527593
 21
5.005762870908334
 31
0.0
  0
LINE
  5
F105ED
330
261
100
AcDbEntity
  8
Geo
100
AcDbLine
 10
-15.99547328527593
 20
5.005762870908334
 30
0.0
 11
-15.89547328527593
 21
5.007118949389838
 31
0.0
  0
LINE
  5
F105EF
330
261
100
AcDbEntity
  8
Geo
100
AcDbLine
 10
-15.89547328527593
 20
5.007118949389838
 30
0.0
 11
-15.79547328527593
 21
5.008425291388235
 31
0.0
  0
LINE
  5
F105F1
330
261
100
AcDbEntity
  8
Geo
100
AcDbLine
 10
-15.79547328527593
 20
5.008425291388235
 30
0.0
 11
-15.69547328527593
 21
5.009682699032033
 31
0.0
  0
LINE
  5
F105F3
330
261
100
AcDbEntity
  8
Geo
100
AcDbLine
 10
-15.69547328527593
 20
5.009682699032033
 30
0.0
 11
-15.59547328527593
 21
5.010891969772632
 31
0.0
  0
LINE
  5
F105F5
330
261
100
AcDbEntity
  8
Geo
100
AcDbLine
 10
-15.59547328527593
 20
5.010891969772632
 30
0.0
 11
-15.49547328527593
 21
5.012053896355432
 31
0.0
  0
LINE
  5
F105F7
330
261
100
AcDbEntity
  8
Geo
100
AcDbLine
 10
-15.49547328527593
 20
5.012053896355432
 30
0.0
 11
-15.39547328527593
 21
5.013169266792434
 31
0.0
  0
LINE
  5
F105F9
330
261
100
AcDbEntity
  8
Geo
100
AcDbLine
 10
-15.39547328527593
 20
5.013169266792434
 30
0.0
 11
-15.29547328527584
 21
5.014238864334735
 31
0.0
  0
LINE
  5
F105FB
330
261
100
AcDbEntity
  8
Geo
100
AcDbLine
 10
-15.29547328527584
 20
5.014238864334735
 30
0.0
 11
-15.19547328527584
 21
5.015263467446629
 31
0.0
  0
LINE
  5
F105FD
330
261
100
AcDbEntity
  8
Geo
100
AcDbLine
 10
-15.19547328527584
 20
5.015263467446629
 30
0.0
 11
-15.09547328527584
 21
5.016243849779431
 31
0.0
  0
LINE
  5
F105FF
330
261
100
AcDbEntity
  8
Geo
100
AcDbLine
 10
-15.09547328527584
 20
5.016243849779431
 30
0.0
 11
-14.99547328527583
 21
5.017180780146535
 31
0.0
  0
LINE
  5
F10601
330
261
100
AcDbEntity
  8
Geo
100
AcDbLine
 10
-14.99547328527583
 20
5.017180780146535
 30
0.0
 11
-14.89547328527584
 21
5.018075022499036
 31
0.0
  0
LINE
  5
F10603
330
261
100
AcDbEntity
  8
Geo
100
AcDbLine
 10
-14.89547328527584
 20
5.018075022499036
 30
0.0
 11
-14.79547328527584
 21
5.018927335901736
 31
0.0
  0
LINE
  5
F10605
330
261
100
AcDbEntity
  8
Geo
100
AcDbLine
 10
-14.79547328527584
 20
5.018927335901736
 30
0.0
 11
-14.69547328527584
 21
5.019738474510134
 31
0.0
  0
LINE
  5
F10607
330
261
100
AcDbEntity
  8
Geo
100
AcDbLine
 10
-14.69547328527584
 20
5.019738474510134
 30
0.0
 11
-14.59547328527583
 21
5.020509187547432
 31
0.0
  0
LINE
  5
F10609
330
261
100
AcDbEntity
  8
Geo
100
AcDbLine
 10
-14.59547328527583
 20
5.020509187547432
 30
0.0
 11
-14.49547328527583
 21
5.021240219283036
 31
0.0
  0
LINE
  5
F1060B
330
261
100
AcDbEntity
  8
Geo
100
AcDbLine
 10
-14.49547328527583
 20
5.021240219283036
 30
0.0
 11
-14.39547328527584
 21
5.021932309010836
 31
0.0
  0
LINE
  5
F1060D
330
261
100
AcDbEntity
  8
Geo
100
AcDbLine
 10
-14.39547328527584
 20
5.021932309010836
 30
0.0
 11
-14.29547328527584
 21
5.022586191028235
 31
0.0
  0
LINE
  5
F1060F
330
261
100
AcDbEntity
  8
Geo
100
AcDbLine
 10
-14.29547328527584
 20
5.022586191028235
 30
0.0
 11
-14.19547328527584
 21
5.023202594616336
 31
0.0
  0
LINE
  5
F10611
330
261
100
AcDbEntity
  8
Geo
100
AcDbLine
 10
-14.19547328527584
 20
5.023202594616336
 30
0.0
 11
-14.09547328527583
 21
5.023782244019834
 31
0.0
  0
LINE
  5
F10613
330
261
100
AcDbEntity
  8
Geo
100
AcDbLine
 10
-14.09547328527583
 20
5.023782244019834
 30
0.0
 11
-13.99547328527583
 21
5.024325858428234
 31
0.0
  0
LINE
  5
F10615
330
261
100
AcDbEntity
  8
Geo
100
AcDbLine
 10
-13.99547328527583
 20
5.024325858428234
 30
0.0
 11
-13.89547328527584
 21
5.024834151956731
 31
0.0
  0
LINE
  5
F10617
330
261
100
AcDbEntity
  8
Geo
100
AcDbLine
 10
-13.89547328527584
 20
5.024834151956731
 30
0.0
 11
-13.79547328527584
 21
5.025307833628833
 31
0.0
  0
LINE
  5
F10619
330
261
100
AcDbEntity
  8
Geo
100
AcDbLine
 10
-13.79547328527584
 20
5.025307833628833
 30
0.0
 11
-13.69547328527584
 21
5.025747607358436
 31
0.0
  0
LINE
  5
F1061B
330
261
100
AcDbEntity
  8
Geo
100
AcDbLine
 10
-13.69547328527584
 20
5.025747607358436
 30
0.0
 11
-13.59547328527584
 21
5.026154171932933
 31
0.0
  0
LINE
  5
F1061D
330
261
100
AcDbEntity
  8
Geo
100
AcDbLine
 10
-13.59547328527584
 20
5.026154171932933
 30
0.0
 11
-13.49547328527583
 21
5.026528220996436
 31
0.0
  0
LINE
  5
F1061F
330
261
100
AcDbEntity
  8
Geo
100
AcDbLine
 10
-13.49547328527583
 20
5.026528220996436
 30
0.0
 11
-13.39547328527584
 21
5.026870443034432
 31
0.0
  0
LINE
  5
F10621
330
261
100
AcDbEntity
  8
Geo
100
AcDbLine
 10
-13.39547328527584
 20
5.026870443034432
 30
0.0
 11
-13.29547328527584
 21
5.027181521357629
 31
0.0
  0
LINE
  5
F10623
330
261
100
AcDbEntity
  8
Geo
100
AcDbLine
 10
-13.29547328527584
 20
5.027181521357629
 30
0.0
 11
-13.19547328527584
 21
5.027462134087532
 31
0.0
  0
LINE
  5
F10625
330
261
100
AcDbEntity
  8
Geo
100
AcDbLine
 10
-13.19547328527584
 20
5.027462134087532
 30
0.0
 11
-13.09547328527584
 21
5.027712954141332
 31
0.0
  0
LINE
  5
F10627
330
261
100
AcDbEntity
  8
Geo
100
AcDbLine
 10
-13.09547328527584
 20
5.027712954141332
 30
0.0
 11
-12.99547328527583
 21
5.027934649218334
 31
0.0
  0
LINE
  5
F10629
330
261
100
AcDbEntity
  8
Geo
100
AcDbLine
 10
-12.99547328527583
 20
5.027934649218334
 30
0.0
 11
-12.89547328527584
 21
5.028127881786033
 31
0.0
  0
LINE
  5
F1062B
330
261
100
AcDbEntity
  8
Geo
100
AcDbLine
 10
-12.89547328527584
 20
5.028127881786033
 30
0.0
 11
-12.79547328527584
 21
5.028293309067432
 31
0.0
  0
LINE
  5
F1062D
330
261
100
AcDbEntity
  8
Geo
100
AcDbLine
 10
-12.79547328527584
 20
5.028293309067432
 30
0.0
 11
-12.69547328527584
 21
5.028431583027831
 31
0.0
  0
LINE
  5
F1062F
330
261
100
AcDbEntity
  8
Geo
100
AcDbLine
 10
-12.69547328527584
 20
5.028431583027831
 30
0.0
 11
-12.59547328527583
 21
5.028543350362632
 31
0.0
  0
LINE
  5
F10631
330
261
100
AcDbEntity
  8
Geo
100
AcDbLine
 10
-12.59547328527583
 20
5.028543350362632
 30
0.0
 11
-12.49547328527583
 21
5.028629252485931
 31
0.0
  0
LINE
  5
F10633
330
261
100
AcDbEntity
  8
Geo
100
AcDbLine
 10
-12.49547328527583
 20
5.028629252485931
 30
0.0
 11
-12.39547328527584
 21
5.028689925518733
 31
0.0
  0
LINE
  5
F10635
330
261
100
AcDbEntity
  8
Geo
100
AcDbLine
 10
-12.39547328527584
 20
5.028689925518733
 30
0.0
 11
-12.29547328527584
 21
5.028726000278133
 31
0.0
  0
LINE
  5
F10637
330
261
100
AcDbEntity
  8
Geo
100
AcDbLine
 10
-12.29547328527584
 20
5.028726000278133
 30
0.0
 11
-12.19547328527584
 21
5.028738102266533
 31
0.0
  0
LINE
  5
F10639
330
261
100
AcDbEntity
  8
Geo
100
AcDbLine
 10
-40.79547328527593
 20
3.365645027930533
 30
0.0
 11
-40.69547328527593
 21
3.392050994756434
 31
0.0
  0
LINE
  5
F1063B
330
261
100
AcDbEntity
  8
Geo
100
AcDbLine
 10
-40.69547328527593
 20
3.392050994756434
 30
0.0
 11
-40.59547328527592
 21
3.362966196982032
 31
0.0
  0
LINE
  5
F1063D
330
261
100
AcDbEntity
  8
Geo
100
AcDbLine
 10
-40.59547328527592
 20
3.362966196982032
 30
0.0
 11
-40.49547328527594
 21
3.319929559717834
 31
0.0
  0
LINE
  5
F1063F
330
261
100
AcDbEntity
  8
Geo
100
AcDbLine
 10
-40.49547328527594
 20
3.319929559717834
 30
0.0
 11
-40.39547328527592
 21
3.276454101802031
 31
0.0
  0
LINE
  5
F10641
330
261
100
AcDbEntity
  8
Geo
100
AcDbLine
 10
-40.39547328527592
 20
3.276454101802031
 30
0.0
 11
-40.29547328527593
 21
3.23254561989793
 31
0.0
  0
LINE
  5
F10643
330
261
100
AcDbEntity
  8
Geo
100
AcDbLine
 10
-40.29547328527593
 20
3.23254561989793
 30
0.0
 11
-40.19547328527593
 21
3.188209968404933
 31
0.0
  0
LINE
  5
F10645
330
261
100
AcDbEntity
  8
Geo
100
AcDbLine
 10
-40.19547328527593
 20
3.188209968404933
 30
0.0
 11
-40.09547328527593
 21
3.143453058677334
 31
0.0
  0
LINE
  5
F10647
330
261
100
AcDbEntity
  8
Geo
100
AcDbLine
 10
-40.09547328527593
 20
3.143453058677334
 30
0.0
 11
-39.99547328527594
 21
3.098280858236929
 31
0.0
  0
LINE
  5
F10649
330
261
100
AcDbEntity
  8
Geo
100
AcDbLine
 10
-39.99547328527594
 20
3.098280858236929
 30
0.0
 11
-39.89547328527592
 21
3.052699389976833
 31
0.0
  0
LINE
  5
F1064B
330
261
100
AcDbEntity
  8
Geo
100
AcDbLine
 10
-39.89547328527592
 20
3.052699389976833
 30
0.0
 11
-39.79547328527593
 21
3.006714731358535
 31
0.0
  0
LINE
  5
F1064D
330
261
100
AcDbEntity
  8
Geo
100
AcDbLine
 10
-39.79547328527593
 20
3.006714731358535
 30
0.0
 11
-39.69547328527594
 21
2.960333013601736
 31
0.0
  0
LINE
  5
F1064F
330
261
100
AcDbEntity
  8
Geo
100
AcDbLine
 10
-39.69547328527594
 20
2.960333013601736
 30
0.0
 11
-39.59547328527593
 21
2.913560420866932
 31
0.0
  0
LINE
  5
F10651
330
261
100
AcDbEntity
  8
Geo
100
AcDbLine
 10
-39.59547328527593
 20
2.913560420866932
 30
0.0
 11
-39.49547328527593
 21
2.866403189430336
 31
0.0
  0
LINE
  5
F10653
330
261
100
AcDbEntity
  8
Geo
100
AcDbLine
 10
-39.49547328527593
 20
2.866403189430336
 30
0.0
 11
-39.39547328527593
 21
2.818867606853036
 31
0.0
  0
LINE
  5
F10655
330
261
100
AcDbEntity
  8
Geo
100
AcDbLine
 10
-39.39547328527593
 20
2.818867606853036
 30
0.0
 11
-39.29547328527593
 21
2.770960011142232
 31
0.0
  0
LINE
  5
F10657
330
261
100
AcDbEntity
  8
Geo
100
AcDbLine
 10
-39.29547328527593
 20
2.770960011142232
 30
0.0
 11
-39.19547328527594
 21
2.722686789906433
 31
0.0
  0
LINE
  5
F10659
330
261
100
AcDbEntity
  8
Geo
100
AcDbLine
 10
-39.19547328527594
 20
2.722686789906433
 30
0.0
 11
-39.09547328527593
 21
2.674054379503633
 31
0.0
  0
LINE
  5
F1065B
330
261
100
AcDbEntity
  8
Geo
100
AcDbLine
 10
-39.09547328527593
 20
2.674054379503633
 30
0.0
 11
-38.99547328527594
 21
2.625069264183032
 31
0.0
  0
LINE
  5
F1065D
330
261
100
AcDbEntity
  8
Geo
100
AcDbLine
 10
-38.99547328527594
 20
2.625069264183032
 30
0.0
 11
-38.89547328527593
 21
2.575737975220931
 31
0.0
  0
LINE
  5
F1065F
330
261
100
AcDbEntity
  8
Geo
100
AcDbLine
 10
-38.89547328527593
 20
2.575737975220931
 30
0.0
 11
-38.79547328527593
 21
2.52606709004943
 31
0.0
  0
LINE
  5
F10661
330
261
100
AcDbEntity
  8
Geo
100
AcDbLine
 10
-38.79547328527593
 20
2.52606709004943
 30
0.0
 11
-38.69547328527594
 21
2.476063231379537
 31
0.0
  0
LINE
  5
F10663
330
261
100
AcDbEntity
  8
Geo
100
AcDbLine
 10
-38.69547328527594
 20
2.476063231379537
 30
0.0
 11
-38.59547328527593
 21
2.425733066318333
 31
0.0
  0
LINE
  5
F10665
330
261
100
AcDbEntity
  8
Geo
100
AcDbLine
 10
-38.59547328527593
 20
2.425733066318333
 30
0.0
 11
-38.49547328527594
 21
2.375083305480035
 31
0.0
  0
LINE
  5
F10667
330
261
100
AcDbEntity
  8
Geo
100
AcDbLine
 10
-38.49547328527594
 20
2.375083305480035
 30
0.0
 11
-38.39547328527593
 21
2.324120702091033
 31
0.0
  0
LINE
  5
F10669
330
261
100
AcDbEntity
  8
Geo
100
AcDbLine
 10
-38.39547328527593
 20
2.324120702091033
 30
0.0
 11
-38.29547328527593
 21
2.272852051089532
 31
0.0
  0
LINE
  5
F1066B
330
261
100
AcDbEntity
  8
Geo
100
AcDbLine
 10
-38.29547328527593
 20
2.272852051089532
 30
0.0
 11
-38.19547328527594
 21
2.22128418821973
 31
0.0
  0
LINE
  5
F1066D
330
261
100
AcDbEntity
  8
Geo
100
AcDbLine
 10
-38.19547328527594
 20
2.22128418821973
 30
0.0
 11
-38.09547328527593
 21
2.169423989120232
 31
0.0
  0
LINE
  5
F1066F
330
261
100
AcDbEntity
  8
Geo
100
AcDbLine
 10
-38.09547328527593
 20
2.169423989120232
 30
0.0
 11
-37.99547328527594
 21
2.117278368407635
 31
0.0
  0
LINE
  5
F10671
330
261
100
AcDbEntity
  8
Geo
100
AcDbLine
 10
-37.99547328527594
 20
2.117278368407635
 30
0.0
 11
-37.89547328527593
 21
2.064854278753838
 31
0.0
  0
LINE
  5
F10673
330
261
100
AcDbEntity
  8
Geo
100
AcDbLine
 10
-37.89547328527593
 20
2.064854278753838
 30
0.0
 11
-37.79547328527594
 21
2.012158709960033
 31
0.0
  0
LINE
  5
F10675
330
261
100
AcDbEntity
  8
Geo
100
AcDbLine
 10
-37.79547328527594
 20
2.012158709960033
 30
0.0
 11
-37.69547328527594
 21
1.959198688023835
 31
0.0
  0
LINE
  5
F10677
330
261
100
AcDbEntity
  8
Geo
100
AcDbLine
 10
-37.69547328527594
 20
1.959198688023835
 30
0.0
 11
-37.59547328527593
 21
1.905981274203131
 31
0.0
  0
LINE
  5
F10679
330
261
100
AcDbEntity
  8
Geo
100
AcDbLine
 10
-37.59547328527593
 20
1.905981274203131
 30
0.0
 11
-37.49547328527594
 21
1.852513564074133
 31
0.0
  0
LINE
  5
F1067B
330
261
100
AcDbEntity
  8
Geo
100
AcDbLine
 10
-37.49547328527594
 20
1.852513564074133
 30
0.0
 11
-37.39547328527593
 21
1.798802686585833
 31
0.0
  0
LINE
  5
F1067D
330
261
100
AcDbEntity
  8
Geo
100
AcDbLine
 10
-37.39547328527593
 20
1.798802686585833
 30
0.0
 11
-37.29547328527593
 21
1.744855803108833
 31
0.0
  0
LINE
  5
F1067F
330
261
100
AcDbEntity
  8
Geo
100
AcDbLine
 10
-37.29547328527593
 20
1.744855803108833
 30
0.0
 11
-37.19547328527594
 21
1.690680106481131
 31
0.0
  0
LINE
  5
F10681
330
261
100
AcDbEntity
  8
Geo
100
AcDbLine
 10
-37.19547328527594
 20
1.690680106481131
 30
0.0
 11
-37.09547328527593
 21
1.636282820048535
 31
0.0
  0
LINE
  5
F10683
330
261
100
AcDbEntity
  8
Geo
100
AcDbLine
 10
-37.09547328527593
 20
1.636282820048535
 30
0.0
 11
-36.99547328527593
 21
1.581671196702131
 31
0.0
  0
LINE
  5
F10685
330
261
100
AcDbEntity
  8
Geo
100
AcDbLine
 10
-36.99547328527593
 20
1.581671196702131
 30
0.0
 11
-36.89547328527593
 21
1.526852517910732
 31
0.0
  0
LINE
  5
F10687
330
261
100
AcDbEntity
  8
Geo
100
AcDbLine
 10
-36.89547328527593
 20
1.526852517910732
 30
0.0
 11
-36.79547328527593
 21
1.471834092750334
 31
0.0
  0
LINE
  5
F10689
330
261
100
AcDbEntity
  8
Geo
100
AcDbLine
 10
-36.79547328527593
 20
1.471834092750334
 30
0.0
 11
-36.69547328527594
 21
1.416623256929334
 31
0.0
  0
LINE
  5
F1068B
330
261
100
AcDbEntity
  8
Geo
100
AcDbLine
 10
-36.69547328527594
 20
1.416623256929334
 30
0.0
 11
-36.59547328527593
 21
1.361227371810834
 31
0.0
  0
LINE
  5
F1068D
330
261
100
AcDbEntity
  8
Geo
100
AcDbLine
 10
-36.59547328527593
 20
1.361227371810834
 30
0.0
 11
-36.49547328527594
 21
1.305653823430731
 31
0.0
  0
LINE
  5
F1068F
330
261
100
AcDbEntity
  8
Geo
100
AcDbLine
 10
-36.49547328527594
 20
1.305653823430731
 30
0.0
 11
-36.39547328527593
 21
1.24991002151313
 31
0.0
  0
LINE
  5
F10691
330
261
100
AcDbEntity
  8
Geo
100
AcDbLine
 10
-36.39547328527593
 20
1.24991002151313
 30
0.0
 11
-36.29547328527593
 21
1.194003398482436
 31
0.0
  0
LINE
  5
F10693
330
261
100
AcDbEntity
  8
Geo
100
AcDbLine
 10
-36.29547328527593
 20
1.194003398482436
 30
0.0
 11
-36.19547328527594
 21
1.13794140847213
 31
0.0
  0
LINE
  5
F10695
330
261
100
AcDbEntity
  8
Geo
100
AcDbLine
 10
-36.19547328527594
 20
1.13794140847213
 30
0.0
 11
-36.09547328527593
 21
1.081731526331338
 31
0.0
  0
LINE
  5
F10697
330
261
100
AcDbEntity
  8
Geo
100
AcDbLine
 10
-36.09547328527593
 20
1.081731526331338
 30
0.0
 11
-35.99547328527594
 21
1.025381246627535
 31
0.0
  0
LINE
  5
F10699
330
261
100
AcDbEntity
  8
Geo
100
AcDbLine
 10
-35.99547328527594
 20
1.025381246627535
 30
0.0
 11
-35.89547328527593
 21
0.9688980826479323
 31
0.0
  0
LINE
  5
F1069B
330
261
100
AcDbEntity
  8
Geo
100
AcDbLine
 10
-35.89547328527593
 20
0.9688980826479323
 30
0.0
 11
-35.79547328527593
 21
0.9122895653974332
 31
0.0
  0
LINE
  5
F1069D
330
261
100
AcDbEntity
  8
Geo
100
AcDbLine
 10
-35.79547328527593
 20
0.9122895653974332
 30
0.0
 11
-35.69547328527594
 21
0.8555632425944317
 31
0.0
  0
LINE
  5
F1069F
330
261
100
AcDbEntity
  8
Geo
100
AcDbLine
 10
-35.69547328527594
 20
0.8555632425944317
 30
0.0
 11
-35.59547328527593
 21
0.7987266776645363
 31
0.0
  0
LINE
  5
F106A1
330
261
100
AcDbEntity
  8
Geo
100
AcDbLine
 10
-35.59547328527593
 20
0.7987266776645363
 30
0.0
 11
-35.49547328527594
 21
0.7417874487324312
 31
0.0
  0
LINE
  5
F106A3
330
261
100
AcDbEntity
  8
Geo
100
AcDbLine
 10
-35.49547328527594
 20
0.7417874487324312
 30
0.0
 11
-35.39547328527593
 21
0.6847531476106355
 31
0.0
  0
LINE
  5
F106A5
330
261
100
AcDbEntity
  8
Geo
100
AcDbLine
 10
-35.39547328527593
 20
0.6847531476106355
 30
0.0
 11
-35.29547328527594
 21
0.6276313787883368
 31
0.0
  0
LINE
  5
F106A7
330
261
100
AcDbEntity
  8
Geo
100
AcDbLine
 10
-35.29547328527594
 20
0.6276313787883368
 30
0.0
 11
-35.19547328527594
 21
0.5704297584167329
 31
0.0
  0
LINE
  5
F106A9
330
261
100
AcDbEntity
  8
Geo
100
AcDbLine
 10
-35.19547328527594
 20
0.5704297584167329
 30
0.0
 11
-35.09547328527593
 21
0.5131559132938364
 31
0.0
  0
LINE
  5
F106AB
330
261
100
AcDbEntity
  8
Geo
100
AcDbLine
 10
-35.09547328527593
 20
0.5131559132938364
 30
0.0
 11
-34.99547328527594
 21
0.4558174798473332
 31
0.0
  0
LINE
  5
F106AD
330
261
100
AcDbEntity
  8
Geo
100
AcDbLine
 10
-34.99547328527594
 20
0.4558174798473332
 30
0.0
 11
-34.89547328527593
 21
0.398422103116836
 31
0.0
  0
LINE
  5
F106AF
330
261
100
AcDbEntity
  8
Geo
100
AcDbLine
 10
-34.89547328527593
 20
0.398422103116836
 30
0.0
 11
-34.79547328527593
 21
0.3409774357342314
 31
0.0
  0
LINE
  5
F106B1
330
261
100
AcDbEntity
  8
Geo
100
AcDbLine
 10
-34.79547328527593
 20
0.3409774357342314
 30
0.0
 11
-34.69547328527594
 21
0.2834911369033364
 31
0.0
  0
LINE
  5
F106B3
330
261
100
AcDbEntity
  8
Geo
100
AcDbLine
 10
-34.69547328527594
 20
0.2834911369033364
 30
0.0
 11
-34.59547328527593
 21
0.2259708713789337
 31
0.0
  0
LINE
  5
F106B5
330
261
100
AcDbEntity
  8
Geo
100
AcDbLine
 10
-34.59547328527593
 20
0.2259708713789337
 30
0.0
 11
-34.49547328527593
 21
0.1684243084444326
 31
0.0
  0
LINE
  5
F106B7
330
261
100
AcDbEntity
  8
Geo
100
AcDbLine
 10
-34.49547328527593
 20
0.1684243084444326
 30
0.0
 11
-34.39547328527593
 21
0.1108591208896321
 31
0.0
  0
LINE
  5
F106B9
330
261
100
AcDbEntity
  8
Geo
100
AcDbLine
 10
-34.39547328527593
 20
0.1108591208896321
 30
0.0
 11
-34.29547328527593
 21
0.0532829839877351
 31
0.0
  0
LINE
  5
F106BB
330
261
100
AcDbEntity
  8
Geo
100
AcDbLine
 10
-34.29547328527593
 20
0.0532829839877351
 30
0.0
 11
-34.19547328527594
 21
-0.0042964255284659
 31
0.0
  0
LINE
  5
F106BD
330
261
100
AcDbEntity
  8
Geo
100
AcDbLine
 10
-34.19547328527594
 20
-0.0042964255284659
 30
0.0
 11
-34.09547328527593
 21
-0.061871430489667
 31
0.0
  0
LINE
  5
F106BF
330
261
100
AcDbEntity
  8
Geo
100
AcDbLine
 10
-34.09547328527593
 20
-0.061871430489667
 30
0.0
 11
-33.99547328527594
 21
-0.1194343543136647
 31
0.0
  0
LINE
  5
F106C1
330
261
100
AcDbEntity
  8
Geo
100
AcDbLine
 10
-33.99547328527594
 20
-0.1194343543136647
 30
0.0
 11
-33.89547328527593
 21
-0.1769775220293681
 31
0.0
  0
LINE
  5
F106C3
330
261
100
AcDbEntity
  8
Geo
100
AcDbLine
 10
-33.89547328527593
 20
-0.1769775220293681
 30
0.0
 11
-33.79547328527593
 21
-0.2344932612995692
 31
0.0
  0
LINE
  5
F106C5
330
261
100
AcDbEntity
  8
Geo
100
AcDbLine
 10
-33.79547328527593
 20
-0.2344932612995692
 30
0.0
 11
-33.69547328527594
 21
-0.2919739034443687
 31
0.0
  0
LINE
  5
F106C7
330
261
100
AcDbEntity
  8
Geo
100
AcDbLine
 10
-33.69547328527594
 20
-0.2919739034443687
 30
0.0
 11
-33.59547328527593
 21
-0.349411784463264
 31
0.0
  0
LINE
  5
F106C9
330
261
100
AcDbEntity
  8
Geo
100
AcDbLine
 10
-33.59547328527593
 20
-0.349411784463264
 30
0.0
 11
-33.49547328527594
 21
-0.4067992460571653
 31
0.0
  0
LINE
  5
F106CB
330
261
100
AcDbEntity
  8
Geo
100
AcDbLine
 10
-33.49547328527594
 20
-0.4067992460571653
 30
0.0
 11
-33.39547328527593
 21
-0.4641286366495656
 31
0.0
  0
LINE
  5
F106CD
330
261
100
AcDbEntity
  8
Geo
100
AcDbLine
 10
-33.39547328527593
 20
-0.4641286366495656
 30
0.0
 11
-33.29547328527593
 21
-0.5213923124065652
 31
0.0
  0
LINE
  5
F106CF
330
261
100
AcDbEntity
  8
Geo
100
AcDbLine
 10
-33.29547328527593
 20
-0.5213923124065652
 30
0.0
 11
-33.19547328527594
 21
-0.5785826382564672
 31
0.0
  0
LINE
  5
F106D1
330
261
100
AcDbEntity
  8
Geo
100
AcDbLine
 10
-33.19547328527594
 20
-0.5785826382564672
 30
0.0
 11
-33.09547328527593
 21
-0.6356919889069666
 31
0.0
  0
LINE
  5
F106D3
330
261
100
AcDbEntity
  8
Geo
100
AcDbLine
 10
-33.09547328527593
 20
-0.6356919889069666
 30
0.0
 11
-32.99547328527594
 21
-0.6927127498626647
 31
0.0
  0
LINE
  5
F106D5
330
261
100
AcDbEntity
  8
Geo
100
AcDbLine
 10
-32.99547328527594
 20
-0.6927127498626647
 30
0.0
 11
-32.89547328527593
 21
-0.7496373184399659
 31
0.0
  0
LINE
  5
F106D7
330
261
100
AcDbEntity
  8
Geo
100
AcDbLine
 10
-32.89547328527593
 20
-0.7496373184399659
 30
0.0
 11
-32.79547328527594
 21
-0.8064581047806633
 31
0.0
  0
LINE
  5
F106D9
330
261
100
AcDbEntity
  8
Geo
100
AcDbLine
 10
-32.79547328527594
 20
-0.8064581047806633
 30
0.0
 11
-32.69547328527594
 21
-0.8631675328641641
 31
0.0
  0
LINE
  5
F106DB
330
261
100
AcDbEntity
  8
Geo
100
AcDbLine
 10
-32.69547328527594
 20
-0.8631675328641641
 30
0.0
 11
-32.59547328527593
 21
-0.9197580415172659
 31
0.0
  0
LINE
  5
F106DD
330
261
100
AcDbEntity
  8
Geo
100
AcDbLine
 10
-32.59547328527593
 20
-0.9197580415172659
 30
0.0
 11
-32.49547328527594
 21
-0.9762220854227656
 31
0.0
  0
LINE
  5
F106DF
330
261
100
AcDbEntity
  8
Geo
100
AcDbLine
 10
-32.49547328527594
 20
-0.9762220854227656
 30
0.0
 11
-32.39547328527593
 21
-1.032552136125165
 31
0.0
  0
LINE
  5
F106E1
330
261
100
AcDbEntity
  8
Geo
100
AcDbLine
 10
-32.39547328527593
 20
-1.032552136125165
 30
0.0
 11
-32.29547328527593
 21
-1.088740683034366
 31
0.0
  0
LINE
  5
F106E3
330
261
100
AcDbEntity
  8
Geo
100
AcDbLine
 10
-32.29547328527593
 20
-1.088740683034366
 30
0.0
 11
-32.19547328527594
 21
-1.144780234427368
 31
0.0
  0
LINE
  5
F106E5
330
261
100
AcDbEntity
  8
Geo
100
AcDbLine
 10
-32.19547328527594
 20
-1.144780234427368
 30
0.0
 11
-32.09547328527593
 21
-1.200663318447166
 31
0.0
  0
LINE
  5
F106E7
330
261
100
AcDbEntity
  8
Geo
100
AcDbLine
 10
-32.09547328527593
 20
-1.200663318447166
 30
0.0
 11
-31.99547328527593
 21
-1.256382484098462
 31
0.0
  0
LINE
  5
F106E9
330
261
100
AcDbEntity
  8
Geo
100
AcDbLine
 10
-31.99547328527593
 20
-1.256382484098462
 30
0.0
 11
-31.89547328527593
 21
-1.311930302241869
 31
0.0
  0
LINE
  5
F106EB
330
261
100
AcDbEntity
  8
Geo
100
AcDbLine
 10
-31.89547328527593
 20
-1.311930302241869
 30
0.0
 11
-31.79547328527593
 21
-1.367299366583868
 31
0.0
  0
LINE
  5
F106ED
330
261
100
AcDbEntity
  8
Geo
100
AcDbLine
 10
-31.79547328527593
 20
-1.367299366583868
 30
0.0
 11
-31.69547328527594
 21
-1.422482294664664
 31
0.0
  0
LINE
  5
F106EF
330
261
100
AcDbEntity
  8
Geo
100
AcDbLine
 10
-31.69547328527594
 20
-1.422482294664664
 30
0.0
 11
-31.59547328527593
 21
-1.477471728842065
 31
0.0
  0
LINE
  5
F106F1
330
261
100
AcDbEntity
  8
Geo
100
AcDbLine
 10
-31.59547328527593
 20
-1.477471728842065
 30
0.0
 11
-31.49547328527594
 21
-1.532260337273164
 31
0.0
  0
LINE
  5
F106F3
330
261
100
AcDbEntity
  8
Geo
100
AcDbLine
 10
-31.49547328527594
 20
-1.532260337273164
 30
0.0
 11
-31.39547328527593
 21
-1.586840814891267
 31
0.0
  0
LINE
  5
F106F5
330
261
100
AcDbEntity
  8
Geo
100
AcDbLine
 10
-31.39547328527593
 20
-1.586840814891267
 30
0.0
 11
-31.29547328527593
 21
-1.641205884380163
 31
0.0
  0
LINE
  5
F106F7
330
261
100
AcDbEntity
  8
Geo
100
AcDbLine
 10
-31.29547328527593
 20
-1.641205884380163
 30
0.0
 11
-31.19547328527594
 21
-1.695348297144565
 31
0.0
  0
LINE
  5
F106F9
330
261
100
AcDbEntity
  8
Geo
100
AcDbLine
 10
-31.19547328527594
 20
-1.695348297144565
 30
0.0
 11
-31.09547328527593
 21
-1.749260834276263
 31
0.0
  0
LINE
  5
F106FB
330
261
100
AcDbEntity
  8
Geo
100
AcDbLine
 10
-31.09547328527593
 20
-1.749260834276263
 30
0.0
 11
-30.99547328527594
 21
-1.802936307516866
 31
0.0
  0
LINE
  5
F106FD
330
261
100
AcDbEntity
  8
Geo
100
AcDbLine
 10
-30.99547328527594
 20
-1.802936307516866
 30
0.0
 11
-30.89547328527593
 21
-1.856367560216163
 31
0.0
  0
LINE
  5
F106FF
330
261
100
AcDbEntity
  8
Geo
100
AcDbLine
 10
-30.89547328527593
 20
-1.856367560216163
 30
0.0
 11
-30.79547328527593
 21
-1.909547468286167
 31
0.0
  0
LINE
  5
F10701
330
261
100
AcDbEntity
  8
Geo
100
AcDbLine
 10
-30.79547328527593
 20
-1.909547468286167
 30
0.0
 11
-30.69547328527594
 21
-1.962468941151367
 31
0.0
  0
LINE
  5
F10703
330
261
100
AcDbEntity
  8
Geo
100
AcDbLine
 10
-30.69547328527594
 20
-1.962468941151367
 30
0.0
 11
-30.59547328527593
 21
-2.015124922693665
 31
0.0
  0
LINE
  5
F10705
330
261
100
AcDbEntity
  8
Geo
100
AcDbLine
 10
-30.59547328527593
 20
-2.015124922693665
 30
0.0
 11
-30.49547328527594
 21
-2.067508392193666
 31
0.0
  0
LINE
  5
F10707
330
261
100
AcDbEntity
  8
Geo
100
AcDbLine
 10
-30.49547328527594
 20
-2.067508392193666
 30
0.0
 11
-30.39547328527593
 21
-2.119612365266263
 31
0.0
  0
LINE
  5
F10709
330
261
100
AcDbEntity
  8
Geo
100
AcDbLine
 10
-30.39547328527593
 20
-2.119612365266263
 30
0.0
 11
-30.29547328527594
 21
-2.171429894792368
 31
0.0
  0
LINE
  5
F1070B
330
261
100
AcDbEntity
  8
Geo
100
AcDbLine
 10
-30.29547328527594
 20
-2.171429894792368
 30
0.0
 11
-30.19547328527594
 21
-2.222954071844664
 31
0.0
  0
LINE
  5
F1070D
330
261
100
AcDbEntity
  8
Geo
100
AcDbLine
 10
-30.19547328527594
 20
-2.222954071844664
 30
0.0
 11
-30.09547328527593
 21
-2.274178026609266
 31
0.0
  0
LINE
  5
F1070F
330
261
100
AcDbEntity
  8
Geo
100
AcDbLine
 10
-30.09547328527593
 20
-2.274178026609266
 30
0.0
 11
-29.99547328527594
 21
-2.325094929301467
 31
0.0
  0
LINE
  5
F10711
330
261
100
AcDbEntity
  8
Geo
100
AcDbLine
 10
-29.99547328527594
 20
-2.325094929301467
 30
0.0
 11
-29.89547328527592
 21
-2.375697991076265
 31
0.0
  0
LINE
  5
F10713
330
261
100
AcDbEntity
  8
Geo
100
AcDbLine
 10
-29.89547328527592
 20
-2.375697991076265
 30
0.0
 11
-29.79547328527593
 21
-2.425980464933868
 31
0.0
  0
LINE
  5
F10715
330
261
100
AcDbEntity
  8
Geo
100
AcDbLine
 10
-29.79547328527593
 20
-2.425980464933868
 30
0.0
 11
-29.69547328527594
 21
-2.475935646618662
 31
0.0
  0
LINE
  5
F10717
330
261
100
AcDbEntity
  8
Geo
100
AcDbLine
 10
-29.69547328527594
 20
-2.475935646618662
 30
0.0
 11
-29.59547328527593
 21
-2.525556875514066
 31
0.0
  0
LINE
  5
F10719
330
261
100
AcDbEntity
  8
Geo
100
AcDbLine
 10
-29.59547328527593
 20
-2.525556875514066
 30
0.0
 11
-29.49547328527593
 21
-2.574837535529464
 31
0.0
  0
LINE
  5
F1071B
330
261
100
AcDbEntity
  8
Geo
100
AcDbLine
 10
-29.49547328527593
 20
-2.574837535529464
 30
0.0
 11
-29.39547328527593
 21
-2.623771055983368
 31
0.0
  0
LINE
  5
F1071D
330
261
100
AcDbEntity
  8
Geo
100
AcDbLine
 10
-29.39547328527593
 20
-2.623771055983368
 30
0.0
 11
-29.29547328527593
 21
-2.672350912478869
 31
0.0
  0
LINE
  5
F1071F
330
261
100
AcDbEntity
  8
Geo
100
AcDbLine
 10
-29.29547328527593
 20
-2.672350912478869
 30
0.0
 11
-29.19547328527594
 21
-2.720570627773664
 31
0.0
  0
LINE
  5
F10721
330
261
100
AcDbEntity
  8
Geo
100
AcDbLine
 10
-29.19547328527594
 20
-2.720570627773664
 30
0.0
 11
-29.09547328527594
 21
-2.768423772643966
 31
0.0
  0
LINE
  5
F10723
330
261
100
AcDbEntity
  8
Geo
100
AcDbLine
 10
-29.09547328527594
 20
-2.768423772643966
 30
0.0
 11
-28.99547328527594
 21
-2.815903966741068
 31
0.0
  0
LINE
  5
F10725
330
261
100
AcDbEntity
  8
Geo
100
AcDbLine
 10
-28.99547328527594
 20
-2.815903966741068
 30
0.0
 11
-28.89547328527593
 21
-2.863004879443067
 31
0.0
  0
LINE
  5
F10727
330
261
100
AcDbEntity
  8
Geo
100
AcDbLine
 10
-28.89547328527593
 20
-2.863004879443067
 30
0.0
 11
-28.79547328527593
 21
-2.909720230697868
 31
0.0
  0
LINE
  5
F10729
330
261
100
AcDbEntity
  8
Geo
100
AcDbLine
 10
-28.79547328527593
 20
-2.909720230697868
 30
0.0
 11
-28.69547328527593
 21
-2.956043791861162
 31
0.0
  0
LINE
  5
F1072B
330
261
100
AcDbEntity
  8
Geo
100
AcDbLine
 10
-28.69547328527593
 20
-2.956043791861162
 30
0.0
 11
-28.59547328527593
 21
-3.001969386526965
 31
0.0
  0
LINE
  5
F1072D
330
261
100
AcDbEntity
  8
Geo
100
AcDbLine
 10
-28.59547328527593
 20
-3.001969386526965
 30
0.0
 11
-28.49547328527594
 21
-3.047490891350467
 31
0.0
  0
LINE
  5
F1072F
330
261
100
AcDbEntity
  8
Geo
100
AcDbLine
 10
-28.49547328527594
 20
-3.047490891350467
 30
0.0
 11
-28.39547328527594
 21
-3.092602236865165
 31
0.0
  0
LINE
  5
F10731
330
261
100
AcDbEntity
  8
Geo
100
AcDbLine
 10
-28.39547328527594
 20
-3.092602236865165
 30
0.0
 11
-28.29547328527593
 21
-3.137297408291967
 31
0.0
  0
LINE
  5
F10733
330
261
100
AcDbEntity
  8
Geo
100
AcDbLine
 10
-28.29547328527593
 20
-3.137297408291967
 30
0.0
 11
-28.19547328527593
 21
-3.181570446340764
 31
0.0
  0
LINE
  5
F10735
330
261
100
AcDbEntity
  8
Geo
100
AcDbLine
 10
-28.19547328527593
 20
-3.181570446340764
 30
0.0
 11
-28.09547328527594
 21
-3.225415448005367
 31
0.0
  0
LINE
  5
F10737
330
261
100
AcDbEntity
  8
Geo
100
AcDbLine
 10
-28.09547328527594
 20
-3.225415448005367
 30
0.0
 11
-27.99547328527594
 21
-3.268826567350664
 31
0.0
  0
LINE
  5
F10739
330
261
100
AcDbEntity
  8
Geo
100
AcDbLine
 10
-27.99547328527594
 20
-3.268826567350664
 30
0.0
 11
-27.89547328527593
 21
-3.311798016291664
 31
0.0
  0
LINE
  5
F1073B
330
261
100
AcDbEntity
  8
Geo
100
AcDbLine
 10
-27.89547328527593
 20
-3.311798016291664
 30
0.0
 11
-27.79547328527594
 21
-3.354324065365368
 31
0.0
  0
LINE
  5
F1073D
330
261
100
AcDbEntity
  8
Geo
100
AcDbLine
 10
-27.79547328527594
 20
-3.354324065365368
 30
0.0
 11
-27.69547328527593
 21
-3.396399044495066
 31
0.0
  0
LINE
  5
F1073F
330
261
100
AcDbEntity
  8
Geo
100
AcDbLine
 10
-27.69547328527593
 20
-3.396399044495066
 30
0.0
 11
-27.59547328527594
 21
-3.438017343745865
 31
0.0
  0
LINE
  5
F10741
330
261
100
AcDbEntity
  8
Geo
100
AcDbLine
 10
-27.59547328527594
 20
-3.438017343745865
 30
0.0
 11
-27.49547328527594
 21
-3.479173414072764
 31
0.0
  0
LINE
  5
F10743
330
261
100
AcDbEntity
  8
Geo
100
AcDbLine
 10
-27.49547328527594
 20
-3.479173414072764
 30
0.0
 11
-27.39547328527593
 21
-3.519861768060767
 31
0.0
  0
LINE
  5
F10745
330
261
100
AcDbEntity
  8
Geo
100
AcDbLine
 10
-27.39547328527593
 20
-3.519861768060767
 30
0.0
 11
-27.29547328527593
 21
-3.560076980656265
 31
0.0
  0
LINE
  5
F10747
330
261
100
AcDbEntity
  8
Geo
100
AcDbLine
 10
-27.29547328527593
 20
-3.560076980656265
 30
0.0
 11
-27.19547328527593
 21
-3.599813689890464
 31
0.0
  0
LINE
  5
F10749
330
261
100
AcDbEntity
  8
Geo
100
AcDbLine
 10
-27.19547328527593
 20
-3.599813689890464
 30
0.0
 11
-27.09547328527594
 21
-3.639066597594368
 31
0.0
  0
LINE
  5
F1074B
330
261
100
AcDbEntity
  8
Geo
100
AcDbLine
 10
-27.09547328527594
 20
-3.639066597594368
 30
0.0
 11
-26.99547328527593
 21
-3.677830470105067
 31
0.0
  0
LINE
  5
F1074D
330
261
100
AcDbEntity
  8
Geo
100
AcDbLine
 10
-26.99547328527593
 20
-3.677830470105067
 30
0.0
 11
-26.89547328527594
 21
-3.716100138963664
 31
0.0
  0
LINE
  5
F1074F
330
261
100
AcDbEntity
  8
Geo
100
AcDbLine
 10
-26.89547328527594
 20
-3.716100138963664
 30
0.0
 11
-26.79547328527593
 21
-3.753870501604367
 31
0.0
  0
LINE
  5
F10751
330
261
100
AcDbEntity
  8
Geo
100
AcDbLine
 10
-26.79547328527593
 20
-3.753870501604367
 30
0.0
 11
-26.69547328527593
 21
-3.791136522034765
 31
0.0
  0
LINE
  5
F10753
330
261
100
AcDbEntity
  8
Geo
100
AcDbLine
 10
-26.69547328527593
 20
-3.791136522034765
 30
0.0
 11
-26.59547328527594
 21
-3.827893231507268
 31
0.0
  0
LINE
  5
F10755
330
261
100
AcDbEntity
  8
Geo
100
AcDbLine
 10
-26.59547328527594
 20
-3.827893231507268
 30
0.0
 11
-26.49547328527594
 21
-3.864135729181867
 31
0.0
  0
LINE
  5
F10757
330
261
100
AcDbEntity
  8
Geo
100
AcDbLine
 10
-26.49547328527594
 20
-3.864135729181867
 30
0.0
 11
-26.39547328527593
 21
-3.899859182779163
 31
0.0
  0
LINE
  5
F10759
330
261
100
AcDbEntity
  8
Geo
100
AcDbLine
 10
-26.39547328527593
 20
-3.899859182779163
 30
0.0
 11
-26.29547328527593
 21
-3.935058829224963
 31
0.0
  0
LINE
  5
F1075B
330
261
100
AcDbEntity
  8
Geo
100
AcDbLine
 10
-26.29547328527593
 20
-3.935058829224963
 30
0.0
 11
-26.19547328527593
 21
-3.969729975285165
 31
0.0
  0
LINE
  5
F1075D
330
261
100
AcDbEntity
  8
Geo
100
AcDbLine
 10
-26.19547328527593
 20
-3.969729975285165
 30
0.0
 11
-26.09547328527594
 21
-4.003867998191765
 31
0.0
  0
LINE
  5
F1075F
330
261
100
AcDbEntity
  8
Geo
100
AcDbLine
 10
-26.09547328527594
 20
-4.003867998191765
 30
0.0
 11
-25.99547328527594
 21
-4.037468346258869
 31
0.0
  0
LINE
  5
F10761
330
261
100
AcDbEntity
  8
Geo
100
AcDbLine
 10
-25.99547328527594
 20
-4.037468346258869
 30
0.0
 11
-25.89547328527594
 21
-4.070526539489765
 31
0.0
  0
LINE
  5
F10763
330
261
100
AcDbEntity
  8
Geo
100
AcDbLine
 10
-25.89547328527594
 20
-4.070526539489765
 30
0.0
 11
-25.79547328527593
 21
-4.103038170174464
 31
0.0
  0
LINE
  5
F10765
330
261
100
AcDbEntity
  8
Geo
100
AcDbLine
 10
-25.79547328527593
 20
-4.103038170174464
 30
0.0
 11
-25.69547328527593
 21
-4.134998903476965
 31
0.0
  0
LINE
  5
F10767
330
261
100
AcDbEntity
  8
Geo
100
AcDbLine
 10
-25.69547328527593
 20
-4.134998903476965
 30
0.0
 11
-25.59547328527594
 21
-4.166404478013568
 31
0.0
  0
LINE
  5
F10769
330
261
100
AcDbEntity
  8
Geo
100
AcDbLine
 10
-25.59547328527594
 20
-4.166404478013568
 30
0.0
 11
-25.49547328527594
 21
-4.197250706420867
 31
0.0
  0
LINE
  5
F1076B
330
261
100
AcDbEntity
  8
Geo
100
AcDbLine
 10
-25.49547328527594
 20
-4.197250706420867
 30
0.0
 11
-25.39547328527593
 21
-4.227533475914068
 31
0.0
  0
LINE
  5
F1076D
330
261
100
AcDbEntity
  8
Geo
100
AcDbLine
 10
-25.39547328527593
 20
-4.227533475914068
 30
0.0
 11
-25.29547328527594
 21
-4.257248748835465
 31
0.0
  0
LINE
  5
F1076F
330
261
100
AcDbEntity
  8
Geo
100
AcDbLine
 10
-25.29547328527594
 20
-4.257248748835465
 30
0.0
 11
-25.19547328527593
 21
-4.286392563192567
 31
0.0
  0
LINE
  5
F10771
330
261
100
AcDbEntity
  8
Geo
100
AcDbLine
 10
-25.19547328527593
 20
-4.286392563192567
 30
0.0
 11
-25.09547328527594
 21
-4.314961033186765
 31
0.0
  0
LINE
  5
F10773
330
261
100
AcDbEntity
  8
Geo
100
AcDbLine
 10
-25.09547328527594
 20
-4.314961033186765
 30
0.0
 11
-24.99547328527594
 21
-4.342950349731069
 31
0.0
  0
LINE
  5
F10775
330
261
100
AcDbEntity
  8
Geo
100
AcDbLine
 10
-24.99547328527594
 20
-4.342950349731069
 30
0.0
 11
-24.89547328527593
 21
-4.370356780957965
 31
0.0
  0
LINE
  5
F10777
330
261
100
AcDbEntity
  8
Geo
100
AcDbLine
 10
-24.89547328527593
 20
-4.370356780957965
 30
0.0
 11
-24.79547328527593
 21
-4.397176672717368
 31
0.0
  0
LINE
  5
F10779
330
261
100
AcDbEntity
  8
Geo
100
AcDbLine
 10
-24.79547328527593
 20
-4.397176672717368
 30
0.0
 11
-24.69547328527593
 21
-4.423406449063268
 31
0.0
  0
LINE
  5
F1077B
330
261
100
AcDbEntity
  8
Geo
100
AcDbLine
 10
-24.69547328527593
 20
-4.423406449063268
 30
0.0
 11
-24.59547328527594
 21
-4.449042612731165
 31
0.0
  0
LINE
  5
F1077D
330
261
100
AcDbEntity
  8
Geo
100
AcDbLine
 10
-24.59547328527594
 20
-4.449042612731165
 30
0.0
 11
-24.49547328527593
 21
-4.474081745603765
 31
0.0
  0
LINE
  5
F1077F
330
261
100
AcDbEntity
  8
Geo
100
AcDbLine
 10
-24.49547328527593
 20
-4.474081745603765
 30
0.0
 11
-24.39547328527594
 21
-4.498520509167263
 31
0.0
  0
LINE
  5
F10781
330
261
100
AcDbEntity
  8
Geo
100
AcDbLine
 10
-24.39547328527594
 20
-4.498520509167263
 30
0.0
 11
-24.29547328527593
 21
-4.522355644955869
 31
0.0
  0
LINE
  5
F10783
330
261
100
AcDbEntity
  8
Geo
100
AcDbLine
 10
-24.29547328527593
 20
-4.522355644955869
 30
0.0
 11
-24.19547328527593
 21
-4.545583974986868
 31
0.0
  0
LINE
  5
F10785
330
261
100
AcDbEntity
  8
Geo
100
AcDbLine
 10
-24.19547328527593
 20
-4.545583974986868
 30
0.0
 11
-24.09547328527594
 21
-4.568202402184066
 31
0.0
  0
LINE
  5
F10787
330
261
100
AcDbEntity
  8
Geo
100
AcDbLine
 10
-24.09547328527594
 20
-4.568202402184066
 30
0.0
 11
-23.99547328527594
 21
-4.590207910790567
 31
0.0
  0
LINE
  5
F10789
330
261
100
AcDbEntity
  8
Geo
100
AcDbLine
 10
-23.99547328527594
 20
-4.590207910790567
 30
0.0
 11
-23.89547328527593
 21
-4.611597566771266
 31
0.0
  0
LINE
  5
F1078B
330
261
100
AcDbEntity
  8
Geo
100
AcDbLine
 10
-23.89547328527593
 20
-4.611597566771266
 30
0.0
 11
-23.79547328527593
 21
-4.632368518203666
 31
0.0
  0
LINE
  5
F1078D
330
261
100
AcDbEntity
  8
Geo
100
AcDbLine
 10
-23.79547328527593
 20
-4.632368518203666
 30
0.0
 11
-23.69547328527593
 21
-4.652517995658364
 31
0.0
  0
LINE
  5
F1078F
330
261
100
AcDbEntity
  8
Geo
100
AcDbLine
 10
-23.69547328527593
 20
-4.652517995658364
 30
0.0
 11
-23.59547328527594
 21
-4.672043312568163
 31
0.0
  0
LINE
  5
F10791
330
261
100
AcDbEntity
  8
Geo
100
AcDbLine
 10
-23.59547328527594
 20
-4.672043312568163
 30
0.0
 11
-23.49547328527593
 21
-4.690941865586466
 31
0.0
  0
LINE
  5
F10793
330
261
100
AcDbEntity
  8
Geo
100
AcDbLine
 10
-23.49547328527593
 20
-4.690941865586466
 30
0.0
 11
-23.39547328527594
 21
-4.709211134934168
 31
0.0
  0
LINE
  5
F10795
330
261
100
AcDbEntity
  8
Geo
100
AcDbLine
 10
-23.39547328527594
 20
-4.709211134934168
 30
0.0
 11
-23.29547328527593
 21
-4.726848684735767
 31
0.0
  0
LINE
  5
F10797
330
261
100
AcDbEntity
  8
Geo
100
AcDbLine
 10
-23.29547328527593
 20
-4.726848684735767
 30
0.0
 11
-23.19547328527593
 21
-4.743852163344069
 31
0.0
  0
LINE
  5
F10799
330
261
100
AcDbEntity
  8
Geo
100
AcDbLine
 10
-23.19547328527593
 20
-4.743852163344069
 30
0.0
 11
-23.09547328527594
 21
-4.760219303653766
 31
0.0
  0
LINE
  5
F1079B
330
261
100
AcDbEntity
  8
Geo
100
AcDbLine
 10
-23.09547328527594
 20
-4.760219303653766
 30
0.0
 11
-22.99547328527594
 21
-4.775947923403865
 31
0.0
  0
LINE
  5
F1079D
330
261
100
AcDbEntity
  8
Geo
100
AcDbLine
 10
-22.99547328527594
 20
-4.775947923403865
 30
0.0
 11
-22.89547328527593
 21
-4.791035925468168
 31
0.0
  0
LINE
  5
F1079F
330
261
100
AcDbEntity
  8
Geo
100
AcDbLine
 10
-22.89547328527593
 20
-4.791035925468168
 30
0.0
 11
-22.79547328527593
 21
-4.805481298135564
 31
0.0
  0
LINE
  5
F107A1
330
261
100
AcDbEntity
  8
Geo
100
AcDbLine
 10
-22.79547328527593
 20
-4.805481298135564
 30
0.0
 11
-22.69547328527593
 21
-4.819282115377767
 31
0.0
  0
LINE
  5
F107A3
330
261
100
AcDbEntity
  8
Geo
100
AcDbLine
 10
-22.69547328527593
 20
-4.819282115377767
 30
0.0
 11
-22.59547328527593
 21
-4.832436537106168
 31
0.0
  0
LINE
  5
F107A5
330
261
100
AcDbEntity
  8
Geo
100
AcDbLine
 10
-22.59547328527593
 20
-4.832436537106168
 30
0.0
 11
-22.49547328527594
 21
-4.844942809417364
 31
0.0
  0
LINE
  5
F107A7
330
261
100
AcDbEntity
  8
Geo
100
AcDbLine
 10
-22.49547328527594
 20
-4.844942809417364
 30
0.0
 11
-22.39547328527593
 21
-4.856799264826964
 31
0.0
  0
LINE
  5
F107A9
330
261
100
AcDbEntity
  8
Geo
100
AcDbLine
 10
-22.39547328527593
 20
-4.856799264826964
 30
0.0
 11
-22.29547328527593
 21
-4.868004322491767
 31
0.0
  0
LINE
  5
F107AB
330
261
100
AcDbEntity
  8
Geo
100
AcDbLine
 10
-22.29547328527593
 20
-4.868004322491767
 30
0.0
 11
-22.19547328527593
 21
-4.878556488420766
 31
0.0
  0
LINE
  5
F107AD
330
261
100
AcDbEntity
  8
Geo
100
AcDbLine
 10
-22.19547328527593
 20
-4.878556488420766
 30
0.0
 11
-22.09547328527594
 21
-4.888454355673964
 31
0.0
  0
LINE
  5
F107AF
330
261
100
AcDbEntity
  8
Geo
100
AcDbLine
 10
-22.09547328527594
 20
-4.888454355673964
 30
0.0
 11
-21.99547328527593
 21
-4.897696604550567
 31
0.0
  0
LINE
  5
F107B1
330
261
100
AcDbEntity
  8
Geo
100
AcDbLine
 10
-21.99547328527593
 20
-4.897696604550567
 30
0.0
 11
-21.89547328527593
 21
-4.906282002764363
 31
0.0
  0
LINE
  5
F107B3
330
261
100
AcDbEntity
  8
Geo
100
AcDbLine
 10
-21.89547328527593
 20
-4.906282002764363
 30
0.0
 11
-21.79547328527593
 21
-4.914209405608364
 31
0.0
  0
LINE
  5
F107B5
330
261
100
AcDbEntity
  8
Geo
100
AcDbLine
 10
-21.79547328527593
 20
-4.914209405608364
 30
0.0
 11
-21.69547328527593
 21
-4.921477756107066
 31
0.0
  0
LINE
  5
F107B7
330
261
100
AcDbEntity
  8
Geo
100
AcDbLine
 10
-21.69547328527593
 20
-4.921477756107066
 30
0.0
 11
-21.59547328527594
 21
-4.928086085158067
 31
0.0
  0
LINE
  5
F107B9
330
261
100
AcDbEntity
  8
Geo
100
AcDbLine
 10
-21.59547328527594
 20
-4.928086085158067
 30
0.0
 11
-21.49547328527594
 21
-4.934033511660466
 31
0.0
  0
LINE
  5
F107BB
330
261
100
AcDbEntity
  8
Geo
100
AcDbLine
 10
-21.49547328527594
 20
-4.934033511660466
 30
0.0
 11
-21.39547328527593
 21
-4.939319242632965
 31
0.0
  0
LINE
  5
F107BD
330
261
100
AcDbEntity
  8
Geo
100
AcDbLine
 10
-21.39547328527593
 20
-4.939319242632965
 30
0.0
 11
-21.29547328527593
 21
-4.943942573319265
 31
0.0
  0
LINE
  5
F107BF
330
261
100
AcDbEntity
  8
Geo
100
AcDbLine
 10
-21.29547328527593
 20
-4.943942573319265
 30
0.0
 11
-21.19547328527593
 21
-4.947902887282069
 31
0.0
  0
LINE
  5
F107C1
330
261
100
AcDbEntity
  8
Geo
100
AcDbLine
 10
-21.19547328527593
 20
-4.947902887282069
 30
0.0
 11
-21.09547328527594
 21
-4.951199656485364
 31
0.0
  0
LINE
  5
F107C3
330
261
100
AcDbEntity
  8
Geo
100
AcDbLine
 10
-21.09547328527594
 20
-4.951199656485364
 30
0.0
 11
-20.99547328527593
 21
-4.953832441364863
 31
0.0
  0
LINE
  5
F107C5
330
261
100
AcDbEntity
  8
Geo
100
AcDbLine
 10
-20.99547328527593
 20
-4.953832441364863
 30
0.0
 11
-20.89547328527594
 21
-4.955800890886564
 31
0.0
  0
LINE
  5
F107C7
330
261
100
AcDbEntity
  8
Geo
100
AcDbLine
 10
-20.89547328527594
 20
-4.955800890886564
 30
0.0
 11
-20.79547328527593
 21
-4.957104742593266
 31
0.0
  0
LINE
  5
F107C9
330
261
100
AcDbEntity
  8
Geo
100
AcDbLine
 10
-20.79547328527593
 20
-4.957104742593266
 30
0.0
 11
-20.69547328527593
 21
-4.957743822640068
 31
0.0
  0
LINE
  5
F107CB
330
261
100
AcDbEntity
  8
Geo
100
AcDbLine
 10
-20.59547328527594
 20
5.015194254812133
 30
0.0
 11
-20.49547328527594
 21
5.014503624556631
 31
0.0
  0
LINE
  5
F107CD
330
261
100
AcDbEntity
  8
Geo
100
AcDbLine
 10
-20.49547328527594
 20
5.014503624556631
 30
0.0
 11
-20.39547328527593
 21
5.013148232951433
 31
0.0
  0
LINE
  5
F107CF
330
261
100
AcDbEntity
  8
Geo
100
AcDbLine
 10
-20.39547328527593
 20
5.013148232951433
 30
0.0
 11
-20.29547328527593
 21
5.011128260713338
 31
0.0
  0
LINE
  5
F107D1
330
261
100
AcDbEntity
  8
Geo
100
AcDbLine
 10
-20.29547328527593
 20
5.011128260713338
 30
0.0
 11
-20.19547328527593
 21
5.008443977169036
 31
0.0
  0
LINE
  5
F107D3
330
261
100
AcDbEntity
  8
Geo
100
AcDbLine
 10
-20.19547328527593
 20
5.008443977169036
 30
0.0
 11
-20.09547328527593
 21
5.005095740219033
 31
0.0
  0
LINE
  5
F107D5
330
261
100
AcDbEntity
  8
Geo
100
AcDbLine
 10
-20.09547328527593
 20
5.005095740219033
 30
0.0
 11
-19.99547328527593
 21
5.001083996289931
 31
0.0
  0
LINE
  5
F107D7
330
261
100
AcDbEntity
  8
Geo
100
AcDbLine
 10
-19.99547328527593
 20
5.001083996289931
 30
0.0
 11
-19.89547328527593
 21
4.996409280275031
 31
0.0
  0
LINE
  5
F107D9
330
261
100
AcDbEntity
  8
Geo
100
AcDbLine
 10
-19.89547328527593
 20
4.996409280275031
 30
0.0
 11
-19.79547328527593
 21
4.991072215462835
 31
0.0
  0
LINE
  5
F107DB
330
261
100
AcDbEntity
  8
Geo
100
AcDbLine
 10
-19.79547328527593
 20
4.991072215462835
 30
0.0
 11
-19.69547328527593
 21
4.985073513454036
 31
0.0
  0
LINE
  5
F107DD
330
261
100
AcDbEntity
  8
Geo
100
AcDbLine
 10
-19.69547328527593
 20
4.985073513454036
 30
0.0
 11
-19.59547328527593
 21
4.978413974066835
 31
0.0
  0
LINE
  5
F107DF
330
261
100
AcDbEntity
  8
Geo
100
AcDbLine
 10
-19.59547328527593
 20
4.978413974066835
 30
0.0
 11
-19.49547328527593
 21
4.971094485229734
 31
0.0
  0
LINE
  5
F107E1
330
261
100
AcDbEntity
  8
Geo
100
AcDbLine
 10
-19.49547328527593
 20
4.971094485229734
 30
0.0
 11
-19.39547328527593
 21
4.963116022863935
 31
0.0
  0
LINE
  5
F107E3
330
261
100
AcDbEntity
  8
Geo
100
AcDbLine
 10
-19.39547328527593
 20
4.963116022863935
 30
0.0
 11
-19.29547328527593
 21
4.954479650752432
 31
0.0
  0
LINE
  5
F107E5
330
261
100
AcDbEntity
  8
Geo
100
AcDbLine
 10
-19.29547328527593
 20
4.954479650752432
 30
0.0
 11
-19.19547328527593
 21
4.945186520398834
 31
0.0
  0
LINE
  5
F107E7
330
261
100
AcDbEntity
  8
Geo
100
AcDbLine
 10
-19.19547328527593
 20
4.945186520398834
 30
0.0
 11
-19.09547328527593
 21
4.935237870873336
 31
0.0
  0
LINE
  5
F107E9
330
261
100
AcDbEntity
  8
Geo
100
AcDbLine
 10
-19.09547328527593
 20
4.935237870873336
 30
0.0
 11
-18.99547328527593
 21
4.92463502864793
 31
0.0
  0
LINE
  5
F107EB
330
261
100
AcDbEntity
  8
Geo
100
AcDbLine
 10
-18.99547328527593
 20
4.92463502864793
 30
0.0
 11
-18.89547328527593
 21
4.913379407419036
 31
0.0
  0
LINE
  5
F107ED
330
261
100
AcDbEntity
  8
Geo
100
AcDbLine
 10
-18.89547328527593
 20
4.913379407419036
 30
0.0
 11
-18.89547328527593
 21
4.954446181796033
 31
0.0
  0
LINE
  5
F107EF
330
261
100
AcDbEntity
  8
Geo
100
AcDbLine
 10
-18.89547328527593
 20
4.913379407419036
 30
0.0
 11
-18.89547328527593
 21
4.718970118287533
 31
0.0
  0
LINE
  5
F107F1
330
261
100
AcDbEntity
  8
Geo
100
AcDbLine
 10
-40.79547328527593
 20
0.0287381044974318
 30
0.0
 11
-40.79547328527593
 21
0.0287381044974318
 31
0.0
  0
LINE
  5
F107F3
330
261
100
AcDbEntity
  8
Geo
100
AcDbLine
 10
-40.79547328527593
 20
0.0287381044974318
 30
0.0
 11
-40.79547328527593
 21
0.0287381044974318
 31
0.0
  0
LINE
  5
F107F5
330
261
100
AcDbEntity
  8
Geo
100
AcDbLine
 10
39.20452671472407
 20
4.528738104497431
 30
0.0
 11
39.20452671472407
 21
0.0287381044974318
 31
0.0
  0
LINE
  5
F107F7
330
261
100
AcDbEntity
  8
Geo
100
AcDbLine
 10
-40.79547328527593
 20
0.0287381044974318
 30
0.0
 11
-40.79547328527593
 21
-4.851261895502567
 31
0.0
  0
LINE
  5
F107F9
330
261
100
AcDbEntity
  8
Geo
100
AcDbLine
 10
-40.79547328527593
 20
-4.851261895502567
 30
0.0
 11
-40.67547328527592
 21
-4.971261895502568
 31
0.0
  0
LINE
  5
F107FB
330
261
100
AcDbEntity
  8
Geo
100
AcDbLine
 10
-40.67547328527592
 20
-4.971261895502568
 30
0.0
 11
-0.7954732852759321
 21
-4.971261895502568
 31
0.0
  0
LINE
  5
F107FD
330
261
100
AcDbEntity
  8
Geo
100
AcDbLine
 10
-0.7954732852759321
 20
-4.971261895502568
 30
0.0
 11
38.70452671472408
 21
-4.971261895502568
 31
0.0
  0
LINE
  5
F107FF
330
261
100
AcDbEntity
  8
Geo
100
AcDbLine
 10
38.70452671472408
 20
-4.971261895502568
 30
0.0
 11
39.20452671472407
 21
-4.471261895502568
 31
0.0
  0
LINE
  5
F10801
330
261
100
AcDbEntity
  8
Geo
100
AcDbLine
 10
-40.79547328527593
 20
4.90873810449743
 30
0.0
 11
-40.79547328527593
 21
-4.851261895502567
 31
0.0
  0
LINE
  5
F10803
330
261
100
AcDbEntity
  8
Geo
100
AcDbLine
 10
-40.67547328527592
 20
5.028738104497431
 30
0.0
 11
-40.67547328527592
 21
-4.971261895502568
 31
0.0
  0
LINE
  5
F10805
330
261
100
AcDbEntity
  8
Geo
100
AcDbLine
 10
-0.7954732852759321
 20
5.028738104497431
 30
0.0
 11
-0.7954732852759321
 21
-4.971261895502568
 31
0.0
  0
LINE
  5
F10807
330
261
100
AcDbEntity
  8
Geo
100
AcDbLine
 10
38.70452671472408
 20
5.028738104497431
 30
0.0
 11
38.70452671472408
 21
-4.971261895502568
 31
0.0
  0
LINE
  5
F10809
330
261
100
AcDbEntity
  8
Geo
100
AcDbLine
 10
39.20452671472407
 20
4.528738104497431
 30
0.0
 11
39.20452671472407
 21
-4.471261895502568
 31
0.0
  0
LWPOLYLINE
  5
F108BF
330
261
100
AcDbEntity
  8
Rahmen
100
AcDbPolyline
 90
        4
 70
     1
 43
0.0
 10
-134.650259067358
 20
99.8316062176166
 10
143.354922279793
 20
99.8316062176166
 10
143.354922279793
 20
-100.103626943005
 10
-134.650259067358
 20
-100.103626943005
  0
LWPOLYLINE
  5
F108C3
330
261
100
AcDbEntity
  8
Rahmen
100
AcDbPolyline
 90
        4
 70
     1
 43
0.0
 10
103.367875647668
 20
-97.11139896373062
 10
143.354922279793
 20
-97.11139896373062
 10
143.354922279793
 20
-100.103626943005
 10
103.367875647668
 20
-100.103626943005
  0
TEXT
  5
F108C5
330
261
100
AcDbEntity
  8
Text
100
AcDbText
 10
104.455958549223
 20
-98.11139896373061
 30
0.0
 40
0.75
  1
Ers. durch:
100
AcDbText
  0
LWPOLYLINE
  5
F108C9
330
261
100
AcDbEntity
  8
Rahmen
100
AcDbPolyline
 90
        4
 70
     1
 43
0.0
 10
63.380829015544
 20
-97.11139896373062
 10
103.367875647668
 20
-97.11139896373062
 10
103.367875647668
 20
-100.103626943005
 10
63.380829015544
 20
-100.103626943005
  0
TEXT
  5
F108CB
330
261
100
AcDbEntity
  8
Text
100
AcDbText
 10
64.46891191709839
 20
-98.11139896373061
 30
0.0
 40
0.75
  1
Ers. für:
100
AcDbText
  0
TEXT
  5
F108CD
330
261
100
AcDbEntity
  8
Text
100
AcDbText
 10
91.39896373056991
 20
-99.4715025906736
 30
0.0
 40
0.75
  1

100
AcDbText
  0
LWPOLYLINE
  5
F108CF
330
261
100
AcDbEntity
  8
Rahmen
100
AcDbPolyline
 90
        4
 70
     1
 43
0.0
 10
130.025906735751
 20
-94.119170984456
 10
143.354922279793
 20
-94.119170984456
 10
143.354922279793
 20
-97.11139896373062
 10
130.025906735751
 20
-97.11139896373062
  0
TEXT
  5
F108D1
330
261
100
AcDbEntity
  8
Text
100
AcDbText
 10
131.113989637306
 20
-95.119170984456
 30
0.0
 40
0.75
  1
Blätter
100
AcDbText
  0
TEXT
  5
F108D3
330
261
100
AcDbEntity
  8
Text
100
AcDbText
 10
141.178756476684
 20
-96.479274611399
 30
0.0
 40
0.75
  1

100
AcDbText
  0
LWPOLYLINE
  5
F108D5
330
261
100
AcDbEntity
  8
Rahmen
100
AcDbPolyline
 90
        4
 70
     1
 43
0.0
 10
130.025906735751
 20
-91.12694300518128
 10
143.354922279793
 20
-91.12694300518128
 10
143.354922279793
 20
-94.119170984456
 10
130.025906735751
 20
-94.119170984456
  0
TEXT
  5
F108D7
330
261
100
AcDbEntity
  8
Text
100
AcDbText
 10
131.113989637306
 20
-92.12694300518128
 30
0.0
 40
0.75
  1
Blatt
100
AcDbText
  0
TEXT
  5
F108D9
330
261
100
AcDbEntity
  8
Text
100
AcDbText
 10
141.178756476684
 20
-93.48704663212428
 30
0.0
 40
0.75
  1

100
AcDbText
  0
LWPOLYLINE
  5
F108DB
330
261
100
AcDbEntity
  8
Rahmen
100
AcDbPolyline
 90
        4
 70
     1
 43
0.0
 10
63.380829015544
 20
-91.12694300518128
 10
130.025906735751
 20
-91.12694300518128
 10
130.025906735751
 20
-97.11139896373062
 10
63.380829015544
 20
-97.11139896373062
  0
TEXT
  5
F108DD
330
261
100
AcDbEntity
  8
Text
100
AcDbText
 10
64.46891191709839
 20
-92.12694300518128
 30
0.0
 40
0.75
  1
Datum:
100
AcDbText
  0
TEXT
  5
F108DF
330
261
100
AcDbEntity
  8
Text
100
AcDbText
 10
91.67098445595859
 20
-95.119170984456
 30
0.0
 40
0.75
  1
17.12.2014
100
AcDbText
  0
LWPOLYLINE
  5
F108E1
330
261
100
AcDbEntity
  8
Rahmen
100
AcDbPolyline
 90
        4
 70
     1
 43
0.0
 10
63.380829015544
 20
-85.14248704663208
 10
143.354922279793
 20
-85.14248704663208
 10
143.354922279793
 20
-91.12694300518128
 10
63.380829015544
 20
-91.12694300518128
  0
TEXT
  5
F108E3
330
261
100
AcDbEntity
  8
Text
100
AcDbText
 10
-208.09585492228
 20
103.0
 30
0.0
 40
1.5
  1

100
AcDbText
  0
TEXT
  5
F108E5
330
261
100
AcDbEntity
  8
Text
100
AcDbText
 10
94.119170984456
 20
-89.01986183074269
 30
0.0
 40
2.5
  1
1735-100
100
AcDbText
  0
LWPOLYLINE
  5
F108E7
330
261
100
AcDbEntity
  8
Rahmen
100
AcDbPolyline
 90
        4
 70
     1
 43
0.0
 10
103.367875647668
 20
-79.1580310880829
 10
143.354922279793
 20
-79.1580310880829
 10
143.354922279793
 20
-85.14248704663208
 10
103.367875647668
 20
-85.14248704663208
  0
TEXT
  5
F108E9
330
261
100
AcDbEntity
  8
Text
100
AcDbText
 10
104.455958549223
 20
-80.1580310880829
 30
0.0
 40
0.75
  1
Zu bearb. Material:
100
AcDbText
  0
TEXT
  5
F108EB
330
261
100
AcDbEntity
  8
Text
100
AcDbText
 10
123.225388601036
 20
-84.5103626943005
 30
0.0
 40
0.75
  1

100
AcDbText
  0
LWPOLYLINE
  5
F108ED
330
261
100
AcDbEntity
  8
Rahmen
100
AcDbPolyline
 90
        4
 70
     1
 43
0.0
 10
63.380829015544
 20
-79.1580310880829
 10
103.367875647668
 20
-79.1580310880829
 10
103.367875647668
 20
-85.14248704663208
 10
63.380829015544
 20
-85.14248704663208
  0
TEXT
  5
F108EF
330
261
100
AcDbEntity
  8
Text
100
AcDbText
 10
64.46891191709839
 20
-80.1580310880829
 30
0.0
 40
0.75
  1
Werkstoff:
100
AcDbText
  0
TEXT
  5
F108F1
330
261
100
AcDbEntity
  8
Text
100
AcDbText
 10
83.23834196891191
 20
-84.5103626943005
 30
0.0
 40
0.75
  1

100
AcDbText
  0
LWPOLYLINE
  5
F108F3
330
261
100
AcDbEntity
  8
Rahmen
100
AcDbPolyline
 90
        4
 70
     1
 43
0.0
 10
103.367875647668
 20
-76.16580310880831
 10
143.354922279793
 20
-76.16580310880831
 10
143.354922279793
 20
-79.1580310880829
 10
103.367875647668
 20
-79.1580310880829
  0
TEXT
  5
F108F5
330
261
100
AcDbEntity
  8
Text
100
AcDbText
 10
-208.09585492228
 20
103.0
 30
0.0
 40
1.5
  1

100
AcDbText
  0
TEXT
  5
F108F7
330
261
100
AcDbEntity
  8
Text
100
AcDbText
 10
123.225388601036
 20
-78.52590673575129
 30
0.0
 40
0.75
  1

100
AcDbText
  0
LWPOLYLINE
  5
F108F9
330
261
100
AcDbEntity
  8
Rahmen
100
AcDbPolyline
 90
        4
 70
     1
 43
0.0
 10
63.380829015544
 20
-76.16580310880831
 10
103.367875647668
 20
-76.16580310880831
 10
103.367875647668
 20
-79.1580310880829
 10
63.380829015544
 20
-79.1580310880829
  0
TEXT
  5
F108FB
330
261
100
AcDbEntity
  8
Text
100
AcDbText
 10
64.46891191709839
 20
-77.1658031088083
 30
0.0
 40
0.75
  1
Maßstab:
100
AcDbText
  0
TEXT
  5
F108FD
330
261
100
AcDbEntity
  8
Text
100
AcDbText
 10
89.49481865284978
 20
-77.1658031088083
 30
0.0
 40
0.75
  1
1 : 1
100
AcDbText
  0
VIEWPORT
  5
294
102
{ACAD_XDICTIONARY
360
F10A59
102
}
330
25D
100
AcDbEntity
 67
     1
  8
0
 60
     1
100
AcDbViewport
 10
0.0
 20
0.0
 30
0.0
 40
10.0
 41
10.0
 68
    -1
 69
     1
 12
0.0
 22
0.0
 13
0.0
 23
0.0
 14
1.0
 24
1.0
 15
0.0
 25
0.0
 16
0.0
 26
0.0
 36
1.0
 17
0.0
 27
0.0
 37
0.0
 42
0.0
 43
0.0
 44
0.0
 45
10.0
 50
0.0
 51
0.0000000000007958
 72
   100
 90
    32800
  1

281
     0
 71
     0
 74
     0
110
0.0
120
0.0
130
0.0
111
1.0
121
0.0
131
0.0
112
0.0
122
1.0
132
0.0
 79
     0
146
0.0
1001
VD_INVISIBLE_NOT_FOR_READ
1000
VD_INVISIBLE_NOT_FOR_READ
1001
GENIUS_GENSCREG_15
1000
PF
1040
1.0
1000
DF
1040
1.0
1000
MIN
1011
-5.0
1021
-5.0
1031
0.0
1000
MAX
1011
5.0
1021
5.0
1031
0.0
1000
FLAGS
1070
     4
1001
GENIUS_GENOBJ-N-SDF_13
1002
{
1000
OWNER
1000
GEN
1002
}
1001
GENIUS_GENODEF_13
1002
{
1000
HIER
1070
     0
1002
}
1002
{
1000
MANEDIT
1070
     0
1002
}
1002
{
1000
NOSEL
1070
     0
1002
}
1002
{
1000
BEHIND
1070
     0
1002
}
1002
{
1000
OTHER
1070
     0
1002
}
1002
{
1000
REACTOR
1002
}
  0
VIEWPORT
  5
295
102
{ACAD_XDICTIONARY
360
F10A5B
102
}
330
25D
100
AcDbEntity
 67
     1
  8
0
 60
     1
100
AcDbViewport
 10
0.0
 20
0.0
 30
0.0
 40
10.0
 41
10.0
 68
     0
 69
     2
 12
0.0
 22
0.0
 13
0.0
 23
0.0
 14
1.0
 24
1.0
 15
0.0
 25
0.0
 16
0.0
 26
0.0
 36
1.0
 17
0.0
 27
0.0
 37
0.0
 42
0.0
 43
0.0
 44
0.0
 45
10.0
 50
0.0
 51
0.0000000000007958
 72
   100
 90
   163872
  1

281
     0
 71
     0
 74
     0
110
0.0
120
0.0
130
0.0
111
1.0
121
0.0
131
0.0
112
0.0
122
1.0
132
0.0
 79
     0
146
0.0
1001
VD_INVISIBLE_NOT_FOR_READ
1000
VD_INVISIBLE_NOT_FOR_READ
1001
GENIUS_GENSCREG_15
1000
PF
1040
1.0
1000
DF
1040
1.0
1000
MIN
1011
-5.0
1021
-5.0
1031
0.0
1000
MAX
1011
5.0
1021
5.0
1031
0.0
1000
FLAGS
1070
     4
1001
GENIUS_GENODEF_13
1002
{
1000
HIER
1070
     0
1002
}
1002
{
1000
MANEDIT
1070
     0
1002
}
1002
{
1000
NOSEL
1070
     0
1002
}
1002
{
1000
BEHIND
1070
     0
1002
}
1002
{
1000
OTHER
1070
     0
1002
}
1002
{
1000
REACTOR
1002
}
1001
GENIUS_GENOBJ-N-SDF_13
1002
{
1000
OWNER
1000
GEN
1002
}
  0
ENDSEC
  0
SECTION
  2
OBJECTS
  0
DICTIONARY
  5
13
330
0
100
AcDbDictionary
281
     1
  3
ACAD_COLOR
350
FA7
  3
ACAD_GROUP
350
14
  3
ACAD_LAYOUT
350
FCF
  3
ACAD_MATERIAL
350
F7A
  3
ACAD_MLEADERSTYLE
350
FCD
  3
ACAD_MLINESTYLE
350
16
  3
ACAD_PLOTSETTINGS
350
17
  3
ACAD_PLOTSTYLENAME
350
18
  3
ACAD_SCALELIST
350
FAB
  3
ACAD_TABLESTYLE
350
FA8
  3
ACAD_VISUALSTYLE
350
F93
  3
ACDB_RECOMPOSE_DATA
350
F10A57
  3
AcDbVariableDictionary
350
F10A4E
  3
AcmDictionary
350
F10954
  3
AMG
350
F10908
  3
AMGSNAPSETTINGS
350
F10995
  3
DWGPROPS
350
F10A58
  0
DICTIONARY
  5
F10A44
330
252
100
AcDbDictionary
280
     1
281
     1
  3
ADSK_XREC_LAYER_RECONCILED
360
F10A45
  0
DICTIONARY
  5
F10A46
330
23F
100
AcDbDictionary
280
     1
281
     1
  3
ADSK_XREC_LAYER_RECONCILED
360
F10A47
  0
DICTIONARY
  5
F10A48
330
240
100
AcDbDictionary
280
     1
281
     1
  3
ADSK_XREC_LAYER_RECONCILED
360
F10A49
  0
DICTIONARY
  5
F10A4A
330
241
100
AcDbDictionary
280
     1
281
     1
  3
ADSK_XREC_LAYER_RECONCILED
360
F10A4B
  0
DICTIONARY
  5
F10A4C
330
57E
100
AcDbDictionary
280
     1
281
     1
  3
ADSK_XREC_LAYER_RECONCILED
360
F10A4D
  0
DICTIONARY
  5
F10A5D
330
296
100
AcDbDictionary
280
     1
281
     1
  3
ACAD_XREC_ROUNDTRIP
360
F10A5E
  0
DICTIONARY
  5
F10A5F
330
297
100
AcDbDictionary
280
     1
281
     1
  3
ACAD_XREC_ROUNDTRIP
360
F10A60
  0
DICTIONARY
  5
F10A59
330
294
100
AcDbDictionary
280
     1
281
     1
  3
ACAD_XREC_ROUNDTRIP
360
F10A5A
  0
DICTIONARY
  5
F10A5B
330
295
100
AcDbDictionary
280
     1
281
     1
  3
ACAD_XREC_ROUNDTRIP
360
F10A5C
  0
DICTIONARY
  5
FA7
102
{ACAD_REACTORS
330
13
102
}
330
13
100
AcDbDictionary
281
     1
  0
DICTIONARY
  5
14
330
13
100
AcDbDictionary
281
     1
  0
DICTIONARY
  5
FCF
102
{ACAD_REACTORS
330
13
102
}
330
13
100
AcDbDictionary
281
     1
  3
Layout1
350
FD1
  3
Model
350
FD0
  0
DICTIONARY
  5
F7A
102
{ACAD_REACTORS
330
13
102
}
330
13
100
AcDbDictionary
281
     1
  3
ByBlock
350
F83
  3
ByLayer
350
F7B
  3
Global
350
F8B
  0
DICTIONARY
  5
FCD
102
{ACAD_REACTORS
330
13
102
}
330
13
100
AcDbDictionary
281
     1
  3
Standard
350
FCE
  0
DICTIONARY
  5
16
330
13
100
AcDbDictionary
281
     1
  3
Standard
350
FAA
  0
DICTIONARY
  5
17
102
{ACAD_REACTORS
330
13
102
}
330
13
100
AcDbDictionary
281
     1
  0
ACDBDICTIONARYWDFLT
  5
18
102
{ACAD_REACTORS
330
13
102
}
330
13
100
AcDbDictionary
281
     1
  3
Normal
350
19
100
AcDbDictionaryWithDefault
340
19
  0
DICTIONARY
  5
FAB
102
{ACAD_REACTORS
330
13
102
}
330
13
100
AcDbDictionary
281
     1
  3
A0
350
FAC
  3
A1
350
FAD
  3
A2
350
FAE
  3
A3
350
FAF
  3
A4
350
FB0
  3
A5
350
FB1
  3
A6
350
FB2
  3
A7
350
FB3
  3
A8
350
FB4
  3
A9
350
FB5
  3
B0
350
FB6
  3
B1
350
FB7
  3
B2
350
FB8
  3
B3
350
FB9
  3
B4
350
FBA
  3
B5
350
FBB
  3
B6
350
FBC
  3
B7
350
FBD
  3
B8
350
FBE
  3
B9
350
FBF
  3
C0
350
FC0
  3
C1
350
FC1
  3
C2
350
FC2
  3
C3
350
FC3
  3
C4
350
FC4
  3
C5
350
FC5
  3
C6
350
FC6
  3
C7
350
FC7
  3
C8
350
FC8
  3
C9
350
FC9
  3
D0
350
FCA
  3
D1
350
FCB
  3
D2
350
FCC
  0
DICTIONARY
  5
FA8
102
{ACAD_REACTORS
330
13
102
}
330
13
100
AcDbDictionary
281
     1
  3
Standard
350
FA9
  0
DICTIONARY
  5
F93
102
{ACAD_REACTORS
330
13
102
}
330
13
100
AcDbDictionary
281
     1
  3
2dWireframe
350
F99
  3
3D Hidden
350
F9B
  3
3dWireframe
350
F9A
  3
Basic
350
F98
  3
Brighten
350
F9F
  3
ColorChange
350
FA3
  3
Conceptual
350
F9C
  3
Dim
350
F9E
  3
EdgeColorOff
350
FA6
  3
Facepattern
350
FA2
  3
Flat
350
F94
  3
FlatWithEdges
350
F95
  3
Gouraud
350
F96
  3
GouraudWithEdges
350
F97
  3
Hidden
350
F10900
  3
JitterOff
350
FA4
  3
Linepattern
350
FA1
  3
OverhangOff
350
FA5
  3
Realistic
350
F9D
  3
Shaded
350
F10905
  3
Shaded with edges
350
F10904
  3
Shades of Gray
350
F10901
  3
Sketchy
350
F10902
  3
Thicken
350
FA0
  3
Wireframe
350
F108FF
  3
X-Ray
350
F10903
  0
XRECORD
  5
F10A57
102
{ACAD_REACTORS
330
13
102
}
330
13
100
AcDbXrecord
280
     1
 90
        1
330
FA9
  0
DICTIONARY
  5
F10A4E
102
{ACAD_REACTORS
330
13
102
}
330
13
100
AcDbDictionary
281
     1
  3
CANNOSCALE
350
F10A51
  3
CMLEADERSTYLE
350
F10A50
  3
CTABLESTYLE
350
F10A4F
  3
DIMASSOC
350
F10A54
  3
INDEXCTL
350
F10A53
  3
SORTENTS
350
F10A52
  3
XCLIPFRAME
350
F10A55
  0
DICTIONARY
  5
F10954
102
{ACAD_REACTORS
330
13
102
}
330
13
100
AcDbDictionary
281
     1
  3
AcmStdDictionary
350
F1095F
  0
DICTIONARY
  5
F10908
102
{ACAD_REACTORS
330
13
102
}
330
13
100
AcDbDictionary
281
     1
  0
DICTIONARY
  5
F10995
102
{ACAD_REACTORS
330
13
102
}
330
13
100
AcDbDictionary
281
     1
  0
XRECORD
  5
F10A58
102
{ACAD_REACTORS
330
13
102
}
330
13
100
AcDbXrecord
280
     1
  1
DWGPROPS COOKIE
  2

  3

  4

  6

  7

  8
Steigner
  9

300
=
301
=
302
=
303
=
304
=
305
=
306
=
307
=
308
=
309
=
 40
0.0008099421296296
 41
2457011.413572605
 42
2457011.414372836
  1

 90
        0
  0
XRECORD
  5
F10A45
102
{ACAD_REACTORS
330
F10A44
102
}
330
F10A44
100
AcDbXrecord
280
     1
290
     1
  0
XRECORD
  5
F10A47
102
{ACAD_REACTORS
330
F10A46
102
}
330
F10A46
100
AcDbXrecord
280
     1
290
     1
  0
XRECORD
  5
F10A49
102
{ACAD_REACTORS
330
F10A48
102
}
330
F10A48
100
AcDbXrecord
280
     1
290
     1
  0
XRECORD
  5
F10A4B
102
{ACAD_REACTORS
330
F10A4A
102
}
330
F10A4A
100
AcDbXrecord
280
     1
290
     1
  0
XRECORD
  5
F10A4D
102
{ACAD_REACTORS
330
F10A4C
102
}
330
F10A4C
100
AcDbXrecord
280
     1
290
     1
  0
XRECORD
  5
F10A5E
102
{ACAD_REACTORS
330
F10A5D
102
}
330
F10A5D
100
AcDbXrecord
280
     1
102
SHADEPLOT
 70
     0
  0
XRECORD
  5
F10A60
102
{ACAD_REACTORS
330
F10A5F
102
}
330
F10A5F
100
AcDbXrecord
280
     1
102
SHADEPLOT
 70
     0
  0
XRECORD
  5
F10A5A
102
{ACAD_REACTORS
330
F10A59
102
}
330
F10A59
100
AcDbXrecord
280
     1
102
SHADEPLOT
 70
     0
  0
XRECORD
  5
F10A5C
102
{ACAD_REACTORS
330
F10A5B
102
}
330
F10A5B
100
AcDbXrecord
280
     1
102
SHADEPLOT
 70
     0
  0
LAYOUT
  5
FD1
102
{ACAD_XDICTIONARY
360
F10A8A
102
}
102
{ACAD_REACTORS
330
FCF
102
}
330
FCF
100
AcDbPlotSettings
  1

  2
Microsoft XPS Document Writer
  4

  6

 40
0.0
 41
0.0
 42
0.0
 43
0.0
 44
0.0
 45
0.0
 46
0.0
 47
0.0
 48
0.0
 49
0.0
140
0.0
141
0.0
142
1.0
143
1.0
 70
   688
 72
     0
 73
     0
 74
     5
  7

 75
    16
147
1.0
148
0.0
149
0.0
100
AcDbLayout
  1
Layout1
 70
     1
 71
     1
 10
0.0
 20
0.0
 11
12.0
 21
9.0
 12
0.0
 22
0.0
 32
0.0
 14
1.000000000000000E+20
 24
1.000000000000000E+20
 34
1.000000000000000E+20
 15
-1.000000000000000E+20
 25
-1.000000000000000E+20
 35
-1.000000000000000E+20
146
0.0
 13
0.0
 23
0.0
 33
0.0
 16
1.0
 26
0.0
 36
0.0
 17
0.0
 27
1.0
 37
0.0
 76
     0
330
25D
  0
LAYOUT
  5
FD0
102
{ACAD_XDICTIONARY
360
F10A88
102
}
102
{ACAD_REACTORS
330
FCF
102
}
330
FCF
100
AcDbPlotSettings
  1

  2
Microsoft XPS Document Writer
  4

  6

 40
0.0
 41
0.0
 42
0.0
 43
0.0
 44
0.0
 45
0.0
 46
0.0
 47
0.0
 48
0.0
 49
0.0
140
0.0
141
0.0
142
1.0
143
1.0
 70
  1712
 72
     0
 73
     0
 74
     0
  7

 75
     0
147
1.0
148
0.0
149
0.0
100
AcDbLayout
  1
Model
 70
     1
 71
     0
 10
0.0
 20
0.0
 11
12.0
 21
9.0
 12
0.0
 22
0.0
 32
0.0
 14
0.0
 24
0.0
 34
0.0
 15
0.0
 25
0.0
 35
0.0
146
0.0
 13
0.0
 23
0.0
 33
0.0
 16
1.0
 26
0.0
 36
0.0
 17
0.0
 27
1.0
 37
0.0
 76
     0
330
261
331
26B
  0
MATERIAL
  5
F83
102
{ACAD_XDICTIONARY
360
F84
102
}
102
{ACAD_REACTORS
330
F7A
102
}
330
F7A
100
AcDbMaterial
  1
ByBlock
 72
     0
 43
0.0208333333333333
 43
0.0
 43
0.0
 43
0.0
 43
0.0
 43
0.0208333333333333
 43
0.0
 43
0.0
 43
0.0
 43
0.0
 43
1.0
 43
0.0
 43
0.0
 43
0.0
 43
0.0
 43
1.0
 77
     0
 47
0.0208333333333333
 47
0.0
 47
0.0
 47
0.0
 47
0.0
 47
0.0208333333333333
 47
0.0
 47
0.0
 47
0.0
 47
0.0
 47
1.0
 47
0.0
 47
0.0
 47
0.0
 47
0.0
 47
1.0
171
     0
 49
0.0208333333333333
 49
0.0
 49
0.0
 49
0.0
 49
0.0
 49
0.0208333333333333
 49
0.0
 49
0.0
 49
0.0
 49
0.0
 49
1.0
 49
0.0
 49
0.0
 49
0.0
 49
0.0
 49
1.0
175
     0
142
0.0208333333333333
142
0.0
142
0.0
142
0.0
142
0.0
142
0.0208333333333333
142
0.0
142
0.0
142
0.0
142
0.0
142
1.0
142
0.0
142
0.0
142
0.0
142
0.0
142
1.0
179
     0
144
0.0208333333333333
144
0.0
144
0.0
144
0.0
144
0.0
144
0.0208333333333333
144
0.0
144
0.0
144
0.0
144
0.0
144
1.0
144
0.0
144
0.0
144
0.0
144
0.0
144
1.0
147
0.0208333333333333
147
0.0
147
0.0
147
0.0
147
0.0
147
0.0208333333333333
147
0.0
147
0.0
147
0.0
147
0.0
147
1.0
147
0.0
147
0.0
147
0.0
147
0.0
147
1.0
  0
MATERIAL
  5
F7B
102
{ACAD_XDICTIONARY
360
F7C
102
}
102
{ACAD_REACTORS
330
F7A
102
}
330
F7A
100
AcDbMaterial
  1
ByLayer
 72
     0
 43
0.0208333333333333
 43
0.0
 43
0.0
 43
0.0
 43
0.0
 43
0.0208333333333333
 43
0.0
 43
0.0
 43
0.0
 43
0.0
 43
1.0
 43
0.0
 43
0.0
 43
0.0
 43
0.0
 43
1.0
 77
     0
 47
0.0208333333333333
 47
0.0
 47
0.0
 47
0.0
 47
0.0
 47
0.0208333333333333
 47
0.0
 47
0.0
 47
0.0
 47
0.0
 47
1.0
 47
0.0
 47
0.0
 47
0.0
 47
0.0
 47
1.0
171
     0
 49
0.0208333333333333
 49
0.0
 49
0.0
 49
0.0
 49
0.0
 49
0.0208333333333333
 49
0.0
 49
0.0
 49
0.0
 49
0.0
 49
1.0
 49
0.0
 49
0.0
 49
0.0
 49
0.0
 49
1.0
175
     0
142
0.0208333333333333
142
0.0
142
0.0
142
0.0
142
0.0
142
0.0208333333333333
142
0.0
142
0.0
142
0.0
142
0.0
142
1.0
142
0.0
142
0.0
142
0.0
142
0.0
142
1.0
179
     0
144
0.0208333333333333
144
0.0
144
0.0
144
0.0
144
0.0
144
0.0208333333333333
144
0.0
144
0.0
144
0.0
144
0.0
144
1.0
144
0.0
144
0.0
144
0.0
144
0.0
144
1.0
147
0.0208333333333333
147
0.0
147
0.0
147
0.0
147
0.0
147
0.0208333333333333
147
0.0
147
0.0
147
0.0
147
0.0
147
1.0
147
0.0
147
0.0
147
0.0
147
0.0
147
1.0
  0
MATERIAL
  5
F8B
102
{ACAD_XDICTIONARY
360
F8C
102
}
102
{ACAD_REACTORS
330
F7A
102
}
330
F7A
100
AcDbMaterial
  1
Global
 72
     0
 43
0.0208333333333333
 43
0.0
 43
0.0
 43
0.0
 43
0.0
 43
0.0208333333333333
 43
0.0
 43
0.0
 43
0.0
 43
0.0
 43
1.0
 43
0.0
 43
0.0
 43
0.0
 43
0.0
 43
1.0
 77
     0
 47
0.0208333333333333
 47
0.0
 47
0.0
 47
0.0
 47
0.0
 47
0.0208333333333333
 47
0.0
 47
0.0
 47
0.0
 47
0.0
 47
1.0
 47
0.0
 47
0.0
 47
0.0
 47
0.0
 47
1.0
171
     0
 49
0.0208333333333333
 49
0.0
 49
0.0
 49
0.0
 49
0.0
 49
0.0208333333333333
 49
0.0
 49
0.0
 49
0.0
 49
0.0
 49
1.0
 49
0.0
 49
0.0
 49
0.0
 49
0.0
 49
1.0
175
     0
142
0.0208333333333333
142
0.0
142
0.0
142
0.0
142
0.0
142
0.0208333333333333
142
0.0
142
0.0
142
0.0
142
0.0
142
1.0
142
0.0
142
0.0
142
0.0
142
0.0
142
1.0
179
     0
144
0.0208333333333333
144
0.0
144
0.0
144
0.0
144
0.0
144
0.0208333333333333
144
0.0
144
0.0
144
0.0
144
0.0
144
1.0
144
0.0
144
0.0
144
0.0
144
0.0
144
1.0
147
0.0208333333333333
147
0.0
147
0.0
147
0.0
147
0.0
147
0.0208333333333333
147
0.0
147
0.0
147
0.0
147
0.0
147
1.0
147
0.0
147
0.0
147
0.0
147
0.0
147
1.0
  0
MLEADERSTYLE
  5
FCE
102
{ACAD_REACTORS
330
FCD
102
}
330
FCD
100
AcDbMLeaderStyle
170
     2
171
     1
172
     0
 90
        2
 40
0.0
 41
0.0
173
     1
 91
-1056964608
340
256
 92
       -2
290
     1
 42
0.09
291
     1
 43
0.36
  3
Standard
 44
0.18
300

342
253
174
     1
178
     6
175
     1
176
     0
 93
-1056964608
 45
0.18
292
     0
297
     0
 46
0.18
 94
-1056964608
 47
1.0
 49
1.0
140
1.0
293
     1
141
0.0
294
     1
177
     0
142
1.0
295
     0
296
     0
143
0.125
1001
ACAD_MLEADERVER
1070
     2
  0
MLINESTYLE
  5
FAA
102
{ACAD_REACTORS
330
16
102
}
330
16
100
AcDbMlineStyle
  2
STANDARD
 70
     0
  3

 62
   256
 51
90.0
 52
90.0
 71
     2
 49
0.5
 62
   256
  6
BYLAYER
 49
-0.5
 62
   256
  6
BYLAYER
  0
ACDBPLACEHOLDER
  5
19
102
{ACAD_REACTORS
330
18
102
}
330
18
  0
SCALE
  5
FAC
102
{ACAD_REACTORS
330
FAB
102
}
330
FAB
100
AcDbScale
 70
     0
300
1:1
140
1.0
141
1.0
290
     1
  0
SCALE
  5
FAD
102
{ACAD_REACTORS
330
FAB
102
}
330
FAB
100
AcDbScale
 70
     0
300
1:2
140
1.0
141
2.0
290
     0
  0
SCALE
  5
FAE
102
{ACAD_REACTORS
330
FAB
102
}
330
FAB
100
AcDbScale
 70
     0
300
1:4
140
1.0
141
4.0
290
     0
  0
SCALE
  5
FAF
102
{ACAD_REACTORS
330
FAB
102
}
330
FAB
100
AcDbScale
 70
     0
300
1:5
140
1.0
141
5.0
290
     0
  0
SCALE
  5
FB0
102
{ACAD_REACTORS
330
FAB
102
}
330
FAB
100
AcDbScale
 70
     0
300
1:8
140
1.0
141
8.0
290
     0
  0
SCALE
  5
FB1
102
{ACAD_REACTORS
330
FAB
102
}
330
FAB
100
AcDbScale
 70
     0
300
1:10
140
1.0
141
10.0
290
     0
  0
SCALE
  5
FB2
102
{ACAD_REACTORS
330
FAB
102
}
330
FAB
100
AcDbScale
 70
     0
300
1:16
140
1.0
141
16.0
290
     0
  0
SCALE
  5
FB3
102
{ACAD_REACTORS
330
FAB
102
}
330
FAB
100
AcDbScale
 70
     0
300
1:20
140
1.0
141
20.0
290
     0
  0
SCALE
  5
FB4
102
{ACAD_REACTORS
330
FAB
102
}
330
FAB
100
AcDbScale
 70
     0
300
1:30
140
1.0
141
30.0
290
     0
  0
SCALE
  5
FB5
102
{ACAD_REACTORS
330
FAB
102
}
330
FAB
100
AcDbScale
 70
     0
300
1:40
140
1.0
141
40.0
290
     0
  0
SCALE
  5
FB6
102
{ACAD_REACTORS
330
FAB
102
}
330
FAB
100
AcDbScale
 70
     0
300
1:50
140
1.0
141
50.0
290
     0
  0
SCALE
  5
FB7
102
{ACAD_REACTORS
330
FAB
102
}
330
FAB
100
AcDbScale
 70
     0
300
1:100
140
1.0
141
100.0
290
     0
  0
SCALE
  5
FB8
102
{ACAD_REACTORS
330
FAB
102
}
330
FAB
100
AcDbScale
 70
     0
300
2:1
140
2.0
141
1.0
290
     0
  0
SCALE
  5
FB9
102
{ACAD_REACTORS
330
FAB
102
}
330
FAB
100
AcDbScale
 70
     0
300
4:1
140
4.0
141
1.0
290
     0
  0
SCALE
  5
FBA
102
{ACAD_REACTORS
330
FAB
102
}
330
FAB
100
AcDbScale
 70
     0
300
8:1
140
8.0
141
1.0
290
     0
  0
SCALE
  5
FBB
102
{ACAD_REACTORS
330
FAB
102
}
330
FAB
100
AcDbScale
 70
     0
300
10:1
140
10.0
141
1.0
290
     0
  0
SCALE
  5
FBC
102
{ACAD_REACTORS
330
FAB
102
}
330
FAB
100
AcDbScale
 70
     0
300
100:1
140
100.0
141
1.0
290
     0
  0
SCALE
  5
FBD
102
{ACAD_REACTORS
330
FAB
102
}
330
FAB
100
AcDbScale
 70
     0
300
1/128" = 1'-0"
140
0.0078125
141
12.0
290
     0
  0
SCALE
  5
FBE
102
{ACAD_REACTORS
330
FAB
102
}
330
FAB
100
AcDbScale
 70
     0
300
1/64" = 1'-0"
140
0.015625
141
12.0
290
     0
  0
SCALE
  5
FBF
102
{ACAD_REACTORS
330
FAB
102
}
330
FAB
100
AcDbScale
 70
     0
300
1/32" = 1'-0"
140
0.03125
141
12.0
290
     0
  0
SCALE
  5
FC0
102
{ACAD_REACTORS
330
FAB
102
}
330
FAB
100
AcDbScale
 70
     0
300
1/16" = 1'-0"
140
0.0625
141
12.0
290
     0
  0
SCALE
  5
FC1
102
{ACAD_REACTORS
330
FAB
102
}
330
FAB
100
AcDbScale
 70
     0
300
3/32" = 1'-0"
140
0.09375
141
12.0
290
     0
  0
SCALE
  5
FC2
102
{ACAD_REACTORS
330
FAB
102
}
330
FAB
100
AcDbScale
 70
     0
300
1/8" = 1'-0"
140
0.125
141
12.0
290
     0
  0
SCALE
  5
FC3
102
{ACAD_REACTORS
330
FAB
102
}
330
FAB
100
AcDbScale
 70
     0
300
3/16" = 1'-0"
140
0.1875
141
12.0
290
     0
  0
SCALE
  5
FC4
102
{ACAD_REACTORS
330
FAB
102
}
330
FAB
100
AcDbScale
 70
     0
300
1/4" = 1'-0"
140
0.25
141
12.0
290
     0
  0
SCALE
  5
FC5
102
{ACAD_REACTORS
330
FAB
102
}
330
FAB
100
AcDbScale
 70
     0
300
3/8" = 1'-0"
140
0.375
141
12.0
290
     0
  0
SCALE
  5
FC6
102
{ACAD_REACTORS
330
FAB
102
}
330
FAB
100
AcDbScale
 70
     0
300
1/2" = 1'-0"
140
0.5
141
12.0
290
     0
  0
SCALE
  5
FC7
102
{ACAD_REACTORS
330
FAB
102
}
330
FAB
100
AcDbScale
 70
     0
300
3/4" = 1'-0"
140
0.75
141
12.0
290
     0
  0
SCALE
  5
FC8
102
{ACAD_REACTORS
330
FAB
102
}
330
FAB
100
AcDbScale
 70
     0
300
1" = 1'-0"
140
1.0
141
12.0
290
     0
  0
SCALE
  5
FC9
102
{ACAD_REACTORS
330
FAB
102
}
330
FAB
100
AcDbScale
 70
     0
300
1-1/2" = 1'-0"
140
1.5
141
12.0
290
     0
  0
SCALE
  5
FCA
102
{ACAD_REACTORS
330
FAB
102
}
330
FAB
100
AcDbScale
 70
     0
300
3" = 1'-0"
140
3.0
141
12.0
290
     0
  0
SCALE
  5
FCB
102
{ACAD_REACTORS
330
FAB
102
}
330
FAB
100
AcDbScale
 70
     0
300
6" = 1'-0"
140
6.0
141
12.0
290
     0
  0
SCALE
  5
FCC
102
{ACAD_REACTORS
330
FAB
102
}
330
FAB
100
AcDbScale
 70
     0
300
1'-0" = 1'-0"
140
12.0
141
12.0
290
     0
  0
TABLESTYLE
  5
FA9
102
{ACAD_XDICTIONARY
360
FF8
102
}
102
{ACAD_REACTORS
330
FA8
102
}
330
FA8
100
AcDbTableStyle
  3
Standard
 70
     0
 71
     0
 40
0.06
 41
0.06
280
     0
281
     0
  7
Standard
140
0.18
170
     2
 62
     0
 63
     7
283
     0
274
    -2
284
     1
 64
     0
275
    -2
285
     1
 65
     0
276
    -2
286
     1
 66
     0
277
    -2
287
     1
 67
     0
278
    -2
288
     1
 68
     0
279
    -2
289
     1
 69
     0
  7
Standard
140
0.25
170
     5
 62
     0
 63
     7
283
     0
274
    -2
284
     1
 64
     0
275
    -2
285
     1
 65
     0
276
    -2
286
     1
 66
     0
277
    -2
287
     1
 67
     0
278
    -2
288
     1
 68
     0
279
    -2
289
     1
 69
     0
  7
Standard
140
0.18
170
     5
 62
     0
 63
     7
283
     0
274
    -2
284
     1
 64
     0
275
    -2
285
     1
 65
     0
276
    -2
286
     1
 66
     0
277
    -2
287
     1
 67
     0
278
    -2
288
     1
 68
     0
279
    -2
289
     1
 69
     0
  0
VISUALSTYLE
  5
F99
102
{ACAD_XDICTIONARY
360
F10A6B
102
}
102
{ACAD_REACTORS
330
F93
102
}
330
F93
100
AcDbVisualStyle
  2

 70
     4
 71
     0
 72
     2
 73
     0
 90
        0
 40
-0.6
 41
-30.0
 62
     5
 63
     7
 74
     1
 91
        4
 64
     7
 65
   257
 75
     1
175
     1
 42
1.0
 92
        0
 66
   257
 43
1.0
 76
     1
 77
     6
 78
     2
 67
     7
 79
     5
170
     0
171
     0
290
     0
174
     0
 93
        1
 44
0.0
173
     0
291
     0
 45
0.0
1001
ACAD
1000
AcDbSavedByObjectVersion
1070
     0
  0
VISUALSTYLE
  5
F9B
102
{ACAD_XDICTIONARY
360
F10A6F
102
}
102
{ACAD_REACTORS
330
F93
102
}
330
F93
100
AcDbVisualStyle
  2

 70
     6
 71
     1
 72
     2
 73
     2
 90
        0
 40
-0.6
 41
-30.0
 62
     5
 63
     7
 74
     2
 91
        2
 64
     7
 65
   257
 75
     2
175
     1
 42
179.0
 92
        0
 66
   257
 43
1.0
 76
     1
 77
     6
 78
     2
 67
     7
 79
     3
170
     0
171
     0
290
     0
174
     0
 93
        1
 44
0.0
173
     0
291
     0
 45
0.0
1001
ACAD
1000
AcDbSavedByObjectVersion
1070
     0
  0
VISUALSTYLE
  5
F9A
102
{ACAD_XDICTIONARY
360
F10A6D
102
}
102
{ACAD_REACTORS
330
F93
102
}
330
F93
100
AcDbVisualStyle
  2

 70
     5
 71
     0
 72
     2
 73
     0
 90
        0
 40
-0.6
 41
-30.0
 62
     5
 63
     7
 74
     1
 91
        4
 64
     7
 65
   257
 75
     1
175
     1
 42
1.0
 92
        0
 66
   257
 43
1.0
 76
     1
 77
     6
 78
     2
 67
     7
 79
     5
170
     0
171
     0
290
     0
174
     0
 93
        1
 44
0.0
173
     0
291
     0
 45
0.0
1001
ACAD
1000
AcDbSavedByObjectVersion
1070
     0
  0
VISUALSTYLE
  5
F98
102
{ACAD_XDICTIONARY
360
F10A69
102
}
102
{ACAD_REACTORS
330
F93
102
}
330
F93
100
AcDbVisualStyle
  2

 70
     7
 71
     1
 72
     0
 73
     1
 90
        0
 40
-0.6
 41
-30.0
 62
     5
 63
     7
 74
     0
 91
        4
 64
     7
 65
   257
 75
     1
175
     1
 42
1.0
 92
        8
 66
     7
 43
1.0
 76
     1
 77
     6
 78
     2
 67
     7
 79
     5
170
     0
171
     0
290
     0
174
     0
 93
        1
 44
0.0
173
     0
291
     1
 45
0.0
1001
ACAD
1000
AcDbSavedByObjectVersion
1070
     0
  0
VISUALSTYLE
  5
F9F
102
{ACAD_XDICTIONARY
360
F10A77
102
}
102
{ACAD_REACTORS
330
F93
102
}
330
F93
100
AcDbVisualStyle
  2

 70
    12
 71
     2
 72
     2
 73
     0
 90
        0
 40
-0.6
 41
-30.0
 62
     5
 63
     7
 74
     1
 91
        4
 64
     7
 65
   257
 75
     1
175
     1
 42
1.0
 92
        8
 66
     7
 43
1.0
 76
     1
 77
     6
 78
     2
 67
     7
 79
     5
170
     0
171
     0
290
     0
174
     0
 93
        1
 44
50.0
173
     0
291
     1
 45
0.0
1001
ACAD
1000
AcDbSavedByObjectVersion
1070
     0
  0
VISUALSTYLE
  5
FA3
102
{ACAD_XDICTIONARY
360
F10A7F
102
}
102
{ACAD_REACTORS
330
F93
102
}
330
F93
100
AcDbVisualStyle
  2

 70
    16
 71
     2
 72
     2
 73
     3
 90
        0
 40
-0.6
 41
-30.0
 62
     5
 63
     8
 74
     1
 91
        4
 64
     7
 65
   257
 75
     1
175
     1
 42
1.0
 92
        8
 66
     8
 43
1.0
 76
     1
 77
     6
 78
     2
 67
     7
 79
     5
170
     0
171
     0
290
     0
174
     0
 93
        1
 44
0.0
173
     0
291
     1
 45
0.0
1001
ACAD
1000
AcDbSavedByObjectVersion
1070
     0
  0
VISUALSTYLE
  5
F9C
102
{ACAD_XDICTIONARY
360
F10A71
102
}
102
{ACAD_REACTORS
330
F93
102
}
330
F93
100
AcDbVisualStyle
  2

 70
     9
 71
     3
 72
     2
 73
     0
 90
        0
 40
-0.6
 41
-30.0
 62
     5
 63
     7
 74
     2
 91
        2
 64
     7
 65
   257
 75
     1
175
     1
 42
179.0
 92
        8
 66
     7
 43
1.0
 76
     1
 77
     6
 78
     2
 67
     7
 79
     3
170
     0
171
     0
290
     0
174
     0
 93
        1
 44
0.0
173
     0
291
     0
 45
0.0
1001
ACAD
1000
AcDbSavedByObjectVersion
1070
     0
  0
VISUALSTYLE
  5
F9E
102
{ACAD_XDICTIONARY
360
F10A75
102
}
102
{ACAD_REACTORS
330
F93
102
}
330
F93
100
AcDbVisualStyle
  2

 70
    11
 71
     2
 72
     2
 73
     0
 90
        0
 40
-0.6
 41
-30.0
 62
     5
 63
     7
 74
     1
 91
        4
 64
     7
 65
   257
 75
     1
175
     1
 42
1.0
 92
        8
 66
     7
 43
1.0
 76
     1
 77
     6
 78
     2
 67
     7
 79
     5
170
     0
171
     0
290
     0
174
     0
 93
        1
 44
-50.0
173
     0
291
     1
 45
0.0
1001
ACAD
1000
AcDbSavedByObjectVersion
1070
     0
  0
VISUALSTYLE
  5
FA6
102
{ACAD_XDICTIONARY
360
F10A85
102
}
102
{ACAD_REACTORS
330
F93
102
}
330
F93
100
AcDbVisualStyle
  2

 70
    22
 71
     2
 72
     2
 73
     0
 90
        0
 40
-0.6
 41
-30.0
 62
     5
 63
     7
 74
     1
 91
        4
 64
     7
 65
   257
 75
     1
175
     1
 42
1.0
 92
        8
 66
     7
 43
1.0
 76
     1
 77
     6
 78
     2
 67
     7
 79
     5
170
     0
171
     0
290
     0
174
     0
 93
        1
 44
0.0
173
     0
291
     1
 45
0.0
1001
ACAD
1000
AcDbSavedByObjectVersion
1070
     0
  0
VISUALSTYLE
  5
FA2
102
{ACAD_XDICTIONARY
360
F10A7D
102
}
102
{ACAD_REACTORS
330
F93
102
}
330
F93
100
AcDbVisualStyle
  2

 70
    15
 71
     2
 72
     2
 73
     0
 90
        0
 40
-0.6
 41
-30.0
 62
     5
 63
     7
 74
     1
 91
        4
 64
     7
 65
   257
 75
     1
175
     1
 42
1.0
 92
        8
 66
     7
 43
1.0
 76
     1
 77
     6
 78
     2
 67
     7
 79
     5
170
     0
171
     0
290
     0
174
     0
 93
        1
 44
0.0
173
     0
291
     1
 45
0.0
1001
ACAD
1000
AcDbSavedByObjectVersion
1070
     0
  0
VISUALSTYLE
  5
F94
102
{ACAD_XDICTIONARY
360
F10A61
102
}
102
{ACAD_REACTORS
330
F93
102
}
330
F93
100
AcDbVisualStyle
  2

 70
     0
 71
     2
 72
     1
 73
     1
 90
        2
 40
-0.6
 41
30.0
 62
     5
 63
     7
 74
     0
 91
        4
 64
     7
 65
   257
 75
     1
175
     1
 42
1.0
 92
        8
 66
     7
 43
1.0
 76
     1
 77
     6
 78
     2
 67
     7
 79
     5
170
     0
171
     0
290
     0
174
     0
 93
       13
 44
0.0
173
     0
291
     1
 45
0.0
1001
ACAD
1000
AcDbSavedByObjectVersion
1070
     0
  0
VISUALSTYLE
  5
F95
102
{ACAD_XDICTIONARY
360
F10A63
102
}
102
{ACAD_REACTORS
330
F93
102
}
330
F93
100
AcDbVisualStyle
  2

 70
     1
 71
     2
 72
     1
 73
     1
 90
        2
 40
-0.6
 41
30.0
 62
     5
 63
     7
 74
     1
 91
        4
 64
     7
 65
   257
 75
     1
175
     1
 42
1.0
 92
        0
 66
   257
 43
1.0
 76
     1
 77
     6
 78
     2
 67
     7
 79
     5
170
     0
171
     0
290
     0
174
     0
 93
       13
 44
0.0
173
     0
291
     1
 45
0.0
1001
ACAD
1000
AcDbSavedByObjectVersion
1070
     0
  0
VISUALSTYLE
  5
F96
102
{ACAD_XDICTIONARY
360
F10A65
102
}
102
{ACAD_REACTORS
330
F93
102
}
330
F93
100
AcDbVisualStyle
  2

 70
     2
 71
     2
 72
     2
 73
     1
 90
        2
 40
-0.6
 41
30.0
 62
     5
 63
     7
 74
     0
 91
        4
 64
     7
 65
   257
 75
     1
175
     1
 42
1.0
 92
        0
 66
     7
 43
1.0
 76
     1
 77
     6
 78
     2
 67
     7
 79
     5
170
     0
171
     0
290
     0
174
     0
 93
       13
 44
0.0
173
     0
291
     1
 45
0.0
1001
ACAD
1000
AcDbSavedByObjectVersion
1070
     0
  0
VISUALSTYLE
  5
F97
102
{ACAD_XDICTIONARY
360
F10A67
102
}
102
{ACAD_REACTORS
330
F93
102
}
330
F93
100
AcDbVisualStyle
  2

 70
     3
 71
     2
 72
     2
 73
     1
 90
        2
 40
-0.6
 41
30.0
 62
     5
 63
     7
 74
     1
 91
        4
 64
     7
 65
   257
 75
     1
175
     1
 42
1.0
 92
        0
 66
   257
 43
1.0
 76
     1
 77
     6
 78
     2
 67
     7
 79
     5
170
     0
171
     0
290
     0
174
     0
 93
       13
 44
0.0
173
     0
291
     1
 45
0.0
1001
ACAD
1000
AcDbSavedByObjectVersion
1070
     0
  0
VISUALSTYLE
  5
F10900
102
{ACAD_XDICTIONARY
360
F10A8E
102
}
102
{ACAD_REACTORS
330
F93
102
}
330
F93
100
AcDbVisualStyle
  2
Hidden
 70
     6
 71
     1
 72
     2
 73
     2
 90
        0
 40
-0.6
 41
-30.0
 62
     5
 63
     7
 74
     2
 91
        2
 64
     7
 65
   257
 75
     2
175
     1
 42
40.0
 92
        0
 66
   257
 43
1.0
 76
     1
 77
     6
 78
     2
 67
     7
 79
     3
170
     0
171
     0
290
     0
174
     0
 93
        1
 44
0.0
173
     0
291
     0
 45
0.0
1001
ACAD
1000
AcDbSavedByObjectVersion
1070
     0
  0
VISUALSTYLE
  5
FA4
102
{ACAD_XDICTIONARY
360
F10A81
102
}
102
{ACAD_REACTORS
330
F93
102
}
330
F93
100
AcDbVisualStyle
  2

 70
    20
 71
     2
 72
     2
 73
     0
 90
        0
 40
-0.6
 41
-30.0
 62
     5
 63
     7
 74
     1
 91
        4
 64
     7
 65
   257
 75
     1
175
     1
 42
1.0
 92
       10
 66
     7
 43
1.0
 76
     1
 77
     6
 78
     2
 67
     7
 79
     5
170
     0
171
     0
290
     0
174
     0
 93
        1
 44
0.0
173
     0
291
     1
 45
0.0
1001
ACAD
1000
AcDbSavedByObjectVersion
1070
     0
  0
VISUALSTYLE
  5
FA1
102
{ACAD_XDICTIONARY
360
F10A7B
102
}
102
{ACAD_REACTORS
330
F93
102
}
330
F93
100
AcDbVisualStyle
  2

 70
    14
 71
     2
 72
     2
 73
     0
 90
        0
 40
-0.6
 41
-30.0
 62
     5
 63
     7
 74
     1
 91
        4
 64
     7
 65
   257
 75
     7
175
     7
 42
1.0
 92
        8
 66
     7
 43
1.0
 76
     1
 77
     6
 78
     2
 67
     7
 79
     5
170
     0
171
     0
290
     0
174
     0
 93
        1
 44
0.0
173
     0
291
     1
 45
0.0
1001
ACAD
1000
AcDbSavedByObjectVersion
1070
     0
  0
VISUALSTYLE
  5
FA5
102
{ACAD_XDICTIONARY
360
F10A83
102
}
102
{ACAD_REACTORS
330
F93
102
}
330
F93
100
AcDbVisualStyle
  2

 70
    21
 71
     2
 72
     2
 73
     0
 90
        0
 40
-0.6
 41
-30.0
 62
     5
 63
     7
 74
     1
 91
        4
 64
     7
 65
   257
 75
     1
175
     1
 42
1.0
 92
        9
 66
     7
 43
1.0
 76
     1
 77
     6
 78
     2
 67
     7
 79
     5
170
     0
171
     0
290
     0
174
     0
 93
        1
 44
0.0
173
     0
291
     1
 45
0.0
1001
ACAD
1000
AcDbSavedByObjectVersion
1070
     0
  0
VISUALSTYLE
  5
F9D
102
{ACAD_XDICTIONARY
360
F10A73
102
}
102
{ACAD_REACTORS
330
F93
102
}
330
F93
100
AcDbVisualStyle
  2

 70
     8
 71
     2
 72
     2
 73
     0
 90
        0
 40
-0.6
 41
-30.0
 62
     5
 63
     7
 74
     1
 91
        0
 64
     7
 65
   257
 75
     1
175
     1
 42
1.0
 92
        8
 66
     8
 43
1.0
 76
     1
 77
     6
 78
     2
 67
     7
 79
     5
170
     0
171
     0
290
     0
174
     0
 93
       13
 44
0.0
173
     0
291
     0
 45
0.0
1001
ACAD
1000
AcDbSavedByObjectVersion
1070
     0
  0
VISUALSTYLE
  5
F10905
102
{ACAD_XDICTIONARY
360
F10A98
102
}
102
{ACAD_REACTORS
330
F93
102
}
330
F93
100
AcDbVisualStyle
  2
Shaded
 70
    27
 71
     2
 72
     2
 73
     1
 90
        2
 40
-0.6
 41
30.0
 62
     5
 63
     7
 74
     0
 91
        4
 64
     7
 65
   257
 75
     1
175
     1
 42
1.0
 92
        8
 66
   257
 43
1.0
 76
     1
 77
     6
 78
     2
 67
     8
 79
     3
170
     0
171
     0
290
     0
174
     0
 93
        5
 44
0.0
173
     0
291
     0
 45
0.0
1001
ACAD
1000
AcDbSavedByObjectVersion
1070
     0
  0
VISUALSTYLE
  5
F10904
102
{ACAD_XDICTIONARY
360
F10A96
102
}
102
{ACAD_REACTORS
330
F93
102
}
330
F93
100
AcDbVisualStyle
  2
Shaded with edges
 70
    26
 71
     2
 72
     2
 73
     1
 90
        2
 40
-0.6
 41
30.0
 62
     5
 63
     7
 74
     1
 91
       10
 64
     7
 65
   257
 75
     2
175
     1
 42
1.0
 92
        8
 66
   257
 43
1.0
 76
     1
 77
     6
 78
     2
 67
     7
 79
     3
170
     0
171
     0
290
     0
174
     0
 93
        5
 44
0.0
173
     0
291
     0
 45
0.0
1001
ACAD
1000
AcDbSavedByObjectVersion
1070
     0
  0
VISUALSTYLE
  5
F10901
102
{ACAD_XDICTIONARY
360
F10A90
102
}
102
{ACAD_REACTORS
330
F93
102
}
330
F93
100
AcDbVisualStyle
  2
Shades of Gray
 70
    23
 71
     2
 72
     2
 73
     3
 90
        0
 40
-0.6
 41
-30.0
 62
     5
 63
     7
 74
     2
 91
        2
 64
     7
 65
     7
 75
     1
175
     1
 42
40.0
 92
        8
 66
     7
 43
1.0
 76
     1
 77
     6
 78
     2
 67
     7
 79
     3
170
     0
171
     0
290
     0
174
     0
 93
        1
 44
0.0
173
     0
291
     0
 45
0.0
1001
ACAD
1000
AcDbSavedByObjectVersion
1070
     0
  0
VISUALSTYLE
  5
F10902
102
{ACAD_XDICTIONARY
360
F10A92
102
}
102
{ACAD_REACTORS
330
F93
102
}
330
F93
100
AcDbVisualStyle
  2
Sketchy
 70
    24
 71
     1
 72
     2
 73
     2
 90
        0
 40
-0.6
 41
-30.0
 62
     5
 63
     7
 74
     2
 91
        2
 64
     7
 65
     7
 75
     1
175
     1
 42
40.0
 92
       11
 66
     7
 43
1.0
 76
     1
 77
     6
 78
     2
 67
     7
 79
     6
170
     0
171
     0
290
     0
174
     0
 93
        1
 44
0.0
173
     0
291
     0
 45
0.0
1001
ACAD
1000
AcDbSavedByObjectVersion
1070
     0
  0
VISUALSTYLE
  5
FA0
102
{ACAD_XDICTIONARY
360
F10A79
102
}
102
{ACAD_REACTORS
330
F93
102
}
330
F93
100
AcDbVisualStyle
  2

 70
    13
 71
     2
 72
     2
 73
     0
 90
        0
 40
-0.6
 41
-30.0
 62
     5
 63
     7
 74
     1
 91
        4
 64
     7
 65
   257
 75
     1
175
     1
 42
1.0
 92
       12
 66
     7
 43
1.0
 76
     1
 77
     6
 78
     2
 67
     7
 79
     5
170
     0
171
     0
290
     0
174
     0
 93
        1
 44
0.0
173
     0
291
     1
 45
0.0
1001
ACAD
1000
AcDbSavedByObjectVersion
1070
     0
  0
VISUALSTYLE
  5
F108FF
102
{ACAD_XDICTIONARY
360
F10A8C
102
}
102
{ACAD_REACTORS
330
F93
102
}
330
F93
100
AcDbVisualStyle
  2
Wireframe
 70
     5
 71
     0
 72
     2
 73
     0
 90
        0
 40
-0.6
 41
-30.0
 62
     5
 63
     7
 74
     1
 91
        4
 64
     7
 65
   257
 75
     1
175
     1
 42
1.0
 92
        0
 66
   257
 43
1.0
 76
     1
 77
     6
 78
     2
 67
     7
 79
     3
170
     0
171
     0
290
     0
174
     0
 93
        1
 44
0.0
173
     0
291
     0
 45
0.0
1001
ACAD
1000
AcDbSavedByObjectVersion
1070
     0
  0
VISUALSTYLE
  5
F10903
102
{ACAD_XDICTIONARY
360
F10A94
102
}
102
{ACAD_REACTORS
330
F93
102
}
330
F93
100
AcDbVisualStyle
  2
X-Ray
 70
    25
 71
     2
 72
     2
 73
     1
 90
        1
 40
0.5
 41
-30.0
 62
     5
 63
     7
 74
     1
 91
        0
 64
     7
 65
   257
 75
     1
175
     1
 42
1.0
 92
        8
 66
     7
 43
1.0
 76
     1
 77
     6
 78
     2
 67
     7
 79
     3
170
     0
171
     0
290
     0
174
     0
 93
       13
 44
0.0
173
     0
291
     0
 45
0.0
1001
ACAD
1000
AcDbSavedByObjectVersion
1070
     0
  0
DICTIONARYVAR
  5
F10A51
102
{ACAD_REACTORS
330
F10A4E
102
}
330
F10A4E
100
DictionaryVariables
280
     0
  1
1:1
  0
DICTIONARYVAR
  5
F10A50
102
{ACAD_REACTORS
330
F10A4E
102
}
330
F10A4E
100
DictionaryVariables
280
     0
  1
STANDARD
  0
DICTIONARYVAR
  5
F10A4F
102
{ACAD_REACTORS
330
F10A4E
102
}
330
F10A4E
100
DictionaryVariables
280
     0
  1
STANDARD
  0
DICTIONARYVAR
  5
F10A54
102
{ACAD_REACTORS
330
F10A4E
102
}
330
F10A4E
100
DictionaryVariables
280
     0
  1
1
  0
DICTIONARYVAR
  5
F10A53
102
{ACAD_REACTORS
330
F10A4E
102
}
330
F10A4E
100
DictionaryVariables
280
     0
  1
0
  0
DICTIONARYVAR
  5
F10A52
102
{ACAD_REACTORS
330
F10A4E
102
}
330
F10A4E
100
DictionaryVariables
280
     0
  1
127
  0
DICTIONARYVAR
  5
F10A55
102
{ACAD_REACTORS
330
F10A4E
102
}
330
F10A4E
100
DictionaryVariables
280
     0
  1
2
  0
DICTIONARY
  5
F1095F
102
{ACAD_REACTORS
330
F10954
102
}
330
F10954
100
AcDbDictionary
281
     1
  0
DICTIONARY
  5
F10A8A
330
FD1
100
AcDbDictionary
280
     1
281
     1
  3
ACAD_XREC_ROUNDTRIP
360
F10A8B
  0
DICTIONARY
  5
F10A88
330
FD0
100
AcDbDictionary
280
     1
281
     1
  3
ACAD_XREC_ROUNDTRIP
360
F10A89
  0
DICTIONARY
  5
F84
330
F83
100
AcDbDictionary
280
     1
281
     1
  3
ACAD_XREC_ROUNDTRIP
360
FFF
  3
BUMPTILE
360
F86
  3
DIFFUSETILE
360
F85
  3
OPACITYTILE
360
F89
  3
REFLECTIONTILE
360
F88
  3
REFRACTIONTILE
360
F8A
  3
SPECULARTILE
360
F87
  0
DICTIONARY
  5
F7C
330
F7B
100
AcDbDictionary
280
     1
281
     1
  3
ACAD_XREC_ROUNDTRIP
360
FFE
  3
BUMPTILE
360
F7E
  3
DIFFUSETILE
360
F7D
  3
OPACITYTILE
360
F81
  3
REFLECTIONTILE
360
F80
  3
REFRACTIONTILE
360
F82
  3
SPECULARTILE
360
F7F
  0
DICTIONARY
  5
F8C
330
F8B
100
AcDbDictionary
280
     1
281
     1
  3
ACAD_XREC_ROUNDTRIP
360
1000
  3
BUMPTILE
360
F8E
  3
DIFFUSETILE
360
F8D
  3
OPACITYTILE
360
F91
  3
REFLECTIONTILE
360
F90
  3
REFRACTIONTILE
360
F92
  3
SPECULARTILE
360
F8F
  0
DICTIONARY
  5
FF8
330
FA9
100
AcDbDictionary
280
     1
281
     1
  3
ACAD_ROUNDTRIP_2008_TABLESTYLE_CELLSTYLEMAP
360
F10A56
  3
ACAD_XREC_ROUNDTRIP
360
F10A87
  0
DICTIONARY
  5
F10A6B
330
F99
100
AcDbDictionary
280
     1
281
     1
  3
ACAD_XREC_ROUNDTRIP
360
F10A6C
  0
DICTIONARY
  5
F10A6F
330
F9B
100
AcDbDictionary
280
     1
281
     1
  3
ACAD_XREC_ROUNDTRIP
360
F10A70
  0
DICTIONARY
  5
F10A6D
330
F9A
100
AcDbDictionary
280
     1
281
     1
  3
ACAD_XREC_ROUNDTRIP
360
F10A6E
  0
DICTIONARY
  5
F10A69
330
F98
100
AcDbDictionary
280
     1
281
     1
  3
ACAD_XREC_ROUNDTRIP
360
F10A6A
  0
DICTIONARY
  5
F10A77
330
F9F
100
AcDbDictionary
280
     1
281
     1
  3
ACAD_XREC_ROUNDTRIP
360
F10A78
  0
DICTIONARY
  5
F10A7F
330
FA3
100
AcDbDictionary
280
     1
281
     1
  3
ACAD_XREC_ROUNDTRIP
360
F10A80
  0
DICTIONARY
  5
F10A71
330
F9C
100
AcDbDictionary
280
     1
281
     1
  3
ACAD_XREC_ROUNDTRIP
360
F10A72
  0
DICTIONARY
  5
F10A75
330
F9E
100
AcDbDictionary
280
     1
281
     1
  3
ACAD_XREC_ROUNDTRIP
360
F10A76
  0
DICTIONARY
  5
F10A85
330
FA6
100
AcDbDictionary
280
     1
281
     1
  3
ACAD_XREC_ROUNDTRIP
360
F10A86
  0
DICTIONARY
  5
F10A7D
330
FA2
100
AcDbDictionary
280
     1
281
     1
  3
ACAD_XREC_ROUNDTRIP
360
F10A7E
  0
DICTIONARY
  5
F10A61
330
F94
100
AcDbDictionary
280
     1
281
     1
  3
ACAD_XREC_ROUNDTRIP
360
F10A62
  0
DICTIONARY
  5
F10A63
330
F95
100
AcDbDictionary
280
     1
281
     1
  3
ACAD_XREC_ROUNDTRIP
360
F10A64
  0
DICTIONARY
  5
F10A65
330
F96
100
AcDbDictionary
280
     1
281
     1
  3
ACAD_XREC_ROUNDTRIP
360
F10A66
  0
DICTIONARY
  5
F10A67
330
F97
100
AcDbDictionary
280
     1
281
     1
  3
ACAD_XREC_ROUNDTRIP
360
F10A68
  0
DICTIONARY
  5
F10A8E
330
F10900
100
AcDbDictionary
280
     1
281
     1
  3
ACAD_XREC_ROUNDTRIP
360
F10A8F
  0
DICTIONARY
  5
F10A81
330
FA4
100
AcDbDictionary
280
     1
281
     1
  3
ACAD_XREC_ROUNDTRIP
360
F10A82
  0
DICTIONARY
  5
F10A7B
330
FA1
100
AcDbDictionary
280
     1
281
     1
  3
ACAD_XREC_ROUNDTRIP
360
F10A7C
  0
DICTIONARY
  5
F10A83
330
FA5
100
AcDbDictionary
280
     1
281
     1
  3
ACAD_XREC_ROUNDTRIP
360
F10A84
  0
DICTIONARY
  5
F10A73
330
F9D
100
AcDbDictionary
280
     1
281
     1
  3
ACAD_XREC_ROUNDTRIP
360
F10A74
  0
DICTIONARY
  5
F10A98
330
F10905
100
AcDbDictionary
280
     1
281
     1
  3
ACAD_XREC_ROUNDTRIP
360
F10A99
  0
DICTIONARY
  5
F10A96
330
F10904
100
AcDbDictionary
280
     1
281
     1
  3
ACAD_XREC_ROUNDTRIP
360
F10A97
  0
DICTIONARY
  5
F10A90
330
F10901
100
AcDbDictionary
280
     1
281
     1
  3
ACAD_XREC_ROUNDTRIP
360
F10A91
  0
DICTIONARY
  5
F10A92
330
F10902
100
AcDbDictionary
280
     1
281
     1
  3
ACAD_XREC_ROUNDTRIP
360
F10A93
  0
DICTIONARY
  5
F10A79
330
FA0
100
AcDbDictionary
280
     1
281
     1
  3
ACAD_XREC_ROUNDTRIP
360
F10A7A
  0
DICTIONARY
  5
F10A8C
330
F108FF
100
AcDbDictionary
280
     1
281
     1
  3
ACAD_XREC_ROUNDTRIP
360
F10A8D
  0
DICTIONARY
  5
F10A94
330
F10903
100
AcDbDictionary
280
     1
281
     1
  3
ACAD_XREC_ROUNDTRIP
360
F10A95
  0
XRECORD
  5
F10A8B
102
{ACAD_REACTORS
330
F10A8A
102
}
330
F10A8A
100
AcDbXrecord
280
     1
102
SHADEPLOT
 70
     0
102
SHADEPLOTRESLEVEL
 70
     2
102
SHADEPLOTCUSTOMDPI
 70
   300
  0
XRECORD
  5
F10A89
102
{ACAD_REACTORS
330
F10A88
102
}
330
F10A88
100
AcDbXrecord
280
     1
102
SHADEPLOT
 70
     0
102
SHADEPLOTRESLEVEL
 70
     2
102
SHADEPLOTCUSTOMDPI
 70
   300
  0
XRECORD
  5
FFF
102
{ACAD_REACTORS
330
F84
102
}
330
F84
100
AcDbXrecord
280
     1
102
MATERIAL
148
0.0
149
0.0
149
0.0
 93
        0
 94
      127
282
     0
 72
     0
 77
     0
171
     0
175
     0
179
     0
273
     0
  0
XRECORD
  5
F86
102
{ACAD_REACTORS
330
F84
102
}
330
F84
100
AcDbXrecord
280
     1
270
     1
271
     1
  0
XRECORD
  5
F85
102
{ACAD_REACTORS
330
F84
102
}
330
F84
100
AcDbXrecord
280
     1
270
     1
271
     1
  0
XRECORD
  5
F89
102
{ACAD_REACTORS
330
F84
102
}
330
F84
100
AcDbXrecord
280
     1
270
     1
271
     1
  0
XRECORD
  5
F88
102
{ACAD_REACTORS
330
F84
102
}
330
F84
100
AcDbXrecord
280
     1
270
     1
271
     1
  0
XRECORD
  5
F8A
102
{ACAD_REACTORS
330
F84
102
}
330
F84
100
AcDbXrecord
280
     1
270
     1
271
     1
  0
XRECORD
  5
F87
102
{ACAD_REACTORS
330
F84
102
}
330
F84
100
AcDbXrecord
280
     1
270
     1
271
     1
  0
XRECORD
  5
FFE
102
{ACAD_REACTORS
330
F7C
102
}
330
F7C
100
AcDbXrecord
280
     1
102
MATERIAL
148
0.0
149
0.0
149
0.0
 93
        0
 94
      127
282
     0
 72
     0
 77
     0
171
     0
175
     0
179
     0
273
     0
  0
XRECORD
  5
F7E
102
{ACAD_REACTORS
330
F7C
102
}
330
F7C
100
AcDbXrecord
280
     1
270
     1
271
     1
  0
XRECORD
  5
F7D
102
{ACAD_REACTORS
330
F7C
102
}
330
F7C
100
AcDbXrecord
280
     1
270
     1
271
     1
  0
XRECORD
  5
F81
102
{ACAD_REACTORS
330
F7C
102
}
330
F7C
100
AcDbXrecord
280
     1
270
     1
271
     1
  0
XRECORD
  5
F80
102
{ACAD_REACTORS
330
F7C
102
}
330
F7C
100
AcDbXrecord
280
     1
270
     1
271
     1
  0
XRECORD
  5
F82
102
{ACAD_REACTORS
330
F7C
102
}
330
F7C
100
AcDbXrecord
280
     1
270
     1
271
     1
  0
XRECORD
  5
F7F
102
{ACAD_REACTORS
330
F7C
102
}
330
F7C
100
AcDbXrecord
280
     1
270
     1
271
     1
  0
XRECORD
  5
1000
102
{ACAD_REACTORS
330
F8C
102
}
330
F8C
100
AcDbXrecord
280
     1
102
MATERIAL
148
0.0
149
0.0
149
0.0
 93
        0
 94
      127
282
     0
 72
     0
 77
     0
171
     0
175
     0
179
     0
273
     0
  0
XRECORD
  5
F8E
102
{ACAD_REACTORS
330
F8C
102
}
330
F8C
100
AcDbXrecord
280
     1
270
     1
271
     1
  0
XRECORD
  5
F8D
102
{ACAD_REACTORS
330
F8C
102
}
330
F8C
100
AcDbXrecord
280
     1
270
     1
271
     1
  0
XRECORD
  5
F91
102
{ACAD_REACTORS
330
F8C
102
}
330
F8C
100
AcDbXrecord
280
     1
270
     1
271
     1
  0
XRECORD
  5
F90
102
{ACAD_REACTORS
330
F8C
102
}
330
F8C
100
AcDbXrecord
280
     1
270
     1
271
     1
  0
XRECORD
  5
F92
102
{ACAD_REACTORS
330
F8C
102
}
330
F8C
100
AcDbXrecord
280
     1
270
     1
271
     1
  0
XRECORD
  5
F8F
102
{ACAD_REACTORS
330
F8C
102
}
330
F8C
100
AcDbXrecord
280
     1
270
     1
271
     1
  0
CELLSTYLEMAP
  5
F10A56
102
{ACAD_REACTORS
330
FF8
102
}
330
FF8
100
AcDbCellStyleMap
 90
        3
300
CELLSTYLE
  1
TABLEFORMAT_BEGIN
 90
        5
170
     1
 91
        0
 92
    32768
 62
   257
 93
        1
300
CONTENTFORMAT
  1
CONTENTFORMAT_BEGIN
 90
        0
 91
        0
 92
      512
 93
        0
300

 40
0.0
140
1.0
 94
        5
 62
     0
340
253
144
0.25
309
CONTENTFORMAT_END
171
     1
301
MARGIN
  1
CELLMARGIN_BEGIN
 40
0.06
 40
0.06
 40
0.06
 40
0.06
 40
0.18
 40
0.18
309
CELLMARGIN_END
 94
        6
 95
        1
302
GRIDFORMAT
  1
GRIDFORMAT_BEGIN
 90
        0
 91
        1
 62
     0
 92
       -2
340
0
 93
        0
 40
0.045
309
GRIDFORMAT_END
 95
        2
302
GRIDFORMAT
  1
GRIDFORMAT_BEGIN
 90
        0
 91
        1
 62
     0
 92
       -2
340
0
 93
        0
 40
0.045
309
GRIDFORMAT_END
 95
        4
302
GRIDFORMAT
  1
GRIDFORMAT_BEGIN
 90
        0
 91
        1
 62
     0
 92
       -2
340
0
 93
        0
 40
0.045
309
GRIDFORMAT_END
 95
        8
302
GRIDFORMAT
  1
GRIDFORMAT_BEGIN
 90
        0
 91
        1
 62
     0
 92
       -2
340
0
 93
        0
 40
0.045
309
GRIDFORMAT_END
 95
       16
302
GRIDFORMAT
  1
GRIDFORMAT_BEGIN
 90
        0
 91
        1
 62
     0
 92
       -2
340
0
 93
        0
 40
0.045
309
GRIDFORMAT_END
 95
       32
302
GRIDFORMAT
  1
GRIDFORMAT_BEGIN
 90
        0
 91
        1
 62
     0
 92
       -2
340
0
 93
        0
 40
0.045
309
GRIDFORMAT_END
309
TABLEFORMAT_END
  1
CELLSTYLE_BEGIN
 90
        1
 91
        1
300
_TITLE
309
CELLSTYLE_END
300
CELLSTYLE
  1
TABLEFORMAT_BEGIN
 90
        5
170
     1
 91
        0
 92
        0
 62
   257
 93
        1
300
CONTENTFORMAT
  1
CONTENTFORMAT_BEGIN
 90
        0
 91
        0
 92
      512
 93
        0
300

 40
0.0
140
1.0
 94
        5
 62
     0
340
253
144
0.18
309
CONTENTFORMAT_END
171
     1
301
MARGIN
  1
CELLMARGIN_BEGIN
 40
0.06
 40
0.06
 40
0.06
 40
0.06
 40
0.18
 40
0.18
309
CELLMARGIN_END
 94
        6
 95
        1
302
GRIDFORMAT
  1
GRIDFORMAT_BEGIN
 90
        0
 91
        1
 62
     0
 92
       -2
340
0
 93
        0
 40
0.045
309
GRIDFORMAT_END
 95
        2
302
GRIDFORMAT
  1
GRIDFORMAT_BEGIN
 90
        0
 91
        1
 62
     0
 92
       -2
340
0
 93
        0
 40
0.045
309
GRIDFORMAT_END
 95
        4
302
GRIDFORMAT
  1
GRIDFORMAT_BEGIN
 90
        0
 91
        1
 62
     0
 92
       -2
340
0
 93
        0
 40
0.045
309
GRIDFORMAT_END
 95
        8
302
GRIDFORMAT
  1
GRIDFORMAT_BEGIN
 90
        0
 91
        1
 62
     0
 92
       -2
340
0
 93
        0
 40
0.045
309
GRIDFORMAT_END
 95
       16
302
GRIDFORMAT
  1
GRIDFORMAT_BEGIN
 90
        0
 91
        1
 62
     0
 92
       -2
340
0
 93
        0
 40
0.045
309
GRIDFORMAT_END
 95
       32
302
GRIDFORMAT
  1
GRIDFORMAT_BEGIN
 90
        0
 91
        1
 62
     0
 92
       -2
340
0
 93
        0
 40
0.045
309
GRIDFORMAT_END
309
TABLEFORMAT_END
  1
CELLSTYLE_BEGIN
 90
        2
 91
        1
300
_HEADER
309
CELLSTYLE_END
300
CELLSTYLE
  1
TABLEFORMAT_BEGIN
 90
        5
170
     1
 91
        0
 92
        0
 62
   257
 93
        1
300
CONTENTFORMAT
  1
CONTENTFORMAT_BEGIN
 90
        0
 91
        0
 92
      512
 93
        0
300

 40
0.0
140
1.0
 94
        2
 62
     0
340
253
144
0.18
309
CONTENTFORMAT_END
171
     1
301
MARGIN
  1
CELLMARGIN_BEGIN
 40
0.06
 40
0.06
 40
0.06
 40
0.06
 40
0.18
 40
0.18
309
CELLMARGIN_END
 94
        6
 95
        1
302
GRIDFORMAT
  1
GRIDFORMAT_BEGIN
 90
        0
 91
        1
 62
     0
 92
       -2
340
0
 93
        0
 40
0.045
309
GRIDFORMAT_END
 95
        2
302
GRIDFORMAT
  1
GRIDFORMAT_BEGIN
 90
        0
 91
        1
 62
     0
 92
       -2
340
0
 93
        0
 40
0.045
309
GRIDFORMAT_END
 95
        4
302
GRIDFORMAT
  1
GRIDFORMAT_BEGIN
 90
        0
 91
        1
 62
     0
 92
       -2
340
0
 93
        0
 40
0.045
309
GRIDFORMAT_END
 95
        8
302
GRIDFORMAT
  1
GRIDFORMAT_BEGIN
 90
        0
 91
        1
 62
     0
 92
       -2
340
0
 93
        0
 40
0.045
309
GRIDFORMAT_END
 95
       16
302
GRIDFORMAT
  1
GRIDFORMAT_BEGIN
 90
        0
 91
        1
 62
     0
 92
       -2
340
0
 93
        0
 40
0.045
309
GRIDFORMAT_END
 95
       32
302
GRIDFORMAT
  1
GRIDFORMAT_BEGIN
 90
        0
 91
        1
 62
     0
 92
       -2
340
0
 93
        0
 40
0.045
309
GRIDFORMAT_END
309
TABLEFORMAT_END
  1
CELLSTYLE_BEGIN
 90
        3
 91
        2
300
_DATA
309
CELLSTYLE_END
  0
XRECORD
  5
F10A87
102
{ACAD_REACTORS
330
FF8
102
}
330
FF8
100
AcDbXrecord
280
     1
102
ACAD_ROUNDTRIP_PRE2007_TABLESTYLE
 90
      512
 91
        0
  1

 92
      512
 93
        0
  2

 94
      512
 95
        0
  3

  0
XRECORD
  5
F10A6C
102
{ACAD_REACTORS
330
F10A6B
102
}
330
F10A6B
100
AcDbXrecord
280
     1
102
RTVSPropertyOp0
 70
     1
102
RTVSPropertyOp1
 70
     1
102
RTVSPropertyOp2
 70
     1
102
RTVSPropertyOp3
 70
     1
102
RTVSPropertyOp4
 70
     1
102
RTVSPropertyOp5
 70
     1
102
RTVSPropertyOp6
 70
     1
102
RTVSPropertyOp7
 70
     1
102
RTVSPropertyOp8
 70
     1
102
RTVSPropertyOp9
 70
     1
102
RTVSPropertyOp10
 70
     1
102
RTVSPropertyOp11
 70
     1
102
RTVSPropertyOp12
 70
     1
102
RTVSPropertyOp13
 70
     1
102
RTVSPropertyOp14
 70
     1
102
RTVSPropertyOp15
 70
     1
102
RTVSPropertyOp16
 70
     1
102
RTVSPropertyOp17
 70
     1
102
RTVSPropertyOp18
 70
     1
102
RTVSPropertyOp19
 70
     1
102
RTVSPropertyOp20
 70
     1
102
RTVSPropertyOp21
 70
     1
102
RTVSPropertyOp22
 70
     1
102
RTVSPropertyOp23
 70
     1
102
RTVSPropertyOp24
 70
     1
102
RTVSPropertyOp25
 70
     1
102
RTVSPropertyOp26
 70
     1
102
RTVSPropertyOp27
 70
     1
102
RTVSPropertyOp28
 70
     1
102
RTVSPropertyOp29
 70
     1
102
RTVSPropertyOp30
 70
     1
102
RTVSPropertyOp31
 70
     1
102
RTVSPropertyOp32
 70
     1
  0
XRECORD
  5
F10A70
102
{ACAD_REACTORS
330
F10A6F
102
}
330
F10A6F
100
AcDbXrecord
280
     1
102
RTVSPropertyOp0
 70
     1
102
RTVSPropertyOp1
 70
     1
102
RTVSPropertyOp2
 70
     1
102
RTVSPropertyOp3
 70
     1
102
RTVSPropertyOp4
 70
     1
102
RTVSPropertyOp5
 70
     1
102
RTVSPropertyOp6
 70
     1
102
RTVSPropertyOp7
 70
     1
102
RTVSPropertyOp8
 70
     1
102
RTVSPropertyOp9
 70
     1
102
RTVSPropertyOp10
 70
     1
102
RTVSPropertyOp11
 70
     1
102
RTVSPropertyOp12
 70
     1
102
RTVSPropertyOp13
 70
     1
102
RTVSPropertyOp14
 70
     1
102
RTVSPropertyOp15
 70
     1
102
RTVSPropertyOp16
 70
     1
102
RTVSPropertyOp17
 70
     1
102
RTVSPropertyOp18
 70
     1
102
RTVSPropertyOp19
 70
     1
102
RTVSPropertyOp20
 70
     1
102
RTVSPropertyOp21
 70
     1
102
RTVSPropertyOp22
 70
     1
102
RTVSPropertyOp23
 70
     1
102
RTVSPropertyOp24
 70
     1
102
RTVSPropertyOp25
 70
     1
102
RTVSPropertyOp26
 70
     1
102
RTVSPropertyOp27
 70
     1
102
RTVSPropertyOp28
 70
     1
102
RTVSPropertyOp29
 70
     1
102
RTVSPropertyOp30
 70
     1
102
RTVSPropertyOp31
 70
     1
102
RTVSPropertyOp32
 70
     1
  0
XRECORD
  5
F10A6E
102
{ACAD_REACTORS
330
F10A6D
102
}
330
F10A6D
100
AcDbXrecord
280
     1
102
RTVSPropertyOp0
 70
     1
102
RTVSPropertyOp1
 70
     1
102
RTVSPropertyOp2
 70
     1
102
RTVSPropertyOp3
 70
     1
102
RTVSPropertyOp4
 70
     1
102
RTVSPropertyOp5
 70
     1
102
RTVSPropertyOp6
 70
     1
102
RTVSPropertyOp7
 70
     1
102
RTVSPropertyOp8
 70
     1
102
RTVSPropertyOp9
 70
     1
102
RTVSPropertyOp10
 70
     1
102
RTVSPropertyOp11
 70
     1
102
RTVSPropertyOp12
 70
     1
102
RTVSPropertyOp13
 70
     1
102
RTVSPropertyOp14
 70
     1
102
RTVSPropertyOp15
 70
     1
102
RTVSPropertyOp16
 70
     1
102
RTVSPropertyOp17
 70
     1
102
RTVSPropertyOp18
 70
     1
102
RTVSPropertyOp19
 70
     1
102
RTVSPropertyOp20
 70
     1
102
RTVSPropertyOp21
 70
     1
102
RTVSPropertyOp22
 70
     1
102
RTVSPropertyOp23
 70
     1
102
RTVSPropertyOp24
 70
     1
102
RTVSPropertyOp25
 70
     1
102
RTVSPropertyOp26
 70
     1
102
RTVSPropertyOp27
 70
     1
102
RTVSPropertyOp28
 70
     1
102
RTVSPropertyOp29
 70
     1
102
RTVSPropertyOp30
 70
     1
102
RTVSPropertyOp31
 70
     1
102
RTVSPropertyOp32
 70
     1
  0
XRECORD
  5
F10A6A
102
{ACAD_REACTORS
330
F10A69
102
}
330
F10A69
100
AcDbXrecord
280
     1
102
RTVSPropertyOp0
 70
     1
102
RTVSPropertyOp1
 70
     1
102
RTVSPropertyOp2
 70
     1
102
RTVSPropertyOp3
 70
     1
102
RTVSPropertyOp4
 70
     1
102
RTVSPropertyOp5
 70
     1
102
RTVSPropertyOp6
 70
     1
102
RTVSPropertyOp7
 70
     1
102
RTVSPropertyOp8
 70
     1
102
RTVSPropertyOp9
 70
     1
102
RTVSPropertyOp10
 70
     1
102
RTVSPropertyOp11
 70
     1
102
RTVSPropertyOp12
 70
     1
102
RTVSPropertyOp13
 70
     1
102
RTVSPropertyOp14
 70
     1
102
RTVSPropertyOp15
 70
     1
102
RTVSPropertyOp16
 70
     1
102
RTVSPropertyOp17
 70
     1
102
RTVSPropertyOp18
 70
     1
102
RTVSPropertyOp19
 70
     1
102
RTVSPropertyOp20
 70
     1
102
RTVSPropertyOp21
 70
     1
102
RTVSPropertyOp22
 70
     1
102
RTVSPropertyOp23
 70
     1
102
RTVSPropertyOp24
 70
     1
102
RTVSPropertyOp25
 70
     1
102
RTVSPropertyOp26
 70
     1
102
RTVSPropertyOp27
 70
     1
102
RTVSPropertyOp28
 70
     1
102
RTVSPropertyOp29
 70
     1
102
RTVSPropertyOp30
 70
     1
102
RTVSPropertyOp31
 70
     1
102
RTVSPropertyOp32
 70
     1
  0
XRECORD
  5
F10A78
102
{ACAD_REACTORS
330
F10A77
102
}
330
F10A77
100
AcDbXrecord
280
     1
102
RTVSPropertyOp0
 70
     1
102
RTVSPropertyOp1
 70
     1
102
RTVSPropertyOp2
 70
     1
102
RTVSPropertyOp3
 70
     1
102
RTVSPropertyOp4
 70
     1
102
RTVSPropertyOp5
 70
     1
102
RTVSPropertyOp6
 70
     1
102
RTVSPropertyOp7
 70
     1
102
RTVSPropertyOp8
 70
     1
102
RTVSPropertyOp9
 70
     1
102
RTVSPropertyOp10
 70
     1
102
RTVSPropertyOp11
 70
     1
102
RTVSPropertyOp12
 70
     1
102
RTVSPropertyOp13
 70
     1
102
RTVSPropertyOp14
 70
     1
102
RTVSPropertyOp15
 70
     1
102
RTVSPropertyOp16
 70
     1
102
RTVSPropertyOp17
 70
     1
102
RTVSPropertyOp18
 70
     1
102
RTVSPropertyOp19
 70
     1
102
RTVSPropertyOp20
 70
     1
102
RTVSPropertyOp21
 70
     1
102
RTVSPropertyOp22
 70
     1
102
RTVSPropertyOp23
 70
     1
102
RTVSPropertyOp24
 70
     1
102
RTVSPropertyOp25
 70
     1
102
RTVSPropertyOp26
 70
     1
102
RTVSPropertyOp27
 70
     1
102
RTVSPropertyOp28
 70
     1
102
RTVSPropertyOp29
 70
     1
102
RTVSPropertyOp30
 70
     1
102
RTVSPropertyOp31
 70
     1
102
RTVSPropertyOp32
 70
     1
  0
XRECORD
  5
F10A80
102
{ACAD_REACTORS
330
F10A7F
102
}
330
F10A7F
100
AcDbXrecord
280
     1
102
RTVSPropertyOp0
 70
     1
102
RTVSPropertyOp1
 70
     1
102
RTVSPropertyOp2
 70
     1
102
RTVSPropertyOp3
 70
     1
102
RTVSPropertyOp4
 70
     1
102
RTVSPropertyOp5
 70
     1
102
RTVSPropertyOp6
 70
     1
102
RTVSPropertyOp7
 70
     1
102
RTVSPropertyOp8
 70
     1
102
RTVSPropertyOp9
 70
     1
102
RTVSPropertyOp10
 70
     1
102
RTVSPropertyOp11
 70
     1
102
RTVSPropertyOp12
 70
     1
102
RTVSPropertyOp13
 70
     1
102
RTVSPropertyOp14
 70
     1
102
RTVSPropertyOp15
 70
     1
102
RTVSPropertyOp16
 70
     1
102
RTVSPropertyOp17
 70
     1
102
RTVSPropertyOp18
 70
     1
102
RTVSPropertyOp19
 70
     1
102
RTVSPropertyOp20
 70
     1
102
RTVSPropertyOp21
 70
     1
102
RTVSPropertyOp22
 70
     1
102
RTVSPropertyOp23
 70
     1
102
RTVSPropertyOp24
 70
     1
102
RTVSPropertyOp25
 70
     1
102
RTVSPropertyOp26
 70
     1
102
RTVSPropertyOp27
 70
     1
102
RTVSPropertyOp28
 70
     1
102
RTVSPropertyOp29
 70
     1
102
RTVSPropertyOp30
 70
     1
102
RTVSPropertyOp31
 70
     1
102
RTVSPropertyOp32
 70
     1
  0
XRECORD
  5
F10A72
102
{ACAD_REACTORS
330
F10A71
102
}
330
F10A71
100
AcDbXrecord
280
     1
102
RTVSPropertyOp0
 70
     1
102
RTVSPropertyOp1
 70
     1
102
RTVSPropertyOp2
 70
     1
102
RTVSPropertyOp3
 70
     1
102
RTVSPropertyOp4
 70
     1
102
RTVSPropertyOp5
 70
     1
102
RTVSPropertyOp6
 70
     1
102
RTVSPropertyOp7
 70
     1
102
RTVSPropertyOp8
 70
     1
102
RTVSPropertyOp9
 70
     1
102
RTVSPropertyOp10
 70
     1
102
RTVSPropertyOp11
 70
     1
102
RTVSPropertyOp12
 70
     1
102
RTVSPropertyOp13
 70
     1
102
RTVSPropertyOp14
 70
     1
102
RTVSPropertyOp15
 70
     1
102
RTVSPropertyOp16
 70
     1
102
RTVSPropertyOp17
 70
     1
102
RTVSPropertyOp18
 70
     1
102
RTVSPropertyOp19
 70
     1
102
RTVSPropertyOp20
 70
     1
102
RTVSPropertyOp21
 70
     1
102
RTVSPropertyOp22
 70
     1
102
RTVSPropertyOp23
 70
     1
102
RTVSPropertyOp24
 70
     1
102
RTVSPropertyOp25
 70
     1
102
RTVSPropertyOp26
 70
     1
102
RTVSPropertyOp27
 70
     1
102
RTVSPropertyOp28
 70
     1
102
RTVSPropertyOp29
 70
     1
102
RTVSPropertyOp30
 70
     1
102
RTVSPropertyOp31
 70
     1
102
RTVSPropertyOp32
 70
     1
  0
XRECORD
  5
F10A76
102
{ACAD_REACTORS
330
F10A75
102
}
330
F10A75
100
AcDbXrecord
280
     1
102
RTVSPropertyOp0
 70
     1
102
RTVSPropertyOp1
 70
     1
102
RTVSPropertyOp2
 70
     1
102
RTVSPropertyOp3
 70
     1
102
RTVSPropertyOp4
 70
     1
102
RTVSPropertyOp5
 70
     1
102
RTVSPropertyOp6
 70
     1
102
RTVSPropertyOp7
 70
     1
102
RTVSPropertyOp8
 70
     1
102
RTVSPropertyOp9
 70
     1
102
RTVSPropertyOp10
 70
     1
102
RTVSPropertyOp11
 70
     1
102
RTVSPropertyOp12
 70
     1
102
RTVSPropertyOp13
 70
     1
102
RTVSPropertyOp14
 70
     1
102
RTVSPropertyOp15
 70
     1
102
RTVSPropertyOp16
 70
     1
102
RTVSPropertyOp17
 70
     1
102
RTVSPropertyOp18
 70
     1
102
RTVSPropertyOp19
 70
     1
102
RTVSPropertyOp20
 70
     1
102
RTVSPropertyOp21
 70
     1
102
RTVSPropertyOp22
 70
     1
102
RTVSPropertyOp23
 70
     1
102
RTVSPropertyOp24
 70
     1
102
RTVSPropertyOp25
 70
     1
102
RTVSPropertyOp26
 70
     1
102
RTVSPropertyOp27
 70
     1
102
RTVSPropertyOp28
 70
     1
102
RTVSPropertyOp29
 70
     1
102
RTVSPropertyOp30
 70
     1
102
RTVSPropertyOp31
 70
     1
102
RTVSPropertyOp32
 70
     1
  0
XRECORD
  5
F10A86
102
{ACAD_REACTORS
330
F10A85
102
}
330
F10A85
100
AcDbXrecord
280
     1
102
RTVSPropertyOp0
 70
     0
102
RTVSPropertyOp1
 70
     0
102
RTVSPropertyOp2
 70
     0
102
RTVSPropertyOp3
 70
     0
102
RTVSPropertyOp4
 70
     0
102
RTVSPropertyOp5
 70
     0
102
RTVSPropertyOp6
 70
     0
102
RTVSPropertyOp7
 70
     0
102
RTVSPropertyOp8
 70
     0
102
RTVSPropertyOp9
 70
     0
102
RTVSPropertyOp10
 70
     0
102
RTVSPropertyOp11
 70
     0
102
RTVSPropertyOp12
 70
     0
102
RTVSPropertyOp13
 70
     0
102
RTVSPropertyOp14
 70
     2
102
RTVSPropertyOp15
 70
     0
102
RTVSPropertyOp16
 70
     0
102
RTVSPropertyOp17
 70
     0
102
RTVSPropertyOp18
 70
     0
102
RTVSPropertyOp19
 70
     0
102
RTVSPropertyOp20
 70
     0
102
RTVSPropertyOp21
 70
     0
102
RTVSPropertyOp22
 70
     0
102
RTVSPropertyOp23
 70
     0
102
RTVSPropertyOp24
 70
     0
102
RTVSPropertyOp25
 70
     0
102
RTVSPropertyOp26
 70
     0
102
RTVSPropertyOp27
 70
     0
102
RTVSPropertyOp28
 70
     1
102
RTVSPropertyOp29
 70
     1
102
RTVSPropertyOp30
 70
     1
102
RTVSPropertyOp31
 70
     1
102
RTVSPropertyOp32
 70
     1
  0
XRECORD
  5
F10A7E
102
{ACAD_REACTORS
330
F10A7D
102
}
330
F10A7D
100
AcDbXrecord
280
     1
102
RTVSPropertyOp0
 70
     1
102
RTVSPropertyOp1
 70
     1
102
RTVSPropertyOp2
 70
     1
102
RTVSPropertyOp3
 70
     1
102
RTVSPropertyOp4
 70
     1
102
RTVSPropertyOp5
 70
     1
102
RTVSPropertyOp6
 70
     1
102
RTVSPropertyOp7
 70
     1
102
RTVSPropertyOp8
 70
     1
102
RTVSPropertyOp9
 70
     1
102
RTVSPropertyOp10
 70
     1
102
RTVSPropertyOp11
 70
     1
102
RTVSPropertyOp12
 70
     1
102
RTVSPropertyOp13
 70
     1
102
RTVSPropertyOp14
 70
     1
102
RTVSPropertyOp15
 70
     1
102
RTVSPropertyOp16
 70
     1
102
RTVSPropertyOp17
 70
     1
102
RTVSPropertyOp18
 70
     1
102
RTVSPropertyOp19
 70
     1
102
RTVSPropertyOp20
 70
     1
102
RTVSPropertyOp21
 70
     1
102
RTVSPropertyOp22
 70
     1
102
RTVSPropertyOp23
 70
     1
102
RTVSPropertyOp24
 70
     1
102
RTVSPropertyOp25
 70
     1
102
RTVSPropertyOp26
 70
     1
102
RTVSPropertyOp27
 70
     1
102
RTVSPropertyOp28
 70
     1
102
RTVSPropertyOp29
 70
     1
102
RTVSPropertyOp30
 70
     1
102
RTVSPropertyOp31
 70
     1
102
RTVSPropertyOp32
 70
     1
  0
XRECORD
  5
F10A62
102
{ACAD_REACTORS
330
F10A61
102
}
330
F10A61
100
AcDbXrecord
280
     1
102
RTVSPropertyOp0
 70
     1
102
RTVSPropertyOp1
 70
     1
102
RTVSPropertyOp2
 70
     1
102
RTVSPropertyOp3
 70
     1
102
RTVSPropertyOp4
 70
     1
102
RTVSPropertyOp5
 70
     1
102
RTVSPropertyOp6
 70
     1
102
RTVSPropertyOp7
 70
     1
102
RTVSPropertyOp8
 70
     1
102
RTVSPropertyOp9
 70
     1
102
RTVSPropertyOp10
 70
     1
102
RTVSPropertyOp11
 70
     1
102
RTVSPropertyOp12
 70
     1
102
RTVSPropertyOp13
 70
     1
102
RTVSPropertyOp14
 70
     1
102
RTVSPropertyOp15
 70
     1
102
RTVSPropertyOp16
 70
     1
102
RTVSPropertyOp17
 70
     1
102
RTVSPropertyOp18
 70
     1
102
RTVSPropertyOp19
 70
     1
102
RTVSPropertyOp20
 70
     1
102
RTVSPropertyOp21
 70
     1
102
RTVSPropertyOp22
 70
     1
102
RTVSPropertyOp23
 70
     1
102
RTVSPropertyOp24
 70
     1
102
RTVSPropertyOp25
 70
     1
102
RTVSPropertyOp26
 70
     1
102
RTVSPropertyOp27
 70
     1
102
RTVSPropertyOp28
 70
     1
102
RTVSPropertyOp29
 70
     1
102
RTVSPropertyOp30
 70
     1
102
RTVSPropertyOp31
 70
     1
102
RTVSPropertyOp32
 70
     1
  0
XRECORD
  5
F10A64
102
{ACAD_REACTORS
330
F10A63
102
}
330
F10A63
100
AcDbXrecord
280
     1
102
RTVSPropertyOp0
 70
     1
102
RTVSPropertyOp1
 70
     1
102
RTVSPropertyOp2
 70
     1
102
RTVSPropertyOp3
 70
     1
102
RTVSPropertyOp4
 70
     1
102
RTVSPropertyOp5
 70
     1
102
RTVSPropertyOp6
 70
     1
102
RTVSPropertyOp7
 70
     1
102
RTVSPropertyOp8
 70
     1
102
RTVSPropertyOp9
 70
     1
102
RTVSPropertyOp10
 70
     1
102
RTVSPropertyOp11
 70
     1
102
RTVSPropertyOp12
 70
     1
102
RTVSPropertyOp13
 70
     1
102
RTVSPropertyOp14
 70
     1
102
RTVSPropertyOp15
 70
     1
102
RTVSPropertyOp16
 70
     1
102
RTVSPropertyOp17
 70
     1
102
RTVSPropertyOp18
 70
     1
102
RTVSPropertyOp19
 70
     1
102
RTVSPropertyOp20
 70
     1
102
RTVSPropertyOp21
 70
     1
102
RTVSPropertyOp22
 70
     1
102
RTVSPropertyOp23
 70
     1
102
RTVSPropertyOp24
 70
     1
102
RTVSPropertyOp25
 70
     1
102
RTVSPropertyOp26
 70
     1
102
RTVSPropertyOp27
 70
     1
102
RTVSPropertyOp28
 70
     1
102
RTVSPropertyOp29
 70
     1
102
RTVSPropertyOp30
 70
     1
102
RTVSPropertyOp31
 70
     1
102
RTVSPropertyOp32
 70
     1
  0
XRECORD
  5
F10A66
102
{ACAD_REACTORS
330
F10A65
102
}
330
F10A65
100
AcDbXrecord
280
     1
102
RTVSPropertyOp0
 70
     1
102
RTVSPropertyOp1
 70
     1
102
RTVSPropertyOp2
 70
     1
102
RTVSPropertyOp3
 70
     1
102
RTVSPropertyOp4
 70
     1
102
RTVSPropertyOp5
 70
     1
102
RTVSPropertyOp6
 70
     1
102
RTVSPropertyOp7
 70
     1
102
RTVSPropertyOp8
 70
     1
102
RTVSPropertyOp9
 70
     1
102
RTVSPropertyOp10
 70
     1
102
RTVSPropertyOp11
 70
     1
102
RTVSPropertyOp12
 70
     1
102
RTVSPropertyOp13
 70
     1
102
RTVSPropertyOp14
 70
     1
102
RTVSPropertyOp15
 70
     1
102
RTVSPropertyOp16
 70
     1
102
RTVSPropertyOp17
 70
     1
102
RTVSPropertyOp18
 70
     1
102
RTVSPropertyOp19
 70
     1
102
RTVSPropertyOp20
 70
     1
102
RTVSPropertyOp21
 70
     1
102
RTVSPropertyOp22
 70
     1
102
RTVSPropertyOp23
 70
     1
102
RTVSPropertyOp24
 70
     1
102
RTVSPropertyOp25
 70
     1
102
RTVSPropertyOp26
 70
     1
102
RTVSPropertyOp27
 70
     1
102
RTVSPropertyOp28
 70
     1
102
RTVSPropertyOp29
 70
     1
102
RTVSPropertyOp30
 70
     1
102
RTVSPropertyOp31
 70
     1
102
RTVSPropertyOp32
 70
     1
  0
XRECORD
  5
F10A68
102
{ACAD_REACTORS
330
F10A67
102
}
330
F10A67
100
AcDbXrecord
280
     1
102
RTVSPropertyOp0
 70
     1
102
RTVSPropertyOp1
 70
     1
102
RTVSPropertyOp2
 70
     1
102
RTVSPropertyOp3
 70
     1
102
RTVSPropertyOp4
 70
     1
102
RTVSPropertyOp5
 70
     1
102
RTVSPropertyOp6
 70
     1
102
RTVSPropertyOp7
 70
     1
102
RTVSPropertyOp8
 70
     1
102
RTVSPropertyOp9
 70
     1
102
RTVSPropertyOp10
 70
     1
102
RTVSPropertyOp11
 70
     1
102
RTVSPropertyOp12
 70
     1
102
RTVSPropertyOp13
 70
     1
102
RTVSPropertyOp14
 70
     1
102
RTVSPropertyOp15
 70
     1
102
RTVSPropertyOp16
 70
     1
102
RTVSPropertyOp17
 70
     1
102
RTVSPropertyOp18
 70
     1
102
RTVSPropertyOp19
 70
     1
102
RTVSPropertyOp20
 70
     1
102
RTVSPropertyOp21
 70
     1
102
RTVSPropertyOp22
 70
     1
102
RTVSPropertyOp23
 70
     1
102
RTVSPropertyOp24
 70
     1
102
RTVSPropertyOp25
 70
     1
102
RTVSPropertyOp26
 70
     1
102
RTVSPropertyOp27
 70
     1
102
RTVSPropertyOp28
 70
     1
102
RTVSPropertyOp29
 70
     1
102
RTVSPropertyOp30
 70
     1
102
RTVSPropertyOp31
 70
     1
102
RTVSPropertyOp32
 70
     1
  0
XRECORD
  5
F10A8F
102
{ACAD_REACTORS
330
F10A8E
102
}
330
F10A8E
100
AcDbXrecord
280
     1
102
RTVSPropertyOp0
 70
     1
102
RTVSPropertyOp1
 70
     1
102
RTVSPropertyOp2
 70
     1
102
RTVSPropertyOp3
 70
     1
102
RTVSPropertyOp4
 70
     1
102
RTVSPropertyOp5
 70
     1
102
RTVSPropertyOp6
 70
     1
102
RTVSPropertyOp7
 70
     1
102
RTVSPropertyOp8
 70
     1
102
RTVSPropertyOp9
 70
     1
102
RTVSPropertyOp10
 70
     1
102
RTVSPropertyOp11
 70
     1
102
RTVSPropertyOp12
 70
     1
102
RTVSPropertyOp13
 70
     1
102
RTVSPropertyOp14
 70
     1
102
RTVSPropertyOp15
 70
     1
102
RTVSPropertyOp16
 70
     1
102
RTVSPropertyOp17
 70
     1
102
RTVSPropertyOp18
 70
     1
102
RTVSPropertyOp19
 70
     1
102
RTVSPropertyOp20
 70
     1
102
RTVSPropertyOp21
 70
     1
102
RTVSPropertyOp22
 70
     1
102
RTVSPropertyOp23
 70
     1
102
RTVSPropertyOp24
 70
     1
102
RTVSPropertyOp25
 70
     1
102
RTVSPropertyOp26
 70
     1
102
RTVSPropertyOp27
 70
     1
102
RTVSPropertyOp28
 70
     1
102
RTVSPropertyOp29
 70
     1
102
RTVSPropertyOp30
 70
     1
102
RTVSPropertyOp31
 70
     1
102
RTVSPropertyOp32
 70
     1
  0
XRECORD
  5
F10A82
102
{ACAD_REACTORS
330
F10A81
102
}
330
F10A81
100
AcDbXrecord
280
     1
102
RTVSPropertyOp0
 70
     0
102
RTVSPropertyOp1
 70
     0
102
RTVSPropertyOp2
 70
     0
102
RTVSPropertyOp3
 70
     0
102
RTVSPropertyOp4
 70
     0
102
RTVSPropertyOp5
 70
     0
102
RTVSPropertyOp6
 70
     0
102
RTVSPropertyOp7
 70
     0
102
RTVSPropertyOp8
 70
     0
102
RTVSPropertyOp9
 70
     0
102
RTVSPropertyOp10
 70
     0
102
RTVSPropertyOp11
 70
     0
102
RTVSPropertyOp12
 70
     0
102
RTVSPropertyOp13
 70
     0
102
RTVSPropertyOp14
 70
     2
102
RTVSPropertyOp15
 70
     0
102
RTVSPropertyOp16
 70
     0
102
RTVSPropertyOp17
 70
     0
102
RTVSPropertyOp18
 70
     0
102
RTVSPropertyOp19
 70
     0
102
RTVSPropertyOp20
 70
     0
102
RTVSPropertyOp21
 70
     0
102
RTVSPropertyOp22
 70
     0
102
RTVSPropertyOp23
 70
     0
102
RTVSPropertyOp24
 70
     0
102
RTVSPropertyOp25
 70
     0
102
RTVSPropertyOp26
 70
     0
102
RTVSPropertyOp27
 70
     0
102
RTVSPropertyOp28
 70
     1
102
RTVSPropertyOp29
 70
     1
102
RTVSPropertyOp30
 70
     1
102
RTVSPropertyOp31
 70
     1
102
RTVSPropertyOp32
 70
     1
  0
XRECORD
  5
F10A7C
102
{ACAD_REACTORS
330
F10A7B
102
}
330
F10A7B
100
AcDbXrecord
280
     1
102
RTVSPropertyOp0
 70
     1
102
RTVSPropertyOp1
 70
     1
102
RTVSPropertyOp2
 70
     1
102
RTVSPropertyOp3
 70
     1
102
RTVSPropertyOp4
 70
     1
102
RTVSPropertyOp5
 70
     1
102
RTVSPropertyOp6
 70
     1
102
RTVSPropertyOp7
 70
     1
102
RTVSPropertyOp8
 70
     1
102
RTVSPropertyOp9
 70
     1
102
RTVSPropertyOp10
 70
     1
102
RTVSPropertyOp11
 70
     1
102
RTVSPropertyOp12
 70
     1
102
RTVSPropertyOp13
 70
     1
102
RTVSPropertyOp14
 70
     1
102
RTVSPropertyOp15
 70
     1
102
RTVSPropertyOp16
 70
     1
102
RTVSPropertyOp17
 70
     1
102
RTVSPropertyOp18
 70
     1
102
RTVSPropertyOp19
 70
     1
102
RTVSPropertyOp20
 70
     1
102
RTVSPropertyOp21
 70
     1
102
RTVSPropertyOp22
 70
     1
102
RTVSPropertyOp23
 70
     1
102
RTVSPropertyOp24
 70
     1
102
RTVSPropertyOp25
 70
     1
102
RTVSPropertyOp26
 70
     1
102
RTVSPropertyOp27
 70
     1
102
RTVSPropertyOp28
 70
     1
102
RTVSPropertyOp29
 70
     1
102
RTVSPropertyOp30
 70
     1
102
RTVSPropertyOp31
 70
     1
102
RTVSPropertyOp32
 70
     1
  0
XRECORD
  5
F10A84
102
{ACAD_REACTORS
330
F10A83
102
}
330
F10A83
100
AcDbXrecord
280
     1
102
RTVSPropertyOp0
 70
     0
102
RTVSPropertyOp1
 70
     0
102
RTVSPropertyOp2
 70
     0
102
RTVSPropertyOp3
 70
     0
102
RTVSPropertyOp4
 70
     0
102
RTVSPropertyOp5
 70
     0
102
RTVSPropertyOp6
 70
     0
102
RTVSPropertyOp7
 70
     0
102
RTVSPropertyOp8
 70
     0
102
RTVSPropertyOp9
 70
     0
102
RTVSPropertyOp10
 70
     0
102
RTVSPropertyOp11
 70
     0
102
RTVSPropertyOp12
 70
     0
102
RTVSPropertyOp13
 70
     0
102
RTVSPropertyOp14
 70
     2
102
RTVSPropertyOp15
 70
     0
102
RTVSPropertyOp16
 70
     0
102
RTVSPropertyOp17
 70
     0
102
RTVSPropertyOp18
 70
     0
102
RTVSPropertyOp19
 70
     0
102
RTVSPropertyOp20
 70
     0
102
RTVSPropertyOp21
 70
     0
102
RTVSPropertyOp22
 70
     0
102
RTVSPropertyOp23
 70
     0
102
RTVSPropertyOp24
 70
     0
102
RTVSPropertyOp25
 70
     0
102
RTVSPropertyOp26
 70
     0
102
RTVSPropertyOp27
 70
     0
102
RTVSPropertyOp28
 70
     1
102
RTVSPropertyOp29
 70
     1
102
RTVSPropertyOp30
 70
     1
102
RTVSPropertyOp31
 70
     1
102
RTVSPropertyOp32
 70
     1
  0
XRECORD
  5
F10A74
102
{ACAD_REACTORS
330
F10A73
102
}
330
F10A73
100
AcDbXrecord
280
     1
102
RTVSPropertyOp0
 70
     1
102
RTVSPropertyOp1
 70
     1
102
RTVSPropertyOp2
 70
     1
102
RTVSPropertyOp3
 70
     1
102
RTVSPropertyOp4
 70
     1
102
RTVSPropertyOp5
 70
     1
102
RTVSPropertyOp6
 70
     1
102
RTVSPropertyOp7
 70
     1
102
RTVSPropertyOp8
 70
     1
102
RTVSPropertyOp9
 70
     1
102
RTVSPropertyOp10
 70
     1
102
RTVSPropertyOp11
 70
     1
102
RTVSPropertyOp12
 70
     1
102
RTVSPropertyOp13
 70
     1
102
RTVSPropertyOp14
 70
     1
102
RTVSPropertyOp15
 70
     1
102
RTVSPropertyOp16
 70
     1
102
RTVSPropertyOp17
 70
     1
102
RTVSPropertyOp18
 70
     1
102
RTVSPropertyOp19
 70
     1
102
RTVSPropertyOp20
 70
     1
102
RTVSPropertyOp21
 70
     1
102
RTVSPropertyOp22
 70
     1
102
RTVSPropertyOp23
 70
     1
102
RTVSPropertyOp24
 70
     1
102
RTVSPropertyOp25
 70
     1
102
RTVSPropertyOp26
 70
     1
102
RTVSPropertyOp27
 70
     1
102
RTVSPropertyOp28
 70
     1
102
RTVSPropertyOp29
 70
     1
102
RTVSPropertyOp30
 70
     1
102
RTVSPropertyOp31
 70
     1
102
RTVSPropertyOp32
 70
     1
  0
XRECORD
  5
F10A99
102
{ACAD_REACTORS
330
F10A98
102
}
330
F10A98
100
AcDbXrecord
280
     1
102
RTVSPropertyOp0
 70
     1
102
RTVSPropertyOp1
 70
     1
102
RTVSPropertyOp2
 70
     1
102
RTVSPropertyOp3
 70
     1
102
RTVSPropertyOp4
 70
     1
102
RTVSPropertyOp5
 70
     1
102
RTVSPropertyOp6
 70
     1
102
RTVSPropertyOp7
 70
     1
102
RTVSPropertyOp8
 70
     1
102
RTVSPropertyOp9
 70
     1
102
RTVSPropertyOp10
 70
     1
102
RTVSPropertyOp11
 70
     1
102
RTVSPropertyOp12
 70
     1
102
RTVSPropertyOp13
 70
     1
102
RTVSPropertyOp14
 70
     1
102
RTVSPropertyOp15
 70
     1
102
RTVSPropertyOp16
 70
     1
102
RTVSPropertyOp17
 70
     1
102
RTVSPropertyOp18
 70
     1
102
RTVSPropertyOp19
 70
     1
102
RTVSPropertyOp20
 70
     1
102
RTVSPropertyOp21
 70
     1
102
RTVSPropertyOp22
 70
     1
102
RTVSPropertyOp23
 70
     1
102
RTVSPropertyOp24
 70
     1
102
RTVSPropertyOp25
 70
     1
102
RTVSPropertyOp26
 70
     1
102
RTVSPropertyOp27
 70
     1
102
RTVSPropertyOp28
 70
     1
102
RTVSPropertyOp29
 70
     1
102
RTVSPropertyOp30
 70
     1
102
RTVSPropertyOp31
 70
     1
102
RTVSPropertyOp32
 70
     1
  0
XRECORD
  5
F10A97
102
{ACAD_REACTORS
330
F10A96
102
}
330
F10A96
100
AcDbXrecord
280
     1
102
RTVSPropertyOp0
 70
     1
102
RTVSPropertyOp1
 70
     1
102
RTVSPropertyOp2
 70
     1
102
RTVSPropertyOp3
 70
     1
102
RTVSPropertyOp4
 70
     1
102
RTVSPropertyOp5
 70
     1
102
RTVSPropertyOp6
 70
     1
102
RTVSPropertyOp7
 70
     1
102
RTVSPropertyOp8
 70
     1
102
RTVSPropertyOp9
 70
     1
102
RTVSPropertyOp10
 70
     1
102
RTVSPropertyOp11
 70
     1
102
RTVSPropertyOp12
 70
     1
102
RTVSPropertyOp13
 70
     1
102
RTVSPropertyOp14
 70
     1
102
RTVSPropertyOp15
 70
     1
102
RTVSPropertyOp16
 70
     1
102
RTVSPropertyOp17
 70
     1
102
RTVSPropertyOp18
 70
     1
102
RTVSPropertyOp19
 70
     1
102
RTVSPropertyOp20
 70
     1
102
RTVSPropertyOp21
 70
     1
102
RTVSPropertyOp22
 70
     1
102
RTVSPropertyOp23
 70
     1
102
RTVSPropertyOp24
 70
     1
102
RTVSPropertyOp25
 70
     1
102
RTVSPropertyOp26
 70
     1
102
RTVSPropertyOp27
 70
     1
102
RTVSPropertyOp28
 70
     1
102
RTVSPropertyOp29
 70
     1
102
RTVSPropertyOp30
 70
     1
102
RTVSPropertyOp31
 70
     1
102
RTVSPropertyOp32
 70
     1
  0
XRECORD
  5
F10A91
102
{ACAD_REACTORS
330
F10A90
102
}
330
F10A90
100
AcDbXrecord
280
     1
102
RTVSPropertyOp0
 70
     1
102
RTVSPropertyOp1
 70
     1
102
RTVSPropertyOp2
 70
     1
102
RTVSPropertyOp3
 70
     1
102
RTVSPropertyOp4
 70
     1
102
RTVSPropertyOp5
 70
     1
102
RTVSPropertyOp6
 70
     1
102
RTVSPropertyOp7
 70
     1
102
RTVSPropertyOp8
 70
     1
102
RTVSPropertyOp9
 70
     1
102
RTVSPropertyOp10
 70
     1
102
RTVSPropertyOp11
 70
     1
102
RTVSPropertyOp12
 70
     1
102
RTVSPropertyOp13
 70
     1
102
RTVSPropertyOp14
 70
     1
102
RTVSPropertyOp15
 70
     1
102
RTVSPropertyOp16
 70
     1
102
RTVSPropertyOp17
 70
     1
102
RTVSPropertyOp18
 70
     1
102
RTVSPropertyOp19
 70
     1
102
RTVSPropertyOp20
 70
     1
102
RTVSPropertyOp21
 70
     1
102
RTVSPropertyOp22
 70
     1
102
RTVSPropertyOp23
 70
     1
102
RTVSPropertyOp24
 70
     1
102
RTVSPropertyOp25
 70
     1
102
RTVSPropertyOp26
 70
     1
102
RTVSPropertyOp27
 70
     1
102
RTVSPropertyOp28
 70
     1
102
RTVSPropertyOp29
 70
     1
102
RTVSPropertyOp30
 70
     1
102
RTVSPropertyOp31
 70
     1
102
RTVSPropertyOp32
 70
     1
  0
XRECORD
  5
F10A93
102
{ACAD_REACTORS
330
F10A92
102
}
330
F10A92
100
AcDbXrecord
280
     1
102
RTVSPropertyOp0
 70
     1
102
RTVSPropertyOp1
 70
     1
102
RTVSPropertyOp2
 70
     1
102
RTVSPropertyOp3
 70
     1
102
RTVSPropertyOp4
 70
     1
102
RTVSPropertyOp5
 70
     1
102
RTVSPropertyOp6
 70
     1
102
RTVSPropertyOp7
 70
     1
102
RTVSPropertyOp8
 70
     1
102
RTVSPropertyOp9
 70
     1
102
RTVSPropertyOp10
 70
     1
102
RTVSPropertyOp11
 70
     1
102
RTVSPropertyOp12
 70
     1
102
RTVSPropertyOp13
 70
     1
102
RTVSPropertyOp14
 70
     1
102
RTVSPropertyOp15
 70
     1
102
RTVSPropertyOp16
 70
     1
102
RTVSPropertyOp17
 70
     1
102
RTVSPropertyOp18
 70
     1
102
RTVSPropertyOp19
 70
     1
102
RTVSPropertyOp20
 70
     1
102
RTVSPropertyOp21
 70
     1
102
RTVSPropertyOp22
 70
     1
102
RTVSPropertyOp23
 70
     1
102
RTVSPropertyOp24
 70
     1
102
RTVSPropertyOp25
 70
     1
102
RTVSPropertyOp26
 70
     1
102
RTVSPropertyOp27
 70
     1
102
RTVSPropertyOp28
 70
     1
102
RTVSPropertyOp29
 70
     1
102
RTVSPropertyOp30
 70
     1
102
RTVSPropertyOp31
 70
     1
102
RTVSPropertyOp32
 70
     1
  0
XRECORD
  5
F10A7A
102
{ACAD_REACTORS
330
F10A79
102
}
330
F10A79
100
AcDbXrecord
280
     1
102
RTVSPropertyOp0
 70
     1
102
RTVSPropertyOp1
 70
     1
102
RTVSPropertyOp2
 70
     1
102
RTVSPropertyOp3
 70
     1
102
RTVSPropertyOp4
 70
     1
102
RTVSPropertyOp5
 70
     1
102
RTVSPropertyOp6
 70
     1
102
RTVSPropertyOp7
 70
     1
102
RTVSPropertyOp8
 70
     1
102
RTVSPropertyOp9
 70
     1
102
RTVSPropertyOp10
 70
     1
102
RTVSPropertyOp11
 70
     1
102
RTVSPropertyOp12
 70
     1
102
RTVSPropertyOp13
 70
     1
102
RTVSPropertyOp14
 70
     1
102
RTVSPropertyOp15
 70
     1
102
RTVSPropertyOp16
 70
     1
102
RTVSPropertyOp17
 70
     1
102
RTVSPropertyOp18
 70
     1
102
RTVSPropertyOp19
 70
     1
102
RTVSPropertyOp20
 70
     1
102
RTVSPropertyOp21
 70
     1
102
RTVSPropertyOp22
 70
     1
102
RTVSPropertyOp23
 70
     1
102
RTVSPropertyOp24
 70
     1
102
RTVSPropertyOp25
 70
     1
102
RTVSPropertyOp26
 70
     1
102
RTVSPropertyOp27
 70
     1
102
RTVSPropertyOp28
 70
     1
102
RTVSPropertyOp29
 70
     1
102
RTVSPropertyOp30
 70
     1
102
RTVSPropertyOp31
 70
     1
102
RTVSPropertyOp32
 70
     1
  0
XRECORD
  5
F10A8D
102
{ACAD_REACTORS
330
F10A8C
102
}
330
F10A8C
100
AcDbXrecord
280
     1
102
RTVSPropertyOp0
 70
     1
102
RTVSPropertyOp1
 70
     1
102
RTVSPropertyOp2
 70
     1
102
RTVSPropertyOp3
 70
     1
102
RTVSPropertyOp4
 70
     1
102
RTVSPropertyOp5
 70
     1
102
RTVSPropertyOp6
 70
     1
102
RTVSPropertyOp7
 70
     1
102
RTVSPropertyOp8
 70
     1
102
RTVSPropertyOp9
 70
     1
102
RTVSPropertyOp10
 70
     1
102
RTVSPropertyOp11
 70
     1
102
RTVSPropertyOp12
 70
     1
102
RTVSPropertyOp13
 70
     1
102
RTVSPropertyOp14
 70
     1
102
RTVSPropertyOp15
 70
     1
102
RTVSPropertyOp16
 70
     1
102
RTVSPropertyOp17
 70
     1
102
RTVSPropertyOp18
 70
     1
102
RTVSPropertyOp19
 70
     1
102
RTVSPropertyOp20
 70
     1
102
RTVSPropertyOp21
 70
     1
102
RTVSPropertyOp22
 70
     1
102
RTVSPropertyOp23
 70
     1
102
RTVSPropertyOp24
 70
     1
102
RTVSPropertyOp25
 70
     1
102
RTVSPropertyOp26
 70
     1
102
RTVSPropertyOp27
 70
     1
102
RTVSPropertyOp28
 70
     1
102
RTVSPropertyOp29
 70
     1
102
RTVSPropertyOp30
 70
     1
102
RTVSPropertyOp31
 70
     1
102
RTVSPropertyOp32
 70
     1
  0
XRECORD
  5
F10A95
102
{ACAD_REACTORS
330
F10A94
102
}
330
F10A94
100
AcDbXrecord
280
     1
102
RTVSPropertyOp0
 70
     1
102
RTVSPropertyOp1
 70
     1
102
RTVSPropertyOp2
 70
     1
102
RTVSPropertyOp3
 70
     1
102
RTVSPropertyOp4
 70
     1
102
RTVSPropertyOp5
 70
     1
102
RTVSPropertyOp6
 70
     1
102
RTVSPropertyOp7
 70
     1
102
RTVSPropertyOp8
 70
     1
102
RTVSPropertyOp9
 70
     1
102
RTVSPropertyOp10
 70
     1
102
RTVSPropertyOp11
 70
     1
102
RTVSPropertyOp12
 70
     1
102
RTVSPropertyOp13
 70
     1
102
RTVSPropertyOp14
 70
     1
102
RTVSPropertyOp15
 70
     1
102
RTVSPropertyOp16
 70
     1
102
RTVSPropertyOp17
 70
     1
102
RTVSPropertyOp18
 70
     1
102
RTVSPropertyOp19
 70
     1
102
RTVSPropertyOp20
 70
     1
102
RTVSPropertyOp21
 70
     1
102
RTVSPropertyOp22
 70
     1
102
RTVSPropertyOp23
 70
     1
102
RTVSPropertyOp24
 70
     1
102
RTVSPropertyOp25
 70
     1
102
RTVSPropertyOp26
 70
     1
102
RTVSPropertyOp27
 70
     1
102
RTVSPropertyOp28
 70
     1
102
RTVSPropertyOp29
 70
     1
102
RTVSPropertyOp30
 70
     1
102
RTVSPropertyOp31
 70
     1
102
RTVSPropertyOp32
 70
     1
  0
ENDSEC
  0
EOF
