  0
SECTION
  2
HEADER
  9
$ACADVER
  1
AC1015
  9
$ACADMAINTVER
 70
    20
  9
$DWGCODEPAGE
  3
ANSI_1252
  9
$INSBASE
 10
0.0
 20
0.0
 30
0.0
  9
$EXTMIN
 10
-208.09585492228
 20
-100.103626943005
 30
0.0
  9
$EXTMAX
 10
143.354922279793
 20
106.7646657571623
 30
0.0
  9
$LIMMIN
 10
0.0
 20
0.0
  9
$LIMMAX
 10
12.0
 20
9.0
  9
$ORTHOMODE
 70
     0
  9
$REGENMODE
 70
     1
  9
$FILLMODE
 70
     1
  9
$QTEXTMODE
 70
     0
  9
$MIRRTEXT
 70
     1
  9
$LTSCALE
 40
1.0
  9
$ATTMODE
 70
     1
  9
$TEXTSIZE
 40
0.2
  9
$TRACEWID
 40
0.05
  9
$TEXTSTYLE
  7
Standard
  9
$CLAYER
  8
0
  9
$CELTYPE
  6
ByLayer
  9
$CECOLOR
 62
   256
  9
$CELTSCALE
 40
1.0
  9
$DISPSILH
 70
     0
  9
$DIMSCALE
 40
1.0
  9
$DIMASZ
 40
2.5
  9
$DIMEXO
 40
0.625
  9
$DIMDLI
 40
0.38
  9
$DIMRND
 40
0.0
  9
$DIMDLE
 40
0.0
  9
$DIMEXE
 40
1.25
  9
$DIMTP
 40
0.0
  9
$DIMTM
 40
0.000000001
  9
$DIMTXT
 40
2.5
  9
$DIMCEN
 40
0.09
  9
$DIMTSZ
 40
0.0
  9
$DIMTOL
 70
     1
  9
$DIMLIM
 70
     0
  9
$DIMTIH
 70
     0
  9
$DIMTOH
 70
     0
  9
$DIMSE1
 70
     0
  9
$DIMSE2
 70
     0
  9
$DIMTAD
 70
     1
  9
$DIMZIN
 70
     0
  9
$DIMBLK
  1
VDDIM_DEFAULT
  9
$DIMASO
 70
     1
  9
$DIMSHO
 70
     1
  9
$DIMPOST
  1

  9
$DIMAPOST
  1

  9
$DIMALT
 70
     0
  9
$DIMALTD
 70
     2
  9
$DIMALTF
 40
25.4
  9
$DIMLFAC
 40
1.0
  9
$DIMTOFL
 70
     0
  9
$DIMTVP
 40
0.0
  9
$DIMTIX
 70
     0
  9
$DIMSOXD
 70
     0
  9
$DIMSAH
 70
     0
  9
$DIMBLK1
  1

  9
$DIMBLK2
  1

  9
$DIMSTYLE
  2
BEM-ISBE
  9
$DIMCLRD
 70
     0
  9
$DIMCLRE
 70
     0
  9
$DIMCLRT
 70
     0
  9
$DIMTFAC
 40
0.5
  9
$DIMGAP
 40
0.625
  9
$DIMJUST
 70
     0
  9
$DIMSD1
 70
     0
  9
$DIMSD2
 70
     0
  9
$DIMTOLJ
 70
     1
  9
$DIMTZIN
 70
     0
  9
$DIMALTZ
 70
     0
  9
$DIMALTTZ
 70
     0
  9
$DIMUPT
 70
     0
  9
$DIMDEC
 70
     3
  9
$DIMTDEC
 70
     3
  9
$DIMALTU
 70
     2
  9
$DIMALTTD
 70
     2
  9
$DIMTXSTY
  7
Standard
  9
$DIMAUNIT
 70
     0
  9
$DIMADEC
 70
     3
  9
$DIMALTRND
 40
0.0
  9
$DIMAZIN
 70
     0
  9
$DIMDSEP
 70
    46
  9
$DIMATFIT
 70
     3
  9
$DIMFRAC
 70
     0
  9
$DIMLDRBLK
  1

  9
$DIMLUNIT
 70
     2
  9
$DIMLWD
 70
    -2
  9
$DIMLWE
 70
    -2
  9
$DIMTMOVE
 70
     0
  9
$LUNITS
 70
     2
  9
$LUPREC
 70
     4
  9
$SKETCHINC
 40
0.1
  9
$FILLETRAD
 40
0.0
  9
$AUNITS
 70
     0
  9
$AUPREC
 70
     0
  9
$MENU
  1
.
  9
$ELEVATION
 40
0.0
  9
$PELEVATION
 40
0.0
  9
$THICKNESS
 40
0.0
  9
$LIMCHECK
 70
     0
  9
$CHAMFERA
 40
0.5
  9
$CHAMFERB
 40
0.5
  9
$CHAMFERC
 40
1.0
  9
$CHAMFERD
 40
0.0
  9
$SKPOLY
 70
     0
  9
$TDCREATE
 40
2457011.414439977
  9
$TDUCREATE
 40
2457011.372773310
  9
$TDUPDATE
 40
2457011.415427014
  9
$TDUUPDATE
 40
2457011.373760348
  9
$TDINDWG
 40
0.0009895486
  9
$TDUSRTIMER
 40
0.0009895023
  9
$USRTIMER
 70
     1
  9
$ANGBASE
 50
0.0
  9
$ANGDIR
 70
     0
  9
$PDMODE
 70
     0
  9
$PDSIZE
 40
0.0
  9
$PLINEWID
 40
0.0
  9
$SPLFRAME
 70
     0
  9
$SPLINETYPE
 70
     6
  9
$SPLINESEGS
 70
     8
  9
$HANDSEED
  5
F10B88
  9
$SURFTAB1
 70
     6
  9
$SURFTAB2
 70
     6
  9
$SURFTYPE
 70
     6
  9
$SURFU
 70
     6
  9
$SURFV
 70
     6
  9
$UCSBASE
  2

  9
$UCSNAME
  2

  9
$UCSORG
 10
-1.57736971791634
 20
1.020532963036011
 30
0.0
  9
$UCSXDIR
 10
1.0
 20
0.0
 30
0.0
  9
$UCSYDIR
 10
0.0
 20
1.0
 30
0.0
  9
$UCSORTHOREF
  2

  9
$UCSORTHOVIEW
 70
     0
  9
$UCSORGTOP
 10
0.0
 20
0.0
 30
0.0
  9
$UCSORGBOTTOM
 10
0.0
 20
0.0
 30
0.0
  9
$UCSORGLEFT
 10
0.0
 20
0.0
 30
0.0
  9
$UCSORGRIGHT
 10
0.0
 20
0.0
 30
0.0
  9
$UCSORGFRONT
 10
0.0
 20
0.0
 30
0.0
  9
$UCSORGBACK
 10
0.0
 20
0.0
 30
0.0
  9
$PUCSBASE
  2

  9
$PUCSNAME
  2

  9
$PUCSORG
 10
0.0
 20
0.0
 30
0.0
  9
$PUCSXDIR
 10
1.0
 20
0.0
 30
0.0
  9
$PUCSYDIR
 10
0.0
 20
1.0
 30
0.0
  9
$PUCSORTHOREF
  2

  9
$PUCSORTHOVIEW
 70
     0
  9
$PUCSORGTOP
 10
0.0
 20
0.0
 30
0.0
  9
$PUCSORGBOTTOM
 10
0.0
 20
0.0
 30
0.0
  9
$PUCSORGLEFT
 10
0.0
 20
0.0
 30
0.0
  9
$PUCSORGRIGHT
 10
0.0
 20
0.0
 30
0.0
  9
$PUCSORGFRONT
 10
0.0
 20
0.0
 30
0.0
  9
$PUCSORGBACK
 10
0.0
 20
0.0
 30
0.0
  9
$USERI1
 70
     0
  9
$USERI2
 70
     0
  9
$USERI3
 70
     0
  9
$USERI4
 70
     0
  9
$USERI5
 70
     0
  9
$USERR1
 40
0.0
  9
$USERR2
 40
0.0
  9
$USERR3
 40
0.0
  9
$USERR4
 40
0.0
  9
$USERR5
 40
0.0
  9
$WORLDVIEW
 70
     1
  9
$SHADEDGE
 70
     3
  9
$SHADEDIF
 70
    70
  9
$TILEMODE
 70
     1
  9
$MAXACTVP
 70
    64
  9
$PINSBASE
 10
0.0
 20
0.0
 30
0.0
  9
$PLIMCHECK
 70
     0
  9
$PEXTMIN
 10
1.000000000000000E+20
 20
1.000000000000000E+20
 30
1.000000000000000E+20
  9
$PEXTMAX
 10
-1.000000000000000E+20
 20
-1.000000000000000E+20
 30
-1.000000000000000E+20
  9
$PLIMMIN
 10
0.0
 20
0.0
  9
$PLIMMAX
 10
12.0
 20
9.0
  9
$UNITMODE
 70
     0
  9
$VISRETAIN
 70
     1
  9
$PLINEGEN
 70
     0
  9
$PSLTSCALE
 70
     1
  9
$TREEDEPTH
 70
  3020
  9
$CMLSTYLE
  2
Standard
  9
$CMLJUST
 70
     0
  9
$CMLSCALE
 40
1.0
  9
$PROXYGRAPHICS
 70
     1
  9
$MEASUREMENT
 70
     0
  9
$CELWEIGHT
370
    -1
  9
$ENDCAPS
280
     0
  9
$JOINSTYLE
280
     0
  9
$LWDISPLAY
290
     0
  9
$INSUNITS
 70
     4
  9
$HYPERLINKBASE
  1

  9
$STYLESHEET
  1

  9
$XEDIT
290
     1
  9
$CEPSNTYPE
380
     0
  9
$PSTYLEMODE
290
     0
  9
$FINGERPRINTGUID
  2
{FAEB1C30-E019-11D5-929B-00C0DF256EC4}
  9
$VERSIONGUID
  2
{715B42B5-D2A0-4D9E-BFE2-9A0C30CF0362}
  9
$EXTNAMES
290
     1
  9
$PSVPSCALE
 40
0.0
  9
$OLESTARTUP
290
     0
  0
ENDSEC
  0
SECTION
  2
CLASSES
  0
CLASS
  1
ACDBDICTIONARYWDFLT
  2
AcDbDictionaryWithDefault
  3
ObjectDBX Classes
 90
        0
280
     0
281
     0
  0
CLASS
  1
MATERIAL
  2
AcDbMaterial
  3
ObjectDBX Classes
 90
     1153
280
     0
281
     0
  0
CLASS
  1
MLEADERSTYLE
  2
AcDbMLeaderStyle
  3
ACDB_MLEADERSTYLE_CLASS
 90
     4095
280
     0
281
     0
  0
CLASS
  1
SCALE
  2
AcDbScale
  3
ObjectDBX Classes
 90
     1153
280
     0
281
     0
  0
CLASS
  1
TABLESTYLE
  2
AcDbTableStyle
  3
ObjectDBX Classes
 90
     4095
280
     0
281
     0
  0
CLASS
  1
VISUALSTYLE
  2
AcDbVisualStyle
  3
ObjectDBX Classes
 90
     4095
280
     0
281
     0
  0
CLASS
  1
DICTIONARYVAR
  2
AcDbDictionaryVar
  3
ObjectDBX Classes
 90
        0
280
     0
281
     0
  0
CLASS
  1
CELLSTYLEMAP
  2
AcDbCellStyleMap
  3
ObjectDBX Classes
 90
     1152
280
     0
281
     0
  0
CLASS
  1
AMGSETTINGSOBJ
  2
AmgSettingsObj
  3
"AcadM|Product Description: AutoCAD Mechanical|Company: Autodesk, Inc."
 90
     1024
280
     0
281
     0
  0
CLASS
  1
ACME_DOCUMENT
  2
AcMeDbDoc
  3
AcMeServices
 90
     1024
280
     0
281
     0
  0
CLASS
  1
ACMESCOPE
  2
AcMeScope
  3
AcMeServices
 90
     1024
280
     0
281
     0
  0
CLASS
  1
ACMECOMMANDHISTORY
  2
AcMeCommandHistory
  3
AcMeServices
 90
     1024
280
     0
281
     0
  0
CLASS
  1
ACIMSYSVARMAN
  2
AcImSysVarManager
  3
AcMeServices
 90
     1024
280
     0
281
     0
  0
CLASS
  1
ACIMINTSYSVAR
  2
AcImIntSysVar
  3
AcMeServices
 90
     1024
280
     0
281
     0
  0
CLASS
  1
ACMESTATEMGR
  2
AcMeStateMgr
  3
AcMeServices
 90
     1024
280
     0
281
     0
  0
CLASS
  1
ACDBENTITYCACHE
  2
AcMeEntityCache
  3
AcMeServices
 90
     1024
280
     0
281
     0
  0
CLASS
  1
ACGREFMASTER
  2
AcGrefMaster
  3
AcAttribServices
 90
     1024
280
     0
281
     0
  0
CLASS
  1
AM_DRAWING_MGR
  2
AcDmDwgMgr
  3
AcMechDwgViewMgmt
 90
     1024
280
     0
281
     0
  0
CLASS
  1
AM_DWG_DOCUMENT
  2
AcDmDwgDocument
  3
AcMechDwgViewMgmt
 90
     1024
280
     0
281
     0
  0
CLASS
  1
AM_DWG_SHEET
  2
AcDmSheet
  3
AcMechDwgViewMgmt
 90
     1024
280
     0
281
     0
  0
CLASS
  1
AM_VIEWDIMPARMAP
  2
AcDmViewDimParMap
  3
AcMechDwgViewMgmt
 90
     1024
280
     0
281
     0
  0
CLASS
  1
AMDTINTERNALREACTOR
  2
AmdtInternalReactor
  3
AcMeServices
 90
     1024
280
     0
281
     0
  0
CLASS
  1
ACIMREALSYSVAR
  2
AcImRealSysVar
  3
AcMeServices
 90
     1024
280
     0
281
     0
  0
CLASS
  1
AM_DWGMGR_NAME
  2
AcDmDwgMgrName
  3
AcMechDwgViewMgmt
 90
     1024
280
     0
281
     0
  0
CLASS
  1
ACME_DATABASE
  2
AcMeDbDatabase
  3
AcMeServices
 90
     1024
280
     0
281
     0
  0
CLASS
  1
ACRFINSADJUSTERMGR
  2
AcRfInsAdjusterMgr
  3
AcMeServices
 90
     1024
280
     0
281
     0
  0
CLASS
  1
ACGREFACADMASTER
  2
AcGrefacadMaster
  3
AcGrefServices
 90
     1024
280
     0
281
     0
  0
CLASS
  1
AMDTMENUSTATEMGR
  2
AmdtMenuStateMgr
  3
McadcomServices
 90
     1024
280
     0
281
     0
  0
CLASS
  1
AMDTMCOMMENUSTATE
  2
AmdtMcomMenuState
  3
McadcomServices
 90
     1024
280
     0
281
     0
  0
CLASS
  1
AMIMASTER
  2
AmiMaster
  3
AmiServices
 90
     1024
280
     0
281
     0
  0
CLASS
  1
MAPIAMMOUDLE
  2
MApiAmModule
  3
MApiAmServices
 90
     1024
280
     0
281
     0
  0
CLASS
  1
ACIMSTRSYSVAR
  2
AcImStrSysVar
  3
AcMeServices
 90
     1024
280
     0
281
     0
  0
CLASS
  1
AMDTDMMENUSTATE
  2
AmdtDmMenuState
  3
AcMechDwgViewMgmt
 90
     1024
280
     0
281
     0
  0
CLASS
  1
AMDTAMMENUSTATE
  2
AmdtAmMenuState
  3
DesignerAssemblies
 90
     1024
280
     0
281
     0
  0
CLASS
  1
ACAMPROJECT
  2
AcAmProject
  3
DesignerAssemblies
 90
     1024
280
     0
281
     0
  0
CLASS
  1
ACAMGRCOMPDEF
  2
AcAmGrCompDef
  3
DesignerAssemblies
 90
     1024
280
     0
281
     0
  0
CLASS
  1
ACAMCOMPDEF
  2
AcAmCompDef
  3
DesignerAssemblies
 90
     1024
280
     0
281
     0
  0
CLASS
  1
ACAMCOMPDEFMGR
  2
AcAmCompDefMgr
  3
DesignerAssemblies
 90
     1024
280
     0
281
     0
  0
CLASS
  1
AMCONTEXTMGR
  2
AcAmContextMgr
  3
DesignerAssemblies
 90
     1024
280
     0
281
     0
  0
CLASS
  1
ACAMCONTEXTMODELER
  2
AcAmContextModeler
  3
DesignerAssemblies
 90
     1024
280
     0
281
     0
  0
CLASS
  1
ACMDATADICTIONARY
  2
AcmDataDictionary
  3
"AcmSymBB|Product Description: AutoCAD Mechanical|Company: Autodesk, Inc."
 90
     1024
280
     0
281
     0
  0
CLASS
  1
ACAMGRCOMPDEFSET
  2
AcAmGrCompDefSet
  3
DesignerAssemblies
 90
     1024
280
     0
281
     0
  0
CLASS
  1
AMDTBROWSERDBTAB
  2
AmdtBrowserDbTab
  3
McadcomServices
 90
     1024
280
     0
281
     0
  0
CLASS
  1
CBROWSERAPPOBJECT
  2
CBrowserAppObject
  3
McadcomServices
 90
     1024
280
     0
281
     0
  0
CLASS
  1
DM_PLACEHOLDER
  2
AcDmSelsetPlaceholder
  3
AcMechDwgViewMgmt
 90
     1024
280
     0
281
     0
  0
CLASS
  1
EXACXREFPANELOBJECT
  2
ExAcXREFPanelObject
  3
EXAC_ESW
 90
     1025
280
     0
281
     0
  0
CLASS
  1
NPOCOLLECTION
  2
AcDbImpNonPersistentObjectsCollection
  3
ObjectDBX Classes
 90
     1153
280
     0
281
     0
  0
CLASS
  1
ACMSTANDARDANSI
  2
AcmStandardANSI
  3
"Amdt_StdImp|Product Description: AutoCAD Mechanical|Company: Autodesk, Inc."
 90
     1024
280
     0
281
     0
  0
CLASS
  1
ACMSURFSTANDARDANSI
  2
AcmSurfTextStdANSI
  3
"Amdt_StdImp|Product Description: AutoCAD Mechanical|Company: Autodesk, Inc."
 90
     1024
280
     0
281
     0
  0
CLASS
  1
ACMFCFSTANDARDANSI
  2
AcmFCFStdANSI
  3
"Amdt_StdImp|Product Description: AutoCAD Mechanical|Company: Autodesk, Inc."
 90
     1024
280
     0
281
     0
  0
CLASS
  1
ACMWELDSTANDARDANSI
  2
AcmWeldingStdANSI
  3
"Amdt_StdImp|Product Description: AutoCAD Mechanical|Company: Autodesk, Inc."
 90
     1024
280
     0
281
     0
  0
CLASS
  1
ACMIDSTANDARDANSI
  2
AcmIdStdANSI
  3
"Amdt_StdImp|Product Description: AutoCAD Mechanical|Company: Autodesk, Inc."
 90
     1024
280
     0
281
     0
  0
CLASS
  1
ACMDATUMSTANDARDANSI
  2
AcmDatumStdANSI
  3
"Amdt_StdImp|Product Description: AutoCAD Mechanical|Company: Autodesk, Inc."
 90
     1024
280
     0
281
     0
  0
CLASS
  1
ACMBOMSTANDARDANSI
  2
AcmBOMStdANSI
  3
"Amdt_StdImp|Product Description: AutoCAD Mechanical|Company: Autodesk, Inc."
 90
     1024
280
     0
281
     0
  0
CLASS
  1
ACMDETAILSTANDARDANSI
  2
AmdtDetailSymStdANSI
  3
"Amdt_StdImp|Product Description: AutoCAD Mechanical|Company: Autodesk, Inc."
 90
     1024
280
     0
281
     0
  0
CLASS
  1
ACMSECTIONSTANDARDANSI
  2
AmdtSectionSymStdANSI
  3
"Amdt_StdImp|Product Description: AutoCAD Mechanical|Company: Autodesk, Inc."
 90
     1024
280
     0
281
     0
  0
CLASS
  1
ACMCENTERLINESTANDARDANSI
  2
AmdtCenterLineStdANSI
  3
"Amdt_StdImp|Product Description: AutoCAD Mechanical|Company: Autodesk, Inc."
 90
     1024
280
     0
281
     0
  0
CLASS
  1
ACMTHREADLINESTANDARDANSI
  2
AmdtThreadLineStdANSI
  3
"Amdt_StdImp|Product Description: AutoCAD Mechanical|Company: Autodesk, Inc."
 90
     1024
280
     0
281
     0
  0
CLASS
  1
ACMNOTESTANDARDANSI
  2
AmdtNoteStdANSI
  3
"Amdt_StdImp|Product Description: AutoCAD Mechanical|Company: Autodesk, Inc."
 90
     1024
280
     0
281
     0
  0
CLASS
  1
ACMTAPERSTANDARDANSI
  2
AcmTaperStdANSI
  3
"Amdt_StdImp|Product Description: AutoCAD Mechanical|Company: Autodesk, Inc."
 90
     1024
280
     0
281
     0
  0
CLASS
  1
ACMANOOTATIONVIEWSTANDARDANSI
  2
AmdtAnViewStdANSI
  3
"Amdt_StdImp|Product Description: AutoCAD Mechanical|Company: Autodesk, Inc."
 90
     1024
280
     0
281
     0
  0
CLASS
  1
ACAMGLAYSTD
  2
AcAmgLayStd
  3
"AmgLay|Product Description: AutoCAD Mechanical|Company: Autodesk, Inc."
 90
     1024
280
     0
281
     0
  0
CLASS
  1
ACAMGDIMSTD
  2
AcAmgDimStd
  3
"AmgDim|Product Description: AutoCAD Mechanical|Company: Autodesk, Inc."
 90
     1024
280
     0
281
     0
  0
CLASS
  1
AMGOBJPROPCFG
  2
AmgObjPropCfg
  3
"AmgLay|Product Description: AutoCAD Mechanical|Company: Autodesk, Inc."
 90
     1025
280
     0
281
     0
  0
CLASS
  1
ACAMGHOLECHARTSTDANSI
  2
AcAmgHoleChartStdANSI
  3
AmgDim|Product Description: AutoCAD Mechanical|Company: Autodesk, Inc.
 90
     1024
280
     0
281
     0
  0
CLASS
  1
ACAMGTITLESTD
  2
AcAmgTitleStd
  3
"AmgTitle|Product Description: AutoCAD Mechanical|Company: Autodesk, Inc."
 90
     4095
280
     0
281
     0
  0
CLASS
  1
AMDTNOTETEMPLATEDB
  2
AmdtNoteTemplateDB
  3
AcmSymBB|Product Description: AutoCAD Mechanical|Company: Autodesk, Inc.
 90
     1024
280
     0
281
     0
  0
CLASS
  1
ACAMGFILTERDAT
  2
AcAmgFilterDat
  3
"AcadM|Product Description: AutoCAD Mechanical|Company: Autodesk, Inc."
 90
     1024
280
     0
281
     0
  0
CLASS
  1
ACDBPLACEHOLDER
  2
AcDbPlaceHolder
  3
ObjectDBX Classes
 90
        0
280
     0
281
     0
  0
CLASS
  1
LAYOUT
  2
AcDbLayout
  3
ObjectDBX Classes
 90
        0
280
     0
281
     0
  0
ENDSEC
  0
SECTION
  2
TABLES
  0
TABLE
  2
VPORT
  5
24A
330
0
100
AcDbSymbolTable
 70
     1
  0
VPORT
  5
26B
330
24A
100
AcDbSymbolTableRecord
100
AcDbViewportTableRecord
  2
*Active
 70
     0
 10
0.0
 20
0.0
 11
1.0
 21
1.0
 12
10.41009901404129
 22
1.955665195785201
 13
0.0
 23
0.0
 14
10.0
 24
10.0
 15
10.0
 25
10.0
 16
0.0
 26
0.0
 36
1.0
 17
0.0
 27
0.0
 37
0.0
 40
248.7692703481536
 41
1.492489270386266
 42
1.0
 43
0.0
 44
0.0
 50
0.0
 51
0.0000000000007958
 71
     0
 72
   100
 73
     1
 74
     3
 75
     0
 76
     0
 77
     0
 78
     1
281
     0
 65
     0
110
0.0
120
0.0
130
0.0
111
1.0
121
0.0
131
0.0
112
0.0
122
1.0
132
0.0
 79
     0
146
0.0
  0
ENDTAB
  0
TABLE
  2
LTYPE
  5
247
330
0
100
AcDbSymbolTable
 70
    36
  0
LTYPE
  5
256
330
247
100
AcDbSymbolTableRecord
100
AcDbLinetypeTableRecord
  2
ByBlock
 70
     0
  3

 72
    65
 73
     0
 40
0.0
  0
LTYPE
  5
257
330
247
100
AcDbSymbolTableRecord
100
AcDbLinetypeTableRecord
  2
ByLayer
 70
     0
  3

 72
    65
 73
     0
 40
0.0
  0
LTYPE
  5
258
330
247
100
AcDbSymbolTableRecord
100
AcDbLinetypeTableRecord
  2
Continuous
 70
     0
  3
Solid line
 72
    65
 73
     0
 40
0.0
  0
LTYPE
  5
273
330
247
100
AcDbSymbolTableRecord
100
AcDbLinetypeTableRecord
  2
CENTER
 70
     0
  3
Center ____ _ ____ _ ____ _ ____ _ ____ _ ____
 72
    65
 73
     4
 40
2.0
 49
1.25
 74
     0
 49
-0.25
 74
     0
 49
0.25
 74
     0
 49
-0.25
 74
     0
  0
LTYPE
  5
274
330
247
100
AcDbSymbolTableRecord
100
AcDbLinetypeTableRecord
  2
DASHDOT
 70
     0
  3
Dashdot __ . __ . __ . __ . __ . __ . __ . __
 72
    65
 73
     4
 40
1.0
 49
0.5
 74
     0
 49
-0.25
 74
     0
 49
0.0
 74
     0
 49
-0.25
 74
     0
  0
LTYPE
  5
275
330
247
100
AcDbSymbolTableRecord
100
AcDbLinetypeTableRecord
  2
DASHED
 70
     0
  3
Dashed __ __ __ __ __ __ __ __ __ __ __ __ __ _
 72
    65
 73
     2
 40
0.75
 49
0.5
 74
     0
 49
-0.25
 74
     0
  0
LTYPE
  5
276
330
247
100
AcDbSymbolTableRecord
100
AcDbLinetypeTableRecord
  2
HIDDEN
 70
     0
  3
Hidden __ __ __ __ __ __ __ __ __ __ __ __ __ __
 72
    65
 73
     2
 40
0.375
 49
0.25
 74
     0
 49
-0.125
 74
     0
  0
LTYPE
  5
277
330
247
100
AcDbSymbolTableRecord
100
AcDbLinetypeTableRecord
  2
HIDDEN2
 70
     0
  3
Hidden2 _ _ _ _ _ _ _ _ _ _ _ _ _ _ _ _ _
 72
    65
 73
     2
 40
0.1875
 49
0.125
 74
     0
 49
-0.0625
 74
     0
  0
LTYPE
  5
278
330
247
100
AcDbSymbolTableRecord
100
AcDbLinetypeTableRecord
  2
BORDER
 70
     0
  3
Border __ __ . __ __ . __ __ . __ __ . __ __ .
 72
    65
 73
     6
 40
1.75
 49
0.5
 74
     0
 49
-0.25
 74
     0
 49
0.5
 74
     0
 49
-0.25
 74
     0
 49
0.0
 74
     0
 49
-0.25
 74
     0
  0
LTYPE
  5
279
330
247
100
AcDbSymbolTableRecord
100
AcDbLinetypeTableRecord
  2
BORDER2
 70
     0
  3
Border2 __.__.__.__.__.__.__.__.__.__.__.
 72
    65
 73
     6
 40
0.875
 49
0.25
 74
     0
 49
-0.125
 74
     0
 49
0.25
 74
     0
 49
-0.125
 74
     0
 49
0.0
 74
     0
 49
-0.125
 74
     0
  0
LTYPE
  5
27A
330
247
100
AcDbSymbolTableRecord
100
AcDbLinetypeTableRecord
  2
BORDERX2
 70
     0
  3
Borderx2  ____  ____  .  ____  ____  .  ___
 72
    65
 73
     6
 40
3.5
 49
1.0
 74
     0
 49
-0.5
 74
     0
 49
1.0
 74
     0
 49
-0.5
 74
     0
 49
0.0
 74
     0
 49
-0.5
 74
     0
  0
LTYPE
  5
27B
330
247
100
AcDbSymbolTableRecord
100
AcDbLinetypeTableRecord
  2
CENTER2
 70
     0
  3
Center2  ___ _ ___ _ ___ _ ___ _ ___ _ ___
 72
    65
 73
     4
 40
1.125
 49
0.75
 74
     0
 49
-0.125
 74
     0
 49
0.125
 74
     0
 49
-0.125
 74
     0
  0
LTYPE
  5
27C
330
247
100
AcDbSymbolTableRecord
100
AcDbLinetypeTableRecord
  2
CENTERX2
 70
     0
  3
Centerx2  ________  __  ________  __  _____
 72
    65
 73
     4
 40
4.0
 49
2.5
 74
     0
 49
-0.5
 74
     0
 49
0.5
 74
     0
 49
-0.5
 74
     0
  0
LTYPE
  5
27D
330
247
100
AcDbSymbolTableRecord
100
AcDbLinetypeTableRecord
  2
DASHDOT2
 70
     0
  3
Dashdot2  _._._._._._._._._._._._._._._.
 72
    65
 73
     4
 40
0.5
 49
0.25
 74
     0
 49
-0.125
 74
     0
 49
0.0
 74
     0
 49
-0.125
 74
     0
  0
LTYPE
  5
27E
330
247
100
AcDbSymbolTableRecord
100
AcDbLinetypeTableRecord
  2
DASHDOTX2
 70
     0
  3
Dashdotx2 ____  .  ____  .  ____  .  ___
 72
    65
 73
     4
 40
2.0
 49
1.0
 74
     0
 49
-0.5
 74
     0
 49
0.0
 74
     0
 49
-0.5
 74
     0
  0
LTYPE
  5
27F
330
247
100
AcDbSymbolTableRecord
100
AcDbLinetypeTableRecord
  2
DASHED2
 70
     0
  3
Dashed2 _ _ _ _ _ _ _ _ _ _ _ _ _ _ _ _ _
 72
    65
 73
     2
 40
0.375
 49
0.25
 74
     0
 49
-0.125
 74
     0
  0
LTYPE
  5
280
330
247
100
AcDbSymbolTableRecord
100
AcDbLinetypeTableRecord
  2
DASHEDX2
 70
     0
  3
Dashedx2 ____  ____  ____  ____  ____  ___
 72
    65
 73
     2
 40
1.5
 49
1.0
 74
     0
 49
-0.5
 74
     0
  0
LTYPE
  5
281
330
247
100
AcDbSymbolTableRecord
100
AcDbLinetypeTableRecord
  2
DIVIDE
 70
     0
  3
Divide ____ . . ____ . . ____ . . ____ . . ____
 72
    65
 73
     6
 40
1.25
 49
0.5
 74
     0
 49
-0.25
 74
     0
 49
0.0
 74
     0
 49
-0.25
 74
     0
 49
0.0
 74
     0
 49
-0.25
 74
     0
  0
LTYPE
  5
282
330
247
100
AcDbSymbolTableRecord
100
AcDbLinetypeTableRecord
  2
DIVIDE2
 70
     0
  3
Divide2 __..__..__..__..__..__..__..__.._
 72
    65
 73
     6
 40
0.625
 49
0.25
 74
     0
 49
-0.125
 74
     0
 49
0.0
 74
     0
 49
-0.125
 74
     0
 49
0.0
 74
     0
 49
-0.125
 74
     0
  0
LTYPE
  5
283
330
247
100
AcDbSymbolTableRecord
100
AcDbLinetypeTableRecord
  2
DIVIDEX2
 70
     0
  3
Dividex2 ________  .  .  ________  .  .  _
 72
    65
 73
     6
 40
2.5
 49
1.0
 74
     0
 49
-0.5
 74
     0
 49
0.0
 74
     0
 49
-0.5
 74
     0
 49
0.0
 74
     0
 49
-0.5
 74
     0
  0
LTYPE
  5
284
330
247
100
AcDbSymbolTableRecord
100
AcDbLinetypeTableRecord
  2
DOT
 70
     0
  3
Dot . . . . . . . . . . . . . . . . . . . . . . . .
 72
    65
 73
     2
 40
0.25
 49
0.0
 74
     0
 49
-0.25
 74
     0
  0
LTYPE
  5
285
330
247
100
AcDbSymbolTableRecord
100
AcDbLinetypeTableRecord
  2
DOT2
 70
     0
  3
Dot2 ........................................
 72
    65
 73
     2
 40
0.125
 49
0.0
 74
     0
 49
-0.125
 74
     0
  0
LTYPE
  5
286
330
247
100
AcDbSymbolTableRecord
100
AcDbLinetypeTableRecord
  2
DOTX2
 70
     0
  3
Dotx2 .  .  .  .  .  .  .  .  .  .  .  .  .  .
 72
    65
 73
     2
 40
0.5
 49
0.0
 74
     0
 49
-0.5
 74
     0
  0
LTYPE
  5
287
330
247
100
AcDbSymbolTableRecord
100
AcDbLinetypeTableRecord
  2
HIDDENX2
 70
     0
  3
Hiddenx2 ____ ____ ____ ____ ____ ____ ____
 72
    65
 73
     2
 40
0.75
 49
0.5
 74
     0
 49
-0.25
 74
     0
  0
LTYPE
  5
288
330
247
100
AcDbSymbolTableRecord
100
AcDbLinetypeTableRecord
  2
PHANTOM
 70
     0
  3
Phantom ______  __  __  ______  __  __  ______
 72
    65
 73
     6
 40
2.5
 49
1.25
 74
     0
 49
-0.25
 74
     0
 49
0.25
 74
     0
 49
-0.25
 74
     0
 49
0.25
 74
     0
 49
-0.25
 74
     0
  0
LTYPE
  5
289
330
247
100
AcDbSymbolTableRecord
100
AcDbLinetypeTableRecord
  2
PHANTOM2
 70
     0
  3
Phantom2 ___ _ _ ___ _ _ ___ _ _ ___ _ _
 72
    65
 73
     6
 40
1.25
 49
0.625
 74
     0
 49
-0.125
 74
     0
 49
0.125
 74
     0
 49
-0.125
 74
     0
 49
0.125
 74
     0
 49
-0.125
 74
     0
  0
LTYPE
  5
28A
330
247
100
AcDbSymbolTableRecord
100
AcDbLinetypeTableRecord
  2
PHANTOMX2
 70
     0
  3
Phantomx2 ____________    ____    ____   _
 72
    65
 73
     6
 40
5.0
 49
2.5
 74
     0
 49
-0.5
 74
     0
 49
0.5
 74
     0
 49
-0.5
 74
     0
 49
0.5
 74
     0
 49
-0.5
 74
     0
  0
LTYPE
  5
F10A67
330
247
100
AcDbSymbolTableRecord
100
AcDbLinetypeTableRecord
  2
AM_ISO02W050
 70
     0
  3
__ __ __ __ __ __ __ __ __ __ __ __ __ __ __
 72
    65
 73
     2
 40
7.5
 49
6.0
 74
     0
 49
-1.5
 74
     0
  0
LTYPE
  5
F10A68
330
247
100
AcDbSymbolTableRecord
100
AcDbLinetypeTableRecord
  2
AM_ISO08W050
 70
     0
  3
____ . ____ . ____ . ____ . ____ . ____ . ____
 72
    65
 73
     4
 40
18.0
 49
12.0
 74
     0
 49
-1.5
 74
     0
 49
3.0
 74
     0
 49
-1.5
 74
     0
  0
LTYPE
  5
F10A69
330
247
100
AcDbSymbolTableRecord
100
AcDbLinetypeTableRecord
  2
AM_ISO09W050
 70
     0
  3
_____ . . _____ . . _____ . . ____ .. ____
 72
    65
 73
     6
 40
22.5
 49
12.0
 74
     0
 49
-1.5
 74
     0
 49
3.0
 74
     0
 49
-1.5
 74
     0
 49
3.0
 74
     0
 49
-1.5
 74
     0
  0
LTYPE
  5
F10A6A
330
247
100
AcDbSymbolTableRecord
100
AcDbLinetypeTableRecord
  2
Amconstr
 70
     0
  3
_______________________
 72
    65
 73
     2
 40
9999.0
 49
9999.0
 74
     0
 49
0.0
 74
     0
  0
LTYPE
  5
F10A6B
330
247
100
AcDbSymbolTableRecord
100
AcDbLinetypeTableRecord
  2
AM_ISO08W050x2
 70
     0
  3
__ . __ . __ . __ . __ . __
 72
    65
 73
     4
 40
9.0
 49
6.0
 74
     0
 49
-0.75
 74
     0
 49
1.5
 74
     0
 49
-0.75
 74
     0
  0
LTYPE
  5
F10A6C
330
247
100
AcDbSymbolTableRecord
100
AcDbLinetypeTableRecord
  2
AM_ISO02W050x2
 70
     0
  3
 _ _ _ _ _ _ _ _ _ _ _ _
 72
    65
 73
     2
 40
3.75
 49
3.0
 74
     0
 49
-0.75
 74
     0
  0
LTYPE
  5
F10A6F
330
247
100
AcDbSymbolTableRecord
100
AcDbLinetypeTableRecord
  2
Amzigzag
 70
     0
  3
/\/-/\/-/\/-/\/-/\/-/\/
 72
    65
 73
     2
 40
11.0001
 49
0.0001
 74
     4
 75
   136
340
F10A6E
 46
0.04
 50
0.0
 44
0.0
 45
0.0
 49
-11.0
 74
     0
  0
LTYPE
  5
F10A70
330
247
100
AcDbSymbolTableRecord
100
AcDbLinetypeTableRecord
  2
Amzigzag2
 70
     0
  3
/\/-/\/-/\/-/\/-/\/-/\/
 72
    65
 73
     2
 40
0.4401
 49
0.0001
 74
     4
 75
   136
340
F10A6E
 46
0.0016
 50
0.0
 44
0.0
 45
0.0
 49
-0.4400000000000001
 74
     0
  0
LTYPE
  5
F10A7E
330
247
100
AcDbSymbolTableRecord
100
AcDbLinetypeTableRecord
  2
ACANSTGB
 70
     0
  3
__ . . __ . .
 72
    65
 73
     6
 40
0.35433070866
 49
0.15748031496
 74
     0
 49
-0.03937007874
 74
     0
 49
0.03937007874
 74
     0
 49
-0.03937007874
 74
     0
 49
0.03937007874
 74
     0
 49
-0.03937007874
 74
     0
  0
LTYPE
  5
F10A7F
330
247
100
AcDbSymbolTableRecord
100
AcDbLinetypeTableRecord
  2
ACANSTGL
 70
     0
  3
_ _ _ _ _
 72
    65
 73
     2
 40
0.11811023622
 49
0.07874015748
 74
     0
 49
-0.03937007874
 74
     0
  0
ENDTAB
  0
TABLE
  2
LAYER
  5
244
330
0
100
AcDbSymbolTable
 70
     6
  0
LAYER
  5
252
102
{ACAD_XDICTIONARY
360
F10B2D
102
}
330
244
100
AcDbSymbolTableRecord
100
AcDbLayerTableRecord
  2
0
 70
     0
 62
     7
  6
Continuous
370
     0
390
19
  0
LAYER
  5
23F
102
{ACAD_XDICTIONARY
360
F10B2F
102
}
330
244
100
AcDbSymbolTableRecord
100
AcDbLayerTableRecord
  2
Bemassung
 70
     0
 62
     7
  6
Continuous
370
     0
390
19
  0
LAYER
  5
240
102
{ACAD_XDICTIONARY
360
F10B31
102
}
330
244
100
AcDbSymbolTableRecord
100
AcDbLayerTableRecord
  2
Rahmen
 70
     0
 62
     7
  6
Continuous
370
     0
390
19
  0
LAYER
  5
241
102
{ACAD_XDICTIONARY
360
F10B33
102
}
330
244
100
AcDbSymbolTableRecord
100
AcDbLayerTableRecord
  2
Geo
 70
     0
 62
     7
  6
Continuous
370
     0
390
19
  0
LAYER
  5
33A
330
244
100
AcDbSymbolTableRecord
100
AcDbLayerTableRecord
  2
Defpoints
 70
     0
 62
     7
  6
Continuous
290
     0
370
    -3
390
19
  0
LAYER
  5
57E
102
{ACAD_XDICTIONARY
360
F10B35
102
}
330
244
100
AcDbSymbolTableRecord
100
AcDbLayerTableRecord
  2
Text
 70
     0
 62
     7
  6
Continuous
370
     0
390
19
1001
AcAecLayerStandard
1000

1000

  0
ENDTAB
  0
TABLE
  2
STYLE
  5
245
330
0
100
AcDbSymbolTable
 70
     5
  0
STYLE
  5
253
330
245
100
AcDbSymbolTableRecord
100
AcDbTextStyleTableRecord
  2
Standard
 70
     0
 40
0.0
 41
1.0
 50
0.0
 71
     0
 42
0.2
  3
Arial
  4

1001
ACAD
1000
Arial
1071
        0
  0
STYLE
  5
132
330
245
100
AcDbSymbolTableRecord
100
AcDbTextStyleTableRecord
  2
Beschriftung
 70
     0
 40
0.0
 41
1.0
 50
0.0
 71
     0
 42
0.2
  3
Arial
  4

1001
ACAD
1000
Arial
1071
        0
1001
AcadAnnotative
1000
AnnotativeData
1070
     1
1070
     1
  0
STYLE
  5
F10A6E
330
245
100
AcDbSymbolTableRecord
100
AcDbTextStyleTableRecord
  2

 70
     1
 40
0.0
 41
1.0
 50
0.0
 71
     0
 42
0.2
  3
genltshp.shx
  4

  0
STYLE
  5
F10A7C
330
245
100
AcDbSymbolTableRecord
100
AcDbTextStyleTableRecord
  2
ACANSTS
 70
     0
 40
1.0
 41
1.0
 50
0.0
 71
     0
 42
0.2
  3
romans.shx
  4

  0
STYLE
  5
F10A7D
330
245
100
AcDbSymbolTableRecord
100
AcDbTextStyleTableRecord
  2
ACANSGDT
 70
     0
 40
0.0
 41
1.0
 50
0.0
 71
     0
 42
0.2
  3
amgdt.shx
  4

  0
ENDTAB
  0
TABLE
  2
VIEW
  5
248
330
0
100
AcDbSymbolTable
 70
     0
  0
ENDTAB
  0
TABLE
  2
UCS
  5
249
330
0
100
AcDbSymbolTable
 70
     0
  0
ENDTAB
  0
TABLE
  2
APPID
  5
24B
330
0
100
AcDbSymbolTable
 70
    28
  0
APPID
  5
254
330
24B
100
AcDbSymbolTableRecord
100
AcDbRegAppTableRecord
  2
ACAD
 70
     0
  0
APPID
  5
26C
330
24B
100
AcDbSymbolTableRecord
100
AcDbRegAppTableRecord
  2
VD_INVISIBLE_NOT_FOR_READ
 70
     0
  0
APPID
  5
26D
330
24B
100
AcDbSymbolTableRecord
100
AcDbRegAppTableRecord
  2
VD_TEMPHATCH
 70
     0
  0
APPID
  5
26E
330
24B
100
AcDbSymbolTableRecord
100
AcDbRegAppTableRecord
  2
VDEXTRAPARAM
 70
     0
  0
APPID
  5
26F
330
24B
100
AcDbSymbolTableRecord
100
AcDbRegAppTableRecord
  2
PE_URL
 70
     0
  0
APPID
  5
270
330
24B
100
AcDbSymbolTableRecord
100
AcDbRegAppTableRecord
  2
VD_UNKNOWN
 70
     0
  0
APPID
  5
28F
330
24B
100
AcDbSymbolTableRecord
100
AcDbRegAppTableRecord
  2
AcadAnnotative
 70
     0
  0
APPID
  5
290
330
24B
100
AcDbSymbolTableRecord
100
AcDbRegAppTableRecord
  2
ACAD_DSTYLE_DIMJAG
 70
     0
  0
APPID
  5
291
330
24B
100
AcDbSymbolTableRecord
100
AcDbRegAppTableRecord
  2
ACAD_DSTYLE_DIMTALN
 70
     0
  0
APPID
  5
293
330
24B
100
AcDbSymbolTableRecord
100
AcDbRegAppTableRecord
  2
ACAD_PSEXT
 70
     0
  0
APPID
  5
42A
330
24B
100
AcDbSymbolTableRecord
100
AcDbRegAppTableRecord
  2
ACAD_MLEADERVER
 70
     0
  0
APPID
  5
532
330
24B
100
AcDbSymbolTableRecord
100
AcDbRegAppTableRecord
  2
ACAD_EXEMPT_FROM_CAD_STANDARDS
 70
     0
  0
APPID
  5
57F
330
24B
100
AcDbSymbolTableRecord
100
AcDbRegAppTableRecord
  2
AcAecLayerStandard
 70
     0
  0
APPID
  5
F10A01
330
24B
100
AcDbSymbolTableRecord
100
AcDbRegAppTableRecord
  2
MCAD_NO_VIS
 70
     0
  0
APPID
  5
F10A02
330
24B
100
AcDbSymbolTableRecord
100
AcDbRegAppTableRecord
  2
ACAD_TEMP_GRAPHIC
 70
     0
  0
APPID
  5
F10A2B
330
24B
100
AcDbSymbolTableRecord
100
AcDbRegAppTableRecord
  2
AD_DRAW
 70
     0
  0
APPID
  5
F10A2E
330
24B
100
AcDbSymbolTableRecord
100
AcDbRegAppTableRecord
  2
ACATTRIBSERVICES
 70
     0
  0
APPID
  5
F10A47
330
24B
100
AcDbSymbolTableRecord
100
AcDbRegAppTableRecord
  2
DESIGNERASSEMBLIES
 70
     0
  0
APPID
  5
F10A4C
330
24B
100
AcDbSymbolTableRecord
100
AcDbRegAppTableRecord
  2
ACADM_DIM_EDIT
 70
     0
  0
APPID
  5
F10A4D
330
24B
100
AcDbSymbolTableRecord
100
AcDbRegAppTableRecord
  2
AMDT_DM_ADJ
 70
     0
  0
APPID
  5
F10A65
330
24B
100
AcDbSymbolTableRecord
100
AcDbRegAppTableRecord
  2
ACAD_DSTYLE_DIMBREAK
 70
     0
  0
APPID
  5
F10A86
330
24B
100
AcDbSymbolTableRecord
100
AcDbRegAppTableRecord
  2
GENIUS_GENSCREG_15
 70
     0
  0
APPID
  5
F10A87
330
24B
100
AcDbSymbolTableRecord
100
AcDbRegAppTableRecord
  2
GENIUS_GENODEF_13
 70
     0
  0
APPID
  5
F10A88
330
24B
100
AcDbSymbolTableRecord
100
AcDbRegAppTableRecord
  2
GENIUS_GENOBJ-N-SDF_13
 70
     0
  0
APPID
  5
F10B84
330
24B
100
AcDbSymbolTableRecord
100
AcDbRegAppTableRecord
  2
ACAD_DSTYLE_DIMARC_LENGTH_SYMBOL
 70
     0
  0
APPID
  5
F10B85
330
24B
100
AcDbSymbolTableRecord
100
AcDbRegAppTableRecord
  2
ACAD_DSTYLE_DIM_LINETYPE
 70
     0
  0
APPID
  5
F10B86
330
24B
100
AcDbSymbolTableRecord
100
AcDbRegAppTableRecord
  2
ACAD_DSTYLE_DIM_EXT1_LINETYPE
 70
     0
  0
APPID
  5
F10B87
330
24B
100
AcDbSymbolTableRecord
100
AcDbRegAppTableRecord
  2
ACAD_DSTYLE_DIM_EXT2_LINETYPE
 70
     0
  0
ENDTAB
  0
TABLE
  2
DIMSTYLE
  5
24C
330
0
100
AcDbSymbolTable
 70
     9
100
AcDbDimStyleTable
 71
     2
340
27
340
269
  0
DIMSTYLE
105
269
330
24C
100
AcDbSymbolTableRecord
100
AcDbDimStyleTableRecord
  2
Standard
 70
     0
172
     1
174
     1
288
     1
340
253
342
23C
  0
DIMSTYLE
105
137
330
24C
100
AcDbSymbolTableRecord
100
AcDbDimStyleTableRecord
  2
Beschriftung
 70
     0
 41
2.5
 42
0.625
 44
1.25
 73
     0
 74
     0
 77
     1
140
2.5
147
0.625
172
     1
174
     1
271
     2
288
     1
340
253
342
23C
1001
AcadAnnotative
1000
AnnotativeData
1070
     1
1070
     1
1001
ACAD_DSTYLE_DIMJAG
1070
   388
1040
1.5
1001
ACAD_DSTYLE_DIMTALN
1070
   392
1070
     0
  0
DIMSTYLE
105
27
102
{ACAD_REACTORS
330
F1000D
330
F10017
330
F10021
330
F10008
330
F10012
102
}
330
24C
100
AcDbSymbolTableRecord
100
AcDbDimStyleTableRecord
  2
BEM-ISBE
 70
     0
 41
2.5
 42
0.625
 44
1.25
 48
0.000000001
 71
     1
 73
     0
 74
     0
 77
     1
140
2.5
146
0.5
147
0.625
171
     3
172
     1
179
     3
271
     3
272
     3
274
     3
340
253
342
23C
1001
ACAD_DSTYLE_DIMJAG
1070
   388
1040
1.5
1001
ACAD_DSTYLE_DIMTALN
1070
   392
1070
     1
  0
DIMSTYLE
105
F10A64
102
{ACAD_REACTORS
330
F10A54
102
}
330
24C
100
AcDbSymbolTableRecord
100
AcDbDimStyleTableRecord
  2
AM_ANSI
 70
     0
  4
mm
 41
0.12
 42
0.05
 43
0.5
 44
0.1
 47
0.1
 48
0.1
 78
     7
 79
     2
140
0.12
141
0.0
146
0.71
147
0.06
176
   256
177
   256
178
     2
274
     4
284
     7
340
253
371
    -1
372
    -1
1001
ACAD_DSTYLE_DIMJAG
1070
   388
1040
1.5
1001
ACAD_DSTYLE_DIMBREAK
1070
   391
1040
0.125
1001
ACAD_DSTYLE_DIMARC_LENGTH_SYMBOL
1070
   379
1070
     1
1001
ACAD_DSTYLE_DIM_LINETYPE
1070
   380
1005
256
1001
ACAD_DSTYLE_DIM_EXT1_LINETYPE
1070
   381
1005
256
1001
ACAD_DSTYLE_DIM_EXT2_LINETYPE
1070
   382
1005
256
  0
DIMSTYLE
105
F10A71
330
24C
100
AcDbSymbolTableRecord
100
AcDbDimStyleTableRecord
  2
AM_ANSI$3
 70
     0
  4
mm
 41
0.12
 42
0.05
 43
0.5
 44
0.1
 47
0.1
 48
0.1
 78
     7
 79
     2
140
0.12
141
0.0
146
0.71
147
0.06
176
   256
177
   256
178
     2
274
     4
284
     7
288
     1
289
     0
340
253
371
    -1
372
    -1
1001
ACAD_DSTYLE_DIMBREAK
1070
   391
1040
0.125
1001
ACAD_DSTYLE_DIMJAG
1070
   388
1040
1.5
1001
ACAD_DSTYLE_DIMARC_LENGTH_SYMBOL
1070
   379
1070
     1
1001
ACAD_DSTYLE_DIM_LINETYPE
1070
   380
1005
256
1001
ACAD_DSTYLE_DIM_EXT1_LINETYPE
1070
   381
1005
256
1001
ACAD_DSTYLE_DIM_EXT2_LINETYPE
1070
   382
1005
256
  0
DIMSTYLE
105
F10A72
330
24C
100
AcDbSymbolTableRecord
100
AcDbDimStyleTableRecord
  2
AM_ANSI$4
 70
     0
  4
mm
 41
0.12
 42
0.05
 43
0.5
 44
0.1
 47
0.1
 48
0.1
 78
     7
 79
     2
140
0.12
141
0.0
146
0.71
147
0.06
176
   256
177
   256
178
     2
274
     4
284
     7
288
     1
289
     0
340
253
371
    -1
372
    -1
1001
ACAD_DSTYLE_DIMBREAK
1070
   391
1040
0.125
1001
ACAD_DSTYLE_DIMJAG
1070
   388
1040
1.5
1001
ACAD_DSTYLE_DIMARC_LENGTH_SYMBOL
1070
   379
1070
     1
1001
ACAD_DSTYLE_DIM_LINETYPE
1070
   380
1005
256
1001
ACAD_DSTYLE_DIM_EXT1_LINETYPE
1070
   381
1005
256
1001
ACAD_DSTYLE_DIM_EXT2_LINETYPE
1070
   382
1005
256
  0
DIMSTYLE
105
F10A73
330
24C
100
AcDbSymbolTableRecord
100
AcDbDimStyleTableRecord
  2
AM_ANSI$7
 70
     0
  4
mm
 41
0.12
 42
0.05
 43
0.5
 44
0.1
 47
0.1
 48
0.1
 78
     7
 79
     2
140
0.12
141
0.0
146
0.71
147
0.06
176
   256
177
   256
178
     2
274
     4
284
     7
340
253
371
    -1
372
    -1
1001
ACAD_DSTYLE_DIMBREAK
1070
   391
1040
0.125
1001
ACAD_DSTYLE_DIMJAG
1070
   388
1040
1.5
1001
ACAD_DSTYLE_DIMARC_LENGTH_SYMBOL
1070
   379
1070
     1
1001
ACAD_DSTYLE_DIM_LINETYPE
1070
   380
1005
256
1001
ACAD_DSTYLE_DIM_EXT1_LINETYPE
1070
   381
1005
256
1001
ACAD_DSTYLE_DIM_EXT2_LINETYPE
1070
   382
1005
256
  0
DIMSTYLE
105
F10A74
330
24C
100
AcDbSymbolTableRecord
100
AcDbDimStyleTableRecord
  2
AM_ANSI$SF
 70
     0
  4
mm
 41
0.12
 42
0.05
 43
0.5
 44
0.1
 47
0.1
 48
0.1
 75
     1
 76
     1
 78
     7
 79
     2
140
0.12
141
0.0
146
0.71
147
0.06
176
   256
177
   256
178
     2
274
     4
284
     7
340
253
371
    -1
372
    -1
1001
ACAD_DSTYLE_DIMBREAK
1070
   391
1040
0.125
1001
ACAD_DSTYLE_DIMJAG
1070
   388
1040
1.5
1001
ACAD_DSTYLE_DIMARC_LENGTH_SYMBOL
1070
   379
1070
     1
1001
ACAD_DSTYLE_DIM_LINETYPE
1070
   380
1005
256
1001
ACAD_DSTYLE_DIM_EXT1_LINETYPE
1070
   381
1005
256
1001
ACAD_DSTYLE_DIM_EXT2_LINETYPE
1070
   382
1005
256
  0
DIMSTYLE
105
F10A79
330
24C
100
AcDbSymbolTableRecord
100
AcDbDimStyleTableRecord
  2
AM_ANSI$SH
 70
     0
  4
mm
 41
0.12
 42
0.05
 43
0.5
 44
0.1
 47
0.1
 48
0.1
 75
     1
 76
     1
 78
     7
 79
     2
140
0.12
141
0.0
146
0.71
147
0.06
173
     1
176
   256
177
   256
178
     2
274
     4
284
     7
340
253
343
F10A75
371
    -1
372
    -1
1001
ACAD_DSTYLE_DIMBREAK
1070
   391
1040
0.125
1001
ACAD_DSTYLE_DIMJAG
1070
   388
1040
1.5
1001
ACAD_DSTYLE_DIMARC_LENGTH_SYMBOL
1070
   379
1070
     1
1001
ACAD_DSTYLE_DIM_LINETYPE
1070
   380
1005
256
1001
ACAD_DSTYLE_DIM_EXT1_LINETYPE
1070
   381
1005
256
1001
ACAD_DSTYLE_DIM_EXT2_LINETYPE
1070
   382
1005
256
  0
ENDTAB
  0
TABLE
  2
BLOCK_RECORD
  5
243
330
0
100
AcDbSymbolTable
 70
    12
  0
BLOCK_RECORD
  5
261
330
243
100
AcDbSymbolTableRecord
100
AcDbBlockTableRecord
  2
*Model_Space
340
FD0
  0
BLOCK_RECORD
  5
25D
330
243
100
AcDbSymbolTableRecord
100
AcDbBlockTableRecord
  2
*Paper_Space
340
FD1
  0
BLOCK_RECORD
  5
265
330
243
100
AcDbSymbolTableRecord
100
AcDbBlockTableRecord
  2
*Paper_Space0
340
0
  0
BLOCK_RECORD
  5
23C
330
243
100
AcDbSymbolTableRecord
100
AcDbBlockTableRecord
  2
VDDIM_DEFAULT
340
0
102
{BLKREFS
331
F10029
331
F1002A
331
F10047
331
F10048
331
F10B02
331
F10B03
331
F10B0B
331
F10B0C
331
F10B15
331
F10B16
331
F10B1E
331
F10B1F
331
F10B27
331
F10B28
102
}
  0
BLOCK_RECORD
  5
23E
330
243
100
AcDbSymbolTableRecord
100
AcDbBlockTableRecord
  2
VDDIM_NONE
340
0
  0
BLOCK_RECORD
  5
F10002
330
243
100
AcDbSymbolTableRecord
100
AcDbBlockTableRecord
  2
*D3
340
0
  0
BLOCK_RECORD
  5
F1000C
330
243
100
AcDbSymbolTableRecord
100
AcDbBlockTableRecord
  2
*D4
340
0
  0
BLOCK_RECORD
  5
F10016
330
243
100
AcDbSymbolTableRecord
100
AcDbBlockTableRecord
  2
*D5
340
0
  0
BLOCK_RECORD
  5
F1001B
330
243
100
AcDbSymbolTableRecord
100
AcDbBlockTableRecord
  2
*D6
340
0
  0
BLOCK_RECORD
  5
F10020
330
243
100
AcDbSymbolTableRecord
100
AcDbBlockTableRecord
  2
*D7
340
0
  0
BLOCK_RECORD
  5
F10007
330
243
100
AcDbSymbolTableRecord
100
AcDbBlockTableRecord
  2
*D8
340
0
  0
BLOCK_RECORD
  5
F10011
330
243
100
AcDbSymbolTableRecord
100
AcDbBlockTableRecord
  2
*D9
340
0
  0
BLOCK_RECORD
  5
F10A75
330
243
100
AcDbSymbolTableRecord
100
AcDbBlockTableRecord
  2
GENAXEH
340
0
  0
ENDTAB
  0
ENDSEC
  0
SECTION
  2
BLOCKS
  0
BLOCK
  5
262
330
261
100
AcDbEntity
  8
0
100
AcDbBlockBegin
  2
*Model_Space
 70
     0
 10
0.0
 20
0.0
 30
0.0
  3
*Model_Space
  1

  0
ENDBLK
  5
263
330
261
100
AcDbEntity
  8
0
100
AcDbBlockEnd
  0
BLOCK
  5
25E
330
25D
100
AcDbEntity
 67
     1
  8
0
100
AcDbBlockBegin
  2
*Paper_Space
 70
     0
 10
0.0
 20
0.0
 30
0.0
  3
*Paper_Space
  1

  0
ENDBLK
  5
25F
330
25D
100
AcDbEntity
 67
     1
  8
0
100
AcDbBlockEnd
  0
BLOCK
  5
266
330
265
100
AcDbEntity
  8
0
100
AcDbBlockBegin
  2
*Paper_Space0
 70
     0
 10
0.0
 20
0.0
 30
0.0
  3
*Paper_Space0
  1

  0
VIEWPORT
  5
296
102
{ACAD_XDICTIONARY
360
F10B46
102
}
330
265
100
AcDbEntity
  8
0
 60
     1
100
AcDbViewport
 10
0.0
 20
0.0
 30
0.0
 40
10.0
 41
10.0
 69
     0
 12
0.0
 22
0.0
 13
0.0
 23
0.0
 14
1.0
 24
1.0
 15
0.0
 25
0.0
 16
0.0
 26
0.0
 36
1.0
 17
0.0
 27
0.0
 37
0.0
 42
0.0
 43
0.0
 44
0.0
 45
10.0
 50
0.0
 51
0.0000000000007958
 72
   100
 90
   163872
  1

281
     0
 71
     0
 74
     0
110
0.0
120
0.0
130
0.0
111
1.0
121
0.0
131
0.0
112
0.0
122
1.0
132
0.0
 79
     0
146
0.0
1001
VD_INVISIBLE_NOT_FOR_READ
1000
VD_INVISIBLE_NOT_FOR_READ
  0
VIEWPORT
  5
297
102
{ACAD_XDICTIONARY
360
F10B48
102
}
330
265
100
AcDbEntity
  8
0
 60
     1
100
AcDbViewport
 10
0.0
 20
0.0
 30
0.0
 40
10.0
 41
10.0
 69
     0
 12
0.0
 22
0.0
 13
0.0
 23
0.0
 14
1.0
 24
1.0
 15
0.0
 25
0.0
 16
0.0
 26
0.0
 36
1.0
 17
0.0
 27
0.0
 37
0.0
 42
0.0
 43
0.0
 44
0.0
 45
10.0
 50
0.0
 51
0.0000000000007958
 72
   100
 90
   163872
  1

281
     0
 71
     0
 74
     0
110
0.0
120
0.0
130
0.0
111
1.0
121
0.0
131
0.0
112
0.0
122
1.0
132
0.0
 79
     0
146
0.0
1001
VD_INVISIBLE_NOT_FOR_READ
1000
VD_INVISIBLE_NOT_FOR_READ
  0
ENDBLK
  5
267
330
265
100
AcDbEntity
  8
0
100
AcDbBlockEnd
  0
BLOCK
  5
28B
330
23C
100
AcDbEntity
  8
0
100
AcDbBlockBegin
  2
VDDIM_DEFAULT
 70
     0
 10
0.0
 20
0.0
 30
0.0
  3
VDDIM_DEFAULT
  1

  0
LWPOLYLINE
  5
23D
330
23C
100
AcDbEntity
  8
0
  6
Continuous
 62
     0
100
AcDbPolyline
 90
        4
 70
     0
 43
0.0
 10
0.0
 20
0.0
 10
-1.0
 20
-0.1665
 10
-1.0
 20
0.1665
 10
0.0
 20
0.0
1001
VDEXTRAPARAM
1071
        1
1071
        0
1071
        0
1040
1.0
1000

1000

1040
0.0
1040
0.0
  0
HATCH
  5
292
330
23C
100
AcDbEntity
  8
0
  6
Continuous
 62
     0
100
AcDbHatch
 10
0.0
 20
0.0
 30
0.0
210
0.0
220
0.0
230
1.0
  2
SOLID
 70
     1
 71
     0
 91
        1
 92
        2
 72
     0
 73
     1
 93
        3
 10
0.0
 20
0.0
 10
-1.0
 20
-0.1665
 10
-1.0
 20
0.1665
 97
        0
 75
     0
 76
     1
 98
        1
 10
0.0
 20
0.0
1001
VDEXTRAPARAM
1071
        1
1071
        0
1071
        0
1040
1.0
1000

1000

1040
0.0
1040
0.0
1001
VD_TEMPHATCH
1000
VD_TEMPHATCH
  0
ENDBLK
  5
28C
330
23C
100
AcDbEntity
  8
0
100
AcDbBlockEnd
  0
BLOCK
  5
28D
330
23E
100
AcDbEntity
  8
0
100
AcDbBlockBegin
  2
VDDIM_NONE
 70
     0
 10
0.0
 20
0.0
 30
0.0
  3
VDDIM_NONE
  1

  0
ENDBLK
  5
28E
330
23E
100
AcDbEntity
  8
0
100
AcDbBlockEnd
  0
BLOCK
  5
F10025
330
F10002
100
AcDbEntity
  8
0
100
AcDbBlockBegin
  2
*D3
 70
     1
 10
0.0
 20
0.0
 30
0.0
  3
*D3
  1

  0
LINE
  5
F10026
330
F10002
100
AcDbEntity
  8
Bemassung
 62
     0
370
    -2
100
AcDbLine
 10
-87.4612831858408
 20
-6.639380530973399
 30
0.0
 11
-87.4612831858408
 21
69.3606194690266
 31
0.0
  0
LINE
  5
F10027
330
F10002
100
AcDbEntity
  8
Bemassung
 62
     0
370
    -2
100
AcDbLine
 10
-87.3112831858408
 20
37.36061946902661
 30
0.0
 11
-87.3112831858408
 21
54.3606194690266
 31
0.0
  0
LINE
  5
F10028
330
F10002
100
AcDbEntity
  8
Bemassung
 62
     0
370
    -2
100
AcDbLine
 10
-87.4612831858408
 20
52.3606194690266
 30
0.0
 11
-87.3112831858408
 21
52.3606194690266
 31
0.0
  0
INSERT
  5
F10029
330
F10002
100
AcDbEntity
  8
Bemassung
 62
     0
370
    -2
100
AcDbBlockReference
  2
VDDIM_DEFAULT
 10
-87.4612831858408
 20
52.3606194690266
 30
0.0
 41
2.5
 42
2.5
 43
2.5
  0
INSERT
  5
F1002A
330
F10002
100
AcDbEntity
  8
Bemassung
 62
     0
370
    -2
100
AcDbBlockReference
  2
VDDIM_DEFAULT
 10
-87.3112831858408
 20
52.3606194690266
 30
0.0
 41
2.5
 42
2.5
 43
2.5
 50
180.0
  0
MTEXT
  5
F1002B
102
{ACAD_XDICTIONARY
360
F10005
102
}
330
F10002
100
AcDbEntity
  8
Bemassung
 62
     0
100
AcDbMText
 10
-88.00452043639509
 20
51.69395280235989
 30
0.0
 40
2.5
 41
0.0
 71
     8
 72
     1
  1
\A1;0.15 x 45\U+00B0
 73
     1
 44
1.0
1001
ACAD
1000
MTEXTBEGIN
1070
    73
1070
     1
1070
    44
1040
1.0
1070
    74
1070
     0
1000
MTEXTEND
  0
POINT
  5
F1002C
330
F10002
100
AcDbEntity
  8
Bemassung
 62
     0
100
AcDbPoint
 10
-87.4612831858408
 20
-6.639380530973399
 30
0.0
  0
POINT
  5
F1002D
330
F10002
100
AcDbEntity
  8
Bemassung
 62
     0
100
AcDbPoint
 10
-87.3112831858408
 20
37.36061946902661
 30
0.0
  0
ENDBLK
  5
F1002E
330
F10002
100
AcDbEntity
  8
0
100
AcDbBlockEnd
  0
BLOCK
  5
F1002F
330
F1000C
100
AcDbEntity
  8
0
100
AcDbBlockBegin
  2
*D4
 70
     1
 10
0.0
 20
0.0
 30
0.0
  3
*D4
  1

  0
LINE
  5
F10B08
330
F1000C
100
AcDbEntity
  8
Bemassung
 62
     0
370
    -2
100
AcDbLine
 10
-1.57736971791634
 20
7.645532963036011
 30
0.0
 11
-1.577369717916339
 21
18.27053296303601
 31
0.0
  0
LINE
  5
F10B09
330
F1000C
100
AcDbEntity
  8
Bemassung
 62
     0
370
    -2
100
AcDbLine
 10
43.42263028208366
 20
7.145532963036011
 30
0.0
 11
43.42263028208366
 21
18.27053296303601
 31
0.0
  0
LINE
  5
F10B0A
330
F1000C
100
AcDbEntity
  8
Bemassung
 62
     0
370
    -2
100
AcDbLine
 10
0.92263028208366
 20
17.02053296303601
 30
0.0
 11
40.92263028208366
 21
17.02053296303601
 31
0.0
  0
INSERT
  5
F10B0B
330
F1000C
100
AcDbEntity
  8
Bemassung
 62
     0
370
    -2
100
AcDbBlockReference
  2
VDDIM_DEFAULT
 10
-1.577369717916339
 20
17.02053296303601
 30
0.0
 41
2.5
 42
2.5
 43
2.5
 50
180.0
  0
INSERT
  5
F10B0C
330
F1000C
100
AcDbEntity
  8
Bemassung
 62
     0
370
    -2
100
AcDbBlockReference
  2
VDDIM_DEFAULT
 10
43.42263028208366
 20
17.02053296303601
 30
0.0
 41
2.5
 42
2.5
 43
2.5
  0
MTEXT
  5
F10B0D
330
F1000C
100
AcDbEntity
  8
Bemassung
 62
     0
100
AcDbMText
 10
20.92263028208366
 20
17.64553296303601
 30
0.0
 40
2.5
 41
0.0
 71
     8
 72
     1
  1
\A1;45
 73
     1
 44
1.0
1001
ACAD
1000
MTEXTBEGIN
1070
    73
1070
     1
1070
    44
1040
1.0
1070
    74
1070
     0
1000
MTEXTEND
  0
POINT
  5
F10B0E
330
F1000C
100
AcDbEntity
  8
Defpoints
 62
     0
100
AcDbPoint
 10
-1.57736971791634
 20
7.020532963036011
 30
0.0
  0
POINT
  5
F10B0F
330
F1000C
100
AcDbEntity
  8
Defpoints
 62
     0
100
AcDbPoint
 10
43.42263028208366
 20
6.520532963036011
 30
0.0
  0
POINT
  5
F10B10
330
F1000C
100
AcDbEntity
  8
Defpoints
 62
     0
100
AcDbPoint
 10
43.42263028208366
 20
17.02053296303601
 30
0.0
  0
ENDBLK
  5
F10038
330
F1000C
100
AcDbEntity
  8
0
100
AcDbBlockEnd
  0
BLOCK
  5
F10039
330
F10016
100
AcDbEntity
  8
0
100
AcDbBlockBegin
  2
*D5
 70
     1
 10
0.0
 20
0.0
 30
0.0
  3
*D5
  1

  0
LINE
  5
F10B1B
330
F10016
100
AcDbEntity
  8
Bemassung
 62
     0
370
    -2
100
AcDbLine
 10
-22.57736971791634
 20
-5.604467036963988
 30
0.0
 11
-22.57736971791634
 21
-21.22946703696399
 31
0.0
  0
LINE
  5
F10B1C
330
F10016
100
AcDbEntity
  8
Bemassung
 62
     0
370
    -2
100
AcDbLine
 10
-48.57736971791634
 20
2.841106079006308
 30
0.0
 11
-48.57736971791634
 21
-21.22946703696399
 31
0.0
  0
LINE
  5
F10B1D
330
F10016
100
AcDbEntity
  8
Bemassung
 62
     0
370
    -2
100
AcDbLine
 10
-25.07736971791634
 20
-19.97946703696399
 30
0.0
 11
-46.07736971791633
 21
-19.97946703696399
 31
0.0
  0
INSERT
  5
F10B1E
330
F10016
100
AcDbEntity
  8
Bemassung
 62
     0
370
    -2
100
AcDbBlockReference
  2
VDDIM_DEFAULT
 10
-22.57736971791634
 20
-19.97946703696399
 30
0.0
 41
2.5
 42
2.5
 43
2.5
  0
INSERT
  5
F10B1F
330
F10016
100
AcDbEntity
  8
Bemassung
 62
     0
370
    -2
100
AcDbBlockReference
  2
VDDIM_DEFAULT
 10
-48.57736971791634
 20
-19.97946703696399
 30
0.0
 41
2.5
 42
2.5
 43
2.5
 50
180.0
  0
MTEXT
  5
F10B20
330
F10016
100
AcDbEntity
  8
Bemassung
 62
     0
100
AcDbMText
 10
-35.57736971791634
 20
-19.35446703696399
 30
0.0
 40
2.5
 41
0.0
 71
     8
 72
     1
  1
\A1;26
 73
     1
 44
1.0
1001
ACAD
1000
MTEXTBEGIN
1070
    73
1070
     1
1070
    44
1040
1.0
1070
    74
1070
     0
1000
MTEXTEND
  0
POINT
  5
F10B21
330
F10016
100
AcDbEntity
  8
Defpoints
 62
     0
100
AcDbPoint
 10
-22.57736971791634
 20
-4.979467036963988
 30
0.0
  0
POINT
  5
F10B22
330
F10016
100
AcDbEntity
  8
Defpoints
 62
     0
100
AcDbPoint
 10
-48.57736971791634
 20
3.466106079006308
 30
0.0
  0
POINT
  5
F10B23
330
F10016
100
AcDbEntity
  8
Defpoints
 62
     0
100
AcDbPoint
 10
-48.57736971791634
 20
-19.97946703696399
 30
0.0
  0
ENDBLK
  5
F10042
330
F10016
100
AcDbEntity
  8
0
100
AcDbBlockEnd
  0
BLOCK
  5
F10043
330
F1001B
100
AcDbEntity
  8
0
100
AcDbBlockBegin
  2
*D6
 70
     1
 10
0.0
 20
0.0
 30
0.0
  3
*D6
  1

  0
LINE
  5
F10044
330
F1001B
100
AcDbEntity
  8
Bemassung
 62
     0
370
    -2
100
AcDbLine
 10
-44.7612831858408
 20
25.3606194690266
 30
0.0
 11
-44.7612831858408
 21
-6.639380530973399
 31
0.0
  0
LINE
  5
F10045
330
F1001B
100
AcDbEntity
  8
Bemassung
 62
     0
370
    -2
100
AcDbLine
 10
-87.4612831858408
 20
-6.639380530973399
 30
0.0
 11
-87.4612831858408
 21
69.3606194690266
 31
0.0
  0
LINE
  5
F10046
330
F1001B
100
AcDbEntity
  8
Bemassung
 62
     0
370
    -2
100
AcDbLine
 10
-44.7612831858408
 20
-4.6393805309734
 30
0.0
 11
-87.4612831858408
 21
-4.6393805309734
 31
0.0
  0
INSERT
  5
F10047
330
F1001B
100
AcDbEntity
  8
Bemassung
 62
     0
370
    -2
100
AcDbBlockReference
  2
VDDIM_DEFAULT
 10
-44.7612831858408
 20
-4.6393805309734
 30
0.0
 41
2.5
 42
2.5
 43
2.5
  0
INSERT
  5
F10048
330
F1001B
100
AcDbEntity
  8
Bemassung
 62
     0
370
    -2
100
AcDbBlockReference
  2
VDDIM_DEFAULT
 10
-87.4612831858408
 20
-4.6393805309734
 30
0.0
 41
2.5
 42
2.5
 43
2.5
 50
180.0
  0
MTEXT
  5
F10049
102
{ACAD_XDICTIONARY
360
F1001E
102
}
330
F1001B
100
AcDbEntity
  8
Bemassung
 62
     0
100
AcDbMText
 10
-63.7819111964186
 20
-3.972713864306729
 30
0.0
 40
2.5
 41
0.0
 71
     8
 72
     1
  1
\A1;(42.7)
 73
     1
 44
1.0
1001
ACAD
1000
MTEXTBEGIN
1070
    73
1070
     1
1070
    44
1040
1.0
1070
    74
1070
     0
1000
MTEXTEND
  0
POINT
  5
F1004A
330
F1001B
100
AcDbEntity
  8
Bemassung
 62
     0
100
AcDbPoint
 10
-44.7612831858408
 20
25.3606194690266
 30
0.0
  0
POINT
  5
F1004B
330
F1001B
100
AcDbEntity
  8
Bemassung
 62
     0
100
AcDbPoint
 10
-87.4612831858408
 20
-6.639380530973399
 30
0.0
  0
ENDBLK
  5
F1004C
330
F1001B
100
AcDbEntity
  8
0
100
AcDbBlockEnd
  0
BLOCK
  5
F1004D
330
F10020
100
AcDbEntity
  8
0
100
AcDbBlockBegin
  2
*D7
 70
     1
 10
0.0
 20
0.0
 30
0.0
  3
*D7
  1

  0
LINE
  5
F10B24
330
F10020
100
AcDbEntity
  8
Bemassung
 62
     0
370
    -2
100
AcDbLine
 10
43.42263028208366
 20
7.145532963036011
 30
0.0
 11
43.42263028208366
 21
38.27053296303601
 31
0.0
  0
LINE
  5
F10B25
330
F10020
100
AcDbEntity
  8
Bemassung
 62
     0
370
    -2
100
AcDbLine
 10
-48.57736971791634
 20
4.091106079006308
 30
0.0
 11
-48.57736971791634
 21
38.27053296303601
 31
0.0
  0
LINE
  5
F10B26
330
F10020
100
AcDbEntity
  8
Bemassung
 62
     0
370
    -2
100
AcDbLine
 10
40.92263028208366
 20
37.02053296303601
 30
0.0
 11
-46.07736971791633
 21
37.02053296303601
 31
0.0
  0
INSERT
  5
F10B27
330
F10020
100
AcDbEntity
  8
Bemassung
 62
     0
370
    -2
100
AcDbBlockReference
  2
VDDIM_DEFAULT
 10
43.42263028208366
 20
37.02053296303601
 30
0.0
 41
2.5
 42
2.5
 43
2.5
  0
INSERT
  5
F10B28
330
F10020
100
AcDbEntity
  8
Bemassung
 62
     0
370
    -2
100
AcDbBlockReference
  2
VDDIM_DEFAULT
 10
-48.57736971791634
 20
37.02053296303601
 30
0.0
 41
2.5
 42
2.5
 43
2.5
 50
180.0
  0
MTEXT
  5
F10B29
330
F10020
100
AcDbEntity
  8
Bemassung
 62
     0
100
AcDbMText
 10
-2.57736971791634
 20
37.64553296303601
 30
0.0
 40
2.5
 41
0.0
 71
     8
 72
     1
  1
\A1;92
 73
     1
 44
1.0
1001
ACAD
1000
MTEXTBEGIN
1070
    73
1070
     1
1070
    44
1040
1.0
1070
    74
1070
     0
1000
MTEXTEND
  0
POINT
  5
F10B2A
330
F10020
100
AcDbEntity
  8
Defpoints
 62
     0
100
AcDbPoint
 10
43.42263028208366
 20
6.520532963036011
 30
0.0
  0
POINT
  5
F10B2B
330
F10020
100
AcDbEntity
  8
Defpoints
 62
     0
100
AcDbPoint
 10
-48.57736971791634
 20
3.466106079006308
 30
0.0
  0
POINT
  5
F10B2C
330
F10020
100
AcDbEntity
  8
Defpoints
 62
     0
100
AcDbPoint
 10
-48.57736971791634
 20
37.02053296303601
 30
0.0
  0
ENDBLK
  5
F10056
330
F10020
100
AcDbEntity
  8
0
100
AcDbBlockEnd
  0
BLOCK
  5
F10057
330
F10007
100
AcDbEntity
  8
0
100
AcDbBlockBegin
  2
*D8
 70
     1
 10
0.0
 20
0.0
 30
0.0
  3
*D8
  1

  0
LINE
  5
F10AFF
330
F10007
100
AcDbEntity
  8
Bemassung
 62
     0
370
    -2
100
AcDbLine
 10
-49.05236971791634
 20
-4.979467036963988
 30
0.0
 11
-59.82736971791634
 21
-4.979467036963985
 31
0.0
  0
LINE
  5
F10B00
330
F10007
100
AcDbEntity
  8
Bemassung
 62
     0
370
    -2
100
AcDbLine
 10
-49.05236971791634
 20
7.020532963036011
 30
0.0
 11
-59.82736971791634
 21
7.020532963036014
 31
0.0
  0
LINE
  5
F10B01
330
F10007
100
AcDbEntity
  8
Bemassung
 62
     0
370
    -2
100
AcDbLine
 10
-58.57736971791634
 20
-2.479467036963985
 30
0.0
 11
-58.57736971791634
 21
4.520532963036014
 31
0.0
  0
INSERT
  5
F10B02
330
F10007
100
AcDbEntity
  8
Bemassung
 62
     0
370
    -2
100
AcDbBlockReference
  2
VDDIM_DEFAULT
 10
-58.57736971791634
 20
-4.979467036963985
 30
0.0
 41
2.5
 42
2.5
 43
2.5
 50
270.0
  0
INSERT
  5
F10B03
330
F10007
100
AcDbEntity
  8
Bemassung
 62
     0
370
    -2
100
AcDbBlockReference
  2
VDDIM_DEFAULT
 10
-58.57736971791634
 20
7.020532963036014
 30
0.0
 41
2.5
 42
2.5
 43
2.5
 50
90.0
  0
MTEXT
  5
F10B04
330
F10007
100
AcDbEntity
  8
Bemassung
 62
     0
100
AcDbMText
 10
-59.20236971791634
 20
1.020532963036005
 30
0.0
 40
2.5
 41
0.0
 71
     8
 72
     1
  1
\A1;%%c12
 11
0.0000000000000001
 21
1.0
 31
0.0
 73
     1
 44
1.0
1001
ACAD
1000
MTEXTBEGIN
1070
    73
1070
     1
1070
    44
1040
1.0
1070
    74
1070
     0
1000
MTEXTEND
  0
POINT
  5
F10B05
330
F10007
100
AcDbEntity
  8
Defpoints
 62
     0
100
AcDbPoint
 10
-48.42736971791634
 20
-4.979467036963988
 30
0.0
  0
POINT
  5
F10B06
330
F10007
100
AcDbEntity
  8
Defpoints
 62
     0
100
AcDbPoint
 10
-48.42736971791634
 20
7.020532963036011
 30
0.0
  0
POINT
  5
F10B07
330
F10007
100
AcDbEntity
  8
Defpoints
 62
     0
100
AcDbPoint
 10
-58.57736971791634
 20
7.020532963036014
 30
0.0
  0
ENDBLK
  5
F10060
330
F10007
100
AcDbEntity
  8
0
100
AcDbBlockEnd
  0
BLOCK
  5
F10061
330
F10011
100
AcDbEntity
  8
0
100
AcDbBlockBegin
  2
*D9
 70
     1
 10
0.0
 20
0.0
 30
0.0
  3
*D9
  1

  0
LINE
  5
F10B11
330
F10011
100
AcDbEntity
  8
Bemassung
 62
     0
370
    -2
100
AcDbLine
 10
43.54763028208366
 20
-4.979467036963988
 30
0.0
 11
54.67263028208366
 21
-4.979467036963992
 31
0.0
  0
LINE
  5
F10B12
330
F10011
100
AcDbEntity
  8
Bemassung
 62
     0
370
    -2
100
AcDbLine
 10
43.54763028208366
 20
7.020532963036011
 30
0.0
 11
54.67263028208366
 21
7.020532963036007
 31
0.0
  0
LINE
  5
F10B13
330
F10011
100
AcDbEntity
  8
Bemassung
 62
     0
370
    -2
100
AcDbLine
 10
53.42263028208366
 20
-2.479467036963991
 30
0.0
 11
53.42263028208366
 21
4.520532963036008
 31
0.0
  0
LINE
  5
F10B14
330
F10011
100
AcDbEntity
  8
Bemassung
 62
     0
370
    -2
100
AcDbLine
 10
53.42263028208366
 20
7.020532963036008
 30
0.0
 11
53.42263028208367
 21
21.92503500942073
 31
0.0
  0
INSERT
  5
F10B15
330
F10011
100
AcDbEntity
  8
Bemassung
 62
     0
370
    -2
100
AcDbBlockReference
  2
VDDIM_DEFAULT
 10
53.42263028208366
 20
-4.979467036963991
 30
0.0
 41
2.5
 42
2.5
 43
2.5
 50
270.0
  0
INSERT
  5
F10B16
330
F10011
100
AcDbEntity
  8
Bemassung
 62
     0
370
    -2
100
AcDbBlockReference
  2
VDDIM_DEFAULT
 10
53.42263028208366
 20
7.020532963036008
 30
0.0
 41
2.5
 42
2.5
 43
2.5
 50
90.0
  0
MTEXT
  5
F10B17
330
F10011
100
AcDbEntity
  8
Bemassung
 62
     0
100
AcDbMText
 10
52.79763028208366
 20
15.72278398622837
 30
0.0
 40
2.5
 41
0.0
 71
     8
 72
     1
  1
\A1;%%c12 h6
 11
0.0000000000000001
 21
1.0
 31
0.0
 73
     1
 44
1.0
1001
ACAD
1000
MTEXTBEGIN
1070
    73
1070
     1
1070
    44
1040
1.0
1070
    74
1070
     0
1000
MTEXTEND
  0
POINT
  5
F10B18
330
F10011
100
AcDbEntity
  8
Defpoints
 62
     0
100
AcDbPoint
 10
42.92263028208366
 20
-4.979467036963988
 30
0.0
  0
POINT
  5
F10B19
330
F10011
100
AcDbEntity
  8
Defpoints
 62
     0
100
AcDbPoint
 10
42.92263028208366
 20
7.020532963036011
 30
0.0
  0
POINT
  5
F10B1A
330
F10011
100
AcDbEntity
  8
Defpoints
 62
     0
100
AcDbPoint
 10
53.42263028208366
 20
7.020532963036008
 30
0.0
  0
ENDBLK
  5
F1006A
330
F10011
100
AcDbEntity
  8
0
100
AcDbBlockEnd
  0
BLOCK
  5
F10A77
330
F10A75
100
AcDbEntity
  8
0
100
AcDbBlockBegin
  2
GENAXEH
 70
     0
 10
0.0
 20
0.0
 30
0.0
  3
GENAXEH
  1

  0
LINE
  5
F10A76
330
F10A75
100
AcDbEntity
  8
0
100
AcDbLine
 10
-1.0
 20
0.0
 30
0.0
 11
1.0
 21
0.0
 31
0.0
  0
ENDBLK
  5
F10A78
330
F10A75
100
AcDbEntity
  8
0
100
AcDbBlockEnd
  0
ENDSEC
  0
SECTION
  2
ENTITIES
  0
DIMENSION
  5
F1000D
330
261
100
AcDbEntity
  8
Bemassung
100
AcDbDimension
  2
*D4
 10
43.42263028208366
 20
17.02053296303601
 30
0.0
 11
20.92263028208366
 21
18.91684947053942
 31
0.0
 70
    32
  1
<>
 71
     8
 42
45.0
  3
BEM-ISBE
100
AcDbAlignedDimension
 13
-1.57736971791634
 23
7.020532963036011
 33
0.0
 14
43.42263028208366
 24
6.520532963036011
 34
0.0
100
AcDbRotatedDimension
1001
ACAD
1000
DSTYLE
1002
{
1070
   147
1040
0.625
1070
    72
1070
     0
1070
    71
1070
     0
1070
   284
1070
     8
1070
    78
1070
     8
1070
   144
1040
1.0
1070
    47
1040
2.0
1070
    48
1040
0.0
1002
}
  0
DIMENSION
  5
F10017
330
261
100
AcDbEntity
  8
Bemassung
100
AcDbDimension
  2
*D5
 10
-48.57736971791634
 20
-19.97946703696399
 30
0.0
 11
-35.57736971791634
 21
-18.07803456765976
 31
0.0
 70
    32
  1
<>
 71
     8
 42
26.0
  3
BEM-ISBE
100
AcDbAlignedDimension
 13
-22.57736971791634
 23
-4.979467036963988
 33
0.0
 14
-48.57736971791634
 24
3.466106079006308
 34
0.0
100
AcDbRotatedDimension
1001
ACAD
1000
DSTYLE
1002
{
1070
   147
1040
0.625
1070
    72
1070
     0
1070
    71
1070
     0
1070
   284
1070
     8
1070
    78
1070
     8
1070
   144
1040
1.0
1070
    47
1040
2.0
1070
    48
1040
0.0
1002
}
  0
DIMENSION
  5
F10021
330
261
100
AcDbEntity
  8
Bemassung
100
AcDbDimension
  2
*D7
 10
-48.57736971791634
 20
37.02053296303601
 30
0.0
 11
-2.57736971791634
 21
38.92196543234025
 31
0.0
 70
    32
  1
<>
 71
     8
 42
92.0
  3
BEM-ISBE
100
AcDbAlignedDimension
 13
43.42263028208366
 23
6.520532963036011
 33
0.0
 14
-48.57736971791634
 24
3.466106079006308
 34
0.0
100
AcDbRotatedDimension
1001
ACAD
1000
DSTYLE
1002
{
1070
   147
1040
0.625
1070
    72
1070
     0
1070
    71
1070
     0
1070
   284
1070
     8
1070
    78
1070
     8
1070
   144
1040
1.0
1070
    47
1040
1.0
1070
    48
1040
0.0
1002
}
  0
DIMENSION
  5
F10008
330
261
100
AcDbEntity
  8
Bemassung
100
AcDbDimension
  2
*D8
 10
-58.57736971791634
 20
7.020532963036014
 30
0.0
 11
-60.54872033183176
 21
1.020532963036005
 31
0.0
 70
    32
  1
%%c<>
 71
     8
 42
12.0
  3
BEM-ISBE
100
AcDbAlignedDimension
 13
-48.42736971791634
 23
-4.979467036963988
 33
0.0
 14
-48.42736971791634
 24
7.020532963036011
 34
0.0
 50
90.0
100
AcDbRotatedDimension
1001
ACAD
1000
DSTYLE
1002
{
1070
   147
1040
0.625
1070
    72
1070
     0
1070
    71
1070
     0
1070
   284
1070
     8
1070
    78
1070
     8
1070
   144
1040
1.0
1070
    47
1040
0.0
1070
    48
1040
-0.058
1002
}
  0
DIMENSION
  5
F10012
330
261
100
AcDbEntity
  8
Bemassung
100
AcDbDimension
  2
*D9
 10
53.42263028208366
 20
7.020532963036008
 30
0.0
 11
51.45127966816824
 21
15.72278398622837
 31
0.0
 70
    32
  1
%%c<> h6
 71
     8
 42
12.0
  3
BEM-ISBE
100
AcDbAlignedDimension
 13
42.92263028208366
 23
-4.979467036963988
 33
0.0
 14
42.92263028208366
 24
7.020532963036011
 34
0.0
 50
90.0
100
AcDbRotatedDimension
1001
ACAD
1000
DSTYLE
1002
{
1070
   284
1070
     8
1070
    78
1070
     8
1070
   144
1040
1.0
1070
   147
1040
0.625
1070
    72
1070
     0
1070
    71
1070
     0
1002
}
  0
LINE
  5
F1006B
330
261
100
AcDbEntity
  8
Geo
100
AcDbLine
 10
-48.57736971791634
 20
1.020532963036011
 30
0.0
 11
-48.57736971791634
 21
6.870532963036012
 31
0.0
  0
LINE
  5
F1006D
330
261
100
AcDbEntity
  8
Geo
100
AcDbLine
 10
-48.57736971791634
 20
6.870532963036012
 30
0.0
 11
-48.42736971791634
 21
7.020532963036011
 31
0.0
  0
LINE
  5
F1006F
330
261
100
AcDbEntity
  8
Geo
100
AcDbLine
 10
-48.42736971791634
 20
7.020532963036011
 30
0.0
 11
-22.57736971791634
 21
7.020532963036011
 31
0.0
  0
LINE
  5
F10071
330
261
100
AcDbEntity
  8
Geo
100
AcDbLine
 10
-22.57736971791634
 20
7.020532963036011
 30
0.0
 11
-1.57736971791634
 21
7.020532963036011
 31
0.0
  0
LINE
  5
F10073
330
261
100
AcDbEntity
  8
Geo
100
AcDbLine
 10
-1.57736971791634
 20
7.020532963036011
 30
0.0
 11
15.32263028208365
 21
7.020532963036011
 31
0.0
  0
LINE
  5
F10075
330
261
100
AcDbEntity
  8
Geo
100
AcDbLine
 10
15.32263028208365
 20
7.020532963036011
 30
0.0
 11
16.92263028208365
 21
5.420532963036009
 31
0.0
  0
LINE
  5
F10077
330
261
100
AcDbEntity
  8
Geo
100
AcDbLine
 10
16.92263028208365
 20
5.420532963036009
 30
0.0
 11
24.92263028208366
 21
5.420532963036009
 31
0.0
  0
LINE
  5
F10079
330
261
100
AcDbEntity
  8
Geo
100
AcDbLine
 10
24.92263028208366
 20
5.420532963036009
 30
0.0
 11
26.52263028208366
 21
7.020532963036011
 31
0.0
  0
LINE
  5
F1007B
330
261
100
AcDbEntity
  8
Geo
100
AcDbLine
 10
26.52263028208366
 20
7.020532963036011
 30
0.0
 11
42.92263028208366
 21
7.020532963036011
 31
0.0
  0
LINE
  5
F1007D
330
261
100
AcDbEntity
  8
Geo
100
AcDbLine
 10
42.92263028208366
 20
7.020532963036011
 30
0.0
 11
43.42263028208366
 21
6.520532963036011
 31
0.0
  0
LINE
  5
F1007F
330
261
100
AcDbEntity
  8
Geo
100
AcDbLine
 10
-27.77736971791635
 20
7.020531848826706
 30
0.0
 11
-27.67736971791634
 21
7.02028925807081
 31
0.0
  0
LINE
  5
F10081
330
261
100
AcDbEntity
  8
Geo
100
AcDbLine
 10
-27.67736971791634
 20
7.02028925807081
 30
0.0
 11
-27.57736971791634
 21
7.019491138611208
 31
0.0
  0
LINE
  5
F10083
330
261
100
AcDbEntity
  8
Geo
100
AcDbLine
 10
-27.57736971791634
 20
7.019491138611208
 30
0.0
 11
-27.47736971791635
 21
7.018137564347306
 31
0.0
  0
LINE
  5
F10085
330
261
100
AcDbEntity
  8
Geo
100
AcDbLine
 10
-27.47736971791635
 20
7.018137564347306
 30
0.0
 11
-27.37736971791634
 21
7.016228660608803
 31
0.0
  0
LINE
  5
F10087
330
261
100
AcDbEntity
  8
Geo
100
AcDbLine
 10
-27.37736971791634
 20
7.016228660608803
 30
0.0
 11
-27.27736971791634
 21
7.013764604145009
 31
0.0
  0
LINE
  5
F10089
330
261
100
AcDbEntity
  8
Geo
100
AcDbLine
 10
-27.27736971791634
 20
7.013764604145009
 30
0.0
 11
-27.17736971791634
 21
7.010745623107411
 31
0.0
  0
LINE
  5
F1008B
330
261
100
AcDbEntity
  8
Geo
100
AcDbLine
 10
-27.17736971791634
 20
7.010745623107411
 30
0.0
 11
-27.07736971791634
 21
7.007171997029011
 31
0.0
  0
LINE
  5
F1008D
330
261
100
AcDbEntity
  8
Geo
100
AcDbLine
 10
-27.07736971791634
 20
7.007171997029011
 30
0.0
 11
-26.97736971791635
 21
7.003044056798806
 31
0.0
  0
LINE
  5
F1008F
330
261
100
AcDbEntity
  8
Geo
100
AcDbLine
 10
-26.97736971791635
 20
7.003044056798806
 30
0.0
 11
-26.87736971791634
 21
6.998362184630309
 31
0.0
  0
LINE
  5
F10091
330
261
100
AcDbEntity
  8
Geo
100
AcDbLine
 10
-26.87736971791634
 20
6.998362184630309
 30
0.0
 11
-26.77736971791635
 21
6.993126814026908
 31
0.0
  0
LINE
  5
F10093
330
261
100
AcDbEntity
  8
Geo
100
AcDbLine
 10
-26.77736971791635
 20
6.993126814026908
 30
0.0
 11
-26.67736971791633
 21
6.987338429741612
 31
0.0
  0
LINE
  5
F10095
330
261
100
AcDbEntity
  8
Geo
100
AcDbLine
 10
-26.67736971791633
 20
6.987338429741612
 30
0.0
 11
-26.57736971791634
 21
6.980997567731506
 31
0.0
  0
LINE
  5
F10097
330
261
100
AcDbEntity
  8
Geo
100
AcDbLine
 10
-26.57736971791634
 20
6.980997567731506
 30
0.0
 11
-26.57736971791634
 21
6.980997567731506
 31
0.0
  0
LINE
  5
F10099
330
261
100
AcDbEntity
  8
Geo
100
AcDbLine
 10
-26.57736971791634
 20
6.980997567731506
 30
0.0
 11
-26.47736971791635
 21
6.962710676451806
 31
0.0
  0
LINE
  5
F1009B
330
261
100
AcDbEntity
  8
Geo
100
AcDbLine
 10
-26.47736971791635
 20
6.962710676451806
 30
0.0
 11
-26.37736971791634
 21
6.941090810176007
 31
0.0
  0
LINE
  5
F1009D
330
261
100
AcDbEntity
  8
Geo
100
AcDbLine
 10
-26.37736971791634
 20
6.941090810176007
 30
0.0
 11
-26.27736971791634
 21
6.916199909628204
 31
0.0
  0
LINE
  5
F1009F
330
261
100
AcDbEntity
  8
Geo
100
AcDbLine
 10
-26.27736971791634
 20
6.916199909628204
 30
0.0
 11
-26.17736971791634
 21
6.888101222940512
 31
0.0
  0
LINE
  5
F100A1
330
261
100
AcDbEntity
  8
Geo
100
AcDbLine
 10
-26.17736971791634
 20
6.888101222940512
 30
0.0
 11
-26.07736971791634
 21
6.856859209552403
 31
0.0
  0
LINE
  5
F100A3
330
261
100
AcDbEntity
  8
Geo
100
AcDbLine
 10
-26.07736971791634
 20
6.856859209552403
 30
0.0
 11
-25.97736971791635
 21
6.82253944566181
 31
0.0
  0
LINE
  5
F100A5
330
261
100
AcDbEntity
  8
Geo
100
AcDbLine
 10
-25.97736971791635
 20
6.82253944566181
 30
0.0
 11
-25.87736971791634
 21
6.785208531294905
 31
0.0
  0
LINE
  5
F100A7
330
261
100
AcDbEntity
  8
Geo
100
AcDbLine
 10
-25.87736971791634
 20
6.785208531294905
 30
0.0
 11
-25.77736971791634
 21
6.744933999056904
 31
0.0
  0
LINE
  5
F100A9
330
261
100
AcDbEntity
  8
Geo
100
AcDbLine
 10
-25.77736971791634
 20
6.744933999056904
 30
0.0
 11
-25.67736971791634
 21
6.701784224623409
 31
0.0
  0
LINE
  5
F100AB
330
261
100
AcDbEntity
  8
Geo
100
AcDbLine
 10
-25.67736971791634
 20
6.701784224623409
 30
0.0
 11
-25.57736971791634
 21
6.655828339024203
 31
0.0
  0
LINE
  5
F100AD
330
261
100
AcDbEntity
  8
Geo
100
AcDbLine
 10
-25.57736971791634
 20
6.655828339024203
 30
0.0
 11
-25.47736971791635
 21
6.607136142770706
 31
0.0
  0
LINE
  5
F100AF
330
261
100
AcDbEntity
  8
Geo
100
AcDbLine
 10
-25.47736971791635
 20
6.607136142770706
 30
0.0
 11
-25.37736971791634
 21
6.555778021869613
 31
0.0
  0
LINE
  5
F100B1
330
261
100
AcDbEntity
  8
Geo
100
AcDbLine
 10
-25.37736971791634
 20
6.555778021869613
 30
0.0
 11
-25.27736971791635
 21
6.501824865765406
 31
0.0
  0
LINE
  5
F100B3
330
261
100
AcDbEntity
  8
Geo
100
AcDbLine
 10
-25.27736971791635
 20
6.501824865765406
 30
0.0
 11
-25.17736971791634
 21
6.44534798724581
 31
0.0
  0
LINE
  5
F100B5
330
261
100
AcDbEntity
  8
Geo
100
AcDbLine
 10
-25.17736971791634
 20
6.44534798724581
 30
0.0
 11
-25.07736971791634
 21
6.386419044344513
 31
0.0
  0
LINE
  5
F100B7
330
261
100
AcDbEntity
  8
Geo
100
AcDbLine
 10
-25.07736971791634
 20
6.386419044344513
 30
0.0
 11
-24.97736971791634
 21
6.325109964267511
 31
0.0
  0
LINE
  5
F100B9
330
261
100
AcDbEntity
  8
Geo
100
AcDbLine
 10
-24.97736971791634
 20
6.325109964267511
 30
0.0
 11
-24.87736971791634
 21
6.261492869369114
 31
0.0
  0
LINE
  5
F100BB
330
261
100
AcDbEntity
  8
Geo
100
AcDbLine
 10
-24.87736971791634
 20
6.261492869369114
 30
0.0
 11
-24.77736971791634
 21
6.195640005197304
 31
0.0
  0
LINE
  5
F100BD
330
261
100
AcDbEntity
  8
Geo
100
AcDbLine
 10
-24.77736971791634
 20
6.195640005197304
 30
0.0
 11
-24.67736971791634
 21
6.127623670625908
 31
0.0
  0
LINE
  5
F100BF
330
261
100
AcDbEntity
  8
Geo
100
AcDbLine
 10
-24.67736971791634
 20
6.127623670625908
 30
0.0
 11
-24.57736971791634
 21
6.057516150087309
 31
0.0
  0
LINE
  5
F100C1
330
261
100
AcDbEntity
  8
Geo
100
AcDbLine
 10
-24.57736971791634
 20
6.057516150087309
 30
0.0
 11
-24.47736971791634
 21
5.985389647916008
 31
0.0
  0
LINE
  5
F100C3
330
261
100
AcDbEntity
  8
Geo
100
AcDbLine
 10
-24.47736971791634
 20
5.985389647916008
 30
0.0
 11
-24.37736971791634
 21
5.91131622480951
 31
0.0
  0
LINE
  5
F100C5
330
261
100
AcDbEntity
  8
Geo
100
AcDbLine
 10
-24.37736971791634
 20
5.91131622480951
 30
0.0
 11
-24.27736971791634
 21
5.835367736411612
 31
0.0
  0
LINE
  5
F100C7
330
261
100
AcDbEntity
  8
Geo
100
AcDbLine
 10
-24.27736971791634
 20
5.835367736411612
 30
0.0
 11
-24.17736971791634
 21
5.757615774017203
 31
0.0
  0
LINE
  5
F100C9
330
261
100
AcDbEntity
  8
Geo
100
AcDbLine
 10
-24.17736971791634
 20
5.757615774017203
 30
0.0
 11
-24.07736971791634
 21
5.678131607399407
 31
0.0
  0
LINE
  5
F100CB
330
261
100
AcDbEntity
  8
Geo
100
AcDbLine
 10
-24.07736971791634
 20
5.678131607399407
 30
0.0
 11
-23.97736971791634
 21
5.596986129750611
 31
0.0
  0
LINE
  5
F100CD
330
261
100
AcDbEntity
  8
Geo
100
AcDbLine
 10
-23.97736971791634
 20
5.596986129750611
 30
0.0
 11
-23.87736971791634
 21
5.514249804733807
 31
0.0
  0
LINE
  5
F100CF
330
261
100
AcDbEntity
  8
Geo
100
AcDbLine
 10
-23.87736971791634
 20
5.514249804733807
 30
0.0
 11
-23.77736971791634
 21
5.429992615631405
 31
0.0
  0
LINE
  5
F100D1
330
261
100
AcDbEntity
  8
Geo
100
AcDbLine
 10
-23.77736971791634
 20
5.429992615631405
 30
0.0
 11
-23.67736971791634
 21
5.344284016581113
 31
0.0
  0
LINE
  5
F100D3
330
261
100
AcDbEntity
  8
Geo
100
AcDbLine
 10
-23.67736971791634
 20
5.344284016581113
 30
0.0
 11
-23.57736971791634
 21
5.257192885883405
 31
0.0
  0
LINE
  5
F100D5
330
261
100
AcDbEntity
  8
Geo
100
AcDbLine
 10
-23.57736971791634
 20
5.257192885883405
 30
0.0
 11
-23.47736971791634
 21
5.168787481363708
 31
0.0
  0
LINE
  5
F100D7
330
261
100
AcDbEntity
  8
Geo
100
AcDbLine
 10
-23.47736971791634
 20
5.168787481363708
 30
0.0
 11
-23.37736971791634
 21
5.079135397771203
 31
0.0
  0
LINE
  5
F100D9
330
261
100
AcDbEntity
  8
Geo
100
AcDbLine
 10
-23.37736971791634
 20
5.079135397771203
 30
0.0
 11
-23.27736971791624
 21
4.988303526192609
 31
0.0
  0
LINE
  5
F100DB
330
261
100
AcDbEntity
  8
Geo
100
AcDbLine
 10
-23.27736971791624
 20
4.988303526192609
 30
0.0
 11
-23.17736971791624
 21
4.896358015459114
 31
0.0
  0
LINE
  5
F100DD
330
261
100
AcDbEntity
  8
Geo
100
AcDbLine
 10
-23.17736971791624
 20
4.896358015459114
 30
0.0
 11
-23.07736971791624
 21
4.803364235521208
 31
0.0
  0
LINE
  5
F100DF
330
261
100
AcDbEntity
  8
Geo
100
AcDbLine
 10
-23.07736971791624
 20
4.803364235521208
 30
0.0
 11
-22.97736971791625
 21
4.709386742766412
 31
0.0
  0
LINE
  5
F100E1
330
261
100
AcDbEntity
  8
Geo
100
AcDbLine
 10
-22.97736971791625
 20
4.709386742766412
 30
0.0
 11
-22.87736971791625
 21
4.614489247251107
 31
0.0
  0
LINE
  5
F100E3
330
261
100
AcDbEntity
  8
Geo
100
AcDbLine
 10
-22.87736971791625
 20
4.614489247251107
 30
0.0
 11
-22.77736971791624
 21
4.518734581819408
 31
0.0
  0
LINE
  5
F100E5
330
261
100
AcDbEntity
  8
Geo
100
AcDbLine
 10
-22.77736971791624
 20
4.518734581819408
 30
0.0
 11
-22.67736971791624
 21
4.422184673076301
 31
0.0
  0
LINE
  5
F100E7
330
261
100
AcDbEntity
  8
Geo
100
AcDbLine
 10
-22.67736971791624
 20
4.422184673076301
 30
0.0
 11
-22.57736971791624
 21
4.324900514185806
 31
0.0
  0
LINE
  5
F100E9
330
261
100
AcDbEntity
  8
Geo
100
AcDbLine
 10
-22.57736971791624
 20
4.324900514185806
 30
0.0
 11
-22.47736971791625
 21
4.226942139460412
 31
0.0
  0
LINE
  5
F100EB
330
261
100
AcDbEntity
  8
Geo
100
AcDbLine
 10
-22.47736971791625
 20
4.226942139460412
 30
0.0
 11
-22.37736971791624
 21
4.128368600708107
 31
0.0
  0
LINE
  5
F100ED
330
261
100
AcDbEntity
  8
Geo
100
AcDbLine
 10
-22.37736971791624
 20
4.128368600708107
 30
0.0
 11
-22.27736971791625
 21
4.029237945302512
 31
0.0
  0
LINE
  5
F100EF
330
261
100
AcDbEntity
  8
Geo
100
AcDbLine
 10
-22.27736971791625
 20
4.029237945302512
 30
0.0
 11
-22.17736971791624
 21
3.92960719594091
 31
0.0
  0
LINE
  5
F100F1
330
261
100
AcDbEntity
  8
Geo
100
AcDbLine
 10
-22.17736971791624
 20
3.92960719594091
 30
0.0
 11
-22.07736971791624
 21
3.829532332053808
 31
0.0
  0
LINE
  5
F100F3
330
261
100
AcDbEntity
  8
Geo
100
AcDbLine
 10
-22.07736971791624
 20
3.829532332053808
 30
0.0
 11
-21.97736971791625
 21
3.729068272828214
 31
0.0
  0
LINE
  5
F100F5
330
261
100
AcDbEntity
  8
Geo
100
AcDbLine
 10
-21.97736971791625
 20
3.729068272828214
 30
0.0
 11
-21.87736971791625
 21
3.628268861808507
 31
0.0
  0
LINE
  5
F100F7
330
261
100
AcDbEntity
  8
Geo
100
AcDbLine
 10
-21.87736971791625
 20
3.628268861808507
 30
0.0
 11
-21.77736971791624
 21
3.527186853035509
 31
0.0
  0
LINE
  5
F100F9
330
261
100
AcDbEntity
  8
Geo
100
AcDbLine
 10
-21.77736971791624
 20
3.527186853035509
 30
0.0
 11
-21.67736971791624
 21
3.425873898686205
 31
0.0
  0
LINE
  5
F100FB
330
261
100
AcDbEntity
  8
Geo
100
AcDbLine
 10
-21.67736971791624
 20
3.425873898686205
 30
0.0
 11
-21.57736971791624
 21
3.32438053817421
 31
0.0
  0
LINE
  5
F100FD
330
261
100
AcDbEntity
  8
Geo
100
AcDbLine
 10
-21.57736971791624
 20
3.32438053817421
 30
0.0
 11
-21.47736971791625
 21
3.222756188671908
 31
0.0
  0
LINE
  5
F100FF
330
261
100
AcDbEntity
  8
Geo
100
AcDbLine
 10
-21.47736971791625
 20
3.222756188671908
 30
0.0
 11
-21.37736971791625
 21
3.121049137016306
 31
0.0
  0
LINE
  5
F10101
330
261
100
AcDbEntity
  8
Geo
100
AcDbLine
 10
-21.37736971791625
 20
3.121049137016306
 30
0.0
 11
-21.27736971791625
 21
3.01930653295561
 31
0.0
  0
LINE
  5
F10103
330
261
100
AcDbEntity
  8
Geo
100
AcDbLine
 10
-21.27736971791625
 20
3.01930653295561
 30
0.0
 11
-21.17736971791624
 21
2.917574383700205
 31
0.0
  0
LINE
  5
F10105
330
261
100
AcDbEntity
  8
Geo
100
AcDbLine
 10
-21.17736971791624
 20
2.917574383700205
 30
0.0
 11
-21.07736971791624
 21
2.81589754973541
 31
0.0
  0
LINE
  5
F10107
330
261
100
AcDbEntity
  8
Geo
100
AcDbLine
 10
-21.07736971791624
 20
2.81589754973541
 30
0.0
 11
-20.97736971791625
 21
2.714319741858304
 31
0.0
  0
LINE
  5
F10109
330
261
100
AcDbEntity
  8
Geo
100
AcDbLine
 10
-20.97736971791625
 20
2.714319741858304
 30
0.0
 11
-20.87736971791624
 21
2.612883519396909
 31
0.0
  0
LINE
  5
F1010B
330
261
100
AcDbEntity
  8
Geo
100
AcDbLine
 10
-20.87736971791624
 20
2.612883519396909
 30
0.0
 11
-20.77736971791624
 21
2.511630289572707
 31
0.0
  0
LINE
  5
F1010D
330
261
100
AcDbEntity
  8
Geo
100
AcDbLine
 10
-20.77736971791624
 20
2.511630289572707
 30
0.0
 11
-20.67736971791624
 21
2.410600307967513
 31
0.0
  0
LINE
  5
F1010F
330
261
100
AcDbEntity
  8
Geo
100
AcDbLine
 10
-20.67736971791624
 20
2.410600307967513
 30
0.0
 11
-20.57736971791624
 21
2.309832680053908
 31
0.0
  0
LINE
  5
F10111
330
261
100
AcDbEntity
  8
Geo
100
AcDbLine
 10
-20.57736971791624
 20
2.309832680053908
 30
0.0
 11
-20.47736971791625
 21
2.209365363752013
 31
0.0
  0
LINE
  5
F10113
330
261
100
AcDbEntity
  8
Geo
100
AcDbLine
 10
-20.47736971791625
 20
2.209365363752013
 30
0.0
 11
-20.37736971791625
 21
2.109235172970912
 31
0.0
  0
LINE
  5
F10115
330
261
100
AcDbEntity
  8
Geo
100
AcDbLine
 10
-20.37736971791625
 20
2.109235172970912
 30
0.0
 11
-20.27736971791624
 21
2.00947778209931
 31
0.0
  0
LINE
  5
F10117
330
261
100
AcDbEntity
  8
Geo
100
AcDbLine
 10
-20.27736971791624
 20
2.00947778209931
 30
0.0
 11
-20.17736971791624
 21
1.910127731404912
 31
0.0
  0
LINE
  5
F10119
330
261
100
AcDbEntity
  8
Geo
100
AcDbLine
 10
-20.17736971791624
 20
1.910127731404912
 30
0.0
 11
-20.07736971791624
 21
1.811218433305803
 31
0.0
  0
LINE
  5
F1011B
330
261
100
AcDbEntity
  8
Geo
100
AcDbLine
 10
-20.07736971791624
 20
1.811218433305803
 30
0.0
 11
-19.97736971791624
 21
1.712782179476008
 31
0.0
  0
LINE
  5
F1011D
330
261
100
AcDbEntity
  8
Geo
100
AcDbLine
 10
-19.97736971791624
 20
1.712782179476008
 30
0.0
 11
-19.87736971791624
 21
1.614850148748807
 31
0.0
  0
LINE
  5
F1011F
330
261
100
AcDbEntity
  8
Geo
100
AcDbLine
 10
-19.87736971791624
 20
1.614850148748807
 30
0.0
 11
-19.77736971791624
 21
1.517452415780905
 31
0.0
  0
LINE
  5
F10121
330
261
100
AcDbEntity
  8
Geo
100
AcDbLine
 10
-19.77736971791624
 20
1.517452415780905
 30
0.0
 11
-19.67736971791624
 21
1.420617960442008
 31
0.0
  0
LINE
  5
F10123
330
261
100
AcDbEntity
  8
Geo
100
AcDbLine
 10
-19.67736971791624
 20
1.420617960442008
 30
0.0
 11
-19.57736971791624
 21
1.324374677894105
 31
0.0
  0
LINE
  5
F10125
330
261
100
AcDbEntity
  8
Geo
100
AcDbLine
 10
-19.57736971791624
 20
1.324374677894105
 30
0.0
 11
-19.47736971791625
 21
1.228749389325908
 31
0.0
  0
LINE
  5
F10127
330
261
100
AcDbEntity
  8
Geo
100
AcDbLine
 10
-19.47736971791625
 20
1.228749389325908
 30
0.0
 11
-19.37736971791624
 21
1.133767853308409
 31
0.0
  0
LINE
  5
F10129
330
261
100
AcDbEntity
  8
Geo
100
AcDbLine
 10
-19.37736971791624
 20
1.133767853308409
 30
0.0
 11
-19.27736971791624
 21
1.039454777737908
 31
0.0
  0
LINE
  5
F1012B
330
261
100
AcDbEntity
  8
Geo
100
AcDbLine
 10
-19.27736971791624
 20
1.039454777737908
 30
0.0
 11
-19.17736971791624
 21
0.9458338323330117
 31
0.0
  0
LINE
  5
F1012D
330
261
100
AcDbEntity
  8
Geo
100
AcDbLine
 10
-19.17736971791624
 20
0.9458338323330117
 30
0.0
 11
-19.07736971791624
 21
0.8529276616546042
 31
0.0
  0
LINE
  5
F1012F
330
261
100
AcDbEntity
  8
Geo
100
AcDbLine
 10
-19.07736971791624
 20
0.8529276616546042
 30
0.0
 11
-18.97736971791625
 21
0.7607578986162089
 31
0.0
  0
LINE
  5
F10131
330
261
100
AcDbEntity
  8
Geo
100
AcDbLine
 10
-18.97736971791625
 20
0.7607578986162089
 30
0.0
 11
-18.87736971791624
 21
0.6693451784537068
 31
0.0
  0
LINE
  5
F10133
330
261
100
AcDbEntity
  8
Geo
100
AcDbLine
 10
-18.87736971791624
 20
0.6693451784537068
 30
0.0
 11
-18.77736971791624
 21
0.5787091531250113
 31
0.0
  0
LINE
  5
F10135
330
261
100
AcDbEntity
  8
Geo
100
AcDbLine
 10
-18.77736971791624
 20
0.5787091531250113
 30
0.0
 11
-18.67736971791624
 21
0.4888685061097107
 31
0.0
  0
LINE
  5
F10137
330
261
100
AcDbEntity
  8
Geo
100
AcDbLine
 10
-18.67736971791624
 20
0.4888685061097107
 30
0.0
 11
-18.57736971791624
 21
0.3998409675793084
 31
0.0
  0
LINE
  5
F10139
330
261
100
AcDbEntity
  8
Geo
100
AcDbLine
 10
-18.57736971791624
 20
0.3998409675793084
 30
0.0
 11
-18.47736971791625
 21
0.311643329911309
 31
0.0
  0
LINE
  5
F1013B
330
261
100
AcDbEntity
  8
Geo
100
AcDbLine
 10
-18.47736971791625
 20
0.311643329911309
 30
0.0
 11
-18.37736971791624
 21
0.2242914635179076
 31
0.0
  0
LINE
  5
F1013D
330
261
100
AcDbEntity
  8
Geo
100
AcDbLine
 10
-18.37736971791624
 20
0.2242914635179076
 30
0.0
 11
-18.27736971791624
 21
0.1378003329649076
 31
0.0
  0
LINE
  5
F1013F
330
261
100
AcDbEntity
  8
Geo
100
AcDbLine
 10
-18.27736971791624
 20
0.1378003329649076
 30
0.0
 11
-18.17736971791624
 21
0.0521840133521074
 31
0.0
  0
LINE
  5
F10141
330
261
100
AcDbEntity
  8
Geo
100
AcDbLine
 10
-18.17736971791624
 20
0.0521840133521074
 30
0.0
 11
-18.07736971791624
 21
-0.0325442930665929
 31
0.0
  0
LINE
  5
F10143
330
261
100
AcDbEntity
  8
Geo
100
AcDbLine
 10
-18.07736971791624
 20
-0.0325442930665929
 30
0.0
 11
-17.97736971791624
 21
-0.1163722400517884
 31
0.0
  0
LINE
  5
F10145
330
261
100
AcDbEntity
  8
Geo
100
AcDbLine
 10
-17.97736971791624
 20
-0.1163722400517884
 30
0.0
 11
-17.87736971791624
 21
-0.1992883203558939
 31
0.0
  0
LINE
  5
F10147
330
261
100
AcDbEntity
  8
Geo
100
AcDbLine
 10
-17.87736971791624
 20
-0.1992883203558939
 30
0.0
 11
-17.77736971791624
 21
-0.2812818485346931
 31
0.0
  0
LINE
  5
F10149
330
261
100
AcDbEntity
  8
Geo
100
AcDbLine
 10
-17.77736971791624
 20
-0.2812818485346931
 30
0.0
 11
-17.67736971791624
 21
-0.3623429436140917
 31
0.0
  0
LINE
  5
F1014B
330
261
100
AcDbEntity
  8
Geo
100
AcDbLine
 10
-17.67736971791624
 20
-0.3623429436140917
 30
0.0
 11
-17.57736971791624
 21
-0.4424625116348935
 31
0.0
  0
LINE
  5
F1014D
330
261
100
AcDbEntity
  8
Geo
100
AcDbLine
 10
-17.57736971791624
 20
-0.4424625116348935
 30
0.0
 11
-17.47736971791624
 21
-0.5216322280942905
 31
0.0
  0
LINE
  5
F1014F
330
261
100
AcDbEntity
  8
Geo
100
AcDbLine
 10
-17.47736971791624
 20
-0.5216322280942905
 30
0.0
 11
-17.37736971791624
 21
-0.5998445203067924
 31
0.0
  0
LINE
  5
F10151
330
261
100
AcDbEntity
  8
Geo
100
AcDbLine
 10
-17.37736971791624
 20
-0.5998445203067924
 30
0.0
 11
-17.27736971791624
 21
-0.6770925497017899
 31
0.0
  0
LINE
  5
F10153
330
261
100
AcDbEntity
  8
Geo
100
AcDbLine
 10
-17.27736971791624
 20
-0.6770925497017899
 30
0.0
 11
-17.17736971791624
 21
-0.7533701940778919
 31
0.0
  0
LINE
  5
F10155
330
261
100
AcDbEntity
  8
Geo
100
AcDbLine
 10
-17.17736971791624
 20
-0.7533701940778919
 30
0.0
 11
-17.07736971791624
 21
-0.8286720298307912
 31
0.0
  0
LINE
  5
F10157
330
261
100
AcDbEntity
  8
Geo
100
AcDbLine
 10
-17.07736971791624
 20
-0.8286720298307912
 30
0.0
 11
-16.97736971791625
 21
-0.9029933141733934
 31
0.0
  0
LINE
  5
F10159
330
261
100
AcDbEntity
  8
Geo
100
AcDbLine
 10
-16.97736971791625
 20
-0.9029933141733934
 30
0.0
 11
-16.87736971791624
 21
-0.9763299673629894
 31
0.0
  0
LINE
  5
F1015B
330
261
100
AcDbEntity
  8
Geo
100
AcDbLine
 10
-16.87736971791624
 20
-0.9763299673629894
 30
0.0
 11
-16.77736971791624
 21
-1.048678554953788
 31
0.0
  0
LINE
  5
F1015D
330
261
100
AcDbEntity
  8
Geo
100
AcDbLine
 10
-16.77736971791624
 20
-1.048678554953788
 30
0.0
 11
-16.67736971791624
 21
-1.120036270086988
 31
0.0
  0
LINE
  5
F1015F
330
261
100
AcDbEntity
  8
Geo
100
AcDbLine
 10
-16.67736971791624
 20
-1.120036270086988
 30
0.0
 11
-16.57736971791624
 21
-1.190400915836189
 31
0.0
  0
LINE
  5
F10161
330
261
100
AcDbEntity
  8
Geo
100
AcDbLine
 10
-16.57736971791624
 20
-1.190400915836189
 30
0.0
 11
-16.47736971791625
 21
-1.259770887619389
 31
0.0
  0
LINE
  5
F10163
330
261
100
AcDbEntity
  8
Geo
100
AcDbLine
 10
-16.47736971791625
 20
-1.259770887619389
 30
0.0
 11
-16.37736971791624
 21
-1.328145155693192
 31
0.0
  0
LINE
  5
F10165
330
261
100
AcDbEntity
  8
Geo
100
AcDbLine
 10
-16.37736971791624
 20
-1.328145155693192
 30
0.0
 11
-16.27736971791624
 21
-1.39552324773949
 31
0.0
  0
LINE
  5
F10167
330
261
100
AcDbEntity
  8
Geo
100
AcDbLine
 10
-16.27736971791624
 20
-1.39552324773949
 30
0.0
 11
-16.17736971791624
 21
-1.461905231558791
 31
0.0
  0
LINE
  5
F10169
330
261
100
AcDbEntity
  8
Geo
100
AcDbLine
 10
-16.17736971791624
 20
-1.461905231558791
 30
0.0
 11
-16.07736971791624
 21
-1.527291697880894
 31
0.0
  0
LINE
  5
F1016B
330
261
100
AcDbEntity
  8
Geo
100
AcDbLine
 10
-16.07736971791624
 20
-1.527291697880894
 30
0.0
 11
-15.97736971791614
 21
-1.591683743302787
 31
0.0
  0
LINE
  5
F1016D
330
261
100
AcDbEntity
  8
Geo
100
AcDbLine
 10
-15.97736971791614
 20
-1.591683743302787
 30
0.0
 11
-15.87736971791614
 21
-1.655082953365987
 31
0.0
  0
LINE
  5
F1016F
330
261
100
AcDbEntity
  8
Geo
100
AcDbLine
 10
-15.87736971791614
 20
-1.655082953365987
 30
0.0
 11
-15.77736971791614
 21
-1.717491385781592
 31
0.0
  0
LINE
  5
F10171
330
261
100
AcDbEntity
  8
Geo
100
AcDbLine
 10
-15.77736971791614
 20
-1.717491385781592
 30
0.0
 11
-15.67736971791613
 21
-1.778911553811987
 31
0.0
  0
LINE
  5
F10173
330
261
100
AcDbEntity
  8
Geo
100
AcDbLine
 10
-15.67736971791613
 20
-1.778911553811987
 30
0.0
 11
-15.57736971791614
 21
-1.839346409819693
 31
0.0
  0
LINE
  5
F10175
330
261
100
AcDbEntity
  8
Geo
100
AcDbLine
 10
-15.57736971791614
 20
-1.839346409819693
 30
0.0
 11
-15.47736971791614
 21
-1.89879932898879
 31
0.0
  0
LINE
  5
F10177
330
261
100
AcDbEntity
  8
Geo
100
AcDbLine
 10
-15.47736971791614
 20
-1.89879932898879
 30
0.0
 11
-15.37736971791614
 21
-1.957274093229287
 31
0.0
  0
LINE
  5
F10179
330
261
100
AcDbEntity
  8
Geo
100
AcDbLine
 10
-15.37736971791614
 20
-1.957274093229287
 30
0.0
 11
-15.27736971791614
 21
-2.014774875268987
 31
0.0
  0
LINE
  5
F1017B
330
261
100
AcDbEntity
  8
Geo
100
AcDbLine
 10
-15.27736971791614
 20
-2.014774875268987
 30
0.0
 11
-15.17736971791613
 21
-2.071306222940691
 31
0.0
  0
LINE
  5
F1017D
330
261
100
AcDbEntity
  8
Geo
100
AcDbLine
 10
-15.17736971791613
 20
-2.071306222940691
 30
0.0
 11
-15.07736971791614
 21
-2.12687304367159
 31
0.0
  0
LINE
  5
F1017F
330
261
100
AcDbEntity
  8
Geo
100
AcDbLine
 10
-15.07736971791614
 20
-2.12687304367159
 30
0.0
 11
-14.97736971791614
 21
-2.181480589178189
 31
0.0
  0
LINE
  5
F10181
330
261
100
AcDbEntity
  8
Geo
100
AcDbLine
 10
-14.97736971791614
 20
-2.181480589178189
 30
0.0
 11
-14.87736971791614
 21
-2.235134440374288
 31
0.0
  0
LINE
  5
F10183
330
261
100
AcDbEntity
  8
Geo
100
AcDbLine
 10
-14.87736971791614
 20
-2.235134440374288
 30
0.0
 11
-14.77736971791614
 21
-2.28784049249549
 31
0.0
  0
LINE
  5
F10185
330
261
100
AcDbEntity
  8
Geo
100
AcDbLine
 10
-14.77736971791614
 20
-2.28784049249549
 30
0.0
 11
-14.67736971791613
 21
-2.339604940444694
 31
0.0
  0
LINE
  5
F10187
330
261
100
AcDbEntity
  8
Geo
100
AcDbLine
 10
-14.67736971791613
 20
-2.339604940444694
 30
0.0
 11
-14.57736971791614
 21
-2.390434264362891
 31
0.0
  0
LINE
  5
F10189
330
261
100
AcDbEntity
  8
Geo
100
AcDbLine
 10
-14.57736971791614
 20
-2.390434264362891
 30
0.0
 11
-14.47736971791614
 21
-2.44033521542839
 31
0.0
  0
LINE
  5
F1018B
330
261
100
AcDbEntity
  8
Geo
100
AcDbLine
 10
-14.47736971791614
 20
-2.44033521542839
 30
0.0
 11
-14.37736971791614
 21
-2.489314801887392
 31
0.0
  0
LINE
  5
F1018D
330
261
100
AcDbEntity
  8
Geo
100
AcDbLine
 10
-14.37736971791614
 20
-2.489314801887392
 30
0.0
 11
-14.27736971791613
 21
-2.537380275319591
 31
0.0
  0
LINE
  5
F1018F
330
261
100
AcDbEntity
  8
Geo
100
AcDbLine
 10
-14.27736971791613
 20
-2.537380275319591
 30
0.0
 11
-14.17736971791613
 21
-2.584539117140092
 31
0.0
  0
LINE
  5
F10191
330
261
100
AcDbEntity
  8
Geo
100
AcDbLine
 10
-14.17736971791613
 20
-2.584539117140092
 30
0.0
 11
-14.07736971791614
 21
-2.63079902534049
 31
0.0
  0
LINE
  5
F10193
330
261
100
AcDbEntity
  8
Geo
100
AcDbLine
 10
-14.07736971791614
 20
-2.63079902534049
 30
0.0
 11
-13.97736971791614
 21
-2.676167901470194
 31
0.0
  0
LINE
  5
F10195
330
261
100
AcDbEntity
  8
Geo
100
AcDbLine
 10
-13.97736971791614
 20
-2.676167901470194
 30
0.0
 11
-13.87736971791614
 21
-2.720653837859988
 31
0.0
  0
LINE
  5
F10197
330
261
100
AcDbEntity
  8
Geo
100
AcDbLine
 10
-13.87736971791614
 20
-2.720653837859988
 30
0.0
 11
-13.77736971791614
 21
-2.764265105088291
 31
0.0
  0
LINE
  5
F10199
330
261
100
AcDbEntity
  8
Geo
100
AcDbLine
 10
-13.77736971791614
 20
-2.764265105088291
 30
0.0
 11
-13.67736971791613
 21
-2.80701013969189
 31
0.0
  0
LINE
  5
F1019B
330
261
100
AcDbEntity
  8
Geo
100
AcDbLine
 10
-13.67736971791613
 20
-2.80701013969189
 30
0.0
 11
-13.57736971791614
 21
-2.848897532119789
 31
0.0
  0
LINE
  5
F1019D
330
261
100
AcDbEntity
  8
Geo
100
AcDbLine
 10
-13.57736971791614
 20
-2.848897532119789
 30
0.0
 11
-13.47736971791614
 21
-2.889936014933191
 31
0.0
  0
LINE
  5
F1019F
330
261
100
AcDbEntity
  8
Geo
100
AcDbLine
 10
-13.47736971791614
 20
-2.889936014933191
 30
0.0
 11
-13.37736971791614
 21
-2.930134451248392
 31
0.0
  0
LINE
  5
F101A1
330
261
100
AcDbEntity
  8
Geo
100
AcDbLine
 10
-13.37736971791614
 20
-2.930134451248392
 30
0.0
 11
-13.27736971791614
 21
-2.969501823424891
 31
0.0
  0
LINE
  5
F101A3
330
261
100
AcDbEntity
  8
Geo
100
AcDbLine
 10
-13.27736971791614
 20
-2.969501823424891
 30
0.0
 11
-13.17736971791613
 21
-3.008047221997088
 31
0.0
  0
LINE
  5
F101A5
330
261
100
AcDbEntity
  8
Geo
100
AcDbLine
 10
-13.17736971791613
 20
-3.008047221997088
 30
0.0
 11
-13.07736971791614
 21
-3.045779834848488
 31
0.0
  0
LINE
  5
F101A7
330
261
100
AcDbEntity
  8
Geo
100
AcDbLine
 10
-13.07736971791614
 20
-3.045779834848488
 30
0.0
 11
-12.97736971791614
 21
-3.082708936628193
 31
0.0
  0
LINE
  5
F101A9
330
261
100
AcDbEntity
  8
Geo
100
AcDbLine
 10
-12.97736971791614
 20
-3.082708936628193
 30
0.0
 11
-12.87736971791614
 21
-3.11884387840859
 31
0.0
  0
LINE
  5
F101AB
330
261
100
AcDbEntity
  8
Geo
100
AcDbLine
 10
-12.87736971791614
 20
-3.11884387840859
 30
0.0
 11
-12.77736971791614
 21
-3.15419407758139
 31
0.0
  0
LINE
  5
F101AD
330
261
100
AcDbEntity
  8
Geo
100
AcDbLine
 10
-12.77736971791614
 20
-3.15419407758139
 30
0.0
 11
-12.67736971791613
 21
-3.188769007992988
 31
0.0
  0
LINE
  5
F101AF
330
261
100
AcDbEntity
  8
Geo
100
AcDbLine
 10
-12.67736971791613
 20
-3.188769007992988
 30
0.0
 11
-12.57736971791614
 21
-3.222578190314894
 31
0.0
  0
LINE
  5
F101B1
330
261
100
AcDbEntity
  8
Geo
100
AcDbLine
 10
-12.57736971791614
 20
-3.222578190314894
 30
0.0
 11
-12.47736971791614
 21
-3.255631182648986
 31
0.0
  0
LINE
  5
F101B3
330
261
100
AcDbEntity
  8
Geo
100
AcDbLine
 10
-12.47736971791614
 20
-3.255631182648986
 30
0.0
 11
-12.37736971791614
 21
-3.287937571364789
 31
0.0
  0
LINE
  5
F101B5
330
261
100
AcDbEntity
  8
Geo
100
AcDbLine
 10
-12.37736971791614
 20
-3.287937571364789
 30
0.0
 11
-12.27736971791614
 21
-3.319506962167487
 31
0.0
  0
LINE
  5
F101B7
330
261
100
AcDbEntity
  8
Geo
100
AcDbLine
 10
-12.27736971791614
 20
-3.319506962167487
 30
0.0
 11
-12.17736971791613
 21
-3.350348971392595
 31
0.0
  0
LINE
  5
F101B9
330
261
100
AcDbEntity
  8
Geo
100
AcDbLine
 10
-12.17736971791613
 20
-3.350348971392595
 30
0.0
 11
-12.07736971791614
 21
-3.380473217526692
 31
0.0
  0
LINE
  5
F101BB
330
261
100
AcDbEntity
  8
Geo
100
AcDbLine
 10
-12.07736971791614
 20
-3.380473217526692
 30
0.0
 11
-11.97736971791614
 21
-3.409889312951193
 31
0.0
  0
LINE
  5
F101BD
330
261
100
AcDbEntity
  8
Geo
100
AcDbLine
 10
-11.97736971791614
 20
-3.409889312951193
 30
0.0
 11
-11.87736971791614
 21
-3.438606855905391
 31
0.0
  0
LINE
  5
F101BF
330
261
100
AcDbEntity
  8
Geo
100
AcDbLine
 10
-11.87736971791614
 20
-3.438606855905391
 30
0.0
 11
-11.77736971791613
 21
-3.46663542266749
 31
0.0
  0
LINE
  5
F101C1
330
261
100
AcDbEntity
  8
Geo
100
AcDbLine
 10
-11.77736971791613
 20
-3.46663542266749
 30
0.0
 11
-11.67736971791613
 21
-3.493984559949588
 31
0.0
  0
LINE
  5
F101C3
330
261
100
AcDbEntity
  8
Geo
100
AcDbLine
 10
-11.67736971791613
 20
-3.493984559949588
 30
0.0
 11
-11.57736971791614
 21
-3.520663777504793
 31
0.0
  0
LINE
  5
F101C5
330
261
100
AcDbEntity
  8
Geo
100
AcDbLine
 10
-11.57736971791614
 20
-3.520663777504793
 30
0.0
 11
-11.47736971791614
 21
-3.546682540942292
 31
0.0
  0
LINE
  5
F101C7
330
261
100
AcDbEntity
  8
Geo
100
AcDbLine
 10
-11.47736971791614
 20
-3.546682540942292
 30
0.0
 11
-11.37736971791614
 21
-3.57205026474779
 31
0.0
  0
LINE
  5
F101C9
330
261
100
AcDbEntity
  8
Geo
100
AcDbLine
 10
-11.37736971791614
 20
-3.57205026474779
 30
0.0
 11
-11.27736971791613
 21
-3.596776305506892
 31
0.0
  0
LINE
  5
F101CB
330
261
100
AcDbEntity
  8
Geo
100
AcDbLine
 10
-11.27736971791613
 20
-3.596776305506892
 30
0.0
 11
-11.17736971791613
 21
-3.62086995532659
 31
0.0
  0
LINE
  5
F101CD
330
261
100
AcDbEntity
  8
Geo
100
AcDbLine
 10
-11.17736971791613
 20
-3.62086995532659
 30
0.0
 11
-11.07736971791614
 21
-3.644340435453191
 31
0.0
  0
LINE
  5
F101CF
330
261
100
AcDbEntity
  8
Geo
100
AcDbLine
 10
-11.07736971791614
 20
-3.644340435453191
 30
0.0
 11
-10.97736971791614
 21
-3.667196890082394
 31
0.0
  0
LINE
  5
F101D1
330
261
100
AcDbEntity
  8
Geo
100
AcDbLine
 10
-10.97736971791614
 20
-3.667196890082394
 30
0.0
 11
-10.87736971791614
 21
-3.68944838035879
 31
0.0
  0
LINE
  5
F101D3
330
261
100
AcDbEntity
  8
Geo
100
AcDbLine
 10
-10.87736971791614
 20
-3.68944838035879
 30
0.0
 11
-10.77736971791614
 21
-3.711103878560489
 31
0.0
  0
LINE
  5
F101D5
330
261
100
AcDbEntity
  8
Geo
100
AcDbLine
 10
-10.77736971791614
 20
-3.711103878560489
 30
0.0
 11
-10.67736971791613
 21
-3.732172262467287
 31
0.0
  0
LINE
  5
F101D7
330
261
100
AcDbEntity
  8
Geo
100
AcDbLine
 10
-10.67736971791613
 20
-3.732172262467287
 30
0.0
 11
-10.57736971791614
 21
-3.752662309906593
 31
0.0
  0
LINE
  5
F101D9
330
261
100
AcDbEntity
  8
Geo
100
AcDbLine
 10
-10.57736971791614
 20
-3.752662309906593
 30
0.0
 11
-10.47736971791614
 21
-3.772582693475488
 31
0.0
  0
LINE
  5
F101DB
330
261
100
AcDbEntity
  8
Geo
100
AcDbLine
 10
-10.47736971791614
 20
-3.772582693475488
 30
0.0
 11
-10.37736971791614
 21
-3.791941975435491
 31
0.0
  0
LINE
  5
F101DD
330
261
100
AcDbEntity
  8
Geo
100
AcDbLine
 10
-10.37736971791614
 20
-3.791941975435491
 30
0.0
 11
-10.27736971791614
 21
-3.810748602774985
 31
0.0
  0
LINE
  5
F101DF
330
261
100
AcDbEntity
  8
Geo
100
AcDbLine
 10
-10.27736971791614
 20
-3.810748602774985
 30
0.0
 11
-10.17736971791613
 21
-3.829010902437492
 31
0.0
  0
LINE
  5
F101E1
330
261
100
AcDbEntity
  8
Geo
100
AcDbLine
 10
-10.17736971791613
 20
-3.829010902437492
 30
0.0
 11
-10.07736971791614
 21
-3.846737076712194
 31
0.0
  0
LINE
  5
F101E3
330
261
100
AcDbEntity
  8
Geo
100
AcDbLine
 10
-10.07736971791614
 20
-3.846737076712194
 30
0.0
 11
-9.97736971791614
 21
-3.863935198782492
 31
0.0
  0
LINE
  5
F101E5
330
261
100
AcDbEntity
  8
Geo
100
AcDbLine
 10
-9.97736971791614
 20
-3.863935198782492
 30
0.0
 11
-9.877369717916138
 21
-3.880613208429988
 31
0.0
  0
LINE
  5
F101E7
330
261
100
AcDbEntity
  8
Geo
100
AcDbLine
 10
-9.877369717916138
 20
-3.880613208429988
 30
0.0
 11
-9.777369717916137
 21
-3.896778907889892
 31
0.0
  0
LINE
  5
F101E9
330
261
100
AcDbEntity
  8
Geo
100
AcDbLine
 10
-9.777369717916137
 20
-3.896778907889892
 30
0.0
 11
-9.677369717916135
 21
-3.912439957855593
 31
0.0
  0
LINE
  5
F101EB
330
261
100
AcDbEntity
  8
Geo
100
AcDbLine
 10
-9.677369717916135
 20
-3.912439957855593
 30
0.0
 11
-9.577369717916141
 21
-3.927603873627891
 31
0.0
  0
LINE
  5
F101ED
330
261
100
AcDbEntity
  8
Geo
100
AcDbLine
 10
-9.577369717916141
 20
-3.927603873627891
 30
0.0
 11
-9.47736971791614
 21
-3.942278021406192
 31
0.0
  0
LINE
  5
F101EF
330
261
100
AcDbEntity
  8
Geo
100
AcDbLine
 10
-9.47736971791614
 20
-3.942278021406192
 30
0.0
 11
-9.377369717916138
 21
-3.95646961471899
 31
0.0
  0
LINE
  5
F101F1
330
261
100
AcDbEntity
  8
Geo
100
AcDbLine
 10
-9.377369717916138
 20
-3.95646961471899
 30
0.0
 11
-9.277369717916137
 21
-3.970185710988989
 31
0.0
  0
LINE
  5
F101F3
330
261
100
AcDbEntity
  8
Geo
100
AcDbLine
 10
-9.277369717916137
 20
-3.970185710988989
 30
0.0
 11
-9.177369717916135
 21
-3.983433208231488
 31
0.0
  0
LINE
  5
F101F5
330
261
100
AcDbEntity
  8
Geo
100
AcDbLine
 10
-9.177369717916135
 20
-3.983433208231488
 30
0.0
 11
-9.077369717916141
 21
-3.996218841881791
 31
0.0
  0
LINE
  5
F101F7
330
261
100
AcDbEntity
  8
Geo
100
AcDbLine
 10
-9.077369717916141
 20
-3.996218841881791
 30
0.0
 11
-8.97736971791604
 21
-4.00854918174889
 31
0.0
  0
LINE
  5
F101F9
330
261
100
AcDbEntity
  8
Geo
100
AcDbLine
 10
-8.97736971791604
 20
-4.00854918174889
 30
0.0
 11
-8.877369717916046
 21
-4.020430629092693
 31
0.0
  0
LINE
  5
F101FB
330
261
100
AcDbEntity
  8
Geo
100
AcDbLine
 10
-8.877369717916046
 20
-4.020430629092693
 30
0.0
 11
-8.777369717916045
 21
-4.03186941382129
 31
0.0
  0
LINE
  5
F101FD
330
261
100
AcDbEntity
  8
Geo
100
AcDbLine
 10
-8.777369717916045
 20
-4.03186941382129
 30
0.0
 11
-8.677369717916043
 21
-4.04287159180679
 31
0.0
  0
LINE
  5
F101FF
330
261
100
AcDbEntity
  8
Geo
100
AcDbLine
 10
-8.677369717916043
 20
-4.04287159180679
 30
0.0
 11
-8.577369717916042
 21
-4.05344304231459
 31
0.0
  0
LINE
  5
F10201
330
261
100
AcDbEntity
  8
Geo
100
AcDbLine
 10
-8.577369717916042
 20
-4.05344304231459
 30
0.0
 11
-8.47736971791604
 21
-4.063589465546094
 31
0.0
  0
LINE
  5
F10203
330
261
100
AcDbEntity
  8
Geo
100
AcDbLine
 10
-8.47736971791604
 20
-4.063589465546094
 30
0.0
 11
-8.377369717916046
 21
-4.073316380289892
 31
0.0
  0
LINE
  5
F10205
330
261
100
AcDbEntity
  8
Geo
100
AcDbLine
 10
-8.377369717916046
 20
-4.073316380289892
 30
0.0
 11
-8.277369717916045
 21
-4.082629121680589
 31
0.0
  0
LINE
  5
F10207
330
261
100
AcDbEntity
  8
Geo
100
AcDbLine
 10
-8.277369717916045
 20
-4.082629121680589
 30
0.0
 11
-8.177369717916043
 21
-4.091532839061393
 31
0.0
  0
LINE
  5
F10209
330
261
100
AcDbEntity
  8
Geo
100
AcDbLine
 10
-8.177369717916043
 20
-4.091532839061393
 30
0.0
 11
-8.077369717916042
 21
-4.100032493948894
 31
0.0
  0
LINE
  5
F1020B
330
261
100
AcDbEntity
  8
Geo
100
AcDbLine
 10
-8.077369717916042
 20
-4.100032493948894
 30
0.0
 11
-7.97736971791604
 21
-4.10813285809769
 31
0.0
  0
LINE
  5
F1020D
330
261
100
AcDbEntity
  8
Geo
100
AcDbLine
 10
-7.97736971791604
 20
-4.10813285809769
 30
0.0
 11
-7.877369717916046
 21
-4.115838511661891
 31
0.0
  0
LINE
  5
F1020F
330
261
100
AcDbEntity
  8
Geo
100
AcDbLine
 10
-7.877369717916046
 20
-4.115838511661891
 30
0.0
 11
-7.777369717916045
 21
-4.123153841452094
 31
0.0
  0
LINE
  5
F10211
330
261
100
AcDbEntity
  8
Geo
100
AcDbLine
 10
-7.777369717916045
 20
-4.123153841452094
 30
0.0
 11
-7.677369717916043
 21
-4.130083039284986
 31
0.0
  0
LINE
  5
F10213
330
261
100
AcDbEntity
  8
Geo
100
AcDbLine
 10
-7.677369717916043
 20
-4.130083039284986
 30
0.0
 11
-7.577369717916042
 21
-4.136630100424689
 31
0.0
  0
LINE
  5
F10215
330
261
100
AcDbEntity
  8
Geo
100
AcDbLine
 10
-7.577369717916042
 20
-4.136630100424689
 30
0.0
 11
-7.47736971791604
 21
-4.142798822112194
 31
0.0
  0
LINE
  5
F10217
330
261
100
AcDbEntity
  8
Geo
100
AcDbLine
 10
-7.47736971791604
 20
-4.142798822112194
 30
0.0
 11
-7.377369717916046
 21
-4.14859280218279
 31
0.0
  0
LINE
  5
F10219
330
261
100
AcDbEntity
  8
Geo
100
AcDbLine
 10
-7.377369717916046
 20
-4.14859280218279
 30
0.0
 11
-7.277369717916045
 21
-4.154015437768393
 31
0.0
  0
LINE
  5
F1021B
330
261
100
AcDbEntity
  8
Geo
100
AcDbLine
 10
-7.277369717916045
 20
-4.154015437768393
 30
0.0
 11
-7.177369717916043
 21
-4.159069924084192
 31
0.0
  0
LINE
  5
F1021D
330
261
100
AcDbEntity
  8
Geo
100
AcDbLine
 10
-7.177369717916043
 20
-4.159069924084192
 30
0.0
 11
-7.077369717916042
 21
-4.163759253296991
 31
0.0
  0
LINE
  5
F1021F
330
261
100
AcDbEntity
  8
Geo
100
AcDbLine
 10
-7.077369717916042
 20
-4.163759253296991
 30
0.0
 11
-6.97736971791604
 21
-4.168086213474392
 31
0.0
  0
LINE
  5
F10221
330
261
100
AcDbEntity
  8
Geo
100
AcDbLine
 10
-6.97736971791604
 20
-4.168086213474392
 30
0.0
 11
-6.877369717916046
 21
-4.172053387613392
 31
0.0
  0
LINE
  5
F10223
330
261
100
AcDbEntity
  8
Geo
100
AcDbLine
 10
-6.877369717916046
 20
-4.172053387613392
 30
0.0
 11
-6.777369717916045
 21
-4.175663152746793
 31
0.0
  0
LINE
  5
F10225
330
261
100
AcDbEntity
  8
Geo
100
AcDbLine
 10
-6.777369717916045
 20
-4.175663152746793
 30
0.0
 11
-6.677369717916043
 21
-4.178917679126691
 31
0.0
  0
LINE
  5
F10227
330
261
100
AcDbEntity
  8
Geo
100
AcDbLine
 10
-6.677369717916043
 20
-4.178917679126691
 30
0.0
 11
-6.577369717916042
 21
-4.181818929483089
 31
0.0
  0
LINE
  5
F10229
330
261
100
AcDbEntity
  8
Geo
100
AcDbLine
 10
-6.577369717916042
 20
-4.181818929483089
 30
0.0
 11
-6.47736971791604
 21
-4.18436865835779
 31
0.0
  0
LINE
  5
F1022B
330
261
100
AcDbEntity
  8
Geo
100
AcDbLine
 10
-6.47736971791604
 20
-4.18436865835779
 30
0.0
 11
-6.377369717916046
 21
-4.186568411511291
 31
0.0
  0
LINE
  5
F1022D
330
261
100
AcDbEntity
  8
Geo
100
AcDbLine
 10
-6.377369717916046
 20
-4.186568411511291
 30
0.0
 11
-6.277369717916045
 21
-4.188419525403588
 31
0.0
  0
LINE
  5
F1022F
330
261
100
AcDbEntity
  8
Geo
100
AcDbLine
 10
-6.277369717916045
 20
-4.188419525403588
 30
0.0
 11
-6.177369717916043
 21
-4.189923126745991
 31
0.0
  0
LINE
  5
F10231
330
261
100
AcDbEntity
  8
Geo
100
AcDbLine
 10
-6.177369717916043
 20
-4.189923126745991
 30
0.0
 11
-6.077369717916042
 21
-4.19108013212519
 31
0.0
  0
LINE
  5
F10233
330
261
100
AcDbEntity
  8
Geo
100
AcDbLine
 10
-6.077369717916042
 20
-4.19108013212519
 30
0.0
 11
-5.97736971791604
 21
-4.191891247698091
 31
0.0
  0
LINE
  5
F10235
330
261
100
AcDbEntity
  8
Geo
100
AcDbLine
 10
-5.97736971791604
 20
-4.191891247698091
 30
0.0
 11
-5.877369717916337
 21
-4.192356968957792
 31
0.0
  0
LINE
  5
F10237
330
261
100
AcDbEntity
  8
Geo
100
AcDbLine
 10
-48.57736971791634
 20
5.157107632977307
 30
0.0
 11
-48.47736971791634
 21
5.187139533491908
 31
0.0
  0
LINE
  5
F10239
330
261
100
AcDbEntity
  8
Geo
100
AcDbLine
 10
-48.47736971791634
 20
5.187139533491908
 30
0.0
 11
-48.37736971791634
 21
5.180743382119111
 31
0.0
  0
LINE
  5
F1023B
330
261
100
AcDbEntity
  8
Geo
100
AcDbLine
 10
-48.37736971791634
 20
5.180743382119111
 30
0.0
 11
-48.27736971791634
 21
5.138948528458008
 31
0.0
  0
LINE
  5
F1023D
330
261
100
AcDbEntity
  8
Geo
100
AcDbLine
 10
-48.27736971791634
 20
5.138948528458008
 30
0.0
 11
-48.17736971791633
 21
5.096772342964804
 31
0.0
  0
LINE
  5
F1023F
330
261
100
AcDbEntity
  8
Geo
100
AcDbLine
 10
-48.17736971791633
 20
5.096772342964804
 30
0.0
 11
-48.07736971791634
 21
5.054218730811513
 31
0.0
  0
LINE
  5
F10241
330
261
100
AcDbEntity
  8
Geo
100
AcDbLine
 10
-48.07736971791634
 20
5.054218730811513
 30
0.0
 11
-47.97736971791635
 21
5.011291632117206
 31
0.0
  0
LINE
  5
F10243
330
261
100
AcDbEntity
  8
Geo
100
AcDbLine
 10
-47.97736971791635
 20
5.011291632117206
 30
0.0
 11
-47.87736971791633
 21
4.96799502158251
 31
0.0
  0
LINE
  5
F10245
330
261
100
AcDbEntity
  8
Geo
100
AcDbLine
 10
-47.87736971791633
 20
4.96799502158251
 30
0.0
 11
-47.77736971791634
 21
4.924332908121911
 31
0.0
  0
LINE
  5
F10247
330
261
100
AcDbEntity
  8
Geo
100
AcDbLine
 10
-47.77736971791634
 20
4.924332908121911
 30
0.0
 11
-47.67736971791634
 21
4.880309334492409
 31
0.0
  0
LINE
  5
F10249
330
261
100
AcDbEntity
  8
Geo
100
AcDbLine
 10
-47.67736971791634
 20
4.880309334492409
 30
0.0
 11
-47.57736971791634
 21
4.835928376919511
 31
0.0
  0
LINE
  5
F1024B
330
261
100
AcDbEntity
  8
Geo
100
AcDbLine
 10
-47.57736971791634
 20
4.835928376919511
 30
0.0
 11
-47.47736971791634
 21
4.791194144719412
 31
0.0
  0
LINE
  5
F1024D
330
261
100
AcDbEntity
  8
Geo
100
AcDbLine
 10
-47.47736971791634
 20
4.791194144719412
 30
0.0
 11
-47.37736971791633
 21
4.746110779918609
 31
0.0
  0
LINE
  5
F1024F
330
261
100
AcDbEntity
  8
Geo
100
AcDbLine
 10
-47.37736971791633
 20
4.746110779918609
 30
0.0
 11
-47.27736971791634
 21
4.700682456870509
 31
0.0
  0
LINE
  5
F10251
330
261
100
AcDbEntity
  8
Geo
100
AcDbLine
 10
-47.27736971791634
 20
4.700682456870509
 30
0.0
 11
-47.17736971791633
 21
4.654913381869008
 31
0.0
  0
LINE
  5
F10253
330
261
100
AcDbEntity
  8
Geo
100
AcDbLine
 10
-47.17736971791633
 20
4.654913381869008
 30
0.0
 11
-47.07736971791634
 21
4.608807792758511
 31
0.0
  0
LINE
  5
F10255
330
261
100
AcDbEntity
  8
Geo
100
AcDbLine
 10
-47.07736971791634
 20
4.608807792758511
 30
0.0
 11
-46.97736971791634
 21
4.562369958542305
 31
0.0
  0
LINE
  5
F10257
330
261
100
AcDbEntity
  8
Geo
100
AcDbLine
 10
-46.97736971791634
 20
4.562369958542305
 30
0.0
 11
-46.87736971791633
 21
4.515604178986606
 31
0.0
  0
LINE
  5
F10259
330
261
100
AcDbEntity
  8
Geo
100
AcDbLine
 10
-46.87736971791633
 20
4.515604178986606
 30
0.0
 11
-46.77736971791634
 21
4.468514784222804
 31
0.0
  0
LINE
  5
F1025B
330
261
100
AcDbEntity
  8
Geo
100
AcDbLine
 10
-46.77736971791634
 20
4.468514784222804
 30
0.0
 11
-46.67736971791633
 21
4.42110613434631
 31
0.0
  0
LINE
  5
F1025D
330
261
100
AcDbEntity
  8
Geo
100
AcDbLine
 10
-46.67736971791633
 20
4.42110613434631
 30
0.0
 11
-46.57736971791634
 21
4.373382619013106
 31
0.0
  0
LINE
  5
F1025F
330
261
100
AcDbEntity
  8
Geo
100
AcDbLine
 10
-46.57736971791634
 20
4.373382619013106
 30
0.0
 11
-46.47736971791634
 21
4.32534865703311
 31
0.0
  0
LINE
  5
F10261
330
261
100
AcDbEntity
  8
Geo
100
AcDbLine
 10
-46.47736971791634
 20
4.32534865703311
 30
0.0
 11
-46.37736971791634
 21
4.277008695961107
 31
0.0
  0
LINE
  5
F10263
330
261
100
AcDbEntity
  8
Geo
100
AcDbLine
 10
-46.37736971791634
 20
4.277008695961107
 30
0.0
 11
-46.27736971791634
 21
4.228367211684911
 31
0.0
  0
LINE
  5
F10265
330
261
100
AcDbEntity
  8
Geo
100
AcDbLine
 10
-46.27736971791634
 20
4.228367211684911
 30
0.0
 11
-46.17736971791633
 21
4.179428708010803
 31
0.0
  0
LINE
  5
F10267
330
261
100
AcDbEntity
  8
Geo
100
AcDbLine
 10
-46.17736971791633
 20
4.179428708010803
 30
0.0
 11
-46.07736971791633
 21
4.130197716246804
 31
0.0
  0
LINE
  5
F10269
330
261
100
AcDbEntity
  8
Geo
100
AcDbLine
 10
-46.07736971791633
 20
4.130197716246804
 30
0.0
 11
-45.97736971791634
 21
4.080678794782912
 31
0.0
  0
LINE
  5
F1026B
330
261
100
AcDbEntity
  8
Geo
100
AcDbLine
 10
-45.97736971791634
 20
4.080678794782912
 30
0.0
 11
-45.87736971791634
 21
4.030876528669011
 31
0.0
  0
LINE
  5
F1026D
330
261
100
AcDbEntity
  8
Geo
100
AcDbLine
 10
-45.87736971791634
 20
4.030876528669011
 30
0.0
 11
-45.77736971791634
 21
3.980795529190508
 31
0.0
  0
LINE
  5
F1026F
330
261
100
AcDbEntity
  8
Geo
100
AcDbLine
 10
-45.77736971791634
 20
3.980795529190508
 30
0.0
 11
-45.67736971791633
 21
3.930440433441212
 31
0.0
  0
LINE
  5
F10271
330
261
100
AcDbEntity
  8
Geo
100
AcDbLine
 10
-45.67736971791633
 20
3.930440433441212
 30
0.0
 11
-45.57736971791634
 21
3.879815903894012
 31
0.0
  0
LINE
  5
F10273
330
261
100
AcDbEntity
  8
Geo
100
AcDbLine
 10
-45.57736971791634
 20
3.879815903894012
 30
0.0
 11
-45.47736971791635
 21
3.82892662796921
 31
0.0
  0
LINE
  5
F10275
330
261
100
AcDbEntity
  8
Geo
100
AcDbLine
 10
-45.47736971791635
 20
3.82892662796921
 30
0.0
 11
-45.37736971791633
 21
3.77777731760031
 31
0.0
  0
LINE
  5
F10277
330
261
100
AcDbEntity
  8
Geo
100
AcDbLine
 10
-45.37736971791633
 20
3.77777731760031
 30
0.0
 11
-45.27736971791634
 21
3.726372708798209
 31
0.0
  0
LINE
  5
F10279
330
261
100
AcDbEntity
  8
Geo
100
AcDbLine
 10
-45.27736971791634
 20
3.726372708798209
 30
0.0
 11
-45.17736971791634
 21
3.674717561212013
 31
0.0
  0
LINE
  5
F1027B
330
261
100
AcDbEntity
  8
Geo
100
AcDbLine
 10
-45.17736971791634
 20
3.674717561212013
 30
0.0
 11
-45.07736971791634
 21
3.622816657688908
 31
0.0
  0
LINE
  5
F1027D
330
261
100
AcDbEntity
  8
Geo
100
AcDbLine
 10
-45.07736971791634
 20
3.622816657688908
 30
0.0
 11
-44.97736971791634
 21
3.57067480383111
 31
0.0
  0
LINE
  5
F1027F
330
261
100
AcDbEntity
  8
Geo
100
AcDbLine
 10
-44.97736971791634
 20
3.57067480383111
 30
0.0
 11
-44.87736971791633
 21
3.518296827550713
 31
0.0
  0
LINE
  5
F10281
330
261
100
AcDbEntity
  8
Geo
100
AcDbLine
 10
-44.87736971791633
 20
3.518296827550713
 30
0.0
 11
-44.77736971791634
 21
3.465687578622905
 31
0.0
  0
LINE
  5
F10283
330
261
100
AcDbEntity
  8
Geo
100
AcDbLine
 10
-44.77736971791634
 20
3.465687578622905
 30
0.0
 11
-44.67736971791633
 21
3.41285192823701
 31
0.0
  0
LINE
  5
F10285
330
261
100
AcDbEntity
  8
Geo
100
AcDbLine
 10
-44.67736971791633
 20
3.41285192823701
 30
0.0
 11
-44.57736971791634
 21
3.359794768544908
 31
0.0
  0
LINE
  5
F10287
330
261
100
AcDbEntity
  8
Geo
100
AcDbLine
 10
-44.57736971791634
 20
3.359794768544908
 30
0.0
 11
-44.47736971791634
 21
3.306521012208712
 31
0.0
  0
LINE
  5
F10289
330
261
100
AcDbEntity
  8
Geo
100
AcDbLine
 10
-44.47736971791634
 20
3.306521012208712
 30
0.0
 11
-44.37736971791633
 21
3.25303559194571
 31
0.0
  0
LINE
  5
F1028B
330
261
100
AcDbEntity
  8
Geo
100
AcDbLine
 10
-44.37736971791633
 20
3.25303559194571
 30
0.0
 11
-44.27736971791634
 21
3.199343460071304
 31
0.0
  0
LINE
  5
F1028D
330
261
100
AcDbEntity
  8
Geo
100
AcDbLine
 10
-44.27736971791634
 20
3.199343460071304
 30
0.0
 11
-44.17736971791633
 21
3.145449588040811
 31
0.0
  0
LINE
  5
F1028F
330
261
100
AcDbEntity
  8
Geo
100
AcDbLine
 10
-44.17736971791633
 20
3.145449588040811
 30
0.0
 11
-44.07736971791634
 21
3.091358965989108
 31
0.0
  0
LINE
  5
F10291
330
261
100
AcDbEntity
  8
Geo
100
AcDbLine
 10
-44.07736971791634
 20
3.091358965989108
 30
0.0
 11
-43.97736971791634
 21
3.037076602268513
 31
0.0
  0
LINE
  5
F10293
330
261
100
AcDbEntity
  8
Geo
100
AcDbLine
 10
-43.97736971791634
 20
3.037076602268513
 30
0.0
 11
-43.87736971791634
 21
2.982607522985013
 31
0.0
  0
LINE
  5
F10295
330
261
100
AcDbEntity
  8
Geo
100
AcDbLine
 10
-43.87736971791634
 20
2.982607522985013
 30
0.0
 11
-43.77736971791634
 21
2.927956771532905
 31
0.0
  0
LINE
  5
F10297
330
261
100
AcDbEntity
  8
Geo
100
AcDbLine
 10
-43.77736971791634
 20
2.927956771532905
 30
0.0
 11
-43.67736971791633
 21
2.873129408128008
 31
0.0
  0
LINE
  5
F10299
330
261
100
AcDbEntity
  8
Geo
100
AcDbLine
 10
-43.67736971791633
 20
2.873129408128008
 30
0.0
 11
-43.57736971791633
 21
2.818130509338708
 31
0.0
  0
LINE
  5
F1029B
330
261
100
AcDbEntity
  8
Geo
100
AcDbLine
 10
-43.57736971791633
 20
2.818130509338708
 30
0.0
 11
-43.47736971791634
 21
2.762965167616613
 31
0.0
  0
LINE
  5
F1029D
330
261
100
AcDbEntity
  8
Geo
100
AcDbLine
 10
-43.47736971791634
 20
2.762965167616613
 30
0.0
 11
-43.37736971791634
 21
2.70763849082401
 31
0.0
  0
LINE
  5
F1029F
330
261
100
AcDbEntity
  8
Geo
100
AcDbLine
 10
-43.37736971791634
 20
2.70763849082401
 30
0.0
 11
-43.27736971791634
 21
2.652155601762011
 31
0.0
  0
LINE
  5
F102A1
330
261
100
AcDbEntity
  8
Geo
100
AcDbLine
 10
-43.27736971791634
 20
2.652155601762011
 30
0.0
 11
-43.17736971791633
 21
2.59652163769541
 31
0.0
  0
LINE
  5
F102A3
330
261
100
AcDbEntity
  8
Geo
100
AcDbLine
 10
-43.17736971791633
 20
2.59652163769541
 30
0.0
 11
-43.07736971791634
 21
2.540741749877611
 31
0.0
  0
LINE
  5
F102A5
330
261
100
AcDbEntity
  8
Geo
100
AcDbLine
 10
-43.07736971791634
 20
2.540741749877611
 30
0.0
 11
-42.97736971791635
 21
2.484821103073009
 31
0.0
  0
LINE
  5
F102A7
330
261
100
AcDbEntity
  8
Geo
100
AcDbLine
 10
-42.97736971791635
 20
2.484821103073009
 30
0.0
 11
-42.87736971791633
 21
2.428764875079309
 31
0.0
  0
LINE
  5
F102A9
330
261
100
AcDbEntity
  8
Geo
100
AcDbLine
 10
-42.87736971791633
 20
2.428764875079309
 30
0.0
 11
-42.77736971791634
 21
2.372578256248011
 31
0.0
  0
LINE
  5
F102AB
330
261
100
AcDbEntity
  8
Geo
100
AcDbLine
 10
-42.77736971791634
 20
2.372578256248011
 30
0.0
 11
-42.67736971791634
 21
2.316266449003805
 31
0.0
  0
LINE
  5
F102AD
330
261
100
AcDbEntity
  8
Geo
100
AcDbLine
 10
-42.67736971791634
 20
2.316266449003805
 30
0.0
 11
-42.57736971791634
 21
2.259834667362412
 31
0.0
  0
LINE
  5
F102AF
330
261
100
AcDbEntity
  8
Geo
100
AcDbLine
 10
-42.57736971791634
 20
2.259834667362412
 30
0.0
 11
-42.47736971791634
 21
2.203288136448705
 31
0.0
  0
LINE
  5
F102B1
330
261
100
AcDbEntity
  8
Geo
100
AcDbLine
 10
-42.47736971791634
 20
2.203288136448705
 30
0.0
 11
-42.37736971791633
 21
2.146632092012112
 31
0.0
  0
LINE
  5
F102B3
330
261
100
AcDbEntity
  8
Geo
100
AcDbLine
 10
-42.37736971791633
 20
2.146632092012112
 30
0.0
 11
-42.27736971791634
 21
2.089871779942107
 31
0.0
  0
LINE
  5
F102B5
330
261
100
AcDbEntity
  8
Geo
100
AcDbLine
 10
-42.27736971791634
 20
2.089871779942107
 30
0.0
 11
-42.17736971791633
 21
2.03301245578271
 31
0.0
  0
LINE
  5
F102B7
330
261
100
AcDbEntity
  8
Geo
100
AcDbLine
 10
-42.17736971791633
 20
2.03301245578271
 30
0.0
 11
-42.07736971791634
 21
1.976059384245509
 31
0.0
  0
LINE
  5
F102B9
330
261
100
AcDbEntity
  8
Geo
100
AcDbLine
 10
-42.07736971791634
 20
1.976059384245509
 30
0.0
 11
-41.97736971791634
 21
1.91901783872241
 31
0.0
  0
LINE
  5
F102BB
330
261
100
AcDbEntity
  8
Geo
100
AcDbLine
 10
-41.97736971791634
 20
1.91901783872241
 30
0.0
 11
-41.87736971791633
 21
1.861893100797111
 31
0.0
  0
LINE
  5
F102BD
330
261
100
AcDbEntity
  8
Geo
100
AcDbLine
 10
-41.87736971791633
 20
1.861893100797111
 30
0.0
 11
-41.77736971791634
 21
1.804690459756514
 31
0.0
  0
LINE
  5
F102BF
330
261
100
AcDbEntity
  8
Geo
100
AcDbLine
 10
-41.77736971791634
 20
1.804690459756514
 30
0.0
 11
-41.67736971791633
 21
1.747415212100513
 31
0.0
  0
LINE
  5
F102C1
330
261
100
AcDbEntity
  8
Geo
100
AcDbLine
 10
-41.67736971791633
 20
1.747415212100513
 30
0.0
 11
-41.57736971791634
 21
1.690072661051807
 31
0.0
  0
LINE
  5
F102C3
330
261
100
AcDbEntity
  8
Geo
100
AcDbLine
 10
-41.57736971791634
 20
1.690072661051807
 30
0.0
 11
-41.47736971791634
 21
1.632668116065012
 31
0.0
  0
LINE
  5
F102C5
330
261
100
AcDbEntity
  8
Geo
100
AcDbLine
 10
-41.47736971791634
 20
1.632668116065012
 30
0.0
 11
-41.37736971791634
 21
1.575206892334708
 31
0.0
  0
LINE
  5
F102C7
330
261
100
AcDbEntity
  8
Geo
100
AcDbLine
 10
-41.37736971791634
 20
1.575206892334708
 30
0.0
 11
-41.27736971791634
 21
1.517694310303607
 31
0.0
  0
LINE
  5
F102C9
330
261
100
AcDbEntity
  8
Geo
100
AcDbLine
 10
-41.27736971791634
 20
1.517694310303607
 30
0.0
 11
-41.17736971791633
 21
1.460135695169604
 31
0.0
  0
LINE
  5
F102CB
330
261
100
AcDbEntity
  8
Geo
100
AcDbLine
 10
-41.17736971791633
 20
1.460135695169604
 30
0.0
 11
-41.07736971791633
 21
1.402536376392909
 31
0.0
  0
LINE
  5
F102CD
330
261
100
AcDbEntity
  8
Geo
100
AcDbLine
 10
-41.07736971791633
 20
1.402536376392909
 30
0.0
 11
-40.97736971791634
 21
1.344901687202806
 31
0.0
  0
LINE
  5
F102CF
330
261
100
AcDbEntity
  8
Geo
100
AcDbLine
 10
-40.97736971791634
 20
1.344901687202806
 30
0.0
 11
-40.87736971791634
 21
1.287236964103207
 31
0.0
  0
LINE
  5
F102D1
330
261
100
AcDbEntity
  8
Geo
100
AcDbLine
 10
-40.87736971791634
 20
1.287236964103207
 30
0.0
 11
-40.77736971791634
 21
1.229547546379308
 31
0.0
  0
LINE
  5
F102D3
330
261
100
AcDbEntity
  8
Geo
100
AcDbLine
 10
-40.77736971791634
 20
1.229547546379308
 30
0.0
 11
-40.67736971791633
 21
1.171838775602608
 31
0.0
  0
LINE
  5
F102D5
330
261
100
AcDbEntity
  8
Geo
100
AcDbLine
 10
-40.67736971791633
 20
1.171838775602608
 30
0.0
 11
-40.57736971791634
 21
1.114115995136508
 31
0.0
  0
LINE
  5
F102D7
330
261
100
AcDbEntity
  8
Geo
100
AcDbLine
 10
-40.57736971791634
 20
1.114115995136508
 30
0.0
 11
-40.47736971791635
 21
1.056384549641709
 31
0.0
  0
LINE
  5
F102D9
330
261
100
AcDbEntity
  8
Geo
100
AcDbLine
 10
-40.47736971791635
 20
1.056384549641709
 30
0.0
 11
-40.37736971791633
 21
0.9986497845812074
 31
0.0
  0
LINE
  5
F102DB
330
261
100
AcDbEntity
  8
Geo
100
AcDbLine
 10
-40.37736971791633
 20
0.9986497845812074
 30
0.0
 11
-40.27736971791634
 21
0.9409170457253068
 31
0.0
  0
LINE
  5
F102DD
330
261
100
AcDbEntity
  8
Geo
100
AcDbLine
 10
-40.27736971791634
 20
0.9409170457253068
 30
0.0
 11
-40.17736971791634
 21
0.8831916786567113
 31
0.0
  0
LINE
  5
F102DF
330
261
100
AcDbEntity
  8
Geo
100
AcDbLine
 10
-40.17736971791634
 20
0.8831916786567113
 30
0.0
 11
-40.07736971791634
 21
0.8254790282755095
 31
0.0
  0
LINE
  5
F102E1
330
261
100
AcDbEntity
  8
Geo
100
AcDbLine
 10
-40.07736971791634
 20
0.8254790282755095
 30
0.0
 11
-39.97736971791635
 21
0.7677844383045099
 31
0.0
  0
LINE
  5
F102E3
330
261
100
AcDbEntity
  8
Geo
100
AcDbLine
 10
-39.97736971791635
 20
0.7677844383045099
 30
0.0
 11
-39.87736971791634
 21
0.7101132507941088
 31
0.0
  0
LINE
  5
F102E5
330
261
100
AcDbEntity
  8
Geo
100
AcDbLine
 10
-39.87736971791634
 20
0.7101132507941088
 30
0.0
 11
-39.77736971791634
 21
0.6524708056279103
 31
0.0
  0
LINE
  5
F102E7
330
261
100
AcDbEntity
  8
Geo
100
AcDbLine
 10
-39.77736971791634
 20
0.6524708056279103
 30
0.0
 11
-39.67736971791634
 21
0.5948624400281091
 31
0.0
  0
LINE
  5
F102E9
330
261
100
AcDbEntity
  8
Geo
100
AcDbLine
 10
-39.67736971791634
 20
0.5948624400281091
 30
0.0
 11
-39.57736971791634
 21
0.5372934880615077
 31
0.0
  0
LINE
  5
F102EB
330
261
100
AcDbEntity
  8
Geo
100
AcDbLine
 10
-39.57736971791634
 20
0.5372934880615077
 30
0.0
 11
-39.47736971791634
 21
0.4797692801455114
 31
0.0
  0
LINE
  5
F102ED
330
261
100
AcDbEntity
  8
Geo
100
AcDbLine
 10
-39.47736971791634
 20
0.4797692801455114
 30
0.0
 11
-39.37736971791634
 21
0.4222951425545105
 31
0.0
  0
LINE
  5
F102EF
330
261
100
AcDbEntity
  8
Geo
100
AcDbLine
 10
-39.37736971791634
 20
0.4222951425545105
 30
0.0
 11
-39.27736971791635
 21
0.3648763969269098
 31
0.0
  0
LINE
  5
F102F1
330
261
100
AcDbEntity
  8
Geo
100
AcDbLine
 10
-39.27736971791635
 20
0.3648763969269098
 30
0.0
 11
-39.17736971791633
 21
0.3075183597722102
 31
0.0
  0
LINE
  5
F102F3
330
261
100
AcDbEntity
  8
Geo
100
AcDbLine
 10
-39.17736971791633
 20
0.3075183597722102
 30
0.0
 11
-39.07736971791634
 21
0.2502263419787134
 31
0.0
  0
LINE
  5
F102F5
330
261
100
AcDbEntity
  8
Geo
100
AcDbLine
 10
-39.07736971791634
 20
0.2502263419787134
 30
0.0
 11
-38.97736971791635
 21
0.1930056483220106
 31
0.0
  0
LINE
  5
F102F7
330
261
100
AcDbEntity
  8
Geo
100
AcDbLine
 10
-38.97736971791635
 20
0.1930056483220106
 30
0.0
 11
-38.87736971791634
 21
0.1358615769736104
 31
0.0
  0
LINE
  5
F102F9
330
261
100
AcDbEntity
  8
Geo
100
AcDbLine
 10
-38.87736971791634
 20
0.1358615769736104
 30
0.0
 11
-38.77736971791634
 21
0.0787994190104087
 31
0.0
  0
LINE
  5
F102FB
330
261
100
AcDbEntity
  8
Geo
100
AcDbLine
 10
-38.77736971791634
 20
0.0787994190104087
 30
0.0
 11
-38.67736971791634
 21
0.0218244579248079
 31
0.0
  0
LINE
  5
F102FD
330
261
100
AcDbEntity
  8
Geo
100
AcDbLine
 10
-38.67736971791634
 20
0.0218244579248079
 30
0.0
 11
-38.57736971791634
 21
-0.0350580308646933
 31
0.0
  0
LINE
  5
F102FF
330
261
100
AcDbEntity
  8
Geo
100
AcDbLine
 10
-38.57736971791634
 20
-0.0350580308646933
 30
0.0
 11
-38.47736971791635
 21
-0.0918427805014908
 31
0.0
  0
LINE
  5
F10301
330
261
100
AcDbEntity
  8
Geo
100
AcDbLine
 10
-38.47736971791635
 20
-0.0918427805014908
 30
0.0
 11
-38.37736971791634
 21
-0.1485245331788931
 31
0.0
  0
LINE
  5
F10303
330
261
100
AcDbEntity
  8
Geo
100
AcDbLine
 10
-38.37736971791634
 20
-0.1485245331788931
 30
0.0
 11
-38.27736971791635
 21
-0.2050980406271918
 31
0.0
  0
LINE
  5
F10305
330
261
100
AcDbEntity
  8
Geo
100
AcDbLine
 10
-38.27736971791635
 20
-0.2050980406271918
 30
0.0
 11
-38.17736971791634
 21
-0.2615580645988942
 31
0.0
  0
LINE
  5
F10307
330
261
100
AcDbEntity
  8
Geo
100
AcDbLine
 10
-38.17736971791634
 20
-0.2615580645988942
 30
0.0
 11
-38.07736971791634
 21
-0.3178993773543937
 31
0.0
  0
LINE
  5
F10309
330
261
100
AcDbEntity
  8
Geo
100
AcDbLine
 10
-38.07736971791634
 20
-0.3178993773543937
 30
0.0
 11
-37.97736971791635
 21
-0.3741167621456896
 31
0.0
  0
LINE
  5
F1030B
330
261
100
AcDbEntity
  8
Geo
100
AcDbLine
 10
-37.97736971791635
 20
-0.3741167621456896
 30
0.0
 11
-37.87736971791634
 21
-0.4302050136995881
 31
0.0
  0
LINE
  5
F1030D
330
261
100
AcDbEntity
  8
Geo
100
AcDbLine
 10
-37.87736971791634
 20
-0.4302050136995881
 30
0.0
 11
-37.77736971791635
 21
-0.4861589386995889
 31
0.0
  0
LINE
  5
F1030F
330
261
100
AcDbEntity
  8
Geo
100
AcDbLine
 10
-37.77736971791635
 20
-0.4861589386995889
 30
0.0
 11
-37.67736971791634
 21
-0.5419733562664888
 31
0.0
  0
LINE
  5
F10311
330
261
100
AcDbEntity
  8
Geo
100
AcDbLine
 10
-37.67736971791634
 20
-0.5419733562664888
 30
0.0
 11
-37.57736971791634
 21
-0.5976430984387911
 31
0.0
  0
LINE
  5
F10313
330
261
100
AcDbEntity
  8
Geo
100
AcDbLine
 10
-37.57736971791634
 20
-0.5976430984387911
 30
0.0
 11
-37.47736971791635
 21
-0.6531630106503919
 31
0.0
  0
LINE
  5
F10315
330
261
100
AcDbEntity
  8
Geo
100
AcDbLine
 10
-37.47736971791635
 20
-0.6531630106503919
 30
0.0
 11
-37.37736971791634
 21
-0.7085279522082893
 31
0.0
  0
LINE
  5
F10317
330
261
100
AcDbEntity
  8
Geo
100
AcDbLine
 10
-37.37736971791634
 20
-0.7085279522082893
 30
0.0
 11
-37.27736971791634
 21
-0.7637327967685899
 31
0.0
  0
LINE
  5
F10319
330
261
100
AcDbEntity
  8
Geo
100
AcDbLine
 10
-37.27736971791634
 20
-0.7637327967685899
 30
0.0
 11
-37.17736971791634
 21
-0.818772432811194
 31
0.0
  0
LINE
  5
F1031B
330
261
100
AcDbEntity
  8
Geo
100
AcDbLine
 10
-37.17736971791634
 20
-0.818772432811194
 30
0.0
 11
-37.07736971791634
 21
-0.873641764112591
 31
0.0
  0
LINE
  5
F1031D
330
261
100
AcDbEntity
  8
Geo
100
AcDbLine
 10
-37.07736971791634
 20
-0.873641764112591
 30
0.0
 11
-36.97736971791635
 21
-0.9283357102184908
 31
0.0
  0
LINE
  5
F1031F
330
261
100
AcDbEntity
  8
Geo
100
AcDbLine
 10
-36.97736971791635
 20
-0.9283357102184908
 30
0.0
 11
-36.87736971791634
 21
-0.9828492069136913
 31
0.0
  0
LINE
  5
F10321
330
261
100
AcDbEntity
  8
Geo
100
AcDbLine
 10
-36.87736971791634
 20
-0.9828492069136913
 30
0.0
 11
-36.77736971791635
 21
-1.037177206691193
 31
0.0
  0
LINE
  5
F10323
330
261
100
AcDbEntity
  8
Geo
100
AcDbLine
 10
-36.77736971791635
 20
-1.037177206691193
 30
0.0
 11
-36.67736971791633
 21
-1.091314679219287
 31
0.0
  0
LINE
  5
F10325
330
261
100
AcDbEntity
  8
Geo
100
AcDbLine
 10
-36.67736971791633
 20
-1.091314679219287
 30
0.0
 11
-36.57736971791634
 21
-1.145256611807891
 31
0.0
  0
LINE
  5
F10327
330
261
100
AcDbEntity
  8
Geo
100
AcDbLine
 10
-36.57736971791634
 20
-1.145256611807891
 30
0.0
 11
-36.47736971791635
 21
-1.198998009872092
 31
0.0
  0
LINE
  5
F10329
330
261
100
AcDbEntity
  8
Geo
100
AcDbLine
 10
-36.47736971791635
 20
-1.198998009872092
 30
0.0
 11
-36.37736971791634
 21
-1.25253389739489
 31
0.0
  0
LINE
  5
F1032B
330
261
100
AcDbEntity
  8
Geo
100
AcDbLine
 10
-36.37736971791634
 20
-1.25253389739489
 30
0.0
 11
-36.27736971791634
 21
-1.305859317387991
 31
0.0
  0
LINE
  5
F1032D
330
261
100
AcDbEntity
  8
Geo
100
AcDbLine
 10
-36.27736971791634
 20
-1.305859317387991
 30
0.0
 11
-36.17736971791634
 21
-1.358969332350486
 31
0.0
  0
LINE
  5
F1032F
330
261
100
AcDbEntity
  8
Geo
100
AcDbLine
 10
-36.17736971791634
 20
-1.358969332350486
 30
0.0
 11
-36.07736971791634
 21
-1.411859024726389
 31
0.0
  0
LINE
  5
F10331
330
261
100
AcDbEntity
  8
Geo
100
AcDbLine
 10
-36.07736971791634
 20
-1.411859024726389
 30
0.0
 11
-35.97736971791635
 21
-1.464523497359792
 31
0.0
  0
LINE
  5
F10333
330
261
100
AcDbEntity
  8
Geo
100
AcDbLine
 10
-35.97736971791635
 20
-1.464523497359792
 30
0.0
 11
-35.87736971791634
 21
-1.516957873948193
 31
0.0
  0
LINE
  5
F10335
330
261
100
AcDbEntity
  8
Geo
100
AcDbLine
 10
-35.87736971791634
 20
-1.516957873948193
 30
0.0
 11
-35.77736971791634
 21
-1.569157299494289
 31
0.0
  0
LINE
  5
F10337
330
261
100
AcDbEntity
  8
Geo
100
AcDbLine
 10
-35.77736971791634
 20
-1.569157299494289
 30
0.0
 11
-35.67736971791634
 21
-1.62111694075509
 31
0.0
  0
LINE
  5
F10339
330
261
100
AcDbEntity
  8
Geo
100
AcDbLine
 10
-35.67736971791634
 20
-1.62111694075509
 30
0.0
 11
-35.57736971791634
 21
-1.672831986689892
 31
0.0
  0
LINE
  5
F1033B
330
261
100
AcDbEntity
  8
Geo
100
AcDbLine
 10
-35.57736971791634
 20
-1.672831986689892
 30
0.0
 11
-35.47736971791635
 21
-1.724297648905491
 31
0.0
  0
LINE
  5
F1033D
330
261
100
AcDbEntity
  8
Geo
100
AcDbLine
 10
-35.47736971791635
 20
-1.724297648905491
 30
0.0
 11
-35.37736971791634
 21
-1.775509162099591
 31
0.0
  0
LINE
  5
F1033F
330
261
100
AcDbEntity
  8
Geo
100
AcDbLine
 10
-35.37736971791634
 20
-1.775509162099591
 30
0.0
 11
-35.27736971791635
 21
-1.826461784501891
 31
0.0
  0
LINE
  5
F10341
330
261
100
AcDbEntity
  8
Geo
100
AcDbLine
 10
-35.27736971791635
 20
-1.826461784501891
 30
0.0
 11
-35.17736971791634
 21
-1.87715079831349
 31
0.0
  0
LINE
  5
F10343
330
261
100
AcDbEntity
  8
Geo
100
AcDbLine
 10
-35.17736971791634
 20
-1.87715079831349
 30
0.0
 11
-35.07736971791634
 21
-1.927571510143287
 31
0.0
  0
LINE
  5
F10345
330
261
100
AcDbEntity
  8
Geo
100
AcDbLine
 10
-35.07736971791634
 20
-1.927571510143287
 30
0.0
 11
-34.97736971791635
 21
-1.977719251442991
 31
0.0
  0
LINE
  5
F10347
330
261
100
AcDbEntity
  8
Geo
100
AcDbLine
 10
-34.97736971791635
 20
-1.977719251442991
 30
0.0
 11
-34.87736971791634
 21
-2.027589378938991
 31
0.0
  0
LINE
  5
F10349
330
261
100
AcDbEntity
  8
Geo
100
AcDbLine
 10
-34.87736971791634
 20
-2.027589378938991
 30
0.0
 11
-34.77736971791634
 21
-2.077177275062489
 31
0.0
  0
LINE
  5
F1034B
330
261
100
AcDbEntity
  8
Geo
100
AcDbLine
 10
-34.77736971791634
 20
-2.077177275062489
 30
0.0
 11
-34.67736971791634
 21
-2.126478348377091
 31
0.0
  0
LINE
  5
F1034D
330
261
100
AcDbEntity
  8
Geo
100
AcDbLine
 10
-34.67736971791634
 20
-2.126478348377091
 30
0.0
 11
-34.57736971791634
 21
-2.17548803400389
 31
0.0
  0
LINE
  5
F1034F
330
261
100
AcDbEntity
  8
Geo
100
AcDbLine
 10
-34.57736971791634
 20
-2.17548803400389
 30
0.0
 11
-34.47736971791635
 21
-2.224201794043988
 31
0.0
  0
LINE
  5
F10351
330
261
100
AcDbEntity
  8
Geo
100
AcDbLine
 10
-34.47736971791635
 20
-2.224201794043988
 30
0.0
 11
-34.37736971791634
 21
-2.272615117998789
 31
0.0
  0
LINE
  5
F10353
330
261
100
AcDbEntity
  8
Geo
100
AcDbLine
 10
-34.37736971791634
 20
-2.272615117998789
 30
0.0
 11
-34.27736971791635
 21
-2.32072352318779
 31
0.0
  0
LINE
  5
F10355
330
261
100
AcDbEntity
  8
Geo
100
AcDbLine
 10
-34.27736971791635
 20
-2.32072352318779
 30
0.0
 11
-34.17736971791633
 21
-2.368522555163288
 31
0.0
  0
LINE
  5
F10357
330
261
100
AcDbEntity
  8
Geo
100
AcDbLine
 10
-34.17736971791633
 20
-2.368522555163288
 30
0.0
 11
-34.07736971791634
 21
-2.416007788123287
 31
0.0
  0
LINE
  5
F10359
330
261
100
AcDbEntity
  8
Geo
100
AcDbLine
 10
-34.07736971791634
 20
-2.416007788123287
 30
0.0
 11
-33.97736971791635
 21
-2.463174825320791
 31
0.0
  0
LINE
  5
F1035B
330
261
100
AcDbEntity
  8
Geo
100
AcDbLine
 10
-33.97736971791635
 20
-2.463174825320791
 30
0.0
 11
-33.87736971791634
 21
-2.510019299471291
 31
0.0
  0
LINE
  5
F1035D
330
261
100
AcDbEntity
  8
Geo
100
AcDbLine
 10
-33.87736971791634
 20
-2.510019299471291
 30
0.0
 11
-33.77736971791634
 21
-2.55653687315689
 31
0.0
  0
LINE
  5
F1035F
330
261
100
AcDbEntity
  8
Geo
100
AcDbLine
 10
-33.77736971791634
 20
-2.55653687315689
 30
0.0
 11
-33.67736971791634
 21
-2.60272323922809
 31
0.0
  0
LINE
  5
F10361
330
261
100
AcDbEntity
  8
Geo
100
AcDbLine
 10
-33.67736971791634
 20
-2.60272323922809
 30
0.0
 11
-33.57736971791634
 21
-2.648574121202486
 31
0.0
  0
LINE
  5
F10363
330
261
100
AcDbEntity
  8
Geo
100
AcDbLine
 10
-33.57736971791634
 20
-2.648574121202486
 30
0.0
 11
-33.47736971791635
 21
-2.694085273660892
 31
0.0
  0
LINE
  5
F10365
330
261
100
AcDbEntity
  8
Geo
100
AcDbLine
 10
-33.47736971791635
 20
-2.694085273660892
 30
0.0
 11
-33.37736971791634
 21
-2.73925248264009
 31
0.0
  0
LINE
  5
F10367
330
261
100
AcDbEntity
  8
Geo
100
AcDbLine
 10
-33.37736971791634
 20
-2.73925248264009
 30
0.0
 11
-33.27736971791634
 21
-2.784071566023591
 31
0.0
  0
LINE
  5
F10369
330
261
100
AcDbEntity
  8
Geo
100
AcDbLine
 10
-33.27736971791634
 20
-2.784071566023591
 30
0.0
 11
-33.17736971791634
 21
-2.82853837392799
 31
0.0
  0
LINE
  5
F1036B
330
261
100
AcDbEntity
  8
Geo
100
AcDbLine
 10
-33.17736971791634
 20
-2.82853837392799
 30
0.0
 11
-33.07736971791634
 21
-2.872648789088291
 31
0.0
  0
LINE
  5
F1036D
330
261
100
AcDbEntity
  8
Geo
100
AcDbLine
 10
-33.07736971791634
 20
-2.872648789088291
 30
0.0
 11
-32.97736971791635
 21
-2.916398727238092
 31
0.0
  0
LINE
  5
F1036F
330
261
100
AcDbEntity
  8
Geo
100
AcDbLine
 10
-32.97736971791635
 20
-2.916398727238092
 30
0.0
 11
-32.87736971791634
 21
-2.959784137488693
 31
0.0
  0
LINE
  5
F10371
330
261
100
AcDbEntity
  8
Geo
100
AcDbLine
 10
-32.87736971791634
 20
-2.959784137488693
 30
0.0
 11
-32.77736971791635
 21
-3.002801002703289
 31
0.0
  0
LINE
  5
F10373
330
261
100
AcDbEntity
  8
Geo
100
AcDbLine
 10
-32.77736971791635
 20
-3.002801002703289
 30
0.0
 11
-32.67736971791634
 21
-3.045445339869488
 31
0.0
  0
LINE
  5
F10375
330
261
100
AcDbEntity
  8
Geo
100
AcDbLine
 10
-32.67736971791634
 20
-3.045445339869488
 30
0.0
 11
-32.57736971791634
 21
-3.087713200468293
 31
0.0
  0
LINE
  5
F10377
330
261
100
AcDbEntity
  8
Geo
100
AcDbLine
 10
-32.57736971791634
 20
-3.087713200468293
 30
0.0
 11
-32.47736971791635
 21
-3.12960067083879
 31
0.0
  0
LINE
  5
F10379
330
261
100
AcDbEntity
  8
Geo
100
AcDbLine
 10
-32.47736971791635
 20
-3.12960067083879
 30
0.0
 11
-32.37736971791634
 21
-3.171103872541589
 31
0.0
  0
LINE
  5
F1037B
330
261
100
AcDbEntity
  8
Geo
100
AcDbLine
 10
-32.37736971791634
 20
-3.171103872541589
 30
0.0
 11
-32.27736971791634
 21
-3.21221896271739
 31
0.0
  0
LINE
  5
F1037D
330
261
100
AcDbEntity
  8
Geo
100
AcDbLine
 10
-32.27736971791634
 20
-3.21221896271739
 30
0.0
 11
-32.17736971791634
 21
-3.252942134442591
 31
0.0
  0
LINE
  5
F1037F
330
261
100
AcDbEntity
  8
Geo
100
AcDbLine
 10
-32.17736971791634
 20
-3.252942134442591
 30
0.0
 11
-32.07736971791634
 21
-3.293269617082291
 31
0.0
  0
LINE
  5
F10381
330
261
100
AcDbEntity
  8
Geo
100
AcDbLine
 10
-32.07736971791634
 20
-3.293269617082291
 30
0.0
 11
-31.97736971791635
 21
-3.333197676639194
 31
0.0
  0
LINE
  5
F10383
330
261
100
AcDbEntity
  8
Geo
100
AcDbLine
 10
-31.97736971791635
 20
-3.333197676639194
 30
0.0
 11
-31.87736971791634
 21
-3.372722616099188
 31
0.0
  0
LINE
  5
F10385
330
261
100
AcDbEntity
  8
Geo
100
AcDbLine
 10
-31.87736971791634
 20
-3.372722616099188
 30
0.0
 11
-31.77736971791635
 21
-3.411840775773892
 31
0.0
  0
LINE
  5
F10387
330
261
100
AcDbEntity
  8
Geo
100
AcDbLine
 10
-31.77736971791635
 20
-3.411840775773892
 30
0.0
 11
-31.67736971791633
 21
-3.450548533639487
 31
0.0
  0
LINE
  5
F10389
330
261
100
AcDbEntity
  8
Geo
100
AcDbLine
 10
-31.67736971791633
 20
-3.450548533639487
 30
0.0
 11
-31.57736971791634
 21
-3.488842305672093
 31
0.0
  0
LINE
  5
F1038B
330
261
100
AcDbEntity
  8
Geo
100
AcDbLine
 10
-31.57736971791634
 20
-3.488842305672093
 30
0.0
 11
-31.47736971791635
 21
-3.526718546179193
 31
0.0
  0
LINE
  5
F1038D
330
261
100
AcDbEntity
  8
Geo
100
AcDbLine
 10
-31.47736971791635
 20
-3.526718546179193
 30
0.0
 11
-31.37736971791634
 21
-3.564173748128592
 31
0.0
  0
LINE
  5
F1038F
330
261
100
AcDbEntity
  8
Geo
100
AcDbLine
 10
-31.37736971791634
 20
-3.564173748128592
 30
0.0
 11
-31.27736971791634
 21
-3.60120444347299
 31
0.0
  0
LINE
  5
F10391
330
261
100
AcDbEntity
  8
Geo
100
AcDbLine
 10
-31.27736971791634
 20
-3.60120444347299
 30
0.0
 11
-31.17736971791634
 21
-3.637807203470593
 31
0.0
  0
LINE
  5
F10393
330
261
100
AcDbEntity
  8
Geo
100
AcDbLine
 10
-31.17736971791634
 20
-3.637807203470593
 30
0.0
 11
-31.07736971791634
 21
-3.673978639003092
 31
0.0
  0
LINE
  5
F10395
330
261
100
AcDbEntity
  8
Geo
100
AcDbLine
 10
-31.07736971791634
 20
-3.673978639003092
 30
0.0
 11
-30.97736971791635
 21
-3.70971540088939
 31
0.0
  0
LINE
  5
F10397
330
261
100
AcDbEntity
  8
Geo
100
AcDbLine
 10
-30.97736971791635
 20
-3.70971540088939
 30
0.0
 11
-30.87736971791634
 21
-3.745014180195589
 31
0.0
  0
LINE
  5
F10399
330
261
100
AcDbEntity
  8
Geo
100
AcDbLine
 10
-30.87736971791634
 20
-3.745014180195589
 30
0.0
 11
-30.77736971791634
 21
-3.779871708541392
 31
0.0
  0
LINE
  5
F1039B
330
261
100
AcDbEntity
  8
Geo
100
AcDbLine
 10
-30.77736971791634
 20
-3.779871708541392
 30
0.0
 11
-30.67736971791634
 21
-3.814284758402791
 31
0.0
  0
LINE
  5
F1039D
330
261
100
AcDbEntity
  8
Geo
100
AcDbLine
 10
-30.67736971791634
 20
-3.814284758402791
 30
0.0
 11
-30.57736971791634
 21
-3.848250143410893
 31
0.0
  0
LINE
  5
F1039F
330
261
100
AcDbEntity
  8
Geo
100
AcDbLine
 10
-30.57736971791634
 20
-3.848250143410893
 30
0.0
 11
-30.47736971791635
 21
-3.881764718646895
 31
0.0
  0
LINE
  5
F103A1
330
261
100
AcDbEntity
  8
Geo
100
AcDbLine
 10
-30.47736971791635
 20
-3.881764718646895
 30
0.0
 11
-30.37736971791634
 21
-3.91482538093329
 31
0.0
  0
LINE
  5
F103A3
330
261
100
AcDbEntity
  8
Geo
100
AcDbLine
 10
-30.37736971791634
 20
-3.91482538093329
 30
0.0
 11
-30.27736971791635
 21
-3.947429069121287
 31
0.0
  0
LINE
  5
F103A5
330
261
100
AcDbEntity
  8
Geo
100
AcDbLine
 10
-30.27736971791635
 20
-3.947429069121287
 30
0.0
 11
-30.17736971791634
 21
-3.979572764374193
 31
0.0
  0
LINE
  5
F103A7
330
261
100
AcDbEntity
  8
Geo
100
AcDbLine
 10
-30.17736971791634
 20
-3.979572764374193
 30
0.0
 11
-30.07736971791634
 21
-4.01125349044689
 31
0.0
  0
LINE
  5
F103A9
330
261
100
AcDbEntity
  8
Geo
100
AcDbLine
 10
-30.07736971791634
 20
-4.01125349044689
 30
0.0
 11
-29.97736971791635
 21
-4.042468313961389
 31
0.0
  0
LINE
  5
F103AB
330
261
100
AcDbEntity
  8
Geo
100
AcDbLine
 10
-29.97736971791635
 20
-4.042468313961389
 30
0.0
 11
-29.87736971791634
 21
-4.073214344678692
 31
0.0
  0
LINE
  5
F103AD
330
261
100
AcDbEntity
  8
Geo
100
AcDbLine
 10
-29.87736971791634
 20
-4.073214344678692
 30
0.0
 11
-29.77736971791634
 21
-4.103488735765889
 31
0.0
  0
LINE
  5
F103AF
330
261
100
AcDbEntity
  8
Geo
100
AcDbLine
 10
-29.77736971791634
 20
-4.103488735765889
 30
0.0
 11
-29.67736971791634
 21
-4.133288684060293
 31
0.0
  0
LINE
  5
F103B1
330
261
100
AcDbEntity
  8
Geo
100
AcDbLine
 10
-29.67736971791634
 20
-4.133288684060293
 30
0.0
 11
-29.57736971791634
 21
-4.162611430328787
 31
0.0
  0
LINE
  5
F103B3
330
261
100
AcDbEntity
  8
Geo
100
AcDbLine
 10
-29.57736971791634
 20
-4.162611430328787
 30
0.0
 11
-29.47736971791634
 21
-4.19145425952329
 31
0.0
  0
LINE
  5
F103B5
330
261
100
AcDbEntity
  8
Geo
100
AcDbLine
 10
-29.47736971791634
 20
-4.19145425952329
 30
0.0
 11
-29.37736971791634
 21
-4.219814501031891
 31
0.0
  0
LINE
  5
F103B7
330
261
100
AcDbEntity
  8
Geo
100
AcDbLine
 10
-29.37736971791634
 20
-4.219814501031891
 30
0.0
 11
-29.27736971791635
 21
-4.247689528926692
 31
0.0
  0
LINE
  5
F103B9
330
261
100
AcDbEntity
  8
Geo
100
AcDbLine
 10
-29.27736971791635
 20
-4.247689528926692
 30
0.0
 11
-29.17736971791633
 21
-4.275076762206488
 31
0.0
  0
LINE
  5
F103BB
330
261
100
AcDbEntity
  8
Geo
100
AcDbLine
 10
-29.17736971791633
 20
-4.275076762206488
 30
0.0
 11
-29.07736971791634
 21
-4.301973665035792
 31
0.0
  0
LINE
  5
F103BD
330
261
100
AcDbEntity
  8
Geo
100
AcDbLine
 10
-29.07736971791634
 20
-4.301973665035792
 30
0.0
 11
-28.97736971791635
 21
-4.328377746980091
 31
0.0
  0
LINE
  5
F103BF
330
261
100
AcDbEntity
  8
Geo
100
AcDbLine
 10
-28.97736971791635
 20
-4.328377746980091
 30
0.0
 11
-28.87736971791634
 21
-4.354286563235692
 31
0.0
  0
LINE
  5
F103C1
330
261
100
AcDbEntity
  8
Geo
100
AcDbLine
 10
-28.87736971791634
 20
-4.354286563235692
 30
0.0
 11
-28.77736971791634
 21
-4.37969771485659
 31
0.0
  0
LINE
  5
F103C3
330
261
100
AcDbEntity
  8
Geo
100
AcDbLine
 10
-28.77736971791634
 20
-4.37969771485659
 30
0.0
 11
-28.67736971791634
 21
-4.404608848976693
 31
0.0
  0
LINE
  5
F103C5
330
261
100
AcDbEntity
  8
Geo
100
AcDbLine
 10
-28.67736971791634
 20
-4.404608848976693
 30
0.0
 11
-28.57736971791634
 21
-4.429017659027088
 31
0.0
  0
LINE
  5
F103C7
330
261
100
AcDbEntity
  8
Geo
100
AcDbLine
 10
-28.57736971791634
 20
-4.429017659027088
 30
0.0
 11
-28.47736971791635
 21
-4.452921884950491
 31
0.0
  0
LINE
  5
F103C9
330
261
100
AcDbEntity
  8
Geo
100
AcDbLine
 10
-28.47736971791635
 20
-4.452921884950491
 30
0.0
 11
-28.37736971791634
 21
-4.47631931340949
 31
0.0
  0
LINE
  5
F103CB
330
261
100
AcDbEntity
  8
Geo
100
AcDbLine
 10
-28.37736971791634
 20
-4.47631931340949
 30
0.0
 11
-28.27736971791635
 21
-4.499207777992292
 31
0.0
  0
LINE
  5
F103CD
330
261
100
AcDbEntity
  8
Geo
100
AcDbLine
 10
-28.27736971791635
 20
-4.499207777992292
 30
0.0
 11
-28.17736971791634
 21
-4.521585159413088
 31
0.0
  0
LINE
  5
F103CF
330
261
100
AcDbEntity
  8
Geo
100
AcDbLine
 10
-28.17736971791634
 20
-4.521585159413088
 30
0.0
 11
-28.07736971791634
 21
-4.543449385707894
 31
0.0
  0
LINE
  5
F103D1
330
261
100
AcDbEntity
  8
Geo
100
AcDbLine
 10
-28.07736971791634
 20
-4.543449385707894
 30
0.0
 11
-27.97736971791635
 21
-4.564798432427192
 31
0.0
  0
LINE
  5
F103D3
330
261
100
AcDbEntity
  8
Geo
100
AcDbLine
 10
-27.97736971791635
 20
-4.564798432427192
 30
0.0
 11
-27.87736971791634
 21
-4.585630322822488
 31
0.0
  0
LINE
  5
F103D5
330
261
100
AcDbEntity
  8
Geo
100
AcDbLine
 10
-27.87736971791634
 20
-4.585630322822488
 30
0.0
 11
-27.77736971791635
 21
-4.605943128029888
 31
0.0
  0
LINE
  5
F103D7
330
261
100
AcDbEntity
  8
Geo
100
AcDbLine
 10
-27.77736971791635
 20
-4.605943128029888
 30
0.0
 11
-27.67736971791634
 21
-4.625734967248693
 31
0.0
  0
LINE
  5
F103D9
330
261
100
AcDbEntity
  8
Geo
100
AcDbLine
 10
-27.67736971791634
 20
-4.625734967248693
 30
0.0
 11
-27.57736971791634
 21
-4.645004007915392
 31
0.0
  0
LINE
  5
F103DB
330
261
100
AcDbEntity
  8
Geo
100
AcDbLine
 10
-27.57736971791634
 20
-4.645004007915392
 30
0.0
 11
-27.47736971791635
 21
-4.663748465873194
 31
0.0
  0
LINE
  5
F103DD
330
261
100
AcDbEntity
  8
Geo
100
AcDbLine
 10
-27.47736971791635
 20
-4.663748465873194
 30
0.0
 11
-27.37736971791634
 21
-4.681966605537592
 31
0.0
  0
LINE
  5
F103DF
330
261
100
AcDbEntity
  8
Geo
100
AcDbLine
 10
-27.37736971791634
 20
-4.681966605537592
 30
0.0
 11
-27.27736971791634
 21
-4.699656740056791
 31
0.0
  0
LINE
  5
F103E1
330
261
100
AcDbEntity
  8
Geo
100
AcDbLine
 10
-27.27736971791634
 20
-4.699656740056791
 30
0.0
 11
-27.17736971791634
 21
-4.716817231468091
 31
0.0
  0
LINE
  5
F103E3
330
261
100
AcDbEntity
  8
Geo
100
AcDbLine
 10
-27.17736971791634
 20
-4.716817231468091
 30
0.0
 11
-27.07736971791634
 21
-4.733446490849193
 31
0.0
  0
LINE
  5
F103E5
330
261
100
AcDbEntity
  8
Geo
100
AcDbLine
 10
-27.07736971791634
 20
-4.733446490849193
 30
0.0
 11
-26.97736971791635
 21
-4.749542978465889
 31
0.0
  0
LINE
  5
F103E7
330
261
100
AcDbEntity
  8
Geo
100
AcDbLine
 10
-26.97736971791635
 20
-4.749542978465889
 30
0.0
 11
-26.87736971791634
 21
-4.765105203914195
 31
0.0
  0
LINE
  5
F103E9
330
261
100
AcDbEntity
  8
Geo
100
AcDbLine
 10
-26.87736971791634
 20
-4.765105203914195
 30
0.0
 11
-26.77736971791635
 21
-4.780131726258293
 31
0.0
  0
LINE
  5
F103EB
330
261
100
AcDbEntity
  8
Geo
100
AcDbLine
 10
-26.77736971791635
 20
-4.780131726258293
 30
0.0
 11
-26.67736971791633
 21
-4.794621154164289
 31
0.0
  0
LINE
  5
F103ED
330
261
100
AcDbEntity
  8
Geo
100
AcDbLine
 10
-26.67736971791633
 20
-4.794621154164289
 30
0.0
 11
-26.57736971791634
 21
-4.80857214602889
 31
0.0
  0
LINE
  5
F103EF
330
261
100
AcDbEntity
  8
Geo
100
AcDbLine
 10
-26.57736971791634
 20
-4.80857214602889
 30
0.0
 11
-26.57736971791634
 21
-4.80857214602889
 31
0.0
  0
LINE
  5
F103F1
330
261
100
AcDbEntity
  8
Geo
100
AcDbLine
 10
-26.57736971791634
 20
-4.80857214602889
 30
0.0
 11
-26.47736971791635
 21
-4.804746799015191
 31
0.0
  0
LINE
  5
F103F3
330
261
100
AcDbEntity
  8
Geo
100
AcDbLine
 10
-26.47736971791635
 20
-4.804746799015191
 30
0.0
 11
-26.37736971791634
 21
-4.800898493251892
 31
0.0
  0
LINE
  5
F103F5
330
261
100
AcDbEntity
  8
Geo
100
AcDbLine
 10
-26.37736971791634
 20
-4.800898493251892
 30
0.0
 11
-26.27736971791634
 21
-4.797027856374594
 31
0.0
  0
LINE
  5
F103F7
330
261
100
AcDbEntity
  8
Geo
100
AcDbLine
 10
-26.27736971791634
 20
-4.797027856374594
 30
0.0
 11
-26.17736971791634
 21
-4.793135512606092
 31
0.0
  0
LINE
  5
F103F9
330
261
100
AcDbEntity
  8
Geo
100
AcDbLine
 10
-26.17736971791634
 20
-4.793135512606092
 30
0.0
 11
-26.07736971791634
 21
-4.789222082752889
 31
0.0
  0
LINE
  5
F103FB
330
261
100
AcDbEntity
  8
Geo
100
AcDbLine
 10
-26.07736971791634
 20
-4.789222082752889
 30
0.0
 11
-25.97736971791635
 21
-4.785288184199991
 31
0.0
  0
LINE
  5
F103FD
330
261
100
AcDbEntity
  8
Geo
100
AcDbLine
 10
-25.97736971791635
 20
-4.785288184199991
 30
0.0
 11
-25.87736971791634
 21
-4.781334430907591
 31
0.0
  0
LINE
  5
F103FF
330
261
100
AcDbEntity
  8
Geo
100
AcDbLine
 10
-25.87736971791634
 20
-4.781334430907591
 30
0.0
 11
-25.77736971791634
 21
-4.77736143340709
 31
0.0
  0
LINE
  5
F10401
330
261
100
AcDbEntity
  8
Geo
100
AcDbLine
 10
-25.77736971791634
 20
-4.77736143340709
 30
0.0
 11
-25.67736971791634
 21
-4.773369798797787
 31
0.0
  0
LINE
  5
F10403
330
261
100
AcDbEntity
  8
Geo
100
AcDbLine
 10
-25.67736971791634
 20
-4.773369798797787
 30
0.0
 11
-25.57736971791634
 21
-4.769360130743589
 31
0.0
  0
LINE
  5
F10405
330
261
100
AcDbEntity
  8
Geo
100
AcDbLine
 10
-25.57736971791634
 20
-4.769360130743589
 30
0.0
 11
-25.47736971791635
 21
-4.765333029470092
 31
0.0
  0
LINE
  5
F10407
330
261
100
AcDbEntity
  8
Geo
100
AcDbLine
 10
-25.47736971791635
 20
-4.765333029470092
 30
0.0
 11
-25.37736971791634
 21
-4.761289091761888
 31
0.0
  0
LINE
  5
F10409
330
261
100
AcDbEntity
  8
Geo
100
AcDbLine
 10
-25.37736971791634
 20
-4.761289091761888
 30
0.0
 11
-25.27736971791635
 21
-4.757228910960193
 31
0.0
  0
LINE
  5
F1040B
330
261
100
AcDbEntity
  8
Geo
100
AcDbLine
 10
-25.27736971791635
 20
-4.757228910960193
 30
0.0
 11
-25.17736971791634
 21
-4.753153076960487
 31
0.0
  0
LINE
  5
F1040D
330
261
100
AcDbEntity
  8
Geo
100
AcDbLine
 10
-25.17736971791634
 20
-4.753153076960487
 30
0.0
 11
-25.07736971791634
 21
-4.749062176210788
 31
0.0
  0
LINE
  5
F1040F
330
261
100
AcDbEntity
  8
Geo
100
AcDbLine
 10
-25.07736971791634
 20
-4.749062176210788
 30
0.0
 11
-24.97736971791634
 21
-4.74495679170959
 31
0.0
  0
LINE
  5
F10411
330
261
100
AcDbEntity
  8
Geo
100
AcDbLine
 10
-24.97736971791634
 20
-4.74495679170959
 30
0.0
 11
-24.87736971791634
 21
-4.740837503004588
 31
0.0
  0
LINE
  5
F10413
330
261
100
AcDbEntity
  8
Geo
100
AcDbLine
 10
-24.87736971791634
 20
-4.740837503004588
 30
0.0
 11
-24.77736971791634
 21
-4.736704886191485
 31
0.0
  0
LINE
  5
F10415
330
261
100
AcDbEntity
  8
Geo
100
AcDbLine
 10
-24.77736971791634
 20
-4.736704886191485
 30
0.0
 11
-24.67736971791634
 21
-4.732559513912491
 31
0.0
  0
LINE
  5
F10417
330
261
100
AcDbEntity
  8
Geo
100
AcDbLine
 10
-24.67736971791634
 20
-4.732559513912491
 30
0.0
 11
-24.57736971791634
 21
-4.728401955355892
 31
0.0
  0
LINE
  5
F10419
330
261
100
AcDbEntity
  8
Geo
100
AcDbLine
 10
-24.57736971791634
 20
-4.728401955355892
 30
0.0
 11
-24.47736971791634
 21
-4.724232776255394
 31
0.0
  0
LINE
  5
F1041B
330
261
100
AcDbEntity
  8
Geo
100
AcDbLine
 10
-24.47736971791634
 20
-4.724232776255394
 30
0.0
 11
-24.37736971791634
 21
-4.720052538889394
 31
0.0
  0
LINE
  5
F1041D
330
261
100
AcDbEntity
  8
Geo
100
AcDbLine
 10
-24.37736971791634
 20
-4.720052538889394
 30
0.0
 11
-24.27736971791634
 21
-4.715861802081089
 31
0.0
  0
LINE
  5
F1041F
330
261
100
AcDbEntity
  8
Geo
100
AcDbLine
 10
-24.27736971791634
 20
-4.715861802081089
 30
0.0
 11
-24.17736971791634
 21
-4.711661121198392
 31
0.0
  0
LINE
  5
F10421
330
261
100
AcDbEntity
  8
Geo
100
AcDbLine
 10
-24.17736971791634
 20
-4.711661121198392
 30
0.0
 11
-24.07736971791634
 21
-4.707451048153991
 31
0.0
  0
LINE
  5
F10423
330
261
100
AcDbEntity
  8
Geo
100
AcDbLine
 10
-24.07736971791634
 20
-4.707451048153991
 30
0.0
 11
-23.97736971791634
 21
-4.703232131406092
 31
0.0
  0
LINE
  5
F10425
330
261
100
AcDbEntity
  8
Geo
100
AcDbLine
 10
-23.97736971791634
 20
-4.703232131406092
 30
0.0
 11
-23.87736971791634
 21
-4.69900491595829
 31
0.0
  0
LINE
  5
F10427
330
261
100
AcDbEntity
  8
Geo
100
AcDbLine
 10
-23.87736971791634
 20
-4.69900491595829
 30
0.0
 11
-23.77736971791634
 21
-4.694769943361393
 31
0.0
  0
LINE
  5
F10429
330
261
100
AcDbEntity
  8
Geo
100
AcDbLine
 10
-23.77736971791634
 20
-4.694769943361393
 30
0.0
 11
-23.67736971791634
 21
-4.690527751713489
 31
0.0
  0
LINE
  5
F1042B
330
261
100
AcDbEntity
  8
Geo
100
AcDbLine
 10
-23.67736971791634
 20
-4.690527751713489
 30
0.0
 11
-23.57736971791634
 21
-4.686278875661393
 31
0.0
  0
LINE
  5
F1042D
330
261
100
AcDbEntity
  8
Geo
100
AcDbLine
 10
-23.57736971791634
 20
-4.686278875661393
 30
0.0
 11
-23.47736971791634
 21
-4.682023846402191
 31
0.0
  0
LINE
  5
F1042F
330
261
100
AcDbEntity
  8
Geo
100
AcDbLine
 10
-23.47736971791634
 20
-4.682023846402191
 30
0.0
 11
-23.37736971791634
 21
-4.677763191684395
 31
0.0
  0
LINE
  5
F10431
330
261
100
AcDbEntity
  8
Geo
100
AcDbLine
 10
-23.37736971791634
 20
-4.677763191684395
 30
0.0
 11
-23.27736971791624
 21
-4.673497435810087
 31
0.0
  0
LINE
  5
F10433
330
261
100
AcDbEntity
  8
Geo
100
AcDbLine
 10
-23.27736971791624
 20
-4.673497435810087
 30
0.0
 11
-23.17736971791624
 21
-4.669227099636291
 31
0.0
  0
LINE
  5
F10435
330
261
100
AcDbEntity
  8
Geo
100
AcDbLine
 10
-23.17736971791624
 20
-4.669227099636291
 30
0.0
 11
-23.07736971791624
 21
-4.664952700577192
 31
0.0
  0
LINE
  5
F10437
330
261
100
AcDbEntity
  8
Geo
100
AcDbLine
 10
-23.07736971791624
 20
-4.664952700577192
 30
0.0
 11
-22.97736971791625
 21
-4.660674752606485
 31
0.0
  0
LINE
  5
F10439
330
261
100
AcDbEntity
  8
Geo
100
AcDbLine
 10
-22.97736971791625
 20
-4.660674752606485
 30
0.0
 11
-22.87736971791625
 21
-4.656393766259487
 31
0.0
  0
LINE
  5
F1043B
330
261
100
AcDbEntity
  8
Geo
100
AcDbLine
 10
-22.87736971791625
 20
-4.656393766259487
 30
0.0
 11
-22.77736971791624
 21
-4.652110248635892
 31
0.0
  0
LINE
  5
F1043D
330
261
100
AcDbEntity
  8
Geo
100
AcDbLine
 10
-22.77736971791624
 20
-4.652110248635892
 30
0.0
 11
-22.67736971791624
 21
-4.64782470340199
 31
0.0
  0
LINE
  5
F1043F
330
261
100
AcDbEntity
  8
Geo
100
AcDbLine
 10
-22.67736971791624
 20
-4.64782470340199
 30
0.0
 11
-22.57736971791624
 21
-4.643537630794192
 31
0.0
  0
LINE
  5
F10441
330
261
100
AcDbEntity
  8
Geo
100
AcDbLine
 10
-22.57736971791624
 20
-4.643537630794192
 30
0.0
 11
-22.47736971791625
 21
-4.639249527621288
 31
0.0
  0
LINE
  5
F10443
330
261
100
AcDbEntity
  8
Geo
100
AcDbLine
 10
-22.47736971791625
 20
-4.639249527621288
 30
0.0
 11
-22.37736971791624
 21
-4.634960887268089
 31
0.0
  0
LINE
  5
F10445
330
261
100
AcDbEntity
  8
Geo
100
AcDbLine
 10
-22.37736971791624
 20
-4.634960887268089
 30
0.0
 11
-22.27736971791625
 21
-4.630672199698391
 31
0.0
  0
LINE
  5
F10447
330
261
100
AcDbEntity
  8
Geo
100
AcDbLine
 10
-22.27736971791625
 20
-4.630672199698391
 30
0.0
 11
-22.17736971791624
 21
-4.62638395145829
 31
0.0
  0
LINE
  5
F10449
330
261
100
AcDbEntity
  8
Geo
100
AcDbLine
 10
-22.17736971791624
 20
-4.62638395145829
 30
0.0
 11
-22.07736971791624
 21
-4.622096625680192
 31
0.0
  0
LINE
  5
F1044B
330
261
100
AcDbEntity
  8
Geo
100
AcDbLine
 10
-22.07736971791624
 20
-4.622096625680192
 30
0.0
 11
-21.97736971791625
 21
-4.61781070208589
 31
0.0
  0
LINE
  5
F1044D
330
261
100
AcDbEntity
  8
Geo
100
AcDbLine
 10
-21.97736971791625
 20
-4.61781070208589
 30
0.0
 11
-21.87736971791625
 21
-4.613526656990892
 31
0.0
  0
LINE
  5
F1044F
330
261
100
AcDbEntity
  8
Geo
100
AcDbLine
 10
-21.87736971791625
 20
-4.613526656990892
 30
0.0
 11
-21.77736971791624
 21
-4.60924496330789
 31
0.0
  0
LINE
  5
F10451
330
261
100
AcDbEntity
  8
Geo
100
AcDbLine
 10
-21.77736971791624
 20
-4.60924496330789
 30
0.0
 11
-21.67736971791624
 21
-4.60496609055129
 31
0.0
  0
LINE
  5
F10453
330
261
100
AcDbEntity
  8
Geo
100
AcDbLine
 10
-21.67736971791624
 20
-4.60496609055129
 30
0.0
 11
-21.57736971791624
 21
-4.600690504840788
 31
0.0
  0
LINE
  5
F10455
330
261
100
AcDbEntity
  8
Geo
100
AcDbLine
 10
-21.57736971791624
 20
-4.600690504840788
 30
0.0
 11
-21.47736971791625
 21
-4.596418668906391
 31
0.0
  0
LINE
  5
F10457
330
261
100
AcDbEntity
  8
Geo
100
AcDbLine
 10
-21.47736971791625
 20
-4.596418668906391
 30
0.0
 11
-21.37736971791625
 21
-4.592151042092091
 31
0.0
  0
LINE
  5
F10459
330
261
100
AcDbEntity
  8
Geo
100
AcDbLine
 10
-21.37736971791625
 20
-4.592151042092091
 30
0.0
 11
-21.27736971791625
 21
-4.587888080360894
 31
0.0
  0
LINE
  5
F1045B
330
261
100
AcDbEntity
  8
Geo
100
AcDbLine
 10
-21.27736971791625
 20
-4.587888080360894
 30
0.0
 11
-21.17736971791624
 21
-4.583630236299491
 31
0.0
  0
LINE
  5
F1045D
330
261
100
AcDbEntity
  8
Geo
100
AcDbLine
 10
-21.17736971791624
 20
-4.583630236299491
 30
0.0
 11
-21.07736971791624
 21
-4.579377959122492
 31
0.0
  0
LINE
  5
F1045F
330
261
100
AcDbEntity
  8
Geo
100
AcDbLine
 10
-21.07736971791624
 20
-4.579377959122492
 30
0.0
 11
-20.97736971791625
 21
-4.575131694677892
 31
0.0
  0
LINE
  5
F10461
330
261
100
AcDbEntity
  8
Geo
100
AcDbLine
 10
-20.97736971791625
 20
-4.575131694677892
 30
0.0
 11
-20.87736971791624
 21
-4.570891885451594
 31
0.0
  0
LINE
  5
F10463
330
261
100
AcDbEntity
  8
Geo
100
AcDbLine
 10
-20.87736971791624
 20
-4.570891885451594
 30
0.0
 11
-20.77736971791624
 21
-4.566658970572692
 31
0.0
  0
LINE
  5
F10465
330
261
100
AcDbEntity
  8
Geo
100
AcDbLine
 10
-20.77736971791624
 20
-4.566658970572692
 30
0.0
 11
-20.67736971791624
 21
-4.56243338581839
 31
0.0
  0
LINE
  5
F10467
330
261
100
AcDbEntity
  8
Geo
100
AcDbLine
 10
-20.67736971791624
 20
-4.56243338581839
 30
0.0
 11
-20.57736971791624
 21
-4.558215563619693
 31
0.0
  0
LINE
  5
F10469
330
261
100
AcDbEntity
  8
Geo
100
AcDbLine
 10
-20.57736971791624
 20
-4.558215563619693
 30
0.0
 11
-20.47736971791625
 21
-4.55400593306609
 31
0.0
  0
LINE
  5
F1046B
330
261
100
AcDbEntity
  8
Geo
100
AcDbLine
 10
-20.47736971791625
 20
-4.55400593306609
 30
0.0
 11
-20.37736971791625
 21
-4.54980491991149
 31
0.0
  0
LINE
  5
F1046D
330
261
100
AcDbEntity
  8
Geo
100
AcDbLine
 10
-20.37736971791625
 20
-4.54980491991149
 30
0.0
 11
-20.27736971791624
 21
-4.54561294657979
 31
0.0
  0
LINE
  5
F1046F
330
261
100
AcDbEntity
  8
Geo
100
AcDbLine
 10
-20.27736971791624
 20
-4.54561294657979
 30
0.0
 11
-20.17736971791624
 21
-4.541430432169992
 31
0.0
  0
LINE
  5
F10471
330
261
100
AcDbEntity
  8
Geo
100
AcDbLine
 10
-20.17736971791624
 20
-4.541430432169992
 30
0.0
 11
-20.07736971791624
 21
-4.537257792462192
 31
0.0
  0
LINE
  5
F10473
330
261
100
AcDbEntity
  8
Geo
100
AcDbLine
 10
-20.07736971791624
 20
-4.537257792462192
 30
0.0
 11
-19.97736971791624
 21
-4.533095439923393
 31
0.0
  0
LINE
  5
F10475
330
261
100
AcDbEntity
  8
Geo
100
AcDbLine
 10
-19.97736971791624
 20
-4.533095439923393
 30
0.0
 11
-19.87736971791624
 21
-4.528943783713287
 31
0.0
  0
LINE
  5
F10477
330
261
100
AcDbEntity
  8
Geo
100
AcDbLine
 10
-19.87736971791624
 20
-4.528943783713287
 30
0.0
 11
-19.77736971791624
 21
-4.524803229689787
 31
0.0
  0
LINE
  5
F10479
330
261
100
AcDbEntity
  8
Geo
100
AcDbLine
 10
-19.77736971791624
 20
-4.524803229689787
 30
0.0
 11
-19.67736971791624
 21
-4.520674180415792
 31
0.0
  0
LINE
  5
F1047B
330
261
100
AcDbEntity
  8
Geo
100
AcDbLine
 10
-19.67736971791624
 20
-4.520674180415792
 30
0.0
 11
-19.57736971791624
 21
-4.516557035164389
 31
0.0
  0
LINE
  5
F1047D
330
261
100
AcDbEntity
  8
Geo
100
AcDbLine
 10
-19.57736971791624
 20
-4.516557035164389
 30
0.0
 11
-19.47736971791625
 21
-4.512452189925696
 31
0.0
  0
LINE
  5
F1047F
330
261
100
AcDbEntity
  8
Geo
100
AcDbLine
 10
-19.47736971791625
 20
-4.512452189925696
 30
0.0
 11
-19.37736971791624
 21
-4.508360037412192
 31
0.0
  0
LINE
  5
F10481
330
261
100
AcDbEntity
  8
Geo
100
AcDbLine
 10
-19.37736971791624
 20
-4.508360037412192
 30
0.0
 11
-19.27736971791624
 21
-4.504280967065987
 31
0.0
  0
LINE
  5
F10483
330
261
100
AcDbEntity
  8
Geo
100
AcDbLine
 10
-19.27736971791624
 20
-4.504280967065987
 30
0.0
 11
-19.17736971791624
 21
-4.500215365064192
 31
0.0
  0
LINE
  5
F10485
330
261
100
AcDbEntity
  8
Geo
100
AcDbLine
 10
-19.17736971791624
 20
-4.500215365064192
 30
0.0
 11
-19.07736971791624
 21
-4.496163614325791
 31
0.0
  0
LINE
  5
F10487
330
261
100
AcDbEntity
  8
Geo
100
AcDbLine
 10
-19.07736971791624
 20
-4.496163614325791
 30
0.0
 11
-18.97736971791625
 21
-4.492126094517988
 31
0.0
  0
LINE
  5
F10489
330
261
100
AcDbEntity
  8
Geo
100
AcDbLine
 10
-18.97736971791625
 20
-4.492126094517988
 30
0.0
 11
-18.87736971791624
 21
-4.488103182062488
 31
0.0
  0
LINE
  5
F1048B
330
261
100
AcDbEntity
  8
Geo
100
AcDbLine
 10
-18.87736971791624
 20
-4.488103182062488
 30
0.0
 11
-18.77736971791624
 21
-4.484095250141987
 31
0.0
  0
LINE
  5
F1048D
330
261
100
AcDbEntity
  8
Geo
100
AcDbLine
 10
-18.77736971791624
 20
-4.484095250141987
 30
0.0
 11
-18.67736971791624
 21
-4.48010266870709
 31
0.0
  0
LINE
  5
F1048F
330
261
100
AcDbEntity
  8
Geo
100
AcDbLine
 10
-18.67736971791624
 20
-4.48010266870709
 30
0.0
 11
-18.57736971791624
 21
-4.476125804482393
 31
0.0
  0
LINE
  5
F10491
330
261
100
AcDbEntity
  8
Geo
100
AcDbLine
 10
-18.57736971791624
 20
-4.476125804482393
 30
0.0
 11
-18.47736971791625
 21
-4.472165020973591
 31
0.0
  0
LINE
  5
F10493
330
261
100
AcDbEntity
  8
Geo
100
AcDbLine
 10
-18.47736971791625
 20
-4.472165020973591
 30
0.0
 11
-18.37736971791624
 21
-4.468220678473791
 31
0.0
  0
LINE
  5
F10495
330
261
100
AcDbEntity
  8
Geo
100
AcDbLine
 10
-18.37736971791624
 20
-4.468220678473791
 30
0.0
 11
-18.27736971791624
 21
-4.464293134070391
 31
0.0
  0
LINE
  5
F10497
330
261
100
AcDbEntity
  8
Geo
100
AcDbLine
 10
-18.27736971791624
 20
-4.464293134070391
 30
0.0
 11
-18.17736971791624
 21
-4.460382741652093
 31
0.0
  0
LINE
  5
F10499
330
261
100
AcDbEntity
  8
Geo
100
AcDbLine
 10
-18.17736971791624
 20
-4.460382741652093
 30
0.0
 11
-18.07736971791624
 21
-4.456489851914987
 31
0.0
  0
LINE
  5
F1049B
330
261
100
AcDbEntity
  8
Geo
100
AcDbLine
 10
-18.07736971791624
 20
-4.456489851914987
 30
0.0
 11
-17.97736971791624
 21
-4.452614812370189
 31
0.0
  0
LINE
  5
F1049D
330
261
100
AcDbEntity
  8
Geo
100
AcDbLine
 10
-17.97736971791624
 20
-4.452614812370189
 30
0.0
 11
-17.87736971791624
 21
-4.44875796735009
 31
0.0
  0
LINE
  5
F1049F
330
261
100
AcDbEntity
  8
Geo
100
AcDbLine
 10
-17.87736971791624
 20
-4.44875796735009
 30
0.0
 11
-17.77736971791624
 21
-4.444919658015489
 31
0.0
  0
LINE
  5
F104A1
330
261
100
AcDbEntity
  8
Geo
100
AcDbLine
 10
-17.77736971791624
 20
-4.444919658015489
 30
0.0
 11
-17.67736971791624
 21
-4.441100222362489
 31
0.0
  0
LINE
  5
F104A3
330
261
100
AcDbEntity
  8
Geo
100
AcDbLine
 10
-17.67736971791624
 20
-4.441100222362489
 30
0.0
 11
-17.57736971791624
 21
-4.437299995229391
 31
0.0
  0
LINE
  5
F104A5
330
261
100
AcDbEntity
  8
Geo
100
AcDbLine
 10
-17.57736971791624
 20
-4.437299995229391
 30
0.0
 11
-17.47736971791624
 21
-4.433519308303591
 31
0.0
  0
LINE
  5
F104A7
330
261
100
AcDbEntity
  8
Geo
100
AcDbLine
 10
-17.47736971791624
 20
-4.433519308303591
 30
0.0
 11
-17.37736971791624
 21
-4.429758490128488
 31
0.0
  0
LINE
  5
F104A9
330
261
100
AcDbEntity
  8
Geo
100
AcDbLine
 10
-17.37736971791624
 20
-4.429758490128488
 30
0.0
 11
-17.27736971791624
 21
-4.426017866110793
 31
0.0
  0
LINE
  5
F104AB
330
261
100
AcDbEntity
  8
Geo
100
AcDbLine
 10
-17.27736971791624
 20
-4.426017866110793
 30
0.0
 11
-17.17736971791624
 21
-4.422297758526987
 31
0.0
  0
LINE
  5
F104AD
330
261
100
AcDbEntity
  8
Geo
100
AcDbLine
 10
-17.17736971791624
 20
-4.422297758526987
 30
0.0
 11
-17.07736971791624
 21
-4.418598486530889
 31
0.0
  0
LINE
  5
F104AF
330
261
100
AcDbEntity
  8
Geo
100
AcDbLine
 10
-17.07736971791624
 20
-4.418598486530889
 30
0.0
 11
-16.97736971791625
 21
-4.414920366160192
 31
0.0
  0
LINE
  5
F104B1
330
261
100
AcDbEntity
  8
Geo
100
AcDbLine
 10
-16.97736971791625
 20
-4.414920366160192
 30
0.0
 11
-16.87736971791624
 21
-4.411263710343888
 31
0.0
  0
LINE
  5
F104B3
330
261
100
AcDbEntity
  8
Geo
100
AcDbLine
 10
-16.87736971791624
 20
-4.411263710343888
 30
0.0
 11
-16.77736971791624
 21
-4.40762882890899
 31
0.0
  0
LINE
  5
F104B5
330
261
100
AcDbEntity
  8
Geo
100
AcDbLine
 10
-16.77736971791624
 20
-4.40762882890899
 30
0.0
 11
-16.67736971791624
 21
-4.404016028587694
 31
0.0
  0
LINE
  5
F104B7
330
261
100
AcDbEntity
  8
Geo
100
AcDbLine
 10
-16.67736971791624
 20
-4.404016028587694
 30
0.0
 11
-16.57736971791624
 21
-4.400425613024392
 31
0.0
  0
LINE
  5
F104B9
330
261
100
AcDbEntity
  8
Geo
100
AcDbLine
 10
-16.57736971791624
 20
-4.400425613024392
 30
0.0
 11
-16.47736971791625
 21
-4.396857882782892
 31
0.0
  0
LINE
  5
F104BB
330
261
100
AcDbEntity
  8
Geo
100
AcDbLine
 10
-16.47736971791625
 20
-4.396857882782892
 30
0.0
 11
-16.37736971791624
 21
-4.393313135353288
 31
0.0
  0
LINE
  5
F104BD
330
261
100
AcDbEntity
  8
Geo
100
AcDbLine
 10
-16.37736971791624
 20
-4.393313135353288
 30
0.0
 11
-16.27736971791624
 21
-4.389791665158892
 31
0.0
  0
LINE
  5
F104BF
330
261
100
AcDbEntity
  8
Geo
100
AcDbLine
 10
-16.27736971791624
 20
-4.389791665158892
 30
0.0
 11
-16.17736971791624
 21
-4.38629376356339
 31
0.0
  0
LINE
  5
F104C1
330
261
100
AcDbEntity
  8
Geo
100
AcDbLine
 10
-16.17736971791624
 20
-4.38629376356339
 30
0.0
 11
-16.07736971791624
 21
-4.382819718878092
 31
0.0
  0
LINE
  5
F104C3
330
261
100
AcDbEntity
  8
Geo
100
AcDbLine
 10
-16.07736971791624
 20
-4.382819718878092
 30
0.0
 11
-15.97736971791614
 21
-4.379369816368487
 31
0.0
  0
LINE
  5
F104C5
330
261
100
AcDbEntity
  8
Geo
100
AcDbLine
 10
-15.97736971791614
 20
-4.379369816368487
 30
0.0
 11
-15.87736971791614
 21
-4.375944338261788
 31
0.0
  0
LINE
  5
F104C7
330
261
100
AcDbEntity
  8
Geo
100
AcDbLine
 10
-15.87736971791614
 20
-4.375944338261788
 30
0.0
 11
-15.77736971791614
 21
-4.372543563753389
 31
0.0
  0
LINE
  5
F104C9
330
261
100
AcDbEntity
  8
Geo
100
AcDbLine
 10
-15.77736971791614
 20
-4.372543563753389
 30
0.0
 11
-15.67736971791613
 21
-4.369167769014293
 31
0.0
  0
LINE
  5
F104CB
330
261
100
AcDbEntity
  8
Geo
100
AcDbLine
 10
-15.67736971791613
 20
-4.369167769014293
 30
0.0
 11
-15.57736971791614
 21
-4.365817227197791
 31
0.0
  0
LINE
  5
F104CD
330
261
100
AcDbEntity
  8
Geo
100
AcDbLine
 10
-15.57736971791614
 20
-4.365817227197791
 30
0.0
 11
-15.47736971791614
 21
-4.362492208446692
 31
0.0
  0
LINE
  5
F104CF
330
261
100
AcDbEntity
  8
Geo
100
AcDbLine
 10
-15.47736971791614
 20
-4.362492208446692
 30
0.0
 11
-15.37736971791614
 21
-4.359192979899987
 31
0.0
  0
LINE
  5
F104D1
330
261
100
AcDbEntity
  8
Geo
100
AcDbLine
 10
-15.37736971791614
 20
-4.359192979899987
 30
0.0
 11
-15.27736971791614
 21
-4.35591980569989
 31
0.0
  0
LINE
  5
F104D3
330
261
100
AcDbEntity
  8
Geo
100
AcDbLine
 10
-15.27736971791614
 20
-4.35591980569989
 30
0.0
 11
-15.17736971791613
 21
-4.352672946998893
 31
0.0
  0
LINE
  5
F104D5
330
261
100
AcDbEntity
  8
Geo
100
AcDbLine
 10
-15.17736971791613
 20
-4.352672946998893
 30
0.0
 11
-15.07736971791614
 21
-4.349452661966289
 31
0.0
  0
LINE
  5
F104D7
330
261
100
AcDbEntity
  8
Geo
100
AcDbLine
 10
-15.07736971791614
 20
-4.349452661966289
 30
0.0
 11
-14.97736971791614
 21
-4.346259205795288
 31
0.0
  0
LINE
  5
F104D9
330
261
100
AcDbEntity
  8
Geo
100
AcDbLine
 10
-14.97736971791614
 20
-4.346259205795288
 30
0.0
 11
-14.87736971791614
 21
-4.343092830709892
 31
0.0
  0
LINE
  5
F104DB
330
261
100
AcDbEntity
  8
Geo
100
AcDbLine
 10
-14.87736971791614
 20
-4.343092830709892
 30
0.0
 11
-14.77736971791614
 21
-4.339953785971488
 31
0.0
  0
LINE
  5
F104DD
330
261
100
AcDbEntity
  8
Geo
100
AcDbLine
 10
-14.77736971791614
 20
-4.339953785971488
 30
0.0
 11
-14.67736971791613
 21
-4.33684231788559
 31
0.0
  0
LINE
  5
F104DF
330
261
100
AcDbEntity
  8
Geo
100
AcDbLine
 10
-14.67736971791613
 20
-4.33684231788559
 30
0.0
 11
-14.57736971791614
 21
-4.333758669808787
 31
0.0
  0
LINE
  5
F104E1
330
261
100
AcDbEntity
  8
Geo
100
AcDbLine
 10
-14.57736971791614
 20
-4.333758669808787
 30
0.0
 11
-14.47736971791614
 21
-4.33070308215559
 31
0.0
  0
LINE
  5
F104E3
330
261
100
AcDbEntity
  8
Geo
100
AcDbLine
 10
-14.47736971791614
 20
-4.33070308215559
 30
0.0
 11
-14.37736971791614
 21
-4.327675792404487
 31
0.0
  0
LINE
  5
F104E5
330
261
100
AcDbEntity
  8
Geo
100
AcDbLine
 10
-14.37736971791614
 20
-4.327675792404487
 30
0.0
 11
-14.27736971791613
 21
-4.324677035105089
 31
0.0
  0
LINE
  5
F104E7
330
261
100
AcDbEntity
  8
Geo
100
AcDbLine
 10
-14.27736971791613
 20
-4.324677035105089
 30
0.0
 11
-14.17736971791613
 21
-4.321707041884888
 31
0.0
  0
LINE
  5
F104E9
330
261
100
AcDbEntity
  8
Geo
100
AcDbLine
 10
-14.17736971791613
 20
-4.321707041884888
 30
0.0
 11
-14.07736971791614
 21
-4.318766041455091
 31
0.0
  0
LINE
  5
F104EB
330
261
100
AcDbEntity
  8
Geo
100
AcDbLine
 10
-14.07736971791614
 20
-4.318766041455091
 30
0.0
 11
-13.97736971791614
 21
-4.315854259617889
 31
0.0
  0
LINE
  5
F104ED
330
261
100
AcDbEntity
  8
Geo
100
AcDbLine
 10
-13.97736971791614
 20
-4.315854259617889
 30
0.0
 11
-13.87736971791614
 21
-4.312971919272591
 31
0.0
  0
LINE
  5
F104EF
330
261
100
AcDbEntity
  8
Geo
100
AcDbLine
 10
-13.87736971791614
 20
-4.312971919272591
 30
0.0
 11
-13.77736971791614
 21
-4.310119240422093
 31
0.0
  0
LINE
  5
F104F1
330
261
100
AcDbEntity
  8
Geo
100
AcDbLine
 10
-13.77736971791614
 20
-4.310119240422093
 30
0.0
 11
-13.67736971791613
 21
-4.307296440179392
 31
0.0
  0
LINE
  5
F104F3
330
261
100
AcDbEntity
  8
Geo
100
AcDbLine
 10
-13.67736971791613
 20
-4.307296440179392
 30
0.0
 11
-13.57736971791614
 21
-4.304503732773788
 31
0.0
  0
LINE
  5
F104F5
330
261
100
AcDbEntity
  8
Geo
100
AcDbLine
 10
-13.57736971791614
 20
-4.304503732773788
 30
0.0
 11
-13.47736971791614
 21
-4.301741329557195
 31
0.0
  0
LINE
  5
F104F7
330
261
100
AcDbEntity
  8
Geo
100
AcDbLine
 10
-13.47736971791614
 20
-4.301741329557195
 30
0.0
 11
-13.37736971791614
 21
-4.299009439010593
 31
0.0
  0
LINE
  5
F104F9
330
261
100
AcDbEntity
  8
Geo
100
AcDbLine
 10
-13.37736971791614
 20
-4.299009439010593
 30
0.0
 11
-13.27736971791614
 21
-4.296308266750092
 31
0.0
  0
LINE
  5
F104FB
330
261
100
AcDbEntity
  8
Geo
100
AcDbLine
 10
-13.27736971791614
 20
-4.296308266750092
 30
0.0
 11
-13.17736971791613
 21
-4.293638015533193
 31
0.0
  0
LINE
  5
F104FD
330
261
100
AcDbEntity
  8
Geo
100
AcDbLine
 10
-13.17736971791613
 20
-4.293638015533193
 30
0.0
 11
-13.07736971791614
 21
-4.290998885264592
 31
0.0
  0
LINE
  5
F104FF
330
261
100
AcDbEntity
  8
Geo
100
AcDbLine
 10
-13.07736971791614
 20
-4.290998885264592
 30
0.0
 11
-12.97736971791614
 21
-4.288391073002792
 31
0.0
  0
LINE
  5
F10501
330
261
100
AcDbEntity
  8
Geo
100
AcDbLine
 10
-12.97736971791614
 20
-4.288391073002792
 30
0.0
 11
-12.87736971791614
 21
-4.285814772965693
 31
0.0
  0
LINE
  5
F10503
330
261
100
AcDbEntity
  8
Geo
100
AcDbLine
 10
-12.87736971791614
 20
-4.285814772965693
 30
0.0
 11
-12.77736971791614
 21
-4.283270176536589
 31
0.0
  0
LINE
  5
F10505
330
261
100
AcDbEntity
  8
Geo
100
AcDbLine
 10
-12.77736971791614
 20
-4.283270176536589
 30
0.0
 11
-12.67736971791613
 21
-4.280757472270288
 31
0.0
  0
LINE
  5
F10507
330
261
100
AcDbEntity
  8
Geo
100
AcDbLine
 10
-12.67736971791613
 20
-4.280757472270288
 30
0.0
 11
-12.57736971791614
 21
-4.278276845898489
 31
0.0
  0
LINE
  5
F10509
330
261
100
AcDbEntity
  8
Geo
100
AcDbLine
 10
-12.57736971791614
 20
-4.278276845898489
 30
0.0
 11
-12.47736971791614
 21
-4.27582848033629
 31
0.0
  0
LINE
  5
F1050B
330
261
100
AcDbEntity
  8
Geo
100
AcDbLine
 10
-12.47736971791614
 20
-4.27582848033629
 30
0.0
 11
-12.37736971791614
 21
-4.27341255568729
 31
0.0
  0
LINE
  5
F1050D
330
261
100
AcDbEntity
  8
Geo
100
AcDbLine
 10
-12.37736971791614
 20
-4.27341255568729
 30
0.0
 11
-12.27736971791614
 21
-4.271029249249391
 31
0.0
  0
LINE
  5
F1050F
330
261
100
AcDbEntity
  8
Geo
100
AcDbLine
 10
-12.27736971791614
 20
-4.271029249249391
 30
0.0
 11
-12.17736971791613
 21
-4.26867873552079
 31
0.0
  0
LINE
  5
F10511
330
261
100
AcDbEntity
  8
Geo
100
AcDbLine
 10
-12.17736971791613
 20
-4.26867873552079
 30
0.0
 11
-12.07736971791614
 21
-4.26636118620479
 31
0.0
  0
LINE
  5
F10513
330
261
100
AcDbEntity
  8
Geo
100
AcDbLine
 10
-12.07736971791614
 20
-4.26636118620479
 30
0.0
 11
-11.97736971791614
 21
-4.264076770215989
 31
0.0
  0
LINE
  5
F10515
330
261
100
AcDbEntity
  8
Geo
100
AcDbLine
 10
-11.97736971791614
 20
-4.264076770215989
 30
0.0
 11
-11.87736971791614
 21
-4.261825653685487
 31
0.0
  0
LINE
  5
F10517
330
261
100
AcDbEntity
  8
Geo
100
AcDbLine
 10
-11.87736971791614
 20
-4.261825653685487
 30
0.0
 11
-11.77736971791613
 21
-4.25960799996579
 31
0.0
  0
LINE
  5
F10519
330
261
100
AcDbEntity
  8
Geo
100
AcDbLine
 10
-11.77736971791613
 20
-4.25960799996579
 30
0.0
 11
-11.67736971791613
 21
-4.257423969636892
 31
0.0
  0
LINE
  5
F1051B
330
261
100
AcDbEntity
  8
Geo
100
AcDbLine
 10
-11.67736971791613
 20
-4.257423969636892
 30
0.0
 11
-11.57736971791614
 21
-4.255273720510693
 31
0.0
  0
LINE
  5
F1051D
330
261
100
AcDbEntity
  8
Geo
100
AcDbLine
 10
-11.57736971791614
 20
-4.255273720510693
 30
0.0
 11
-11.47736971791614
 21
-4.253157407636695
 31
0.0
  0
LINE
  5
F1051F
330
261
100
AcDbEntity
  8
Geo
100
AcDbLine
 10
-11.47736971791614
 20
-4.253157407636695
 30
0.0
 11
-11.37736971791614
 21
-4.251075183306991
 31
0.0
  0
LINE
  5
F10521
330
261
100
AcDbEntity
  8
Geo
100
AcDbLine
 10
-11.37736971791614
 20
-4.251075183306991
 30
0.0
 11
-11.27736971791613
 21
-4.249027197060989
 31
0.0
  0
LINE
  5
F10523
330
261
100
AcDbEntity
  8
Geo
100
AcDbLine
 10
-11.27736971791613
 20
-4.249027197060989
 30
0.0
 11
-11.17736971791613
 21
-4.247013595690692
 31
0.0
  0
LINE
  5
F10525
330
261
100
AcDbEntity
  8
Geo
100
AcDbLine
 10
-11.17736971791613
 20
-4.247013595690692
 30
0.0
 11
-11.07736971791614
 21
-4.245034523245291
 31
0.0
  0
LINE
  5
F10527
330
261
100
AcDbEntity
  8
Geo
100
AcDbLine
 10
-11.07736971791614
 20
-4.245034523245291
 30
0.0
 11
-10.97736971791614
 21
-4.243090121036292
 31
0.0
  0
LINE
  5
F10529
330
261
100
AcDbEntity
  8
Geo
100
AcDbLine
 10
-10.97736971791614
 20
-4.243090121036292
 30
0.0
 11
-10.87736971791614
 21
-4.241180527641791
 31
0.0
  0
LINE
  5
F1052B
330
261
100
AcDbEntity
  8
Geo
100
AcDbLine
 10
-10.87736971791614
 20
-4.241180527641791
 30
0.0
 11
-10.77736971791614
 21
-4.23930587891159
 31
0.0
  0
LINE
  5
F1052D
330
261
100
AcDbEntity
  8
Geo
100
AcDbLine
 10
-10.77736971791614
 20
-4.23930587891159
 30
0.0
 11
-10.67736971791613
 21
-4.237466307971391
 31
0.0
  0
LINE
  5
F1052F
330
261
100
AcDbEntity
  8
Geo
100
AcDbLine
 10
-10.67736971791613
 20
-4.237466307971391
 30
0.0
 11
-10.57736971791614
 21
-4.235661945227491
 31
0.0
  0
LINE
  5
F10531
330
261
100
AcDbEntity
  8
Geo
100
AcDbLine
 10
-10.57736971791614
 20
-4.235661945227491
 30
0.0
 11
-10.47736971791614
 21
-4.233892918371189
 31
0.0
  0
LINE
  5
F10533
330
261
100
AcDbEntity
  8
Geo
100
AcDbLine
 10
-10.47736971791614
 20
-4.233892918371189
 30
0.0
 11
-10.37736971791614
 21
-4.232159352383089
 31
0.0
  0
LINE
  5
F10535
330
261
100
AcDbEntity
  8
Geo
100
AcDbLine
 10
-10.37736971791614
 20
-4.232159352383089
 30
0.0
 11
-10.27736971791614
 21
-4.23046136953739
 31
0.0
  0
LINE
  5
F10537
330
261
100
AcDbEntity
  8
Geo
100
AcDbLine
 10
-10.27736971791614
 20
-4.23046136953739
 30
0.0
 11
-10.17736971791613
 21
-4.228799089405889
 31
0.0
  0
LINE
  5
F10539
330
261
100
AcDbEntity
  8
Geo
100
AcDbLine
 10
-10.17736971791613
 20
-4.228799089405889
 30
0.0
 11
-10.07736971791614
 21
-4.22717262886249
 31
0.0
  0
LINE
  5
F1053B
330
261
100
AcDbEntity
  8
Geo
100
AcDbLine
 10
-10.07736971791614
 20
-4.22717262886249
 30
0.0
 11
-9.97736971791614
 21
-4.225582102086892
 31
0.0
  0
LINE
  5
F1053D
330
261
100
AcDbEntity
  8
Geo
100
AcDbLine
 10
-9.97736971791614
 20
-4.225582102086892
 30
0.0
 11
-9.877369717916138
 21
-4.224027620568591
 31
0.0
  0
LINE
  5
F1053F
330
261
100
AcDbEntity
  8
Geo
100
AcDbLine
 10
-9.877369717916138
 20
-4.224027620568591
 30
0.0
 11
-9.777369717916137
 21
-4.222509293110693
 31
0.0
  0
LINE
  5
F10541
330
261
100
AcDbEntity
  8
Geo
100
AcDbLine
 10
-9.777369717916137
 20
-4.222509293110693
 30
0.0
 11
-9.677369717916135
 21
-4.221027225834092
 31
0.0
  0
LINE
  5
F10543
330
261
100
AcDbEntity
  8
Geo
100
AcDbLine
 10
-9.677369717916135
 20
-4.221027225834092
 30
0.0
 11
-9.577369717916141
 21
-4.21958152218059
 31
0.0
  0
LINE
  5
F10545
330
261
100
AcDbEntity
  8
Geo
100
AcDbLine
 10
-9.577369717916141
 20
-4.21958152218059
 30
0.0
 11
-9.47736971791614
 21
-4.218172282916693
 31
0.0
  0
LINE
  5
F10547
330
261
100
AcDbEntity
  8
Geo
100
AcDbLine
 10
-9.47736971791614
 20
-4.218172282916693
 30
0.0
 11
-9.377369717916138
 21
-4.216799606137591
 31
0.0
  0
LINE
  5
F10549
330
261
100
AcDbEntity
  8
Geo
100
AcDbLine
 10
-9.377369717916138
 20
-4.216799606137591
 30
0.0
 11
-9.277369717916137
 21
-4.215463587269987
 31
0.0
  0
LINE
  5
F1054B
330
261
100
AcDbEntity
  8
Geo
100
AcDbLine
 10
-9.277369717916137
 20
-4.215463587269987
 30
0.0
 11
-9.177369717916135
 21
-4.214164319075695
 31
0.0
  0
LINE
  5
F1054D
330
261
100
AcDbEntity
  8
Geo
100
AcDbLine
 10
-9.177369717916135
 20
-4.214164319075695
 30
0.0
 11
-9.077369717916141
 21
-4.212901891654986
 31
0.0
  0
LINE
  5
F1054F
330
261
100
AcDbEntity
  8
Geo
100
AcDbLine
 10
-9.077369717916141
 20
-4.212901891654986
 30
0.0
 11
-8.97736971791604
 21
-4.211676392449692
 31
0.0
  0
LINE
  5
F10551
330
261
100
AcDbEntity
  8
Geo
100
AcDbLine
 10
-8.97736971791604
 20
-4.211676392449692
 30
0.0
 11
-8.877369717916046
 21
-4.210487906246289
 31
0.0
  0
LINE
  5
F10553
330
261
100
AcDbEntity
  8
Geo
100
AcDbLine
 10
-8.877369717916046
 20
-4.210487906246289
 30
0.0
 11
-8.777369717916045
 21
-4.209336515179089
 31
0.0
  0
LINE
  5
F10555
330
261
100
AcDbEntity
  8
Geo
100
AcDbLine
 10
-8.777369717916045
 20
-4.209336515179089
 30
0.0
 11
-8.677369717916043
 21
-4.208222298732891
 31
0.0
  0
LINE
  5
F10557
330
261
100
AcDbEntity
  8
Geo
100
AcDbLine
 10
-8.677369717916043
 20
-4.208222298732891
 30
0.0
 11
-8.577369717916042
 21
-4.207145333745991
 31
0.0
  0
LINE
  5
F10559
330
261
100
AcDbEntity
  8
Geo
100
AcDbLine
 10
-8.577369717916042
 20
-4.207145333745991
 30
0.0
 11
-8.47736971791604
 21
-4.206105694412787
 31
0.0
  0
LINE
  5
F1055B
330
261
100
AcDbEntity
  8
Geo
100
AcDbLine
 10
-8.47736971791604
 20
-4.206105694412787
 30
0.0
 11
-8.377369717916046
 21
-4.205103452286692
 31
0.0
  0
LINE
  5
F1055D
330
261
100
AcDbEntity
  8
Geo
100
AcDbLine
 10
-8.377369717916046
 20
-4.205103452286692
 30
0.0
 11
-8.277369717916045
 21
-4.20413867628239
 31
0.0
  0
LINE
  5
F1055F
330
261
100
AcDbEntity
  8
Geo
100
AcDbLine
 10
-8.277369717916045
 20
-4.20413867628239
 30
0.0
 11
-8.177369717916043
 21
-4.203211432678696
 31
0.0
  0
LINE
  5
F10561
330
261
100
AcDbEntity
  8
Geo
100
AcDbLine
 10
-8.177369717916043
 20
-4.203211432678696
 30
0.0
 11
-8.077369717916042
 21
-4.202321785120393
 31
0.0
  0
LINE
  5
F10563
330
261
100
AcDbEntity
  8
Geo
100
AcDbLine
 10
-8.077369717916042
 20
-4.202321785120393
 30
0.0
 11
-7.97736971791604
 21
-4.20146979462099
 31
0.0
  0
LINE
  5
F10565
330
261
100
AcDbEntity
  8
Geo
100
AcDbLine
 10
-7.97736971791604
 20
-4.20146979462099
 30
0.0
 11
-7.877369717916046
 21
-4.200655519564989
 31
0.0
  0
LINE
  5
F10567
330
261
100
AcDbEntity
  8
Geo
100
AcDbLine
 10
-7.877369717916046
 20
-4.200655519564989
 30
0.0
 11
-7.777369717916045
 21
-4.199879015709491
 31
0.0
  0
LINE
  5
F10569
330
261
100
AcDbEntity
  8
Geo
100
AcDbLine
 10
-7.777369717916045
 20
-4.199879015709491
 30
0.0
 11
-7.677369717916043
 21
-4.19914033618669
 31
0.0
  0
LINE
  5
F1056B
330
261
100
AcDbEntity
  8
Geo
100
AcDbLine
 10
-7.677369717916043
 20
-4.19914033618669
 30
0.0
 11
-7.577369717916042
 21
-4.198439531505393
 31
0.0
  0
LINE
  5
F1056D
330
261
100
AcDbEntity
  8
Geo
100
AcDbLine
 10
-7.577369717916042
 20
-4.198439531505393
 30
0.0
 11
-7.47736971791604
 21
-4.197776649553389
 31
0.0
  0
LINE
  5
F1056F
330
261
100
AcDbEntity
  8
Geo
100
AcDbLine
 10
-7.47736971791604
 20
-4.197776649553389
 30
0.0
 11
-7.377369717916046
 21
-4.197151735598787
 31
0.0
  0
LINE
  5
F10571
330
261
100
AcDbEntity
  8
Geo
100
AcDbLine
 10
-7.377369717916046
 20
-4.197151735598787
 30
0.0
 11
-7.277369717916045
 21
-4.196564832291691
 31
0.0
  0
LINE
  5
F10573
330
261
100
AcDbEntity
  8
Geo
100
AcDbLine
 10
-7.277369717916045
 20
-4.196564832291691
 30
0.0
 11
-7.177369717916043
 21
-4.196015979665791
 31
0.0
  0
LINE
  5
F10575
330
261
100
AcDbEntity
  8
Geo
100
AcDbLine
 10
-7.177369717916043
 20
-4.196015979665791
 30
0.0
 11
-7.077369717916042
 21
-4.195505215140091
 31
0.0
  0
LINE
  5
F10577
330
261
100
AcDbEntity
  8
Geo
100
AcDbLine
 10
-7.077369717916042
 20
-4.195505215140091
 30
0.0
 11
-6.97736971791604
 21
-4.195032573519693
 31
0.0
  0
LINE
  5
F10579
330
261
100
AcDbEntity
  8
Geo
100
AcDbLine
 10
-6.97736971791604
 20
-4.195032573519693
 30
0.0
 11
-6.877369717916046
 21
-4.194598086997888
 31
0.0
  0
LINE
  5
F1057B
330
261
100
AcDbEntity
  8
Geo
100
AcDbLine
 10
-6.877369717916046
 20
-4.194598086997888
 30
0.0
 11
-6.777369717916045
 21
-4.194201785156394
 31
0.0
  0
LINE
  5
F1057D
330
261
100
AcDbEntity
  8
Geo
100
AcDbLine
 10
-6.777369717916045
 20
-4.194201785156394
 30
0.0
 11
-6.677369717916043
 21
-4.193843694967192
 31
0.0
  0
LINE
  5
F1057F
330
261
100
AcDbEntity
  8
Geo
100
AcDbLine
 10
-6.677369717916043
 20
-4.193843694967192
 30
0.0
 11
-6.577369717916042
 21
-4.193523840793289
 31
0.0
  0
LINE
  5
F10581
330
261
100
AcDbEntity
  8
Geo
100
AcDbLine
 10
-6.577369717916042
 20
-4.193523840793289
 30
0.0
 11
-6.47736971791604
 21
-4.193242244389292
 31
0.0
  0
LINE
  5
F10583
330
261
100
AcDbEntity
  8
Geo
100
AcDbLine
 10
-6.47736971791604
 20
-4.193242244389292
 30
0.0
 11
-6.377369717916046
 21
-4.192998924902692
 31
0.0
  0
LINE
  5
F10585
330
261
100
AcDbEntity
  8
Geo
100
AcDbLine
 10
-6.377369717916046
 20
-4.192998924902692
 30
0.0
 11
-6.277369717916045
 21
-4.192793898874292
 31
0.0
  0
LINE
  5
F10587
330
261
100
AcDbEntity
  8
Geo
100
AcDbLine
 10
-6.277369717916045
 20
-4.192793898874292
 30
0.0
 11
-6.177369717916043
 21
-4.19262718023889
 31
0.0
  0
LINE
  5
F10589
330
261
100
AcDbEntity
  8
Geo
100
AcDbLine
 10
-6.177369717916043
 20
-4.19262718023889
 30
0.0
 11
-6.077369717916042
 21
-4.192498780325692
 31
0.0
  0
LINE
  5
F1058B
330
261
100
AcDbEntity
  8
Geo
100
AcDbLine
 10
-6.077369717916042
 20
-4.192498780325692
 30
0.0
 11
-5.97736971791604
 21
-4.192408707858792
 31
0.0
  0
LINE
  5
F1058D
330
261
100
AcDbEntity
  8
Geo
100
AcDbLine
 10
-5.97736971791604
 20
-4.192408707858792
 30
0.0
 11
-5.877369717916337
 21
-4.192356968957792
 31
0.0
  0
LINE
  5
F1058F
330
261
100
AcDbEntity
  8
Geo
100
AcDbLine
 10
-48.57736971791634
 20
3.466106079006308
 30
0.0
 11
-48.47736971791634
 21
3.455785488039609
 31
0.0
  0
LINE
  5
F10591
330
261
100
AcDbEntity
  8
Geo
100
AcDbLine
 10
-48.47736971791634
 20
3.455785488039609
 30
0.0
 11
-48.37736971791634
 21
3.423459128531305
 31
0.0
  0
LINE
  5
F10593
330
261
100
AcDbEntity
  8
Geo
100
AcDbLine
 10
-48.37736971791634
 20
3.423459128531305
 30
0.0
 11
-48.27736971791634
 21
3.370445970643409
 31
0.0
  0
LINE
  5
F10595
330
261
100
AcDbEntity
  8
Geo
100
AcDbLine
 10
-48.27736971791634
 20
3.370445970643409
 30
0.0
 11
-48.17736971791633
 21
3.31721522989671
 31
0.0
  0
LINE
  5
F10597
330
261
100
AcDbEntity
  8
Geo
100
AcDbLine
 10
-48.17736971791633
 20
3.31721522989671
 30
0.0
 11
-48.07736971791634
 21
3.263771835025409
 31
0.0
  0
LINE
  5
F10599
330
261
100
AcDbEntity
  8
Geo
100
AcDbLine
 10
-48.07736971791634
 20
3.263771835025409
 30
0.0
 11
-47.97736971791635
 21
3.210120734453809
 31
0.0
  0
LINE
  5
F1059B
330
261
100
AcDbEntity
  8
Geo
100
AcDbLine
 10
-47.97736971791635
 20
3.210120734453809
 30
0.0
 11
-47.87736971791633
 21
3.156266895838108
 31
0.0
  0
LINE
  5
F1059D
330
261
100
AcDbEntity
  8
Geo
100
AcDbLine
 10
-47.87736971791633
 20
3.156266895838108
 30
0.0
 11
-47.77736971791634
 21
3.102215305606307
 31
0.0
  0
LINE
  5
F1059F
330
261
100
AcDbEntity
  8
Geo
100
AcDbLine
 10
-47.77736971791634
 20
3.102215305606307
 30
0.0
 11
-47.67736971791634
 21
3.047970968496805
 31
0.0
  0
LINE
  5
F105A1
330
261
100
AcDbEntity
  8
Geo
100
AcDbLine
 10
-47.67736971791634
 20
3.047970968496805
 30
0.0
 11
-47.57736971791634
 21
2.993538907094404
 31
0.0
  0
LINE
  5
F105A3
330
261
100
AcDbEntity
  8
Geo
100
AcDbLine
 10
-47.57736971791634
 20
2.993538907094404
 30
0.0
 11
-47.47736971791634
 21
2.938924161366209
 31
0.0
  0
LINE
  5
F105A5
330
261
100
AcDbEntity
  8
Geo
100
AcDbLine
 10
-47.47736971791634
 20
2.938924161366209
 30
0.0
 11
-47.37736971791633
 21
2.884131788193805
 31
0.0
  0
LINE
  5
F105A7
330
261
100
AcDbEntity
  8
Geo
100
AcDbLine
 10
-47.37736971791633
 20
2.884131788193805
 30
0.0
 11
-47.27736971791634
 21
2.829166860906212
 31
0.0
  0
LINE
  5
F105A9
330
261
100
AcDbEntity
  8
Geo
100
AcDbLine
 10
-47.27736971791634
 20
2.829166860906212
 30
0.0
 11
-47.17736971791633
 21
2.774034468809006
 31
0.0
  0
LINE
  5
F105AB
330
261
100
AcDbEntity
  8
Geo
100
AcDbLine
 10
-47.17736971791633
 20
2.774034468809006
 30
0.0
 11
-47.07736971791634
 21
2.718739716714111
 31
0.0
  0
LINE
  5
F105AD
330
261
100
AcDbEntity
  8
Geo
100
AcDbLine
 10
-47.07736971791634
 20
2.718739716714111
 30
0.0
 11
-46.97736971791634
 21
2.663287724466407
 31
0.0
  0
LINE
  5
F105AF
330
261
100
AcDbEntity
  8
Geo
100
AcDbLine
 10
-46.97736971791634
 20
2.663287724466407
 30
0.0
 11
-46.87736971791633
 21
2.607683626470013
 31
0.0
  0
LINE
  5
F105B1
330
261
100
AcDbEntity
  8
Geo
100
AcDbLine
 10
-46.87736971791633
 20
2.607683626470013
 30
0.0
 11
-46.77736971791634
 21
2.551932571212809
 31
0.0
  0
LINE
  5
F105B3
330
261
100
AcDbEntity
  8
Geo
100
AcDbLine
 10
-46.77736971791634
 20
2.551932571212809
 30
0.0
 11
-46.67736971791633
 21
2.49603972078961
 31
0.0
  0
LINE
  5
F105B5
330
261
100
AcDbEntity
  8
Geo
100
AcDbLine
 10
-46.67736971791633
 20
2.49603972078961
 30
0.0
 11
-46.57736971791634
 21
2.440010250424606
 31
0.0
  0
LINE
  5
F105B7
330
261
100
AcDbEntity
  8
Geo
100
AcDbLine
 10
-46.57736971791634
 20
2.440010250424606
 30
0.0
 11
-46.47736971791634
 21
2.383849347991507
 31
0.0
  0
LINE
  5
F105B9
330
261
100
AcDbEntity
  8
Geo
100
AcDbLine
 10
-46.47736971791634
 20
2.383849347991507
 30
0.0
 11
-46.37736971791634
 21
2.327562213533809
 31
0.0
  0
LINE
  5
F105BB
330
261
100
AcDbEntity
  8
Geo
100
AcDbLine
 10
-46.37736971791634
 20
2.327562213533809
 30
0.0
 11
-46.27736971791634
 21
2.271154058783011
 31
0.0
  0
LINE
  5
F105BD
330
261
100
AcDbEntity
  8
Geo
100
AcDbLine
 10
-46.27736971791634
 20
2.271154058783011
 30
0.0
 11
-46.17736971791633
 21
2.214630106676104
 31
0.0
  0
LINE
  5
F105BF
330
261
100
AcDbEntity
  8
Geo
100
AcDbLine
 10
-46.17736971791633
 20
2.214630106676104
 30
0.0
 11
-46.07736971791633
 21
2.157995590872104
 31
0.0
  0
LINE
  5
F105C1
330
261
100
AcDbEntity
  8
Geo
100
AcDbLine
 10
-46.07736971791633
 20
2.157995590872104
 30
0.0
 11
-45.97736971791634
 21
2.101255755266912
 31
0.0
  0
LINE
  5
F105C3
330
261
100
AcDbEntity
  8
Geo
100
AcDbLine
 10
-45.97736971791634
 20
2.101255755266912
 30
0.0
 11
-45.87736971791634
 21
2.044415853508709
 31
0.0
  0
LINE
  5
F105C5
330
261
100
AcDbEntity
  8
Geo
100
AcDbLine
 10
-45.87736971791634
 20
2.044415853508709
 30
0.0
 11
-45.77736971791634
 21
1.98748114851071
 31
0.0
  0
LINE
  5
F105C7
330
261
100
AcDbEntity
  8
Geo
100
AcDbLine
 10
-45.77736971791634
 20
1.98748114851071
 30
0.0
 11
-45.67736971791633
 21
1.930456911964107
 31
0.0
  0
LINE
  5
F105C9
330
261
100
AcDbEntity
  8
Geo
100
AcDbLine
 10
-45.67736971791633
 20
1.930456911964107
 30
0.0
 11
-45.57736971791634
 21
1.87334842385011
 31
0.0
  0
LINE
  5
F105CB
330
261
100
AcDbEntity
  8
Geo
100
AcDbLine
 10
-45.57736971791634
 20
1.87334842385011
 30
0.0
 11
-45.47736971791635
 21
1.816160971950807
 31
0.0
  0
LINE
  5
F105CD
330
261
100
AcDbEntity
  8
Geo
100
AcDbLine
 10
-45.47736971791635
 20
1.816160971950807
 30
0.0
 11
-45.37736971791633
 21
1.758899851359913
 31
0.0
  0
LINE
  5
F105CF
330
261
100
AcDbEntity
  8
Geo
100
AcDbLine
 10
-45.37736971791633
 20
1.758899851359913
 30
0.0
 11
-45.27736971791634
 21
1.701570363992111
 31
0.0
  0
LINE
  5
F105D1
330
261
100
AcDbEntity
  8
Geo
100
AcDbLine
 10
-45.27736971791634
 20
1.701570363992111
 30
0.0
 11
-45.17736971791634
 21
1.644177818092206
 31
0.0
  0
LINE
  5
F105D3
330
261
100
AcDbEntity
  8
Geo
100
AcDbLine
 10
-45.17736971791634
 20
1.644177818092206
 30
0.0
 11
-45.07736971791634
 21
1.586727527743907
 31
0.0
  0
LINE
  5
F105D5
330
261
100
AcDbEntity
  8
Geo
100
AcDbLine
 10
-45.07736971791634
 20
1.586727527743907
 30
0.0
 11
-44.97736971791634
 21
1.52922481237751
 31
0.0
  0
LINE
  5
F105D7
330
261
100
AcDbEntity
  8
Geo
100
AcDbLine
 10
-44.97736971791634
 20
1.52922481237751
 30
0.0
 11
-44.87736971791633
 21
1.471674996277307
 31
0.0
  0
LINE
  5
F105D9
330
261
100
AcDbEntity
  8
Geo
100
AcDbLine
 10
-44.87736971791633
 20
1.471674996277307
 30
0.0
 11
-44.77736971791634
 21
1.414083408089009
 31
0.0
  0
LINE
  5
F105DB
330
261
100
AcDbEntity
  8
Geo
100
AcDbLine
 10
-44.77736971791634
 20
1.414083408089009
 30
0.0
 11
-44.67736971791633
 21
1.356455380325808
 31
0.0
  0
LINE
  5
F105DD
330
261
100
AcDbEntity
  8
Geo
100
AcDbLine
 10
-44.67736971791633
 20
1.356455380325808
 30
0.0
 11
-44.57736971791634
 21
1.29879624887501
 31
0.0
  0
LINE
  5
F105DF
330
261
100
AcDbEntity
  8
Geo
100
AcDbLine
 10
-44.57736971791634
 20
1.29879624887501
 30
0.0
 11
-44.47736971791634
 21
1.241111352504109
 31
0.0
  0
LINE
  5
F105E1
330
261
100
AcDbEntity
  8
Geo
100
AcDbLine
 10
-44.47736971791634
 20
1.241111352504109
 30
0.0
 11
-44.37736971791633
 21
1.183406032365709
 31
0.0
  0
LINE
  5
F105E3
330
261
100
AcDbEntity
  8
Geo
100
AcDbLine
 10
-44.37736971791633
 20
1.183406032365709
 30
0.0
 11
-44.27736971791634
 21
1.125685631504012
 31
0.0
  0
LINE
  5
F105E5
330
261
100
AcDbEntity
  8
Geo
100
AcDbLine
 10
-44.27736971791634
 20
1.125685631504012
 30
0.0
 11
-44.17736971791633
 21
1.06795549435921
 31
0.0
  0
LINE
  5
F105E7
330
261
100
AcDbEntity
  8
Geo
100
AcDbLine
 10
-44.17736971791633
 20
1.06795549435921
 30
0.0
 11
-44.07736971791634
 21
1.010220966273209
 31
0.0
  0
LINE
  5
F105E9
330
261
100
AcDbEntity
  8
Geo
100
AcDbLine
 10
-44.07736971791634
 20
1.010220966273209
 30
0.0
 11
-43.97736971791634
 21
0.9524873929943069
 31
0.0
  0
LINE
  5
F105EB
330
261
100
AcDbEntity
  8
Geo
100
AcDbLine
 10
-43.97736971791634
 20
0.9524873929943069
 30
0.0
 11
-43.87736971791634
 21
0.8947601201825108
 31
0.0
  0
LINE
  5
F105ED
330
261
100
AcDbEntity
  8
Geo
100
AcDbLine
 10
-43.87736971791634
 20
0.8947601201825108
 30
0.0
 11
-43.77736971791634
 21
0.8370444929145079
 31
0.0
  0
LINE
  5
F105EF
330
261
100
AcDbEntity
  8
Geo
100
AcDbLine
 10
-43.77736971791634
 20
0.8370444929145079
 30
0.0
 11
-43.67736971791633
 21
0.779345855188609
 31
0.0
  0
LINE
  5
F105F1
330
261
100
AcDbEntity
  8
Geo
100
AcDbLine
 10
-43.67736971791633
 20
0.779345855188609
 30
0.0
 11
-43.57736971791633
 21
0.7216695494299082
 31
0.0
  0
LINE
  5
F105F3
330
261
100
AcDbEntity
  8
Geo
100
AcDbLine
 10
-43.57736971791633
 20
0.7216695494299082
 30
0.0
 11
-43.47736971791634
 21
0.6640209159961082
 31
0.0
  0
LINE
  5
F105F5
330
261
100
AcDbEntity
  8
Geo
100
AcDbLine
 10
-43.47736971791634
 20
0.6640209159961082
 30
0.0
 11
-43.37736971791634
 21
0.6064052926822079
 31
0.0
  0
LINE
  5
F105F7
330
261
100
AcDbEntity
  8
Geo
100
AcDbLine
 10
-43.37736971791634
 20
0.6064052926822079
 30
0.0
 11
-43.27736971791634
 21
0.5488280142271087
 31
0.0
  0
LINE
  5
F105F9
330
261
100
AcDbEntity
  8
Geo
100
AcDbLine
 10
-43.27736971791634
 20
0.5488280142271087
 30
0.0
 11
-43.17736971791633
 21
0.4912944118192116
 31
0.0
  0
LINE
  5
F105FB
330
261
100
AcDbEntity
  8
Geo
100
AcDbLine
 10
-43.17736971791633
 20
0.4912944118192116
 30
0.0
 11
-43.07736971791634
 21
0.4338098126027106
 31
0.0
  0
LINE
  5
F105FD
330
261
100
AcDbEntity
  8
Geo
100
AcDbLine
 10
-43.07736971791634
 20
0.4338098126027106
 30
0.0
 11
-42.97736971791635
 21
0.3763795391847076
 31
0.0
  0
LINE
  5
F105FF
330
261
100
AcDbEntity
  8
Geo
100
AcDbLine
 10
-42.97736971791635
 20
0.3763795391847076
 30
0.0
 11
-42.87736971791633
 21
0.3190089091420134
 31
0.0
  0
LINE
  5
F10601
330
261
100
AcDbEntity
  8
Geo
100
AcDbLine
 10
-42.87736971791633
 20
0.3190089091420134
 30
0.0
 11
-42.77736971791634
 21
0.2617032345290084
 31
0.0
  0
LINE
  5
F10603
330
261
100
AcDbEntity
  8
Geo
100
AcDbLine
 10
-42.77736971791634
 20
0.2617032345290084
 30
0.0
 11
-42.67736971791634
 21
0.2044678213858084
 31
0.0
  0
LINE
  5
F10605
330
261
100
AcDbEntity
  8
Geo
100
AcDbLine
 10
-42.67736971791634
 20
0.2044678213858084
 30
0.0
 11
-42.57736971791634
 21
0.147307969246711
 31
0.0
  0
LINE
  5
F10607
330
261
100
AcDbEntity
  8
Geo
100
AcDbLine
 10
-42.57736971791634
 20
0.147307969246711
 30
0.0
 11
-42.47736971791634
 21
0.0902289706498039
 31
0.0
  0
LINE
  5
F10609
330
261
100
AcDbEntity
  8
Geo
100
AcDbLine
 10
-42.47736971791634
 20
0.0902289706498039
 30
0.0
 11
-42.37736971791633
 21
0.0332361106469108
 31
0.0
  0
LINE
  5
F1060B
330
261
100
AcDbEntity
  8
Geo
100
AcDbLine
 10
-42.37736971791633
 20
0.0332361106469108
 30
0.0
 11
-42.27736971791634
 21
-0.0236653336861927
 31
0.0
  0
LINE
  5
F1060D
330
261
100
AcDbEntity
  8
Geo
100
AcDbLine
 10
-42.27736971791634
 20
-0.0236653336861927
 30
0.0
 11
-42.17736971791633
 21
-0.080470093737894
 31
0.0
  0
LINE
  5
F1060F
330
261
100
AcDbEntity
  8
Geo
100
AcDbLine
 10
-42.17736971791633
 20
-0.080470093737894
 30
0.0
 11
-42.07736971791634
 21
-0.1371729098486938
 31
0.0
  0
LINE
  5
F10611
330
261
100
AcDbEntity
  8
Geo
100
AcDbLine
 10
-42.07736971791634
 20
-0.1371729098486938
 30
0.0
 11
-41.97736971791634
 21
-0.1937685317983906
 31
0.0
  0
LINE
  5
F10613
330
261
100
AcDbEntity
  8
Geo
100
AcDbLine
 10
-41.97736971791634
 20
-0.1937685317983906
 30
0.0
 11
-41.87736971791633
 21
-0.2502517192919882
 31
0.0
  0
LINE
  5
F10615
330
261
100
AcDbEntity
  8
Geo
100
AcDbLine
 10
-41.87736971791633
 20
-0.2502517192919882
 30
0.0
 11
-41.77736971791634
 21
-0.3066172424451921
 31
0.0
  0
LINE
  5
F10617
330
261
100
AcDbEntity
  8
Geo
100
AcDbLine
 10
-41.77736971791634
 20
-0.3066172424451921
 30
0.0
 11
-41.67736971791633
 21
-0.3628598822681894
 31
0.0
  0
LINE
  5
F10619
330
261
100
AcDbEntity
  8
Geo
100
AcDbLine
 10
-41.67736971791633
 20
-0.3628598822681894
 30
0.0
 11
-41.57736971791634
 21
-0.4189744311494863
 31
0.0
  0
LINE
  5
F1061B
330
261
100
AcDbEntity
  8
Geo
100
AcDbLine
 10
-41.57736971791634
 20
-0.4189744311494863
 30
0.0
 11
-41.47736971791634
 21
-0.4749556933375914
 31
0.0
  0
LINE
  5
F1061D
330
261
100
AcDbEntity
  8
Geo
100
AcDbLine
 10
-41.47736971791634
 20
-0.4749556933375914
 30
0.0
 11
-41.37736971791634
 21
-0.5307984854222916
 31
0.0
  0
LINE
  5
F1061F
330
261
100
AcDbEntity
  8
Geo
100
AcDbLine
 10
-41.37736971791634
 20
-0.5307984854222916
 30
0.0
 11
-41.27736971791634
 21
-0.5864976368144888
 31
0.0
  0
LINE
  5
F10621
330
261
100
AcDbEntity
  8
Geo
100
AcDbLine
 10
-41.27736971791634
 20
-0.5864976368144888
 30
0.0
 11
-41.17736971791633
 21
-0.6420479902251906
 31
0.0
  0
LINE
  5
F10623
330
261
100
AcDbEntity
  8
Geo
100
AcDbLine
 10
-41.17736971791633
 20
-0.6420479902251906
 30
0.0
 11
-41.07736971791633
 21
-0.6974444021428923
 31
0.0
  0
LINE
  5
F10625
330
261
100
AcDbEntity
  8
Geo
100
AcDbLine
 10
-41.07736971791633
 20
-0.6974444021428923
 30
0.0
 11
-40.97736971791634
 21
-0.7526817433096938
 31
0.0
  0
LINE
  5
F10627
330
261
100
AcDbEntity
  8
Geo
100
AcDbLine
 10
-40.97736971791634
 20
-0.7526817433096938
 30
0.0
 11
-40.87736971791634
 21
-0.8077548991964924
 31
0.0
  0
LINE
  5
F10629
330
261
100
AcDbEntity
  8
Geo
100
AcDbLine
 10
-40.87736971791634
 20
-0.8077548991964924
 30
0.0
 11
-40.77736971791634
 21
-0.8626587704763934
 31
0.0
  0
LINE
  5
F1062B
330
261
100
AcDbEntity
  8
Geo
100
AcDbLine
 10
-40.77736971791634
 20
-0.8626587704763934
 30
0.0
 11
-40.67736971791633
 21
-0.9173882734967904
 31
0.0
  0
LINE
  5
F1062D
330
261
100
AcDbEntity
  8
Geo
100
AcDbLine
 10
-40.67736971791633
 20
-0.9173882734967904
 30
0.0
 11
-40.57736971791634
 21
-0.9719383407500892
 31
0.0
  0
LINE
  5
F1062F
330
261
100
AcDbEntity
  8
Geo
100
AcDbLine
 10
-40.57736971791634
 20
-0.9719383407500892
 30
0.0
 11
-40.47736971791635
 21
-1.026303921343288
 31
0.0
  0
LINE
  5
F10631
330
261
100
AcDbEntity
  8
Geo
100
AcDbLine
 10
-40.47736971791635
 20
-1.026303921343288
 30
0.0
 11
-40.37736971791633
 21
-1.080479981465092
 31
0.0
  0
LINE
  5
F10633
330
261
100
AcDbEntity
  8
Geo
100
AcDbLine
 10
-40.37736971791633
 20
-1.080479981465092
 30
0.0
 11
-40.27736971791634
 21
-1.134461504852389
 31
0.0
  0
LINE
  5
F10635
330
261
100
AcDbEntity
  8
Geo
100
AcDbLine
 10
-40.27736971791634
 20
-1.134461504852389
 30
0.0
 11
-40.17736971791634
 21
-1.188243493254489
 31
0.0
  0
LINE
  5
F10637
330
261
100
AcDbEntity
  8
Geo
100
AcDbLine
 10
-40.17736971791634
 20
-1.188243493254489
 30
0.0
 11
-40.07736971791634
 21
-1.241820966896089
 31
0.0
  0
LINE
  5
F10639
330
261
100
AcDbEntity
  8
Geo
100
AcDbLine
 10
-40.07736971791634
 20
-1.241820966896089
 30
0.0
 11
-39.97736971791635
 21
-1.295188964938294
 31
0.0
  0
LINE
  5
F1063B
330
261
100
AcDbEntity
  8
Geo
100
AcDbLine
 10
-39.97736971791635
 20
-1.295188964938294
 30
0.0
 11
-39.87736971791634
 21
-1.348342545937892
 31
0.0
  0
LINE
  5
F1063D
330
261
100
AcDbEntity
  8
Geo
100
AcDbLine
 10
-39.87736971791634
 20
-1.348342545937892
 30
0.0
 11
-39.77736971791634
 21
-1.401276788305093
 31
0.0
  0
LINE
  5
F1063F
330
261
100
AcDbEntity
  8
Geo
100
AcDbLine
 10
-39.77736971791634
 20
-1.401276788305093
 30
0.0
 11
-39.67736971791634
 21
-1.45398679075879
 31
0.0
  0
LINE
  5
F10641
330
261
100
AcDbEntity
  8
Geo
100
AcDbLine
 10
-39.67736971791634
 20
-1.45398679075879
 30
0.0
 11
-39.57736971791634
 21
-1.506467672781091
 31
0.0
  0
LINE
  5
F10643
330
261
100
AcDbEntity
  8
Geo
100
AcDbLine
 10
-39.57736971791634
 20
-1.506467672781091
 30
0.0
 11
-39.47736971791634
 21
-1.558714575068393
 31
0.0
  0
LINE
  5
F10645
330
261
100
AcDbEntity
  8
Geo
100
AcDbLine
 10
-39.47736971791634
 20
-1.558714575068393
 30
0.0
 11
-39.37736971791634
 21
-1.610722659981888
 31
0.0
  0
LINE
  5
F10647
330
261
100
AcDbEntity
  8
Geo
100
AcDbLine
 10
-39.37736971791634
 20
-1.610722659981888
 30
0.0
 11
-39.27736971791635
 21
-1.662487111995488
 31
0.0
  0
LINE
  5
F10649
330
261
100
AcDbEntity
  8
Geo
100
AcDbLine
 10
-39.27736971791635
 20
-1.662487111995488
 30
0.0
 11
-39.17736971791633
 21
-1.714003138141194
 31
0.0
  0
LINE
  5
F1064B
330
261
100
AcDbEntity
  8
Geo
100
AcDbLine
 10
-39.17736971791633
 20
-1.714003138141194
 30
0.0
 11
-39.07736971791634
 21
-1.765265968453391
 31
0.0
  0
LINE
  5
F1064D
330
261
100
AcDbEntity
  8
Geo
100
AcDbLine
 10
-39.07736971791634
 20
-1.765265968453391
 30
0.0
 11
-38.97736971791635
 21
-1.816270856410394
 31
0.0
  0
LINE
  5
F1064F
330
261
100
AcDbEntity
  8
Geo
100
AcDbLine
 10
-38.97736971791635
 20
-1.816270856410394
 30
0.0
 11
-38.87736971791634
 21
-1.867013079373787
 31
0.0
  0
LINE
  5
F10651
330
261
100
AcDbEntity
  8
Geo
100
AcDbLine
 10
-38.87736971791634
 20
-1.867013079373787
 30
0.0
 11
-38.77736971791634
 21
-1.917487939025988
 31
0.0
  0
LINE
  5
F10653
330
261
100
AcDbEntity
  8
Geo
100
AcDbLine
 10
-38.77736971791634
 20
-1.917487939025988
 30
0.0
 11
-38.67736971791634
 21
-1.967690761804789
 31
0.0
  0
LINE
  5
F10655
330
261
100
AcDbEntity
  8
Geo
100
AcDbLine
 10
-38.67736971791634
 20
-1.967690761804789
 30
0.0
 11
-38.57736971791634
 21
-2.017616899336591
 31
0.0
  0
LINE
  5
F10657
330
261
100
AcDbEntity
  8
Geo
100
AcDbLine
 10
-38.57736971791634
 20
-2.017616899336591
 30
0.0
 11
-38.47736971791635
 21
-2.06726172886649
 31
0.0
  0
LINE
  5
F10659
330
261
100
AcDbEntity
  8
Geo
100
AcDbLine
 10
-38.47736971791635
 20
-2.06726172886649
 30
0.0
 11
-38.37736971791634
 21
-2.116620653686588
 31
0.0
  0
LINE
  5
F1065B
330
261
100
AcDbEntity
  8
Geo
100
AcDbLine
 10
-38.37736971791634
 20
-2.116620653686588
 30
0.0
 11
-38.27736971791635
 21
-2.165689103561291
 31
0.0
  0
LINE
  5
F1065D
330
261
100
AcDbEntity
  8
Geo
100
AcDbLine
 10
-38.27736971791635
 20
-2.165689103561291
 30
0.0
 11
-38.17736971791634
 21
-2.214462535150591
 31
0.0
  0
LINE
  5
F1065F
330
261
100
AcDbEntity
  8
Geo
100
AcDbLine
 10
-38.17736971791634
 20
-2.214462535150591
 30
0.0
 11
-38.07736971791634
 21
-2.262936432430986
 31
0.0
  0
LINE
  5
F10661
330
261
100
AcDbEntity
  8
Geo
100
AcDbLine
 10
-38.07736971791634
 20
-2.262936432430986
 30
0.0
 11
-37.97736971791635
 21
-2.311106307113195
 31
0.0
  0
LINE
  5
F10663
330
261
100
AcDbEntity
  8
Geo
100
AcDbLine
 10
-37.97736971791635
 20
-2.311106307113195
 30
0.0
 11
-37.87736971791634
 21
-2.358967699058087
 31
0.0
  0
LINE
  5
F10665
330
261
100
AcDbEntity
  8
Geo
100
AcDbLine
 10
-37.87736971791634
 20
-2.358967699058087
 30
0.0
 11
-37.77736971791635
 21
-2.406516176689489
 31
0.0
  0
LINE
  5
F10667
330
261
100
AcDbEntity
  8
Geo
100
AcDbLine
 10
-37.77736971791635
 20
-2.406516176689489
 30
0.0
 11
-37.67736971791634
 21
-2.453747337404589
 31
0.0
  0
LINE
  5
F10669
330
261
100
AcDbEntity
  8
Geo
100
AcDbLine
 10
-37.67736971791634
 20
-2.453747337404589
 30
0.0
 11
-37.57736971791634
 21
-2.500656807981389
 31
0.0
  0
LINE
  5
F1066B
330
261
100
AcDbEntity
  8
Geo
100
AcDbLine
 10
-37.57736971791634
 20
-2.500656807981389
 30
0.0
 11
-37.47736971791635
 21
-2.547240244983989
 31
0.0
  0
LINE
  5
F1066D
330
261
100
AcDbEntity
  8
Geo
100
AcDbLine
 10
-37.47736971791635
 20
-2.547240244983989
 30
0.0
 11
-37.37736971791634
 21
-2.593493335164488
 31
0.0
  0
LINE
  5
F1066F
330
261
100
AcDbEntity
  8
Geo
100
AcDbLine
 10
-37.37736971791634
 20
-2.593493335164488
 30
0.0
 11
-37.27736971791634
 21
-2.639411795862393
 31
0.0
  0
LINE
  5
F10671
330
261
100
AcDbEntity
  8
Geo
100
AcDbLine
 10
-37.27736971791634
 20
-2.639411795862393
 30
0.0
 11
-37.17736971791634
 21
-2.684991375401089
 31
0.0
  0
LINE
  5
F10673
330
261
100
AcDbEntity
  8
Geo
100
AcDbLine
 10
-37.17736971791634
 20
-2.684991375401089
 30
0.0
 11
-37.07736971791634
 21
-2.730227853481789
 31
0.0
  0
LINE
  5
F10675
330
261
100
AcDbEntity
  8
Geo
100
AcDbLine
 10
-37.07736971791634
 20
-2.730227853481789
 30
0.0
 11
-36.97736971791635
 21
-2.775117041574091
 31
0.0
  0
LINE
  5
F10677
330
261
100
AcDbEntity
  8
Geo
100
AcDbLine
 10
-36.97736971791635
 20
-2.775117041574091
 30
0.0
 11
-36.87736971791634
 21
-2.81965478330359
 31
0.0
  0
LINE
  5
F10679
330
261
100
AcDbEntity
  8
Geo
100
AcDbLine
 10
-36.87736971791634
 20
-2.81965478330359
 30
0.0
 11
-36.77736971791635
 21
-2.863836954837289
 31
0.0
  0
LINE
  5
F1067B
330
261
100
AcDbEntity
  8
Geo
100
AcDbLine
 10
-36.77736971791635
 20
-2.863836954837289
 30
0.0
 11
-36.67736971791633
 21
-2.907659465264892
 31
0.0
  0
LINE
  5
F1067D
330
261
100
AcDbEntity
  8
Geo
100
AcDbLine
 10
-36.67736971791633
 20
-2.907659465264892
 30
0.0
 11
-36.57736971791634
 21
-2.951118256977792
 31
0.0
  0
LINE
  5
F1067F
330
261
100
AcDbEntity
  8
Geo
100
AcDbLine
 10
-36.57736971791634
 20
-2.951118256977792
 30
0.0
 11
-36.47736971791635
 21
-2.994209306044893
 31
0.0
  0
LINE
  5
F10681
330
261
100
AcDbEntity
  8
Geo
100
AcDbLine
 10
-36.47736971791635
 20
-2.994209306044893
 30
0.0
 11
-36.37736971791634
 21
-3.036928622584991
 31
0.0
  0
LINE
  5
F10683
330
261
100
AcDbEntity
  8
Geo
100
AcDbLine
 10
-36.37736971791634
 20
-3.036928622584991
 30
0.0
 11
-36.27736971791634
 21
-3.079272251136394
 31
0.0
  0
LINE
  5
F10685
330
261
100
AcDbEntity
  8
Geo
100
AcDbLine
 10
-36.27736971791634
 20
-3.079272251136394
 30
0.0
 11
-36.17736971791634
 21
-3.121236271023093
 31
0.0
  0
LINE
  5
F10687
330
261
100
AcDbEntity
  8
Geo
100
AcDbLine
 10
-36.17736971791634
 20
-3.121236271023093
 30
0.0
 11
-36.07736971791634
 21
-3.16281679671739
 31
0.0
  0
LINE
  5
F10689
330
261
100
AcDbEntity
  8
Geo
100
AcDbLine
 10
-36.07736971791634
 20
-3.16281679671739
 30
0.0
 11
-35.97736971791635
 21
-3.204009978200591
 31
0.0
  0
LINE
  5
F1068B
330
261
100
AcDbEntity
  8
Geo
100
AcDbLine
 10
-35.97736971791635
 20
-3.204009978200591
 30
0.0
 11
-35.87736971791634
 21
-3.244812001318592
 31
0.0
  0
LINE
  5
F1068D
330
261
100
AcDbEntity
  8
Geo
100
AcDbLine
 10
-35.87736971791634
 20
-3.244812001318592
 30
0.0
 11
-35.77736971791634
 21
-3.285219088135288
 31
0.0
  0
LINE
  5
F1068F
330
261
100
AcDbEntity
  8
Geo
100
AcDbLine
 10
-35.77736971791634
 20
-3.285219088135288
 30
0.0
 11
-35.67736971791634
 21
-3.325227497282892
 31
0.0
  0
LINE
  5
F10691
330
261
100
AcDbEntity
  8
Geo
100
AcDbLine
 10
-35.67736971791634
 20
-3.325227497282892
 30
0.0
 11
-35.57736971791634
 21
-3.364833524307393
 31
0.0
  0
LINE
  5
F10693
330
261
100
AcDbEntity
  8
Geo
100
AcDbLine
 10
-35.57736971791634
 20
-3.364833524307393
 30
0.0
 11
-35.47736971791635
 21
-3.404033502012492
 31
0.0
  0
LINE
  5
F10695
330
261
100
AcDbEntity
  8
Geo
100
AcDbLine
 10
-35.47736971791635
 20
-3.404033502012492
 30
0.0
 11
-35.37736971791634
 21
-3.442823800798592
 31
0.0
  0
LINE
  5
F10697
330
261
100
AcDbEntity
  8
Geo
100
AcDbLine
 10
-35.37736971791634
 20
-3.442823800798592
 30
0.0
 11
-35.27736971791635
 21
-3.481200828999089
 31
0.0
  0
LINE
  5
F10699
330
261
100
AcDbEntity
  8
Geo
100
AcDbLine
 10
-35.27736971791635
 20
-3.481200828999089
 30
0.0
 11
-35.17736971791634
 21
-3.519161033212892
 31
0.0
  0
LINE
  5
F1069B
330
261
100
AcDbEntity
  8
Geo
100
AcDbLine
 10
-35.17736971791634
 20
-3.519161033212892
 30
0.0
 11
-35.07736971791634
 21
-3.556700898633391
 31
0.0
  0
LINE
  5
F1069D
330
261
100
AcDbEntity
  8
Geo
100
AcDbLine
 10
-35.07736971791634
 20
-3.556700898633391
 30
0.0
 11
-34.97736971791635
 21
-3.593816949373895
 31
0.0
  0
LINE
  5
F1069F
330
261
100
AcDbEntity
  8
Geo
100
AcDbLine
 10
-34.97736971791635
 20
-3.593816949373895
 30
0.0
 11
-34.87736971791634
 21
-3.630505748789691
 31
0.0
  0
LINE
  5
F106A1
330
261
100
AcDbEntity
  8
Geo
100
AcDbLine
 10
-34.87736971791634
 20
-3.630505748789691
 30
0.0
 11
-34.77736971791634
 21
-3.666763899795693
 31
0.0
  0
LINE
  5
F106A3
330
261
100
AcDbEntity
  8
Geo
100
AcDbLine
 10
-34.77736971791634
 20
-3.666763899795693
 30
0.0
 11
-34.67736971791634
 21
-3.702588045181791
 31
0.0
  0
LINE
  5
F106A5
330
261
100
AcDbEntity
  8
Geo
100
AcDbLine
 10
-34.67736971791634
 20
-3.702588045181791
 30
0.0
 11
-34.57736971791634
 21
-3.737974867922986
 31
0.0
  0
LINE
  5
F106A7
330
261
100
AcDbEntity
  8
Geo
100
AcDbLine
 10
-34.57736971791634
 20
-3.737974867922986
 30
0.0
 11
-34.47736971791635
 21
-3.772921091486988
 31
0.0
  0
LINE
  5
F106A9
330
261
100
AcDbEntity
  8
Geo
100
AcDbLine
 10
-34.47736971791635
 20
-3.772921091486988
 30
0.0
 11
-34.37736971791634
 21
-3.807423480137291
 31
0.0
  0
LINE
  5
F106AB
330
261
100
AcDbEntity
  8
Geo
100
AcDbLine
 10
-34.37736971791634
 20
-3.807423480137291
 30
0.0
 11
-34.27736971791635
 21
-3.841478839232891
 31
0.0
  0
LINE
  5
F106AD
330
261
100
AcDbEntity
  8
Geo
100
AcDbLine
 10
-34.27736971791635
 20
-3.841478839232891
 30
0.0
 11
-34.17736971791633
 21
-3.875084015524191
 31
0.0
  0
LINE
  5
F106AF
330
261
100
AcDbEntity
  8
Geo
100
AcDbLine
 10
-34.17736971791633
 20
-3.875084015524191
 30
0.0
 11
-34.07736971791634
 21
-3.90823589744469
 31
0.0
  0
LINE
  5
F106B1
330
261
100
AcDbEntity
  8
Geo
100
AcDbLine
 10
-34.07736971791634
 20
-3.90823589744469
 30
0.0
 11
-33.97736971791635
 21
-3.940931415399489
 31
0.0
  0
LINE
  5
F106B3
330
261
100
AcDbEntity
  8
Geo
100
AcDbLine
 10
-33.97736971791635
 20
-3.940931415399489
 30
0.0
 11
-33.87736971791634
 21
-3.973167542049193
 31
0.0
  0
LINE
  5
F106B5
330
261
100
AcDbEntity
  8
Geo
100
AcDbLine
 10
-33.87736971791634
 20
-3.973167542049193
 30
0.0
 11
-33.77736971791634
 21
-4.004941292590192
 31
0.0
  0
LINE
  5
F106B7
330
261
100
AcDbEntity
  8
Geo
100
AcDbLine
 10
-33.77736971791634
 20
-4.004941292590192
 30
0.0
 11
-33.67736971791634
 21
-4.036249725031193
 31
0.0
  0
LINE
  5
F106B9
330
261
100
AcDbEntity
  8
Geo
100
AcDbLine
 10
-33.67736971791634
 20
-4.036249725031193
 30
0.0
 11
-33.57736971791634
 21
-4.067089940465894
 31
0.0
  0
LINE
  5
F106BB
330
261
100
AcDbEntity
  8
Geo
100
AcDbLine
 10
-33.57736971791634
 20
-4.067089940465894
 30
0.0
 11
-33.47736971791635
 21
-4.097459083340488
 31
0.0
  0
LINE
  5
F106BD
330
261
100
AcDbEntity
  8
Geo
100
AcDbLine
 10
-33.47736971791635
 20
-4.097459083340488
 30
0.0
 11
-33.37736971791634
 21
-4.127354341719289
 31
0.0
  0
LINE
  5
F106BF
330
261
100
AcDbEntity
  8
Geo
100
AcDbLine
 10
-33.37736971791634
 20
-4.127354341719289
 30
0.0
 11
-33.27736971791634
 21
-4.156772947544094
 31
0.0
  0
LINE
  5
F106C1
330
261
100
AcDbEntity
  8
Geo
100
AcDbLine
 10
-33.27736971791634
 20
-4.156772947544094
 30
0.0
 11
-33.17736971791634
 21
-4.185712176890788
 31
0.0
  0
LINE
  5
F106C3
330
261
100
AcDbEntity
  8
Geo
100
AcDbLine
 10
-33.17736971791634
 20
-4.185712176890788
 30
0.0
 11
-33.07736971791634
 21
-4.21416935022199
 31
0.0
  0
LINE
  5
F106C5
330
261
100
AcDbEntity
  8
Geo
100
AcDbLine
 10
-33.07736971791634
 20
-4.21416935022199
 30
0.0
 11
-32.97736971791635
 21
-4.242141832634391
 31
0.0
  0
LINE
  5
F106C7
330
261
100
AcDbEntity
  8
Geo
100
AcDbLine
 10
-32.97736971791635
 20
-4.242141832634391
 30
0.0
 11
-32.87736971791634
 21
-4.269627034103489
 31
0.0
  0
LINE
  5
F106C9
330
261
100
AcDbEntity
  8
Geo
100
AcDbLine
 10
-32.87736971791634
 20
-4.269627034103489
 30
0.0
 11
-32.77736971791635
 21
-4.29662240972269
 31
0.0
  0
LINE
  5
F106CB
330
261
100
AcDbEntity
  8
Geo
100
AcDbLine
 10
-32.77736971791635
 20
-4.29662240972269
 30
0.0
 11
-32.67736971791634
 21
-4.32312545993949
 31
0.0
  0
LINE
  5
F106CD
330
261
100
AcDbEntity
  8
Geo
100
AcDbLine
 10
-32.67736971791634
 20
-4.32312545993949
 30
0.0
 11
-32.57736971791634
 21
-4.349133730786789
 31
0.0
  0
LINE
  5
F106CF
330
261
100
AcDbEntity
  8
Geo
100
AcDbLine
 10
-32.57736971791634
 20
-4.349133730786789
 30
0.0
 11
-32.47736971791635
 21
-4.374644814109892
 31
0.0
  0
LINE
  5
F106D1
330
261
100
AcDbEntity
  8
Geo
100
AcDbLine
 10
-32.47736971791635
 20
-4.374644814109892
 30
0.0
 11
-32.37736971791634
 21
-4.399656347789694
 31
0.0
  0
LINE
  5
F106D3
330
261
100
AcDbEntity
  8
Geo
100
AcDbLine
 10
-32.37736971791634
 20
-4.399656347789694
 30
0.0
 11
-32.27736971791634
 21
-4.42416601596129
 31
0.0
  0
LINE
  5
F106D5
330
261
100
AcDbEntity
  8
Geo
100
AcDbLine
 10
-32.27736971791634
 20
-4.42416601596129
 30
0.0
 11
-32.17736971791634
 21
-4.44817154922849
 31
0.0
  0
LINE
  5
F106D7
330
261
100
AcDbEntity
  8
Geo
100
AcDbLine
 10
-32.17736971791634
 20
-4.44817154922849
 30
0.0
 11
-32.07736971791634
 21
-4.471670724873892
 31
0.0
  0
LINE
  5
F106D9
330
261
100
AcDbEntity
  8
Geo
100
AcDbLine
 10
-32.07736971791634
 20
-4.471670724873892
 30
0.0
 11
-31.97736971791635
 21
-4.49466136706459
 31
0.0
  0
LINE
  5
F106DB
330
261
100
AcDbEntity
  8
Geo
100
AcDbLine
 10
-31.97736971791635
 20
-4.49466136706459
 30
0.0
 11
-31.87736971791634
 21
-4.517141347053989
 31
0.0
  0
LINE
  5
F106DD
330
261
100
AcDbEntity
  8
Geo
100
AcDbLine
 10
-31.87736971791634
 20
-4.517141347053989
 30
0.0
 11
-31.77736971791635
 21
-4.539108583378492
 31
0.0
  0
LINE
  5
F106DF
330
261
100
AcDbEntity
  8
Geo
100
AcDbLine
 10
-31.77736971791635
 20
-4.539108583378492
 30
0.0
 11
-31.67736971791633
 21
-4.560561042050288
 31
0.0
  0
LINE
  5
F106E1
330
261
100
AcDbEntity
  8
Geo
100
AcDbLine
 10
-31.67736971791633
 20
-4.560561042050288
 30
0.0
 11
-31.57736971791634
 21
-4.581496736746093
 31
0.0
  0
LINE
  5
F106E3
330
261
100
AcDbEntity
  8
Geo
100
AcDbLine
 10
-31.57736971791634
 20
-4.581496736746093
 30
0.0
 11
-31.47736971791635
 21
-4.601913728990592
 31
0.0
  0
LINE
  5
F106E5
330
261
100
AcDbEntity
  8
Geo
100
AcDbLine
 10
-31.47736971791635
 20
-4.601913728990592
 30
0.0
 11
-31.37736971791634
 21
-4.62181012833609
 31
0.0
  0
LINE
  5
F106E7
330
261
100
AcDbEntity
  8
Geo
100
AcDbLine
 10
-31.37736971791634
 20
-4.62181012833609
 30
0.0
 11
-31.27736971791634
 21
-4.641184092537589
 31
0.0
  0
LINE
  5
F106E9
330
261
100
AcDbEntity
  8
Geo
100
AcDbLine
 10
-31.27736971791634
 20
-4.641184092537589
 30
0.0
 11
-31.17736971791634
 21
-4.660033827723488
 31
0.0
  0
LINE
  5
F106EB
330
261
100
AcDbEntity
  8
Geo
100
AcDbLine
 10
-31.17736971791634
 20
-4.660033827723488
 30
0.0
 11
-31.07736971791634
 21
-4.67835758856119
 31
0.0
  0
LINE
  5
F106ED
330
261
100
AcDbEntity
  8
Geo
100
AcDbLine
 10
-31.07736971791634
 20
-4.67835758856119
 30
0.0
 11
-30.97736971791635
 21
-4.696153678419388
 31
0.0
  0
LINE
  5
F106EF
330
261
100
AcDbEntity
  8
Geo
100
AcDbLine
 10
-30.97736971791635
 20
-4.696153678419388
 30
0.0
 11
-30.87736971791634
 21
-4.713420449524694
 31
0.0
  0
LINE
  5
F106F1
330
261
100
AcDbEntity
  8
Geo
100
AcDbLine
 10
-30.87736971791634
 20
-4.713420449524694
 30
0.0
 11
-30.77736971791634
 21
-4.730156303114291
 31
0.0
  0
LINE
  5
F106F3
330
261
100
AcDbEntity
  8
Geo
100
AcDbLine
 10
-30.77736971791634
 20
-4.730156303114291
 30
0.0
 11
-30.67736971791634
 21
-4.746359689584192
 31
0.0
  0
LINE
  5
F106F5
330
261
100
AcDbEntity
  8
Geo
100
AcDbLine
 10
-30.67736971791634
 20
-4.746359689584192
 30
0.0
 11
-30.57736971791634
 21
-4.762029108632287
 31
0.0
  0
LINE
  5
F106F7
330
261
100
AcDbEntity
  8
Geo
100
AcDbLine
 10
-30.57736971791634
 20
-4.762029108632287
 30
0.0
 11
-30.47736971791635
 21
-4.777163109397591
 31
0.0
  0
LINE
  5
F106F9
330
261
100
AcDbEntity
  8
Geo
100
AcDbLine
 10
-30.47736971791635
 20
-4.777163109397591
 30
0.0
 11
-30.37736971791634
 21
-4.791760290594691
 31
0.0
  0
LINE
  5
F106FB
330
261
100
AcDbEntity
  8
Geo
100
AcDbLine
 10
-30.37736971791634
 20
-4.791760290594691
 30
0.0
 11
-30.27736971791635
 21
-4.805819300643189
 31
0.0
  0
LINE
  5
F106FD
330
261
100
AcDbEntity
  8
Geo
100
AcDbLine
 10
-30.27736971791635
 20
-4.805819300643189
 30
0.0
 11
-30.17736971791634
 21
-4.819338837792791
 31
0.0
  0
LINE
  5
F106FF
330
261
100
AcDbEntity
  8
Geo
100
AcDbLine
 10
-30.17736971791634
 20
-4.819338837792791
 30
0.0
 11
-30.07736971791634
 21
-4.832317650244192
 31
0.0
  0
LINE
  5
F10701
330
261
100
AcDbEntity
  8
Geo
100
AcDbLine
 10
-30.07736971791634
 20
-4.832317650244192
 30
0.0
 11
-29.97736971791635
 21
-4.84475453626479
 31
0.0
  0
LINE
  5
F10703
330
261
100
AcDbEntity
  8
Geo
100
AcDbLine
 10
-29.97736971791635
 20
-4.84475453626479
 30
0.0
 11
-29.87736971791634
 21
-4.856648344299987
 31
0.0
  0
LINE
  5
F10705
330
261
100
AcDbEntity
  8
Geo
100
AcDbLine
 10
-29.87736971791634
 20
-4.856648344299987
 30
0.0
 11
-29.77736971791634
 21
-4.867997973079692
 31
0.0
  0
LINE
  5
F10707
330
261
100
AcDbEntity
  8
Geo
100
AcDbLine
 10
-29.77736971791634
 20
-4.867997973079692
 30
0.0
 11
-29.67736971791634
 21
-4.878802371720592
 31
0.0
  0
LINE
  5
F10709
330
261
100
AcDbEntity
  8
Geo
100
AcDbLine
 10
-29.67736971791634
 20
-4.878802371720592
 30
0.0
 11
-29.57736971791634
 21
-4.889060539822988
 31
0.0
  0
LINE
  5
F1070B
330
261
100
AcDbEntity
  8
Geo
100
AcDbLine
 10
-29.57736971791634
 20
-4.889060539822988
 30
0.0
 11
-29.47736971791634
 21
-4.898771527563891
 31
0.0
  0
LINE
  5
F1070D
330
261
100
AcDbEntity
  8
Geo
100
AcDbLine
 10
-29.47736971791634
 20
-4.898771527563891
 30
0.0
 11
-29.37736971791634
 21
-4.907934435784692
 31
0.0
  0
LINE
  5
F1070F
330
261
100
AcDbEntity
  8
Geo
100
AcDbLine
 10
-29.37736971791634
 20
-4.907934435784692
 30
0.0
 11
-29.27736971791635
 21
-4.916548416074491
 31
0.0
  0
LINE
  5
F10711
330
261
100
AcDbEntity
  8
Geo
100
AcDbLine
 10
-29.27736971791635
 20
-4.916548416074491
 30
0.0
 11
-29.17736971791633
 21
-4.924612670848695
 31
0.0
  0
LINE
  5
F10713
330
261
100
AcDbEntity
  8
Geo
100
AcDbLine
 10
-29.17736971791633
 20
-4.924612670848695
 30
0.0
 11
-29.07736971791634
 21
-4.932126453422789
 31
0.0
  0
LINE
  5
F10715
330
261
100
AcDbEntity
  8
Geo
100
AcDbLine
 10
-29.07736971791634
 20
-4.932126453422789
 30
0.0
 11
-28.97736971791635
 21
-4.939089068081589
 31
0.0
  0
LINE
  5
F10717
330
261
100
AcDbEntity
  8
Geo
100
AcDbLine
 10
-28.97736971791635
 20
-4.939089068081589
 30
0.0
 11
-28.87736971791634
 21
-4.945499870143489
 31
0.0
  0
LINE
  5
F10719
330
261
100
AcDbEntity
  8
Geo
100
AcDbLine
 10
-28.87736971791634
 20
-4.945499870143489
 30
0.0
 11
-28.77736971791634
 21
-4.951358266020289
 31
0.0
  0
LINE
  5
F1071B
330
261
100
AcDbEntity
  8
Geo
100
AcDbLine
 10
-28.77736971791634
 20
-4.951358266020289
 30
0.0
 11
-28.67736971791634
 21
-4.956663713272089
 31
0.0
  0
LINE
  5
F1071D
330
261
100
AcDbEntity
  8
Geo
100
AcDbLine
 10
-28.67736971791634
 20
-4.956663713272089
 30
0.0
 11
-28.57736971791634
 21
-4.961415720657591
 31
0.0
  0
LINE
  5
F1071F
330
261
100
AcDbEntity
  8
Geo
100
AcDbLine
 10
-28.57736971791634
 20
-4.961415720657591
 30
0.0
 11
-28.47736971791635
 21
-4.965613848179486
 31
0.0
  0
LINE
  5
F10721
330
261
100
AcDbEntity
  8
Geo
100
AcDbLine
 10
-28.47736971791635
 20
-4.965613848179486
 30
0.0
 11
-28.37736971791634
 21
-4.96925770712529
 31
0.0
  0
LINE
  5
F10723
330
261
100
AcDbEntity
  8
Geo
100
AcDbLine
 10
-28.37736971791634
 20
-4.96925770712529
 30
0.0
 11
-28.27736971791635
 21
-4.972346960103191
 31
0.0
  0
LINE
  5
F10725
330
261
100
AcDbEntity
  8
Geo
100
AcDbLine
 10
-28.27736971791635
 20
-4.972346960103191
 30
0.0
 11
-28.17736971791634
 21
-4.974881321073588
 31
0.0
  0
LINE
  5
F10727
330
261
100
AcDbEntity
  8
Geo
100
AcDbLine
 10
-28.17736971791634
 20
-4.974881321073588
 30
0.0
 11
-28.07736971791634
 21
-4.97686055537509
 31
0.0
  0
LINE
  5
F10729
330
261
100
AcDbEntity
  8
Geo
100
AcDbLine
 10
-28.07736971791634
 20
-4.97686055537509
 30
0.0
 11
-27.97736971791635
 21
-4.97828447974679
 31
0.0
  0
LINE
  5
F1072B
330
261
100
AcDbEntity
  8
Geo
100
AcDbLine
 10
-27.97736971791635
 20
-4.97828447974679
 30
0.0
 11
-27.87736971791634
 21
-4.979152962344787
 31
0.0
  0
LINE
  5
F1072D
330
261
100
AcDbEntity
  8
Geo
100
AcDbLine
 10
-27.87736971791634
 20
-4.979152962344787
 30
0.0
 11
-27.77736971791635
 21
-4.979465922754691
 31
0.0
  0
LINE
  5
F1072F
330
261
100
AcDbEntity
  8
Geo
100
AcDbLine
 10
-48.57736971791634
 20
5.020718516741617
 30
0.0
 11
-48.47736971791634
 21
5.04734448681711
 31
0.0
  0
LINE
  5
F10731
330
261
100
AcDbEntity
  8
Geo
100
AcDbLine
 10
-48.47736971791634
 20
5.04734448681711
 30
0.0
 11
-48.37736971791634
 21
5.038703117906905
 31
0.0
  0
LINE
  5
F10733
330
261
100
AcDbEntity
  8
Geo
100
AcDbLine
 10
-48.37736971791634
 20
5.038703117906905
 30
0.0
 11
-48.27736971791634
 21
4.995850946774709
 31
0.0
  0
LINE
  5
F10735
330
261
100
AcDbEntity
  8
Geo
100
AcDbLine
 10
-48.27736971791634
 20
4.995850946774709
 30
0.0
 11
-48.17736971791633
 21
4.952630693484209
 31
0.0
  0
LINE
  5
F10737
330
261
100
AcDbEntity
  8
Geo
100
AcDbLine
 10
-48.17736971791633
 20
4.952630693484209
 30
0.0
 11
-48.07736971791634
 21
4.909046359879702
 31
0.0
  0
LINE
  5
F10739
330
261
100
AcDbEntity
  8
Geo
100
AcDbLine
 10
-48.07736971791634
 20
4.909046359879702
 30
0.0
 11
-47.97736971791635
 21
4.865101981516701
 31
0.0
  0
LINE
  5
F1073B
330
261
100
AcDbEntity
  8
Geo
100
AcDbLine
 10
-47.97736971791635
 20
4.865101981516701
 30
0.0
 11
-47.87736971791633
 21
4.820801627287508
 31
0.0
  0
LINE
  5
F1073D
330
261
100
AcDbEntity
  8
Geo
100
AcDbLine
 10
-47.87736971791633
 20
4.820801627287508
 30
0.0
 11
-47.77736971791634
 21
4.776149399045301
 31
0.0
  0
LINE
  5
F1073F
330
261
100
AcDbEntity
  8
Geo
100
AcDbLine
 10
-47.77736971791634
 20
4.776149399045301
 30
0.0
 11
-47.67736971791634
 21
4.731149431223713
 31
0.0
  0
LINE
  5
F10741
330
261
100
AcDbEntity
  8
Geo
100
AcDbLine
 10
-47.67736971791634
 20
4.731149431223713
 30
0.0
 11
-47.57736971791634
 21
4.685805890454211
 31
0.0
  0
LINE
  5
F10743
330
261
100
AcDbEntity
  8
Geo
100
AcDbLine
 10
-47.57736971791634
 20
4.685805890454211
 30
0.0
 11
-47.47736971791634
 21
4.640122975180403
 31
0.0
  0
LINE
  5
F10745
330
261
100
AcDbEntity
  8
Geo
100
AcDbLine
 10
-47.47736971791634
 20
4.640122975180403
 30
0.0
 11
-47.37736971791633
 21
4.594104915269305
 31
0.0
  0
LINE
  5
F10747
330
261
100
AcDbEntity
  8
Geo
100
AcDbLine
 10
-47.37736971791633
 20
4.594104915269305
 30
0.0
 11
-47.27736971791634
 21
4.547755971619409
 31
0.0
  0
LINE
  5
F10749
330
261
100
AcDbEntity
  8
Geo
100
AcDbLine
 10
-47.27736971791634
 20
4.547755971619409
 30
0.0
 11
-47.17736971791633
 21
4.501080435766603
 31
0.0
  0
LINE
  5
F1074B
330
261
100
AcDbEntity
  8
Geo
100
AcDbLine
 10
-47.17736971791633
 20
4.501080435766603
 30
0.0
 11
-47.07736971791634
 21
4.454082629486208
 31
0.0
  0
LINE
  5
F1074D
330
261
100
AcDbEntity
  8
Geo
100
AcDbLine
 10
-47.07736971791634
 20
4.454082629486208
 30
0.0
 11
-46.97736971791634
 21
4.406766904393606
 31
0.0
  0
LINE
  5
F1074F
330
261
100
AcDbEntity
  8
Geo
100
AcDbLine
 10
-46.97736971791634
 20
4.406766904393606
 30
0.0
 11
-46.87736971791633
 21
4.359137641540506
 31
0.0
  0
LINE
  5
F10751
330
261
100
AcDbEntity
  8
Geo
100
AcDbLine
 10
-46.87736971791633
 20
4.359137641540506
 30
0.0
 11
-46.77736971791634
 21
4.31119925100981
 31
0.0
  0
LINE
  5
F10753
330
261
100
AcDbEntity
  8
Geo
100
AcDbLine
 10
-46.77736971791634
 20
4.31119925100981
 30
0.0
 11
-46.67736971791633
 21
4.262956171507106
 31
0.0
  0
LINE
  5
F10755
330
261
100
AcDbEntity
  8
Geo
100
AcDbLine
 10
-46.67736971791633
 20
4.262956171507106
 30
0.0
 11
-46.57736971791634
 21
4.21441286994991
 31
0.0
  0
LINE
  5
F10757
330
261
100
AcDbEntity
  8
Geo
100
AcDbLine
 10
-46.57736971791634
 20
4.21441286994991
 30
0.0
 11
-46.47736971791634
 21
4.165573841053408
 31
0.0
  0
LINE
  5
F10759
330
261
100
AcDbEntity
  8
Geo
100
AcDbLine
 10
-46.47736971791634
 20
4.165573841053408
 30
0.0
 11
-46.37736971791634
 21
4.116443606915304
 31
0.0
  0
LINE
  5
F1075B
330
261
100
AcDbEntity
  8
Geo
100
AcDbLine
 10
-46.37736971791634
 20
4.116443606915304
 30
0.0
 11
-46.27736971791634
 21
4.067026716596011
 31
0.0
  0
LINE
  5
F1075D
330
261
100
AcDbEntity
  8
Geo
100
AcDbLine
 10
-46.27736971791634
 20
4.067026716596011
 30
0.0
 11
-46.17736971791633
 21
4.017327745698409
 31
0.0
  0
LINE
  5
F1075F
330
261
100
AcDbEntity
  8
Geo
100
AcDbLine
 10
-46.17736971791633
 20
4.017327745698409
 30
0.0
 11
-46.07736971791633
 21
3.967351295943409
 31
0.0
  0
LINE
  5
F10761
330
261
100
AcDbEntity
  8
Geo
100
AcDbLine
 10
-46.07736971791633
 20
3.967351295943409
 30
0.0
 11
-45.97736971791634
 21
3.917101994744413
 31
0.0
  0
LINE
  5
F10763
330
261
100
AcDbEntity
  8
Geo
100
AcDbLine
 10
-45.97736971791634
 20
3.917101994744413
 30
0.0
 11
-45.87736971791634
 21
3.866584494778606
 31
0.0
  0
LINE
  5
F10765
330
261
100
AcDbEntity
  8
Geo
100
AcDbLine
 10
-45.87736971791634
 20
3.866584494778606
 30
0.0
 11
-45.77736971791634
 21
3.815803473556108
 31
0.0
  0
LINE
  5
F10767
330
261
100
AcDbEntity
  8
Geo
100
AcDbLine
 10
-45.77736971791634
 20
3.815803473556108
 30
0.0
 11
-45.67736971791633
 21
3.764763632987211
 31
0.0
  0
LINE
  5
F10769
330
261
100
AcDbEntity
  8
Geo
100
AcDbLine
 10
-45.67736971791633
 20
3.764763632987211
 30
0.0
 11
-45.57736971791634
 21
3.713469698946511
 31
0.0
  0
LINE
  5
F1076B
330
261
100
AcDbEntity
  8
Geo
100
AcDbLine
 10
-45.57736971791634
 20
3.713469698946511
 30
0.0
 11
-45.47736971791635
 21
3.661926420835612
 31
0.0
  0
LINE
  5
F1076D
330
261
100
AcDbEntity
  8
Geo
100
AcDbLine
 10
-45.47736971791635
 20
3.661926420835612
 30
0.0
 11
-45.37736971791633
 21
3.610138571143608
 31
0.0
  0
LINE
  5
F1076F
330
261
100
AcDbEntity
  8
Geo
100
AcDbLine
 10
-45.37736971791633
 20
3.610138571143608
 30
0.0
 11
-45.27736971791634
 21
3.558110945004713
 31
0.0
  0
LINE
  5
F10771
330
261
100
AcDbEntity
  8
Geo
100
AcDbLine
 10
-45.27736971791634
 20
3.558110945004713
 30
0.0
 11
-45.17736971791634
 21
3.505848359754509
 31
0.0
  0
LINE
  5
F10773
330
261
100
AcDbEntity
  8
Geo
100
AcDbLine
 10
-45.17736971791634
 20
3.505848359754509
 30
0.0
 11
-45.07736971791634
 21
3.453355654483907
 31
0.0
  0
LINE
  5
F10775
330
261
100
AcDbEntity
  8
Geo
100
AcDbLine
 10
-45.07736971791634
 20
3.453355654483907
 30
0.0
 11
-44.97736971791634
 21
3.400637689591107
 31
0.0
  0
LINE
  5
F10777
330
261
100
AcDbEntity
  8
Geo
100
AcDbLine
 10
-44.97736971791634
 20
3.400637689591107
 30
0.0
 11
-44.87736971791633
 21
3.347699346331509
 31
0.0
  0
LINE
  5
F10779
330
261
100
AcDbEntity
  8
Geo
100
AcDbLine
 10
-44.87736971791633
 20
3.347699346331509
 30
0.0
 11
-44.77736971791634
 21
3.294545526365709
 31
0.0
  0
LINE
  5
F1077B
330
261
100
AcDbEntity
  8
Geo
100
AcDbLine
 10
-44.77736971791634
 20
3.294545526365709
 30
0.0
 11
-44.67736971791633
 21
3.24118115130571
 31
0.0
  0
LINE
  5
F1077D
330
261
100
AcDbEntity
  8
Geo
100
AcDbLine
 10
-44.67736971791633
 20
3.24118115130571
 30
0.0
 11
-44.57736971791634
 21
3.187611162259308
 31
0.0
  0
LINE
  5
F1077F
330
261
100
AcDbEntity
  8
Geo
100
AcDbLine
 10
-44.57736971791634
 20
3.187611162259308
 30
0.0
 11
-44.47736971791634
 21
3.133840519372412
 31
0.0
  0
LINE
  5
F10781
330
261
100
AcDbEntity
  8
Geo
100
AcDbLine
 10
-44.47736971791634
 20
3.133840519372412
 30
0.0
 11
-44.37736971791633
 21
3.079874201369712
 31
0.0
  0
LINE
  5
F10783
330
261
100
AcDbEntity
  8
Geo
100
AcDbLine
 10
-44.37736971791633
 20
3.079874201369712
 30
0.0
 11
-44.27736971791634
 21
3.025717205094011
 31
0.0
  0
LINE
  5
F10785
330
261
100
AcDbEntity
  8
Geo
100
AcDbLine
 10
-44.27736971791634
 20
3.025717205094011
 30
0.0
 11
-44.17736971791633
 21
2.971374545043303
 31
0.0
  0
LINE
  5
F10787
330
261
100
AcDbEntity
  8
Geo
100
AcDbLine
 10
-44.17736971791633
 20
2.971374545043303
 30
0.0
 11
-44.07736971791634
 21
2.916851252906511
 31
0.0
  0
LINE
  5
F10789
330
261
100
AcDbEntity
  8
Geo
100
AcDbLine
 10
-44.07736971791634
 20
2.916851252906511
 30
0.0
 11
-43.97736971791634
 21
2.862152377097807
 31
0.0
  0
LINE
  5
F1078B
330
261
100
AcDbEntity
  8
Geo
100
AcDbLine
 10
-43.97736971791634
 20
2.862152377097807
 30
0.0
 11
-43.87736971791634
 21
2.807282982288604
 31
0.0
  0
LINE
  5
F1078D
330
261
100
AcDbEntity
  8
Geo
100
AcDbLine
 10
-43.87736971791634
 20
2.807282982288604
 30
0.0
 11
-43.77736971791634
 21
2.752248148939408
 31
0.0
  0
LINE
  5
F1078F
330
261
100
AcDbEntity
  8
Geo
100
AcDbLine
 10
-43.77736971791634
 20
2.752248148939408
 30
0.0
 11
-43.67736971791633
 21
2.697052972828707
 31
0.0
  0
LINE
  5
F10791
330
261
100
AcDbEntity
  8
Geo
100
AcDbLine
 10
-43.67736971791633
 20
2.697052972828707
 30
0.0
 11
-43.57736971791633
 21
2.641702564581606
 31
0.0
  0
LINE
  5
F10793
330
261
100
AcDbEntity
  8
Geo
100
AcDbLine
 10
-43.57736971791633
 20
2.641702564581606
 30
0.0
 11
-43.47736971791634
 21
2.586202049196302
 31
0.0
  0
LINE
  5
F10795
330
261
100
AcDbEntity
  8
Geo
100
AcDbLine
 10
-43.47736971791634
 20
2.586202049196302
 30
0.0
 11
-43.37736971791634
 21
2.53055656556971
 31
0.0
  0
LINE
  5
F10797
330
261
100
AcDbEntity
  8
Geo
100
AcDbLine
 10
-43.37736971791634
 20
2.53055656556971
 30
0.0
 11
-43.27736971791634
 21
2.474771266021711
 31
0.0
  0
LINE
  5
F10799
330
261
100
AcDbEntity
  8
Geo
100
AcDbLine
 10
-43.27736971791634
 20
2.474771266021711
 30
0.0
 11
-43.17736971791633
 21
2.41885131581801
 31
0.0
  0
LINE
  5
F1079B
330
261
100
AcDbEntity
  8
Geo
100
AcDbLine
 10
-43.17736971791633
 20
2.41885131581801
 30
0.0
 11
-43.07736971791634
 21
2.362801892691706
 31
0.0
  0
LINE
  5
F1079D
330
261
100
AcDbEntity
  8
Geo
100
AcDbLine
 10
-43.07736971791634
 20
2.362801892691706
 30
0.0
 11
-42.97736971791635
 21
2.306628186364306
 31
0.0
  0
LINE
  5
F1079F
330
261
100
AcDbEntity
  8
Geo
100
AcDbLine
 10
-42.97736971791635
 20
2.306628186364306
 30
0.0
 11
-42.87736971791633
 21
2.250335398064706
 31
0.0
  0
LINE
  5
F107A1
330
261
100
AcDbEntity
  8
Geo
100
AcDbLine
 10
-42.87736971791633
 20
2.250335398064706
 30
0.0
 11
-42.77736971791634
 21
2.193928740047809
 31
0.0
  0
LINE
  5
F107A3
330
261
100
AcDbEntity
  8
Geo
100
AcDbLine
 10
-42.77736971791634
 20
2.193928740047809
 30
0.0
 11
-42.67736971791634
 21
2.137413435112208
 31
0.0
  0
LINE
  5
F107A5
330
261
100
AcDbEntity
  8
Geo
100
AcDbLine
 10
-42.67736971791634
 20
2.137413435112208
 30
0.0
 11
-42.57736971791634
 21
2.08079471611601
 31
0.0
  0
LINE
  5
F107A7
330
261
100
AcDbEntity
  8
Geo
100
AcDbLine
 10
-42.57736971791634
 20
2.08079471611601
 30
0.0
 11
-42.47736971791634
 21
2.02407782549271
 31
0.0
  0
LINE
  5
F107A9
330
261
100
AcDbEntity
  8
Geo
100
AcDbLine
 10
-42.47736971791634
 20
2.02407782549271
 30
0.0
 11
-42.37736971791633
 21
1.967268014765807
 31
0.0
  0
LINE
  5
F107AB
330
261
100
AcDbEntity
  8
Geo
100
AcDbLine
 10
-42.37736971791633
 20
1.967268014765807
 30
0.0
 11
-42.27736971791634
 21
1.910370544062409
 31
0.0
  0
LINE
  5
F107AD
330
261
100
AcDbEntity
  8
Geo
100
AcDbLine
 10
-42.27736971791634
 20
1.910370544062409
 30
0.0
 11
-42.17736971791633
 21
1.853390681626109
 31
0.0
  0
LINE
  5
F107AF
330
261
100
AcDbEntity
  8
Geo
100
AcDbLine
 10
-42.17736971791633
 20
1.853390681626109
 30
0.0
 11
-42.07736971791634
 21
1.796333703329409
 31
0.0
  0
LINE
  5
F107B1
330
261
100
AcDbEntity
  8
Geo
100
AcDbLine
 10
-42.07736971791634
 20
1.796333703329409
 30
0.0
 11
-41.97736971791634
 21
1.739204892185107
 31
0.0
  0
LINE
  5
F107B3
330
261
100
AcDbEntity
  8
Geo
100
AcDbLine
 10
-41.97736971791634
 20
1.739204892185107
 30
0.0
 11
-41.87736971791633
 21
1.682009537857105
 31
0.0
  0
LINE
  5
F107B5
330
261
100
AcDbEntity
  8
Geo
100
AcDbLine
 10
-41.87736971791633
 20
1.682009537857105
 30
0.0
 11
-41.77736971791634
 21
1.624752936170711
 31
0.0
  0
LINE
  5
F107B7
330
261
100
AcDbEntity
  8
Geo
100
AcDbLine
 10
-41.77736971791634
 20
1.624752936170711
 30
0.0
 11
-41.67736971791633
 21
1.567440388622205
 31
0.0
  0
LINE
  5
F107B9
330
261
100
AcDbEntity
  8
Geo
100
AcDbLine
 10
-41.67736971791633
 20
1.567440388622205
 30
0.0
 11
-41.57736971791634
 21
1.510077201888012
 31
0.0
  0
LINE
  5
F107BB
330
261
100
AcDbEntity
  8
Geo
100
AcDbLine
 10
-41.57736971791634
 20
1.510077201888012
 30
0.0
 11
-41.47736971791634
 21
1.452668687333211
 31
0.0
  0
LINE
  5
F107BD
330
261
100
AcDbEntity
  8
Geo
100
AcDbLine
 10
-41.47736971791634
 20
1.452668687333211
 30
0.0
 11
-41.37736971791634
 21
1.39522016052021
 31
0.0
  0
LINE
  5
F107BF
330
261
100
AcDbEntity
  8
Geo
100
AcDbLine
 10
-41.37736971791634
 20
1.39522016052021
 30
0.0
 11
-41.27736971791634
 21
1.337736940715807
 31
0.0
  0
LINE
  5
F107C1
330
261
100
AcDbEntity
  8
Geo
100
AcDbLine
 10
-41.27736971791634
 20
1.337736940715807
 30
0.0
 11
-41.17736971791633
 21
1.280224350399308
 31
0.0
  0
LINE
  5
F107C3
330
261
100
AcDbEntity
  8
Geo
100
AcDbLine
 10
-41.17736971791633
 20
1.280224350399308
 30
0.0
 11
-41.07736971791633
 21
1.222687714769605
 31
0.0
  0
LINE
  5
F107C5
330
261
100
AcDbEntity
  8
Geo
100
AcDbLine
 10
-41.07736971791633
 20
1.222687714769605
 30
0.0
 11
-40.97736971791634
 21
1.165132361251711
 31
0.0
  0
LINE
  5
F107C7
330
261
100
AcDbEntity
  8
Geo
100
AcDbLine
 10
-40.97736971791634
 20
1.165132361251711
 30
0.0
 11
-40.87736971791634
 21
1.107563619003911
 31
0.0
  0
LINE
  5
F107C9
330
261
100
AcDbEntity
  8
Geo
100
AcDbLine
 10
-40.87736971791634
 20
1.107563619003911
 30
0.0
 11
-40.77736971791634
 21
1.049986818424304
 31
0.0
  0
LINE
  5
F107CB
330
261
100
AcDbEntity
  8
Geo
100
AcDbLine
 10
-40.77736971791634
 20
1.049986818424304
 30
0.0
 11
-40.67736971791633
 21
0.9924072906569101
 31
0.0
  0
LINE
  5
F107CD
330
261
100
AcDbEntity
  8
Geo
100
AcDbLine
 10
-40.67736971791633
 20
0.9924072906569101
 30
0.0
 11
-40.57736971791634
 21
0.9348303670983071
 31
0.0
  0
LINE
  5
F107CF
330
261
100
AcDbEntity
  8
Geo
100
AcDbLine
 10
-40.57736971791634
 20
0.9348303670983071
 30
0.0
 11
-40.47736971791635
 21
0.8772613789040093
 31
0.0
  0
LINE
  5
F107D1
330
261
100
AcDbEntity
  8
Geo
100
AcDbLine
 10
-40.47736971791635
 20
0.8772613789040093
 30
0.0
 11
-40.37736971791633
 21
0.8197056564948077
 31
0.0
  0
LINE
  5
F107D3
330
261
100
AcDbEntity
  8
Geo
100
AcDbLine
 10
-40.37736971791633
 20
0.8197056564948077
 30
0.0
 11
-40.27736971791634
 21
0.7621685290631107
 31
0.0
  0
LINE
  5
F107D5
330
261
100
AcDbEntity
  8
Geo
100
AcDbLine
 10
-40.27736971791634
 20
0.7621685290631107
 30
0.0
 11
-40.17736971791634
 21
0.7046553240795071
 31
0.0
  0
LINE
  5
F107D7
330
261
100
AcDbEntity
  8
Geo
100
AcDbLine
 10
-40.17736971791634
 20
0.7046553240795071
 30
0.0
 11
-40.07736971791634
 21
0.6471713667999062
 31
0.0
  0
LINE
  5
F107D9
330
261
100
AcDbEntity
  8
Geo
100
AcDbLine
 10
-40.07736971791634
 20
0.6471713667999062
 30
0.0
 11
-39.97736971791635
 21
0.5897219797716105
 31
0.0
  0
LINE
  5
F107DB
330
261
100
AcDbEntity
  8
Geo
100
AcDbLine
 10
-39.97736971791635
 20
0.5897219797716105
 30
0.0
 11
-39.87736971791634
 21
0.532312482341407
 31
0.0
  0
LINE
  5
F107DD
330
261
100
AcDbEntity
  8
Geo
100
AcDbLine
 10
-39.87736971791634
 20
0.532312482341407
 30
0.0
 11
-39.77736971791634
 21
0.474948190162511
 31
0.0
  0
LINE
  5
F107DF
330
261
100
AcDbEntity
  8
Geo
100
AcDbLine
 10
-39.77736971791634
 20
0.474948190162511
 30
0.0
 11
-39.67736971791634
 21
0.417634414702409
 31
0.0
  0
LINE
  5
F107E1
330
261
100
AcDbEntity
  8
Geo
100
AcDbLine
 10
-39.67736971791634
 20
0.417634414702409
 30
0.0
 11
-39.57736971791634
 21
0.3603764627512085
 31
0.0
  0
LINE
  5
F107E3
330
261
100
AcDbEntity
  8
Geo
100
AcDbLine
 10
-39.57736971791634
 20
0.3603764627512085
 30
0.0
 11
-39.47736971791634
 21
0.3031796359302099
 31
0.0
  0
LINE
  5
F107E5
330
261
100
AcDbEntity
  8
Geo
100
AcDbLine
 10
-39.47736971791634
 20
0.3031796359302099
 30
0.0
 11
-39.37736971791634
 21
0.2460492302011055
 31
0.0
  0
LINE
  5
F107E7
330
261
100
AcDbEntity
  8
Geo
100
AcDbLine
 10
-39.37736971791634
 20
0.2460492302011055
 30
0.0
 11
-39.27736971791635
 21
0.1889905353754102
 31
0.0
  0
LINE
  5
F107E9
330
261
100
AcDbEntity
  8
Geo
100
AcDbLine
 10
-39.27736971791635
 20
0.1889905353754102
 30
0.0
 11
-39.17736971791633
 21
0.1320088346248056
 31
0.0
  0
LINE
  5
F107EB
330
261
100
AcDbEntity
  8
Geo
100
AcDbLine
 10
-39.17736971791633
 20
0.1320088346248056
 30
0.0
 11
-39.07736971791634
 21
0.0751094039921085
 31
0.0
  0
LINE
  5
F107ED
330
261
100
AcDbEntity
  8
Geo
100
AcDbLine
 10
-39.07736971791634
 20
0.0751094039921085
 30
0.0
 11
-38.97736971791635
 21
0.0182975119023077
 31
0.0
  0
LINE
  5
F107EF
330
261
100
AcDbEntity
  8
Geo
100
AcDbLine
 10
-38.97736971791635
 20
0.0182975119023077
 30
0.0
 11
-38.87736971791634
 21
-0.0384215813246911
 31
0.0
  0
LINE
  5
F107F1
330
261
100
AcDbEntity
  8
Geo
100
AcDbLine
 10
-38.87736971791634
 20
-0.0384215813246911
 30
0.0
 11
-38.77736971791634
 21
-0.0950426239615929
 31
0.0
  0
LINE
  5
F107F3
330
261
100
AcDbEntity
  8
Geo
100
AcDbLine
 10
-38.77736971791634
 20
-0.0950426239615929
 30
0.0
 11
-38.67736971791634
 21
-0.1515603733595903
 31
0.0
  0
LINE
  5
F107F5
330
261
100
AcDbEntity
  8
Geo
100
AcDbLine
 10
-38.67736971791634
 20
-0.1515603733595903
 30
0.0
 11
-38.57736971791634
 21
-0.2079695964342889
 31
0.0
  0
LINE
  5
F107F7
330
261
100
AcDbEntity
  8
Geo
100
AcDbLine
 10
-38.57736971791634
 20
-0.2079695964342889
 30
0.0
 11
-38.47736971791635
 21
-0.264265070149694
 31
0.0
  0
LINE
  5
F107F9
330
261
100
AcDbEntity
  8
Geo
100
AcDbLine
 10
-38.47736971791635
 20
-0.264265070149694
 30
0.0
 11
-38.37736971791634
 21
-0.3204415820020898
 31
0.0
  0
LINE
  5
F107FB
330
261
100
AcDbEntity
  8
Geo
100
AcDbLine
 10
-38.37736971791634
 20
-0.3204415820020898
 30
0.0
 11
-38.27736971791635
 21
-0.3764939305028925
 31
0.0
  0
LINE
  5
F107FD
330
261
100
AcDbEntity
  8
Geo
100
AcDbLine
 10
-38.27736971791635
 20
-0.3764939305028925
 30
0.0
 11
-38.17736971791634
 21
-0.4324169256597905
 31
0.0
  0
LINE
  5
F107FF
330
261
100
AcDbEntity
  8
Geo
100
AcDbLine
 10
-38.17736971791634
 20
-0.4324169256597905
 30
0.0
 11
-38.07736971791634
 21
-0.4882053894576935
 31
0.0
  0
LINE
  5
F10801
330
261
100
AcDbEntity
  8
Geo
100
AcDbLine
 10
-38.07736971791634
 20
-0.4882053894576935
 30
0.0
 11
-37.97736971791635
 21
-0.5438541563377904
 31
0.0
  0
LINE
  5
F10803
330
261
100
AcDbEntity
  8
Geo
100
AcDbLine
 10
-37.97736971791635
 20
-0.5438541563377904
 30
0.0
 11
-37.87736971791634
 21
-0.5993580736764912
 31
0.0
  0
LINE
  5
F10805
330
261
100
AcDbEntity
  8
Geo
100
AcDbLine
 10
-37.87736971791634
 20
-0.5993580736764912
 30
0.0
 11
-37.77736971791635
 21
-0.65471200226159
 31
0.0
  0
LINE
  5
F10807
330
261
100
AcDbEntity
  8
Geo
100
AcDbLine
 10
-37.77736971791635
 20
-0.65471200226159
 30
0.0
 11
-37.67736971791634
 21
-0.7099108167690887
 31
0.0
  0
LINE
  5
F10809
330
261
100
AcDbEntity
  8
Geo
100
AcDbLine
 10
-37.67736971791634
 20
-0.7099108167690887
 30
0.0
 11
-37.57736971791634
 21
-0.7649494062368909
 31
0.0
  0
LINE
  5
F1080B
330
261
100
AcDbEntity
  8
Geo
100
AcDbLine
 10
-37.57736971791634
 20
-0.7649494062368909
 30
0.0
 11
-37.47736971791635
 21
-0.8198226745387877
 31
0.0
  0
LINE
  5
F1080D
330
261
100
AcDbEntity
  8
Geo
100
AcDbLine
 10
-37.47736971791635
 20
-0.8198226745387877
 30
0.0
 11
-37.37736971791634
 21
-0.8745255408557888
 31
0.0
  0
LINE
  5
F1080F
330
261
100
AcDbEntity
  8
Geo
100
AcDbLine
 10
-37.37736971791634
 20
-0.8745255408557888
 30
0.0
 11
-37.27736971791634
 21
-0.9290529401465903
 31
0.0
  0
LINE
  5
F10811
330
261
100
AcDbEntity
  8
Geo
100
AcDbLine
 10
-37.27736971791634
 20
-0.9290529401465903
 30
0.0
 11
-37.17736971791634
 21
-0.9833998236170913
 31
0.0
  0
LINE
  5
F10813
330
261
100
AcDbEntity
  8
Geo
100
AcDbLine
 10
-37.17736971791634
 20
-0.9833998236170913
 30
0.0
 11
-37.07736971791634
 21
-1.037561159187191
 31
0.0
  0
LINE
  5
F10815
330
261
100
AcDbEntity
  8
Geo
100
AcDbLine
 10
-37.07736971791634
 20
-1.037561159187191
 30
0.0
 11
-36.97736971791635
 21
-1.091531931957192
 31
0.0
  0
LINE
  5
F10817
330
261
100
AcDbEntity
  8
Geo
100
AcDbLine
 10
-36.97736971791635
 20
-1.091531931957192
 30
0.0
 11
-36.87736971791634
 21
-1.145307144671694
 31
0.0
  0
LINE
  5
F10819
330
261
100
AcDbEntity
  8
Geo
100
AcDbLine
 10
-36.87736971791634
 20
-1.145307144671694
 30
0.0
 11
-36.77736971791635
 21
-1.198881818182893
 31
0.0
  0
LINE
  5
F1081B
330
261
100
AcDbEntity
  8
Geo
100
AcDbLine
 10
-36.77736971791635
 20
-1.198881818182893
 30
0.0
 11
-36.67736971791633
 21
-1.25225099191109
 31
0.0
  0
LINE
  5
F1081D
330
261
100
AcDbEntity
  8
Geo
100
AcDbLine
 10
-36.67736971791633
 20
-1.25225099191109
 30
0.0
 11
-36.57736971791634
 21
-1.30540972430429
 31
0.0
  0
LINE
  5
F1081F
330
261
100
AcDbEntity
  8
Geo
100
AcDbLine
 10
-36.57736971791634
 20
-1.30540972430429
 30
0.0
 11
-36.47736971791635
 21
-1.358353093295693
 31
0.0
  0
LINE
  5
F10821
330
261
100
AcDbEntity
  8
Geo
100
AcDbLine
 10
-36.47736971791635
 20
-1.358353093295693
 30
0.0
 11
-36.37736971791634
 21
-1.411076196759189
 31
0.0
  0
LINE
  5
F10823
330
261
100
AcDbEntity
  8
Geo
100
AcDbLine
 10
-36.37736971791634
 20
-1.411076196759189
 30
0.0
 11
-36.27736971791634
 21
-1.463574152963591
 31
0.0
  0
LINE
  5
F10825
330
261
100
AcDbEntity
  8
Geo
100
AcDbLine
 10
-36.27736971791634
 20
-1.463574152963591
 30
0.0
 11
-36.17736971791634
 21
-1.515842101024695
 31
0.0
  0
LINE
  5
F10827
330
261
100
AcDbEntity
  8
Geo
100
AcDbLine
 10
-36.17736971791634
 20
-1.515842101024695
 30
0.0
 11
-36.07736971791634
 21
-1.56787520135489
 31
0.0
  0
LINE
  5
F10829
330
261
100
AcDbEntity
  8
Geo
100
AcDbLine
 10
-36.07736971791634
 20
-1.56787520135489
 30
0.0
 11
-35.97736971791635
 21
-1.619668636111789
 31
0.0
  0
LINE
  5
F1082B
330
261
100
AcDbEntity
  8
Geo
100
AcDbLine
 10
-35.97736971791635
 20
-1.619668636111789
 30
0.0
 11
-35.87736971791634
 21
-1.671217609643893
 31
0.0
  0
LINE
  5
F1082D
330
261
100
AcDbEntity
  8
Geo
100
AcDbLine
 10
-35.87736971791634
 20
-1.671217609643893
 30
0.0
 11
-35.77736971791634
 21
-1.722517348934989
 31
0.0
  0
LINE
  5
F1082F
330
261
100
AcDbEntity
  8
Geo
100
AcDbLine
 10
-35.77736971791634
 20
-1.722517348934989
 30
0.0
 11
-35.67736971791634
 21
-1.773563104045791
 31
0.0
  0
LINE
  5
F10831
330
261
100
AcDbEntity
  8
Geo
100
AcDbLine
 10
-35.67736971791634
 20
-1.773563104045791
 30
0.0
 11
-35.57736971791634
 21
-1.824350148554092
 31
0.0
  0
LINE
  5
F10833
330
261
100
AcDbEntity
  8
Geo
100
AcDbLine
 10
-35.57736971791634
 20
-1.824350148554092
 30
0.0
 11
-35.47736971791635
 21
-1.87487377999199
 31
0.0
  0
LINE
  5
F10835
330
261
100
AcDbEntity
  8
Geo
100
AcDbLine
 10
-35.47736971791635
 20
-1.87487377999199
 30
0.0
 11
-35.37736971791634
 21
-1.925129320281492
 31
0.0
  0
LINE
  5
F10837
330
261
100
AcDbEntity
  8
Geo
100
AcDbLine
 10
-35.37736971791634
 20
-1.925129320281492
 30
0.0
 11
-35.27736971791635
 21
-1.975112116167892
 31
0.0
  0
LINE
  5
F10839
330
261
100
AcDbEntity
  8
Geo
100
AcDbLine
 10
-35.27736971791635
 20
-1.975112116167892
 30
0.0
 11
-35.17736971791634
 21
-2.02481753965009
 31
0.0
  0
LINE
  5
F1083B
330
261
100
AcDbEntity
  8
Geo
100
AcDbLine
 10
-35.17736971791634
 20
-2.02481753965009
 30
0.0
 11
-35.07736971791634
 21
-2.074240988409592
 31
0.0
  0
LINE
  5
F1083D
330
261
100
AcDbEntity
  8
Geo
100
AcDbLine
 10
-35.07736971791634
 20
-2.074240988409592
 30
0.0
 11
-34.97736971791635
 21
-2.123377886236593
 31
0.0
  0
LINE
  5
F1083F
330
261
100
AcDbEntity
  8
Geo
100
AcDbLine
 10
-34.97736971791635
 20
-2.123377886236593
 30
0.0
 11
-34.87736971791634
 21
-2.172223683453289
 31
0.0
  0
LINE
  5
F10841
330
261
100
AcDbEntity
  8
Geo
100
AcDbLine
 10
-34.87736971791634
 20
-2.172223683453289
 30
0.0
 11
-34.77736971791634
 21
-2.22077385733559
 31
0.0
  0
LINE
  5
F10843
330
261
100
AcDbEntity
  8
Geo
100
AcDbLine
 10
-34.77736971791634
 20
-2.22077385733559
 30
0.0
 11
-34.67736971791634
 21
-2.269023912531789
 31
0.0
  0
LINE
  5
F10845
330
261
100
AcDbEntity
  8
Geo
100
AcDbLine
 10
-34.67736971791634
 20
-2.269023912531789
 30
0.0
 11
-34.57736971791634
 21
-2.316969381478589
 31
0.0
  0
LINE
  5
F10847
330
261
100
AcDbEntity
  8
Geo
100
AcDbLine
 10
-34.57736971791634
 20
-2.316969381478589
 30
0.0
 11
-34.47736971791635
 21
-2.364605824814987
 31
0.0
  0
LINE
  5
F10849
330
261
100
AcDbEntity
  8
Geo
100
AcDbLine
 10
-34.47736971791635
 20
-2.364605824814987
 30
0.0
 11
-34.37736971791634
 21
-2.411928831793289
 31
0.0
  0
LINE
  5
F1084B
330
261
100
AcDbEntity
  8
Geo
100
AcDbLine
 10
-34.37736971791634
 20
-2.411928831793289
 30
0.0
 11
-34.27736971791635
 21
-2.458934020687287
 31
0.0
  0
LINE
  5
F1084D
330
261
100
AcDbEntity
  8
Geo
100
AcDbLine
 10
-34.27736971791635
 20
-2.458934020687287
 30
0.0
 11
-34.17736971791633
 21
-2.505617039198288
 31
0.0
  0
LINE
  5
F1084F
330
261
100
AcDbEntity
  8
Geo
100
AcDbLine
 10
-34.17736971791633
 20
-2.505617039198288
 30
0.0
 11
-34.07736971791634
 21
-2.551973564858094
 31
0.0
  0
LINE
  5
F10851
330
261
100
AcDbEntity
  8
Geo
100
AcDbLine
 10
-34.07736971791634
 20
-2.551973564858094
 30
0.0
 11
-33.97736971791635
 21
-2.59799930542869
 31
0.0
  0
LINE
  5
F10853
330
261
100
AcDbEntity
  8
Geo
100
AcDbLine
 10
-33.97736971791635
 20
-2.59799930542869
 30
0.0
 11
-33.87736971791634
 21
-2.643689999300395
 31
0.0
  0
LINE
  5
F10855
330
261
100
AcDbEntity
  8
Geo
100
AcDbLine
 10
-33.87736971791634
 20
-2.643689999300395
 30
0.0
 11
-33.77736971791634
 21
-2.689041415886091
 31
0.0
  0
LINE
  5
F10857
330
261
100
AcDbEntity
  8
Geo
100
AcDbLine
 10
-33.77736971791634
 20
-2.689041415886091
 30
0.0
 11
-33.67736971791634
 21
-2.734049356012988
 31
0.0
  0
LINE
  5
F10859
330
261
100
AcDbEntity
  8
Geo
100
AcDbLine
 10
-33.67736971791634
 20
-2.734049356012988
 30
0.0
 11
-33.57736971791634
 21
-2.778709652311292
 31
0.0
  0
LINE
  5
F1085B
330
261
100
AcDbEntity
  8
Geo
100
AcDbLine
 10
-33.57736971791634
 20
-2.778709652311292
 30
0.0
 11
-33.47736971791635
 21
-2.823018169600192
 31
0.0
  0
LINE
  5
F1085D
330
261
100
AcDbEntity
  8
Geo
100
AcDbLine
 10
-33.47736971791635
 20
-2.823018169600192
 30
0.0
 11
-33.37736971791634
 21
-2.86697080527109
 31
0.0
  0
LINE
  5
F1085F
330
261
100
AcDbEntity
  8
Geo
100
AcDbLine
 10
-33.37736971791634
 20
-2.86697080527109
 30
0.0
 11
-33.27736971791634
 21
-2.910563489666792
 31
0.0
  0
LINE
  5
F10861
330
261
100
AcDbEntity
  8
Geo
100
AcDbLine
 10
-33.27736971791634
 20
-2.910563489666792
 30
0.0
 11
-33.17736971791634
 21
-2.953792186458692
 31
0.0
  0
LINE
  5
F10863
330
261
100
AcDbEntity
  8
Geo
100
AcDbLine
 10
-33.17736971791634
 20
-2.953792186458692
 30
0.0
 11
-33.07736971791634
 21
-2.996652893020691
 31
0.0
  0
LINE
  5
F10865
330
261
100
AcDbEntity
  8
Geo
100
AcDbLine
 10
-33.07736971791634
 20
-2.996652893020691
 30
0.0
 11
-32.97736971791635
 21
-3.039141640799392
 31
0.0
  0
LINE
  5
F10867
330
261
100
AcDbEntity
  8
Geo
100
AcDbLine
 10
-32.97736971791635
 20
-3.039141640799392
 30
0.0
 11
-32.87736971791634
 21
-3.081254495681893
 31
0.0
  0
LINE
  5
F10869
330
261
100
AcDbEntity
  8
Geo
100
AcDbLine
 10
-32.87736971791634
 20
-3.081254495681893
 30
0.0
 11
-32.77736971791635
 21
-3.122987558359788
 31
0.0
  0
LINE
  5
F1086B
330
261
100
AcDbEntity
  8
Geo
100
AcDbLine
 10
-32.77736971791635
 20
-3.122987558359788
 30
0.0
 11
-32.67736971791634
 21
-3.164336964690491
 31
0.0
  0
LINE
  5
F1086D
330
261
100
AcDbEntity
  8
Geo
100
AcDbLine
 10
-32.67736971791634
 20
-3.164336964690491
 30
0.0
 11
-32.57736971791634
 21
-3.205298886054791
 31
0.0
  0
LINE
  5
F1086F
330
261
100
AcDbEntity
  8
Geo
100
AcDbLine
 10
-32.57736971791634
 20
-3.205298886054791
 30
0.0
 11
-32.47736971791635
 21
-3.245869529711491
 31
0.0
  0
LINE
  5
F10871
330
261
100
AcDbEntity
  8
Geo
100
AcDbLine
 10
-32.47736971791635
 20
-3.245869529711491
 30
0.0
 11
-32.37736971791634
 21
-3.286045139148392
 31
0.0
  0
LINE
  5
F10873
330
261
100
AcDbEntity
  8
Geo
100
AcDbLine
 10
-32.37736971791634
 20
-3.286045139148392
 30
0.0
 11
-32.27736971791634
 21
-3.325821994430491
 31
0.0
  0
LINE
  5
F10875
330
261
100
AcDbEntity
  8
Geo
100
AcDbLine
 10
-32.27736971791634
 20
-3.325821994430491
 30
0.0
 11
-32.17736971791634
 21
-3.365196412543987
 31
0.0
  0
LINE
  5
F10877
330
261
100
AcDbEntity
  8
Geo
100
AcDbLine
 10
-32.17736971791634
 20
-3.365196412543987
 30
0.0
 11
-32.07736971791634
 21
-3.404164747737489
 31
0.0
  0
LINE
  5
F10879
330
261
100
AcDbEntity
  8
Geo
100
AcDbLine
 10
-32.07736971791634
 20
-3.404164747737489
 30
0.0
 11
-31.97736971791635
 21
-3.442723391859789
 31
0.0
  0
LINE
  5
F1087B
330
261
100
AcDbEntity
  8
Geo
100
AcDbLine
 10
-31.97736971791635
 20
-3.442723391859789
 30
0.0
 11
-31.87736971791634
 21
-3.48086877469359
 31
0.0
  0
LINE
  5
F1087D
330
261
100
AcDbEntity
  8
Geo
100
AcDbLine
 10
-31.87736971791634
 20
-3.48086877469359
 30
0.0
 11
-31.77736971791635
 21
-3.518597364286087
 31
0.0
  0
LINE
  5
F1087F
330
261
100
AcDbEntity
  8
Geo
100
AcDbLine
 10
-31.77736971791635
 20
-3.518597364286087
 30
0.0
 11
-31.67736971791633
 21
-3.555905667276487
 31
0.0
  0
LINE
  5
F10881
330
261
100
AcDbEntity
  8
Geo
100
AcDbLine
 10
-31.67736971791633
 20
-3.555905667276487
 30
0.0
 11
-31.57736971791634
 21
-3.592790229218891
 31
0.0
  0
LINE
  5
F10883
330
261
100
AcDbEntity
  8
Geo
100
AcDbLine
 10
-31.57736971791634
 20
-3.592790229218891
 30
0.0
 11
-31.47736971791635
 21
-3.62924763490249
 31
0.0
  0
LINE
  5
F10885
330
261
100
AcDbEntity
  8
Geo
100
AcDbLine
 10
-31.47736971791635
 20
-3.62924763490249
 30
0.0
 11
-31.37736971791634
 21
-3.665274508667486
 31
0.0
  0
LINE
  5
F10887
330
261
100
AcDbEntity
  8
Geo
100
AcDbLine
 10
-31.37736971791634
 20
-3.665274508667486
 30
0.0
 11
-31.27736971791634
 21
-3.700867514718087
 31
0.0
  0
LINE
  5
F10889
330
261
100
AcDbEntity
  8
Geo
100
AcDbLine
 10
-31.27736971791634
 20
-3.700867514718087
 30
0.0
 11
-31.17736971791634
 21
-3.736023357430891
 31
0.0
  0
LINE
  5
F1088B
330
261
100
AcDbEntity
  8
Geo
100
AcDbLine
 10
-31.17736971791634
 20
-3.736023357430891
 30
0.0
 11
-31.07736971791634
 21
-3.77073878166059
 31
0.0
  0
LINE
  5
F1088D
330
261
100
AcDbEntity
  8
Geo
100
AcDbLine
 10
-31.07736971791634
 20
-3.77073878166059
 30
0.0
 11
-30.97736971791635
 21
-3.80501057304059
 31
0.0
  0
LINE
  5
F1088F
330
261
100
AcDbEntity
  8
Geo
100
AcDbLine
 10
-30.97736971791635
 20
-3.80501057304059
 30
0.0
 11
-30.87736971791634
 21
-3.838835558281694
 31
0.0
  0
LINE
  5
F10891
330
261
100
AcDbEntity
  8
Geo
100
AcDbLine
 10
-30.87736971791634
 20
-3.838835558281694
 30
0.0
 11
-30.77736971791634
 21
-3.87221060546469
 31
0.0
  0
LINE
  5
F10893
330
261
100
AcDbEntity
  8
Geo
100
AcDbLine
 10
-30.77736971791634
 20
-3.87221060546469
 30
0.0
 11
-30.67736971791634
 21
-3.905132624331393
 31
0.0
  0
LINE
  5
F10895
330
261
100
AcDbEntity
  8
Geo
100
AcDbLine
 10
-30.67736971791634
 20
-3.905132624331393
 30
0.0
 11
-30.57736971791634
 21
-3.93759856657029
 31
0.0
  0
LINE
  5
F10897
330
261
100
AcDbEntity
  8
Geo
100
AcDbLine
 10
-30.57736971791634
 20
-3.93759856657029
 30
0.0
 11
-30.47736971791635
 21
-3.969605426098695
 31
0.0
  0
LINE
  5
F10899
330
261
100
AcDbEntity
  8
Geo
100
AcDbLine
 10
-30.47736971791635
 20
-3.969605426098695
 30
0.0
 11
-30.37736971791634
 21
-4.001150239341487
 31
0.0
  0
LINE
  5
F1089B
330
261
100
AcDbEntity
  8
Geo
100
AcDbLine
 10
-30.37736971791634
 20
-4.001150239341487
 30
0.0
 11
-30.27736971791635
 21
-4.032230085505194
 31
0.0
  0
LINE
  5
F1089D
330
261
100
AcDbEntity
  8
Geo
100
AcDbLine
 10
-30.27736971791635
 20
-4.032230085505194
 30
0.0
 11
-30.17736971791634
 21
-4.062842086848291
 31
0.0
  0
LINE
  5
F1089F
330
261
100
AcDbEntity
  8
Geo
100
AcDbLine
 10
-30.17736971791634
 20
-4.062842086848291
 30
0.0
 11
-30.07736971791634
 21
-4.092983408948288
 31
0.0
  0
LINE
  5
F108A1
330
261
100
AcDbEntity
  8
Geo
100
AcDbLine
 10
-30.07736971791634
 20
-4.092983408948288
 30
0.0
 11
-29.97736971791635
 21
-4.12265126096339
 31
0.0
  0
LINE
  5
F108A3
330
261
100
AcDbEntity
  8
Geo
100
AcDbLine
 10
-29.97736971791635
 20
-4.12265126096339
 30
0.0
 11
-29.87736971791634
 21
-4.15184289589159
 31
0.0
  0
LINE
  5
F108A5
330
261
100
AcDbEntity
  8
Geo
100
AcDbLine
 10
-29.87736971791634
 20
-4.15184289589159
 30
0.0
 11
-29.77736971791634
 21
-4.18055561082459
 31
0.0
  0
LINE
  5
F108A7
330
261
100
AcDbEntity
  8
Geo
100
AcDbLine
 10
-29.77736971791634
 20
-4.18055561082459
 30
0.0
 11
-29.67736971791634
 21
-4.208786747198089
 31
0.0
  0
LINE
  5
F108A9
330
261
100
AcDbEntity
  8
Geo
100
AcDbLine
 10
-29.67736971791634
 20
-4.208786747198089
 30
0.0
 11
-29.57736971791634
 21
-4.236533691038193
 31
0.0
  0
LINE
  5
F108AB
330
261
100
AcDbEntity
  8
Geo
100
AcDbLine
 10
-29.57736971791634
 20
-4.236533691038193
 30
0.0
 11
-29.47736971791634
 21
-4.263793873203191
 31
0.0
  0
LINE
  5
F108AD
330
261
100
AcDbEntity
  8
Geo
100
AcDbLine
 10
-29.47736971791634
 20
-4.263793873203191
 30
0.0
 11
-29.37736971791634
 21
-4.290564769621791
 31
0.0
  0
LINE
  5
F108AF
330
261
100
AcDbEntity
  8
Geo
100
AcDbLine
 10
-29.37736971791634
 20
-4.290564769621791
 30
0.0
 11
-29.27736971791635
 21
-4.316843901526194
 31
0.0
  0
LINE
  5
F108B1
330
261
100
AcDbEntity
  8
Geo
100
AcDbLine
 10
-29.27736971791635
 20
-4.316843901526194
 30
0.0
 11
-29.17736971791633
 21
-4.342628835682393
 31
0.0
  0
LINE
  5
F108B3
330
261
100
AcDbEntity
  8
Geo
100
AcDbLine
 10
-29.17736971791633
 20
-4.342628835682393
 30
0.0
 11
-29.07736971791634
 21
-4.367917184614892
 31
0.0
  0
LINE
  5
F108B5
330
261
100
AcDbEntity
  8
Geo
100
AcDbLine
 10
-29.07736971791634
 20
-4.367917184614892
 30
0.0
 11
-28.97736971791635
 21
-4.392706606827893
 31
0.0
  0
LINE
  5
F108B7
330
261
100
AcDbEntity
  8
Geo
100
AcDbLine
 10
-28.97736971791635
 20
-4.392706606827893
 30
0.0
 11
-28.87736971791634
 21
-4.416994807022291
 31
0.0
  0
LINE
  5
F108B9
330
261
100
AcDbEntity
  8
Geo
100
AcDbLine
 10
-28.87736971791634
 20
-4.416994807022291
 30
0.0
 11
-28.77736971791634
 21
-4.440779536307989
 31
0.0
  0
LINE
  5
F108BB
330
261
100
AcDbEntity
  8
Geo
100
AcDbLine
 10
-28.77736971791634
 20
-4.440779536307989
 30
0.0
 11
-28.67736971791634
 21
-4.46405859241219
 31
0.0
  0
LINE
  5
F108BD
330
261
100
AcDbEntity
  8
Geo
100
AcDbLine
 10
-28.67736971791634
 20
-4.46405859241219
 30
0.0
 11
-28.57736971791634
 21
-4.486829819883389
 31
0.0
  0
LINE
  5
F108BF
330
261
100
AcDbEntity
  8
Geo
100
AcDbLine
 10
-28.57736971791634
 20
-4.486829819883389
 30
0.0
 11
-28.47736971791635
 21
-4.509091110290889
 31
0.0
  0
LINE
  5
F108C1
330
261
100
AcDbEntity
  8
Geo
100
AcDbLine
 10
-28.47736971791635
 20
-4.509091110290889
 30
0.0
 11
-28.37736971791634
 21
-4.530840402420093
 31
0.0
  0
LINE
  5
F108C3
330
261
100
AcDbEntity
  8
Geo
100
AcDbLine
 10
-28.37736971791634
 20
-4.530840402420093
 30
0.0
 11
-28.27736971791635
 21
-4.552075682462987
 31
0.0
  0
LINE
  5
F108C5
330
261
100
AcDbEntity
  8
Geo
100
AcDbLine
 10
-28.27736971791635
 20
-4.552075682462987
 30
0.0
 11
-28.17736971791634
 21
-4.572794984205287
 31
0.0
  0
LINE
  5
F108C7
330
261
100
AcDbEntity
  8
Geo
100
AcDbLine
 10
-28.17736971791634
 20
-4.572794984205287
 30
0.0
 11
-28.07736971791634
 21
-4.592996389207893
 31
0.0
  0
LINE
  5
F108C9
330
261
100
AcDbEntity
  8
Geo
100
AcDbLine
 10
-28.07736971791634
 20
-4.592996389207893
 30
0.0
 11
-27.97736971791635
 21
-4.612678026984692
 31
0.0
  0
LINE
  5
F108CB
330
261
100
AcDbEntity
  8
Geo
100
AcDbLine
 10
-27.97736971791635
 20
-4.612678026984692
 30
0.0
 11
-27.87736971791634
 21
-4.631838075175991
 31
0.0
  0
LINE
  5
F108CD
330
261
100
AcDbEntity
  8
Geo
100
AcDbLine
 10
-27.87736971791634
 20
-4.631838075175991
 30
0.0
 11
-27.77736971791635
 21
-4.650474759716793
 31
0.0
  0
LINE
  5
F108CF
330
261
100
AcDbEntity
  8
Geo
100
AcDbLine
 10
-27.77736971791635
 20
-4.650474759716793
 30
0.0
 11
-27.67736971791634
 21
-4.668586355001693
 31
0.0
  0
LINE
  5
F108D1
330
261
100
AcDbEntity
  8
Geo
100
AcDbLine
 10
-27.67736971791634
 20
-4.668586355001693
 30
0.0
 11
-27.57736971791634
 21
-4.686171184043789
 31
0.0
  0
LINE
  5
F108D3
330
261
100
AcDbEntity
  8
Geo
100
AcDbLine
 10
-27.57736971791634
 20
-4.686171184043789
 30
0.0
 11
-27.47736971791635
 21
-4.70322761863099
 31
0.0
  0
LINE
  5
F108D5
330
261
100
AcDbEntity
  8
Geo
100
AcDbLine
 10
-27.47736971791635
 20
-4.70322761863099
 30
0.0
 11
-27.37736971791634
 21
-4.719754079475894
 31
0.0
  0
LINE
  5
F108D7
330
261
100
AcDbEntity
  8
Geo
100
AcDbLine
 10
-27.37736971791634
 20
-4.719754079475894
 30
0.0
 11
-27.27736971791634
 21
-4.735749036362388
 31
0.0
  0
LINE
  5
F108D9
330
261
100
AcDbEntity
  8
Geo
100
AcDbLine
 10
-27.27736971791634
 20
-4.735749036362388
 30
0.0
 11
-27.17736971791634
 21
-4.751211008287391
 31
0.0
  0
LINE
  5
F108DB
330
261
100
AcDbEntity
  8
Geo
100
AcDbLine
 10
-27.17736971791634
 20
-4.751211008287391
 30
0.0
 11
-27.07736971791634
 21
-4.766138563597987
 31
0.0
  0
LINE
  5
F108DD
330
261
100
AcDbEntity
  8
Geo
100
AcDbLine
 10
-27.07736971791634
 20
-4.766138563597987
 30
0.0
 11
-26.97736971791635
 21
-4.780530320123691
 31
0.0
  0
LINE
  5
F108DF
330
261
100
AcDbEntity
  8
Geo
100
AcDbLine
 10
-26.97736971791635
 20
-4.780530320123691
 30
0.0
 11
-26.87736971791634
 21
-4.794384945304695
 31
0.0
  0
LINE
  5
F108E1
330
261
100
AcDbEntity
  8
Geo
100
AcDbLine
 10
-26.87736971791634
 20
-4.794384945304695
 30
0.0
 11
-26.77736971791635
 21
-4.807701156315392
 31
0.0
  0
LINE
  5
F108E3
330
261
100
AcDbEntity
  8
Geo
100
AcDbLine
 10
-26.77736971791635
 20
-4.807701156315392
 30
0.0
 11
-26.67736971791633
 21
-4.82047772018269
 31
0.0
  0
LINE
  5
F108E5
330
261
100
AcDbEntity
  8
Geo
100
AcDbLine
 10
-26.67736971791633
 20
-4.82047772018269
 30
0.0
 11
-26.67736971791633
 21
-4.794621154164289
 31
0.0
  0
LINE
  5
F108E7
330
261
100
AcDbEntity
  8
Geo
100
AcDbLine
 10
-26.67736971791633
 20
-4.82047772018269
 30
0.0
 11
-26.67736971791633
 21
-4.94627250366959
 31
0.0
  0
LINE
  5
F108E9
330
261
100
AcDbEntity
  8
Geo
100
AcDbLine
 10
-48.57736971791634
 20
1.020532963036011
 30
0.0
 11
-48.57736971791634
 21
1.020532963036011
 31
0.0
  0
LINE
  5
F108EB
330
261
100
AcDbEntity
  8
Geo
100
AcDbLine
 10
-48.57736971791634
 20
1.020532963036011
 30
0.0
 11
-48.57736971791634
 21
1.020532963036011
 31
0.0
  0
LINE
  5
F108ED
330
261
100
AcDbEntity
  8
Geo
100
AcDbLine
 10
43.42263028208366
 20
6.520532963036011
 30
0.0
 11
43.42263028208366
 21
1.020532963036011
 31
0.0
  0
LINE
  5
F108EF
330
261
100
AcDbEntity
  8
Geo
100
AcDbLine
 10
-48.57736971791634
 20
1.020532963036011
 30
0.0
 11
-48.57736971791634
 21
-4.829467036963986
 31
0.0
  0
LINE
  5
F108F1
330
261
100
AcDbEntity
  8
Geo
100
AcDbLine
 10
-48.57736971791634
 20
-4.829467036963986
 30
0.0
 11
-48.42736971791634
 21
-4.979467036963988
 31
0.0
  0
LINE
  5
F108F3
330
261
100
AcDbEntity
  8
Geo
100
AcDbLine
 10
-48.42736971791634
 20
-4.979467036963988
 30
0.0
 11
-22.57736971791634
 21
-4.979467036963988
 31
0.0
  0
LINE
  5
F108F5
330
261
100
AcDbEntity
  8
Geo
100
AcDbLine
 10
-22.57736971791634
 20
-4.979467036963988
 30
0.0
 11
-1.57736971791634
 21
-4.979467036963988
 31
0.0
  0
LINE
  5
F108F7
330
261
100
AcDbEntity
  8
Geo
100
AcDbLine
 10
-1.57736971791634
 20
-4.979467036963988
 30
0.0
 11
42.92263028208366
 21
-4.979467036963988
 31
0.0
  0
LINE
  5
F108F9
330
261
100
AcDbEntity
  8
Geo
100
AcDbLine
 10
42.92263028208366
 20
-4.979467036963988
 30
0.0
 11
43.42263028208366
 21
-4.479467036963988
 31
0.0
  0
LINE
  5
F108FB
330
261
100
AcDbEntity
  8
Geo
100
AcDbLine
 10
-48.57736971791634
 20
6.870532963036012
 30
0.0
 11
-48.57736971791634
 21
-4.829467036963986
 31
0.0
  0
LINE
  5
F108FD
330
261
100
AcDbEntity
  8
Geo
100
AcDbLine
 10
-48.42736971791634
 20
7.020532963036011
 30
0.0
 11
-48.42736971791634
 21
-4.979467036963988
 31
0.0
  0
LINE
  5
F108FF
330
261
100
AcDbEntity
  8
Geo
100
AcDbLine
 10
-22.57736971791634
 20
7.020532963036011
 30
0.0
 11
-22.57736971791634
 21
-4.979467036963988
 31
0.0
  0
LINE
  5
F10901
330
261
100
AcDbEntity
  8
Geo
100
AcDbLine
 10
-1.57736971791634
 20
7.020532963036011
 30
0.0
 11
-1.57736971791634
 21
-4.979467036963988
 31
0.0
  0
LINE
  5
F10903
330
261
100
AcDbEntity
  8
Geo
100
AcDbLine
 10
42.92263028208366
 20
7.020532963036011
 30
0.0
 11
42.92263028208366
 21
-4.979467036963988
 31
0.0
  0
LINE
  5
F10905
330
261
100
AcDbEntity
  8
Geo
100
AcDbLine
 10
43.42263028208366
 20
6.520532963036011
 30
0.0
 11
43.42263028208366
 21
-4.479467036963988
 31
0.0
  0
LWPOLYLINE
  5
F109B3
330
261
100
AcDbEntity
  8
Rahmen
100
AcDbPolyline
 90
        4
 70
     1
 43
0.0
 10
-134.650259067358
 20
99.8316062176166
 10
143.354922279793
 20
99.8316062176166
 10
143.354922279793
 20
-100.103626943005
 10
-134.650259067358
 20
-100.103626943005
  0
LWPOLYLINE
  5
F109B7
330
261
100
AcDbEntity
  8
Rahmen
100
AcDbPolyline
 90
        4
 70
     1
 43
0.0
 10
103.367875647668
 20
-97.11139896373062
 10
143.354922279793
 20
-97.11139896373062
 10
143.354922279793
 20
-100.103626943005
 10
103.367875647668
 20
-100.103626943005
  0
TEXT
  5
F109B9
330
261
100
AcDbEntity
  8
Text
100
AcDbText
 10
104.455958549223
 20
-98.11139896373061
 30
0.0
 40
0.75
  1
Ers. durch:
100
AcDbText
  0
LWPOLYLINE
  5
F109BD
330
261
100
AcDbEntity
  8
Rahmen
100
AcDbPolyline
 90
        4
 70
     1
 43
0.0
 10
63.380829015544
 20
-97.11139896373062
 10
103.367875647668
 20
-97.11139896373062
 10
103.367875647668
 20
-100.103626943005
 10
63.380829015544
 20
-100.103626943005
  0
TEXT
  5
F109BF
330
261
100
AcDbEntity
  8
Text
100
AcDbText
 10
64.46891191709839
 20
-98.11139896373061
 30
0.0
 40
0.75
  1
Ers. für:
100
AcDbText
  0
TEXT
  5
F109C1
330
261
100
AcDbEntity
  8
Text
100
AcDbText
 10
91.39896373056991
 20
-99.4715025906736
 30
0.0
 40
0.75
  1

100
AcDbText
  0
LWPOLYLINE
  5
F109C3
330
261
100
AcDbEntity
  8
Rahmen
100
AcDbPolyline
 90
        4
 70
     1
 43
0.0
 10
130.025906735751
 20
-94.119170984456
 10
143.354922279793
 20
-94.119170984456
 10
143.354922279793
 20
-97.11139896373062
 10
130.025906735751
 20
-97.11139896373062
  0
TEXT
  5
F109C5
330
261
100
AcDbEntity
  8
Text
100
AcDbText
 10
131.113989637306
 20
-95.119170984456
 30
0.0
 40
0.75
  1
Blätter
100
AcDbText
  0
TEXT
  5
F109C7
330
261
100
AcDbEntity
  8
Text
100
AcDbText
 10
141.178756476684
 20
-96.479274611399
 30
0.0
 40
0.75
  1

100
AcDbText
  0
LWPOLYLINE
  5
F109C9
330
261
100
AcDbEntity
  8
Rahmen
100
AcDbPolyline
 90
        4
 70
     1
 43
0.0
 10
130.025906735751
 20
-91.12694300518128
 10
143.354922279793
 20
-91.12694300518128
 10
143.354922279793
 20
-94.119170984456
 10
130.025906735751
 20
-94.119170984456
  0
TEXT
  5
F109CB
330
261
100
AcDbEntity
  8
Text
100
AcDbText
 10
131.113989637306
 20
-92.12694300518128
 30
0.0
 40
0.75
  1
Blatt
100
AcDbText
  0
TEXT
  5
F109CD
330
261
100
AcDbEntity
  8
Text
100
AcDbText
 10
141.178756476684
 20
-93.48704663212428
 30
0.0
 40
0.75
  1

100
AcDbText
  0
LWPOLYLINE
  5
F109CF
330
261
100
AcDbEntity
  8
Rahmen
100
AcDbPolyline
 90
        4
 70
     1
 43
0.0
 10
63.380829015544
 20
-91.12694300518128
 10
130.025906735751
 20
-91.12694300518128
 10
130.025906735751
 20
-97.11139896373062
 10
63.380829015544
 20
-97.11139896373062
  0
TEXT
  5
F109D1
330
261
100
AcDbEntity
  8
Text
100
AcDbText
 10
64.46891191709839
 20
-92.12694300518128
 30
0.0
 40
0.75
  1
Datum:
100
AcDbText
  0
TEXT
  5
F109D3
330
261
100
AcDbEntity
  8
Text
100
AcDbText
 10
91.67098445595859
 20
-95.119170984456
 30
0.0
 40
0.75
  1
17.12.2014
100
AcDbText
  0
LWPOLYLINE
  5
F109D5
330
261
100
AcDbEntity
  8
Rahmen
100
AcDbPolyline
 90
        4
 70
     1
 43
0.0
 10
63.380829015544
 20
-85.14248704663208
 10
143.354922279793
 20
-85.14248704663208
 10
143.354922279793
 20
-91.12694300518128
 10
63.380829015544
 20
-91.12694300518128
  0
TEXT
  5
F109D7
330
261
100
AcDbEntity
  8
Text
100
AcDbText
 10
-208.09585492228
 20
103.0
 30
0.0
 40
1.5
  1

100
AcDbText
  0
TEXT
  5
F109D9
330
261
100
AcDbEntity
  8
Text
100
AcDbText
 10
94.119170984456
 20
-89.01986183074269
 30
0.0
 40
2.5
  1
1735-120
100
AcDbText
  0
LWPOLYLINE
  5
F109DB
330
261
100
AcDbEntity
  8
Rahmen
100
AcDbPolyline
 90
        4
 70
     1
 43
0.0
 10
103.367875647668
 20
-79.1580310880829
 10
143.354922279793
 20
-79.1580310880829
 10
143.354922279793
 20
-85.14248704663208
 10
103.367875647668
 20
-85.14248704663208
  0
TEXT
  5
F109DD
330
261
100
AcDbEntity
  8
Text
100
AcDbText
 10
104.455958549223
 20
-80.1580310880829
 30
0.0
 40
0.75
  1
Zu bearb. Material:
100
AcDbText
  0
TEXT
  5
F109DF
330
261
100
AcDbEntity
  8
Text
100
AcDbText
 10
123.225388601036
 20
-84.5103626943005
 30
0.0
 40
0.75
  1

100
AcDbText
  0
LWPOLYLINE
  5
F109E1
330
261
100
AcDbEntity
  8
Rahmen
100
AcDbPolyline
 90
        4
 70
     1
 43
0.0
 10
63.380829015544
 20
-79.1580310880829
 10
103.367875647668
 20
-79.1580310880829
 10
103.367875647668
 20
-85.14248704663208
 10
63.380829015544
 20
-85.14248704663208
  0
TEXT
  5
F109E3
330
261
100
AcDbEntity
  8
Text
100
AcDbText
 10
64.46891191709839
 20
-80.1580310880829
 30
0.0
 40
0.75
  1
Werkstoff:
100
AcDbText
  0
TEXT
  5
F109E5
330
261
100
AcDbEntity
  8
Text
100
AcDbText
 10
83.23834196891191
 20
-84.5103626943005
 30
0.0
 40
0.75
  1

100
AcDbText
  0
LWPOLYLINE
  5
F109E7
330
261
100
AcDbEntity
  8
Rahmen
100
AcDbPolyline
 90
        4
 70
     1
 43
0.0
 10
103.367875647668
 20
-76.16580310880831
 10
143.354922279793
 20
-76.16580310880831
 10
143.354922279793
 20
-79.1580310880829
 10
103.367875647668
 20
-79.1580310880829
  0
TEXT
  5
F109E9
330
261
100
AcDbEntity
  8
Text
100
AcDbText
 10
-208.09585492228
 20
103.0
 30
0.0
 40
1.5
  1

100
AcDbText
  0
TEXT
  5
F109EB
330
261
100
AcDbEntity
  8
Text
100
AcDbText
 10
123.225388601036
 20
-78.52590673575129
 30
0.0
 40
0.75
  1

100
AcDbText
  0
LWPOLYLINE
  5
F109ED
330
261
100
AcDbEntity
  8
Rahmen
100
AcDbPolyline
 90
        4
 70
     1
 43
0.0
 10
63.380829015544
 20
-76.16580310880831
 10
103.367875647668
 20
-76.16580310880831
 10
103.367875647668
 20
-79.1580310880829
 10
63.380829015544
 20
-79.1580310880829
  0
TEXT
  5
F109EF
330
261
100
AcDbEntity
  8
Text
100
AcDbText
 10
64.46891191709839
 20
-77.1658031088083
 30
0.0
 40
0.75
  1
Maßstab:
100
AcDbText
  0
TEXT
  5
F109F1
330
261
100
AcDbEntity
  8
Text
100
AcDbText
 10
89.49481865284978
 20
-77.1658031088083
 30
0.0
 40
0.75
  1
1 : 1
100
AcDbText
  0
VIEWPORT
  5
294
102
{ACAD_XDICTIONARY
360
F10B42
102
}
330
25D
100
AcDbEntity
 67
     1
  8
0
 60
     1
100
AcDbViewport
 10
0.0
 20
0.0
 30
0.0
 40
10.0
 41
10.0
 68
    -1
 69
     1
 12
0.0
 22
0.0
 13
0.0
 23
0.0
 14
1.0
 24
1.0
 15
0.0
 25
0.0
 16
0.0
 26
0.0
 36
1.0
 17
0.0
 27
0.0
 37
0.0
 42
0.0
 43
0.0
 44
0.0
 45
10.0
 50
0.0
 51
0.0000000000007958
 72
   100
 90
    32800
  1

281
     0
 71
     0
 74
     0
110
0.0
120
0.0
130
0.0
111
1.0
121
0.0
131
0.0
112
0.0
122
1.0
132
0.0
 79
     0
146
0.0
1001
VD_INVISIBLE_NOT_FOR_READ
1000
VD_INVISIBLE_NOT_FOR_READ
1001
GENIUS_GENSCREG_15
1000
PF
1040
1.0
1000
DF
1040
1.0
1000
MIN
1011
-5.0
1021
-5.0
1031
0.0
1000
MAX
1011
5.0
1021
5.0
1031
0.0
1000
FLAGS
1070
     4
1001
GENIUS_GENODEF_13
1002
{
1000
HIER
1070
     0
1002
}
1002
{
1000
MANEDIT
1070
     0
1002
}
1002
{
1000
NOSEL
1070
     0
1002
}
1002
{
1000
BEHIND
1070
     0
1002
}
1002
{
1000
OTHER
1070
     0
1002
}
1002
{
1000
REACTOR
1002
}
1001
GENIUS_GENOBJ-N-SDF_13
1002
{
1000
OWNER
1000
GEN
1002
}
  0
VIEWPORT
  5
295
102
{ACAD_XDICTIONARY
360
F10B44
102
}
330
25D
100
AcDbEntity
 67
     1
  8
0
 60
     1
100
AcDbViewport
 10
0.0
 20
0.0
 30
0.0
 40
10.0
 41
10.0
 68
     0
 69
     2
 12
0.0
 22
0.0
 13
0.0
 23
0.0
 14
1.0
 24
1.0
 15
0.0
 25
0.0
 16
0.0
 26
0.0
 36
1.0
 17
0.0
 27
0.0
 37
0.0
 42
0.0
 43
0.0
 44
0.0
 45
10.0
 50
0.0
 51
0.0000000000007958
 72
   100
 90
   163872
  1

281
     0
 71
     0
 74
     0
110
0.0
120
0.0
130
0.0
111
1.0
121
0.0
131
0.0
112
0.0
122
1.0
132
0.0
 79
     0
146
0.0
1001
VD_INVISIBLE_NOT_FOR_READ
1000
VD_INVISIBLE_NOT_FOR_READ
1001
GENIUS_GENSCREG_15
1000
PF
1040
1.0
1000
DF
1040
1.0
1000
MIN
1011
-5.0
1021
-5.0
1031
0.0
1000
MAX
1011
5.0
1021
5.0
1031
0.0
1000
FLAGS
1070
     4
1001
GENIUS_GENODEF_13
1002
{
1000
HIER
1070
     0
1002
}
1002
{
1000
MANEDIT
1070
     0
1002
}
1002
{
1000
NOSEL
1070
     0
1002
}
1002
{
1000
BEHIND
1070
     0
1002
}
1002
{
1000
OTHER
1070
     0
1002
}
1002
{
1000
REACTOR
1002
}
1001
GENIUS_GENOBJ-N-SDF_13
1002
{
1000
OWNER
1000
GEN
1002
}
  0
ENDSEC
  0
SECTION
  2
OBJECTS
  0
DICTIONARY
  5
13
330
0
100
AcDbDictionary
281
     1
  3
ACAD_COLOR
350
FA7
  3
ACAD_GROUP
350
14
  3
ACAD_LAYOUT
350
FCF
  3
ACAD_MATERIAL
350
F7A
  3
ACAD_MLEADERSTYLE
350
FCD
  3
ACAD_MLINESTYLE
350
16
  3
ACAD_PLOTSETTINGS
350
17
  3
ACAD_PLOTSTYLENAME
350
18
  3
ACAD_SCALELIST
350
FAB
  3
ACAD_TABLESTYLE
350
FA8
  3
ACAD_VISUALSTYLE
350
F93
  3
ACDB_RECOMPOSE_DATA
350
F10B40
  3
AcDbVariableDictionary
350
F10B37
  3
AcmDictionary
350
F10A48
  3
AMG
350
F109FC
  3
AMGSNAPSETTINGS
350
F10A89
  3
DWGPROPS
350
F10B41
  0
DICTIONARY
  5
F10B2D
330
252
100
AcDbDictionary
280
     1
281
     1
  3
ADSK_XREC_LAYER_RECONCILED
360
F10B2E
  0
DICTIONARY
  5
F10B2F
330
23F
100
AcDbDictionary
280
     1
281
     1
  3
ADSK_XREC_LAYER_RECONCILED
360
F10B30
  0
DICTIONARY
  5
F10B31
330
240
100
AcDbDictionary
280
     1
281
     1
  3
ADSK_XREC_LAYER_RECONCILED
360
F10B32
  0
DICTIONARY
  5
F10B33
330
241
100
AcDbDictionary
280
     1
281
     1
  3
ADSK_XREC_LAYER_RECONCILED
360
F10B34
  0
DICTIONARY
  5
F10B35
330
57E
100
AcDbDictionary
280
     1
281
     1
  3
ADSK_XREC_LAYER_RECONCILED
360
F10B36
  0
DICTIONARY
  5
F10B46
330
296
100
AcDbDictionary
280
     1
281
     1
  3
ACAD_XREC_ROUNDTRIP
360
F10B47
  0
DICTIONARY
  5
F10B48
330
297
100
AcDbDictionary
280
     1
281
     1
  3
ACAD_XREC_ROUNDTRIP
360
F10B49
  0
DICTIONARY
  5
F10005
330
F1002B
100
AcDbDictionary
280
     1
281
     1
  3
ACAD_MTEXT_2008_RT
360
F10006
  3
ACAD_MTEXT_RT
360
F10B75
  0
DICTIONARY
  5
F1001E
330
F10049
100
AcDbDictionary
280
     1
281
     1
  3
ACAD_MTEXT_2008_RT
360
F1001F
  0
DICTIONARY
  5
F10B42
330
294
100
AcDbDictionary
280
     1
281
     1
  3
ACAD_XREC_ROUNDTRIP
360
F10B43
  0
DICTIONARY
  5
F10B44
330
295
100
AcDbDictionary
280
     1
281
     1
  3
ACAD_XREC_ROUNDTRIP
360
F10B45
  0
DICTIONARY
  5
FA7
102
{ACAD_REACTORS
330
13
102
}
330
13
100
AcDbDictionary
281
     1
  0
DICTIONARY
  5
14
330
13
100
AcDbDictionary
281
     1
  0
DICTIONARY
  5
FCF
102
{ACAD_REACTORS
330
13
102
}
330
13
100
AcDbDictionary
281
     1
  3
Layout1
350
FD1
  3
Model
350
FD0
  0
DICTIONARY
  5
F7A
102
{ACAD_REACTORS
330
13
102
}
330
13
100
AcDbDictionary
281
     1
  3
ByBlock
350
F83
  3
ByLayer
350
F7B
  3
Global
350
F8B
  0
DICTIONARY
  5
FCD
102
{ACAD_REACTORS
330
13
102
}
330
13
100
AcDbDictionary
281
     1
  3
Standard
350
FCE
  0
DICTIONARY
  5
16
330
13
100
AcDbDictionary
281
     1
  3
Standard
350
FAA
  0
DICTIONARY
  5
17
102
{ACAD_REACTORS
330
13
102
}
330
13
100
AcDbDictionary
281
     1
  0
ACDBDICTIONARYWDFLT
  5
18
102
{ACAD_REACTORS
330
13
102
}
330
13
100
AcDbDictionary
281
     1
  3
Normal
350
19
100
AcDbDictionaryWithDefault
340
19
  0
DICTIONARY
  5
FAB
102
{ACAD_REACTORS
330
13
102
}
330
13
100
AcDbDictionary
281
     1
  3
A0
350
FAC
  3
A1
350
FAD
  3
A2
350
FAE
  3
A3
350
FAF
  3
A4
350
FB0
  3
A5
350
FB1
  3
A6
350
FB2
  3
A7
350
FB3
  3
A8
350
FB4
  3
A9
350
FB5
  3
B0
350
FB6
  3
B1
350
FB7
  3
B2
350
FB8
  3
B3
350
FB9
  3
B4
350
FBA
  3
B5
350
FBB
  3
B6
350
FBC
  3
B7
350
FBD
  3
B8
350
FBE
  3
B9
350
FBF
  3
C0
350
FC0
  3
C1
350
FC1
  3
C2
350
FC2
  3
C3
350
FC3
  3
C4
350
FC4
  3
C5
350
FC5
  3
C6
350
FC6
  3
C7
350
FC7
  3
C8
350
FC8
  3
C9
350
FC9
  3
D0
350
FCA
  3
D1
350
FCB
  3
D2
350
FCC
  0
DICTIONARY
  5
FA8
102
{ACAD_REACTORS
330
13
102
}
330
13
100
AcDbDictionary
281
     1
  3
Standard
350
FA9
  0
DICTIONARY
  5
F93
102
{ACAD_REACTORS
330
13
102
}
330
13
100
AcDbDictionary
281
     1
  3
2dWireframe
350
F99
  3
3D Hidden
350
F9B
  3
3dWireframe
350
F9A
  3
Basic
350
F98
  3
Brighten
350
F9F
  3
ColorChange
350
FA3
  3
Conceptual
350
F9C
  3
Dim
350
F9E
  3
EdgeColorOff
350
FA6
  3
Facepattern
350
FA2
  3
Flat
350
F94
  3
FlatWithEdges
350
F95
  3
Gouraud
350
F96
  3
GouraudWithEdges
350
F97
  3
Hidden
350
F109F4
  3
JitterOff
350
FA4
  3
Linepattern
350
FA1
  3
OverhangOff
350
FA5
  3
Realistic
350
F9D
  3
Shaded
350
F109F9
  3
Shaded with edges
350
F109F8
  3
Shades of Gray
350
F109F5
  3
Sketchy
350
F109F6
  3
Thicken
350
FA0
  3
Wireframe
350
F109F3
  3
X-Ray
350
F109F7
  0
XRECORD
  5
F10B40
102
{ACAD_REACTORS
330
13
102
}
330
13
100
AcDbXrecord
280
     1
 90
        1
330
FA9
  0
DICTIONARY
  5
F10B37
102
{ACAD_REACTORS
330
13
102
}
330
13
100
AcDbDictionary
281
     1
  3
CANNOSCALE
350
F10B3A
  3
CMLEADERSTYLE
350
F10B39
  3
CTABLESTYLE
350
F10B38
  3
DIMASSOC
350
F10B3D
  3
INDEXCTL
350
F10B3C
  3
SORTENTS
350
F10B3B
  3
XCLIPFRAME
350
F10B3E
  0
DICTIONARY
  5
F10A48
102
{ACAD_REACTORS
330
13
102
}
330
13
100
AcDbDictionary
281
     1
  3
AcmStdDictionary
350
F10A53
  0
DICTIONARY
  5
F109FC
102
{ACAD_REACTORS
330
13
102
}
330
13
100
AcDbDictionary
281
     1
  0
DICTIONARY
  5
F10A89
102
{ACAD_REACTORS
330
13
102
}
330
13
100
AcDbDictionary
281
     1
  0
XRECORD
  5
F10B41
102
{ACAD_REACTORS
330
13
102
}
330
13
100
AcDbXrecord
280
     1
  1
DWGPROPS COOKIE
  2

  3

  4

  6

  7

  8
Steigner
  9

300
=
301
=
302
=
303
=
304
=
305
=
306
=
307
=
308
=
309
=
 40
0.0009892824074074
 41
2457011.414439977
 42
2457011.415427014
  1

 90
        0
  0
XRECORD
  5
F10B2E
102
{ACAD_REACTORS
330
F10B2D
102
}
330
F10B2D
100
AcDbXrecord
280
     1
290
     1
  0
XRECORD
  5
F10B30
102
{ACAD_REACTORS
330
F10B2F
102
}
330
F10B2F
100
AcDbXrecord
280
     1
290
     1
  0
XRECORD
  5
F10B32
102
{ACAD_REACTORS
330
F10B31
102
}
330
F10B31
100
AcDbXrecord
280
     1
290
     1
  0
XRECORD
  5
F10B34
102
{ACAD_REACTORS
330
F10B33
102
}
330
F10B33
100
AcDbXrecord
280
     1
290
     1
  0
XRECORD
  5
F10B36
102
{ACAD_REACTORS
330
F10B35
102
}
330
F10B35
100
AcDbXrecord
280
     1
290
     1
  0
XRECORD
  5
F10B47
102
{ACAD_REACTORS
330
F10B46
102
}
330
F10B46
100
AcDbXrecord
280
     1
102
SHADEPLOT
 70
     0
  0
XRECORD
  5
F10B49
102
{ACAD_REACTORS
330
F10B48
102
}
330
F10B48
100
AcDbXrecord
280
     1
102
SHADEPLOT
 70
     0
  0
XRECORD
  5
F10006
102
{ACAD_REACTORS
330
F10005
102
}
330
F10005
100
AcDbXrecord
280
     1
 40
48458.0
  1
\A1;0.15 x 45°
  0
XRECORD
  5
F10B75
102
{ACAD_REACTORS
330
F10005
102
}
330
F10005
100
AcDbXrecord
280
     1
 40
12186.0
  1
\A1;0.15 x 45°
  0
XRECORD
  5
F1001F
102
{ACAD_REACTORS
330
F1001E
102
}
330
F1001E
100
AcDbXrecord
280
     1
 40
48458.0
  1
\A1;(42.7)
  0
XRECORD
  5
F10B43
102
{ACAD_REACTORS
330
F10B42
102
}
330
F10B42
100
AcDbXrecord
280
     1
102
SHADEPLOT
 70
     0
  0
XRECORD
  5
F10B45
102
{ACAD_REACTORS
330
F10B44
102
}
330
F10B44
100
AcDbXrecord
280
     1
102
SHADEPLOT
 70
     0
  0
LAYOUT
  5
FD1
102
{ACAD_XDICTIONARY
360
F10B73
102
}
102
{ACAD_REACTORS
330
FCF
102
}
330
FCF
100
AcDbPlotSettings
  1

  2
Microsoft XPS Document Writer
  4

  6

 40
0.0
 41
0.0
 42
0.0
 43
0.0
 44
0.0
 45
0.0
 46
0.0
 47
0.0
 48
0.0
 49
0.0
140
0.0
141
0.0
142
1.0
143
1.0
 70
   688
 72
     0
 73
     0
 74
     5
  7

 75
    16
147
1.0
148
0.0
149
0.0
100
AcDbLayout
  1
Layout1
 70
     1
 71
     1
 10
0.0
 20
0.0
 11
12.0
 21
9.0
 12
0.0
 22
0.0
 32
0.0
 14
1.000000000000000E+20
 24
1.000000000000000E+20
 34
1.000000000000000E+20
 15
-1.000000000000000E+20
 25
-1.000000000000000E+20
 35
-1.000000000000000E+20
146
0.0
 13
0.0
 23
0.0
 33
0.0
 16
1.0
 26
0.0
 36
0.0
 17
0.0
 27
1.0
 37
0.0
 76
     0
330
25D
  0
LAYOUT
  5
FD0
102
{ACAD_XDICTIONARY
360
F10B71
102
}
102
{ACAD_REACTORS
330
FCF
102
}
330
FCF
100
AcDbPlotSettings
  1

  2
Microsoft XPS Document Writer
  4

  6

 40
0.0
 41
0.0
 42
0.0
 43
0.0
 44
0.0
 45
0.0
 46
0.0
 47
0.0
 48
0.0
 49
0.0
140
0.0
141
0.0
142
1.0
143
1.0
 70
  1712
 72
     0
 73
     0
 74
     0
  7

 75
     0
147
1.0
148
0.0
149
0.0
100
AcDbLayout
  1
Model
 70
     1
 71
     0
 10
0.0
 20
0.0
 11
12.0
 21
9.0
 12
0.0
 22
0.0
 32
0.0
 14
0.0
 24
0.0
 34
0.0
 15
0.0
 25
0.0
 35
0.0
146
0.0
 13
0.0
 23
0.0
 33
0.0
 16
1.0
 26
0.0
 36
0.0
 17
0.0
 27
1.0
 37
0.0
 76
     0
330
261
331
26B
  0
MATERIAL
  5
F83
102
{ACAD_XDICTIONARY
360
F84
102
}
102
{ACAD_REACTORS
330
F7A
102
}
330
F7A
100
AcDbMaterial
  1
ByBlock
 72
     0
 43
0.0208333333333333
 43
0.0
 43
0.0
 43
0.0
 43
0.0
 43
0.0208333333333333
 43
0.0
 43
0.0
 43
0.0
 43
0.0
 43
1.0
 43
0.0
 43
0.0
 43
0.0
 43
0.0
 43
1.0
 77
     0
 47
0.0208333333333333
 47
0.0
 47
0.0
 47
0.0
 47
0.0
 47
0.0208333333333333
 47
0.0
 47
0.0
 47
0.0
 47
0.0
 47
1.0
 47
0.0
 47
0.0
 47
0.0
 47
0.0
 47
1.0
171
     0
 49
0.0208333333333333
 49
0.0
 49
0.0
 49
0.0
 49
0.0
 49
0.0208333333333333
 49
0.0
 49
0.0
 49
0.0
 49
0.0
 49
1.0
 49
0.0
 49
0.0
 49
0.0
 49
0.0
 49
1.0
175
     0
142
0.0208333333333333
142
0.0
142
0.0
142
0.0
142
0.0
142
0.0208333333333333
142
0.0
142
0.0
142
0.0
142
0.0
142
1.0
142
0.0
142
0.0
142
0.0
142
0.0
142
1.0
179
     0
144
0.0208333333333333
144
0.0
144
0.0
144
0.0
144
0.0
144
0.0208333333333333
144
0.0
144
0.0
144
0.0
144
0.0
144
1.0
144
0.0
144
0.0
144
0.0
144
0.0
144
1.0
147
0.0208333333333333
147
0.0
147
0.0
147
0.0
147
0.0
147
0.0208333333333333
147
0.0
147
0.0
147
0.0
147
0.0
147
1.0
147
0.0
147
0.0
147
0.0
147
0.0
147
1.0
  0
MATERIAL
  5
F7B
102
{ACAD_XDICTIONARY
360
F7C
102
}
102
{ACAD_REACTORS
330
F7A
102
}
330
F7A
100
AcDbMaterial
  1
ByLayer
 72
     0
 43
0.0208333333333333
 43
0.0
 43
0.0
 43
0.0
 43
0.0
 43
0.0208333333333333
 43
0.0
 43
0.0
 43
0.0
 43
0.0
 43
1.0
 43
0.0
 43
0.0
 43
0.0
 43
0.0
 43
1.0
 77
     0
 47
0.0208333333333333
 47
0.0
 47
0.0
 47
0.0
 47
0.0
 47
0.0208333333333333
 47
0.0
 47
0.0
 47
0.0
 47
0.0
 47
1.0
 47
0.0
 47
0.0
 47
0.0
 47
0.0
 47
1.0
171
     0
 49
0.0208333333333333
 49
0.0
 49
0.0
 49
0.0
 49
0.0
 49
0.0208333333333333
 49
0.0
 49
0.0
 49
0.0
 49
0.0
 49
1.0
 49
0.0
 49
0.0
 49
0.0
 49
0.0
 49
1.0
175
     0
142
0.0208333333333333
142
0.0
142
0.0
142
0.0
142
0.0
142
0.0208333333333333
142
0.0
142
0.0
142
0.0
142
0.0
142
1.0
142
0.0
142
0.0
142
0.0
142
0.0
142
1.0
179
     0
144
0.0208333333333333
144
0.0
144
0.0
144
0.0
144
0.0
144
0.0208333333333333
144
0.0
144
0.0
144
0.0
144
0.0
144
1.0
144
0.0
144
0.0
144
0.0
144
0.0
144
1.0
147
0.0208333333333333
147
0.0
147
0.0
147
0.0
147
0.0
147
0.0208333333333333
147
0.0
147
0.0
147
0.0
147
0.0
147
1.0
147
0.0
147
0.0
147
0.0
147
0.0
147
1.0
  0
MATERIAL
  5
F8B
102
{ACAD_XDICTIONARY
360
F8C
102
}
102
{ACAD_REACTORS
330
F7A
102
}
330
F7A
100
AcDbMaterial
  1
Global
 72
     0
 43
0.0208333333333333
 43
0.0
 43
0.0
 43
0.0
 43
0.0
 43
0.0208333333333333
 43
0.0
 43
0.0
 43
0.0
 43
0.0
 43
1.0
 43
0.0
 43
0.0
 43
0.0
 43
0.0
 43
1.0
 77
     0
 47
0.0208333333333333
 47
0.0
 47
0.0
 47
0.0
 47
0.0
 47
0.0208333333333333
 47
0.0
 47
0.0
 47
0.0
 47
0.0
 47
1.0
 47
0.0
 47
0.0
 47
0.0
 47
0.0
 47
1.0
171
     0
 49
0.0208333333333333
 49
0.0
 49
0.0
 49
0.0
 49
0.0
 49
0.0208333333333333
 49
0.0
 49
0.0
 49
0.0
 49
0.0
 49
1.0
 49
0.0
 49
0.0
 49
0.0
 49
0.0
 49
1.0
175
     0
142
0.0208333333333333
142
0.0
142
0.0
142
0.0
142
0.0
142
0.0208333333333333
142
0.0
142
0.0
142
0.0
142
0.0
142
1.0
142
0.0
142
0.0
142
0.0
142
0.0
142
1.0
179
     0
144
0.0208333333333333
144
0.0
144
0.0
144
0.0
144
0.0
144
0.0208333333333333
144
0.0
144
0.0
144
0.0
144
0.0
144
1.0
144
0.0
144
0.0
144
0.0
144
0.0
144
1.0
147
0.0208333333333333
147
0.0
147
0.0
147
0.0
147
0.0
147
0.0208333333333333
147
0.0
147
0.0
147
0.0
147
0.0
147
1.0
147
0.0
147
0.0
147
0.0
147
0.0
147
1.0
  0
MLEADERSTYLE
  5
FCE
102
{ACAD_REACTORS
330
FCD
102
}
330
FCD
100
AcDbMLeaderStyle
170
     2
171
     1
172
     0
 90
        2
 40
0.0
 41
0.0
173
     1
 91
-1056964608
340
256
 92
       -2
290
     1
 42
0.09
291
     1
 43
0.36
  3
Standard
 44
0.18
300

342
253
174
     1
178
     6
175
     1
176
     0
 93
-1056964608
 45
0.18
292
     0
297
     0
 46
0.18
 94
-1056964608
 47
1.0
 49
1.0
140
1.0
293
     1
141
0.0
294
     1
177
     0
142
1.0
295
     0
296
     0
143
0.125
1001
ACAD_MLEADERVER
1070
     2
  0
MLINESTYLE
  5
FAA
102
{ACAD_REACTORS
330
16
102
}
330
16
100
AcDbMlineStyle
  2
STANDARD
 70
     0
  3

 62
   256
 51
90.0
 52
90.0
 71
     2
 49
0.5
 62
   256
  6
BYLAYER
 49
-0.5
 62
   256
  6
BYLAYER
  0
ACDBPLACEHOLDER
  5
19
102
{ACAD_REACTORS
330
18
102
}
330
18
  0
SCALE
  5
FAC
102
{ACAD_REACTORS
330
FAB
102
}
330
FAB
100
AcDbScale
 70
     0
300
1:1
140
1.0
141
1.0
290
     1
  0
SCALE
  5
FAD
102
{ACAD_REACTORS
330
FAB
102
}
330
FAB
100
AcDbScale
 70
     0
300
1:2
140
1.0
141
2.0
290
     0
  0
SCALE
  5
FAE
102
{ACAD_REACTORS
330
FAB
102
}
330
FAB
100
AcDbScale
 70
     0
300
1:4
140
1.0
141
4.0
290
     0
  0
SCALE
  5
FAF
102
{ACAD_REACTORS
330
FAB
102
}
330
FAB
100
AcDbScale
 70
     0
300
1:5
140
1.0
141
5.0
290
     0
  0
SCALE
  5
FB0
102
{ACAD_REACTORS
330
FAB
102
}
330
FAB
100
AcDbScale
 70
     0
300
1:8
140
1.0
141
8.0
290
     0
  0
SCALE
  5
FB1
102
{ACAD_REACTORS
330
FAB
102
}
330
FAB
100
AcDbScale
 70
     0
300
1:10
140
1.0
141
10.0
290
     0
  0
SCALE
  5
FB2
102
{ACAD_REACTORS
330
FAB
102
}
330
FAB
100
AcDbScale
 70
     0
300
1:16
140
1.0
141
16.0
290
     0
  0
SCALE
  5
FB3
102
{ACAD_REACTORS
330
FAB
102
}
330
FAB
100
AcDbScale
 70
     0
300
1:20
140
1.0
141
20.0
290
     0
  0
SCALE
  5
FB4
102
{ACAD_REACTORS
330
FAB
102
}
330
FAB
100
AcDbScale
 70
     0
300
1:30
140
1.0
141
30.0
290
     0
  0
SCALE
  5
FB5
102
{ACAD_REACTORS
330
FAB
102
}
330
FAB
100
AcDbScale
 70
     0
300
1:40
140
1.0
141
40.0
290
     0
  0
SCALE
  5
FB6
102
{ACAD_REACTORS
330
FAB
102
}
330
FAB
100
AcDbScale
 70
     0
300
1:50
140
1.0
141
50.0
290
     0
  0
SCALE
  5
FB7
102
{ACAD_REACTORS
330
FAB
102
}
330
FAB
100
AcDbScale
 70
     0
300
1:100
140
1.0
141
100.0
290
     0
  0
SCALE
  5
FB8
102
{ACAD_REACTORS
330
FAB
102
}
330
FAB
100
AcDbScale
 70
     0
300
2:1
140
2.0
141
1.0
290
     0
  0
SCALE
  5
FB9
102
{ACAD_REACTORS
330
FAB
102
}
330
FAB
100
AcDbScale
 70
     0
300
4:1
140
4.0
141
1.0
290
     0
  0
SCALE
  5
FBA
102
{ACAD_REACTORS
330
FAB
102
}
330
FAB
100
AcDbScale
 70
     0
300
8:1
140
8.0
141
1.0
290
     0
  0
SCALE
  5
FBB
102
{ACAD_REACTORS
330
FAB
102
}
330
FAB
100
AcDbScale
 70
     0
300
10:1
140
10.0
141
1.0
290
     0
  0
SCALE
  5
FBC
102
{ACAD_REACTORS
330
FAB
102
}
330
FAB
100
AcDbScale
 70
     0
300
100:1
140
100.0
141
1.0
290
     0
  0
SCALE
  5
FBD
102
{ACAD_REACTORS
330
FAB
102
}
330
FAB
100
AcDbScale
 70
     0
300
1/128" = 1'-0"
140
0.0078125
141
12.0
290
     0
  0
SCALE
  5
FBE
102
{ACAD_REACTORS
330
FAB
102
}
330
FAB
100
AcDbScale
 70
     0
300
1/64" = 1'-0"
140
0.015625
141
12.0
290
     0
  0
SCALE
  5
FBF
102
{ACAD_REACTORS
330
FAB
102
}
330
FAB
100
AcDbScale
 70
     0
300
1/32" = 1'-0"
140
0.03125
141
12.0
290
     0
  0
SCALE
  5
FC0
102
{ACAD_REACTORS
330
FAB
102
}
330
FAB
100
AcDbScale
 70
     0
300
1/16" = 1'-0"
140
0.0625
141
12.0
290
     0
  0
SCALE
  5
FC1
102
{ACAD_REACTORS
330
FAB
102
}
330
FAB
100
AcDbScale
 70
     0
300
3/32" = 1'-0"
140
0.09375
141
12.0
290
     0
  0
SCALE
  5
FC2
102
{ACAD_REACTORS
330
FAB
102
}
330
FAB
100
AcDbScale
 70
     0
300
1/8" = 1'-0"
140
0.125
141
12.0
290
     0
  0
SCALE
  5
FC3
102
{ACAD_REACTORS
330
FAB
102
}
330
FAB
100
AcDbScale
 70
     0
300
3/16" = 1'-0"
140
0.1875
141
12.0
290
     0
  0
SCALE
  5
FC4
102
{ACAD_REACTORS
330
FAB
102
}
330
FAB
100
AcDbScale
 70
     0
300
1/4" = 1'-0"
140
0.25
141
12.0
290
     0
  0
SCALE
  5
FC5
102
{ACAD_REACTORS
330
FAB
102
}
330
FAB
100
AcDbScale
 70
     0
300
3/8" = 1'-0"
140
0.375
141
12.0
290
     0
  0
SCALE
  5
FC6
102
{ACAD_REACTORS
330
FAB
102
}
330
FAB
100
AcDbScale
 70
     0
300
1/2" = 1'-0"
140
0.5
141
12.0
290
     0
  0
SCALE
  5
FC7
102
{ACAD_REACTORS
330
FAB
102
}
330
FAB
100
AcDbScale
 70
     0
300
3/4" = 1'-0"
140
0.75
141
12.0
290
     0
  0
SCALE
  5
FC8
102
{ACAD_REACTORS
330
FAB
102
}
330
FAB
100
AcDbScale
 70
     0
300
1" = 1'-0"
140
1.0
141
12.0
290
     0
  0
SCALE
  5
FC9
102
{ACAD_REACTORS
330
FAB
102
}
330
FAB
100
AcDbScale
 70
     0
300
1-1/2" = 1'-0"
140
1.5
141
12.0
290
     0
  0
SCALE
  5
FCA
102
{ACAD_REACTORS
330
FAB
102
}
330
FAB
100
AcDbScale
 70
     0
300
3" = 1'-0"
140
3.0
141
12.0
290
     0
  0
SCALE
  5
FCB
102
{ACAD_REACTORS
330
FAB
102
}
330
FAB
100
AcDbScale
 70
     0
300
6" = 1'-0"
140
6.0
141
12.0
290
     0
  0
SCALE
  5
FCC
102
{ACAD_REACTORS
330
FAB
102
}
330
FAB
100
AcDbScale
 70
     0
300
1'-0" = 1'-0"
140
12.0
141
12.0
290
     0
  0
TABLESTYLE
  5
FA9
102
{ACAD_XDICTIONARY
360
FF8
102
}
102
{ACAD_REACTORS
330
FA8
102
}
330
FA8
100
AcDbTableStyle
  3
Standard
 70
     0
 71
     0
 40
0.06
 41
0.06
280
     0
281
     0
  7
Standard
140
0.18
170
     2
 62
     0
 63
     7
283
     0
274
    -2
284
     1
 64
     0
275
    -2
285
     1
 65
     0
276
    -2
286
     1
 66
     0
277
    -2
287
     1
 67
     0
278
    -2
288
     1
 68
     0
279
    -2
289
     1
 69
     0
  7
Standard
140
0.25
170
     5
 62
     0
 63
     7
283
     0
274
    -2
284
     1
 64
     0
275
    -2
285
     1
 65
     0
276
    -2
286
     1
 66
     0
277
    -2
287
     1
 67
     0
278
    -2
288
     1
 68
     0
279
    -2
289
     1
 69
     0
  7
Standard
140
0.18
170
     5
 62
     0
 63
     7
283
     0
274
    -2
284
     1
 64
     0
275
    -2
285
     1
 65
     0
276
    -2
286
     1
 66
     0
277
    -2
287
     1
 67
     0
278
    -2
288
     1
 68
     0
279
    -2
289
     1
 69
     0
  0
VISUALSTYLE
  5
F99
102
{ACAD_XDICTIONARY
360
F10B54
102
}
102
{ACAD_REACTORS
330
F93
102
}
330
F93
100
AcDbVisualStyle
  2

 70
     4
 71
     0
 72
     2
 73
     0
 90
        0
 40
-0.6
 41
-30.0
 62
     5
 63
     7
 74
     1
 91
        4
 64
     7
 65
   257
 75
     1
175
     1
 42
1.0
 92
        0
 66
   257
 43
1.0
 76
     1
 77
     6
 78
     2
 67
     7
 79
     5
170
     0
171
     0
290
     0
174
     0
 93
        1
 44
0.0
173
     0
291
     0
 45
0.0
1001
ACAD
1000
AcDbSavedByObjectVersion
1070
     0
  0
VISUALSTYLE
  5
F9B
102
{ACAD_XDICTIONARY
360
F10B58
102
}
102
{ACAD_REACTORS
330
F93
102
}
330
F93
100
AcDbVisualStyle
  2

 70
     6
 71
     1
 72
     2
 73
     2
 90
        0
 40
-0.6
 41
-30.0
 62
     5
 63
     7
 74
     2
 91
        2
 64
     7
 65
   257
 75
     2
175
     1
 42
179.0
 92
        0
 66
   257
 43
1.0
 76
     1
 77
     6
 78
     2
 67
     7
 79
     3
170
     0
171
     0
290
     0
174
     0
 93
        1
 44
0.0
173
     0
291
     0
 45
0.0
1001
ACAD
1000
AcDbSavedByObjectVersion
1070
     0
  0
VISUALSTYLE
  5
F9A
102
{ACAD_XDICTIONARY
360
F10B56
102
}
102
{ACAD_REACTORS
330
F93
102
}
330
F93
100
AcDbVisualStyle
  2

 70
     5
 71
     0
 72
     2
 73
     0
 90
        0
 40
-0.6
 41
-30.0
 62
     5
 63
     7
 74
     1
 91
        4
 64
     7
 65
   257
 75
     1
175
     1
 42
1.0
 92
        0
 66
   257
 43
1.0
 76
     1
 77
     6
 78
     2
 67
     7
 79
     5
170
     0
171
     0
290
     0
174
     0
 93
        1
 44
0.0
173
     0
291
     0
 45
0.0
1001
ACAD
1000
AcDbSavedByObjectVersion
1070
     0
  0
VISUALSTYLE
  5
F98
102
{ACAD_XDICTIONARY
360
F10B52
102
}
102
{ACAD_REACTORS
330
F93
102
}
330
F93
100
AcDbVisualStyle
  2

 70
     7
 71
     1
 72
     0
 73
     1
 90
        0
 40
-0.6
 41
-30.0
 62
     5
 63
     7
 74
     0
 91
        4
 64
     7
 65
   257
 75
     1
175
     1
 42
1.0
 92
        8
 66
     7
 43
1.0
 76
     1
 77
     6
 78
     2
 67
     7
 79
     5
170
     0
171
     0
290
     0
174
     0
 93
        1
 44
0.0
173
     0
291
     1
 45
0.0
1001
ACAD
1000
AcDbSavedByObjectVersion
1070
     0
  0
VISUALSTYLE
  5
F9F
102
{ACAD_XDICTIONARY
360
F10B60
102
}
102
{ACAD_REACTORS
330
F93
102
}
330
F93
100
AcDbVisualStyle
  2

 70
    12
 71
     2
 72
     2
 73
     0
 90
        0
 40
-0.6
 41
-30.0
 62
     5
 63
     7
 74
     1
 91
        4
 64
     7
 65
   257
 75
     1
175
     1
 42
1.0
 92
        8
 66
     7
 43
1.0
 76
     1
 77
     6
 78
     2
 67
     7
 79
     5
170
     0
171
     0
290
     0
174
     0
 93
        1
 44
50.0
173
     0
291
     1
 45
0.0
1001
ACAD
1000
AcDbSavedByObjectVersion
1070
     0
  0
VISUALSTYLE
  5
FA3
102
{ACAD_XDICTIONARY
360
F10B68
102
}
102
{ACAD_REACTORS
330
F93
102
}
330
F93
100
AcDbVisualStyle
  2

 70
    16
 71
     2
 72
     2
 73
     3
 90
        0
 40
-0.6
 41
-30.0
 62
     5
 63
     8
 74
     1
 91
        4
 64
     7
 65
   257
 75
     1
175
     1
 42
1.0
 92
        8
 66
     8
 43
1.0
 76
     1
 77
     6
 78
     2
 67
     7
 79
     5
170
     0
171
     0
290
     0
174
     0
 93
        1
 44
0.0
173
     0
291
     1
 45
0.0
1001
ACAD
1000
AcDbSavedByObjectVersion
1070
     0
  0
VISUALSTYLE
  5
F9C
102
{ACAD_XDICTIONARY
360
F10B5A
102
}
102
{ACAD_REACTORS
330
F93
102
}
330
F93
100
AcDbVisualStyle
  2

 70
     9
 71
     3
 72
     2
 73
     0
 90
        0
 40
-0.6
 41
-30.0
 62
     5
 63
     7
 74
     2
 91
        2
 64
     7
 65
   257
 75
     1
175
     1
 42
179.0
 92
        8
 66
     7
 43
1.0
 76
     1
 77
     6
 78
     2
 67
     7
 79
     3
170
     0
171
     0
290
     0
174
     0
 93
        1
 44
0.0
173
     0
291
     0
 45
0.0
1001
ACAD
1000
AcDbSavedByObjectVersion
1070
     0
  0
VISUALSTYLE
  5
F9E
102
{ACAD_XDICTIONARY
360
F10B5E
102
}
102
{ACAD_REACTORS
330
F93
102
}
330
F93
100
AcDbVisualStyle
  2

 70
    11
 71
     2
 72
     2
 73
     0
 90
        0
 40
-0.6
 41
-30.0
 62
     5
 63
     7
 74
     1
 91
        4
 64
     7
 65
   257
 75
     1
175
     1
 42
1.0
 92
        8
 66
     7
 43
1.0
 76
     1
 77
     6
 78
     2
 67
     7
 79
     5
170
     0
171
     0
290
     0
174
     0
 93
        1
 44
-50.0
173
     0
291
     1
 45
0.0
1001
ACAD
1000
AcDbSavedByObjectVersion
1070
     0
  0
VISUALSTYLE
  5
FA6
102
{ACAD_XDICTIONARY
360
F10B6E
102
}
102
{ACAD_REACTORS
330
F93
102
}
330
F93
100
AcDbVisualStyle
  2

 70
    22
 71
     2
 72
     2
 73
     0
 90
        0
 40
-0.6
 41
-30.0
 62
     5
 63
     7
 74
     1
 91
        4
 64
     7
 65
   257
 75
     1
175
     1
 42
1.0
 92
        8
 66
     7
 43
1.0
 76
     1
 77
     6
 78
     2
 67
     7
 79
     5
170
     0
171
     0
290
     0
174
     0
 93
        1
 44
0.0
173
     0
291
     1
 45
0.0
1001
ACAD
1000
AcDbSavedByObjectVersion
1070
     0
  0
VISUALSTYLE
  5
FA2
102
{ACAD_XDICTIONARY
360
F10B66
102
}
102
{ACAD_REACTORS
330
F93
102
}
330
F93
100
AcDbVisualStyle
  2

 70
    15
 71
     2
 72
     2
 73
     0
 90
        0
 40
-0.6
 41
-30.0
 62
     5
 63
     7
 74
     1
 91
        4
 64
     7
 65
   257
 75
     1
175
     1
 42
1.0
 92
        8
 66
     7
 43
1.0
 76
     1
 77
     6
 78
     2
 67
     7
 79
     5
170
     0
171
     0
290
     0
174
     0
 93
        1
 44
0.0
173
     0
291
     1
 45
0.0
1001
ACAD
1000
AcDbSavedByObjectVersion
1070
     0
  0
VISUALSTYLE
  5
F94
102
{ACAD_XDICTIONARY
360
F10B4A
102
}
102
{ACAD_REACTORS
330
F93
102
}
330
F93
100
AcDbVisualStyle
  2

 70
     0
 71
     2
 72
     1
 73
     1
 90
        2
 40
-0.6
 41
30.0
 62
     5
 63
     7
 74
     0
 91
        4
 64
     7
 65
   257
 75
     1
175
     1
 42
1.0
 92
        8
 66
     7
 43
1.0
 76
     1
 77
     6
 78
     2
 67
     7
 79
     5
170
     0
171
     0
290
     0
174
     0
 93
       13
 44
0.0
173
     0
291
     1
 45
0.0
1001
ACAD
1000
AcDbSavedByObjectVersion
1070
     0
  0
VISUALSTYLE
  5
F95
102
{ACAD_XDICTIONARY
360
F10B4C
102
}
102
{ACAD_REACTORS
330
F93
102
}
330
F93
100
AcDbVisualStyle
  2

 70
     1
 71
     2
 72
     1
 73
     1
 90
        2
 40
-0.6
 41
30.0
 62
     5
 63
     7
 74
     1
 91
        4
 64
     7
 65
   257
 75
     1
175
     1
 42
1.0
 92
        0
 66
   257
 43
1.0
 76
     1
 77
     6
 78
     2
 67
     7
 79
     5
170
     0
171
     0
290
     0
174
     0
 93
       13
 44
0.0
173
     0
291
     1
 45
0.0
1001
ACAD
1000
AcDbSavedByObjectVersion
1070
     0
  0
VISUALSTYLE
  5
F96
102
{ACAD_XDICTIONARY
360
F10B4E
102
}
102
{ACAD_REACTORS
330
F93
102
}
330
F93
100
AcDbVisualStyle
  2

 70
     2
 71
     2
 72
     2
 73
     1
 90
        2
 40
-0.6
 41
30.0
 62
     5
 63
     7
 74
     0
 91
        4
 64
     7
 65
   257
 75
     1
175
     1
 42
1.0
 92
        0
 66
     7
 43
1.0
 76
     1
 77
     6
 78
     2
 67
     7
 79
     5
170
     0
171
     0
290
     0
174
     0
 93
       13
 44
0.0
173
     0
291
     1
 45
0.0
1001
ACAD
1000
AcDbSavedByObjectVersion
1070
     0
  0
VISUALSTYLE
  5
F97
102
{ACAD_XDICTIONARY
360
F10B50
102
}
102
{ACAD_REACTORS
330
F93
102
}
330
F93
100
AcDbVisualStyle
  2

 70
     3
 71
     2
 72
     2
 73
     1
 90
        2
 40
-0.6
 41
30.0
 62
     5
 63
     7
 74
     1
 91
        4
 64
     7
 65
   257
 75
     1
175
     1
 42
1.0
 92
        0
 66
   257
 43
1.0
 76
     1
 77
     6
 78
     2
 67
     7
 79
     5
170
     0
171
     0
290
     0
174
     0
 93
       13
 44
0.0
173
     0
291
     1
 45
0.0
1001
ACAD
1000
AcDbSavedByObjectVersion
1070
     0
  0
VISUALSTYLE
  5
F109F4
102
{ACAD_XDICTIONARY
360
F10B78
102
}
102
{ACAD_REACTORS
330
F93
102
}
330
F93
100
AcDbVisualStyle
  2
Hidden
 70
     6
 71
     1
 72
     2
 73
     2
 90
        0
 40
-0.6
 41
-30.0
 62
     5
 63
     7
 74
     2
 91
        2
 64
     7
 65
   257
 75
     2
175
     1
 42
40.0
 92
        0
 66
   257
 43
1.0
 76
     1
 77
     6
 78
     2
 67
     7
 79
     3
170
     0
171
     0
290
     0
174
     0
 93
        1
 44
0.0
173
     0
291
     0
 45
0.0
1001
ACAD
1000
AcDbSavedByObjectVersion
1070
     0
  0
VISUALSTYLE
  5
FA4
102
{ACAD_XDICTIONARY
360
F10B6A
102
}
102
{ACAD_REACTORS
330
F93
102
}
330
F93
100
AcDbVisualStyle
  2

 70
    20
 71
     2
 72
     2
 73
     0
 90
        0
 40
-0.6
 41
-30.0
 62
     5
 63
     7
 74
     1
 91
        4
 64
     7
 65
   257
 75
     1
175
     1
 42
1.0
 92
       10
 66
     7
 43
1.0
 76
     1
 77
     6
 78
     2
 67
     7
 79
     5
170
     0
171
     0
290
     0
174
     0
 93
        1
 44
0.0
173
     0
291
     1
 45
0.0
1001
ACAD
1000
AcDbSavedByObjectVersion
1070
     0
  0
VISUALSTYLE
  5
FA1
102
{ACAD_XDICTIONARY
360
F10B64
102
}
102
{ACAD_REACTORS
330
F93
102
}
330
F93
100
AcDbVisualStyle
  2

 70
    14
 71
     2
 72
     2
 73
     0
 90
        0
 40
-0.6
 41
-30.0
 62
     5
 63
     7
 74
     1
 91
        4
 64
     7
 65
   257
 75
     7
175
     7
 42
1.0
 92
        8
 66
     7
 43
1.0
 76
     1
 77
     6
 78
     2
 67
     7
 79
     5
170
     0
171
     0
290
     0
174
     0
 93
        1
 44
0.0
173
     0
291
     1
 45
0.0
1001
ACAD
1000
AcDbSavedByObjectVersion
1070
     0
  0
VISUALSTYLE
  5
FA5
102
{ACAD_XDICTIONARY
360
F10B6C
102
}
102
{ACAD_REACTORS
330
F93
102
}
330
F93
100
AcDbVisualStyle
  2

 70
    21
 71
     2
 72
     2
 73
     0
 90
        0
 40
-0.6
 41
-30.0
 62
     5
 63
     7
 74
     1
 91
        4
 64
     7
 65
   257
 75
     1
175
     1
 42
1.0
 92
        9
 66
     7
 43
1.0
 76
     1
 77
     6
 78
     2
 67
     7
 79
     5
170
     0
171
     0
290
     0
174
     0
 93
        1
 44
0.0
173
     0
291
     1
 45
0.0
1001
ACAD
1000
AcDbSavedByObjectVersion
1070
     0
  0
VISUALSTYLE
  5
F9D
102
{ACAD_XDICTIONARY
360
F10B5C
102
}
102
{ACAD_REACTORS
330
F93
102
}
330
F93
100
AcDbVisualStyle
  2

 70
     8
 71
     2
 72
     2
 73
     0
 90
        0
 40
-0.6
 41
-30.0
 62
     5
 63
     7
 74
     1
 91
        0
 64
     7
 65
   257
 75
     1
175
     1
 42
1.0
 92
        8
 66
     8
 43
1.0
 76
     1
 77
     6
 78
     2
 67
     7
 79
     5
170
     0
171
     0
290
     0
174
     0
 93
       13
 44
0.0
173
     0
291
     0
 45
0.0
1001
ACAD
1000
AcDbSavedByObjectVersion
1070
     0
  0
VISUALSTYLE
  5
F109F9
102
{ACAD_XDICTIONARY
360
F10B82
102
}
102
{ACAD_REACTORS
330
F93
102
}
330
F93
100
AcDbVisualStyle
  2
Shaded
 70
    27
 71
     2
 72
     2
 73
     1
 90
        2
 40
-0.6
 41
30.0
 62
     5
 63
     7
 74
     0
 91
        4
 64
     7
 65
   257
 75
     1
175
     1
 42
1.0
 92
        8
 66
   257
 43
1.0
 76
     1
 77
     6
 78
     2
 67
     8
 79
     3
170
     0
171
     0
290
     0
174
     0
 93
        5
 44
0.0
173
     0
291
     0
 45
0.0
1001
ACAD
1000
AcDbSavedByObjectVersion
1070
     0
  0
VISUALSTYLE
  5
F109F8
102
{ACAD_XDICTIONARY
360
F10B80
102
}
102
{ACAD_REACTORS
330
F93
102
}
330
F93
100
AcDbVisualStyle
  2
Shaded with edges
 70
    26
 71
     2
 72
     2
 73
     1
 90
        2
 40
-0.6
 41
30.0
 62
     5
 63
     7
 74
     1
 91
       10
 64
     7
 65
   257
 75
     2
175
     1
 42
1.0
 92
        8
 66
   257
 43
1.0
 76
     1
 77
     6
 78
     2
 67
     7
 79
     3
170
     0
171
     0
290
     0
174
     0
 93
        5
 44
0.0
173
     0
291
     0
 45
0.0
1001
ACAD
1000
AcDbSavedByObjectVersion
1070
     0
  0
VISUALSTYLE
  5
F109F5
102
{ACAD_XDICTIONARY
360
F10B7A
102
}
102
{ACAD_REACTORS
330
F93
102
}
330
F93
100
AcDbVisualStyle
  2
Shades of Gray
 70
    23
 71
     2
 72
     2
 73
     3
 90
        0
 40
-0.6
 41
-30.0
 62
     5
 63
     7
 74
     2
 91
        2
 64
     7
 65
     7
 75
     1
175
     1
 42
40.0
 92
        8
 66
     7
 43
1.0
 76
     1
 77
     6
 78
     2
 67
     7
 79
     3
170
     0
171
     0
290
     0
174
     0
 93
        1
 44
0.0
173
     0
291
     0
 45
0.0
1001
ACAD
1000
AcDbSavedByObjectVersion
1070
     0
  0
VISUALSTYLE
  5
F109F6
102
{ACAD_XDICTIONARY
360
F10B7C
102
}
102
{ACAD_REACTORS
330
F93
102
}
330
F93
100
AcDbVisualStyle
  2
Sketchy
 70
    24
 71
     1
 72
     2
 73
     2
 90
        0
 40
-0.6
 41
-30.0
 62
     5
 63
     7
 74
     2
 91
        2
 64
     7
 65
     7
 75
     1
175
     1
 42
40.0
 92
       11
 66
     7
 43
1.0
 76
     1
 77
     6
 78
     2
 67
     7
 79
     6
170
     0
171
     0
290
     0
174
     0
 93
        1
 44
0.0
173
     0
291
     0
 45
0.0
1001
ACAD
1000
AcDbSavedByObjectVersion
1070
     0
  0
VISUALSTYLE
  5
FA0
102
{ACAD_XDICTIONARY
360
F10B62
102
}
102
{ACAD_REACTORS
330
F93
102
}
330
F93
100
AcDbVisualStyle
  2

 70
    13
 71
     2
 72
     2
 73
     0
 90
        0
 40
-0.6
 41
-30.0
 62
     5
 63
     7
 74
     1
 91
        4
 64
     7
 65
   257
 75
     1
175
     1
 42
1.0
 92
       12
 66
     7
 43
1.0
 76
     1
 77
     6
 78
     2
 67
     7
 79
     5
170
     0
171
     0
290
     0
174
     0
 93
        1
 44
0.0
173
     0
291
     1
 45
0.0
1001
ACAD
1000
AcDbSavedByObjectVersion
1070
     0
  0
VISUALSTYLE
  5
F109F3
102
{ACAD_XDICTIONARY
360
F10B76
102
}
102
{ACAD_REACTORS
330
F93
102
}
330
F93
100
AcDbVisualStyle
  2
Wireframe
 70
     5
 71
     0
 72
     2
 73
     0
 90
        0
 40
-0.6
 41
-30.0
 62
     5
 63
     7
 74
     1
 91
        4
 64
     7
 65
   257
 75
     1
175
     1
 42
1.0
 92
        0
 66
   257
 43
1.0
 76
     1
 77
     6
 78
     2
 67
     7
 79
     3
170
     0
171
     0
290
     0
174
     0
 93
        1
 44
0.0
173
     0
291
     0
 45
0.0
1001
ACAD
1000
AcDbSavedByObjectVersion
1070
     0
  0
VISUALSTYLE
  5
F109F7
102
{ACAD_XDICTIONARY
360
F10B7E
102
}
102
{ACAD_REACTORS
330
F93
102
}
330
F93
100
AcDbVisualStyle
  2
X-Ray
 70
    25
 71
     2
 72
     2
 73
     1
 90
        1
 40
0.5
 41
-30.0
 62
     5
 63
     7
 74
     1
 91
        0
 64
     7
 65
   257
 75
     1
175
     1
 42
1.0
 92
        8
 66
     7
 43
1.0
 76
     1
 77
     6
 78
     2
 67
     7
 79
     3
170
     0
171
     0
290
     0
174
     0
 93
       13
 44
0.0
173
     0
291
     0
 45
0.0
1001
ACAD
1000
AcDbSavedByObjectVersion
1070
     0
  0
DICTIONARYVAR
  5
F10B3A
102
{ACAD_REACTORS
330
F10B37
102
}
330
F10B37
100
DictionaryVariables
280
     0
  1
1:1
  0
DICTIONARYVAR
  5
F10B39
102
{ACAD_REACTORS
330
F10B37
102
}
330
F10B37
100
DictionaryVariables
280
     0
  1
STANDARD
  0
DICTIONARYVAR
  5
F10B38
102
{ACAD_REACTORS
330
F10B37
102
}
330
F10B37
100
DictionaryVariables
280
     0
  1
STANDARD
  0
DICTIONARYVAR
  5
F10B3D
102
{ACAD_REACTORS
330
F10B37
102
}
330
F10B37
100
DictionaryVariables
280
     0
  1
1
  0
DICTIONARYVAR
  5
F10B3C
102
{ACAD_REACTORS
330
F10B37
102
}
330
F10B37
100
DictionaryVariables
280
     0
  1
0
  0
DICTIONARYVAR
  5
F10B3B
102
{ACAD_REACTORS
330
F10B37
102
}
330
F10B37
100
DictionaryVariables
280
     0
  1
127
  0
DICTIONARYVAR
  5
F10B3E
102
{ACAD_REACTORS
330
F10B37
102
}
330
F10B37
100
DictionaryVariables
280
     0
  1
2
  0
DICTIONARY
  5
F10A53
102
{ACAD_REACTORS
330
F10A48
102
}
330
F10A48
100
AcDbDictionary
281
     1
  0
DICTIONARY
  5
F10B73
330
FD1
100
AcDbDictionary
280
     1
281
     1
  3
ACAD_XREC_ROUNDTRIP
360
F10B74
  0
DICTIONARY
  5
F10B71
330
FD0
100
AcDbDictionary
280
     1
281
     1
  3
ACAD_XREC_ROUNDTRIP
360
F10B72
  0
DICTIONARY
  5
F84
330
F83
100
AcDbDictionary
280
     1
281
     1
  3
ACAD_XREC_ROUNDTRIP
360
FFF
  3
BUMPTILE
360
F86
  3
DIFFUSETILE
360
F85
  3
OPACITYTILE
360
F89
  3
REFLECTIONTILE
360
F88
  3
REFRACTIONTILE
360
F8A
  3
SPECULARTILE
360
F87
  0
DICTIONARY
  5
F7C
330
F7B
100
AcDbDictionary
280
     1
281
     1
  3
ACAD_XREC_ROUNDTRIP
360
FFE
  3
BUMPTILE
360
F7E
  3
DIFFUSETILE
360
F7D
  3
OPACITYTILE
360
F81
  3
REFLECTIONTILE
360
F80
  3
REFRACTIONTILE
360
F82
  3
SPECULARTILE
360
F7F
  0
DICTIONARY
  5
F8C
330
F8B
100
AcDbDictionary
280
     1
281
     1
  3
ACAD_XREC_ROUNDTRIP
360
1000
  3
BUMPTILE
360
F8E
  3
DIFFUSETILE
360
F8D
  3
OPACITYTILE
360
F91
  3
REFLECTIONTILE
360
F90
  3
REFRACTIONTILE
360
F92
  3
SPECULARTILE
360
F8F
  0
DICTIONARY
  5
FF8
330
FA9
100
AcDbDictionary
280
     1
281
     1
  3
ACAD_ROUNDTRIP_2008_TABLESTYLE_CELLSTYLEMAP
360
F10B3F
  3
ACAD_XREC_ROUNDTRIP
360
F10B70
  0
DICTIONARY
  5
F10B54
330
F99
100
AcDbDictionary
280
     1
281
     1
  3
ACAD_XREC_ROUNDTRIP
360
F10B55
  0
DICTIONARY
  5
F10B58
330
F9B
100
AcDbDictionary
280
     1
281
     1
  3
ACAD_XREC_ROUNDTRIP
360
F10B59
  0
DICTIONARY
  5
F10B56
330
F9A
100
AcDbDictionary
280
     1
281
     1
  3
ACAD_XREC_ROUNDTRIP
360
F10B57
  0
DICTIONARY
  5
F10B52
330
F98
100
AcDbDictionary
280
     1
281
     1
  3
ACAD_XREC_ROUNDTRIP
360
F10B53
  0
DICTIONARY
  5
F10B60
330
F9F
100
AcDbDictionary
280
     1
281
     1
  3
ACAD_XREC_ROUNDTRIP
360
F10B61
  0
DICTIONARY
  5
F10B68
330
FA3
100
AcDbDictionary
280
     1
281
     1
  3
ACAD_XREC_ROUNDTRIP
360
F10B69
  0
DICTIONARY
  5
F10B5A
330
F9C
100
AcDbDictionary
280
     1
281
     1
  3
ACAD_XREC_ROUNDTRIP
360
F10B5B
  0
DICTIONARY
  5
F10B5E
330
F9E
100
AcDbDictionary
280
     1
281
     1
  3
ACAD_XREC_ROUNDTRIP
360
F10B5F
  0
DICTIONARY
  5
F10B6E
330
FA6
100
AcDbDictionary
280
     1
281
     1
  3
ACAD_XREC_ROUNDTRIP
360
F10B6F
  0
DICTIONARY
  5
F10B66
330
FA2
100
AcDbDictionary
280
     1
281
     1
  3
ACAD_XREC_ROUNDTRIP
360
F10B67
  0
DICTIONARY
  5
F10B4A
330
F94
100
AcDbDictionary
280
     1
281
     1
  3
ACAD_XREC_ROUNDTRIP
360
F10B4B
  0
DICTIONARY
  5
F10B4C
330
F95
100
AcDbDictionary
280
     1
281
     1
  3
ACAD_XREC_ROUNDTRIP
360
F10B4D
  0
DICTIONARY
  5
F10B4E
330
F96
100
AcDbDictionary
280
     1
281
     1
  3
ACAD_XREC_ROUNDTRIP
360
F10B4F
  0
DICTIONARY
  5
F10B50
330
F97
100
AcDbDictionary
280
     1
281
     1
  3
ACAD_XREC_ROUNDTRIP
360
F10B51
  0
DICTIONARY
  5
F10B78
330
F109F4
100
AcDbDictionary
280
     1
281
     1
  3
ACAD_XREC_ROUNDTRIP
360
F10B79
  0
DICTIONARY
  5
F10B6A
330
FA4
100
AcDbDictionary
280
     1
281
     1
  3
ACAD_XREC_ROUNDTRIP
360
F10B6B
  0
DICTIONARY
  5
F10B64
330
FA1
100
AcDbDictionary
280
     1
281
     1
  3
ACAD_XREC_ROUNDTRIP
360
F10B65
  0
DICTIONARY
  5
F10B6C
330
FA5
100
AcDbDictionary
280
     1
281
     1
  3
ACAD_XREC_ROUNDTRIP
360
F10B6D
  0
DICTIONARY
  5
F10B5C
330
F9D
100
AcDbDictionary
280
     1
281
     1
  3
ACAD_XREC_ROUNDTRIP
360
F10B5D
  0
DICTIONARY
  5
F10B82
330
F109F9
100
AcDbDictionary
280
     1
281
     1
  3
ACAD_XREC_ROUNDTRIP
360
F10B83
  0
DICTIONARY
  5
F10B80
330
F109F8
100
AcDbDictionary
280
     1
281
     1
  3
ACAD_XREC_ROUNDTRIP
360
F10B81
  0
DICTIONARY
  5
F10B7A
330
F109F5
100
AcDbDictionary
280
     1
281
     1
  3
ACAD_XREC_ROUNDTRIP
360
F10B7B
  0
DICTIONARY
  5
F10B7C
330
F109F6
100
AcDbDictionary
280
     1
281
     1
  3
ACAD_XREC_ROUNDTRIP
360
F10B7D
  0
DICTIONARY
  5
F10B62
330
FA0
100
AcDbDictionary
280
     1
281
     1
  3
ACAD_XREC_ROUNDTRIP
360
F10B63
  0
DICTIONARY
  5
F10B76
330
F109F3
100
AcDbDictionary
280
     1
281
     1
  3
ACAD_XREC_ROUNDTRIP
360
F10B77
  0
DICTIONARY
  5
F10B7E
330
F109F7
100
AcDbDictionary
280
     1
281
     1
  3
ACAD_XREC_ROUNDTRIP
360
F10B7F
  0
XRECORD
  5
F10B74
102
{ACAD_REACTORS
330
F10B73
102
}
330
F10B73
100
AcDbXrecord
280
     1
102
SHADEPLOT
 70
     0
102
SHADEPLOTRESLEVEL
 70
     2
102
SHADEPLOTCUSTOMDPI
 70
   300
  0
XRECORD
  5
F10B72
102
{ACAD_REACTORS
330
F10B71
102
}
330
F10B71
100
AcDbXrecord
280
     1
102
SHADEPLOT
 70
     0
102
SHADEPLOTRESLEVEL
 70
     2
102
SHADEPLOTCUSTOMDPI
 70
   300
  0
XRECORD
  5
FFF
102
{ACAD_REACTORS
330
F84
102
}
330
F84
100
AcDbXrecord
280
     1
102
MATERIAL
148
0.0
149
0.0
149
0.0
 93
        0
 94
      127
282
     0
 72
     0
 77
     0
171
     0
175
     0
179
     0
273
     0
  0
XRECORD
  5
F86
102
{ACAD_REACTORS
330
F84
102
}
330
F84
100
AcDbXrecord
280
     1
270
     1
271
     1
  0
XRECORD
  5
F85
102
{ACAD_REACTORS
330
F84
102
}
330
F84
100
AcDbXrecord
280
     1
270
     1
271
     1
  0
XRECORD
  5
F89
102
{ACAD_REACTORS
330
F84
102
}
330
F84
100
AcDbXrecord
280
     1
270
     1
271
     1
  0
XRECORD
  5
F88
102
{ACAD_REACTORS
330
F84
102
}
330
F84
100
AcDbXrecord
280
     1
270
     1
271
     1
  0
XRECORD
  5
F8A
102
{ACAD_REACTORS
330
F84
102
}
330
F84
100
AcDbXrecord
280
     1
270
     1
271
     1
  0
XRECORD
  5
F87
102
{ACAD_REACTORS
330
F84
102
}
330
F84
100
AcDbXrecord
280
     1
270
     1
271
     1
  0
XRECORD
  5
FFE
102
{ACAD_REACTORS
330
F7C
102
}
330
F7C
100
AcDbXrecord
280
     1
102
MATERIAL
148
0.0
149
0.0
149
0.0
 93
        0
 94
      127
282
     0
 72
     0
 77
     0
171
     0
175
     0
179
     0
273
     0
  0
XRECORD
  5
F7E
102
{ACAD_REACTORS
330
F7C
102
}
330
F7C
100
AcDbXrecord
280
     1
270
     1
271
     1
  0
XRECORD
  5
F7D
102
{ACAD_REACTORS
330
F7C
102
}
330
F7C
100
AcDbXrecord
280
     1
270
     1
271
     1
  0
XRECORD
  5
F81
102
{ACAD_REACTORS
330
F7C
102
}
330
F7C
100
AcDbXrecord
280
     1
270
     1
271
     1
  0
XRECORD
  5
F80
102
{ACAD_REACTORS
330
F7C
102
}
330
F7C
100
AcDbXrecord
280
     1
270
     1
271
     1
  0
XRECORD
  5
F82
102
{ACAD_REACTORS
330
F7C
102
}
330
F7C
100
AcDbXrecord
280
     1
270
     1
271
     1
  0
XRECORD
  5
F7F
102
{ACAD_REACTORS
330
F7C
102
}
330
F7C
100
AcDbXrecord
280
     1
270
     1
271
     1
  0
XRECORD
  5
1000
102
{ACAD_REACTORS
330
F8C
102
}
330
F8C
100
AcDbXrecord
280
     1
102
MATERIAL
148
0.0
149
0.0
149
0.0
 93
        0
 94
      127
282
     0
 72
     0
 77
     0
171
     0
175
     0
179
     0
273
     0
  0
XRECORD
  5
F8E
102
{ACAD_REACTORS
330
F8C
102
}
330
F8C
100
AcDbXrecord
280
     1
270
     1
271
     1
  0
XRECORD
  5
F8D
102
{ACAD_REACTORS
330
F8C
102
}
330
F8C
100
AcDbXrecord
280
     1
270
     1
271
     1
  0
XRECORD
  5
F91
102
{ACAD_REACTORS
330
F8C
102
}
330
F8C
100
AcDbXrecord
280
     1
270
     1
271
     1
  0
XRECORD
  5
F90
102
{ACAD_REACTORS
330
F8C
102
}
330
F8C
100
AcDbXrecord
280
     1
270
     1
271
     1
  0
XRECORD
  5
F92
102
{ACAD_REACTORS
330
F8C
102
}
330
F8C
100
AcDbXrecord
280
     1
270
     1
271
     1
  0
XRECORD
  5
F8F
102
{ACAD_REACTORS
330
F8C
102
}
330
F8C
100
AcDbXrecord
280
     1
270
     1
271
     1
  0
CELLSTYLEMAP
  5
F10B3F
102
{ACAD_REACTORS
330
FF8
102
}
330
FF8
100
AcDbCellStyleMap
 90
        3
300
CELLSTYLE
  1
TABLEFORMAT_BEGIN
 90
        5
170
     1
 91
        0
 92
    32768
 62
   257
 93
        1
300
CONTENTFORMAT
  1
CONTENTFORMAT_BEGIN
 90
        0
 91
        0
 92
      512
 93
        0
300

 40
0.0
140
1.0
 94
        5
 62
     0
340
253
144
0.25
309
CONTENTFORMAT_END
171
     1
301
MARGIN
  1
CELLMARGIN_BEGIN
 40
0.06
 40
0.06
 40
0.06
 40
0.06
 40
0.18
 40
0.18
309
CELLMARGIN_END
 94
        6
 95
        1
302
GRIDFORMAT
  1
GRIDFORMAT_BEGIN
 90
        0
 91
        1
 62
     0
 92
       -2
340
0
 93
        0
 40
0.045
309
GRIDFORMAT_END
 95
        2
302
GRIDFORMAT
  1
GRIDFORMAT_BEGIN
 90
        0
 91
        1
 62
     0
 92
       -2
340
0
 93
        0
 40
0.045
309
GRIDFORMAT_END
 95
        4
302
GRIDFORMAT
  1
GRIDFORMAT_BEGIN
 90
        0
 91
        1
 62
     0
 92
       -2
340
0
 93
        0
 40
0.045
309
GRIDFORMAT_END
 95
        8
302
GRIDFORMAT
  1
GRIDFORMAT_BEGIN
 90
        0
 91
        1
 62
     0
 92
       -2
340
0
 93
        0
 40
0.045
309
GRIDFORMAT_END
 95
       16
302
GRIDFORMAT
  1
GRIDFORMAT_BEGIN
 90
        0
 91
        1
 62
     0
 92
       -2
340
0
 93
        0
 40
0.045
309
GRIDFORMAT_END
 95
       32
302
GRIDFORMAT
  1
GRIDFORMAT_BEGIN
 90
        0
 91
        1
 62
     0
 92
       -2
340
0
 93
        0
 40
0.045
309
GRIDFORMAT_END
309
TABLEFORMAT_END
  1
CELLSTYLE_BEGIN
 90
        1
 91
        1
300
_TITLE
309
CELLSTYLE_END
300
CELLSTYLE
  1
TABLEFORMAT_BEGIN
 90
        5
170
     1
 91
        0
 92
        0
 62
   257
 93
        1
300
CONTENTFORMAT
  1
CONTENTFORMAT_BEGIN
 90
        0
 91
        0
 92
      512
 93
        0
300

 40
0.0
140
1.0
 94
        5
 62
     0
340
253
144
0.18
309
CONTENTFORMAT_END
171
     1
301
MARGIN
  1
CELLMARGIN_BEGIN
 40
0.06
 40
0.06
 40
0.06
 40
0.06
 40
0.18
 40
0.18
309
CELLMARGIN_END
 94
        6
 95
        1
302
GRIDFORMAT
  1
GRIDFORMAT_BEGIN
 90
        0
 91
        1
 62
     0
 92
       -2
340
0
 93
        0
 40
0.045
309
GRIDFORMAT_END
 95
        2
302
GRIDFORMAT
  1
GRIDFORMAT_BEGIN
 90
        0
 91
        1
 62
     0
 92
       -2
340
0
 93
        0
 40
0.045
309
GRIDFORMAT_END
 95
        4
302
GRIDFORMAT
  1
GRIDFORMAT_BEGIN
 90
        0
 91
        1
 62
     0
 92
       -2
340
0
 93
        0
 40
0.045
309
GRIDFORMAT_END
 95
        8
302
GRIDFORMAT
  1
GRIDFORMAT_BEGIN
 90
        0
 91
        1
 62
     0
 92
       -2
340
0
 93
        0
 40
0.045
309
GRIDFORMAT_END
 95
       16
302
GRIDFORMAT
  1
GRIDFORMAT_BEGIN
 90
        0
 91
        1
 62
     0
 92
       -2
340
0
 93
        0
 40
0.045
309
GRIDFORMAT_END
 95
       32
302
GRIDFORMAT
  1
GRIDFORMAT_BEGIN
 90
        0
 91
        1
 62
     0
 92
       -2
340
0
 93
        0
 40
0.045
309
GRIDFORMAT_END
309
TABLEFORMAT_END
  1
CELLSTYLE_BEGIN
 90
        2
 91
        1
300
_HEADER
309
CELLSTYLE_END
300
CELLSTYLE
  1
TABLEFORMAT_BEGIN
 90
        5
170
     1
 91
        0
 92
        0
 62
   257
 93
        1
300
CONTENTFORMAT
  1
CONTENTFORMAT_BEGIN
 90
        0
 91
        0
 92
      512
 93
        0
300

 40
0.0
140
1.0
 94
        2
 62
     0
340
253
144
0.18
309
CONTENTFORMAT_END
171
     1
301
MARGIN
  1
CELLMARGIN_BEGIN
 40
0.06
 40
0.06
 40
0.06
 40
0.06
 40
0.18
 40
0.18
309
CELLMARGIN_END
 94
        6
 95
        1
302
GRIDFORMAT
  1
GRIDFORMAT_BEGIN
 90
        0
 91
        1
 62
     0
 92
       -2
340
0
 93
        0
 40
0.045
309
GRIDFORMAT_END
 95
        2
302
GRIDFORMAT
  1
GRIDFORMAT_BEGIN
 90
        0
 91
        1
 62
     0
 92
       -2
340
0
 93
        0
 40
0.045
309
GRIDFORMAT_END
 95
        4
302
GRIDFORMAT
  1
GRIDFORMAT_BEGIN
 90
        0
 91
        1
 62
     0
 92
       -2
340
0
 93
        0
 40
0.045
309
GRIDFORMAT_END
 95
        8
302
GRIDFORMAT
  1
GRIDFORMAT_BEGIN
 90
        0
 91
        1
 62
     0
 92
       -2
340
0
 93
        0
 40
0.045
309
GRIDFORMAT_END
 95
       16
302
GRIDFORMAT
  1
GRIDFORMAT_BEGIN
 90
        0
 91
        1
 62
     0
 92
       -2
340
0
 93
        0
 40
0.045
309
GRIDFORMAT_END
 95
       32
302
GRIDFORMAT
  1
GRIDFORMAT_BEGIN
 90
        0
 91
        1
 62
     0
 92
       -2
340
0
 93
        0
 40
0.045
309
GRIDFORMAT_END
309
TABLEFORMAT_END
  1
CELLSTYLE_BEGIN
 90
        3
 91
        2
300
_DATA
309
CELLSTYLE_END
  0
XRECORD
  5
F10B70
102
{ACAD_REACTORS
330
FF8
102
}
330
FF8
100
AcDbXrecord
280
     1
102
ACAD_ROUNDTRIP_PRE2007_TABLESTYLE
 90
      512
 91
        0
  1

 92
      512
 93
        0
  2

 94
      512
 95
        0
  3

  0
XRECORD
  5
F10B55
102
{ACAD_REACTORS
330
F10B54
102
}
330
F10B54
100
AcDbXrecord
280
     1
102
RTVSPropertyOp0
 70
     1
102
RTVSPropertyOp1
 70
     1
102
RTVSPropertyOp2
 70
     1
102
RTVSPropertyOp3
 70
     1
102
RTVSPropertyOp4
 70
     1
102
RTVSPropertyOp5
 70
     1
102
RTVSPropertyOp6
 70
     1
102
RTVSPropertyOp7
 70
     1
102
RTVSPropertyOp8
 70
     1
102
RTVSPropertyOp9
 70
     1
102
RTVSPropertyOp10
 70
     1
102
RTVSPropertyOp11
 70
     1
102
RTVSPropertyOp12
 70
     1
102
RTVSPropertyOp13
 70
     1
102
RTVSPropertyOp14
 70
     1
102
RTVSPropertyOp15
 70
     1
102
RTVSPropertyOp16
 70
     1
102
RTVSPropertyOp17
 70
     1
102
RTVSPropertyOp18
 70
     1
102
RTVSPropertyOp19
 70
     1
102
RTVSPropertyOp20
 70
     1
102
RTVSPropertyOp21
 70
     1
102
RTVSPropertyOp22
 70
     1
102
RTVSPropertyOp23
 70
     1
102
RTVSPropertyOp24
 70
     1
102
RTVSPropertyOp25
 70
     1
102
RTVSPropertyOp26
 70
     1
102
RTVSPropertyOp27
 70
     1
102
RTVSPropertyOp28
 70
     1
102
RTVSPropertyOp29
 70
     1
102
RTVSPropertyOp30
 70
     1
102
RTVSPropertyOp31
 70
     1
102
RTVSPropertyOp32
 70
     1
  0
XRECORD
  5
F10B59
102
{ACAD_REACTORS
330
F10B58
102
}
330
F10B58
100
AcDbXrecord
280
     1
102
RTVSPropertyOp0
 70
     1
102
RTVSPropertyOp1
 70
     1
102
RTVSPropertyOp2
 70
     1
102
RTVSPropertyOp3
 70
     1
102
RTVSPropertyOp4
 70
     1
102
RTVSPropertyOp5
 70
     1
102
RTVSPropertyOp6
 70
     1
102
RTVSPropertyOp7
 70
     1
102
RTVSPropertyOp8
 70
     1
102
RTVSPropertyOp9
 70
     1
102
RTVSPropertyOp10
 70
     1
102
RTVSPropertyOp11
 70
     1
102
RTVSPropertyOp12
 70
     1
102
RTVSPropertyOp13
 70
     1
102
RTVSPropertyOp14
 70
     1
102
RTVSPropertyOp15
 70
     1
102
RTVSPropertyOp16
 70
     1
102
RTVSPropertyOp17
 70
     1
102
RTVSPropertyOp18
 70
     1
102
RTVSPropertyOp19
 70
     1
102
RTVSPropertyOp20
 70
     1
102
RTVSPropertyOp21
 70
     1
102
RTVSPropertyOp22
 70
     1
102
RTVSPropertyOp23
 70
     1
102
RTVSPropertyOp24
 70
     1
102
RTVSPropertyOp25
 70
     1
102
RTVSPropertyOp26
 70
     1
102
RTVSPropertyOp27
 70
     1
102
RTVSPropertyOp28
 70
     1
102
RTVSPropertyOp29
 70
     1
102
RTVSPropertyOp30
 70
     1
102
RTVSPropertyOp31
 70
     1
102
RTVSPropertyOp32
 70
     1
  0
XRECORD
  5
F10B57
102
{ACAD_REACTORS
330
F10B56
102
}
330
F10B56
100
AcDbXrecord
280
     1
102
RTVSPropertyOp0
 70
     1
102
RTVSPropertyOp1
 70
     1
102
RTVSPropertyOp2
 70
     1
102
RTVSPropertyOp3
 70
     1
102
RTVSPropertyOp4
 70
     1
102
RTVSPropertyOp5
 70
     1
102
RTVSPropertyOp6
 70
     1
102
RTVSPropertyOp7
 70
     1
102
RTVSPropertyOp8
 70
     1
102
RTVSPropertyOp9
 70
     1
102
RTVSPropertyOp10
 70
     1
102
RTVSPropertyOp11
 70
     1
102
RTVSPropertyOp12
 70
     1
102
RTVSPropertyOp13
 70
     1
102
RTVSPropertyOp14
 70
     1
102
RTVSPropertyOp15
 70
     1
102
RTVSPropertyOp16
 70
     1
102
RTVSPropertyOp17
 70
     1
102
RTVSPropertyOp18
 70
     1
102
RTVSPropertyOp19
 70
     1
102
RTVSPropertyOp20
 70
     1
102
RTVSPropertyOp21
 70
     1
102
RTVSPropertyOp22
 70
     1
102
RTVSPropertyOp23
 70
     1
102
RTVSPropertyOp24
 70
     1
102
RTVSPropertyOp25
 70
     1
102
RTVSPropertyOp26
 70
     1
102
RTVSPropertyOp27
 70
     1
102
RTVSPropertyOp28
 70
     1
102
RTVSPropertyOp29
 70
     1
102
RTVSPropertyOp30
 70
     1
102
RTVSPropertyOp31
 70
     1
102
RTVSPropertyOp32
 70
     1
  0
XRECORD
  5
F10B53
102
{ACAD_REACTORS
330
F10B52
102
}
330
F10B52
100
AcDbXrecord
280
     1
102
RTVSPropertyOp0
 70
     1
102
RTVSPropertyOp1
 70
     1
102
RTVSPropertyOp2
 70
     1
102
RTVSPropertyOp3
 70
     1
102
RTVSPropertyOp4
 70
     1
102
RTVSPropertyOp5
 70
     1
102
RTVSPropertyOp6
 70
     1
102
RTVSPropertyOp7
 70
     1
102
RTVSPropertyOp8
 70
     1
102
RTVSPropertyOp9
 70
     1
102
RTVSPropertyOp10
 70
     1
102
RTVSPropertyOp11
 70
     1
102
RTVSPropertyOp12
 70
     1
102
RTVSPropertyOp13
 70
     1
102
RTVSPropertyOp14
 70
     1
102
RTVSPropertyOp15
 70
     1
102
RTVSPropertyOp16
 70
     1
102
RTVSPropertyOp17
 70
     1
102
RTVSPropertyOp18
 70
     1
102
RTVSPropertyOp19
 70
     1
102
RTVSPropertyOp20
 70
     1
102
RTVSPropertyOp21
 70
     1
102
RTVSPropertyOp22
 70
     1
102
RTVSPropertyOp23
 70
     1
102
RTVSPropertyOp24
 70
     1
102
RTVSPropertyOp25
 70
     1
102
RTVSPropertyOp26
 70
     1
102
RTVSPropertyOp27
 70
     1
102
RTVSPropertyOp28
 70
     1
102
RTVSPropertyOp29
 70
     1
102
RTVSPropertyOp30
 70
     1
102
RTVSPropertyOp31
 70
     1
102
RTVSPropertyOp32
 70
     1
  0
XRECORD
  5
F10B61
102
{ACAD_REACTORS
330
F10B60
102
}
330
F10B60
100
AcDbXrecord
280
     1
102
RTVSPropertyOp0
 70
     1
102
RTVSPropertyOp1
 70
     1
102
RTVSPropertyOp2
 70
     1
102
RTVSPropertyOp3
 70
     1
102
RTVSPropertyOp4
 70
     1
102
RTVSPropertyOp5
 70
     1
102
RTVSPropertyOp6
 70
     1
102
RTVSPropertyOp7
 70
     1
102
RTVSPropertyOp8
 70
     1
102
RTVSPropertyOp9
 70
     1
102
RTVSPropertyOp10
 70
     1
102
RTVSPropertyOp11
 70
     1
102
RTVSPropertyOp12
 70
     1
102
RTVSPropertyOp13
 70
     1
102
RTVSPropertyOp14
 70
     1
102
RTVSPropertyOp15
 70
     1
102
RTVSPropertyOp16
 70
     1
102
RTVSPropertyOp17
 70
     1
102
RTVSPropertyOp18
 70
     1
102
RTVSPropertyOp19
 70
     1
102
RTVSPropertyOp20
 70
     1
102
RTVSPropertyOp21
 70
     1
102
RTVSPropertyOp22
 70
     1
102
RTVSPropertyOp23
 70
     1
102
RTVSPropertyOp24
 70
     1
102
RTVSPropertyOp25
 70
     1
102
RTVSPropertyOp26
 70
     1
102
RTVSPropertyOp27
 70
     1
102
RTVSPropertyOp28
 70
     1
102
RTVSPropertyOp29
 70
     1
102
RTVSPropertyOp30
 70
     1
102
RTVSPropertyOp31
 70
     1
102
RTVSPropertyOp32
 70
     1
  0
XRECORD
  5
F10B69
102
{ACAD_REACTORS
330
F10B68
102
}
330
F10B68
100
AcDbXrecord
280
     1
102
RTVSPropertyOp0
 70
     1
102
RTVSPropertyOp1
 70
     1
102
RTVSPropertyOp2
 70
     1
102
RTVSPropertyOp3
 70
     1
102
RTVSPropertyOp4
 70
     1
102
RTVSPropertyOp5
 70
     1
102
RTVSPropertyOp6
 70
     1
102
RTVSPropertyOp7
 70
     1
102
RTVSPropertyOp8
 70
     1
102
RTVSPropertyOp9
 70
     1
102
RTVSPropertyOp10
 70
     1
102
RTVSPropertyOp11
 70
     1
102
RTVSPropertyOp12
 70
     1
102
RTVSPropertyOp13
 70
     1
102
RTVSPropertyOp14
 70
     1
102
RTVSPropertyOp15
 70
     1
102
RTVSPropertyOp16
 70
     1
102
RTVSPropertyOp17
 70
     1
102
RTVSPropertyOp18
 70
     1
102
RTVSPropertyOp19
 70
     1
102
RTVSPropertyOp20
 70
     1
102
RTVSPropertyOp21
 70
     1
102
RTVSPropertyOp22
 70
     1
102
RTVSPropertyOp23
 70
     1
102
RTVSPropertyOp24
 70
     1
102
RTVSPropertyOp25
 70
     1
102
RTVSPropertyOp26
 70
     1
102
RTVSPropertyOp27
 70
     1
102
RTVSPropertyOp28
 70
     1
102
RTVSPropertyOp29
 70
     1
102
RTVSPropertyOp30
 70
     1
102
RTVSPropertyOp31
 70
     1
102
RTVSPropertyOp32
 70
     1
  0
XRECORD
  5
F10B5B
102
{ACAD_REACTORS
330
F10B5A
102
}
330
F10B5A
100
AcDbXrecord
280
     1
102
RTVSPropertyOp0
 70
     1
102
RTVSPropertyOp1
 70
     1
102
RTVSPropertyOp2
 70
     1
102
RTVSPropertyOp3
 70
     1
102
RTVSPropertyOp4
 70
     1
102
RTVSPropertyOp5
 70
     1
102
RTVSPropertyOp6
 70
     1
102
RTVSPropertyOp7
 70
     1
102
RTVSPropertyOp8
 70
     1
102
RTVSPropertyOp9
 70
     1
102
RTVSPropertyOp10
 70
     1
102
RTVSPropertyOp11
 70
     1
102
RTVSPropertyOp12
 70
     1
102
RTVSPropertyOp13
 70
     1
102
RTVSPropertyOp14
 70
     1
102
RTVSPropertyOp15
 70
     1
102
RTVSPropertyOp16
 70
     1
102
RTVSPropertyOp17
 70
     1
102
RTVSPropertyOp18
 70
     1
102
RTVSPropertyOp19
 70
     1
102
RTVSPropertyOp20
 70
     1
102
RTVSPropertyOp21
 70
     1
102
RTVSPropertyOp22
 70
     1
102
RTVSPropertyOp23
 70
     1
102
RTVSPropertyOp24
 70
     1
102
RTVSPropertyOp25
 70
     1
102
RTVSPropertyOp26
 70
     1
102
RTVSPropertyOp27
 70
     1
102
RTVSPropertyOp28
 70
     1
102
RTVSPropertyOp29
 70
     1
102
RTVSPropertyOp30
 70
     1
102
RTVSPropertyOp31
 70
     1
102
RTVSPropertyOp32
 70
     1
  0
XRECORD
  5
F10B5F
102
{ACAD_REACTORS
330
F10B5E
102
}
330
F10B5E
100
AcDbXrecord
280
     1
102
RTVSPropertyOp0
 70
     1
102
RTVSPropertyOp1
 70
     1
102
RTVSPropertyOp2
 70
     1
102
RTVSPropertyOp3
 70
     1
102
RTVSPropertyOp4
 70
     1
102
RTVSPropertyOp5
 70
     1
102
RTVSPropertyOp6
 70
     1
102
RTVSPropertyOp7
 70
     1
102
RTVSPropertyOp8
 70
     1
102
RTVSPropertyOp9
 70
     1
102
RTVSPropertyOp10
 70
     1
102
RTVSPropertyOp11
 70
     1
102
RTVSPropertyOp12
 70
     1
102
RTVSPropertyOp13
 70
     1
102
RTVSPropertyOp14
 70
     1
102
RTVSPropertyOp15
 70
     1
102
RTVSPropertyOp16
 70
     1
102
RTVSPropertyOp17
 70
     1
102
RTVSPropertyOp18
 70
     1
102
RTVSPropertyOp19
 70
     1
102
RTVSPropertyOp20
 70
     1
102
RTVSPropertyOp21
 70
     1
102
RTVSPropertyOp22
 70
     1
102
RTVSPropertyOp23
 70
     1
102
RTVSPropertyOp24
 70
     1
102
RTVSPropertyOp25
 70
     1
102
RTVSPropertyOp26
 70
     1
102
RTVSPropertyOp27
 70
     1
102
RTVSPropertyOp28
 70
     1
102
RTVSPropertyOp29
 70
     1
102
RTVSPropertyOp30
 70
     1
102
RTVSPropertyOp31
 70
     1
102
RTVSPropertyOp32
 70
     1
  0
XRECORD
  5
F10B6F
102
{ACAD_REACTORS
330
F10B6E
102
}
330
F10B6E
100
AcDbXrecord
280
     1
102
RTVSPropertyOp0
 70
     0
102
RTVSPropertyOp1
 70
     0
102
RTVSPropertyOp2
 70
     0
102
RTVSPropertyOp3
 70
     0
102
RTVSPropertyOp4
 70
     0
102
RTVSPropertyOp5
 70
     0
102
RTVSPropertyOp6
 70
     0
102
RTVSPropertyOp7
 70
     0
102
RTVSPropertyOp8
 70
     0
102
RTVSPropertyOp9
 70
     0
102
RTVSPropertyOp10
 70
     0
102
RTVSPropertyOp11
 70
     0
102
RTVSPropertyOp12
 70
     0
102
RTVSPropertyOp13
 70
     0
102
RTVSPropertyOp14
 70
     2
102
RTVSPropertyOp15
 70
     0
102
RTVSPropertyOp16
 70
     0
102
RTVSPropertyOp17
 70
     0
102
RTVSPropertyOp18
 70
     0
102
RTVSPropertyOp19
 70
     0
102
RTVSPropertyOp20
 70
     0
102
RTVSPropertyOp21
 70
     0
102
RTVSPropertyOp22
 70
     0
102
RTVSPropertyOp23
 70
     0
102
RTVSPropertyOp24
 70
     0
102
RTVSPropertyOp25
 70
     0
102
RTVSPropertyOp26
 70
     0
102
RTVSPropertyOp27
 70
     0
102
RTVSPropertyOp28
 70
     1
102
RTVSPropertyOp29
 70
     1
102
RTVSPropertyOp30
 70
     1
102
RTVSPropertyOp31
 70
     1
102
RTVSPropertyOp32
 70
     1
  0
XRECORD
  5
F10B67
102
{ACAD_REACTORS
330
F10B66
102
}
330
F10B66
100
AcDbXrecord
280
     1
102
RTVSPropertyOp0
 70
     1
102
RTVSPropertyOp1
 70
     1
102
RTVSPropertyOp2
 70
     1
102
RTVSPropertyOp3
 70
     1
102
RTVSPropertyOp4
 70
     1
102
RTVSPropertyOp5
 70
     1
102
RTVSPropertyOp6
 70
     1
102
RTVSPropertyOp7
 70
     1
102
RTVSPropertyOp8
 70
     1
102
RTVSPropertyOp9
 70
     1
102
RTVSPropertyOp10
 70
     1
102
RTVSPropertyOp11
 70
     1
102
RTVSPropertyOp12
 70
     1
102
RTVSPropertyOp13
 70
     1
102
RTVSPropertyOp14
 70
     1
102
RTVSPropertyOp15
 70
     1
102
RTVSPropertyOp16
 70
     1
102
RTVSPropertyOp17
 70
     1
102
RTVSPropertyOp18
 70
     1
102
RTVSPropertyOp19
 70
     1
102
RTVSPropertyOp20
 70
     1
102
RTVSPropertyOp21
 70
     1
102
RTVSPropertyOp22
 70
     1
102
RTVSPropertyOp23
 70
     1
102
RTVSPropertyOp24
 70
     1
102
RTVSPropertyOp25
 70
     1
102
RTVSPropertyOp26
 70
     1
102
RTVSPropertyOp27
 70
     1
102
RTVSPropertyOp28
 70
     1
102
RTVSPropertyOp29
 70
     1
102
RTVSPropertyOp30
 70
     1
102
RTVSPropertyOp31
 70
     1
102
RTVSPropertyOp32
 70
     1
  0
XRECORD
  5
F10B4B
102
{ACAD_REACTORS
330
F10B4A
102
}
330
F10B4A
100
AcDbXrecord
280
     1
102
RTVSPropertyOp0
 70
     1
102
RTVSPropertyOp1
 70
     1
102
RTVSPropertyOp2
 70
     1
102
RTVSPropertyOp3
 70
     1
102
RTVSPropertyOp4
 70
     1
102
RTVSPropertyOp5
 70
     1
102
RTVSPropertyOp6
 70
     1
102
RTVSPropertyOp7
 70
     1
102
RTVSPropertyOp8
 70
     1
102
RTVSPropertyOp9
 70
     1
102
RTVSPropertyOp10
 70
     1
102
RTVSPropertyOp11
 70
     1
102
RTVSPropertyOp12
 70
     1
102
RTVSPropertyOp13
 70
     1
102
RTVSPropertyOp14
 70
     1
102
RTVSPropertyOp15
 70
     1
102
RTVSPropertyOp16
 70
     1
102
RTVSPropertyOp17
 70
     1
102
RTVSPropertyOp18
 70
     1
102
RTVSPropertyOp19
 70
     1
102
RTVSPropertyOp20
 70
     1
102
RTVSPropertyOp21
 70
     1
102
RTVSPropertyOp22
 70
     1
102
RTVSPropertyOp23
 70
     1
102
RTVSPropertyOp24
 70
     1
102
RTVSPropertyOp25
 70
     1
102
RTVSPropertyOp26
 70
     1
102
RTVSPropertyOp27
 70
     1
102
RTVSPropertyOp28
 70
     1
102
RTVSPropertyOp29
 70
     1
102
RTVSPropertyOp30
 70
     1
102
RTVSPropertyOp31
 70
     1
102
RTVSPropertyOp32
 70
     1
  0
XRECORD
  5
F10B4D
102
{ACAD_REACTORS
330
F10B4C
102
}
330
F10B4C
100
AcDbXrecord
280
     1
102
RTVSPropertyOp0
 70
     1
102
RTVSPropertyOp1
 70
     1
102
RTVSPropertyOp2
 70
     1
102
RTVSPropertyOp3
 70
     1
102
RTVSPropertyOp4
 70
     1
102
RTVSPropertyOp5
 70
     1
102
RTVSPropertyOp6
 70
     1
102
RTVSPropertyOp7
 70
     1
102
RTVSPropertyOp8
 70
     1
102
RTVSPropertyOp9
 70
     1
102
RTVSPropertyOp10
 70
     1
102
RTVSPropertyOp11
 70
     1
102
RTVSPropertyOp12
 70
     1
102
RTVSPropertyOp13
 70
     1
102
RTVSPropertyOp14
 70
     1
102
RTVSPropertyOp15
 70
     1
102
RTVSPropertyOp16
 70
     1
102
RTVSPropertyOp17
 70
     1
102
RTVSPropertyOp18
 70
     1
102
RTVSPropertyOp19
 70
     1
102
RTVSPropertyOp20
 70
     1
102
RTVSPropertyOp21
 70
     1
102
RTVSPropertyOp22
 70
     1
102
RTVSPropertyOp23
 70
     1
102
RTVSPropertyOp24
 70
     1
102
RTVSPropertyOp25
 70
     1
102
RTVSPropertyOp26
 70
     1
102
RTVSPropertyOp27
 70
     1
102
RTVSPropertyOp28
 70
     1
102
RTVSPropertyOp29
 70
     1
102
RTVSPropertyOp30
 70
     1
102
RTVSPropertyOp31
 70
     1
102
RTVSPropertyOp32
 70
     1
  0
XRECORD
  5
F10B4F
102
{ACAD_REACTORS
330
F10B4E
102
}
330
F10B4E
100
AcDbXrecord
280
     1
102
RTVSPropertyOp0
 70
     1
102
RTVSPropertyOp1
 70
     1
102
RTVSPropertyOp2
 70
     1
102
RTVSPropertyOp3
 70
     1
102
RTVSPropertyOp4
 70
     1
102
RTVSPropertyOp5
 70
     1
102
RTVSPropertyOp6
 70
     1
102
RTVSPropertyOp7
 70
     1
102
RTVSPropertyOp8
 70
     1
102
RTVSPropertyOp9
 70
     1
102
RTVSPropertyOp10
 70
     1
102
RTVSPropertyOp11
 70
     1
102
RTVSPropertyOp12
 70
     1
102
RTVSPropertyOp13
 70
     1
102
RTVSPropertyOp14
 70
     1
102
RTVSPropertyOp15
 70
     1
102
RTVSPropertyOp16
 70
     1
102
RTVSPropertyOp17
 70
     1
102
RTVSPropertyOp18
 70
     1
102
RTVSPropertyOp19
 70
     1
102
RTVSPropertyOp20
 70
     1
102
RTVSPropertyOp21
 70
     1
102
RTVSPropertyOp22
 70
     1
102
RTVSPropertyOp23
 70
     1
102
RTVSPropertyOp24
 70
     1
102
RTVSPropertyOp25
 70
     1
102
RTVSPropertyOp26
 70
     1
102
RTVSPropertyOp27
 70
     1
102
RTVSPropertyOp28
 70
     1
102
RTVSPropertyOp29
 70
     1
102
RTVSPropertyOp30
 70
     1
102
RTVSPropertyOp31
 70
     1
102
RTVSPropertyOp32
 70
     1
  0
XRECORD
  5
F10B51
102
{ACAD_REACTORS
330
F10B50
102
}
330
F10B50
100
AcDbXrecord
280
     1
102
RTVSPropertyOp0
 70
     1
102
RTVSPropertyOp1
 70
     1
102
RTVSPropertyOp2
 70
     1
102
RTVSPropertyOp3
 70
     1
102
RTVSPropertyOp4
 70
     1
102
RTVSPropertyOp5
 70
     1
102
RTVSPropertyOp6
 70
     1
102
RTVSPropertyOp7
 70
     1
102
RTVSPropertyOp8
 70
     1
102
RTVSPropertyOp9
 70
     1
102
RTVSPropertyOp10
 70
     1
102
RTVSPropertyOp11
 70
     1
102
RTVSPropertyOp12
 70
     1
102
RTVSPropertyOp13
 70
     1
102
RTVSPropertyOp14
 70
     1
102
RTVSPropertyOp15
 70
     1
102
RTVSPropertyOp16
 70
     1
102
RTVSPropertyOp17
 70
     1
102
RTVSPropertyOp18
 70
     1
102
RTVSPropertyOp19
 70
     1
102
RTVSPropertyOp20
 70
     1
102
RTVSPropertyOp21
 70
     1
102
RTVSPropertyOp22
 70
     1
102
RTVSPropertyOp23
 70
     1
102
RTVSPropertyOp24
 70
     1
102
RTVSPropertyOp25
 70
     1
102
RTVSPropertyOp26
 70
     1
102
RTVSPropertyOp27
 70
     1
102
RTVSPropertyOp28
 70
     1
102
RTVSPropertyOp29
 70
     1
102
RTVSPropertyOp30
 70
     1
102
RTVSPropertyOp31
 70
     1
102
RTVSPropertyOp32
 70
     1
  0
XRECORD
  5
F10B79
102
{ACAD_REACTORS
330
F10B78
102
}
330
F10B78
100
AcDbXrecord
280
     1
102
RTVSPropertyOp0
 70
     1
102
RTVSPropertyOp1
 70
     1
102
RTVSPropertyOp2
 70
     1
102
RTVSPropertyOp3
 70
     1
102
RTVSPropertyOp4
 70
     1
102
RTVSPropertyOp5
 70
     1
102
RTVSPropertyOp6
 70
     1
102
RTVSPropertyOp7
 70
     1
102
RTVSPropertyOp8
 70
     1
102
RTVSPropertyOp9
 70
     1
102
RTVSPropertyOp10
 70
     1
102
RTVSPropertyOp11
 70
     1
102
RTVSPropertyOp12
 70
     1
102
RTVSPropertyOp13
 70
     1
102
RTVSPropertyOp14
 70
     1
102
RTVSPropertyOp15
 70
     1
102
RTVSPropertyOp16
 70
     1
102
RTVSPropertyOp17
 70
     1
102
RTVSPropertyOp18
 70
     1
102
RTVSPropertyOp19
 70
     1
102
RTVSPropertyOp20
 70
     1
102
RTVSPropertyOp21
 70
     1
102
RTVSPropertyOp22
 70
     1
102
RTVSPropertyOp23
 70
     1
102
RTVSPropertyOp24
 70
     1
102
RTVSPropertyOp25
 70
     1
102
RTVSPropertyOp26
 70
     1
102
RTVSPropertyOp27
 70
     1
102
RTVSPropertyOp28
 70
     1
102
RTVSPropertyOp29
 70
     1
102
RTVSPropertyOp30
 70
     1
102
RTVSPropertyOp31
 70
     1
102
RTVSPropertyOp32
 70
     1
  0
XRECORD
  5
F10B6B
102
{ACAD_REACTORS
330
F10B6A
102
}
330
F10B6A
100
AcDbXrecord
280
     1
102
RTVSPropertyOp0
 70
     0
102
RTVSPropertyOp1
 70
     0
102
RTVSPropertyOp2
 70
     0
102
RTVSPropertyOp3
 70
     0
102
RTVSPropertyOp4
 70
     0
102
RTVSPropertyOp5
 70
     0
102
RTVSPropertyOp6
 70
     0
102
RTVSPropertyOp7
 70
     0
102
RTVSPropertyOp8
 70
     0
102
RTVSPropertyOp9
 70
     0
102
RTVSPropertyOp10
 70
     0
102
RTVSPropertyOp11
 70
     0
102
RTVSPropertyOp12
 70
     0
102
RTVSPropertyOp13
 70
     0
102
RTVSPropertyOp14
 70
     2
102
RTVSPropertyOp15
 70
     0
102
RTVSPropertyOp16
 70
     0
102
RTVSPropertyOp17
 70
     0
102
RTVSPropertyOp18
 70
     0
102
RTVSPropertyOp19
 70
     0
102
RTVSPropertyOp20
 70
     0
102
RTVSPropertyOp21
 70
     0
102
RTVSPropertyOp22
 70
     0
102
RTVSPropertyOp23
 70
     0
102
RTVSPropertyOp24
 70
     0
102
RTVSPropertyOp25
 70
     0
102
RTVSPropertyOp26
 70
     0
102
RTVSPropertyOp27
 70
     0
102
RTVSPropertyOp28
 70
     1
102
RTVSPropertyOp29
 70
     1
102
RTVSPropertyOp30
 70
     1
102
RTVSPropertyOp31
 70
     1
102
RTVSPropertyOp32
 70
     1
  0
XRECORD
  5
F10B65
102
{ACAD_REACTORS
330
F10B64
102
}
330
F10B64
100
AcDbXrecord
280
     1
102
RTVSPropertyOp0
 70
     1
102
RTVSPropertyOp1
 70
     1
102
RTVSPropertyOp2
 70
     1
102
RTVSPropertyOp3
 70
     1
102
RTVSPropertyOp4
 70
     1
102
RTVSPropertyOp5
 70
     1
102
RTVSPropertyOp6
 70
     1
102
RTVSPropertyOp7
 70
     1
102
RTVSPropertyOp8
 70
     1
102
RTVSPropertyOp9
 70
     1
102
RTVSPropertyOp10
 70
     1
102
RTVSPropertyOp11
 70
     1
102
RTVSPropertyOp12
 70
     1
102
RTVSPropertyOp13
 70
     1
102
RTVSPropertyOp14
 70
     1
102
RTVSPropertyOp15
 70
     1
102
RTVSPropertyOp16
 70
     1
102
RTVSPropertyOp17
 70
     1
102
RTVSPropertyOp18
 70
     1
102
RTVSPropertyOp19
 70
     1
102
RTVSPropertyOp20
 70
     1
102
RTVSPropertyOp21
 70
     1
102
RTVSPropertyOp22
 70
     1
102
RTVSPropertyOp23
 70
     1
102
RTVSPropertyOp24
 70
     1
102
RTVSPropertyOp25
 70
     1
102
RTVSPropertyOp26
 70
     1
102
RTVSPropertyOp27
 70
     1
102
RTVSPropertyOp28
 70
     1
102
RTVSPropertyOp29
 70
     1
102
RTVSPropertyOp30
 70
     1
102
RTVSPropertyOp31
 70
     1
102
RTVSPropertyOp32
 70
     1
  0
XRECORD
  5
F10B6D
102
{ACAD_REACTORS
330
F10B6C
102
}
330
F10B6C
100
AcDbXrecord
280
     1
102
RTVSPropertyOp0
 70
     0
102
RTVSPropertyOp1
 70
     0
102
RTVSPropertyOp2
 70
     0
102
RTVSPropertyOp3
 70
     0
102
RTVSPropertyOp4
 70
     0
102
RTVSPropertyOp5
 70
     0
102
RTVSPropertyOp6
 70
     0
102
RTVSPropertyOp7
 70
     0
102
RTVSPropertyOp8
 70
     0
102
RTVSPropertyOp9
 70
     0
102
RTVSPropertyOp10
 70
     0
102
RTVSPropertyOp11
 70
     0
102
RTVSPropertyOp12
 70
     0
102
RTVSPropertyOp13
 70
     0
102
RTVSPropertyOp14
 70
     2
102
RTVSPropertyOp15
 70
     0
102
RTVSPropertyOp16
 70
     0
102
RTVSPropertyOp17
 70
     0
102
RTVSPropertyOp18
 70
     0
102
RTVSPropertyOp19
 70
     0
102
RTVSPropertyOp20
 70
     0
102
RTVSPropertyOp21
 70
     0
102
RTVSPropertyOp22
 70
     0
102
RTVSPropertyOp23
 70
     0
102
RTVSPropertyOp24
 70
     0
102
RTVSPropertyOp25
 70
     0
102
RTVSPropertyOp26
 70
     0
102
RTVSPropertyOp27
 70
     0
102
RTVSPropertyOp28
 70
     1
102
RTVSPropertyOp29
 70
     1
102
RTVSPropertyOp30
 70
     1
102
RTVSPropertyOp31
 70
     1
102
RTVSPropertyOp32
 70
     1
  0
XRECORD
  5
F10B5D
102
{ACAD_REACTORS
330
F10B5C
102
}
330
F10B5C
100
AcDbXrecord
280
     1
102
RTVSPropertyOp0
 70
     1
102
RTVSPropertyOp1
 70
     1
102
RTVSPropertyOp2
 70
     1
102
RTVSPropertyOp3
 70
     1
102
RTVSPropertyOp4
 70
     1
102
RTVSPropertyOp5
 70
     1
102
RTVSPropertyOp6
 70
     1
102
RTVSPropertyOp7
 70
     1
102
RTVSPropertyOp8
 70
     1
102
RTVSPropertyOp9
 70
     1
102
RTVSPropertyOp10
 70
     1
102
RTVSPropertyOp11
 70
     1
102
RTVSPropertyOp12
 70
     1
102
RTVSPropertyOp13
 70
     1
102
RTVSPropertyOp14
 70
     1
102
RTVSPropertyOp15
 70
     1
102
RTVSPropertyOp16
 70
     1
102
RTVSPropertyOp17
 70
     1
102
RTVSPropertyOp18
 70
     1
102
RTVSPropertyOp19
 70
     1
102
RTVSPropertyOp20
 70
     1
102
RTVSPropertyOp21
 70
     1
102
RTVSPropertyOp22
 70
     1
102
RTVSPropertyOp23
 70
     1
102
RTVSPropertyOp24
 70
     1
102
RTVSPropertyOp25
 70
     1
102
RTVSPropertyOp26
 70
     1
102
RTVSPropertyOp27
 70
     1
102
RTVSPropertyOp28
 70
     1
102
RTVSPropertyOp29
 70
     1
102
RTVSPropertyOp30
 70
     1
102
RTVSPropertyOp31
 70
     1
102
RTVSPropertyOp32
 70
     1
  0
XRECORD
  5
F10B83
102
{ACAD_REACTORS
330
F10B82
102
}
330
F10B82
100
AcDbXrecord
280
     1
102
RTVSPropertyOp0
 70
     1
102
RTVSPropertyOp1
 70
     1
102
RTVSPropertyOp2
 70
     1
102
RTVSPropertyOp3
 70
     1
102
RTVSPropertyOp4
 70
     1
102
RTVSPropertyOp5
 70
     1
102
RTVSPropertyOp6
 70
     1
102
RTVSPropertyOp7
 70
     1
102
RTVSPropertyOp8
 70
     1
102
RTVSPropertyOp9
 70
     1
102
RTVSPropertyOp10
 70
     1
102
RTVSPropertyOp11
 70
     1
102
RTVSPropertyOp12
 70
     1
102
RTVSPropertyOp13
 70
     1
102
RTVSPropertyOp14
 70
     1
102
RTVSPropertyOp15
 70
     1
102
RTVSPropertyOp16
 70
     1
102
RTVSPropertyOp17
 70
     1
102
RTVSPropertyOp18
 70
     1
102
RTVSPropertyOp19
 70
     1
102
RTVSPropertyOp20
 70
     1
102
RTVSPropertyOp21
 70
     1
102
RTVSPropertyOp22
 70
     1
102
RTVSPropertyOp23
 70
     1
102
RTVSPropertyOp24
 70
     1
102
RTVSPropertyOp25
 70
     1
102
RTVSPropertyOp26
 70
     1
102
RTVSPropertyOp27
 70
     1
102
RTVSPropertyOp28
 70
     1
102
RTVSPropertyOp29
 70
     1
102
RTVSPropertyOp30
 70
     1
102
RTVSPropertyOp31
 70
     1
102
RTVSPropertyOp32
 70
     1
  0
XRECORD
  5
F10B81
102
{ACAD_REACTORS
330
F10B80
102
}
330
F10B80
100
AcDbXrecord
280
     1
102
RTVSPropertyOp0
 70
     1
102
RTVSPropertyOp1
 70
     1
102
RTVSPropertyOp2
 70
     1
102
RTVSPropertyOp3
 70
     1
102
RTVSPropertyOp4
 70
     1
102
RTVSPropertyOp5
 70
     1
102
RTVSPropertyOp6
 70
     1
102
RTVSPropertyOp7
 70
     1
102
RTVSPropertyOp8
 70
     1
102
RTVSPropertyOp9
 70
     1
102
RTVSPropertyOp10
 70
     1
102
RTVSPropertyOp11
 70
     1
102
RTVSPropertyOp12
 70
     1
102
RTVSPropertyOp13
 70
     1
102
RTVSPropertyOp14
 70
     1
102
RTVSPropertyOp15
 70
     1
102
RTVSPropertyOp16
 70
     1
102
RTVSPropertyOp17
 70
     1
102
RTVSPropertyOp18
 70
     1
102
RTVSPropertyOp19
 70
     1
102
RTVSPropertyOp20
 70
     1
102
RTVSPropertyOp21
 70
     1
102
RTVSPropertyOp22
 70
     1
102
RTVSPropertyOp23
 70
     1
102
RTVSPropertyOp24
 70
     1
102
RTVSPropertyOp25
 70
     1
102
RTVSPropertyOp26
 70
     1
102
RTVSPropertyOp27
 70
     1
102
RTVSPropertyOp28
 70
     1
102
RTVSPropertyOp29
 70
     1
102
RTVSPropertyOp30
 70
     1
102
RTVSPropertyOp31
 70
     1
102
RTVSPropertyOp32
 70
     1
  0
XRECORD
  5
F10B7B
102
{ACAD_REACTORS
330
F10B7A
102
}
330
F10B7A
100
AcDbXrecord
280
     1
102
RTVSPropertyOp0
 70
     1
102
RTVSPropertyOp1
 70
     1
102
RTVSPropertyOp2
 70
     1
102
RTVSPropertyOp3
 70
     1
102
RTVSPropertyOp4
 70
     1
102
RTVSPropertyOp5
 70
     1
102
RTVSPropertyOp6
 70
     1
102
RTVSPropertyOp7
 70
     1
102
RTVSPropertyOp8
 70
     1
102
RTVSPropertyOp9
 70
     1
102
RTVSPropertyOp10
 70
     1
102
RTVSPropertyOp11
 70
     1
102
RTVSPropertyOp12
 70
     1
102
RTVSPropertyOp13
 70
     1
102
RTVSPropertyOp14
 70
     1
102
RTVSPropertyOp15
 70
     1
102
RTVSPropertyOp16
 70
     1
102
RTVSPropertyOp17
 70
     1
102
RTVSPropertyOp18
 70
     1
102
RTVSPropertyOp19
 70
     1
102
RTVSPropertyOp20
 70
     1
102
RTVSPropertyOp21
 70
     1
102
RTVSPropertyOp22
 70
     1
102
RTVSPropertyOp23
 70
     1
102
RTVSPropertyOp24
 70
     1
102
RTVSPropertyOp25
 70
     1
102
RTVSPropertyOp26
 70
     1
102
RTVSPropertyOp27
 70
     1
102
RTVSPropertyOp28
 70
     1
102
RTVSPropertyOp29
 70
     1
102
RTVSPropertyOp30
 70
     1
102
RTVSPropertyOp31
 70
     1
102
RTVSPropertyOp32
 70
     1
  0
XRECORD
  5
F10B7D
102
{ACAD_REACTORS
330
F10B7C
102
}
330
F10B7C
100
AcDbXrecord
280
     1
102
RTVSPropertyOp0
 70
     1
102
RTVSPropertyOp1
 70
     1
102
RTVSPropertyOp2
 70
     1
102
RTVSPropertyOp3
 70
     1
102
RTVSPropertyOp4
 70
     1
102
RTVSPropertyOp5
 70
     1
102
RTVSPropertyOp6
 70
     1
102
RTVSPropertyOp7
 70
     1
102
RTVSPropertyOp8
 70
     1
102
RTVSPropertyOp9
 70
     1
102
RTVSPropertyOp10
 70
     1
102
RTVSPropertyOp11
 70
     1
102
RTVSPropertyOp12
 70
     1
102
RTVSPropertyOp13
 70
     1
102
RTVSPropertyOp14
 70
     1
102
RTVSPropertyOp15
 70
     1
102
RTVSPropertyOp16
 70
     1
102
RTVSPropertyOp17
 70
     1
102
RTVSPropertyOp18
 70
     1
102
RTVSPropertyOp19
 70
     1
102
RTVSPropertyOp20
 70
     1
102
RTVSPropertyOp21
 70
     1
102
RTVSPropertyOp22
 70
     1
102
RTVSPropertyOp23
 70
     1
102
RTVSPropertyOp24
 70
     1
102
RTVSPropertyOp25
 70
     1
102
RTVSPropertyOp26
 70
     1
102
RTVSPropertyOp27
 70
     1
102
RTVSPropertyOp28
 70
     1
102
RTVSPropertyOp29
 70
     1
102
RTVSPropertyOp30
 70
     1
102
RTVSPropertyOp31
 70
     1
102
RTVSPropertyOp32
 70
     1
  0
XRECORD
  5
F10B63
102
{ACAD_REACTORS
330
F10B62
102
}
330
F10B62
100
AcDbXrecord
280
     1
102
RTVSPropertyOp0
 70
     1
102
RTVSPropertyOp1
 70
     1
102
RTVSPropertyOp2
 70
     1
102
RTVSPropertyOp3
 70
     1
102
RTVSPropertyOp4
 70
     1
102
RTVSPropertyOp5
 70
     1
102
RTVSPropertyOp6
 70
     1
102
RTVSPropertyOp7
 70
     1
102
RTVSPropertyOp8
 70
     1
102
RTVSPropertyOp9
 70
     1
102
RTVSPropertyOp10
 70
     1
102
RTVSPropertyOp11
 70
     1
102
RTVSPropertyOp12
 70
     1
102
RTVSPropertyOp13
 70
     1
102
RTVSPropertyOp14
 70
     1
102
RTVSPropertyOp15
 70
     1
102
RTVSPropertyOp16
 70
     1
102
RTVSPropertyOp17
 70
     1
102
RTVSPropertyOp18
 70
     1
102
RTVSPropertyOp19
 70
     1
102
RTVSPropertyOp20
 70
     1
102
RTVSPropertyOp21
 70
     1
102
RTVSPropertyOp22
 70
     1
102
RTVSPropertyOp23
 70
     1
102
RTVSPropertyOp24
 70
     1
102
RTVSPropertyOp25
 70
     1
102
RTVSPropertyOp26
 70
     1
102
RTVSPropertyOp27
 70
     1
102
RTVSPropertyOp28
 70
     1
102
RTVSPropertyOp29
 70
     1
102
RTVSPropertyOp30
 70
     1
102
RTVSPropertyOp31
 70
     1
102
RTVSPropertyOp32
 70
     1
  0
XRECORD
  5
F10B77
102
{ACAD_REACTORS
330
F10B76
102
}
330
F10B76
100
AcDbXrecord
280
     1
102
RTVSPropertyOp0
 70
     1
102
RTVSPropertyOp1
 70
     1
102
RTVSPropertyOp2
 70
     1
102
RTVSPropertyOp3
 70
     1
102
RTVSPropertyOp4
 70
     1
102
RTVSPropertyOp5
 70
     1
102
RTVSPropertyOp6
 70
     1
102
RTVSPropertyOp7
 70
     1
102
RTVSPropertyOp8
 70
     1
102
RTVSPropertyOp9
 70
     1
102
RTVSPropertyOp10
 70
     1
102
RTVSPropertyOp11
 70
     1
102
RTVSPropertyOp12
 70
     1
102
RTVSPropertyOp13
 70
     1
102
RTVSPropertyOp14
 70
     1
102
RTVSPropertyOp15
 70
     1
102
RTVSPropertyOp16
 70
     1
102
RTVSPropertyOp17
 70
     1
102
RTVSPropertyOp18
 70
     1
102
RTVSPropertyOp19
 70
     1
102
RTVSPropertyOp20
 70
     1
102
RTVSPropertyOp21
 70
     1
102
RTVSPropertyOp22
 70
     1
102
RTVSPropertyOp23
 70
     1
102
RTVSPropertyOp24
 70
     1
102
RTVSPropertyOp25
 70
     1
102
RTVSPropertyOp26
 70
     1
102
RTVSPropertyOp27
 70
     1
102
RTVSPropertyOp28
 70
     1
102
RTVSPropertyOp29
 70
     1
102
RTVSPropertyOp30
 70
     1
102
RTVSPropertyOp31
 70
     1
102
RTVSPropertyOp32
 70
     1
  0
XRECORD
  5
F10B7F
102
{ACAD_REACTORS
330
F10B7E
102
}
330
F10B7E
100
AcDbXrecord
280
     1
102
RTVSPropertyOp0
 70
     1
102
RTVSPropertyOp1
 70
     1
102
RTVSPropertyOp2
 70
     1
102
RTVSPropertyOp3
 70
     1
102
RTVSPropertyOp4
 70
     1
102
RTVSPropertyOp5
 70
     1
102
RTVSPropertyOp6
 70
     1
102
RTVSPropertyOp7
 70
     1
102
RTVSPropertyOp8
 70
     1
102
RTVSPropertyOp9
 70
     1
102
RTVSPropertyOp10
 70
     1
102
RTVSPropertyOp11
 70
     1
102
RTVSPropertyOp12
 70
     1
102
RTVSPropertyOp13
 70
     1
102
RTVSPropertyOp14
 70
     1
102
RTVSPropertyOp15
 70
     1
102
RTVSPropertyOp16
 70
     1
102
RTVSPropertyOp17
 70
     1
102
RTVSPropertyOp18
 70
     1
102
RTVSPropertyOp19
 70
     1
102
RTVSPropertyOp20
 70
     1
102
RTVSPropertyOp21
 70
     1
102
RTVSPropertyOp22
 70
     1
102
RTVSPropertyOp23
 70
     1
102
RTVSPropertyOp24
 70
     1
102
RTVSPropertyOp25
 70
     1
102
RTVSPropertyOp26
 70
     1
102
RTVSPropertyOp27
 70
     1
102
RTVSPropertyOp28
 70
     1
102
RTVSPropertyOp29
 70
     1
102
RTVSPropertyOp30
 70
     1
102
RTVSPropertyOp31
 70
     1
102
RTVSPropertyOp32
 70
     1
  0
ENDSEC
  0
EOF
