  0
SECTION
  2
HEADER
  9
$ACADVER
  1
AC1015
  9
$ACADMAINTVER
 70
    20
  9
$DWGCODEPAGE
  3
ANSI_1252
  9
$INSBASE
 10
0.0
 20
0.0
 30
0.0
  9
$EXTMIN
 10
-134.524070021882
 20
-100.175054704595
 30
0.0
  9
$EXTMAX
 10
143.484682713348
 20
99.945295404814
 30
0.0
  9
$LIMMIN
 10
0.0
 20
0.0
  9
$LIMMAX
 10
12.0
 20
9.0
  9
$ORTHOMODE
 70
     0
  9
$REGENMODE
 70
     1
  9
$FILLMODE
 70
     1
  9
$QTEXTMODE
 70
     0
  9
$MIRRTEXT
 70
     1
  9
$LTSCALE
 40
1.0
  9
$ATTMODE
 70
     1
  9
$TEXTSIZE
 40
0.2
  9
$TRACEWID
 40
0.05
  9
$TEXTSTYLE
  7
Standard
  9
$CLAYER
  8
0
  9
$CELTYPE
  6
ByLayer
  9
$CECOLOR
 62
   256
  9
$CELTSCALE
 40
1.0
  9
$DISPSILH
 70
     0
  9
$DIMSCALE
 40
1.0
  9
$DIMASZ
 40
2.5
  9
$DIMEXO
 40
0.625
  9
$DIMDLI
 40
0.38
  9
$DIMRND
 40
0.0
  9
$DIMDLE
 40
0.0
  9
$DIMEXE
 40
1.25
  9
$DIMTP
 40
0.0
  9
$DIMTM
 40
0.000000001
  9
$DIMTXT
 40
2.5
  9
$DIMCEN
 40
0.09
  9
$DIMTSZ
 40
0.0
  9
$DIMTOL
 70
     1
  9
$DIMLIM
 70
     0
  9
$DIMTIH
 70
     0
  9
$DIMTOH
 70
     0
  9
$DIMSE1
 70
     0
  9
$DIMSE2
 70
     0
  9
$DIMTAD
 70
     1
  9
$DIMZIN
 70
     0
  9
$DIMBLK
  1
VDDIM_DEFAULT
  9
$DIMASO
 70
     1
  9
$DIMSHO
 70
     1
  9
$DIMPOST
  1

  9
$DIMAPOST
  1

  9
$DIMALT
 70
     0
  9
$DIMALTD
 70
     2
  9
$DIMALTF
 40
25.4
  9
$DIMLFAC
 40
1.0
  9
$DIMTOFL
 70
     0
  9
$DIMTVP
 40
0.0
  9
$DIMTIX
 70
     0
  9
$DIMSOXD
 70
     0
  9
$DIMSAH
 70
     0
  9
$DIMBLK1
  1

  9
$DIMBLK2
  1

  9
$DIMSTYLE
  2
BEM-ISBE
  9
$DIMCLRD
 70
     0
  9
$DIMCLRE
 70
     0
  9
$DIMCLRT
 70
     0
  9
$DIMTFAC
 40
0.5
  9
$DIMGAP
 40
0.625
  9
$DIMJUST
 70
     0
  9
$DIMSD1
 70
     0
  9
$DIMSD2
 70
     0
  9
$DIMTOLJ
 70
     1
  9
$DIMTZIN
 70
     0
  9
$DIMALTZ
 70
     0
  9
$DIMALTTZ
 70
     0
  9
$DIMUPT
 70
     0
  9
$DIMDEC
 70
     3
  9
$DIMTDEC
 70
     3
  9
$DIMALTU
 70
     2
  9
$DIMALTTD
 70
     2
  9
$DIMTXSTY
  7
Standard
  9
$DIMAUNIT
 70
     0
  9
$DIMADEC
 70
     3
  9
$DIMALTRND
 40
0.0
  9
$DIMAZIN
 70
     0
  9
$DIMDSEP
 70
    46
  9
$DIMATFIT
 70
     3
  9
$DIMFRAC
 70
     0
  9
$DIMLDRBLK
  1

  9
$DIMLUNIT
 70
     2
  9
$DIMLWD
 70
    -2
  9
$DIMLWE
 70
    -2
  9
$DIMTMOVE
 70
     0
  9
$LUNITS
 70
     2
  9
$LUPREC
 70
     4
  9
$SKETCHINC
 40
0.1
  9
$FILLETRAD
 40
0.5
  9
$AUNITS
 70
     0
  9
$AUPREC
 70
     0
  9
$MENU
  1
.
  9
$ELEVATION
 40
0.0
  9
$PELEVATION
 40
0.0
  9
$THICKNESS
 40
0.0
  9
$LIMCHECK
 70
     0
  9
$CHAMFERA
 40
0.5
  9
$CHAMFERB
 40
0.5
  9
$CHAMFERC
 40
1.0
  9
$CHAMFERD
 40
0.0
  9
$SKPOLY
 70
     0
  9
$TDCREATE
 40
2456884.312360069
  9
$TDUCREATE
 40
2456884.229026736
  9
$TDUPDATE
 40
2456884.406795521
  9
$TDUUPDATE
 40
2456884.323462187
  9
$TDINDWG
 40
0.0312561921
  9
$TDUSRTIMER
 40
0.0312561111
  9
$USRTIMER
 70
     1
  9
$ANGBASE
 50
0.0
  9
$ANGDIR
 70
     0
  9
$PDMODE
 70
     0
  9
$PDSIZE
 40
0.0
  9
$PLINEWID
 40
0.0
  9
$SPLFRAME
 70
     0
  9
$SPLINETYPE
 70
     6
  9
$SPLINESEGS
 70
     8
  9
$HANDSEED
  5
F10808
  9
$SURFTAB1
 70
     6
  9
$SURFTAB2
 70
     6
  9
$SURFTYPE
 70
     6
  9
$SURFU
 70
     6
  9
$SURFV
 70
     6
  9
$UCSBASE
  2

  9
$UCSNAME
  2

  9
$UCSORG
 10
-12.74542195730641
 20
7.648135119909196
 30
0.0
  9
$UCSXDIR
 10
1.0
 20
0.0
 30
0.0
  9
$UCSYDIR
 10
0.0
 20
1.0
 30
0.0
  9
$UCSORTHOREF
  2

  9
$UCSORTHOVIEW
 70
     0
  9
$UCSORGTOP
 10
0.0
 20
0.0
 30
0.0
  9
$UCSORGBOTTOM
 10
0.0
 20
0.0
 30
0.0
  9
$UCSORGLEFT
 10
0.0
 20
0.0
 30
0.0
  9
$UCSORGRIGHT
 10
0.0
 20
0.0
 30
0.0
  9
$UCSORGFRONT
 10
0.0
 20
0.0
 30
0.0
  9
$UCSORGBACK
 10
0.0
 20
0.0
 30
0.0
  9
$PUCSBASE
  2

  9
$PUCSNAME
  2

  9
$PUCSORG
 10
0.0
 20
0.0
 30
0.0
  9
$PUCSXDIR
 10
1.0
 20
0.0
 30
0.0
  9
$PUCSYDIR
 10
0.0
 20
1.0
 30
0.0
  9
$PUCSORTHOREF
  2

  9
$PUCSORTHOVIEW
 70
     0
  9
$PUCSORGTOP
 10
0.0
 20
0.0
 30
0.0
  9
$PUCSORGBOTTOM
 10
0.0
 20
0.0
 30
0.0
  9
$PUCSORGLEFT
 10
0.0
 20
0.0
 30
0.0
  9
$PUCSORGRIGHT
 10
0.0
 20
0.0
 30
0.0
  9
$PUCSORGFRONT
 10
0.0
 20
0.0
 30
0.0
  9
$PUCSORGBACK
 10
0.0
 20
0.0
 30
0.0
  9
$USERI1
 70
     0
  9
$USERI2
 70
     0
  9
$USERI3
 70
     0
  9
$USERI4
 70
     0
  9
$USERI5
 70
     0
  9
$USERR1
 40
0.0
  9
$USERR2
 40
0.0
  9
$USERR3
 40
0.0
  9
$USERR4
 40
0.0
  9
$USERR5
 40
0.0
  9
$WORLDVIEW
 70
     1
  9
$SHADEDGE
 70
     3
  9
$SHADEDIF
 70
    70
  9
$TILEMODE
 70
     1
  9
$MAXACTVP
 70
    64
  9
$PINSBASE
 10
0.0
 20
0.0
 30
0.0
  9
$PLIMCHECK
 70
     0
  9
$PEXTMIN
 10
1.000000000000000E+20
 20
1.000000000000000E+20
 30
1.000000000000000E+20
  9
$PEXTMAX
 10
-1.000000000000000E+20
 20
-1.000000000000000E+20
 30
-1.000000000000000E+20
  9
$PLIMMIN
 10
0.0
 20
0.0
  9
$PLIMMAX
 10
12.0
 20
9.0
  9
$UNITMODE
 70
     0
  9
$VISRETAIN
 70
     1
  9
$PLINEGEN
 70
     0
  9
$PSLTSCALE
 70
     1
  9
$TREEDEPTH
 70
  3020
  9
$CMLSTYLE
  2
Standard
  9
$CMLJUST
 70
     0
  9
$CMLSCALE
 40
1.0
  9
$PROXYGRAPHICS
 70
     1
  9
$MEASUREMENT
 70
     0
  9
$CELWEIGHT
370
    -1
  9
$ENDCAPS
280
     0
  9
$JOINSTYLE
280
     0
  9
$LWDISPLAY
290
     0
  9
$INSUNITS
 70
     4
  9
$HYPERLINKBASE
  1

  9
$STYLESHEET
  1

  9
$XEDIT
290
     1
  9
$CEPSNTYPE
380
     0
  9
$PSTYLEMODE
290
     0
  9
$FINGERPRINTGUID
  2
{FAEB1C30-E019-11D5-929B-00C0DF256EC4}
  9
$VERSIONGUID
  2
{109FFF30-E76E-4DCE-B66A-41427C2DF201}
  9
$EXTNAMES
290
     1
  9
$PSVPSCALE
 40
0.0
  9
$OLESTARTUP
290
     0
  0
ENDSEC
  0
SECTION
  2
CLASSES
  0
CLASS
  1
ACDBDICTIONARYWDFLT
  2
AcDbDictionaryWithDefault
  3
ObjectDBX Classes
 90
        0
280
     0
281
     0
  0
CLASS
  1
MATERIAL
  2
AcDbMaterial
  3
ObjectDBX Classes
 90
     1153
280
     0
281
     0
  0
CLASS
  1
MLEADERSTYLE
  2
AcDbMLeaderStyle
  3
ACDB_MLEADERSTYLE_CLASS
 90
     4095
280
     0
281
     0
  0
CLASS
  1
SCALE
  2
AcDbScale
  3
ObjectDBX Classes
 90
     1153
280
     0
281
     0
  0
CLASS
  1
TABLESTYLE
  2
AcDbTableStyle
  3
ObjectDBX Classes
 90
     4095
280
     0
281
     0
  0
CLASS
  1
VISUALSTYLE
  2
AcDbVisualStyle
  3
ObjectDBX Classes
 90
     4095
280
     0
281
     0
  0
CLASS
  1
DICTIONARYVAR
  2
AcDbDictionaryVar
  3
ObjectDBX Classes
 90
        0
280
     0
281
     0
  0
CLASS
  1
CELLSTYLEMAP
  2
AcDbCellStyleMap
  3
ObjectDBX Classes
 90
     1152
280
     0
281
     0
  0
CLASS
  1
AMGSETTINGSOBJ
  2
AmgSettingsObj
  3
"AcadM|Product Description: AutoCAD Mechanical|Company: Autodesk, Inc."
 90
     1024
280
     0
281
     0
  0
CLASS
  1
ACME_DOCUMENT
  2
AcMeDbDoc
  3
AcMeServices
 90
     1024
280
     0
281
     0
  0
CLASS
  1
ACMESCOPE
  2
AcMeScope
  3
AcMeServices
 90
     1024
280
     0
281
     0
  0
CLASS
  1
ACMECOMMANDHISTORY
  2
AcMeCommandHistory
  3
AcMeServices
 90
     1024
280
     0
281
     0
  0
CLASS
  1
ACIMSYSVARMAN
  2
AcImSysVarManager
  3
AcMeServices
 90
     1024
280
     0
281
     0
  0
CLASS
  1
ACIMINTSYSVAR
  2
AcImIntSysVar
  3
AcMeServices
 90
     1024
280
     0
281
     0
  0
CLASS
  1
ACMESTATEMGR
  2
AcMeStateMgr
  3
AcMeServices
 90
     1024
280
     0
281
     0
  0
CLASS
  1
ACDBENTITYCACHE
  2
AcMeEntityCache
  3
AcMeServices
 90
     1024
280
     0
281
     0
  0
CLASS
  1
ACGREFMASTER
  2
AcGrefMaster
  3
AcAttribServices
 90
     1024
280
     0
281
     0
  0
CLASS
  1
AM_DRAWING_MGR
  2
AcDmDwgMgr
  3
AcMechDwgViewMgmt
 90
     1024
280
     0
281
     0
  0
CLASS
  1
AM_DWG_DOCUMENT
  2
AcDmDwgDocument
  3
AcMechDwgViewMgmt
 90
     1024
280
     0
281
     0
  0
CLASS
  1
AM_DWG_SHEET
  2
AcDmSheet
  3
AcMechDwgViewMgmt
 90
     1024
280
     0
281
     0
  0
CLASS
  1
AM_VIEWDIMPARMAP
  2
AcDmViewDimParMap
  3
AcMechDwgViewMgmt
 90
     1024
280
     0
281
     0
  0
CLASS
  1
AMDTINTERNALREACTOR
  2
AmdtInternalReactor
  3
AcMeServices
 90
     1024
280
     0
281
     0
  0
CLASS
  1
ACIMREALSYSVAR
  2
AcImRealSysVar
  3
AcMeServices
 90
     1024
280
     0
281
     0
  0
CLASS
  1
AM_DWGMGR_NAME
  2
AcDmDwgMgrName
  3
AcMechDwgViewMgmt
 90
     1024
280
     0
281
     0
  0
CLASS
  1
ACME_DATABASE
  2
AcMeDbDatabase
  3
AcMeServices
 90
     1024
280
     0
281
     0
  0
CLASS
  1
ACRFINSADJUSTERMGR
  2
AcRfInsAdjusterMgr
  3
AcMeServices
 90
     1024
280
     0
281
     0
  0
CLASS
  1
ACGREFACADMASTER
  2
AcGrefacadMaster
  3
AcGrefServices
 90
     1024
280
     0
281
     0
  0
CLASS
  1
AMDTMENUSTATEMGR
  2
AmdtMenuStateMgr
  3
McadcomServices
 90
     1024
280
     0
281
     0
  0
CLASS
  1
AMDTMCOMMENUSTATE
  2
AmdtMcomMenuState
  3
McadcomServices
 90
     1024
280
     0
281
     0
  0
CLASS
  1
AMIMASTER
  2
AmiMaster
  3
AmiServices
 90
     1024
280
     0
281
     0
  0
CLASS
  1
MAPIAMMOUDLE
  2
MApiAmModule
  3
MApiAmServices
 90
     1024
280
     0
281
     0
  0
CLASS
  1
ACIMSTRSYSVAR
  2
AcImStrSysVar
  3
AcMeServices
 90
     1024
280
     0
281
     0
  0
CLASS
  1
AMDTDMMENUSTATE
  2
AmdtDmMenuState
  3
AcMechDwgViewMgmt
 90
     1024
280
     0
281
     0
  0
CLASS
  1
AMDTAMMENUSTATE
  2
AmdtAmMenuState
  3
DesignerAssemblies
 90
     1024
280
     0
281
     0
  0
CLASS
  1
ACAMPROJECT
  2
AcAmProject
  3
DesignerAssemblies
 90
     1024
280
     0
281
     0
  0
CLASS
  1
ACAMGRCOMPDEF
  2
AcAmGrCompDef
  3
DesignerAssemblies
 90
     1024
280
     0
281
     0
  0
CLASS
  1
ACAMCOMPDEF
  2
AcAmCompDef
  3
DesignerAssemblies
 90
     1024
280
     0
281
     0
  0
CLASS
  1
ACAMCOMPDEFMGR
  2
AcAmCompDefMgr
  3
DesignerAssemblies
 90
     1024
280
     0
281
     0
  0
CLASS
  1
AMCONTEXTMGR
  2
AcAmContextMgr
  3
DesignerAssemblies
 90
     1024
280
     0
281
     0
  0
CLASS
  1
ACAMCONTEXTMODELER
  2
AcAmContextModeler
  3
DesignerAssemblies
 90
     1024
280
     0
281
     0
  0
CLASS
  1
ACMDATADICTIONARY
  2
AcmDataDictionary
  3
"AcmSymBB|Product Description: AutoCAD Mechanical|Company: Autodesk, Inc."
 90
     1024
280
     0
281
     0
  0
CLASS
  1
ACAMGRCOMPDEFSET
  2
AcAmGrCompDefSet
  3
DesignerAssemblies
 90
     1024
280
     0
281
     0
  0
CLASS
  1
AMDTBROWSERDBTAB
  2
AmdtBrowserDbTab
  3
McadcomServices
 90
     1024
280
     0
281
     0
  0
CLASS
  1
CBROWSERAPPOBJECT
  2
CBrowserAppObject
  3
McadcomServices
 90
     1024
280
     0
281
     0
  0
CLASS
  1
DM_PLACEHOLDER
  2
AcDmSelsetPlaceholder
  3
AcMechDwgViewMgmt
 90
     1024
280
     0
281
     0
  0
CLASS
  1
EXACXREFPANELOBJECT
  2
ExAcXREFPanelObject
  3
EXAC_ESW
 90
     1025
280
     0
281
     0
  0
CLASS
  1
NPOCOLLECTION
  2
AcDbImpNonPersistentObjectsCollection
  3
ObjectDBX Classes
 90
     1153
280
     0
281
     0
  0
CLASS
  1
ACMSTANDARDANSI
  2
AcmStandardANSI
  3
"Amdt_StdImp|Product Description: AutoCAD Mechanical|Company: Autodesk, Inc."
 90
     1024
280
     0
281
     0
  0
CLASS
  1
ACMSURFSTANDARDANSI
  2
AcmSurfTextStdANSI
  3
"Amdt_StdImp|Product Description: AutoCAD Mechanical|Company: Autodesk, Inc."
 90
     1024
280
     0
281
     0
  0
CLASS
  1
ACMFCFSTANDARDANSI
  2
AcmFCFStdANSI
  3
"Amdt_StdImp|Product Description: AutoCAD Mechanical|Company: Autodesk, Inc."
 90
     1024
280
     0
281
     0
  0
CLASS
  1
ACMWELDSTANDARDANSI
  2
AcmWeldingStdANSI
  3
"Amdt_StdImp|Product Description: AutoCAD Mechanical|Company: Autodesk, Inc."
 90
     1024
280
     0
281
     0
  0
CLASS
  1
ACMIDSTANDARDANSI
  2
AcmIdStdANSI
  3
"Amdt_StdImp|Product Description: AutoCAD Mechanical|Company: Autodesk, Inc."
 90
     1024
280
     0
281
     0
  0
CLASS
  1
ACMDATUMSTANDARDANSI
  2
AcmDatumStdANSI
  3
"Amdt_StdImp|Product Description: AutoCAD Mechanical|Company: Autodesk, Inc."
 90
     1024
280
     0
281
     0
  0
CLASS
  1
ACMBOMSTANDARDANSI
  2
AcmBOMStdANSI
  3
"Amdt_StdImp|Product Description: AutoCAD Mechanical|Company: Autodesk, Inc."
 90
     1024
280
     0
281
     0
  0
CLASS
  1
ACMDETAILSTANDARDANSI
  2
AmdtDetailSymStdANSI
  3
"Amdt_StdImp|Product Description: AutoCAD Mechanical|Company: Autodesk, Inc."
 90
     1024
280
     0
281
     0
  0
CLASS
  1
ACMSECTIONSTANDARDANSI
  2
AmdtSectionSymStdANSI
  3
"Amdt_StdImp|Product Description: AutoCAD Mechanical|Company: Autodesk, Inc."
 90
     1024
280
     0
281
     0
  0
CLASS
  1
ACMCENTERLINESTANDARDANSI
  2
AmdtCenterLineStdANSI
  3
"Amdt_StdImp|Product Description: AutoCAD Mechanical|Company: Autodesk, Inc."
 90
     1024
280
     0
281
     0
  0
CLASS
  1
ACMTHREADLINESTANDARDANSI
  2
AmdtThreadLineStdANSI
  3
"Amdt_StdImp|Product Description: AutoCAD Mechanical|Company: Autodesk, Inc."
 90
     1024
280
     0
281
     0
  0
CLASS
  1
ACMNOTESTANDARDANSI
  2
AmdtNoteStdANSI
  3
"Amdt_StdImp|Product Description: AutoCAD Mechanical|Company: Autodesk, Inc."
 90
     1024
280
     0
281
     0
  0
CLASS
  1
ACMTAPERSTANDARDANSI
  2
AcmTaperStdANSI
  3
"Amdt_StdImp|Product Description: AutoCAD Mechanical|Company: Autodesk, Inc."
 90
     1024
280
     0
281
     0
  0
CLASS
  1
ACMANOOTATIONVIEWSTANDARDANSI
  2
AmdtAnViewStdANSI
  3
"Amdt_StdImp|Product Description: AutoCAD Mechanical|Company: Autodesk, Inc."
 90
     1024
280
     0
281
     0
  0
CLASS
  1
ACAMGLAYSTD
  2
AcAmgLayStd
  3
"AmgLay|Product Description: AutoCAD Mechanical|Company: Autodesk, Inc."
 90
     1024
280
     0
281
     0
  0
CLASS
  1
ACAMGDIMSTD
  2
AcAmgDimStd
  3
"AmgDim|Product Description: AutoCAD Mechanical|Company: Autodesk, Inc."
 90
     1024
280
     0
281
     0
  0
CLASS
  1
AMGOBJPROPCFG
  2
AmgObjPropCfg
  3
"AmgLay|Product Description: AutoCAD Mechanical|Company: Autodesk, Inc."
 90
     1025
280
     0
281
     0
  0
CLASS
  1
ACAMGHOLECHARTSTDANSI
  2
AcAmgHoleChartStdANSI
  3
AmgDim|Product Description: AutoCAD Mechanical|Company: Autodesk, Inc.
 90
     1024
280
     0
281
     0
  0
CLASS
  1
ACAMGTITLESTD
  2
AcAmgTitleStd
  3
"AmgTitle|Product Description: AutoCAD Mechanical|Company: Autodesk, Inc."
 90
     4095
280
     0
281
     0
  0
CLASS
  1
AMDTNOTETEMPLATEDB
  2
AmdtNoteTemplateDB
  3
AcmSymBB|Product Description: AutoCAD Mechanical|Company: Autodesk, Inc.
 90
     1024
280
     0
281
     0
  0
CLASS
  1
ACAMGFILTERDAT
  2
AcAmgFilterDat
  3
"AcadM|Product Description: AutoCAD Mechanical|Company: Autodesk, Inc."
 90
    33792
280
     0
281
     0
  0
CLASS
  1
CAMSSTRUCTBTNSTATE
  2
StructBtnState
  3
DesignerAssemblies
 90
    33792
280
     0
281
     0
  0
CLASS
  1
ACDBPLACEHOLDER
  2
AcDbPlaceHolder
  3
ObjectDBX Classes
 90
        0
280
     0
281
     0
  0
CLASS
  1
LAYOUT
  2
AcDbLayout
  3
ObjectDBX Classes
 90
        0
280
     0
281
     0
  0
ENDSEC
  0
SECTION
  2
TABLES
  0
TABLE
  2
VPORT
  5
24A
330
0
100
AcDbSymbolTable
 70
     1
  0
VPORT
  5
26B
330
24A
100
AcDbSymbolTableRecord
100
AcDbViewportTableRecord
  2
*Active
 70
     0
 10
0.0
 20
0.0
 11
1.0
 21
1.0
 12
34.37644712219236
 22
-11.22392988010405
 13
0.0
 23
0.0
 14
10.0
 24
10.0
 15
10.0
 25
10.0
 16
0.0
 26
0.0
 36
1.0
 17
0.0
 27
0.0
 37
0.0
 40
179.0296435046134
 41
1.466735966735966
 42
1.0
 43
0.0
 44
0.0
 50
0.0
 51
0.0000000000007958
 71
     0
 72
   100
 73
     1
 74
     3
 75
     0
 76
     0
 77
     0
 78
     1
281
     0
 65
     0
110
0.0
120
0.0
130
0.0
111
1.0
121
0.0
131
0.0
112
0.0
122
1.0
132
0.0
 79
     0
146
0.0
  0
ENDTAB
  0
TABLE
  2
LTYPE
  5
247
330
0
100
AcDbSymbolTable
 70
    36
  0
LTYPE
  5
256
330
247
100
AcDbSymbolTableRecord
100
AcDbLinetypeTableRecord
  2
ByBlock
 70
     0
  3

 72
    65
 73
     0
 40
0.0
  0
LTYPE
  5
257
330
247
100
AcDbSymbolTableRecord
100
AcDbLinetypeTableRecord
  2
ByLayer
 70
     0
  3

 72
    65
 73
     0
 40
0.0
  0
LTYPE
  5
258
330
247
100
AcDbSymbolTableRecord
100
AcDbLinetypeTableRecord
  2
Continuous
 70
     0
  3
Solid line
 72
    65
 73
     0
 40
0.0
  0
LTYPE
  5
273
330
247
100
AcDbSymbolTableRecord
100
AcDbLinetypeTableRecord
  2
CENTER
 70
     0
  3
Center ____ _ ____ _ ____ _ ____ _ ____ _ ____
 72
    65
 73
     4
 40
2.0
 49
1.25
 74
     0
 49
-0.25
 74
     0
 49
0.25
 74
     0
 49
-0.25
 74
     0
  0
LTYPE
  5
274
330
247
100
AcDbSymbolTableRecord
100
AcDbLinetypeTableRecord
  2
DASHDOT
 70
     0
  3
Dashdot __ . __ . __ . __ . __ . __ . __ . __
 72
    65
 73
     4
 40
1.0
 49
0.5
 74
     0
 49
-0.25
 74
     0
 49
0.0
 74
     0
 49
-0.25
 74
     0
  0
LTYPE
  5
275
330
247
100
AcDbSymbolTableRecord
100
AcDbLinetypeTableRecord
  2
DASHED
 70
     0
  3
Dashed __ __ __ __ __ __ __ __ __ __ __ __ __ _
 72
    65
 73
     2
 40
0.75
 49
0.5
 74
     0
 49
-0.25
 74
     0
  0
LTYPE
  5
276
330
247
100
AcDbSymbolTableRecord
100
AcDbLinetypeTableRecord
  2
HIDDEN
 70
     0
  3
Hidden __ __ __ __ __ __ __ __ __ __ __ __ __ __
 72
    65
 73
     2
 40
0.375
 49
0.25
 74
     0
 49
-0.125
 74
     0
  0
LTYPE
  5
277
330
247
100
AcDbSymbolTableRecord
100
AcDbLinetypeTableRecord
  2
HIDDEN2
 70
     0
  3
Hidden2 _ _ _ _ _ _ _ _ _ _ _ _ _ _ _ _ _
 72
    65
 73
     2
 40
0.1875
 49
0.125
 74
     0
 49
-0.0625
 74
     0
  0
LTYPE
  5
278
330
247
100
AcDbSymbolTableRecord
100
AcDbLinetypeTableRecord
  2
BORDER
 70
     0
  3
Border __ __ . __ __ . __ __ . __ __ . __ __ .
 72
    65
 73
     6
 40
1.75
 49
0.5
 74
     0
 49
-0.25
 74
     0
 49
0.5
 74
     0
 49
-0.25
 74
     0
 49
0.0
 74
     0
 49
-0.25
 74
     0
  0
LTYPE
  5
279
330
247
100
AcDbSymbolTableRecord
100
AcDbLinetypeTableRecord
  2
BORDER2
 70
     0
  3
Border2 __.__.__.__.__.__.__.__.__.__.__.
 72
    65
 73
     6
 40
0.875
 49
0.25
 74
     0
 49
-0.125
 74
     0
 49
0.25
 74
     0
 49
-0.125
 74
     0
 49
0.0
 74
     0
 49
-0.125
 74
     0
  0
LTYPE
  5
27A
330
247
100
AcDbSymbolTableRecord
100
AcDbLinetypeTableRecord
  2
BORDERX2
 70
     0
  3
Borderx2  ____  ____  .  ____  ____  .  ___
 72
    65
 73
     6
 40
3.5
 49
1.0
 74
     0
 49
-0.5
 74
     0
 49
1.0
 74
     0
 49
-0.5
 74
     0
 49
0.0
 74
     0
 49
-0.5
 74
     0
  0
LTYPE
  5
27B
330
247
100
AcDbSymbolTableRecord
100
AcDbLinetypeTableRecord
  2
CENTER2
 70
     0
  3
Center2  ___ _ ___ _ ___ _ ___ _ ___ _ ___
 72
    65
 73
     4
 40
1.125
 49
0.75
 74
     0
 49
-0.125
 74
     0
 49
0.125
 74
     0
 49
-0.125
 74
     0
  0
LTYPE
  5
27C
330
247
100
AcDbSymbolTableRecord
100
AcDbLinetypeTableRecord
  2
CENTERX2
 70
     0
  3
Centerx2  ________  __  ________  __  _____
 72
    65
 73
     4
 40
4.0
 49
2.5
 74
     0
 49
-0.5
 74
     0
 49
0.5
 74
     0
 49
-0.5
 74
     0
  0
LTYPE
  5
27D
330
247
100
AcDbSymbolTableRecord
100
AcDbLinetypeTableRecord
  2
DASHDOT2
 70
     0
  3
Dashdot2  _._._._._._._._._._._._._._._.
 72
    65
 73
     4
 40
0.5
 49
0.25
 74
     0
 49
-0.125
 74
     0
 49
0.0
 74
     0
 49
-0.125
 74
     0
  0
LTYPE
  5
27E
330
247
100
AcDbSymbolTableRecord
100
AcDbLinetypeTableRecord
  2
DASHDOTX2
 70
     0
  3
Dashdotx2 ____  .  ____  .  ____  .  ___
 72
    65
 73
     4
 40
2.0
 49
1.0
 74
     0
 49
-0.5
 74
     0
 49
0.0
 74
     0
 49
-0.5
 74
     0
  0
LTYPE
  5
27F
330
247
100
AcDbSymbolTableRecord
100
AcDbLinetypeTableRecord
  2
DASHED2
 70
     0
  3
Dashed2 _ _ _ _ _ _ _ _ _ _ _ _ _ _ _ _ _
 72
    65
 73
     2
 40
0.375
 49
0.25
 74
     0
 49
-0.125
 74
     0
  0
LTYPE
  5
280
330
247
100
AcDbSymbolTableRecord
100
AcDbLinetypeTableRecord
  2
DASHEDX2
 70
     0
  3
Dashedx2 ____  ____  ____  ____  ____  ___
 72
    65
 73
     2
 40
1.5
 49
1.0
 74
     0
 49
-0.5
 74
     0
  0
LTYPE
  5
281
330
247
100
AcDbSymbolTableRecord
100
AcDbLinetypeTableRecord
  2
DIVIDE
 70
     0
  3
Divide ____ . . ____ . . ____ . . ____ . . ____
 72
    65
 73
     6
 40
1.25
 49
0.5
 74
     0
 49
-0.25
 74
     0
 49
0.0
 74
     0
 49
-0.25
 74
     0
 49
0.0
 74
     0
 49
-0.25
 74
     0
  0
LTYPE
  5
282
330
247
100
AcDbSymbolTableRecord
100
AcDbLinetypeTableRecord
  2
DIVIDE2
 70
     0
  3
Divide2 __..__..__..__..__..__..__..__.._
 72
    65
 73
     6
 40
0.625
 49
0.25
 74
     0
 49
-0.125
 74
     0
 49
0.0
 74
     0
 49
-0.125
 74
     0
 49
0.0
 74
     0
 49
-0.125
 74
     0
  0
LTYPE
  5
283
330
247
100
AcDbSymbolTableRecord
100
AcDbLinetypeTableRecord
  2
DIVIDEX2
 70
     0
  3
Dividex2 ________  .  .  ________  .  .  _
 72
    65
 73
     6
 40
2.5
 49
1.0
 74
     0
 49
-0.5
 74
     0
 49
0.0
 74
     0
 49
-0.5
 74
     0
 49
0.0
 74
     0
 49
-0.5
 74
     0
  0
LTYPE
  5
284
330
247
100
AcDbSymbolTableRecord
100
AcDbLinetypeTableRecord
  2
DOT
 70
     0
  3
Dot . . . . . . . . . . . . . . . . . . . . . . . .
 72
    65
 73
     2
 40
0.25
 49
0.0
 74
     0
 49
-0.25
 74
     0
  0
LTYPE
  5
285
330
247
100
AcDbSymbolTableRecord
100
AcDbLinetypeTableRecord
  2
DOT2
 70
     0
  3
Dot2 ........................................
 72
    65
 73
     2
 40
0.125
 49
0.0
 74
     0
 49
-0.125
 74
     0
  0
LTYPE
  5
286
330
247
100
AcDbSymbolTableRecord
100
AcDbLinetypeTableRecord
  2
DOTX2
 70
     0
  3
Dotx2 .  .  .  .  .  .  .  .  .  .  .  .  .  .
 72
    65
 73
     2
 40
0.5
 49
0.0
 74
     0
 49
-0.5
 74
     0
  0
LTYPE
  5
287
330
247
100
AcDbSymbolTableRecord
100
AcDbLinetypeTableRecord
  2
HIDDENX2
 70
     0
  3
Hiddenx2 ____ ____ ____ ____ ____ ____ ____
 72
    65
 73
     2
 40
0.75
 49
0.5
 74
     0
 49
-0.25
 74
     0
  0
LTYPE
  5
288
330
247
100
AcDbSymbolTableRecord
100
AcDbLinetypeTableRecord
  2
PHANTOM
 70
     0
  3
Phantom ______  __  __  ______  __  __  ______
 72
    65
 73
     6
 40
2.5
 49
1.25
 74
     0
 49
-0.25
 74
     0
 49
0.25
 74
     0
 49
-0.25
 74
     0
 49
0.25
 74
     0
 49
-0.25
 74
     0
  0
LTYPE
  5
289
330
247
100
AcDbSymbolTableRecord
100
AcDbLinetypeTableRecord
  2
PHANTOM2
 70
     0
  3
Phantom2 ___ _ _ ___ _ _ ___ _ _ ___ _ _
 72
    65
 73
     6
 40
1.25
 49
0.625
 74
     0
 49
-0.125
 74
     0
 49
0.125
 74
     0
 49
-0.125
 74
     0
 49
0.125
 74
     0
 49
-0.125
 74
     0
  0
LTYPE
  5
28A
330
247
100
AcDbSymbolTableRecord
100
AcDbLinetypeTableRecord
  2
PHANTOMX2
 70
     0
  3
Phantomx2 ____________    ____    ____   _
 72
    65
 73
     6
 40
5.0
 49
2.5
 74
     0
 49
-0.5
 74
     0
 49
0.5
 74
     0
 49
-0.5
 74
     0
 49
0.5
 74
     0
 49
-0.5
 74
     0
  0
LTYPE
  5
F10425
330
247
100
AcDbSymbolTableRecord
100
AcDbLinetypeTableRecord
  2
AM_ISO02W050
 70
     0
  3
__ __ __ __ __ __ __ __ __ __ __ __ __ __ __
 72
    65
 73
     2
 40
7.5
 49
6.0
 74
     0
 49
-1.5
 74
     0
  0
LTYPE
  5
F10426
330
247
100
AcDbSymbolTableRecord
100
AcDbLinetypeTableRecord
  2
AM_ISO08W050
 70
     0
  3
____ . ____ . ____ . ____ . ____ . ____ . ____
 72
    65
 73
     4
 40
18.0
 49
12.0
 74
     0
 49
-1.5
 74
     0
 49
3.0
 74
     0
 49
-1.5
 74
     0
  0
LTYPE
  5
F10427
330
247
100
AcDbSymbolTableRecord
100
AcDbLinetypeTableRecord
  2
AM_ISO09W050
 70
     0
  3
_____ . . _____ . . _____ . . ____ .. ____
 72
    65
 73
     6
 40
22.5
 49
12.0
 74
     0
 49
-1.5
 74
     0
 49
3.0
 74
     0
 49
-1.5
 74
     0
 49
3.0
 74
     0
 49
-1.5
 74
     0
  0
LTYPE
  5
F10428
330
247
100
AcDbSymbolTableRecord
100
AcDbLinetypeTableRecord
  2
Amconstr
 70
     0
  3
_______________________
 72
    65
 73
     2
 40
9999.0
 49
9999.0
 74
     0
 49
0.0
 74
     0
  0
LTYPE
  5
F10429
330
247
100
AcDbSymbolTableRecord
100
AcDbLinetypeTableRecord
  2
AM_ISO08W050x2
 70
     0
  3
__ . __ . __ . __ . __ . __
 72
    65
 73
     4
 40
9.0
 49
6.0
 74
     0
 49
-0.75
 74
     0
 49
1.5
 74
     0
 49
-0.75
 74
     0
  0
LTYPE
  5
F1042A
330
247
100
AcDbSymbolTableRecord
100
AcDbLinetypeTableRecord
  2
AM_ISO02W050x2
 70
     0
  3
 _ _ _ _ _ _ _ _ _ _ _ _
 72
    65
 73
     2
 40
3.75
 49
3.0
 74
     0
 49
-0.75
 74
     0
  0
LTYPE
  5
F1042D
330
247
100
AcDbSymbolTableRecord
100
AcDbLinetypeTableRecord
  2
Amzigzag
 70
     0
  3
/\/-/\/-/\/-/\/-/\/-/\/
 72
    65
 73
     2
 40
11.0001
 49
0.0001
 74
     4
 75
   136
340
F1042C
 46
0.04
 50
0.0
 44
0.0
 45
0.0
 49
-11.0
 74
     0
  0
LTYPE
  5
F1042E
330
247
100
AcDbSymbolTableRecord
100
AcDbLinetypeTableRecord
  2
Amzigzag2
 70
     0
  3
/\/-/\/-/\/-/\/-/\/-/\/
 72
    65
 73
     2
 40
0.4401
 49
0.0001
 74
     4
 75
   136
340
F1042C
 46
0.0016
 50
0.0
 44
0.0
 45
0.0
 49
-0.4400000000000002
 74
     0
  0
LTYPE
  5
F1043C
330
247
100
AcDbSymbolTableRecord
100
AcDbLinetypeTableRecord
  2
ACANSTGB
 70
     0
  3
__ . . __ . .
 72
    65
 73
     6
 40
0.35433070866
 49
0.15748031496
 74
     0
 49
-0.03937007874
 74
     0
 49
0.03937007874
 74
     0
 49
-0.03937007874
 74
     0
 49
0.03937007874
 74
     0
 49
-0.03937007874
 74
     0
  0
LTYPE
  5
F1043D
330
247
100
AcDbSymbolTableRecord
100
AcDbLinetypeTableRecord
  2
ACANSTGL
 70
     0
  3
_ _ _ _ _
 72
    65
 73
     2
 40
0.11811023622
 49
0.07874015748
 74
     0
 49
-0.03937007874
 74
     0
  0
ENDTAB
  0
TABLE
  2
LAYER
  5
244
330
0
100
AcDbSymbolTable
 70
     6
  0
LAYER
  5
252
102
{ACAD_XDICTIONARY
360
F106E9
102
}
330
244
100
AcDbSymbolTableRecord
100
AcDbLayerTableRecord
  2
0
 70
     0
 62
     7
  6
Continuous
370
     0
390
19
  0
LAYER
  5
23F
102
{ACAD_XDICTIONARY
360
F106EB
102
}
330
244
100
AcDbSymbolTableRecord
100
AcDbLayerTableRecord
  2
Bemassung
 70
     0
 62
     7
  6
Continuous
370
     0
390
19
  0
LAYER
  5
240
102
{ACAD_XDICTIONARY
360
F106ED
102
}
330
244
100
AcDbSymbolTableRecord
100
AcDbLayerTableRecord
  2
Rahmen
 70
     0
 62
     7
  6
Continuous
370
     0
390
19
  0
LAYER
  5
241
102
{ACAD_XDICTIONARY
360
F106EF
102
}
330
244
100
AcDbSymbolTableRecord
100
AcDbLayerTableRecord
  2
Geo
 70
     0
 62
     7
  6
Continuous
370
     0
390
19
  0
LAYER
  5
33A
330
244
100
AcDbSymbolTableRecord
100
AcDbLayerTableRecord
  2
Defpoints
 70
     0
 62
     7
  6
Continuous
290
     0
370
    -3
390
19
  0
LAYER
  5
57E
102
{ACAD_XDICTIONARY
360
F106F1
102
}
330
244
100
AcDbSymbolTableRecord
100
AcDbLayerTableRecord
  2
Text
 70
     0
 62
     7
  6
Continuous
370
     0
390
19
1001
AcAecLayerStandard
1000

1000

  0
ENDTAB
  0
TABLE
  2
STYLE
  5
245
330
0
100
AcDbSymbolTable
 70
     5
  0
STYLE
  5
253
330
245
100
AcDbSymbolTableRecord
100
AcDbTextStyleTableRecord
  2
Standard
 70
     0
 40
0.0
 41
1.0
 50
0.0
 71
     0
 42
0.2
  3
Arial
  4

1001
ACAD
1000
Arial
1071
        0
  0
STYLE
  5
132
330
245
100
AcDbSymbolTableRecord
100
AcDbTextStyleTableRecord
  2
Beschriftung
 70
     0
 40
0.0
 41
1.0
 50
0.0
 71
     0
 42
0.2
  3
Arial
  4

1001
ACAD
1000
Arial
1071
        0
1001
AcadAnnotative
1000
AnnotativeData
1070
     1
1070
     1
  0
STYLE
  5
F1042C
330
245
100
AcDbSymbolTableRecord
100
AcDbTextStyleTableRecord
  2

 70
     1
 40
0.0
 41
1.0
 50
0.0
 71
     0
 42
0.2
  3
genltshp.shx
  4

  0
STYLE
  5
F1043A
330
245
100
AcDbSymbolTableRecord
100
AcDbTextStyleTableRecord
  2
ACANSTS
 70
     0
 40
1.0
 41
1.0
 50
0.0
 71
     0
 42
0.2
  3
romans.shx
  4

  0
STYLE
  5
F1043B
330
245
100
AcDbSymbolTableRecord
100
AcDbTextStyleTableRecord
  2
ACANSGDT
 70
     0
 40
0.0
 41
1.0
 50
0.0
 71
     0
 42
0.2
  3
amgdt.shx
  4

  0
ENDTAB
  0
TABLE
  2
VIEW
  5
248
330
0
100
AcDbSymbolTable
 70
     0
  0
ENDTAB
  0
TABLE
  2
UCS
  5
249
330
0
100
AcDbSymbolTable
 70
     0
  0
ENDTAB
  0
TABLE
  2
APPID
  5
24B
330
0
100
AcDbSymbolTable
 70
    30
  0
APPID
  5
254
330
24B
100
AcDbSymbolTableRecord
100
AcDbRegAppTableRecord
  2
ACAD
 70
     0
  0
APPID
  5
26C
330
24B
100
AcDbSymbolTableRecord
100
AcDbRegAppTableRecord
  2
VD_INVISIBLE_NOT_FOR_READ
 70
     0
  0
APPID
  5
26D
330
24B
100
AcDbSymbolTableRecord
100
AcDbRegAppTableRecord
  2
VD_TEMPHATCH
 70
     0
  0
APPID
  5
26E
330
24B
100
AcDbSymbolTableRecord
100
AcDbRegAppTableRecord
  2
VDEXTRAPARAM
 70
     0
  0
APPID
  5
26F
330
24B
100
AcDbSymbolTableRecord
100
AcDbRegAppTableRecord
  2
PE_URL
 70
     0
  0
APPID
  5
270
330
24B
100
AcDbSymbolTableRecord
100
AcDbRegAppTableRecord
  2
VD_UNKNOWN
 70
     0
  0
APPID
  5
28F
330
24B
100
AcDbSymbolTableRecord
100
AcDbRegAppTableRecord
  2
AcadAnnotative
 70
     0
  0
APPID
  5
290
330
24B
100
AcDbSymbolTableRecord
100
AcDbRegAppTableRecord
  2
ACAD_DSTYLE_DIMJAG
 70
     0
  0
APPID
  5
291
330
24B
100
AcDbSymbolTableRecord
100
AcDbRegAppTableRecord
  2
ACAD_DSTYLE_DIMTALN
 70
     0
  0
APPID
  5
293
330
24B
100
AcDbSymbolTableRecord
100
AcDbRegAppTableRecord
  2
ACAD_PSEXT
 70
     0
  0
APPID
  5
42A
330
24B
100
AcDbSymbolTableRecord
100
AcDbRegAppTableRecord
  2
ACAD_MLEADERVER
 70
     0
  0
APPID
  5
532
330
24B
100
AcDbSymbolTableRecord
100
AcDbRegAppTableRecord
  2
ACAD_EXEMPT_FROM_CAD_STANDARDS
 70
     0
  0
APPID
  5
57F
330
24B
100
AcDbSymbolTableRecord
100
AcDbRegAppTableRecord
  2
AcAecLayerStandard
 70
     0
  0
APPID
  5
F103BF
330
24B
100
AcDbSymbolTableRecord
100
AcDbRegAppTableRecord
  2
MCAD_NO_VIS
 70
     0
  0
APPID
  5
F103C0
330
24B
100
AcDbSymbolTableRecord
100
AcDbRegAppTableRecord
  2
ACAD_TEMP_GRAPHIC
 70
     0
  0
APPID
  5
F103E9
330
24B
100
AcDbSymbolTableRecord
100
AcDbRegAppTableRecord
  2
AD_DRAW
 70
     0
  0
APPID
  5
F103EC
330
24B
100
AcDbSymbolTableRecord
100
AcDbRegAppTableRecord
  2
ACATTRIBSERVICES
 70
     0
  0
APPID
  5
F10405
330
24B
100
AcDbSymbolTableRecord
100
AcDbRegAppTableRecord
  2
DESIGNERASSEMBLIES
 70
     0
  0
APPID
  5
F1040A
330
24B
100
AcDbSymbolTableRecord
100
AcDbRegAppTableRecord
  2
ACADM_DIM_EDIT
 70
     0
  0
APPID
  5
F1040B
330
24B
100
AcDbSymbolTableRecord
100
AcDbRegAppTableRecord
  2
AMDT_DM_ADJ
 70
     0
  0
APPID
  5
F10423
330
24B
100
AcDbSymbolTableRecord
100
AcDbRegAppTableRecord
  2
ACAD_DSTYLE_DIMBREAK
 70
     0
  0
APPID
  5
F10444
330
24B
100
AcDbSymbolTableRecord
100
AcDbRegAppTableRecord
  2
GENIUS_GENSCREG_15
 70
     0
  0
APPID
  5
F10445
330
24B
100
AcDbSymbolTableRecord
100
AcDbRegAppTableRecord
  2
GENIUS_GENODEF_13
 70
     0
  0
APPID
  5
F10446
330
24B
100
AcDbSymbolTableRecord
100
AcDbRegAppTableRecord
  2
GENIUS_GENOBJ-N-SDF_13
 70
     0
  0
APPID
  5
F10508
330
24B
100
AcDbSymbolTableRecord
100
AcDbRegAppTableRecord
  2
GENIUS_GENDTOL_13
 70
     0
  0
APPID
  5
F1051E
330
24B
100
AcDbSymbolTableRecord
100
AcDbRegAppTableRecord
  2
ACAD_DSTYLE_DIMINSPECT
 70
     0
  0
APPID
  5
F10741
330
24B
100
AcDbSymbolTableRecord
100
AcDbRegAppTableRecord
  2
ACAD_DSTYLE_DIMARC_LENGTH_SYMBOL
 70
     0
  0
APPID
  5
F10742
330
24B
100
AcDbSymbolTableRecord
100
AcDbRegAppTableRecord
  2
ACAD_DSTYLE_DIM_LINETYPE
 70
     0
  0
APPID
  5
F10743
330
24B
100
AcDbSymbolTableRecord
100
AcDbRegAppTableRecord
  2
ACAD_DSTYLE_DIM_EXT1_LINETYPE
 70
     0
  0
APPID
  5
F10744
330
24B
100
AcDbSymbolTableRecord
100
AcDbRegAppTableRecord
  2
ACAD_DSTYLE_DIM_EXT2_LINETYPE
 70
     0
  0
ENDTAB
  0
TABLE
  2
DIMSTYLE
  5
24C
330
0
100
AcDbSymbolTable
 70
     9
100
AcDbDimStyleTable
 71
     2
340
27
340
269
  0
DIMSTYLE
105
269
330
24C
100
AcDbSymbolTableRecord
100
AcDbDimStyleTableRecord
  2
Standard
 70
     0
172
     1
174
     1
288
     1
340
253
342
23C
  0
DIMSTYLE
105
137
330
24C
100
AcDbSymbolTableRecord
100
AcDbDimStyleTableRecord
  2
Beschriftung
 70
     0
 41
2.5
 42
0.625
 44
1.25
 73
     0
 74
     0
 77
     1
140
2.5
147
0.625
172
     1
174
     1
271
     2
288
     1
340
253
342
23C
1001
AcadAnnotative
1000
AnnotativeData
1070
     1
1070
     1
1001
ACAD_DSTYLE_DIMJAG
1070
   388
1040
1.5
1001
ACAD_DSTYLE_DIMTALN
1070
   392
1070
     0
  0
DIMSTYLE
105
27
102
{ACAD_REACTORS
330
F10012
330
F1001C
330
F10021
330
F10026
330
F10003
330
F10008
330
F10017
330
F104F7
102
}
330
24C
100
AcDbSymbolTableRecord
100
AcDbDimStyleTableRecord
  2
BEM-ISBE
 70
     0
 41
2.5
 42
0.625
 44
1.25
 48
0.000000001
 71
     1
 73
     0
 74
     0
 77
     1
140
2.5
146
0.5
147
0.625
171
     3
172
     1
179
     3
271
     3
272
     3
274
     3
340
253
342
23C
1001
ACAD_DSTYLE_DIMJAG
1070
   388
1040
1.5
1001
ACAD_DSTYLE_DIMTALN
1070
   392
1070
     1
  0
DIMSTYLE
105
F10422
102
{ACAD_REACTORS
330
F1079F
102
}
330
24C
100
AcDbSymbolTableRecord
100
AcDbDimStyleTableRecord
  2
AM_ANSI
 70
     0
  4
mm
 41
0.12
 42
0.05
 43
0.5
 44
0.1
 47
0.1
 48
0.1
 78
     7
 79
     2
140
0.12
141
0.0
146
0.71
147
0.06
176
   256
177
   256
178
     2
274
     4
284
     7
340
253
371
    -1
372
    -1
1001
ACAD_DSTYLE_DIMJAG
1070
   388
1040
1.5
1001
ACAD_DSTYLE_DIMBREAK
1070
   391
1040
0.125
1001
ACAD_DSTYLE_DIMARC_LENGTH_SYMBOL
1070
   379
1070
     1
1001
ACAD_DSTYLE_DIM_LINETYPE
1070
   380
1005
256
1001
ACAD_DSTYLE_DIM_EXT1_LINETYPE
1070
   381
1005
256
1001
ACAD_DSTYLE_DIM_EXT2_LINETYPE
1070
   382
1005
256
  0
DIMSTYLE
105
F1042F
330
24C
100
AcDbSymbolTableRecord
100
AcDbDimStyleTableRecord
  2
AM_ANSI$3
 70
     0
  4
mm
 41
0.12
 42
0.05
 43
0.5
 44
0.1
 47
0.1
 48
0.1
 78
     7
 79
     2
140
0.12
141
0.0
146
0.71
147
0.06
176
   256
177
   256
178
     2
274
     4
284
     7
288
     1
289
     0
340
253
371
    -1
372
    -1
1001
ACAD_DSTYLE_DIMBREAK
1070
   391
1040
0.125
1001
ACAD_DSTYLE_DIMJAG
1070
   388
1040
1.5
1001
ACAD_DSTYLE_DIMARC_LENGTH_SYMBOL
1070
   379
1070
     1
1001
ACAD_DSTYLE_DIM_LINETYPE
1070
   380
1005
256
1001
ACAD_DSTYLE_DIM_EXT1_LINETYPE
1070
   381
1005
256
1001
ACAD_DSTYLE_DIM_EXT2_LINETYPE
1070
   382
1005
256
  0
DIMSTYLE
105
F10430
330
24C
100
AcDbSymbolTableRecord
100
AcDbDimStyleTableRecord
  2
AM_ANSI$4
 70
     0
  4
mm
 41
0.12
 42
0.05
 43
0.5
 44
0.1
 47
0.1
 48
0.1
 78
     7
 79
     2
140
0.12
141
0.0
146
0.71
147
0.06
176
   256
177
   256
178
     2
274
     4
284
     7
288
     1
289
     0
340
253
371
    -1
372
    -1
1001
ACAD_DSTYLE_DIMBREAK
1070
   391
1040
0.125
1001
ACAD_DSTYLE_DIMJAG
1070
   388
1040
1.5
1001
ACAD_DSTYLE_DIMARC_LENGTH_SYMBOL
1070
   379
1070
     1
1001
ACAD_DSTYLE_DIM_LINETYPE
1070
   380
1005
256
1001
ACAD_DSTYLE_DIM_EXT1_LINETYPE
1070
   381
1005
256
1001
ACAD_DSTYLE_DIM_EXT2_LINETYPE
1070
   382
1005
256
  0
DIMSTYLE
105
F10431
330
24C
100
AcDbSymbolTableRecord
100
AcDbDimStyleTableRecord
  2
AM_ANSI$7
 70
     0
  4
mm
 41
0.12
 42
0.05
 43
0.5
 44
0.1
 47
0.1
 48
0.1
 78
     7
 79
     2
140
0.12
141
0.0
146
0.71
147
0.06
176
   256
177
   256
178
     2
274
     4
284
     7
340
253
371
    -1
372
    -1
1001
ACAD_DSTYLE_DIMBREAK
1070
   391
1040
0.125
1001
ACAD_DSTYLE_DIMJAG
1070
   388
1040
1.5
1001
ACAD_DSTYLE_DIMARC_LENGTH_SYMBOL
1070
   379
1070
     1
1001
ACAD_DSTYLE_DIM_LINETYPE
1070
   380
1005
256
1001
ACAD_DSTYLE_DIM_EXT1_LINETYPE
1070
   381
1005
256
1001
ACAD_DSTYLE_DIM_EXT2_LINETYPE
1070
   382
1005
256
  0
DIMSTYLE
105
F10432
330
24C
100
AcDbSymbolTableRecord
100
AcDbDimStyleTableRecord
  2
AM_ANSI$SF
 70
     0
  4
mm
 41
0.12
 42
0.05
 43
0.5
 44
0.1
 47
0.1
 48
0.1
 75
     1
 76
     1
 78
     7
 79
     2
140
0.12
141
0.0
146
0.71
147
0.06
176
   256
177
   256
178
     2
274
     4
284
     7
340
253
371
    -1
372
    -1
1001
ACAD_DSTYLE_DIMBREAK
1070
   391
1040
0.125
1001
ACAD_DSTYLE_DIMJAG
1070
   388
1040
1.5
1001
ACAD_DSTYLE_DIMARC_LENGTH_SYMBOL
1070
   379
1070
     1
1001
ACAD_DSTYLE_DIM_LINETYPE
1070
   380
1005
256
1001
ACAD_DSTYLE_DIM_EXT1_LINETYPE
1070
   381
1005
256
1001
ACAD_DSTYLE_DIM_EXT2_LINETYPE
1070
   382
1005
256
  0
DIMSTYLE
105
F10437
330
24C
100
AcDbSymbolTableRecord
100
AcDbDimStyleTableRecord
  2
AM_ANSI$SH
 70
     0
  4
mm
 41
0.12
 42
0.05
 43
0.5
 44
0.1
 47
0.1
 48
0.1
 75
     1
 76
     1
 78
     7
 79
     2
140
0.12
141
0.0
146
0.71
147
0.06
173
     1
176
   256
177
   256
178
     2
274
     4
284
     7
340
253
343
F10433
371
    -1
372
    -1
1001
ACAD_DSTYLE_DIMBREAK
1070
   391
1040
0.125
1001
ACAD_DSTYLE_DIMJAG
1070
   388
1040
1.5
1001
ACAD_DSTYLE_DIMARC_LENGTH_SYMBOL
1070
   379
1070
     1
1001
ACAD_DSTYLE_DIM_LINETYPE
1070
   380
1005
256
1001
ACAD_DSTYLE_DIM_EXT1_LINETYPE
1070
   381
1005
256
1001
ACAD_DSTYLE_DIM_EXT2_LINETYPE
1070
   382
1005
256
  0
ENDTAB
  0
TABLE
  2
BLOCK_RECORD
  5
243
330
0
100
AcDbSymbolTable
 70
    14
  0
BLOCK_RECORD
  5
261
330
243
100
AcDbSymbolTableRecord
100
AcDbBlockTableRecord
  2
*Model_Space
340
FD0
  0
BLOCK_RECORD
  5
25D
330
243
100
AcDbSymbolTableRecord
100
AcDbBlockTableRecord
  2
*Paper_Space
340
FD1
  0
BLOCK_RECORD
  5
265
330
243
100
AcDbSymbolTableRecord
100
AcDbBlockTableRecord
  2
*Paper_Space0
340
0
  0
BLOCK_RECORD
  5
23C
330
243
100
AcDbSymbolTableRecord
100
AcDbBlockTableRecord
  2
VDDIM_DEFAULT
340
0
102
{BLKREFS
331
F1049C
331
F104AD
331
F104AE
331
F10515
331
F10516
331
F10592
331
F10593
331
F105CA
331
F105CB
331
F10648
331
F10649
331
F1065C
331
F1065D
331
F10680
331
F10681
331
F106E3
331
F106E4
102
}
  0
BLOCK_RECORD
  5
23E
330
243
100
AcDbSymbolTableRecord
100
AcDbBlockTableRecord
  2
VDDIM_NONE
340
0
  0
BLOCK_RECORD
  5
F10011
330
243
100
AcDbSymbolTableRecord
100
AcDbBlockTableRecord
  2
*D3
340
0
  0
BLOCK_RECORD
  5
F1001B
330
243
100
AcDbSymbolTableRecord
100
AcDbBlockTableRecord
  2
*D4
340
0
  0
BLOCK_RECORD
  5
F10020
330
243
100
AcDbSymbolTableRecord
100
AcDbBlockTableRecord
  2
*D5
340
0
  0
BLOCK_RECORD
  5
F10025
330
243
100
AcDbSymbolTableRecord
100
AcDbBlockTableRecord
  2
*D6
340
0
  0
BLOCK_RECORD
  5
F1000C
330
243
100
AcDbSymbolTableRecord
100
AcDbBlockTableRecord
  2
*D7
340
0
  0
BLOCK_RECORD
  5
F10002
330
243
100
AcDbSymbolTableRecord
100
AcDbBlockTableRecord
  2
*D8
340
0
  0
BLOCK_RECORD
  5
F10007
330
243
100
AcDbSymbolTableRecord
100
AcDbBlockTableRecord
  2
*D9
340
0
  0
BLOCK_RECORD
  5
F10016
330
243
100
AcDbSymbolTableRecord
100
AcDbBlockTableRecord
  2
*D10
340
0
  0
BLOCK_RECORD
  5
F10433
330
243
100
AcDbSymbolTableRecord
100
AcDbBlockTableRecord
  2
GENAXEH
340
0
  0
BLOCK_RECORD
  5
F104F8
330
243
100
AcDbSymbolTableRecord
100
AcDbBlockTableRecord
  2
*D12
340
0
  0
ENDTAB
  0
ENDSEC
  0
SECTION
  2
BLOCKS
  0
BLOCK
  5
262
330
261
100
AcDbEntity
  8
0
100
AcDbBlockBegin
  2
*Model_Space
 70
     0
 10
0.0
 20
0.0
 30
0.0
  3
*Model_Space
  1

  0
ENDBLK
  5
263
330
261
100
AcDbEntity
  8
0
100
AcDbBlockEnd
  0
BLOCK
  5
25E
330
25D
100
AcDbEntity
 67
     1
  8
0
100
AcDbBlockBegin
  2
*Paper_Space
 70
     0
 10
0.0
 20
0.0
 30
0.0
  3
*Paper_Space
  1

  0
ENDBLK
  5
25F
330
25D
100
AcDbEntity
 67
     1
  8
0
100
AcDbBlockEnd
  0
BLOCK
  5
266
330
265
100
AcDbEntity
  8
0
100
AcDbBlockBegin
  2
*Paper_Space0
 70
     0
 10
0.0
 20
0.0
 30
0.0
  3
*Paper_Space0
  1

  0
VIEWPORT
  5
296
102
{ACAD_XDICTIONARY
360
F107C8
102
}
330
265
100
AcDbEntity
  8
0
 60
     1
100
AcDbViewport
 10
0.0
 20
0.0
 30
0.0
 40
10.0
 41
10.0
 69
     0
 12
0.0
 22
0.0
 13
0.0
 23
0.0
 14
1.0
 24
1.0
 15
0.0
 25
0.0
 16
0.0
 26
0.0
 36
1.0
 17
0.0
 27
0.0
 37
0.0
 42
0.0
 43
0.0
 44
0.0
 45
10.0
 50
0.0
 51
0.0000000000007958
 72
   100
 90
   163872
  1

281
     0
 71
     0
 74
     0
110
0.0
120
0.0
130
0.0
111
1.0
121
0.0
131
0.0
112
0.0
122
1.0
132
0.0
 79
     0
146
0.0
1001
VD_INVISIBLE_NOT_FOR_READ
1000
VD_INVISIBLE_NOT_FOR_READ
  0
VIEWPORT
  5
297
102
{ACAD_XDICTIONARY
360
F107CA
102
}
330
265
100
AcDbEntity
  8
0
 60
     1
100
AcDbViewport
 10
0.0
 20
0.0
 30
0.0
 40
10.0
 41
10.0
 69
     0
 12
0.0
 22
0.0
 13
0.0
 23
0.0
 14
1.0
 24
1.0
 15
0.0
 25
0.0
 16
0.0
 26
0.0
 36
1.0
 17
0.0
 27
0.0
 37
0.0
 42
0.0
 43
0.0
 44
0.0
 45
10.0
 50
0.0
 51
0.0000000000007958
 72
   100
 90
   163872
  1

281
     0
 71
     0
 74
     0
110
0.0
120
0.0
130
0.0
111
1.0
121
0.0
131
0.0
112
0.0
122
1.0
132
0.0
 79
     0
146
0.0
1001
VD_INVISIBLE_NOT_FOR_READ
1000
VD_INVISIBLE_NOT_FOR_READ
  0
ENDBLK
  5
267
330
265
100
AcDbEntity
  8
0
100
AcDbBlockEnd
  0
BLOCK
  5
28B
330
23C
100
AcDbEntity
  8
0
100
AcDbBlockBegin
  2
VDDIM_DEFAULT
 70
     0
 10
0.0
 20
0.0
 30
0.0
  3
VDDIM_DEFAULT
  1

  0
LWPOLYLINE
  5
23D
330
23C
100
AcDbEntity
  8
0
  6
Continuous
 62
     0
100
AcDbPolyline
 90
        4
 70
     0
 43
0.0
 10
0.0
 20
0.0
 10
-1.0
 20
-0.1665
 10
-1.0
 20
0.1665
 10
0.0
 20
0.0
1001
VDEXTRAPARAM
1071
        1
1071
        0
1071
        0
1040
1.0
1000

1000

1040
0.0
1040
0.0
  0
HATCH
  5
292
330
23C
100
AcDbEntity
  8
0
  6
Continuous
 62
     0
100
AcDbHatch
 10
0.0
 20
0.0
 30
0.0
210
0.0
220
0.0
230
1.0
  2
SOLID
 70
     1
 71
     0
 91
        1
 92
        2
 72
     0
 73
     1
 93
        3
 10
0.0
 20
0.0
 10
-1.0
 20
-0.1665
 10
-1.0
 20
0.1665
 97
        0
 75
     0
 76
     1
 98
        1
 10
0.0
 20
0.0
1001
VDEXTRAPARAM
1071
        1
1071
        0
1071
        0
1040
1.0
1000

1000

1040
0.0
1040
0.0
1001
VD_TEMPHATCH
1000
VD_TEMPHATCH
  0
ENDBLK
  5
28C
330
23C
100
AcDbEntity
  8
0
100
AcDbBlockEnd
  0
BLOCK
  5
28D
330
23E
100
AcDbEntity
  8
0
100
AcDbBlockBegin
  2
VDDIM_NONE
 70
     0
 10
0.0
 20
0.0
 30
0.0
  3
VDDIM_NONE
  1

  0
ENDBLK
  5
28E
330
23E
100
AcDbEntity
  8
0
100
AcDbBlockEnd
  0
BLOCK
  5
F1002A
330
F10011
100
AcDbEntity
  8
0
100
AcDbBlockBegin
  2
*D3
 70
     1
 10
0.0
 20
0.0
 30
0.0
  3
*D3
  1

  0
LINE
  5
F105C7
330
F10011
100
AcDbEntity
  8
Bemassung
 62
     0
370
    -2
100
AcDbLine
 10
-12.74542195730641
 20
11.27313511990919
 30
0.0
 11
-12.74542195730641
 21
31.89813511990919
 31
0.0
  0
LINE
  5
F105C8
330
F10011
100
AcDbEntity
  8
Bemassung
 62
     0
370
    -2
100
AcDbLine
 10
23.25457804269359
 20
10.77313511990919
 30
0.0
 11
23.25457804269359
 21
31.89813511990919
 31
0.0
  0
LINE
  5
F105C9
330
F10011
100
AcDbEntity
  8
Bemassung
 62
     0
370
    -2
100
AcDbLine
 10
-10.24542195730641
 20
30.64813511990919
 30
0.0
 11
20.75457804269359
 21
30.64813511990919
 31
0.0
  0
INSERT
  5
F105CA
330
F10011
100
AcDbEntity
  8
Bemassung
 62
     0
370
    -2
100
AcDbBlockReference
  2
VDDIM_DEFAULT
 10
-12.74542195730641
 20
30.64813511990919
 30
0.0
 41
2.5
 42
2.5
 43
2.5
 50
180.0
  0
INSERT
  5
F105CB
330
F10011
100
AcDbEntity
  8
Bemassung
 62
     0
370
    -2
100
AcDbBlockReference
  2
VDDIM_DEFAULT
 10
23.25457804269359
 20
30.64813511990919
 30
0.0
 41
2.5
 42
2.5
 43
2.5
  0
MTEXT
  5
F105CC
330
F10011
100
AcDbEntity
  8
Bemassung
 62
     0
100
AcDbMText
 10
5.254578042693587
 20
31.27313511990919
 30
0.0
 40
2.5
 41
0.0
 71
     8
 72
     1
  1
\A1;36
 73
     1
 44
1.0
1001
ACAD
1000
MTEXTBEGIN
1070
    73
1070
     1
1070
    44
1040
1.0
1070
    74
1070
     0
1000
MTEXTEND
  0
POINT
  5
F105CD
330
F10011
100
AcDbEntity
  8
Defpoints
 62
     0
100
AcDbPoint
 10
-12.74542195730641
 20
10.64813511990919
 30
0.0
  0
POINT
  5
F105CE
330
F10011
100
AcDbEntity
  8
Defpoints
 62
     0
100
AcDbPoint
 10
23.25457804269359
 20
10.14813511990919
 30
0.0
  0
POINT
  5
F105CF
330
F10011
100
AcDbEntity
  8
Defpoints
 62
     0
100
AcDbPoint
 10
23.25457804269359
 20
30.64813511990919
 30
0.0
  0
ENDBLK
  5
F10033
330
F10011
100
AcDbEntity
  8
0
100
AcDbBlockEnd
  0
BLOCK
  5
F10034
330
F1001B
100
AcDbEntity
  8
0
100
AcDbBlockBegin
  2
*D4
 70
     1
 10
0.0
 20
0.0
 30
0.0
  3
*D4
  1

  0
LINE
  5
F10659
330
F1001B
100
AcDbEntity
  8
Bemassung
 62
     0
370
    -2
100
AcDbLine
 10
-25.74542195730642
 20
5.023135119909195
 30
0.0
 11
-25.74542195730642
 21
-11.60186488009078
 31
0.0
  0
LINE
  5
F1065A
330
F1001B
100
AcDbEntity
  8
Bemassung
 62
     0
370
    -2
100
AcDbLine
 10
-33.74542195730641
 20
-11.72686488009079
 30
0.0
 11
-33.74542195730641
 21
-9.101864880090786
 31
0.0
  0
LINE
  5
F1065B
330
F1001B
100
AcDbEntity
  8
Bemassung
 62
     0
370
    -2
100
AcDbLine
 10
-28.24542195730641
 20
-10.35186488009078
 30
0.0
 11
-31.24542195730641
 21
-10.35186488009078
 31
0.0
  0
INSERT
  5
F1065C
330
F1001B
100
AcDbEntity
  8
Bemassung
 62
     0
370
    -2
100
AcDbBlockReference
  2
VDDIM_DEFAULT
 10
-25.74542195730642
 20
-10.35186488009078
 30
0.0
 41
2.5
 42
2.5
 43
2.5
  0
INSERT
  5
F1065D
330
F1001B
100
AcDbEntity
  8
Bemassung
 62
     0
370
    -2
100
AcDbBlockReference
  2
VDDIM_DEFAULT
 10
-33.74542195730641
 20
-10.35186488009078
 30
0.0
 41
2.5
 42
2.5
 43
2.5
 50
180.0
  0
MTEXT
  5
F1065E
330
F1001B
100
AcDbEntity
  8
Bemassung
 62
     0
100
AcDbMText
 10
-29.74542195730641
 20
-9.726864880090786
 30
0.0
 40
2.5
 41
0.0
 71
     8
 72
     1
  1
\A1;8
 73
     1
 44
1.0
1001
ACAD
1000
MTEXTBEGIN
1070
    73
1070
     1
1070
    44
1040
1.0
1070
    74
1070
     0
1000
MTEXTEND
  0
POINT
  5
F1065F
330
F1001B
100
AcDbEntity
  8
Defpoints
 62
     0
100
AcDbPoint
 10
-25.74542195730642
 20
5.648135119909196
 30
0.0
  0
POINT
  5
F10660
330
F1001B
100
AcDbEntity
  8
Defpoints
 62
     0
100
AcDbPoint
 10
-33.74542195730641
 20
-12.35186488009079
 30
0.0
  0
POINT
  5
F10661
330
F1001B
100
AcDbEntity
  8
Defpoints
 62
     0
100
AcDbPoint
 10
-33.74542195730641
 20
-10.35186488009078
 30
0.0
  0
ENDBLK
  5
F1003D
330
F1001B
100
AcDbEntity
  8
0
100
AcDbBlockEnd
  0
BLOCK
  5
F1003E
330
F10020
100
AcDbEntity
  8
0
100
AcDbBlockBegin
  2
*D5
 70
     1
 10
0.0
 20
0.0
 30
0.0
  3
*D5
  1

  0
LINE
  5
F10512
330
F10020
100
AcDbEntity
  8
Bemassung
 62
     0
370
    -2
100
AcDbLine
 10
23.25457804269359
 20
10.77313511990919
 30
0.0
 11
23.25457804269359
 21
46.89813511990919
 31
0.0
  0
LINE
  5
F10513
330
F10020
100
AcDbEntity
  8
Bemassung
 62
     0
370
    -2
100
AcDbLine
 10
-33.74542195730641
 20
-11.72686488009079
 30
0.0
 11
-33.7454219573064
 21
46.89813511990919
 31
0.0
  0
LINE
  5
F10514
330
F10020
100
AcDbEntity
  8
Bemassung
 62
     0
370
    -2
100
AcDbLine
 10
20.75457804269359
 20
45.64813511990919
 30
0.0
 11
-31.24542195730641
 21
45.64813511990919
 31
0.0
  0
INSERT
  5
F10515
330
F10020
100
AcDbEntity
  8
Bemassung
 62
     0
370
    -2
100
AcDbBlockReference
  2
VDDIM_DEFAULT
 10
23.25457804269359
 20
45.64813511990919
 30
0.0
 41
2.5
 42
2.5
 43
2.5
  0
INSERT
  5
F10516
330
F10020
100
AcDbEntity
  8
Bemassung
 62
     0
370
    -2
100
AcDbBlockReference
  2
VDDIM_DEFAULT
 10
-33.74542195730641
 20
45.64813511990919
 30
0.0
 41
2.5
 42
2.5
 43
2.5
 50
180.0
  0
MTEXT
  5
F10517
330
F10020
100
AcDbEntity
  8
Bemassung
 62
     0
100
AcDbMText
 10
-5.24542195730641
 20
46.27313511990919
 30
0.0
 40
2.5
 41
0.0
 71
     8
 72
     1
  1
\A1;57
 73
     1
 44
1.0
1001
ACAD
1000
MTEXTBEGIN
1070
    73
1070
     1
1070
    44
1040
1.0
1070
    74
1070
     0
1000
MTEXTEND
  0
POINT
  5
F10518
330
F10020
100
AcDbEntity
  8
Defpoints
 62
     0
100
AcDbPoint
 10
23.25457804269359
 20
10.14813511990919
 30
0.0
  0
POINT
  5
F10519
330
F10020
100
AcDbEntity
  8
Defpoints
 62
     0
100
AcDbPoint
 10
-33.74542195730641
 20
-12.35186488009079
 30
0.0
  0
POINT
  5
F1051A
330
F10020
100
AcDbEntity
  8
Defpoints
 62
     0
100
AcDbPoint
 10
-33.74542195730641
 20
45.64813511990919
 30
0.0
  0
ENDBLK
  5
F10047
330
F10020
100
AcDbEntity
  8
0
100
AcDbBlockEnd
  0
BLOCK
  5
F10048
330
F10025
100
AcDbEntity
  8
0
100
AcDbBlockBegin
  2
*D6
 70
     1
 10
0.0
 20
0.0
 30
0.0
  3
*D6
  1

  0
LINE
  5
F1067D
330
F10025
100
AcDbEntity
  8
Bemassung
 62
     0
370
    -2
100
AcDbLine
 10
-33.74542195730641
 20
7.023135119909196
 30
0.0
 11
-33.74542195730641
 21
-22.76713234380429
 31
0.0
  0
LINE
  5
F1067E
330
F10025
100
AcDbEntity
  8
Bemassung
 62
     0
370
    -2
100
AcDbLine
 10
-21.74542195730641
 20
5.023135119909195
 30
0.0
 11
-21.74542195730641
 21
-22.76713234380429
 31
0.0
  0
LINE
  5
F1067F
330
F10025
100
AcDbEntity
  8
Bemassung
 62
     0
370
    -2
100
AcDbLine
 10
-31.24542195730641
 20
-21.51713234380429
 30
0.0
 11
-24.24542195730641
 21
-21.51713234380429
 31
0.0
  0
INSERT
  5
F10680
330
F10025
100
AcDbEntity
  8
Bemassung
 62
     0
370
    -2
100
AcDbBlockReference
  2
VDDIM_DEFAULT
 10
-33.74542195730641
 20
-21.51713234380429
 30
0.0
 41
2.5
 42
2.5
 43
2.5
 50
180.0
  0
INSERT
  5
F10681
330
F10025
100
AcDbEntity
  8
Bemassung
 62
     0
370
    -2
100
AcDbBlockReference
  2
VDDIM_DEFAULT
 10
-21.74542195730641
 20
-21.51713234380429
 30
0.0
 41
2.5
 42
2.5
 43
2.5
  0
MTEXT
  5
F10682
330
F10025
100
AcDbEntity
  8
Bemassung
 62
     0
100
AcDbMText
 10
-27.74542195730641
 20
-20.89213234380429
 30
0.0
 40
2.5
 41
0.0
 71
     8
 72
     1
  1
\A1;12
 73
     1
 44
1.0
1001
ACAD
1000
MTEXTBEGIN
1070
    73
1070
     1
1070
    44
1040
1.0
1070
    74
1070
     0
1000
MTEXTEND
  0
POINT
  5
F10683
330
F10025
100
AcDbEntity
  8
Defpoints
 62
     0
100
AcDbPoint
 10
-33.74542195730641
 20
7.648135119909196
 30
0.0
  0
POINT
  5
F10684
330
F10025
100
AcDbEntity
  8
Defpoints
 62
     0
100
AcDbPoint
 10
-21.74542195730641
 20
5.648135119909196
 30
0.0
  0
POINT
  5
F10685
330
F10025
100
AcDbEntity
  8
Defpoints
 62
     0
100
AcDbPoint
 10
-21.74542195730641
 20
-21.51713234380429
 30
0.0
  0
ENDBLK
  5
F10051
330
F10025
100
AcDbEntity
  8
0
100
AcDbBlockEnd
  0
BLOCK
  5
F10052
330
F1000C
100
AcDbEntity
  8
0
100
AcDbBlockBegin
  2
*D7
 70
     1
 10
0.0
 20
0.0
 30
0.0
  3
*D7
  1

  0
ARC
  5
F104AA
330
F1000C
100
AcDbEntity
  8
Bemassung
 62
     0
370
    -2
100
AcDbCircle
 10
-18.0133711497375
 20
10.64813511990919
 30
0.0
 40
26.84816946643599
100
AcDbArc
 50
354.6629043549273
 51
360.0
  0
LINE
  5
F104AB
330
F1000C
100
AcDbEntity
  8
Bemassung
 62
     0
370
    -2
100
AcDbLine
 10
8.718403044242132
 20
8.150846161748782
 30
0.0
 11
7.915940382016157
 21
-0.4389690519164285
 31
0.0
  0
ARC
  5
F104AC
330
F1000C
100
AcDbEntity
  8
Bemassung
 62
     0
370
    -2
100
AcDbCircle
 10
-18.0133711497375
 20
10.64813511990919
 30
0.0
 40
26.84816946643599
100
AcDbArc
 50
5.337095645072619
 51
9.662904354927412
  0
INSERT
  5
F104AD
330
F1000C
100
AcDbEntity
  8
Bemassung
 62
     0
370
    -2
100
AcDbBlockReference
  2
VDDIM_DEFAULT
 10
8.83479831669848
 20
10.64813511990918
 30
0.0
 41
2.5
 42
2.5
 43
2.5
 50
272.6685478225363
  0
INSERT
  5
F104AE
330
F1000C
100
AcDbEntity
  8
Bemassung
 62
     0
370
    -2
100
AcDbBlockReference
  2
VDDIM_DEFAULT
 10
7.919969126478599
 20
17.59695270396284
 30
0.0
 41
2.5
 42
2.5
 43
2.5
 50
102.3314521774637
  0
MTEXT
  5
F104AF
102
{ACAD_XDICTIONARY
360
F107BB
102
}
330
F1000C
100
AcDbEntity
  8
Bemassung
 62
     0
100
AcDbMText
 10
8.939462141239108
 20
3.797804029178714
 30
0.0
 40
2.5
 41
0.0
 71
     8
 72
     1
  1
\A1;15\U+00B0{\H0.5x;\S+2°^ +2°;}
 11
-0.0930152411799387
 21
-0.9956646849759399
 31
0.0
 73
     1
 44
1.0
1001
ACAD
1000
MTEXTBEGIN
1070
    73
1070
     1
1070
    44
1040
1.0
1070
    74
1070
     0
1000
MTEXTEND
  0
POINT
  5
F104B0
330
F1000C
100
AcDbEntity
  8
Defpoints
 62
     0
100
AcDbPoint
 10
8.42691429499429
 20
15.31027082144874
 30
0.0
  0
POINT
  5
F104B1
330
F1000C
100
AcDbEntity
  8
Defpoints
 62
     0
100
AcDbPoint
 10
9.851820779056787
 20
18.11459079416789
 30
0.0
  0
POINT
  5
F104B2
330
F1000C
100
AcDbEntity
  8
Defpoints
 62
     0
100
AcDbPoint
 10
-18.0133711497375
 20
10.64813511990919
 30
0.0
  0
POINT
  5
F104B3
330
F1000C
100
AcDbEntity
  8
Defpoints
 62
     0
100
AcDbPoint
 10
10.83479831669849
 20
10.64813511990919
 30
0.0
  0
POINT
  5
F104B4
330
F1000C
100
AcDbEntity
  8
Defpoints
 62
     0
100
AcDbPoint
 10
-18.0133711497375
 20
10.64813511990919
 30
0.0
  0
ENDBLK
  5
F1005D
330
F1000C
100
AcDbEntity
  8
0
100
AcDbBlockEnd
  0
BLOCK
  5
F1005E
330
F10002
100
AcDbEntity
  8
0
100
AcDbBlockBegin
  2
*D8
 70
     1
 10
0.0
 20
0.0
 30
0.0
  3
*D8
  1

  0
LINE
  5
F10499
330
F10002
100
AcDbEntity
  8
Bemassung
 62
     0
370
    -2
100
AcDbLine
 10
-45.68309629924875
 20
21.53282228112191
 30
0.0
 11
-34.93345671500424
 21
10.82404985171646
 31
0.0
  0
MTEXT
  5
F1049A
330
F10002
100
AcDbEntity
  8
Bemassung
 62
     0
100
AcDbMText
 10
-43.38025625422081
 20
20.12094193285044
 30
0.0
 40
2.5
 41
0.0
 71
     8
 72
     1
  1
\A1;R2
 11
0.7084521683772964
 21
-0.7057588292905072
 31
0.0
 73
     1
 44
1.0
1001
ACAD
1000
MTEXTBEGIN
1070
    73
1070
     1
1070
    44
1040
1.0
1070
    74
1070
     0
1000
MTEXTEND
  0
LINE
  5
F1049B
330
F10002
100
AcDbEntity
  8
Bemassung
 62
     0
370
    -2
100
AcDbLine
 10
-31.74542195730641
 20
7.648135119909192
 30
0.0
 11
-33.162326294061
 21
9.059652778490194
 31
0.0
  0
INSERT
  5
F1049C
330
F10002
100
AcDbEntity
  8
Bemassung
 62
     0
370
    -2
100
AcDbBlockReference
  2
VDDIM_DEFAULT
 10
-33.162326294061
 20
9.059652778490194
 30
0.0
 41
2.5
 42
2.5
 43
2.5
 50
315.1091186365782
  0
POINT
  5
F1049D
330
F10002
100
AcDbEntity
  8
Defpoints
 62
     0
100
AcDbPoint
 10
-33.162326294061
 20
9.059652778490194
 30
0.0
  0
POINT
  5
F1049E
330
F10002
100
AcDbEntity
  8
Defpoints
 62
     0
100
AcDbPoint
 10
-31.74542195730641
 20
7.648135119909192
 30
0.0
  0
ENDBLK
  5
F10064
330
F10002
100
AcDbEntity
  8
0
100
AcDbBlockEnd
  0
BLOCK
  5
F10065
330
F10007
100
AcDbEntity
  8
0
100
AcDbBlockBegin
  2
*D9
 70
     1
 10
0.0
 20
0.0
 30
0.0
  3
*D9
  1

  0
LINE
  5
F1058D
330
F10007
100
AcDbEntity
  8
Bemassung
 62
     0
370
    -2
100
AcDbLine
 10
-32.37042195730641
 20
5.648135119909196
 30
0.0
 11
-49.99542195730621
 21
5.648135119909199
 31
0.0
  0
LINE
  5
F1058E
330
F10007
100
AcDbEntity
  8
Bemassung
 62
     0
370
    -2
100
AcDbLine
 10
-32.37042195730643
 20
9.648135119909195
 30
0.0
 11
-49.99542195730621
 21
9.648135119909198
 31
0.0
  0
LINE
  5
F1058F
330
F10007
100
AcDbEntity
  8
Bemassung
 62
     0
370
    -2
100
AcDbLine
 10
-48.74542195730621
 20
3.148135119909198
 30
0.0
 11
-48.74542195730621
 21
0.6481351199091999
 31
0.0
  0
LINE
  5
F10590
330
F10007
100
AcDbEntity
  8
Bemassung
 62
     0
370
    -2
100
AcDbLine
 10
-48.74542195730621
 20
12.1481351199092
 30
0.0
 11
-48.7454219573062
 21
20.24670265060497
 31
0.0
  0
LINE
  5
F10591
330
F10007
100
AcDbEntity
  8
Bemassung
 62
     0
370
    -2
100
AcDbLine
 10
-48.74542195730621
 20
5.648135119909199
 30
0.0
 11
-48.74542195730621
 21
9.648135119909198
 31
0.0
  0
INSERT
  5
F10592
330
F10007
100
AcDbEntity
  8
Bemassung
 62
     0
370
    -2
100
AcDbBlockReference
  2
VDDIM_DEFAULT
 10
-48.74542195730621
 20
5.648135119909199
 30
0.0
 41
2.5
 42
2.5
 43
2.5
 50
90.0
  0
INSERT
  5
F10593
330
F10007
100
AcDbEntity
  8
Bemassung
 62
     0
370
    -2
100
AcDbBlockReference
  2
VDDIM_DEFAULT
 10
-48.74542195730621
 20
9.648135119909198
 30
0.0
 41
2.5
 42
2.5
 43
2.5
 50
270.0
  0
MTEXT
  5
F10594
330
F10007
100
AcDbEntity
  8
Bemassung
 62
     0
100
AcDbMText
 10
-49.37042195730621
 20
17.44741888525708
 30
0.0
 40
2.5
 41
0.0
 71
     8
 72
     1
  1
\A1;%%C4
 11
0.0000000000000001
 21
1.0
 31
0.0
 73
     1
 44
1.0
1001
ACAD
1000
MTEXTBEGIN
1070
    73
1070
     1
1070
    44
1040
1.0
1070
    74
1070
     0
1000
MTEXTEND
  0
POINT
  5
F10595
330
F10007
100
AcDbEntity
  8
Defpoints
 62
     0
100
AcDbPoint
 10
-31.74542195730641
 20
5.648135119909196
 30
0.0
  0
POINT
  5
F10596
330
F10007
100
AcDbEntity
  8
Defpoints
 62
     0
100
AcDbPoint
 10
-31.74542195730641
 20
9.648135119909195
 30
0.0
  0
POINT
  5
F10597
330
F10007
100
AcDbEntity
  8
Defpoints
 62
     0
100
AcDbPoint
 10
-48.74542195730621
 20
9.648135119909198
 30
0.0
  0
ENDBLK
  5
F1006E
330
F10007
100
AcDbEntity
  8
0
100
AcDbBlockEnd
  0
BLOCK
  5
F1006F
330
F10016
100
AcDbEntity
  8
0
100
AcDbBlockBegin
  2
*D10
 70
     1
 10
0.0
 20
0.0
 30
0.0
  3
*D10
  1

  0
LINE
  5
F106DE
330
F10016
100
AcDbEntity
  8
Bemassung
 62
     0
370
    -2
100
AcDbLine
 10
23.37957804269359
 20
4.648135119909195
 30
0.0
 11
34.50457804269359
 21
4.64813511990919
 31
0.0
  0
LINE
  5
F106DF
330
F10016
100
AcDbEntity
  8
Bemassung
 62
     0
370
    -2
100
AcDbLine
 10
23.37957804269359
 20
10.64813511990919
 30
0.0
 11
34.50457804269359
 21
10.64813511990919
 31
0.0
  0
LINE
  5
F106E0
330
F10016
100
AcDbEntity
  8
Bemassung
 62
     0
370
    -2
100
AcDbLine
 10
33.25457804269359
 20
2.148135119909191
 30
0.0
 11
33.25457804269359
 21
-0.3518648800908076
 31
0.0
  0
LINE
  5
F106E1
330
F10016
100
AcDbEntity
  8
Bemassung
 62
     0
370
    -2
100
AcDbLine
 10
33.25457804269359
 20
13.14813511990919
 30
0.0
 11
33.25457804269359
 21
15.64813511990919
 31
0.0
  0
LINE
  5
F106E2
330
F10016
100
AcDbEntity
  8
Bemassung
 62
     0
370
    -2
100
AcDbLine
 10
33.25457804269359
 20
4.64813511990919
 30
0.0
 11
33.25457804269359
 21
10.64813511990919
 31
0.0
  0
INSERT
  5
F106E3
330
F10016
100
AcDbEntity
  8
Bemassung
 62
     0
370
    -2
100
AcDbBlockReference
  2
VDDIM_DEFAULT
 10
33.25457804269359
 20
4.64813511990919
 30
0.0
 41
2.5
 42
2.5
 43
2.5
 50
90.0
  0
INSERT
  5
F106E4
330
F10016
100
AcDbEntity
  8
Bemassung
 62
     0
370
    -2
100
AcDbBlockReference
  2
VDDIM_DEFAULT
 10
33.25457804269359
 20
10.64813511990919
 30
0.0
 41
2.5
 42
2.5
 43
2.5
 50
270.0
  0
MTEXT
  5
F106E5
330
F10016
100
AcDbEntity
  8
Bemassung
 62
     0
100
AcDbMText
 10
32.62957804269359
 20
7.648135119909197
 30
0.0
 40
2.5
 41
0.0
 71
     8
 72
     1
  1
\A1;%%C6 
 11
0.0000000000000001
 21
1.0
 31
0.0
 73
     1
 44
1.0
1001
ACAD
1000
MTEXTBEGIN
1070
    73
1070
     1
1070
    44
1040
1.0
1070
    74
1070
     0
1000
MTEXTEND
  0
POINT
  5
F106E6
330
F10016
100
AcDbEntity
  8
Defpoints
 62
     0
100
AcDbPoint
 10
22.75457804269359
 20
4.648135119909195
 30
0.0
  0
POINT
  5
F106E7
330
F10016
100
AcDbEntity
  8
Defpoints
 62
     0
100
AcDbPoint
 10
22.75457804269359
 20
10.64813511990919
 30
0.0
  0
POINT
  5
F106E8
330
F10016
100
AcDbEntity
  8
Defpoints
 62
     0
100
AcDbPoint
 10
33.25457804269359
 20
10.64813511990919
 30
0.0
  0
ENDBLK
  5
F10078
330
F10016
100
AcDbEntity
  8
0
100
AcDbBlockEnd
  0
BLOCK
  5
F10435
330
F10433
100
AcDbEntity
  8
0
100
AcDbBlockBegin
  2
GENAXEH
 70
     0
 10
0.0
 20
0.0
 30
0.0
  3
GENAXEH
  1

  0
LINE
  5
F10434
330
F10433
100
AcDbEntity
  8
0
100
AcDbLine
 10
-1.0
 20
0.0
 30
0.0
 11
1.0
 21
0.0
 31
0.0
  0
ENDBLK
  5
F10436
330
F10433
100
AcDbEntity
  8
0
100
AcDbBlockEnd
  0
BLOCK
  5
F104F9
330
F104F8
100
AcDbEntity
  8
0
100
AcDbBlockBegin
  2
*D12
 70
     1
 10
0.0
 20
0.0
 30
0.0
  3
*D12
  1

  0
LINE
  5
F10645
330
F104F8
100
AcDbEntity
  8
0
 62
     0
370
    -2
100
AcDbLine
 10
-17.40966750830683
 20
10.80989702309827
 30
0.0
 11
-1.461768478938898
 21
15.08312368899047
 31
0.0
  0
ARC
  5
F10646
330
F104F8
100
AcDbEntity
  8
0
 62
     0
370
    -2
100
AcDbCircle
 10
-18.0133711497375
 20
10.64813511990919
 30
0.0
 40
15.8854799926897
100
AcDbArc
 50
341.9473278230946
 51
350.9736639115473
  0
ARC
  5
F10647
330
F104F8
100
AcDbEntity
  8
0
 62
     0
370
    -2
100
AcDbCircle
 10
-18.0133711497375
 20
10.64813511990919
 30
0.0
 40
15.8854799926897
100
AcDbArc
 50
24.02633608845262
 51
33.05267217690534
  0
INSERT
  5
F10648
330
F104F8
100
AcDbEntity
  8
0
 62
     0
370
    -2
100
AcDbBlockReference
  2
VDDIM_DEFAULT
 10
-2.1278911570478
 20
10.64813511990919
 30
0.0
 41
2.5
 42
2.5
 43
2.5
 50
85.48683195577361
  0
INSERT
  5
F10649
330
F104F8
100
AcDbEntity
  8
0
 62
     0
370
    -2
100
AcDbBlockReference
  2
VDDIM_DEFAULT
 10
-2.669175761800234
 20
14.75959988261232
 30
0.0
 41
2.5
 42
2.5
 43
2.5
 50
289.5131680442263
  0
MTEXT
  5
F1064A
102
{ACAD_XDICTIONARY
360
F10806
102
}
330
F104F8
100
AcDbEntity
  8
0
 62
     0
100
AcDbMText
 10
-1.783118137153607
 20
17.92502608227399
 30
0.0
 40
2.5
 41
0.0
 71
     5
 72
     1
  1
\A1;15\U+00B0
 11
0.4091149027642457
 21
-0.9124828745440661
 31
0.0
 73
     1
 44
1.0
1001
ACAD
1000
MTEXTBEGIN
1070
    73
1070
     1
1070
    44
1040
1.0
1070
    74
1070
     0
1000
MTEXTEND
  0
POINT
  5
F1064B
330
F104F8
100
AcDbEntity
  8
Defpoints
 62
     0
100
AcDbPoint
 10
-2.18834020437752
 20
12.03264592757512
 30
0.0
  0
POINT
  5
F1064C
330
F104F8
100
AcDbEntity
  8
Defpoints
 62
     0
100
AcDbPoint
 10
-21.74542195730641
 20
9.648135119909193
 30
0.0
  0
POINT
  5
F1064D
330
F104F8
100
AcDbEntity
  8
Defpoints
 62
     0
100
AcDbPoint
 10
-12.74542195730641
 20
10.64813511990919
 30
0.0
  0
POINT
  5
F1064E
330
F104F8
100
AcDbEntity
  8
Defpoints
 62
     0
100
AcDbPoint
 10
22.75457804269358
 20
10.64813511990919
 30
0.0
  0
POINT
  5
F1064F
330
F104F8
100
AcDbEntity
  8
Defpoints
 62
     0
100
AcDbPoint
 10
-18.0133711497375
 20
10.64813511990919
 30
0.0
  0
ENDBLK
  5
F104FA
330
F104F8
100
AcDbEntity
  8
0
100
AcDbBlockEnd
  0
ENDSEC
  0
SECTION
  2
ENTITIES
  0
DIMENSION
  5
F10012
330
261
100
AcDbEntity
  8
Bemassung
100
AcDbDimension
  2
*D3
 10
23.25457804269359
 20
30.64813511990919
 30
0.0
 11
5.254578042693587
 21
32.55042024951356
 31
0.0
 70
    32
  1
<>
 71
     8
 42
36.0
  3
BEM-ISBE
100
AcDbAlignedDimension
 13
-12.74542195730641
 23
10.64813511990919
 33
0.0
 14
23.25457804269359
 24
10.14813511990919
 34
0.0
100
AcDbRotatedDimension
1001
ACAD
1000
DSTYLE
1002
{
1070
    47
1040
2.0
1070
    48
1040
0.0
1070
    71
1070
     0
1070
    78
1070
     8
1070
   284
1070
     8
1002
}
  0
DIMENSION
  5
F1001C
330
261
100
AcDbEntity
  8
Bemassung
100
AcDbDimension
  2
*D4
 10
-33.74542195730641
 20
-10.35186488009078
 30
0.0
 11
-29.74542195730641
 21
-8.450432410786557
 31
0.0
 70
    32
  1
<>
 71
     8
 42
8.0
  3
BEM-ISBE
100
AcDbAlignedDimension
 13
-25.74542195730642
 23
5.648135119909196
 33
0.0
 14
-33.74542195730641
 24
-12.35186488009079
 34
0.0
100
AcDbRotatedDimension
1001
ACAD
1000
DSTYLE
1002
{
1070
    47
1040
1.0
1070
    48
1040
0.0
1070
    71
1070
     0
1070
    78
1070
     8
1070
   284
1070
     8
1002
}
  0
DIMENSION
  5
F10021
330
261
100
AcDbEntity
  8
Bemassung
100
AcDbDimension
  2
*D5
 10
-33.74542195730641
 20
45.64813511990919
 30
0.0
 11
-5.24542195730641
 21
47.5444516274126
 31
0.0
 70
    32
  1
<>
 71
     8
 42
57.0
  3
BEM-ISBE
100
AcDbAlignedDimension
 13
23.25457804269359
 23
10.14813511990919
 33
0.0
 14
-33.74542195730641
 24
-12.35186488009079
 34
0.0
100
AcDbRotatedDimension
1001
ACAD
1000
DSTYLE
1002
{
1070
    47
1040
2.0
1070
    48
1040
0.0
1070
    71
1070
     0
1070
    78
1070
     8
1070
   284
1070
     8
1002
}
  0
DIMENSION
  5
F10026
330
261
100
AcDbEntity
  8
Bemassung
100
AcDbDimension
  2
*D6
 10
-21.74542195730641
 20
-21.51713234380429
 30
0.0
 11
-27.74542195730641
 21
-19.63701638200347
 31
0.0
 70
    32
  1
<>
 71
     8
 42
12.0
  3
BEM-ISBE
100
AcDbAlignedDimension
 13
-33.74542195730641
 23
7.648135119909196
 33
0.0
 14
-21.74542195730641
 24
5.648135119909196
 34
0.0
100
AcDbRotatedDimension
1001
ACAD
1000
DSTYLE
1002
{
1070
    47
1040
0.5
1070
    48
1040
0.0
1070
    71
1070
     0
1070
    78
1070
     8
1070
   284
1070
     8
1002
}
  0
DIMENSION
  5
F10003
330
261
100
AcDbEntity
  8
Bemassung
100
AcDbDimension
  2
*D8
 10
-31.74542195730641
 20
7.648135119909192
 30
0.0
 11
-43.82135552252736
 21
19.67815932761463
 31
0.0
 70
   164
  1
<>
 71
     8
 42
1.999999999999988
  3
BEM-ISBE
100
AcDbRadialDimension
 15
-33.162326294061
 25
9.059652778490194
 35
0.0
 40
0.0
1001
ACAD
1000
DSTYLE
1002
{
1070
   284
1070
     8
1070
    78
1070
     8
1070
   144
1040
1.0
1070
   147
1040
0.625
1070
    72
1070
     0
1070
    71
1070
     0
1002
}
  0
DIMENSION
  5
F10008
330
261
100
AcDbEntity
  8
Bemassung
100
AcDbDimension
  2
*D9
 10
-48.74542195730621
 20
9.648135119909198
 30
0.0
 11
-50.71677257122162
 21
17.44741888525708
 31
0.0
 70
    32
  1
%%C<>
 71
     8
 42
4.0
  3
BEM-ISBE
100
AcDbAlignedDimension
 13
-31.74542195730641
 23
5.648135119909196
 33
0.0
 14
-31.74542195730641
 24
9.648135119909195
 34
0.0
 50
90.0
100
AcDbRotatedDimension
1001
ACAD
1000
DSTYLE
1002
{
1070
    48
1040
-0.048
1070
    71
1070
     0
1070
    78
1070
     8
1002
}
1001
ACAD_DSTYLE_DIMINSPECT
1070
   396
1000
100%
1070
   395
1000

1070
   394
1070
    33
1070
   393
1070
     0
  0
DIMENSION
  5
F10017
330
261
100
AcDbEntity
  8
Bemassung
100
AcDbDimension
  2
*D10
 10
33.25457804269359
 20
10.64813511990919
 30
0.0
 11
31.28322742877817
 21
7.648135119909197
 31
0.0
 70
    32
  1
%%C<> 
 71
     8
 42
6.0
  3
BEM-ISBE
100
AcDbAlignedDimension
 13
22.75457804269359
 23
4.648135119909195
 33
0.0
 14
22.75457804269359
 24
10.64813511990919
 34
0.0
 50
90.0
100
AcDbRotatedDimension
1001
ACAD
1000
DSTYLE
1002
{
1070
    71
1070
     0
1070
    78
1070
     8
1002
}
1001
ACAD_DSTYLE_DIMINSPECT
1070
   396
1000
100%
1070
   395
1000

1070
   394
1070
    33
1070
   393
1070
     0
  0
ARC
  5
F10079
330
261
100
AcDbEntity
  8
Geo
100
AcDbCircle
 10
-31.74542195730641
 20
7.648135119909196
 30
0.0
 40
2.0
100
AcDbArc
 50
90.0
 51
180.0
  0
LINE
  5
F1007B
330
261
100
AcDbEntity
  8
Geo
100
AcDbLine
 10
-31.74542195730641
 20
9.648135119909195
 30
0.0
 11
-21.74542195730641
 21
9.648135119909195
 31
0.0
  0
LINE
  5
F1007D
330
261
100
AcDbEntity
  8
Geo
100
AcDbLine
 10
-21.74542195730641
 20
9.648135119909195
 30
0.0
 11
-18.0133711497375
 21
10.64813511990919
 31
0.0
  0
LINE
  5
F1007F
330
261
100
AcDbEntity
  8
Geo
100
AcDbLine
 10
-18.0133711497375
 20
10.64813511990919
 30
0.0
 11
-12.74542195730641
 21
10.64813511990919
 31
0.0
  0
LINE
  5
F10081
330
261
100
AcDbEntity
  8
Geo
100
AcDbLine
 10
-12.74542195730641
 20
10.64813511990919
 30
0.0
 11
22.75457804269359
 21
10.64813511990919
 31
0.0
  0
LINE
  5
F10083
330
261
100
AcDbEntity
  8
Geo
100
AcDbLine
 10
22.75457804269359
 20
10.64813511990919
 30
0.0
 11
23.25457804269359
 21
10.14813511990919
 31
0.0
  0
LINE
  5
F10085
330
261
100
AcDbEntity
  8
Geo
100
AcDbLine
 10
-26.84542195730641
 20
9.648030428369493
 30
0.0
 11
-26.74542195730641
 21
9.647787845100991
 31
0.0
  0
LINE
  5
F10087
330
261
100
AcDbEntity
  8
Geo
100
AcDbLine
 10
-26.74542195730641
 20
9.647787845100991
 30
0.0
 11
-26.6454219573064
 21
9.645879000278895
 31
0.0
  0
LINE
  5
F10089
330
261
100
AcDbEntity
  8
Geo
100
AcDbLine
 10
-26.6454219573064
 20
9.645879000278895
 30
0.0
 11
-26.54542195730641
 21
9.642305484496793
 31
0.0
  0
LINE
  5
F1008B
330
261
100
AcDbEntity
  8
Geo
100
AcDbLine
 10
-26.54542195730641
 20
9.642305484496793
 30
0.0
 11
-26.44542195730642
 21
9.637070275477693
 31
0.0
  0
LINE
  5
F1008D
330
261
100
AcDbEntity
  8
Geo
100
AcDbLine
 10
-26.44542195730642
 20
9.637070275477693
 30
0.0
 11
-26.34542195730641
 21
9.630177735592893
 31
0.0
  0
LINE
  5
F1008F
330
261
100
AcDbEntity
  8
Geo
100
AcDbLine
 10
-26.34542195730641
 20
9.630177735592893
 30
0.0
 11
-26.24542195730641
 21
9.621633608226693
 31
0.0
  0
LINE
  5
F10091
330
261
100
AcDbEntity
  8
Geo
100
AcDbLine
 10
-26.24542195730641
 20
9.621633608226693
 30
0.0
 11
-26.14542195730641
 21
9.611445012990792
 31
0.0
  0
LINE
  5
F10093
330
261
100
AcDbEntity
  8
Geo
100
AcDbLine
 10
-26.14542195730641
 20
9.611445012990792
 30
0.0
 11
-26.04542195730641
 21
9.599620439791694
 31
0.0
  0
LINE
  5
F10095
330
261
100
AcDbEntity
  8
Geo
100
AcDbLine
 10
-26.04542195730641
 20
9.599620439791694
 30
0.0
 11
-25.94542195730642
 21
9.586169741755988
 31
0.0
  0
LINE
  5
F10097
330
261
100
AcDbEntity
  8
Geo
100
AcDbLine
 10
-25.94542195730642
 20
9.586169741755988
 30
0.0
 11
-25.84542195730641
 21
9.57110412702049
 31
0.0
  0
LINE
  5
F10099
330
261
100
AcDbEntity
  8
Geo
100
AcDbLine
 10
-25.84542195730641
 20
9.57110412702049
 30
0.0
 11
-25.74542195730642
 21
9.554436149392193
 31
0.0
  0
LINE
  5
F1009B
330
261
100
AcDbEntity
  8
Geo
100
AcDbLine
 10
-25.74542195730642
 20
9.554436149392193
 30
0.0
 11
-25.74542195730642
 21
9.554436149392193
 31
0.0
  0
LINE
  5
F1009D
330
261
100
AcDbEntity
  8
Geo
100
AcDbLine
 10
-25.74542195730642
 20
9.554436149392193
 30
0.0
 11
-25.74542195730642
 21
9.554436149392193
 31
0.0
  0
LINE
  5
F1009F
330
261
100
AcDbEntity
  8
Geo
100
AcDbLine
 10
-25.74542195730642
 20
9.554436149392193
 30
0.0
 11
-25.6454219573064
 21
9.505386306498591
 31
0.0
  0
LINE
  5
F100A1
330
261
100
AcDbEntity
  8
Geo
100
AcDbLine
 10
-25.6454219573064
 20
9.505386306498591
 30
0.0
 11
-25.54542195730641
 21
9.445844998638989
 31
0.0
  0
LINE
  5
F100A3
330
261
100
AcDbEntity
  8
Geo
100
AcDbLine
 10
-25.54542195730641
 20
9.445844998638989
 30
0.0
 11
-25.44542195730642
 21
9.375833415132794
 31
0.0
  0
LINE
  5
F100A5
330
261
100
AcDbEntity
  8
Geo
100
AcDbLine
 10
-25.44542195730642
 20
9.375833415132794
 30
0.0
 11
-25.34542195730641
 21
9.295444800448288
 31
0.0
  0
LINE
  5
F100A7
330
261
100
AcDbEntity
  8
Geo
100
AcDbLine
 10
-25.34542195730641
 20
9.295444800448288
 30
0.0
 11
-25.24542195730641
 21
9.20484829522709
 31
0.0
  0
LINE
  5
F100A9
330
261
100
AcDbEntity
  8
Geo
100
AcDbLine
 10
-25.24542195730641
 20
9.20484829522709
 30
0.0
 11
-25.14542195730641
 21
9.104292374891894
 31
0.0
  0
LINE
  5
F100AB
330
261
100
AcDbEntity
  8
Geo
100
AcDbLine
 10
-25.14542195730641
 20
9.104292374891894
 30
0.0
 11
-25.04542195730641
 21
8.994107816402694
 31
0.0
  0
LINE
  5
F100AD
330
261
100
AcDbEntity
  8
Geo
100
AcDbLine
 10
-25.04542195730641
 20
8.994107816402694
 30
0.0
 11
-24.94542195730641
 21
8.874710122528894
 31
0.0
  0
LINE
  5
F100AF
330
261
100
AcDbEntity
  8
Geo
100
AcDbLine
 10
-24.94542195730641
 20
8.874710122528894
 30
0.0
 11
-24.84542195730641
 21
8.746601332556487
 31
0.0
  0
LINE
  5
F100B1
330
261
100
AcDbEntity
  8
Geo
100
AcDbLine
 10
-24.84542195730641
 20
8.746601332556487
 30
0.0
 11
-24.74542195730641
 21
8.610371148756794
 31
0.0
  0
LINE
  5
F100B3
330
261
100
AcDbEntity
  8
Geo
100
AcDbLine
 10
-24.74542195730641
 20
8.610371148756794
 30
0.0
 11
-24.6454219573064
 21
8.466697309280393
 31
0.0
  0
LINE
  5
F100B5
330
261
100
AcDbEntity
  8
Geo
100
AcDbLine
 10
-24.6454219573064
 20
8.466697309280393
 30
0.0
 11
-24.54542195730641
 21
8.316345140499892
 31
0.0
  0
LINE
  5
F100B7
330
261
100
AcDbEntity
  8
Geo
100
AcDbLine
 10
-24.54542195730641
 20
8.316345140499892
 30
0.0
 11
-24.44542195730643
 21
8.16016622528679
 31
0.0
  0
LINE
  5
F100B9
330
261
100
AcDbEntity
  8
Geo
100
AcDbLine
 10
-24.44542195730643
 20
8.16016622528679
 30
0.0
 11
-24.34542195730641
 21
7.999096128335491
 31
0.0
  0
LINE
  5
F100BB
330
261
100
AcDbEntity
  8
Geo
100
AcDbLine
 10
-24.34542195730641
 20
7.999096128335491
 30
0.0
 11
-24.24542195730641
 21
7.834151125521588
 31
0.0
  0
LINE
  5
F100BD
330
261
100
AcDbEntity
  8
Geo
100
AcDbLine
 10
-24.24542195730641
 20
7.834151125521588
 30
0.0
 11
-24.1454219573064
 21
7.666423891433487
 31
0.0
  0
LINE
  5
F100BF
330
261
100
AcDbEntity
  8
Geo
100
AcDbLine
 10
-24.1454219573064
 20
7.666423891433487
 30
0.0
 11
-24.04542195730641
 21
7.497078107701096
 31
0.0
  0
LINE
  5
F100C1
330
261
100
AcDbEntity
  8
Geo
100
AcDbLine
 10
-24.04542195730641
 20
7.497078107701096
 30
0.0
 11
-23.94542195730641
 21
7.327341964576891
 31
0.0
  0
LINE
  5
F100C3
330
261
100
AcDbEntity
  8
Geo
100
AcDbLine
 10
-23.94542195730641
 20
7.327341964576891
 30
0.0
 11
-23.84542195730641
 21
7.15850053941009
 31
0.0
  0
LINE
  5
F100C5
330
261
100
AcDbEntity
  8
Geo
100
AcDbLine
 10
-23.84542195730641
 20
7.15850053941009
 30
0.0
 11
-23.74542195730641
 21
6.991887048175192
 31
0.0
  0
LINE
  5
F100C7
330
261
100
AcDbEntity
  8
Geo
100
AcDbLine
 10
-23.74542195730641
 20
6.991887048175192
 30
0.0
 11
-23.6454219573064
 21
6.828872980037991
 31
0.0
  0
LINE
  5
F100C9
330
261
100
AcDbEntity
  8
Geo
100
AcDbLine
 10
-23.6454219573064
 20
6.828872980037991
 30
0.0
 11
-23.54542195730641
 21
6.670857139994396
 31
0.0
  0
LINE
  5
F100CB
330
261
100
AcDbEntity
  8
Geo
100
AcDbLine
 10
-23.54542195730641
 20
6.670857139994396
 30
0.0
 11
-23.44542195730642
 21
6.519253640813089
 31
0.0
  0
LINE
  5
F100CD
330
261
100
AcDbEntity
  8
Geo
100
AcDbLine
 10
-23.44542195730642
 20
6.519253640813089
 30
0.0
 11
-23.34542195730641
 21
6.375478902733793
 31
0.0
  0
LINE
  5
F100CF
330
261
100
AcDbEntity
  8
Geo
100
AcDbLine
 10
-23.34542195730641
 20
6.375478902733793
 30
0.0
 11
-23.24542195730641
 21
6.240937737461592
 31
0.0
  0
LINE
  5
F100D1
330
261
100
AcDbEntity
  8
Geo
100
AcDbLine
 10
-23.24542195730641
 20
6.240937737461592
 30
0.0
 11
-23.1454219573064
 21
6.117008611784394
 31
0.0
  0
LINE
  5
F100D3
330
261
100
AcDbEntity
  8
Geo
100
AcDbLine
 10
-23.1454219573064
 20
6.117008611784394
 30
0.0
 11
-23.04542195730641
 21
6.005028205397592
 31
0.0
  0
LINE
  5
F100D5
330
261
100
AcDbEntity
  8
Geo
100
AcDbLine
 10
-23.04542195730641
 20
6.005028205397592
 30
0.0
 11
-22.94542195730642
 21
5.906275397017393
 31
0.0
  0
LINE
  5
F100D7
330
261
100
AcDbEntity
  8
Geo
100
AcDbLine
 10
-22.94542195730642
 20
5.906275397017393
 30
0.0
 11
-22.84542195730641
 21
5.821954832312691
 31
0.0
  0
LINE
  5
F100D9
330
261
100
AcDbEntity
  8
Geo
100
AcDbLine
 10
-22.84542195730641
 20
5.821954832312691
 30
0.0
 11
-22.74542195730641
 21
5.753180246282592
 31
0.0
  0
LINE
  5
F100DB
330
261
100
AcDbEntity
  8
Geo
100
AcDbLine
 10
-22.74542195730641
 20
5.753180246282592
 30
0.0
 11
-22.74542195730641
 21
5.753180246282488
 31
0.0
  0
LINE
  5
F100DD
330
261
100
AcDbEntity
  8
Geo
100
AcDbLine
 10
-33.74542195730641
 20
7.648135119909196
 30
0.0
 11
-33.64542195730641
 21
8.076793402619793
 31
0.0
  0
LINE
  5
F100DF
330
261
100
AcDbEntity
  8
Geo
100
AcDbLine
 10
-33.64542195730641
 20
8.076793402619793
 30
0.0
 11
-33.54542195730641
 21
8.227978911461987
 31
0.0
  0
LINE
  5
F100E1
330
261
100
AcDbEntity
  8
Geo
100
AcDbLine
 10
-33.54542195730641
 20
8.227978911461987
 30
0.0
 11
-33.44542195730642
 21
8.325889576794292
 31
0.0
  0
LINE
  5
F100E3
330
261
100
AcDbEntity
  8
Geo
100
AcDbLine
 10
-33.44542195730642
 20
8.325889576794292
 30
0.0
 11
-33.34542195730641
 21
8.393250683285693
 31
0.0
  0
LINE
  5
F100E5
330
261
100
AcDbEntity
  8
Geo
100
AcDbLine
 10
-33.34542195730641
 20
8.393250683285693
 30
0.0
 11
-33.24542195730643
 21
8.439275356175791
 31
0.0
  0
LINE
  5
F100E7
330
261
100
AcDbEntity
  8
Geo
100
AcDbLine
 10
-33.24542195730643
 20
8.439275356175791
 30
0.0
 11
-33.1454219573064
 21
8.468918966539991
 31
0.0
  0
LINE
  5
F100E9
330
261
100
AcDbEntity
  8
Geo
100
AcDbLine
 10
-33.1454219573064
 20
8.468918966539991
 30
0.0
 11
-33.04542195730641
 21
8.485282618556293
 31
0.0
  0
LINE
  5
F100EB
330
261
100
AcDbEntity
  8
Geo
100
AcDbLine
 10
-33.04542195730641
 20
8.485282618556293
 30
0.0
 11
-32.94542195730642
 21
8.490507318569196
 31
0.0
  0
LINE
  5
F100ED
330
261
100
AcDbEntity
  8
Geo
100
AcDbLine
 10
-32.94542195730642
 20
8.490507318569196
 30
0.0
 11
-32.84542195730641
 21
8.48617930113949
 31
0.0
  0
LINE
  5
F100EF
330
261
100
AcDbEntity
  8
Geo
100
AcDbLine
 10
-32.84542195730641
 20
8.48617930113949
 30
0.0
 11
-32.74542195730641
 21
8.47353900770609
 31
0.0
  0
LINE
  5
F100F1
330
261
100
AcDbEntity
  8
Geo
100
AcDbLine
 10
-32.74542195730641
 20
8.47353900770609
 30
0.0
 11
-32.64542195730641
 21
8.453599172626091
 31
0.0
  0
LINE
  5
F100F3
330
261
100
AcDbEntity
  8
Geo
100
AcDbLine
 10
-32.64542195730641
 20
8.453599172626091
 30
0.0
 11
-32.54542195730641
 21
8.427216321130391
 31
0.0
  0
LINE
  5
F100F5
330
261
100
AcDbEntity
  8
Geo
100
AcDbLine
 10
-32.54542195730641
 20
8.427216321130391
 30
0.0
 11
-32.44542195730641
 21
8.395136477369693
 31
0.0
  0
LINE
  5
F100F7
330
261
100
AcDbEntity
  8
Geo
100
AcDbLine
 10
-32.44542195730641
 20
8.395136477369693
 30
0.0
 11
-32.34542195730641
 21
8.358025711570286
 31
0.0
  0
LINE
  5
F100F9
330
261
100
AcDbEntity
  8
Geo
100
AcDbLine
 10
-32.34542195730641
 20
8.358025711570286
 30
0.0
 11
-32.24542195730641
 21
8.316491338436788
 31
0.0
  0
LINE
  5
F100FB
330
261
100
AcDbEntity
  8
Geo
100
AcDbLine
 10
-32.24542195730641
 20
8.316491338436788
 30
0.0
 11
-32.1454219573064
 21
8.271097127116391
 31
0.0
  0
LINE
  5
F100FD
330
261
100
AcDbEntity
  8
Geo
100
AcDbLine
 10
-32.1454219573064
 20
8.271097127116391
 30
0.0
 11
-32.04542195730641
 21
8.22237456017779
 31
0.0
  0
LINE
  5
F100FF
330
261
100
AcDbEntity
  8
Geo
100
AcDbLine
 10
-32.04542195730641
 20
8.22237456017779
 30
0.0
 11
-31.94542195730643
 21
8.170831430678695
 31
0.0
  0
LINE
  5
F10101
330
261
100
AcDbEntity
  8
Geo
100
AcDbLine
 10
-31.94542195730643
 20
8.170831430678695
 30
0.0
 11
-31.84542195730641
 21
8.116958626774096
 31
0.0
  0
LINE
  5
F10103
330
261
100
AcDbEntity
  8
Geo
100
AcDbLine
 10
-31.84542195730641
 20
8.116958626774096
 30
0.0
 11
-31.74542195730641
 21
8.06123568801799
 31
0.0
  0
LINE
  5
F10105
330
261
100
AcDbEntity
  8
Geo
100
AcDbLine
 10
-31.74542195730641
 20
8.06123568801799
 30
0.0
 11
-31.6454219573064
 21
8.004581392211292
 31
0.0
  0
LINE
  5
F10107
330
261
100
AcDbEntity
  8
Geo
100
AcDbLine
 10
-31.6454219573064
 20
8.004581392211292
 30
0.0
 11
-31.54542195730641
 21
7.94763007847129
 31
0.0
  0
LINE
  5
F10109
330
261
100
AcDbEntity
  8
Geo
100
AcDbLine
 10
-31.54542195730641
 20
7.94763007847129
 30
0.0
 11
-31.44542195730642
 21
7.89042920293069
 31
0.0
  0
LINE
  5
F1010B
330
261
100
AcDbEntity
  8
Geo
100
AcDbLine
 10
-31.44542195730642
 20
7.89042920293069
 30
0.0
 11
-31.34542195730641
 21
7.833026429675491
 31
0.0
  0
LINE
  5
F1010D
330
261
100
AcDbEntity
  8
Geo
100
AcDbLine
 10
-31.34542195730641
 20
7.833026429675491
 30
0.0
 11
-31.24542195730641
 21
7.775469591028191
 31
0.0
  0
LINE
  5
F1010F
330
261
100
AcDbEntity
  8
Geo
100
AcDbLine
 10
-31.24542195730641
 20
7.775469591028191
 30
0.0
 11
-31.14542195730641
 21
7.717806647690286
 31
0.0
  0
LINE
  5
F10111
330
261
100
AcDbEntity
  8
Geo
100
AcDbLine
 10
-31.14542195730641
 20
7.717806647690286
 30
0.0
 11
-31.04542195730641
 21
7.660085648777791
 31
0.0
  0
LINE
  5
F10113
330
261
100
AcDbEntity
  8
Geo
100
AcDbLine
 10
-31.04542195730641
 20
7.660085648777791
 30
0.0
 11
-30.94542195730642
 21
7.602354691782792
 31
0.0
  0
LINE
  5
F10115
330
261
100
AcDbEntity
  8
Geo
100
AcDbLine
 10
-30.94542195730642
 20
7.602354691782792
 30
0.0
 11
-30.84542195730641
 21
7.544661882495289
 31
0.0
  0
LINE
  5
F10117
330
261
100
AcDbEntity
  8
Geo
100
AcDbLine
 10
-30.84542195730641
 20
7.544661882495289
 30
0.0
 11
-30.74542195730642
 21
7.487055294917695
 31
0.0
  0
LINE
  5
F10119
330
261
100
AcDbEntity
  8
Geo
100
AcDbLine
 10
-30.74542195730642
 20
7.487055294917695
 30
0.0
 11
-30.6454219573064
 21
7.429582931206192
 31
0.0
  0
LINE
  5
F1011B
330
261
100
AcDbEntity
  8
Geo
100
AcDbLine
 10
-30.6454219573064
 20
7.429582931206192
 30
0.0
 11
-30.54542195730641
 21
7.372292681671194
 31
0.0
  0
LINE
  5
F1011D
330
261
100
AcDbEntity
  8
Geo
100
AcDbLine
 10
-30.54542195730641
 20
7.372292681671194
 30
0.0
 11
-30.44542195730642
 21
7.315232284872092
 31
0.0
  0
LINE
  5
F1011F
330
261
100
AcDbEntity
  8
Geo
100
AcDbLine
 10
-30.44542195730642
 20
7.315232284872092
 30
0.0
 11
-30.34542195730641
 21
7.258449287837592
 31
0.0
  0
LINE
  5
F10121
330
261
100
AcDbEntity
  8
Geo
100
AcDbLine
 10
-30.34542195730641
 20
7.258449287837592
 30
0.0
 11
-30.24542195730641
 21
7.20199100644579
 31
0.0
  0
LINE
  5
F10123
330
261
100
AcDbEntity
  8
Geo
100
AcDbLine
 10
-30.24542195730641
 20
7.20199100644579
 30
0.0
 11
-30.14542195730641
 21
7.145904485997394
 31
0.0
  0
LINE
  5
F10125
330
261
100
AcDbEntity
  8
Geo
100
AcDbLine
 10
-30.14542195730641
 20
7.145904485997394
 30
0.0
 11
-30.04542195730641
 21
7.09023646201379
 31
0.0
  0
LINE
  5
F10127
330
261
100
AcDbEntity
  8
Geo
100
AcDbLine
 10
-30.04542195730641
 20
7.09023646201379
 30
0.0
 11
-29.94542195730641
 21
7.035033321293489
 31
0.0
  0
LINE
  5
F10129
330
261
100
AcDbEntity
  8
Geo
100
AcDbLine
 10
-29.94542195730641
 20
7.035033321293489
 30
0.0
 11
-29.84542195730641
 21
6.980341063259286
 31
0.0
  0
LINE
  5
F1012B
330
261
100
AcDbEntity
  8
Geo
100
AcDbLine
 10
-29.84542195730641
 20
6.980341063259286
 30
0.0
 11
-29.74542195730641
 21
6.926205261627892
 31
0.0
  0
LINE
  5
F1012D
330
261
100
AcDbEntity
  8
Geo
100
AcDbLine
 10
-29.74542195730641
 20
6.926205261627892
 30
0.0
 11
-29.6454219573064
 21
6.872671026434491
 31
0.0
  0
LINE
  5
F1012F
330
261
100
AcDbEntity
  8
Geo
100
AcDbLine
 10
-29.6454219573064
 20
6.872671026434491
 30
0.0
 11
-29.54542195730641
 21
6.819782966443894
 31
0.0
  0
LINE
  5
F10131
330
261
100
AcDbEntity
  8
Geo
100
AcDbLine
 10
-29.54542195730641
 20
6.819782966443894
 30
0.0
 11
-29.44542195730642
 21
6.767585151978793
 31
0.0
  0
LINE
  5
F10133
330
261
100
AcDbEntity
  8
Geo
100
AcDbLine
 10
-29.44542195730642
 20
6.767585151978793
 30
0.0
 11
-29.34542195730641
 21
6.716121078197288
 31
0.0
  0
LINE
  5
F10135
330
261
100
AcDbEntity
  8
Geo
100
AcDbLine
 10
-29.34542195730641
 20
6.716121078197288
 30
0.0
 11
-29.24542195730641
 21
6.665433628849394
 31
0.0
  0
LINE
  5
F10137
330
261
100
AcDbEntity
  8
Geo
100
AcDbLine
 10
-29.24542195730641
 20
6.665433628849394
 30
0.0
 11
-29.14542195730641
 21
6.615565040542992
 31
0.0
  0
LINE
  5
F10139
330
261
100
AcDbEntity
  8
Geo
100
AcDbLine
 10
-29.14542195730641
 20
6.615565040542992
 30
0.0
 11
-29.04542195730641
 21
6.566556867549191
 31
0.0
  0
LINE
  5
F1013B
330
261
100
AcDbEntity
  8
Geo
100
AcDbLine
 10
-29.04542195730641
 20
6.566556867549191
 30
0.0
 11
-28.94542195730642
 21
6.518449947176089
 31
0.0
  0
LINE
  5
F1013D
330
261
100
AcDbEntity
  8
Geo
100
AcDbLine
 10
-28.94542195730642
 20
6.518449947176089
 30
0.0
 11
-28.84542195730641
 21
6.471284365740093
 31
0.0
  0
LINE
  5
F1013F
330
261
100
AcDbEntity
  8
Geo
100
AcDbLine
 10
-28.84542195730641
 20
6.471284365740093
 30
0.0
 11
-28.74542195730641
 21
6.425099425163089
 31
0.0
  0
LINE
  5
F10141
330
261
100
AcDbEntity
  8
Geo
100
AcDbLine
 10
-28.74542195730641
 20
6.425099425163089
 30
0.0
 11
-28.64542195730641
 21
6.379933610222695
 31
0.0
  0
LINE
  5
F10143
330
261
100
AcDbEntity
  8
Geo
100
AcDbLine
 10
-28.64542195730641
 20
6.379933610222695
 30
0.0
 11
-28.54542195730641
 21
6.335824556484491
 31
0.0
  0
LINE
  5
F10145
330
261
100
AcDbEntity
  8
Geo
100
AcDbLine
 10
-28.54542195730641
 20
6.335824556484491
 30
0.0
 11
-28.44542195730642
 21
6.292809018940693
 31
0.0
  0
LINE
  5
F10147
330
261
100
AcDbEntity
  8
Geo
100
AcDbLine
 10
-28.44542195730642
 20
6.292809018940693
 30
0.0
 11
-28.34542195730641
 21
6.250922841383292
 31
0.0
  0
LINE
  5
F10149
330
261
100
AcDbEntity
  8
Geo
100
AcDbLine
 10
-28.34542195730641
 20
6.250922841383292
 30
0.0
 11
-28.24542195730641
 21
6.210200926536489
 31
0.0
  0
LINE
  5
F1014B
330
261
100
AcDbEntity
  8
Geo
100
AcDbLine
 10
-28.24542195730641
 20
6.210200926536489
 30
0.0
 11
-28.1454219573064
 21
6.17067720697259
 31
0.0
  0
LINE
  5
F1014D
330
261
100
AcDbEntity
  8
Geo
100
AcDbLine
 10
-28.1454219573064
 20
6.17067720697259
 30
0.0
 11
-28.04542195730641
 21
6.13238461683749
 31
0.0
  0
LINE
  5
F1014F
330
261
100
AcDbEntity
  8
Geo
100
AcDbLine
 10
-28.04542195730641
 20
6.13238461683749
 30
0.0
 11
-27.94542195730642
 21
6.095355064406987
 31
0.0
  0
LINE
  5
F10151
330
261
100
AcDbEntity
  8
Geo
100
AcDbLine
 10
-27.94542195730642
 20
6.095355064406987
 30
0.0
 11
-27.84542195730641
 21
6.059619405498692
 31
0.0
  0
LINE
  5
F10153
330
261
100
AcDbEntity
  8
Geo
100
AcDbLine
 10
-27.84542195730641
 20
6.059619405498692
 30
0.0
 11
-27.74542195730641
 21
6.025207417760191
 31
0.0
  0
LINE
  5
F10155
330
261
100
AcDbEntity
  8
Geo
100
AcDbLine
 10
-27.74542195730641
 20
6.025207417760191
 30
0.0
 11
-27.64542195730641
 21
5.992147775856793
 31
0.0
  0
LINE
  5
F10157
330
261
100
AcDbEntity
  8
Geo
100
AcDbLine
 10
-27.64542195730641
 20
5.992147775856793
 30
0.0
 11
-27.54542195730641
 21
5.96046802757669
 31
0.0
  0
LINE
  5
F10159
330
261
100
AcDbEntity
  8
Geo
100
AcDbLine
 10
-27.54542195730641
 20
5.96046802757669
 30
0.0
 11
-27.44542195730641
 21
5.93019457087709
 31
0.0
  0
LINE
  5
F1015B
330
261
100
AcDbEntity
  8
Geo
100
AcDbLine
 10
-27.44542195730641
 20
5.93019457087709
 30
0.0
 11
-27.34542195730641
 21
5.901352631886588
 31
0.0
  0
LINE
  5
F1015D
330
261
100
AcDbEntity
  8
Geo
100
AcDbLine
 10
-27.34542195730641
 20
5.901352631886588
 30
0.0
 11
-27.24542195730641
 21
5.87396624388529
 31
0.0
  0
LINE
  5
F1015F
330
261
100
AcDbEntity
  8
Geo
100
AcDbLine
 10
-27.24542195730641
 20
5.87396624388529
 30
0.0
 11
-27.1454219573064
 21
5.848058227278392
 31
0.0
  0
LINE
  5
F10161
330
261
100
AcDbEntity
  8
Geo
100
AcDbLine
 10
-27.1454219573064
 20
5.848058227278392
 30
0.0
 11
-27.04542195730641
 21
5.823650170580393
 31
0.0
  0
LINE
  5
F10163
330
261
100
AcDbEntity
  8
Geo
100
AcDbLine
 10
-27.04542195730641
 20
5.823650170580393
 30
0.0
 11
-26.94542195730643
 21
5.800762412426191
 31
0.0
  0
LINE
  5
F10165
330
261
100
AcDbEntity
  8
Geo
100
AcDbLine
 10
-26.94542195730643
 20
5.800762412426191
 30
0.0
 11
-26.84542195730641
 21
5.77941402462309
 31
0.0
  0
LINE
  5
F10167
330
261
100
AcDbEntity
  8
Geo
100
AcDbLine
 10
-26.84542195730641
 20
5.77941402462309
 30
0.0
 11
-26.74542195730641
 21
5.759622796258792
 31
0.0
  0
LINE
  5
F10169
330
261
100
AcDbEntity
  8
Geo
100
AcDbLine
 10
-26.74542195730641
 20
5.759622796258792
 30
0.0
 11
-26.6454219573064
 21
5.74140521887829
 31
0.0
  0
LINE
  5
F1016B
330
261
100
AcDbEntity
  8
Geo
100
AcDbLine
 10
-26.6454219573064
 20
5.74140521887829
 30
0.0
 11
-26.54542195730641
 21
5.724776472741892
 31
0.0
  0
LINE
  5
F1016D
330
261
100
AcDbEntity
  8
Geo
100
AcDbLine
 10
-26.54542195730641
 20
5.724776472741892
 30
0.0
 11
-26.44542195730642
 21
5.70975041417579
 31
0.0
  0
LINE
  5
F1016F
330
261
100
AcDbEntity
  8
Geo
100
AcDbLine
 10
-26.44542195730642
 20
5.70975041417579
 30
0.0
 11
-26.34542195730641
 21
5.69633956402579
 31
0.0
  0
LINE
  5
F10171
330
261
100
AcDbEntity
  8
Geo
100
AcDbLine
 10
-26.34542195730641
 20
5.69633956402579
 30
0.0
 11
-26.24542195730641
 21
5.684555097224488
 31
0.0
  0
LINE
  5
F10173
330
261
100
AcDbEntity
  8
Geo
100
AcDbLine
 10
-26.24542195730641
 20
5.684555097224488
 30
0.0
 11
-26.14542195730641
 21
5.674406833478691
 31
0.0
  0
LINE
  5
F10175
330
261
100
AcDbEntity
  8
Geo
100
AcDbLine
 10
-26.14542195730641
 20
5.674406833478691
 30
0.0
 11
-26.04542195730641
 21
5.665903229087787
 31
0.0
  0
LINE
  5
F10177
330
261
100
AcDbEntity
  8
Geo
100
AcDbLine
 10
-26.04542195730641
 20
5.665903229087787
 30
0.0
 11
-25.94542195730642
 21
5.65905136989659
 31
0.0
  0
LINE
  5
F10179
330
261
100
AcDbEntity
  8
Geo
100
AcDbLine
 10
-25.94542195730642
 20
5.65905136989659
 30
0.0
 11
-25.84542195730641
 21
5.653856965391194
 31
0.0
  0
LINE
  5
F1017B
330
261
100
AcDbEntity
  8
Geo
100
AcDbLine
 10
-25.84542195730641
 20
5.653856965391194
 30
0.0
 11
-25.74542195730642
 21
5.650324343941591
 31
0.0
  0
LINE
  5
F1017D
330
261
100
AcDbEntity
  8
Geo
100
AcDbLine
 10
-25.74542195730642
 20
5.650324343941591
 30
0.0
 11
-25.74542195730642
 21
5.650324343941591
 31
0.0
  0
LINE
  5
F1017F
330
261
100
AcDbEntity
  8
Geo
100
AcDbLine
 10
-25.74542195730642
 20
5.650324343941591
 30
0.0
 11
-25.74542195730642
 21
5.650324343941591
 31
0.0
  0
LINE
  5
F10181
330
261
100
AcDbEntity
  8
Geo
100
AcDbLine
 10
-25.74542195730642
 20
5.650324343941591
 30
0.0
 11
-25.6454219573064
 21
5.651146364355793
 31
0.0
  0
LINE
  5
F10183
330
261
100
AcDbEntity
  8
Geo
100
AcDbLine
 10
-25.6454219573064
 20
5.651146364355793
 30
0.0
 11
-25.54542195730641
 21
5.652109479298593
 31
0.0
  0
LINE
  5
F10185
330
261
100
AcDbEntity
  8
Geo
100
AcDbLine
 10
-25.54542195730641
 20
5.652109479298593
 30
0.0
 11
-25.44542195730642
 21
5.653217686056791
 31
0.0
  0
LINE
  5
F10187
330
261
100
AcDbEntity
  8
Geo
100
AcDbLine
 10
-25.44542195730642
 20
5.653217686056791
 30
0.0
 11
-25.34542195730641
 21
5.654475009838392
 31
0.0
  0
LINE
  5
F10189
330
261
100
AcDbEntity
  8
Geo
100
AcDbLine
 10
-25.34542195730641
 20
5.654475009838392
 30
0.0
 11
-25.24542195730641
 21
5.655885502731693
 31
0.0
  0
LINE
  5
F1018B
330
261
100
AcDbEntity
  8
Geo
100
AcDbLine
 10
-25.24542195730641
 20
5.655885502731693
 30
0.0
 11
-25.14542195730641
 21
5.657453242622191
 31
0.0
  0
LINE
  5
F1018D
330
261
100
AcDbEntity
  8
Geo
100
AcDbLine
 10
-25.14542195730641
 20
5.657453242622191
 30
0.0
 11
-25.04542195730641
 21
5.659182332066695
 31
0.0
  0
LINE
  5
F1018F
330
261
100
AcDbEntity
  8
Geo
100
AcDbLine
 10
-25.04542195730641
 20
5.659182332066695
 30
0.0
 11
-24.94542195730641
 21
5.661076897122491
 31
0.0
  0
LINE
  5
F10191
330
261
100
AcDbEntity
  8
Geo
100
AcDbLine
 10
-24.94542195730641
 20
5.661076897122491
 30
0.0
 11
-24.84542195730641
 21
5.663141086133593
 31
0.0
  0
LINE
  5
F10193
330
261
100
AcDbEntity
  8
Geo
100
AcDbLine
 10
-24.84542195730641
 20
5.663141086133593
 30
0.0
 11
-24.74542195730641
 21
5.665379068470094
 31
0.0
  0
LINE
  5
F10195
330
261
100
AcDbEntity
  8
Geo
100
AcDbLine
 10
-24.74542195730641
 20
5.665379068470094
 30
0.0
 11
-24.6454219573064
 21
5.667795033221891
 31
0.0
  0
LINE
  5
F10197
330
261
100
AcDbEntity
  8
Geo
100
AcDbLine
 10
-24.6454219573064
 20
5.667795033221891
 30
0.0
 11
-24.54542195730641
 21
5.670393187845789
 31
0.0
  0
LINE
  5
F10199
330
261
100
AcDbEntity
  8
Geo
100
AcDbLine
 10
-24.54542195730641
 20
5.670393187845789
 30
0.0
 11
-24.44542195730643
 21
5.673177756764196
 31
0.0
  0
LINE
  5
F1019B
330
261
100
AcDbEntity
  8
Geo
100
AcDbLine
 10
-24.44542195730643
 20
5.673177756764196
 30
0.0
 11
-24.34542195730641
 21
5.676152979916093
 31
0.0
  0
LINE
  5
F1019D
330
261
100
AcDbEntity
  8
Geo
100
AcDbLine
 10
-24.34542195730641
 20
5.676152979916093
 30
0.0
 11
-24.24542195730641
 21
5.679323111258891
 31
0.0
  0
LINE
  5
F1019F
330
261
100
AcDbEntity
  8
Geo
100
AcDbLine
 10
-24.24542195730641
 20
5.679323111258891
 30
0.0
 11
-24.1454219573064
 21
5.68269241721979
 31
0.0
  0
LINE
  5
F101A1
330
261
100
AcDbEntity
  8
Geo
100
AcDbLine
 10
-24.1454219573064
 20
5.68269241721979
 30
0.0
 11
-24.04542195730641
 21
5.686265175097091
 31
0.0
  0
LINE
  5
F101A3
330
261
100
AcDbEntity
  8
Geo
100
AcDbLine
 10
-24.04542195730641
 20
5.686265175097091
 30
0.0
 11
-23.94542195730641
 21
5.690045671410891
 31
0.0
  0
LINE
  5
F101A5
330
261
100
AcDbEntity
  8
Geo
100
AcDbLine
 10
-23.94542195730641
 20
5.690045671410891
 30
0.0
 11
-23.84542195730641
 21
5.69403820020079
 31
0.0
  0
LINE
  5
F101A7
330
261
100
AcDbEntity
  8
Geo
100
AcDbLine
 10
-23.84542195730641
 20
5.69403820020079
 30
0.0
 11
-23.74542195730641
 21
5.698247061272192
 31
0.0
  0
LINE
  5
F101A9
330
261
100
AcDbEntity
  8
Geo
100
AcDbLine
 10
-23.74542195730641
 20
5.698247061272192
 30
0.0
 11
-23.6454219573064
 21
5.70267655838899
 31
0.0
  0
LINE
  5
F101AB
330
261
100
AcDbEntity
  8
Geo
100
AcDbLine
 10
-23.6454219573064
 20
5.70267655838899
 30
0.0
 11
-23.54542195730641
 21
5.707330997412892
 31
0.0
  0
LINE
  5
F101AD
330
261
100
AcDbEntity
  8
Geo
100
AcDbLine
 10
-23.54542195730641
 20
5.707330997412892
 30
0.0
 11
-23.44542195730642
 21
5.712214684388293
 31
0.0
  0
LINE
  5
F101AF
330
261
100
AcDbEntity
  8
Geo
100
AcDbLine
 10
-23.44542195730642
 20
5.712214684388293
 30
0.0
 11
-23.34542195730641
 21
5.717331923572789
 31
0.0
  0
LINE
  5
F101B1
330
261
100
AcDbEntity
  8
Geo
100
AcDbLine
 10
-23.34542195730641
 20
5.717331923572789
 30
0.0
 11
-23.24542195730641
 21
5.722687015411789
 31
0.0
  0
LINE
  5
F101B3
330
261
100
AcDbEntity
  8
Geo
100
AcDbLine
 10
-23.24542195730641
 20
5.722687015411789
 30
0.0
 11
-23.1454219573064
 21
5.728284254458388
 31
0.0
  0
LINE
  5
F101B5
330
261
100
AcDbEntity
  8
Geo
100
AcDbLine
 10
-23.1454219573064
 20
5.728284254458388
 30
0.0
 11
-23.04542195730641
 21
5.734127927235991
 31
0.0
  0
LINE
  5
F101B7
330
261
100
AcDbEntity
  8
Geo
100
AcDbLine
 10
-23.04542195730641
 20
5.734127927235991
 30
0.0
 11
-22.94542195730642
 21
5.74022231004499
 31
0.0
  0
LINE
  5
F101B9
330
261
100
AcDbEntity
  8
Geo
100
AcDbLine
 10
-22.94542195730642
 20
5.74022231004499
 30
0.0
 11
-22.84542195730641
 21
5.746571666712092
 31
0.0
  0
LINE
  5
F101BB
330
261
100
AcDbEntity
  8
Geo
100
AcDbLine
 10
-22.84542195730641
 20
5.746571666712092
 30
0.0
 11
-22.74542195730641
 21
5.753180246282488
 31
0.0
  0
LINE
  5
F101BD
330
261
100
AcDbEntity
  8
Geo
100
AcDbLine
 10
-22.74542195730641
 20
5.753180246282488
 30
0.0
 11
-22.74542195730641
 21
5.753180246282488
 31
0.0
  0
LINE
  5
F101BF
330
261
100
AcDbEntity
  8
Geo
100
AcDbLine
 10
-33.74542195730641
 20
7.648135119909196
 30
0.0
 11
-33.64542195730641
 21
7.892721820391193
 31
0.0
  0
LINE
  5
F101C1
330
261
100
AcDbEntity
  8
Geo
100
AcDbLine
 10
-33.64542195730641
 20
7.892721820391193
 30
0.0
 11
-33.54542195730641
 21
7.966274847363294
 31
0.0
  0
LINE
  5
F101C3
330
261
100
AcDbEntity
  8
Geo
100
AcDbLine
 10
-33.54542195730641
 20
7.966274847363294
 30
0.0
 11
-33.44542195730642
 21
8.004141533757692
 31
0.0
  0
LINE
  5
F101C5
330
261
100
AcDbEntity
  8
Geo
100
AcDbLine
 10
-33.44542195730642
 20
8.004141533757692
 30
0.0
 11
-33.34542195730641
 21
8.020854884940789
 31
0.0
  0
LINE
  5
F101C7
330
261
100
AcDbEntity
  8
Geo
100
AcDbLine
 10
-33.34542195730641
 20
8.020854884940789
 30
0.0
 11
-33.24542195730643
 21
8.022554515326092
 31
0.0
  0
LINE
  5
F101C9
330
261
100
AcDbEntity
  8
Geo
100
AcDbLine
 10
-33.24542195730643
 20
8.022554515326092
 30
0.0
 11
-33.1454219573064
 21
8.012681143152292
 31
0.0
  0
LINE
  5
F101CB
330
261
100
AcDbEntity
  8
Geo
100
AcDbLine
 10
-33.1454219573064
 20
8.012681143152292
 30
0.0
 11
-33.04542195730641
 21
7.993478705514589
 31
0.0
  0
LINE
  5
F101CD
330
261
100
AcDbEntity
  8
Geo
100
AcDbLine
 10
-33.04542195730641
 20
7.993478705514589
 30
0.0
 11
-32.94542195730642
 21
7.966561024879889
 31
0.0
  0
LINE
  5
F101CF
330
261
100
AcDbEntity
  8
Geo
100
AcDbLine
 10
-32.94542195730642
 20
7.966561024879889
 30
0.0
 11
-32.84542195730641
 21
7.933172053373492
 31
0.0
  0
LINE
  5
F101D1
330
261
100
AcDbEntity
  8
Geo
100
AcDbLine
 10
-32.84542195730641
 20
7.933172053373492
 30
0.0
 11
-32.74542195730641
 21
7.894321737844192
 31
0.0
  0
LINE
  5
F101D3
330
261
100
AcDbEntity
  8
Geo
100
AcDbLine
 10
-32.74542195730641
 20
7.894321737844192
 30
0.0
 11
-32.64542195730641
 21
7.850863735262392
 31
0.0
  0
LINE
  5
F101D5
330
261
100
AcDbEntity
  8
Geo
100
AcDbLine
 10
-32.64542195730641
 20
7.850863735262392
 30
0.0
 11
-32.54542195730641
 21
7.803543046910193
 31
0.0
  0
LINE
  5
F101D7
330
261
100
AcDbEntity
  8
Geo
100
AcDbLine
 10
-32.54542195730641
 20
7.803543046910193
 30
0.0
 11
-32.44542195730641
 21
7.753026861088794
 31
0.0
  0
LINE
  5
F101D9
330
261
100
AcDbEntity
  8
Geo
100
AcDbLine
 10
-32.44542195730641
 20
7.753026861088794
 30
0.0
 11
-32.34542195730641
 21
7.699925455138789
 31
0.0
  0
LINE
  5
F101DB
330
261
100
AcDbEntity
  8
Geo
100
AcDbLine
 10
-32.34542195730641
 20
7.699925455138789
 30
0.0
 11
-32.24542195730641
 21
7.644806937265193
 31
0.0
  0
LINE
  5
F101DD
330
261
100
AcDbEntity
  8
Geo
100
AcDbLine
 10
-32.24542195730641
 20
7.644806937265193
 30
0.0
 11
-32.1454219573064
 21
7.588208036511693
 31
0.0
  0
LINE
  5
F101DF
330
261
100
AcDbEntity
  8
Geo
100
AcDbLine
 10
-32.1454219573064
 20
7.588208036511693
 30
0.0
 11
-32.04542195730641
 21
7.530642297058989
 31
0.0
  0
LINE
  5
F101E1
330
261
100
AcDbEntity
  8
Geo
100
AcDbLine
 10
-32.04542195730641
 20
7.530642297058989
 30
0.0
 11
-31.94542195730643
 21
7.472606550011492
 31
0.0
  0
LINE
  5
F101E3
330
261
100
AcDbEntity
  8
Geo
100
AcDbLine
 10
-31.94542195730643
 20
7.472606550011492
 30
0.0
 11
-31.84542195730641
 21
7.414586253217589
 31
0.0
  0
LINE
  5
F101E5
330
261
100
AcDbEntity
  8
Geo
100
AcDbLine
 10
-31.84542195730641
 20
7.414586253217589
 30
0.0
 11
-31.74542195730641
 21
7.357060121979388
 31
0.0
  0
LINE
  5
F101E7
330
261
100
AcDbEntity
  8
Geo
100
AcDbLine
 10
-31.74542195730641
 20
7.357060121979388
 30
0.0
 11
-31.6454219573064
 21
7.300069021001789
 31
0.0
  0
LINE
  5
F101E9
330
261
100
AcDbEntity
  8
Geo
100
AcDbLine
 10
-31.6454219573064
 20
7.300069021001789
 30
0.0
 11
-31.54542195730641
 21
7.243367954964392
 31
0.0
  0
LINE
  5
F101EB
330
261
100
AcDbEntity
  8
Geo
100
AcDbLine
 10
-31.54542195730641
 20
7.243367954964392
 30
0.0
 11
-31.44542195730642
 21
7.187004171474491
 31
0.0
  0
LINE
  5
F101ED
330
261
100
AcDbEntity
  8
Geo
100
AcDbLine
 10
-31.44542195730642
 20
7.187004171474491
 30
0.0
 11
-31.34542195730641
 21
7.131024637089789
 31
0.0
  0
LINE
  5
F101EF
330
261
100
AcDbEntity
  8
Geo
100
AcDbLine
 10
-31.34542195730641
 20
7.131024637089789
 30
0.0
 11
-31.24542195730641
 21
7.075475998182891
 31
0.0
  0
LINE
  5
F101F1
330
261
100
AcDbEntity
  8
Geo
100
AcDbLine
 10
-31.24542195730641
 20
7.075475998182891
 30
0.0
 11
-31.14542195730641
 21
7.020404542071691
 31
0.0
  0
LINE
  5
F101F3
330
261
100
AcDbEntity
  8
Geo
100
AcDbLine
 10
-31.14542195730641
 20
7.020404542071691
 30
0.0
 11
-31.04542195730641
 21
6.965856158449393
 31
0.0
  0
LINE
  5
F101F5
330
261
100
AcDbEntity
  8
Geo
100
AcDbLine
 10
-31.04542195730641
 20
6.965856158449393
 30
0.0
 11
-30.94542195730642
 21
6.911876301145696
 31
0.0
  0
LINE
  5
F101F7
330
261
100
AcDbEntity
  8
Geo
100
AcDbLine
 10
-30.94542195730642
 20
6.911876301145696
 30
0.0
 11
-30.84542195730641
 21
6.858509950251196
 31
0.0
  0
LINE
  5
F101F9
330
261
100
AcDbEntity
  8
Geo
100
AcDbLine
 10
-30.84542195730641
 20
6.858509950251196
 30
0.0
 11
-30.74542195730642
 21
6.805801574636793
 31
0.0
  0
LINE
  5
F101FB
330
261
100
AcDbEntity
  8
Geo
100
AcDbLine
 10
-30.74542195730642
 20
6.805801574636793
 30
0.0
 11
-30.6454219573064
 21
6.753795094898694
 31
0.0
  0
LINE
  5
F101FD
330
261
100
AcDbEntity
  8
Geo
100
AcDbLine
 10
-30.6454219573064
 20
6.753795094898694
 30
0.0
 11
-30.54542195730641
 21
6.702533846760394
 31
0.0
  0
LINE
  5
F101FF
330
261
100
AcDbEntity
  8
Geo
100
AcDbLine
 10
-30.54542195730641
 20
6.702533846760394
 30
0.0
 11
-30.44542195730642
 21
6.652060544962289
 31
0.0
  0
LINE
  5
F10201
330
261
100
AcDbEntity
  8
Geo
100
AcDbLine
 10
-30.44542195730642
 20
6.652060544962289
 30
0.0
 11
-30.34542195730641
 21
6.602417247668292
 31
0.0
  0
LINE
  5
F10203
330
261
100
AcDbEntity
  8
Geo
100
AcDbLine
 10
-30.34542195730641
 20
6.602417247668292
 30
0.0
 11
-30.24542195730641
 21
6.553645321420193
 31
0.0
  0
LINE
  5
F10205
330
261
100
AcDbEntity
  8
Geo
100
AcDbLine
 10
-30.24542195730641
 20
6.553645321420193
 30
0.0
 11
-30.14542195730641
 21
6.505785406667392
 31
0.0
  0
LINE
  5
F10207
330
261
100
AcDbEntity
  8
Geo
100
AcDbLine
 10
-30.14542195730641
 20
6.505785406667392
 30
0.0
 11
-30.04542195730641
 21
6.458877383902487
 31
0.0
  0
LINE
  5
F10209
330
261
100
AcDbEntity
  8
Geo
100
AcDbLine
 10
-30.04542195730641
 20
6.458877383902487
 30
0.0
 11
-29.94542195730641
 21
6.412960340430196
 31
0.0
  0
LINE
  5
F1020B
330
261
100
AcDbEntity
  8
Geo
100
AcDbLine
 10
-29.94542195730641
 20
6.412960340430196
 30
0.0
 11
-29.84542195730641
 21
6.368072537795987
 31
0.0
  0
LINE
  5
F1020D
330
261
100
AcDbEntity
  8
Geo
100
AcDbLine
 10
-29.84542195730641
 20
6.368072537795987
 30
0.0
 11
-29.74542195730641
 21
6.32425137990459
 31
0.0
  0
LINE
  5
F1020F
330
261
100
AcDbEntity
  8
Geo
100
AcDbLine
 10
-29.74542195730641
 20
6.32425137990459
 30
0.0
 11
-29.6454219573064
 21
6.281533381851692
 31
0.0
  0
LINE
  5
F10211
330
261
100
AcDbEntity
  8
Geo
100
AcDbLine
 10
-29.6454219573064
 20
6.281533381851692
 30
0.0
 11
-29.54542195730641
 21
6.23995413949699
 31
0.0
  0
LINE
  5
F10213
330
261
100
AcDbEntity
  8
Geo
100
AcDbLine
 10
-29.54542195730641
 20
6.23995413949699
 30
0.0
 11
-29.44542195730642
 21
6.199548299802891
 31
0.0
  0
LINE
  5
F10215
330
261
100
AcDbEntity
  8
Geo
100
AcDbLine
 10
-29.44542195730642
 20
6.199548299802891
 30
0.0
 11
-29.34542195730641
 21
6.160349531964288
 31
0.0
  0
LINE
  5
F10217
330
261
100
AcDbEntity
  8
Geo
100
AcDbLine
 10
-29.34542195730641
 20
6.160349531964288
 30
0.0
 11
-29.24542195730641
 21
6.12239049935269
 31
0.0
  0
LINE
  5
F10219
330
261
100
AcDbEntity
  8
Geo
100
AcDbLine
 10
-29.24542195730641
 20
6.12239049935269
 30
0.0
 11
-29.14542195730641
 21
6.085702832298589
 31
0.0
  0
LINE
  5
F1021B
330
261
100
AcDbEntity
  8
Geo
100
AcDbLine
 10
-29.14542195730641
 20
6.085702832298589
 30
0.0
 11
-29.04542195730641
 21
6.050317101734893
 31
0.0
  0
LINE
  5
F1021D
330
261
100
AcDbEntity
  8
Geo
100
AcDbLine
 10
-29.04542195730641
 20
6.050317101734893
 30
0.0
 11
-28.94542195730642
 21
6.016262793722487
 31
0.0
  0
LINE
  5
F1021F
330
261
100
AcDbEntity
  8
Geo
100
AcDbLine
 10
-28.94542195730642
 20
6.016262793722487
 30
0.0
 11
-28.84542195730641
 21
5.983568284880792
 31
0.0
  0
LINE
  5
F10221
330
261
100
AcDbEntity
  8
Geo
100
AcDbLine
 10
-28.84542195730641
 20
5.983568284880792
 30
0.0
 11
-28.74542195730641
 21
5.952260818741891
 31
0.0
  0
LINE
  5
F10223
330
261
100
AcDbEntity
  8
Geo
100
AcDbLine
 10
-28.74542195730641
 20
5.952260818741891
 30
0.0
 11
-28.64542195730641
 21
5.922366483049194
 31
0.0
  0
LINE
  5
F10225
330
261
100
AcDbEntity
  8
Geo
100
AcDbLine
 10
-28.64542195730641
 20
5.922366483049194
 30
0.0
 11
-28.54542195730641
 21
5.89391018801909
 31
0.0
  0
LINE
  5
F10227
330
261
100
AcDbEntity
  8
Geo
100
AcDbLine
 10
-28.54542195730641
 20
5.89391018801909
 30
0.0
 11
-28.44542195730642
 21
5.86691564558399
 31
0.0
  0
LINE
  5
F10229
330
261
100
AcDbEntity
  8
Geo
100
AcDbLine
 10
-28.44542195730642
 20
5.86691564558399
 30
0.0
 11
-28.34542195730641
 21
5.841405349633991
 31
0.0
  0
LINE
  5
F1022B
330
261
100
AcDbEntity
  8
Geo
100
AcDbLine
 10
-28.34542195730641
 20
5.841405349633991
 30
0.0
 11
-28.24542195730641
 21
5.817400557272595
 31
0.0
  0
LINE
  5
F1022D
330
261
100
AcDbEntity
  8
Geo
100
AcDbLine
 10
-28.24542195730641
 20
5.817400557272595
 30
0.0
 11
-28.1454219573064
 21
5.794921271104392
 31
0.0
  0
LINE
  5
F1022F
330
261
100
AcDbEntity
  8
Geo
100
AcDbLine
 10
-28.1454219573064
 20
5.794921271104392
 30
0.0
 11
-28.04542195730641
 21
5.773986222566988
 31
0.0
  0
LINE
  5
F10231
330
261
100
AcDbEntity
  8
Geo
100
AcDbLine
 10
-28.04542195730641
 20
5.773986222566988
 30
0.0
 11
-27.94542195730642
 21
5.754612856322689
 31
0.0
  0
LINE
  5
F10233
330
261
100
AcDbEntity
  8
Geo
100
AcDbLine
 10
-27.94542195730642
 20
5.754612856322689
 30
0.0
 11
-27.84542195730641
 21
5.736817315722291
 31
0.0
  0
LINE
  5
F10235
330
261
100
AcDbEntity
  8
Geo
100
AcDbLine
 10
-27.84542195730641
 20
5.736817315722291
 30
0.0
 11
-27.74542195730641
 21
5.72061442935309
 31
0.0
  0
LINE
  5
F10237
330
261
100
AcDbEntity
  8
Geo
100
AcDbLine
 10
-27.74542195730641
 20
5.72061442935309
 30
0.0
 11
-27.64542195730641
 21
5.706017698682793
 31
0.0
  0
LINE
  5
F10239
330
261
100
AcDbEntity
  8
Geo
100
AcDbLine
 10
-27.64542195730641
 20
5.706017698682793
 30
0.0
 11
-27.54542195730641
 21
5.693039286808987
 31
0.0
  0
LINE
  5
F1023B
330
261
100
AcDbEntity
  8
Geo
100
AcDbLine
 10
-27.54542195730641
 20
5.693039286808987
 30
0.0
 11
-27.44542195730641
 21
5.681690008323696
 31
0.0
  0
LINE
  5
F1023D
330
261
100
AcDbEntity
  8
Geo
100
AcDbLine
 10
-27.44542195730641
 20
5.681690008323696
 30
0.0
 11
-27.34542195730641
 21
5.671979320302294
 31
0.0
  0
LINE
  5
F1023F
330
261
100
AcDbEntity
  8
Geo
100
AcDbLine
 10
-27.34542195730641
 20
5.671979320302294
 30
0.0
 11
-27.24542195730641
 21
5.66391531442299
 31
0.0
  0
LINE
  5
F10241
330
261
100
AcDbEntity
  8
Geo
100
AcDbLine
 10
-27.24542195730641
 20
5.66391531442299
 30
0.0
 11
-27.1454219573064
 21
5.65750471022379
 31
0.0
  0
LINE
  5
F10243
330
261
100
AcDbEntity
  8
Geo
100
AcDbLine
 10
-27.1454219573064
 20
5.65750471022379
 30
0.0
 11
-27.04542195730641
 21
5.652752849504093
 31
0.0
  0
LINE
  5
F10245
330
261
100
AcDbEntity
  8
Geo
100
AcDbLine
 10
-27.04542195730641
 20
5.652752849504093
 30
0.0
 11
-26.94542195730643
 21
5.649663691872697
 31
0.0
  0
LINE
  5
F10247
330
261
100
AcDbEntity
  8
Geo
100
AcDbLine
 10
-26.94542195730643
 20
5.649663691872697
 30
0.0
 11
-26.84542195730641
 21
5.64823981144899
 31
0.0
  0
LINE
  5
F10249
330
261
100
AcDbEntity
  8
Geo
100
AcDbLine
 10
-33.74542195730641
 20
7.648135119909196
 30
0.0
 11
-33.64542195730641
 21
8.029250542511093
 31
0.0
  0
LINE
  5
F1024B
330
261
100
AcDbEntity
  8
Geo
100
AcDbLine
 10
-33.64542195730641
 20
8.029250542511093
 30
0.0
 11
-33.54542195730641
 21
8.160279755970591
 31
0.0
  0
LINE
  5
F1024D
330
261
100
AcDbEntity
  8
Geo
100
AcDbLine
 10
-33.54542195730641
 20
8.160279755970591
 30
0.0
 11
-33.44542195730642
 21
8.242533274116791
 31
0.0
  0
LINE
  5
F1024F
330
261
100
AcDbEntity
  8
Geo
100
AcDbLine
 10
-33.44542195730642
 20
8.242533274116791
 30
0.0
 11
-33.34542195730641
 21
8.296633381890989
 31
0.0
  0
LINE
  5
F10251
330
261
100
AcDbEntity
  8
Geo
100
AcDbLine
 10
-33.34542195730641
 20
8.296633381890989
 30
0.0
 11
-33.24542195730643
 21
8.331006656826092
 31
0.0
  0
LINE
  5
F10253
330
261
100
AcDbEntity
  8
Geo
100
AcDbLine
 10
-33.24542195730643
 20
8.331006656826092
 30
0.0
 11
-33.1454219573064
 21
8.350222324978391
 31
0.0
  0
LINE
  5
F10255
330
261
100
AcDbEntity
  8
Geo
100
AcDbLine
 10
-33.1454219573064
 20
8.350222324978391
 30
0.0
 11
-33.04542195730641
 21
8.357164017557696
 31
0.0
  0
LINE
  5
F10257
330
261
100
AcDbEntity
  8
Geo
100
AcDbLine
 10
-33.04542195730641
 20
8.357164017557696
 30
0.0
 11
-32.94542195730642
 21
8.353839817622191
 31
0.0
  0
LINE
  5
F10259
330
261
100
AcDbEntity
  8
Geo
100
AcDbLine
 10
-32.94542195730642
 20
8.353839817622191
 30
0.0
 11
-32.84542195730641
 21
8.341750353088388
 31
0.0
  0
LINE
  5
F1025B
330
261
100
AcDbEntity
  8
Geo
100
AcDbLine
 10
-32.84542195730641
 20
8.341750353088388
 30
0.0
 11
-32.74542195730641
 21
8.322079028623392
 31
0.0
  0
LINE
  5
F1025D
330
261
100
AcDbEntity
  8
Geo
100
AcDbLine
 10
-32.74542195730641
 20
8.322079028623392
 30
0.0
 11
-32.64542195730641
 21
8.295799769971093
 31
0.0
  0
LINE
  5
F1025F
330
261
100
AcDbEntity
  8
Geo
100
AcDbLine
 10
-32.64542195730641
 20
8.295799769971093
 30
0.0
 11
-32.54542195730641
 21
8.263742414761487
 31
0.0
  0
LINE
  5
F10261
330
261
100
AcDbEntity
  8
Geo
100
AcDbLine
 10
-32.54542195730641
 20
8.263742414761487
 30
0.0
 11
-32.44542195730641
 21
8.226634620413392
 31
0.0
  0
LINE
  5
F10263
330
261
100
AcDbEntity
  8
Geo
100
AcDbLine
 10
-32.44542195730641
 20
8.226634620413392
 30
0.0
 11
-32.34542195730641
 21
8.185129948786489
 31
0.0
  0
LINE
  5
F10265
330
261
100
AcDbEntity
  8
Geo
100
AcDbLine
 10
-32.34542195730641
 20
8.185129948786489
 30
0.0
 11
-32.24542195730641
 21
8.139827418812391
 31
0.0
  0
LINE
  5
F10267
330
261
100
AcDbEntity
  8
Geo
100
AcDbLine
 10
-32.24542195730641
 20
8.139827418812391
 30
0.0
 11
-32.1454219573064
 21
8.091285592287491
 31
0.0
  0
LINE
  5
F10269
330
261
100
AcDbEntity
  8
Geo
100
AcDbLine
 10
-32.1454219573064
 20
8.091285592287491
 30
0.0
 11
-32.04542195730641
 21
8.040033055915291
 31
0.0
  0
LINE
  5
F1026B
330
261
100
AcDbEntity
  8
Geo
100
AcDbLine
 10
-32.04542195730641
 20
8.040033055915291
 30
0.0
 11
-31.94542195730643
 21
7.986576482388392
 31
0.0
  0
LINE
  5
F1026D
330
261
100
AcDbEntity
  8
Geo
100
AcDbLine
 10
-31.94542195730643
 20
7.986576482388392
 30
0.0
 11
-31.84542195730641
 21
7.93140705396329
 31
0.0
  0
LINE
  5
F1026F
330
261
100
AcDbEntity
  8
Geo
100
AcDbLine
 10
-31.84542195730641
 20
7.93140705396329
 30
0.0
 11
-31.74542195730641
 21
7.875005791761491
 31
0.0
  0
LINE
  5
F10271
330
261
100
AcDbEntity
  8
Geo
100
AcDbLine
 10
-31.74542195730641
 20
7.875005791761491
 30
0.0
 11
-31.6454219573064
 21
7.818060728572891
 31
0.0
  0
LINE
  5
F10273
330
261
100
AcDbEntity
  8
Geo
100
AcDbLine
 10
-31.6454219573064
 20
7.818060728572891
 30
0.0
 11
-31.54542195730641
 21
7.760974070543691
 31
0.0
  0
LINE
  5
F10275
330
261
100
AcDbEntity
  8
Geo
100
AcDbLine
 10
-31.54542195730641
 20
7.760974070543691
 30
0.0
 11
-31.44542195730642
 21
7.70379338658549
 31
0.0
  0
LINE
  5
F10277
330
261
100
AcDbEntity
  8
Geo
100
AcDbLine
 10
-31.44542195730642
 20
7.70379338658549
 30
0.0
 11
-31.34542195730641
 21
7.646566323959291
 31
0.0
  0
LINE
  5
F10279
330
261
100
AcDbEntity
  8
Geo
100
AcDbLine
 10
-31.34542195730641
 20
7.646566323959291
 30
0.0
 11
-31.24542195730641
 21
7.589340568572288
 31
0.0
  0
LINE
  5
F1027B
330
261
100
AcDbEntity
  8
Geo
100
AcDbLine
 10
-31.24542195730641
 20
7.589340568572288
 30
0.0
 11
-31.14542195730641
 21
7.532163805242393
 31
0.0
  0
LINE
  5
F1027D
330
261
100
AcDbEntity
  8
Geo
100
AcDbLine
 10
-31.14542195730641
 20
7.532163805242393
 30
0.0
 11
-31.04542195730641
 21
7.475083677963487
 31
0.0
  0
LINE
  5
F1027F
330
261
100
AcDbEntity
  8
Geo
100
AcDbLine
 10
-31.04542195730641
 20
7.475083677963487
 30
0.0
 11
-30.94542195730642
 21
7.418147750205393
 31
0.0
  0
LINE
  5
F10281
330
261
100
AcDbEntity
  8
Geo
100
AcDbLine
 10
-30.94542195730642
 20
7.418147750205393
 30
0.0
 11
-30.84542195730641
 21
7.36140346527959
 31
0.0
  0
LINE
  5
F10283
330
261
100
AcDbEntity
  8
Geo
100
AcDbLine
 10
-30.84542195730641
 20
7.36140346527959
 30
0.0
 11
-30.74542195730642
 21
7.30489810680649
 31
0.0
  0
LINE
  5
F10285
330
261
100
AcDbEntity
  8
Geo
100
AcDbLine
 10
-30.74542195730642
 20
7.30489810680649
 30
0.0
 11
-30.6454219573064
 21
7.24867875931489
 31
0.0
  0
LINE
  5
F10287
330
261
100
AcDbEntity
  8
Geo
100
AcDbLine
 10
-30.6454219573064
 20
7.24867875931489
 30
0.0
 11
-30.54542195730641
 21
7.192792269007789
 31
0.0
  0
LINE
  5
F10289
330
261
100
AcDbEntity
  8
Geo
100
AcDbLine
 10
-30.54542195730641
 20
7.192792269007789
 30
0.0
 11
-30.44542195730642
 21
7.137285204726293
 31
0.0
  0
LINE
  5
F1028B
330
261
100
AcDbEntity
  8
Geo
100
AcDbLine
 10
-30.44542195730642
 20
7.137285204726293
 30
0.0
 11
-30.34542195730641
 21
7.08220381914529
 31
0.0
  0
LINE
  5
F1028D
330
261
100
AcDbEntity
  8
Geo
100
AcDbLine
 10
-30.34542195730641
 20
7.08220381914529
 30
0.0
 11
-30.24542195730641
 21
7.027594010231691
 31
0.0
  0
LINE
  5
F1028F
330
261
100
AcDbEntity
  8
Geo
100
AcDbLine
 10
-30.24542195730641
 20
7.027594010231691
 30
0.0
 11
-30.14542195730641
 21
6.973501282999695
 31
0.0
  0
LINE
  5
F10291
330
261
100
AcDbEntity
  8
Geo
100
AcDbLine
 10
-30.14542195730641
 20
6.973501282999695
 30
0.0
 11
-30.04542195730641
 21
6.919970711591488
 31
0.0
  0
LINE
  5
F10293
330
261
100
AcDbEntity
  8
Geo
100
AcDbLine
 10
-30.04542195730641
 20
6.919970711591488
 30
0.0
 11
-29.94542195730641
 21
6.867046901718888
 31
0.0
  0
LINE
  5
F10295
330
261
100
AcDbEntity
  8
Geo
100
AcDbLine
 10
-29.94542195730641
 20
6.867046901718888
 30
0.0
 11
-29.84542195730641
 21
6.814773953494192
 31
0.0
  0
LINE
  5
F10297
330
261
100
AcDbEntity
  8
Geo
100
AcDbLine
 10
-29.84542195730641
 20
6.814773953494192
 30
0.0
 11
-29.74542195730641
 21
6.763195424682593
 31
0.0
  0
LINE
  5
F10299
330
261
100
AcDbEntity
  8
Geo
100
AcDbLine
 10
-29.74542195730641
 20
6.763195424682593
 30
0.0
 11
-29.6454219573064
 21
6.712354294406693
 31
0.0
  0
LINE
  5
F1029B
330
261
100
AcDbEntity
  8
Geo
100
AcDbLine
 10
-29.6454219573064
 20
6.712354294406693
 30
0.0
 11
-29.54542195730641
 21
6.662292927332789
 31
0.0
  0
LINE
  5
F1029D
330
261
100
AcDbEntity
  8
Geo
100
AcDbLine
 10
-29.54542195730641
 20
6.662292927332789
 30
0.0
 11
-29.44542195730642
 21
6.61305303836999
 31
0.0
  0
LINE
  5
F1029F
330
261
100
AcDbEntity
  8
Geo
100
AcDbLine
 10
-29.44542195730642
 20
6.61305303836999
 30
0.0
 11
-29.34542195730641
 21
6.564675657909591
 31
0.0
  0
LINE
  5
F102A1
330
261
100
AcDbEntity
  8
Geo
100
AcDbLine
 10
-29.34542195730641
 20
6.564675657909591
 30
0.0
 11
-29.24542195730641
 21
6.517201097635691
 31
0.0
  0
LINE
  5
F102A3
330
261
100
AcDbEntity
  8
Geo
100
AcDbLine
 10
-29.24542195730641
 20
6.517201097635691
 30
0.0
 11
-29.14542195730641
 21
6.470668916934492
 31
0.0
  0
LINE
  5
F102A5
330
261
100
AcDbEntity
  8
Geo
100
AcDbLine
 10
-29.14542195730641
 20
6.470668916934492
 30
0.0
 11
-29.04542195730641
 21
6.425117889930692
 31
0.0
  0
LINE
  5
F102A7
330
261
100
AcDbEntity
  8
Geo
100
AcDbLine
 10
-29.04542195730641
 20
6.425117889930692
 30
0.0
 11
-28.94542195730642
 21
6.380585973177392
 31
0.0
  0
LINE
  5
F102A9
330
261
100
AcDbEntity
  8
Geo
100
AcDbLine
 10
-28.94542195730642
 20
6.380585973177392
 30
0.0
 11
-28.84542195730641
 21
6.337110274028193
 31
0.0
  0
LINE
  5
F102AB
330
261
100
AcDbEntity
  8
Geo
100
AcDbLine
 10
-28.84542195730641
 20
6.337110274028193
 30
0.0
 11
-28.74542195730641
 21
6.294727019716487
 31
0.0
  0
LINE
  5
F102AD
330
261
100
AcDbEntity
  8
Geo
100
AcDbLine
 10
-28.74542195730641
 20
6.294727019716487
 30
0.0
 11
-28.64542195730641
 21
6.25347152716829
 31
0.0
  0
LINE
  5
F102AF
330
261
100
AcDbEntity
  8
Geo
100
AcDbLine
 10
-28.64542195730641
 20
6.25347152716829
 30
0.0
 11
-28.54542195730641
 21
6.21337817357319
 31
0.0
  0
LINE
  5
F102B1
330
261
100
AcDbEntity
  8
Geo
100
AcDbLine
 10
-28.54542195730641
 20
6.21337817357319
 30
0.0
 11
-28.44542195730642
 21
6.174480367739093
 31
0.0
  0
LINE
  5
F102B3
330
261
100
AcDbEntity
  8
Geo
100
AcDbLine
 10
-28.44542195730642
 20
6.174480367739093
 30
0.0
 11
-28.34542195730641
 21
6.136810522253192
 31
0.0
  0
LINE
  5
F102B5
330
261
100
AcDbEntity
  8
Geo
100
AcDbLine
 10
-28.34542195730641
 20
6.136810522253192
 30
0.0
 11
-28.24542195730641
 21
6.10040002647359
 31
0.0
  0
LINE
  5
F102B7
330
261
100
AcDbEntity
  8
Geo
100
AcDbLine
 10
-28.24542195730641
 20
6.10040002647359
 30
0.0
 11
-28.1454219573064
 21
6.065279220372987
 31
0.0
  0
LINE
  5
F102B9
330
261
100
AcDbEntity
  8
Geo
100
AcDbLine
 10
-28.1454219573064
 20
6.065279220372987
 30
0.0
 11
-28.04542195730641
 21
6.031477369257391
 31
0.0
  0
LINE
  5
F102BB
330
261
100
AcDbEntity
  8
Geo
100
AcDbLine
 10
-28.04542195730641
 20
6.031477369257391
 30
0.0
 11
-27.94542195730642
 21
5.99902263938009
 31
0.0
  0
LINE
  5
F102BD
330
261
100
AcDbEntity
  8
Geo
100
AcDbLine
 10
-27.94542195730642
 20
5.99902263938009
 30
0.0
 11
-27.84542195730641
 21
5.967942074471088
 31
0.0
  0
LINE
  5
F102BF
330
261
100
AcDbEntity
  8
Geo
100
AcDbLine
 10
-27.84542195730641
 20
5.967942074471088
 30
0.0
 11
-27.74542195730641
 21
5.938261573202487
 31
0.0
  0
LINE
  5
F102C1
330
261
100
AcDbEntity
  8
Geo
100
AcDbLine
 10
-27.74542195730641
 20
5.938261573202487
 30
0.0
 11
-27.64542195730641
 21
5.910005867607991
 31
0.0
  0
LINE
  5
F102C3
330
261
100
AcDbEntity
  8
Geo
100
AcDbLine
 10
-27.64542195730641
 20
5.910005867607991
 30
0.0
 11
-27.54542195730641
 21
5.883198502473696
 31
0.0
  0
LINE
  5
F102C5
330
261
100
AcDbEntity
  8
Geo
100
AcDbLine
 10
-27.54542195730641
 20
5.883198502473696
 30
0.0
 11
-27.44542195730641
 21
5.857861815719192
 31
0.0
  0
LINE
  5
F102C7
330
261
100
AcDbEntity
  8
Geo
100
AcDbLine
 10
-27.44542195730641
 20
5.857861815719192
 30
0.0
 11
-27.34542195730641
 21
5.834016919783991
 31
0.0
  0
LINE
  5
F102C9
330
261
100
AcDbEntity
  8
Geo
100
AcDbLine
 10
-27.34542195730641
 20
5.834016919783991
 30
0.0
 11
-27.24542195730641
 21
5.811683684034693
 31
0.0
  0
LINE
  5
F102CB
330
261
100
AcDbEntity
  8
Geo
100
AcDbLine
 10
-27.24542195730641
 20
5.811683684034693
 30
0.0
 11
-27.1454219573064
 21
5.790880718208891
 31
0.0
  0
LINE
  5
F102CD
330
261
100
AcDbEntity
  8
Geo
100
AcDbLine
 10
-27.1454219573064
 20
5.790880718208891
 30
0.0
 11
-27.04542195730641
 21
5.771625356907392
 31
0.0
  0
LINE
  5
F102CF
330
261
100
AcDbEntity
  8
Geo
100
AcDbLine
 10
-27.04542195730641
 20
5.771625356907392
 30
0.0
 11
-26.94542195730643
 21
5.753933645150492
 31
0.0
  0
LINE
  5
F102D1
330
261
100
AcDbEntity
  8
Geo
100
AcDbLine
 10
-26.94542195730643
 20
5.753933645150492
 30
0.0
 11
-26.84542195730641
 21
5.737820325007489
 31
0.0
  0
LINE
  5
F102D3
330
261
100
AcDbEntity
  8
Geo
100
AcDbLine
 10
-26.84542195730641
 20
5.737820325007489
 30
0.0
 11
-26.74542195730641
 21
5.723298823312588
 31
0.0
  0
LINE
  5
F102D5
330
261
100
AcDbEntity
  8
Geo
100
AcDbLine
 10
-26.74542195730641
 20
5.723298823312588
 30
0.0
 11
-26.6454219573064
 21
5.710381240477093
 31
0.0
  0
LINE
  5
F102D7
330
261
100
AcDbEntity
  8
Geo
100
AcDbLine
 10
-26.6454219573064
 20
5.710381240477093
 30
0.0
 11
-26.54542195730641
 21
5.69907834040559
 31
0.0
  0
LINE
  5
F102D9
330
261
100
AcDbEntity
  8
Geo
100
AcDbLine
 10
-26.54542195730641
 20
5.69907834040559
 30
0.0
 11
-26.44542195730642
 21
5.689399541527488
 31
0.0
  0
LINE
  5
F102DB
330
261
100
AcDbEntity
  8
Geo
100
AcDbLine
 10
-26.44542195730642
 20
5.689399541527488
 30
0.0
 11
-26.34542195730641
 21
5.68135290894849
 31
0.0
  0
LINE
  5
F102DD
330
261
100
AcDbEntity
  8
Geo
100
AcDbLine
 10
-26.34542195730641
 20
5.68135290894849
 30
0.0
 11
-26.24542195730641
 21
5.674945147730093
 31
0.0
  0
LINE
  5
F102DF
330
261
100
AcDbEntity
  8
Geo
100
AcDbLine
 10
-26.24542195730641
 20
5.674945147730093
 30
0.0
 11
-26.14542195730641
 21
5.670181597302391
 31
0.0
  0
LINE
  5
F102E1
330
261
100
AcDbEntity
  8
Geo
100
AcDbLine
 10
-26.14542195730641
 20
5.670181597302391
 30
0.0
 11
-26.04542195730641
 21
5.667066227015091
 31
0.0
  0
LINE
  5
F102E3
330
261
100
AcDbEntity
  8
Geo
100
AcDbLine
 10
-26.04542195730641
 20
5.667066227015091
 30
0.0
 11
-25.94542195730642
 21
5.665601632829893
 31
0.0
  0
LINE
  5
F102E5
330
261
100
AcDbEntity
  8
Geo
100
AcDbLine
 10
-25.84542195730641
 20
9.630481204661192
 30
0.0
 11
-25.74542195730642
 21
9.628641961979193
 31
0.0
  0
LINE
  5
F102E7
330
261
100
AcDbEntity
  8
Geo
100
AcDbLine
 10
-25.74542195730642
 20
9.628641961979193
 30
0.0
 11
-25.74542195730642
 21
9.645945895876891
 31
0.0
  0
LINE
  5
F102E9
330
261
100
AcDbEntity
  8
Geo
100
AcDbLine
 10
-25.74542195730642
 20
9.628641961979193
 30
0.0
 11
-25.74542195730642
 21
9.554436149392193
 31
0.0
  0
LINE
  5
F102EB
330
261
100
AcDbEntity
  8
Geo
100
AcDbLine
 10
-33.74542195730641
 20
7.648135119909196
 30
0.0
 11
-33.74542195730641
 21
7.648135119909196
 31
0.0
  0
LINE
  5
F102ED
330
261
100
AcDbEntity
  8
Geo
100
AcDbLine
 10
-33.74542195730641
 20
7.648135119909196
 30
0.0
 11
-33.74542195730641
 21
7.648135119909196
 31
0.0
  0
LINE
  5
F102EF
330
261
100
AcDbEntity
  8
Geo
100
AcDbLine
 10
23.25457804269359
 20
10.14813511990919
 30
0.0
 11
23.25457804269359
 21
7.648135119909196
 31
0.0
  0
ARC
  5
F102F1
330
261
100
AcDbEntity
  8
Geo
100
AcDbCircle
 10
-31.74542195730641
 20
7.648135119909196
 30
0.0
 40
2.0
100
AcDbArc
 50
180.0
 51
270.0
  0
LINE
  5
F102F3
330
261
100
AcDbEntity
  8
Geo
100
AcDbLine
 10
-31.74542195730641
 20
5.648135119909196
 30
0.0
 11
-21.74542195730641
 21
5.648135119909196
 31
0.0
  0
LINE
  5
F102F5
330
261
100
AcDbEntity
  8
Geo
100
AcDbLine
 10
-21.74542195730641
 20
5.648135119909196
 30
0.0
 11
-18.0133711497375
 21
4.648135119909195
 31
0.0
  0
LINE
  5
F102F7
330
261
100
AcDbEntity
  8
Geo
100
AcDbLine
 10
-18.0133711497375
 20
4.648135119909195
 30
0.0
 11
-12.74542195730641
 21
4.648135119909195
 31
0.0
  0
LINE
  5
F102F9
330
261
100
AcDbEntity
  8
Geo
100
AcDbLine
 10
-12.74542195730641
 20
4.648135119909195
 30
0.0
 11
22.75457804269359
 21
4.648135119909195
 31
0.0
  0
LINE
  5
F102FB
330
261
100
AcDbEntity
  8
Geo
100
AcDbLine
 10
22.75457804269359
 20
4.648135119909195
 30
0.0
 11
23.25457804269359
 21
5.148135119909195
 31
0.0
  0
LINE
  5
F102FD
330
261
100
AcDbEntity
  8
Geo
100
AcDbLine
 10
-31.74542195730641
 20
9.648135119909195
 30
0.0
 11
-31.74542195730641
 21
5.648135119909196
 31
0.0
  0
LINE
  5
F102FF
330
261
100
AcDbEntity
  8
Geo
100
AcDbLine
 10
-21.74542195730641
 20
9.648135119909195
 30
0.0
 11
-21.74542195730641
 21
5.648135119909196
 31
0.0
  0
LINE
  5
F10301
330
261
100
AcDbEntity
  8
Geo
100
AcDbLine
 10
-18.0133711497375
 20
10.64813511990919
 30
0.0
 11
-18.0133711497375
 21
4.648135119909195
 31
0.0
  0
LINE
  5
F10303
330
261
100
AcDbEntity
  8
Geo
100
AcDbLine
 10
-12.74542195730641
 20
10.64813511990919
 30
0.0
 11
-12.74542195730641
 21
4.648135119909195
 31
0.0
  0
LINE
  5
F10305
330
261
100
AcDbEntity
  8
Geo
100
AcDbLine
 10
22.75457804269359
 20
10.64813511990919
 30
0.0
 11
22.75457804269359
 21
4.648135119909195
 31
0.0
  0
LINE
  5
F10307
330
261
100
AcDbEntity
  8
Geo
100
AcDbLine
 10
23.25457804269359
 20
10.14813511990919
 30
0.0
 11
23.25457804269359
 21
5.148135119909195
 31
0.0
  0
LWPOLYLINE
  5
F10371
330
261
100
AcDbEntity
  8
Rahmen
100
AcDbPolyline
 90
        4
 70
     1
 43
0.0
 10
-134.524070021882
 20
99.945295404814
 10
143.484682713348
 20
99.945295404814
 10
143.484682713348
 20
-100.175054704595
 10
-134.524070021882
 20
-100.175054704595
  0
TEXT
  5
F10373
330
261
100
AcDbEntity
  8
Text
100
AcDbText
 10
-133.6050328227569
 20
-99.67505470459521
 30
0.0
 40
1.0
  1
ISBESketcher
100
AcDbText
  0
LWPOLYLINE
  5
F10375
330
261
100
AcDbEntity
  8
Rahmen
100
AcDbPolyline
 90
        4
 70
     1
 43
0.0
 10
103.276805251641
 20
-97.1881838074398
 10
143.484682713348
 20
-97.1881838074398
 10
143.484682713348
 20
-100.175054704595
 10
103.276805251641
 20
-100.175054704595
  0
TEXT
  5
F10377
330
261
100
AcDbEntity
  8
Text
100
AcDbText
 10
104.425601750547
 20
-98.1881838074398
 30
0.0
 40
0.75
  1
Ers. durch:
100
AcDbText
  0
LWPOLYLINE
  5
F1037B
330
261
100
AcDbEntity
  8
Rahmen
100
AcDbPolyline
 90
        4
 70
     1
 43
0.0
 10
63.2986870897155
 20
-97.1881838074398
 10
103.276805251641
 20
-97.1881838074398
 10
103.276805251641
 20
-100.175054704595
 10
63.2986870897155
 20
-100.175054704595
  0
TEXT
  5
F1037D
330
261
100
AcDbEntity
  8
Text
100
AcDbText
 10
64.44748358862138
 20
-98.1881838074398
 30
0.0
 40
0.75
  1
Ers. für:
100
AcDbText
  0
TEXT
  5
F1037F
330
261
100
AcDbEntity
  8
Text
100
AcDbText
 10
91.32932166301969
 20
-99.5667396061269
 30
0.0
 40
0.75
  1

100
AcDbText
  0
LWPOLYLINE
  5
F10381
330
261
100
AcDbEntity
  8
Rahmen
100
AcDbPolyline
 90
        4
 70
     1
 43
0.0
 10
130.158643326039
 20
-94.2013129102845
 10
143.484682713348
 20
-94.2013129102845
 10
143.484682713348
 20
-97.1881838074398
 10
130.158643326039
 20
-97.1881838074398
  0
TEXT
  5
F10383
330
261
100
AcDbEntity
  8
Text
100
AcDbText
 10
131.077680525164
 20
-95.2013129102845
 30
0.0
 40
0.75
  1
Blätter
100
AcDbText
  0
TEXT
  5
F10385
330
261
100
AcDbEntity
  8
Text
100
AcDbText
 10
141.187089715536
 20
-96.57986870897161
 30
0.0
 40
0.75
  1

100
AcDbText
  0
LWPOLYLINE
  5
F10387
330
261
100
AcDbEntity
  8
Rahmen
100
AcDbPolyline
 90
        4
 70
     1
 43
0.0
 10
130.158643326039
 20
-91.21444201312909
 10
143.484682713348
 20
-91.21444201312909
 10
143.484682713348
 20
-94.2013129102845
 10
130.158643326039
 20
-94.2013129102845
  0
TEXT
  5
F10389
330
261
100
AcDbEntity
  8
Text
100
AcDbText
 10
131.077680525164
 20
-92.21444201312911
 30
0.0
 40
0.75
  1
Blatt
100
AcDbText
  0
TEXT
  5
F1038B
330
261
100
AcDbEntity
  8
Text
100
AcDbText
 10
141.187089715536
 20
-93.59299781181618
 30
0.0
 40
0.75
  1

100
AcDbText
  0
LWPOLYLINE
  5
F1038D
330
261
100
AcDbEntity
  8
Rahmen
100
AcDbPolyline
 90
        4
 70
     1
 43
0.0
 10
63.2986870897155
 20
-91.21444201312909
 10
130.158643326039
 20
-91.21444201312909
 10
130.158643326039
 20
-97.1881838074398
 10
63.2986870897155
 20
-97.1881838074398
  0
TEXT
  5
F1038F
330
261
100
AcDbEntity
  8
Text
100
AcDbText
 10
64.44748358862138
 20
-92.21444201312911
 30
0.0
 40
0.75
  1
Datum:
100
AcDbText
  0
TEXT
  5
F10391
330
261
100
AcDbEntity
  8
Text
100
AcDbText
 10
90.410284463895
 20
-95.2013129102845
 30
0.0
 40
0.75
  1
14.08.2014
100
AcDbText
  0
LWPOLYLINE
  5
F10393
330
261
100
AcDbEntity
  8
Rahmen
100
AcDbPolyline
 90
        4
 70
     1
 43
0.0
 10
63.2986870897155
 20
-85.0109409190372
 10
143.484682713348
 20
-85.0109409190372
 10
143.484682713348
 20
-91.21444201312909
 10
63.2986870897155
 20
-91.21444201312909
  0
TEXT
  5
F10395
330
261
100
AcDbEntity
  8
Text
100
AcDbText
 10
-200.924507658643
 20
103.0
 30
0.0
 40
1.5
  1

100
AcDbText
  0
TEXT
  5
F10397
330
261
100
AcDbEntity
  8
Text
100
AcDbText
 10
78.0032822757112
 20
-88.8037928519329
 30
0.0
 40
2.5
  1
4135-040
100
AcDbText
  0
LWPOLYLINE
  5
F10399
330
261
100
AcDbEntity
  8
Rahmen
100
AcDbPolyline
 90
        4
 70
     1
 43
0.0
 10
103.276805251641
 20
-79.0371991247265
 10
143.484682713348
 20
-79.0371991247265
 10
143.484682713348
 20
-85.0109409190372
 10
103.276805251641
 20
-85.0109409190372
  0
TEXT
  5
F1039B
330
261
100
AcDbEntity
  8
Text
100
AcDbText
 10
104.425601750547
 20
-80.0371991247265
 30
0.0
 40
0.75
  1
Zu bearb. Material:
100
AcDbText
  0
TEXT
  5
F1039D
330
261
100
AcDbEntity
  8
Text
100
AcDbText
 10
123.265864332604
 20
-84.4026258205689
 30
0.0
 40
0.75
  1

100
AcDbText
  0
LWPOLYLINE
  5
F1039F
330
261
100
AcDbEntity
  8
Rahmen
100
AcDbPolyline
 90
        4
 70
     1
 43
0.0
 10
63.2986870897155
 20
-79.0371991247265
 10
103.276805251641
 20
-79.0371991247265
 10
103.276805251641
 20
-85.0109409190372
 10
63.2986870897155
 20
-85.0109409190372
  0
TEXT
  5
F103A1
330
261
100
AcDbEntity
  8
Text
100
AcDbText
 10
64.44748358862138
 20
-80.0371991247265
 30
0.0
 40
0.75
  1
Werkstoff:
100
AcDbText
  0
TEXT
  5
F103A3
330
261
100
AcDbEntity
  8
Text
100
AcDbText
 10
83.28774617067841
 20
-84.4026258205689
 30
0.0
 40
0.75
  1

100
AcDbText
  0
LWPOLYLINE
  5
F103A5
330
261
100
AcDbEntity
  8
Rahmen
100
AcDbPolyline
 90
        4
 70
     1
 43
0.0
 10
103.276805251641
 20
-76.0503282275711
 10
143.484682713348
 20
-76.0503282275711
 10
143.484682713348
 20
-79.0371991247265
 10
103.276805251641
 20
-79.0371991247265
  0
TEXT
  5
F103A7
330
261
100
AcDbEntity
  8
Text
100
AcDbText
 10
-200.924507658643
 20
103.0
 30
0.0
 40
1.5
  1

100
AcDbText
  0
TEXT
  5
F103A9
330
261
100
AcDbEntity
  8
Text
100
AcDbText
 10
123.265864332604
 20
-78.4288840262582
 30
0.0
 40
0.75
  1

100
AcDbText
  0
LWPOLYLINE
  5
F103AB
330
261
100
AcDbEntity
  8
Rahmen
100
AcDbPolyline
 90
        4
 70
     1
 43
0.0
 10
63.2986870897155
 20
-76.0503282275711
 10
103.276805251641
 20
-76.0503282275711
 10
103.276805251641
 20
-79.0371991247265
 10
63.2986870897155
 20
-79.0371991247265
  0
TEXT
  5
F103AD
330
261
100
AcDbEntity
  8
Text
100
AcDbText
 10
64.44748358862138
 20
-77.0503282275711
 30
0.0
 40
0.75
  1
Maßstab:
100
AcDbText
  0
TEXT
  5
F103AF
330
261
100
AcDbEntity
  8
Text
100
AcDbText
 10
88.80196936542672
 20
-77.0503282275711
 30
0.0
 40
0.75
  1
1 : 1
100
AcDbText
  0
DIMENSION
  5
F104F7
330
261
100
AcDbEntity
  8
0
100
AcDbDimension
  2
*D12
 10
-18.0133711497375
 20
10.64813511990919
 30
0.0
 11
-3.518142702495755
 21
17.1471217224818
 31
0.0
 70
   162
 71
     5
 42
0.2617993877991482
  3
BEM-ISBE
100
AcDb2LineAngularDimension
 13
-12.74542195730641
 23
10.64813511990919
 33
0.0
 14
22.75457804269359
 24
10.64813511990919
 34
0.0
 15
-21.74542195730641
 25
9.648135119909195
 35
0.0
 16
-2.18834020437752
 26
12.03264592757512
 36
0.0
1001
ACAD
1000
DSTYLE
1002
{
1070
   179
1070
     0
1070
    71
1070
     0
1070
   171
1070
     2
1070
   172
1070
     0
1070
   271
1070
     0
1070
   274
1070
     2
1002
}
  0
VIEWPORT
  5
294
102
{ACAD_XDICTIONARY
360
F107C4
102
}
330
25D
100
AcDbEntity
 67
     1
  8
0
 60
     1
100
AcDbViewport
 10
0.0
 20
0.0
 30
0.0
 40
10.0
 41
10.0
 68
    -1
 69
     1
 12
0.0
 22
0.0
 13
0.0
 23
0.0
 14
1.0
 24
1.0
 15
0.0
 25
0.0
 16
0.0
 26
0.0
 36
1.0
 17
0.0
 27
0.0
 37
0.0
 42
0.0
 43
0.0
 44
0.0
 45
10.0
 50
0.0
 51
0.0000000000007958
 72
   100
 90
    32800
  1

281
     0
 71
     0
 74
     0
110
0.0
120
0.0
130
0.0
111
1.0
121
0.0
131
0.0
112
0.0
122
1.0
132
0.0
 79
     0
146
0.0
1001
VD_INVISIBLE_NOT_FOR_READ
1000
VD_INVISIBLE_NOT_FOR_READ
1001
GENIUS_GENODEF_13
1002
{
1000
HIER
1070
     0
1002
}
1002
{
1000
MANEDIT
1070
     0
1002
}
1002
{
1000
NOSEL
1070
     0
1002
}
1002
{
1000
BEHIND
1070
     0
1002
}
1002
{
1000
OTHER
1070
     0
1002
}
1002
{
1000
REACTOR
1002
}
1001
GENIUS_GENOBJ-N-SDF_13
1002
{
1000
OWNER
1000
GEN
1002
}
1001
GENIUS_GENSCREG_15
1000
PF
1040
1.0
1000
DF
1040
1.0
1000
MIN
1011
-5.0
1021
-5.0
1031
0.0
1000
MAX
1011
5.0
1021
5.0
1031
0.0
1000
FLAGS
1070
     4
  0
VIEWPORT
  5
295
102
{ACAD_XDICTIONARY
360
F107C6
102
}
330
25D
100
AcDbEntity
 67
     1
  8
0
 60
     1
100
AcDbViewport
 10
0.0
 20
0.0
 30
0.0
 40
10.0
 41
10.0
 68
     0
 69
     2
 12
0.0
 22
0.0
 13
0.0
 23
0.0
 14
1.0
 24
1.0
 15
0.0
 25
0.0
 16
0.0
 26
0.0
 36
1.0
 17
0.0
 27
0.0
 37
0.0
 42
0.0
 43
0.0
 44
0.0
 45
10.0
 50
0.0
 51
0.0000000000007958
 72
   100
 90
   163872
  1

281
     0
 71
     0
 74
     0
110
0.0
120
0.0
130
0.0
111
1.0
121
0.0
131
0.0
112
0.0
122
1.0
132
0.0
 79
     0
146
0.0
1001
VD_INVISIBLE_NOT_FOR_READ
1000
VD_INVISIBLE_NOT_FOR_READ
1001
GENIUS_GENOBJ-N-SDF_13
1002
{
1000
OWNER
1000
GEN
1002
}
1001
GENIUS_GENODEF_13
1002
{
1000
HIER
1070
     0
1002
}
1002
{
1000
MANEDIT
1070
     0
1002
}
1002
{
1000
NOSEL
1070
     0
1002
}
1002
{
1000
BEHIND
1070
     0
1002
}
1002
{
1000
OTHER
1070
     0
1002
}
1002
{
1000
REACTOR
1002
}
1001
GENIUS_GENSCREG_15
1000
PF
1040
1.0
1000
DF
1040
1.0
1000
MIN
1011
-5.0
1021
-5.0
1031
0.0
1000
MAX
1011
5.0
1021
5.0
1031
0.0
1000
FLAGS
1070
     4
  0
ENDSEC
  0
SECTION
  2
OBJECTS
  0
DICTIONARY
  5
13
330
0
100
AcDbDictionary
281
     1
  3
ACAD_2007HEADERVARS_RT
350
F107BF
  3
ACAD_COLOR
350
FA7
  3
ACAD_GROUP
350
14
  3
ACAD_LAYOUT
350
FCF
  3
ACAD_MATERIAL
350
F7A
  3
ACAD_MLEADERSTYLE
350
FCD
  3
ACAD_MLINESTYLE
350
16
  3
ACAD_PLOTSETTINGS
350
17
  3
ACAD_PLOTSTYLENAME
350
18
  3
ACAD_SCALELIST
350
FAB
  3
ACAD_TABLESTYLE
350
FA8
  3
ACAD_VISUALSTYLE
350
F93
  3
ACDB_RECOMPOSE_DATA
350
F107BD
  3
AcDbVariableDictionary
350
F106F3
  3
AcmDictionary
350
F10406
  3
AMG
350
F103BA
  3
AMGSNAPSETTINGS
350
F10492
  3
DWGPROPS
350
F107BE
  0
DICTIONARY
  5
F106E9
330
252
100
AcDbDictionary
280
     1
281
     1
  3
ADSK_XREC_LAYER_RECONCILED
360
F106EA
  0
DICTIONARY
  5
F106EB
330
23F
100
AcDbDictionary
280
     1
281
     1
  3
ADSK_XREC_LAYER_RECONCILED
360
F106EC
  0
DICTIONARY
  5
F106ED
330
240
100
AcDbDictionary
280
     1
281
     1
  3
ADSK_XREC_LAYER_RECONCILED
360
F106EE
  0
DICTIONARY
  5
F106EF
330
241
100
AcDbDictionary
280
     1
281
     1
  3
ADSK_XREC_LAYER_RECONCILED
360
F106F0
  0
DICTIONARY
  5
F106F1
330
57E
100
AcDbDictionary
280
     1
281
     1
  3
ADSK_XREC_LAYER_RECONCILED
360
F106F2
  0
DICTIONARY
  5
F107C8
330
296
100
AcDbDictionary
280
     1
281
     1
  3
ACAD_XREC_ROUNDTRIP
360
F107C9
  0
DICTIONARY
  5
F107CA
330
297
100
AcDbDictionary
280
     1
281
     1
  3
ACAD_XREC_ROUNDTRIP
360
F107CB
  0
DICTIONARY
  5
F107BB
330
F104AF
100
AcDbDictionary
280
     1
281
     1
  3
ACAD_MTEXT_2008_RT
360
F107BC
  3
ACAD_MTEXT_RT
360
F10805
  0
DICTIONARY
  5
F10806
330
F1064A
100
AcDbDictionary
280
     1
281
     1
  3
ACAD_MTEXT_RT
360
F10807
  0
DICTIONARY
  5
F107C4
330
294
100
AcDbDictionary
280
     1
281
     1
  3
ACAD_XREC_ROUNDTRIP
360
F107C5
  0
DICTIONARY
  5
F107C6
330
295
100
AcDbDictionary
280
     1
281
     1
  3
ACAD_XREC_ROUNDTRIP
360
F107C7
  0
DICTIONARY
  5
F107BF
102
{ACAD_REACTORS
330
13
102
}
330
13
100
AcDbDictionary
281
     1
  3
DIMARCSYM
350
F107C0
  3
DIMLTEX1
350
F107C2
  3
DIMLTEX2
350
F107C3
  3
DIMLTYPE
350
F107C1
  0
DICTIONARY
  5
FA7
102
{ACAD_REACTORS
330
13
102
}
330
13
100
AcDbDictionary
281
     1
  0
DICTIONARY
  5
14
330
13
100
AcDbDictionary
281
     1
  0
DICTIONARY
  5
FCF
102
{ACAD_REACTORS
330
13
102
}
330
13
100
AcDbDictionary
281
     1
  3
Layout1
350
FD1
  3
Model
350
FD0
  0
DICTIONARY
  5
F7A
102
{ACAD_REACTORS
330
13
102
}
330
13
100
AcDbDictionary
281
     1
  3
ByBlock
350
F83
  3
ByLayer
350
F7B
  3
Global
350
F8B
  0
DICTIONARY
  5
FCD
102
{ACAD_REACTORS
330
13
102
}
330
13
100
AcDbDictionary
281
     1
  3
Standard
350
FCE
  0
DICTIONARY
  5
16
330
13
100
AcDbDictionary
281
     1
  3
Standard
350
FAA
  0
DICTIONARY
  5
17
102
{ACAD_REACTORS
330
13
102
}
330
13
100
AcDbDictionary
281
     1
  0
ACDBDICTIONARYWDFLT
  5
18
102
{ACAD_REACTORS
330
13
102
}
330
13
100
AcDbDictionary
281
     1
  3
Normal
350
19
100
AcDbDictionaryWithDefault
340
19
  0
DICTIONARY
  5
FAB
102
{ACAD_REACTORS
330
13
102
}
330
13
100
AcDbDictionary
281
     1
  3
A0
350
FAC
  3
A1
350
FAD
  3
A2
350
FAE
  3
A3
350
FAF
  3
A4
350
FB0
  3
A5
350
FB1
  3
A6
350
FB2
  3
A7
350
FB3
  3
A8
350
FB4
  3
A9
350
FB5
  3
B0
350
FB6
  3
B1
350
FB7
  3
B2
350
FB8
  3
B3
350
FB9
  3
B4
350
FBA
  3
B5
350
FBB
  3
B6
350
FBC
  3
B7
350
FBD
  3
B8
350
FBE
  3
B9
350
FBF
  3
C0
350
FC0
  3
C1
350
FC1
  3
C2
350
FC2
  3
C3
350
FC3
  3
C4
350
FC4
  3
C5
350
FC5
  3
C6
350
FC6
  3
C7
350
FC7
  3
C8
350
FC8
  3
C9
350
FC9
  3
D0
350
FCA
  3
D1
350
FCB
  3
D2
350
FCC
  0
DICTIONARY
  5
FA8
102
{ACAD_REACTORS
330
13
102
}
330
13
100
AcDbDictionary
281
     1
  3
Standard
350
FA9
  0
DICTIONARY
  5
F93
102
{ACAD_REACTORS
330
13
102
}
330
13
100
AcDbDictionary
281
     1
  3
2dWireframe
350
F99
  3
3D Hidden
350
F9B
  3
3dWireframe
350
F9A
  3
Basic
350
F98
  3
Brighten
350
F9F
  3
ColorChange
350
FA3
  3
Conceptual
350
F9C
  3
Dim
350
F9E
  3
EdgeColorOff
350
FA6
  3
Facepattern
350
FA2
  3
Flat
350
F94
  3
FlatWithEdges
350
F95
  3
Gouraud
350
F96
  3
GouraudWithEdges
350
F97
  3
Hidden
350
F103B2
  3
JitterOff
350
FA4
  3
Linepattern
350
FA1
  3
OverhangOff
350
FA5
  3
Realistic
350
F9D
  3
Shaded
350
F103B7
  3
Shaded with edges
350
F103B6
  3
Shades of Gray
350
F103B3
  3
Sketchy
350
F103B4
  3
Thicken
350
FA0
  3
Wireframe
350
F103B1
  3
X-Ray
350
F103B5
  0
XRECORD
  5
F107BD
102
{ACAD_REACTORS
330
13
102
}
330
13
100
AcDbXrecord
280
     1
 90
        1
330
FA9
330
F104AF
  0
DICTIONARY
  5
F106F3
102
{ACAD_REACTORS
330
13
102
}
330
13
100
AcDbDictionary
281
     1
  3
CANNOSCALE
350
F106F6
  3
CMLEADERSTYLE
350
F106F5
  3
CTABLESTYLE
350
F106F4
  3
DIMASSOC
350
F106F9
  3
INDEXCTL
350
F106F8
  3
SORTENTS
350
F106F7
  3
XCLIPFRAME
350
F107B9
  0
DICTIONARY
  5
F10406
102
{ACAD_REACTORS
330
13
102
}
330
13
100
AcDbDictionary
281
     1
  3
AcmStdDictionary
350
F10411
  0
DICTIONARY
  5
F103BA
102
{ACAD_REACTORS
330
13
102
}
330
13
100
AcDbDictionary
281
     1
  0
DICTIONARY
  5
F10492
102
{ACAD_REACTORS
330
13
102
}
330
13
100
AcDbDictionary
281
     1
  0
XRECORD
  5
F107BE
102
{ACAD_REACTORS
330
13
102
}
330
13
100
AcDbXrecord
280
     1
  1
DWGPROPS COOKIE
  2

  3

  4

  6

  7

  8
steigner
  9

300
=
301
=
302
=
303
=
304
=
305
=
306
=
307
=
308
=
309
=
 40
0.0312560185185185
 41
2456884.312360069
 42
2456884.406795521
  1

 90
        0
  0
XRECORD
  5
F106EA
102
{ACAD_REACTORS
330
F106E9
102
}
330
F106E9
100
AcDbXrecord
280
     1
290
     1
  0
XRECORD
  5
F106EC
102
{ACAD_REACTORS
330
F106EB
102
}
330
F106EB
100
AcDbXrecord
280
     1
290
     1
  0
XRECORD
  5
F106EE
102
{ACAD_REACTORS
330
F106ED
102
}
330
F106ED
100
AcDbXrecord
280
     1
290
     1
  0
XRECORD
  5
F106F0
102
{ACAD_REACTORS
330
F106EF
102
}
330
F106EF
100
AcDbXrecord
280
     1
290
     1
  0
XRECORD
  5
F106F2
102
{ACAD_REACTORS
330
F106F1
102
}
330
F106F1
100
AcDbXrecord
280
     1
290
     1
  0
XRECORD
  5
F107C9
102
{ACAD_REACTORS
330
F107C8
102
}
330
F107C8
100
AcDbXrecord
280
     1
102
SHADEPLOT
 70
     0
  0
XRECORD
  5
F107CB
102
{ACAD_REACTORS
330
F107CA
102
}
330
F107CA
100
AcDbXrecord
280
     1
102
SHADEPLOT
 70
     0
  0
XRECORD
  5
F107BC
102
{ACAD_REACTORS
330
F107BB
102
}
330
F107BB
100
AcDbXrecord
280
     1
 40
30412.0
  1
\A1;15°{\H1.250000;\S+2°~.+2°;}
  0
XRECORD
  5
F10805
102
{ACAD_REACTORS
330
F107BB
102
}
330
F107BB
100
AcDbXrecord
280
     1
 40
28603.0
  1
\A1;15°{\H0.5x;\S+2°^ +2°;}
  0
XRECORD
  5
F10807
102
{ACAD_REACTORS
330
F10806
102
}
330
F10806
100
AcDbXrecord
280
     1
 40
5303.0
  1
\A1;15°
  0
XRECORD
  5
F107C5
102
{ACAD_REACTORS
330
F107C4
102
}
330
F107C4
100
AcDbXrecord
280
     1
102
SHADEPLOT
 70
     0
  0
XRECORD
  5
F107C7
102
{ACAD_REACTORS
330
F107C6
102
}
330
F107C6
100
AcDbXrecord
280
     1
102
SHADEPLOT
 70
     0
  0
XRECORD
  5
F107C0
102
{ACAD_REACTORS
330
F107BF
102
}
330
F107BF
100
AcDbXrecord
280
     1
 70
     1
  0
XRECORD
  5
F107C2
102
{ACAD_REACTORS
330
F107BF
102
}
330
F107BF
100
AcDbXrecord
280
     1
340
256
  0
XRECORD
  5
F107C3
102
{ACAD_REACTORS
330
F107BF
102
}
330
F107BF
100
AcDbXrecord
280
     1
340
256
  0
XRECORD
  5
F107C1
102
{ACAD_REACTORS
330
F107BF
102
}
330
F107BF
100
AcDbXrecord
280
     1
340
256
  0
LAYOUT
  5
FD1
102
{ACAD_XDICTIONARY
360
F107F5
102
}
102
{ACAD_REACTORS
330
FCF
102
}
330
FCF
100
AcDbPlotSettings
  1

  2
Microsoft XPS Document Writer
  4

  6

 40
0.0
 41
0.0
 42
0.0
 43
0.0
 44
0.0
 45
0.0
 46
0.0
 47
0.0
 48
0.0
 49
0.0
140
0.0
141
0.0
142
1.0
143
1.0
 70
   688
 72
     0
 73
     0
 74
     5
  7

 75
    16
147
1.0
148
0.0
149
0.0
100
AcDbLayout
  1
Layout1
 70
     1
 71
     1
 10
0.0
 20
0.0
 11
12.0
 21
9.0
 12
0.0
 22
0.0
 32
0.0
 14
1.000000000000000E+20
 24
1.000000000000000E+20
 34
1.000000000000000E+20
 15
-1.000000000000000E+20
 25
-1.000000000000000E+20
 35
-1.000000000000000E+20
146
0.0
 13
0.0
 23
0.0
 33
0.0
 16
1.0
 26
0.0
 36
0.0
 17
0.0
 27
1.0
 37
0.0
 76
     0
330
25D
  0
LAYOUT
  5
FD0
102
{ACAD_XDICTIONARY
360
F107F3
102
}
102
{ACAD_REACTORS
330
FCF
102
}
330
FCF
100
AcDbPlotSettings
  1

  2
Microsoft XPS Document Writer
  4

  6

 40
0.0
 41
0.0
 42
0.0
 43
0.0
 44
0.0
 45
0.0
 46
0.0
 47
0.0
 48
0.0
 49
0.0
140
0.0
141
0.0
142
1.0
143
1.0
 70
  1712
 72
     0
 73
     0
 74
     0
  7

 75
     0
147
1.0
148
0.0
149
0.0
100
AcDbLayout
  1
Model
 70
     1
 71
     0
 10
0.0
 20
0.0
 11
12.0
 21
9.0
 12
0.0
 22
0.0
 32
0.0
 14
0.0
 24
0.0
 34
0.0
 15
0.0
 25
0.0
 35
0.0
146
0.0
 13
0.0
 23
0.0
 33
0.0
 16
1.0
 26
0.0
 36
0.0
 17
0.0
 27
1.0
 37
0.0
 76
     0
330
261
331
26B
  0
MATERIAL
  5
F83
102
{ACAD_XDICTIONARY
360
F84
102
}
102
{ACAD_REACTORS
330
F7A
102
}
330
F7A
100
AcDbMaterial
  1
ByBlock
 72
     0
 43
0.0208333333333333
 43
0.0
 43
0.0
 43
0.0
 43
0.0
 43
0.0208333333333333
 43
0.0
 43
0.0
 43
0.0
 43
0.0
 43
1.0
 43
0.0
 43
0.0
 43
0.0
 43
0.0
 43
1.0
 77
     0
 47
0.0208333333333333
 47
0.0
 47
0.0
 47
0.0
 47
0.0
 47
0.0208333333333333
 47
0.0
 47
0.0
 47
0.0
 47
0.0
 47
1.0
 47
0.0
 47
0.0
 47
0.0
 47
0.0
 47
1.0
171
     0
 49
0.0208333333333333
 49
0.0
 49
0.0
 49
0.0
 49
0.0
 49
0.0208333333333333
 49
0.0
 49
0.0
 49
0.0
 49
0.0
 49
1.0
 49
0.0
 49
0.0
 49
0.0
 49
0.0
 49
1.0
175
     0
142
0.0208333333333333
142
0.0
142
0.0
142
0.0
142
0.0
142
0.0208333333333333
142
0.0
142
0.0
142
0.0
142
0.0
142
1.0
142
0.0
142
0.0
142
0.0
142
0.0
142
1.0
179
     0
144
0.0208333333333333
144
0.0
144
0.0
144
0.0
144
0.0
144
0.0208333333333333
144
0.0
144
0.0
144
0.0
144
0.0
144
1.0
144
0.0
144
0.0
144
0.0
144
0.0
144
1.0
147
0.0208333333333333
147
0.0
147
0.0
147
0.0
147
0.0
147
0.0208333333333333
147
0.0
147
0.0
147
0.0
147
0.0
147
1.0
147
0.0
147
0.0
147
0.0
147
0.0
147
1.0
  0
MATERIAL
  5
F7B
102
{ACAD_XDICTIONARY
360
F7C
102
}
102
{ACAD_REACTORS
330
F7A
102
}
330
F7A
100
AcDbMaterial
  1
ByLayer
 72
     0
 43
0.0208333333333333
 43
0.0
 43
0.0
 43
0.0
 43
0.0
 43
0.0208333333333333
 43
0.0
 43
0.0
 43
0.0
 43
0.0
 43
1.0
 43
0.0
 43
0.0
 43
0.0
 43
0.0
 43
1.0
 77
     0
 47
0.0208333333333333
 47
0.0
 47
0.0
 47
0.0
 47
0.0
 47
0.0208333333333333
 47
0.0
 47
0.0
 47
0.0
 47
0.0
 47
1.0
 47
0.0
 47
0.0
 47
0.0
 47
0.0
 47
1.0
171
     0
 49
0.0208333333333333
 49
0.0
 49
0.0
 49
0.0
 49
0.0
 49
0.0208333333333333
 49
0.0
 49
0.0
 49
0.0
 49
0.0
 49
1.0
 49
0.0
 49
0.0
 49
0.0
 49
0.0
 49
1.0
175
     0
142
0.0208333333333333
142
0.0
142
0.0
142
0.0
142
0.0
142
0.0208333333333333
142
0.0
142
0.0
142
0.0
142
0.0
142
1.0
142
0.0
142
0.0
142
0.0
142
0.0
142
1.0
179
     0
144
0.0208333333333333
144
0.0
144
0.0
144
0.0
144
0.0
144
0.0208333333333333
144
0.0
144
0.0
144
0.0
144
0.0
144
1.0
144
0.0
144
0.0
144
0.0
144
0.0
144
1.0
147
0.0208333333333333
147
0.0
147
0.0
147
0.0
147
0.0
147
0.0208333333333333
147
0.0
147
0.0
147
0.0
147
0.0
147
1.0
147
0.0
147
0.0
147
0.0
147
0.0
147
1.0
  0
MATERIAL
  5
F8B
102
{ACAD_XDICTIONARY
360
F8C
102
}
102
{ACAD_REACTORS
330
F7A
102
}
330
F7A
100
AcDbMaterial
  1
Global
 72
     0
 43
0.0208333333333333
 43
0.0
 43
0.0
 43
0.0
 43
0.0
 43
0.0208333333333333
 43
0.0
 43
0.0
 43
0.0
 43
0.0
 43
1.0
 43
0.0
 43
0.0
 43
0.0
 43
0.0
 43
1.0
 77
     0
 47
0.0208333333333333
 47
0.0
 47
0.0
 47
0.0
 47
0.0
 47
0.0208333333333333
 47
0.0
 47
0.0
 47
0.0
 47
0.0
 47
1.0
 47
0.0
 47
0.0
 47
0.0
 47
0.0
 47
1.0
171
     0
 49
0.0208333333333333
 49
0.0
 49
0.0
 49
0.0
 49
0.0
 49
0.0208333333333333
 49
0.0
 49
0.0
 49
0.0
 49
0.0
 49
1.0
 49
0.0
 49
0.0
 49
0.0
 49
0.0
 49
1.0
175
     0
142
0.0208333333333333
142
0.0
142
0.0
142
0.0
142
0.0
142
0.0208333333333333
142
0.0
142
0.0
142
0.0
142
0.0
142
1.0
142
0.0
142
0.0
142
0.0
142
0.0
142
1.0
179
     0
144
0.0208333333333333
144
0.0
144
0.0
144
0.0
144
0.0
144
0.0208333333333333
144
0.0
144
0.0
144
0.0
144
0.0
144
1.0
144
0.0
144
0.0
144
0.0
144
0.0
144
1.0
147
0.0208333333333333
147
0.0
147
0.0
147
0.0
147
0.0
147
0.0208333333333333
147
0.0
147
0.0
147
0.0
147
0.0
147
1.0
147
0.0
147
0.0
147
0.0
147
0.0
147
1.0
  0
MLEADERSTYLE
  5
FCE
102
{ACAD_REACTORS
330
FCD
102
}
330
FCD
100
AcDbMLeaderStyle
170
     2
171
     1
172
     0
 90
        2
 40
0.0
 41
0.0
173
     1
 91
-1056964608
340
256
 92
       -2
290
     1
 42
0.09
291
     1
 43
0.36
  3
Standard
 44
0.18
300

342
253
174
     1
178
     6
175
     1
176
     0
 93
-1056964608
 45
0.18
292
     0
297
     0
 46
0.18
 94
-1056964608
 47
1.0
 49
1.0
140
1.0
293
     1
141
0.0
294
     1
177
     0
142
1.0
295
     0
296
     0
143
0.125
1001
ACAD_MLEADERVER
1070
     2
  0
MLINESTYLE
  5
FAA
102
{ACAD_REACTORS
330
16
102
}
330
16
100
AcDbMlineStyle
  2
STANDARD
 70
     0
  3

 62
   256
 51
90.0
 52
90.0
 71
     2
 49
0.5
 62
   256
  6
BYLAYER
 49
-0.5
 62
   256
  6
BYLAYER
  0
ACDBPLACEHOLDER
  5
19
102
{ACAD_REACTORS
330
18
102
}
330
18
  0
SCALE
  5
FAC
102
{ACAD_REACTORS
330
FAB
102
}
330
FAB
100
AcDbScale
 70
     0
300
1:1
140
1.0
141
1.0
290
     1
  0
SCALE
  5
FAD
102
{ACAD_REACTORS
330
FAB
102
}
330
FAB
100
AcDbScale
 70
     0
300
1:2
140
1.0
141
2.0
290
     0
  0
SCALE
  5
FAE
102
{ACAD_REACTORS
330
FAB
102
}
330
FAB
100
AcDbScale
 70
     0
300
1:4
140
1.0
141
4.0
290
     0
  0
SCALE
  5
FAF
102
{ACAD_REACTORS
330
FAB
102
}
330
FAB
100
AcDbScale
 70
     0
300
1:5
140
1.0
141
5.0
290
     0
  0
SCALE
  5
FB0
102
{ACAD_REACTORS
330
FAB
102
}
330
FAB
100
AcDbScale
 70
     0
300
1:8
140
1.0
141
8.0
290
     0
  0
SCALE
  5
FB1
102
{ACAD_REACTORS
330
FAB
102
}
330
FAB
100
AcDbScale
 70
     0
300
1:10
140
1.0
141
10.0
290
     0
  0
SCALE
  5
FB2
102
{ACAD_REACTORS
330
FAB
102
}
330
FAB
100
AcDbScale
 70
     0
300
1:16
140
1.0
141
16.0
290
     0
  0
SCALE
  5
FB3
102
{ACAD_REACTORS
330
FAB
102
}
330
FAB
100
AcDbScale
 70
     0
300
1:20
140
1.0
141
20.0
290
     0
  0
SCALE
  5
FB4
102
{ACAD_REACTORS
330
FAB
102
}
330
FAB
100
AcDbScale
 70
     0
300
1:30
140
1.0
141
30.0
290
     0
  0
SCALE
  5
FB5
102
{ACAD_REACTORS
330
FAB
102
}
330
FAB
100
AcDbScale
 70
     0
300
1:40
140
1.0
141
40.0
290
     0
  0
SCALE
  5
FB6
102
{ACAD_REACTORS
330
FAB
102
}
330
FAB
100
AcDbScale
 70
     0
300
1:50
140
1.0
141
50.0
290
     0
  0
SCALE
  5
FB7
102
{ACAD_REACTORS
330
FAB
102
}
330
FAB
100
AcDbScale
 70
     0
300
1:100
140
1.0
141
100.0
290
     0
  0
SCALE
  5
FB8
102
{ACAD_REACTORS
330
FAB
102
}
330
FAB
100
AcDbScale
 70
     0
300
2:1
140
2.0
141
1.0
290
     0
  0
SCALE
  5
FB9
102
{ACAD_REACTORS
330
FAB
102
}
330
FAB
100
AcDbScale
 70
     0
300
4:1
140
4.0
141
1.0
290
     0
  0
SCALE
  5
FBA
102
{ACAD_REACTORS
330
FAB
102
}
330
FAB
100
AcDbScale
 70
     0
300
8:1
140
8.0
141
1.0
290
     0
  0
SCALE
  5
FBB
102
{ACAD_REACTORS
330
FAB
102
}
330
FAB
100
AcDbScale
 70
     0
300
10:1
140
10.0
141
1.0
290
     0
  0
SCALE
  5
FBC
102
{ACAD_REACTORS
330
FAB
102
}
330
FAB
100
AcDbScale
 70
     0
300
100:1
140
100.0
141
1.0
290
     0
  0
SCALE
  5
FBD
102
{ACAD_REACTORS
330
FAB
102
}
330
FAB
100
AcDbScale
 70
     0
300
1/128" = 1'-0"
140
0.0078125
141
12.0
290
     0
  0
SCALE
  5
FBE
102
{ACAD_REACTORS
330
FAB
102
}
330
FAB
100
AcDbScale
 70
     0
300
1/64" = 1'-0"
140
0.015625
141
12.0
290
     0
  0
SCALE
  5
FBF
102
{ACAD_REACTORS
330
FAB
102
}
330
FAB
100
AcDbScale
 70
     0
300
1/32" = 1'-0"
140
0.03125
141
12.0
290
     0
  0
SCALE
  5
FC0
102
{ACAD_REACTORS
330
FAB
102
}
330
FAB
100
AcDbScale
 70
     0
300
1/16" = 1'-0"
140
0.0625
141
12.0
290
     0
  0
SCALE
  5
FC1
102
{ACAD_REACTORS
330
FAB
102
}
330
FAB
100
AcDbScale
 70
     0
300
3/32" = 1'-0"
140
0.09375
141
12.0
290
     0
  0
SCALE
  5
FC2
102
{ACAD_REACTORS
330
FAB
102
}
330
FAB
100
AcDbScale
 70
     0
300
1/8" = 1'-0"
140
0.125
141
12.0
290
     0
  0
SCALE
  5
FC3
102
{ACAD_REACTORS
330
FAB
102
}
330
FAB
100
AcDbScale
 70
     0
300
3/16" = 1'-0"
140
0.1875
141
12.0
290
     0
  0
SCALE
  5
FC4
102
{ACAD_REACTORS
330
FAB
102
}
330
FAB
100
AcDbScale
 70
     0
300
1/4" = 1'-0"
140
0.25
141
12.0
290
     0
  0
SCALE
  5
FC5
102
{ACAD_REACTORS
330
FAB
102
}
330
FAB
100
AcDbScale
 70
     0
300
3/8" = 1'-0"
140
0.375
141
12.0
290
     0
  0
SCALE
  5
FC6
102
{ACAD_REACTORS
330
FAB
102
}
330
FAB
100
AcDbScale
 70
     0
300
1/2" = 1'-0"
140
0.5
141
12.0
290
     0
  0
SCALE
  5
FC7
102
{ACAD_REACTORS
330
FAB
102
}
330
FAB
100
AcDbScale
 70
     0
300
3/4" = 1'-0"
140
0.75
141
12.0
290
     0
  0
SCALE
  5
FC8
102
{ACAD_REACTORS
330
FAB
102
}
330
FAB
100
AcDbScale
 70
     0
300
1" = 1'-0"
140
1.0
141
12.0
290
     0
  0
SCALE
  5
FC9
102
{ACAD_REACTORS
330
FAB
102
}
330
FAB
100
AcDbScale
 70
     0
300
1-1/2" = 1'-0"
140
1.5
141
12.0
290
     0
  0
SCALE
  5
FCA
102
{ACAD_REACTORS
330
FAB
102
}
330
FAB
100
AcDbScale
 70
     0
300
3" = 1'-0"
140
3.0
141
12.0
290
     0
  0
SCALE
  5
FCB
102
{ACAD_REACTORS
330
FAB
102
}
330
FAB
100
AcDbScale
 70
     0
300
6" = 1'-0"
140
6.0
141
12.0
290
     0
  0
SCALE
  5
FCC
102
{ACAD_REACTORS
330
FAB
102
}
330
FAB
100
AcDbScale
 70
     0
300
1'-0" = 1'-0"
140
12.0
141
12.0
290
     0
  0
TABLESTYLE
  5
FA9
102
{ACAD_XDICTIONARY
360
FF8
102
}
102
{ACAD_REACTORS
330
FA8
102
}
330
FA8
100
AcDbTableStyle
  3
Standard
 70
     0
 71
     0
 40
0.06
 41
0.06
280
     0
281
     0
  7
Standard
140
0.18
170
     2
 62
     0
 63
     7
283
     0
274
    -2
284
     1
 64
     0
275
    -2
285
     1
 65
     0
276
    -2
286
     1
 66
     0
277
    -2
287
     1
 67
     0
278
    -2
288
     1
 68
     0
279
    -2
289
     1
 69
     0
  7
Standard
140
0.25
170
     5
 62
     0
 63
     7
283
     0
274
    -2
284
     1
 64
     0
275
    -2
285
     1
 65
     0
276
    -2
286
     1
 66
     0
277
    -2
287
     1
 67
     0
278
    -2
288
     1
 68
     0
279
    -2
289
     1
 69
     0
  7
Standard
140
0.18
170
     5
 62
     0
 63
     7
283
     0
274
    -2
284
     1
 64
     0
275
    -2
285
     1
 65
     0
276
    -2
286
     1
 66
     0
277
    -2
287
     1
 67
     0
278
    -2
288
     1
 68
     0
279
    -2
289
     1
 69
     0
  0
VISUALSTYLE
  5
F99
102
{ACAD_XDICTIONARY
360
F107D6
102
}
102
{ACAD_REACTORS
330
F93
102
}
330
F93
100
AcDbVisualStyle
  2

 70
     4
 71
     0
 72
     2
 73
     0
 90
        0
 40
-0.6
 41
-30.0
 62
     5
 63
     7
 74
     1
 91
        4
 64
     7
 65
   257
 75
     1
175
     1
 42
1.0
 92
        0
 66
   257
 43
1.0
 76
     1
 77
     6
 78
     2
 67
     7
 79
     5
170
     0
171
     0
290
     0
174
     0
 93
        1
 44
0.0
173
     0
291
     0
 45
0.0
1001
ACAD
1000
AcDbSavedByObjectVersion
1070
     0
  0
VISUALSTYLE
  5
F9B
102
{ACAD_XDICTIONARY
360
F107DA
102
}
102
{ACAD_REACTORS
330
F93
102
}
330
F93
100
AcDbVisualStyle
  2

 70
     6
 71
     1
 72
     2
 73
     2
 90
        0
 40
-0.6
 41
-30.0
 62
     5
 63
     7
 74
     2
 91
        2
 64
     7
 65
   257
 75
     2
175
     1
 42
179.0
 92
        0
 66
   257
 43
1.0
 76
     1
 77
     6
 78
     2
 67
     7
 79
     3
170
     0
171
     0
290
     0
174
     0
 93
        1
 44
0.0
173
     0
291
     0
 45
0.0
1001
ACAD
1000
AcDbSavedByObjectVersion
1070
     0
  0
VISUALSTYLE
  5
F9A
102
{ACAD_XDICTIONARY
360
F107D8
102
}
102
{ACAD_REACTORS
330
F93
102
}
330
F93
100
AcDbVisualStyle
  2

 70
     5
 71
     0
 72
     2
 73
     0
 90
        0
 40
-0.6
 41
-30.0
 62
     5
 63
     7
 74
     1
 91
        4
 64
     7
 65
   257
 75
     1
175
     1
 42
1.0
 92
        0
 66
   257
 43
1.0
 76
     1
 77
     6
 78
     2
 67
     7
 79
     5
170
     0
171
     0
290
     0
174
     0
 93
        1
 44
0.0
173
     0
291
     0
 45
0.0
1001
ACAD
1000
AcDbSavedByObjectVersion
1070
     0
  0
VISUALSTYLE
  5
F98
102
{ACAD_XDICTIONARY
360
F107D4
102
}
102
{ACAD_REACTORS
330
F93
102
}
330
F93
100
AcDbVisualStyle
  2

 70
     7
 71
     1
 72
     0
 73
     1
 90
        0
 40
-0.6
 41
-30.0
 62
     5
 63
     7
 74
     0
 91
        4
 64
     7
 65
   257
 75
     1
175
     1
 42
1.0
 92
        8
 66
     7
 43
1.0
 76
     1
 77
     6
 78
     2
 67
     7
 79
     5
170
     0
171
     0
290
     0
174
     0
 93
        1
 44
0.0
173
     0
291
     1
 45
0.0
1001
ACAD
1000
AcDbSavedByObjectVersion
1070
     0
  0
VISUALSTYLE
  5
F9F
102
{ACAD_XDICTIONARY
360
F107E2
102
}
102
{ACAD_REACTORS
330
F93
102
}
330
F93
100
AcDbVisualStyle
  2

 70
    12
 71
     2
 72
     2
 73
     0
 90
        0
 40
-0.6
 41
-30.0
 62
     5
 63
     7
 74
     1
 91
        4
 64
     7
 65
   257
 75
     1
175
     1
 42
1.0
 92
        8
 66
     7
 43
1.0
 76
     1
 77
     6
 78
     2
 67
     7
 79
     5
170
     0
171
     0
290
     0
174
     0
 93
        1
 44
50.0
173
     0
291
     1
 45
0.0
1001
ACAD
1000
AcDbSavedByObjectVersion
1070
     0
  0
VISUALSTYLE
  5
FA3
102
{ACAD_XDICTIONARY
360
F107EA
102
}
102
{ACAD_REACTORS
330
F93
102
}
330
F93
100
AcDbVisualStyle
  2

 70
    16
 71
     2
 72
     2
 73
     3
 90
        0
 40
-0.6
 41
-30.0
 62
     5
 63
     8
 74
     1
 91
        4
 64
     7
 65
   257
 75
     1
175
     1
 42
1.0
 92
        8
 66
     8
 43
1.0
 76
     1
 77
     6
 78
     2
 67
     7
 79
     5
170
     0
171
     0
290
     0
174
     0
 93
        1
 44
0.0
173
     0
291
     1
 45
0.0
1001
ACAD
1000
AcDbSavedByObjectVersion
1070
     0
  0
VISUALSTYLE
  5
F9C
102
{ACAD_XDICTIONARY
360
F107DC
102
}
102
{ACAD_REACTORS
330
F93
102
}
330
F93
100
AcDbVisualStyle
  2

 70
     9
 71
     3
 72
     2
 73
     0
 90
        0
 40
-0.6
 41
-30.0
 62
     5
 63
     7
 74
     2
 91
        2
 64
     7
 65
   257
 75
     1
175
     1
 42
179.0
 92
        8
 66
     7
 43
1.0
 76
     1
 77
     6
 78
     2
 67
     7
 79
     3
170
     0
171
     0
290
     0
174
     0
 93
        1
 44
0.0
173
     0
291
     0
 45
0.0
1001
ACAD
1000
AcDbSavedByObjectVersion
1070
     0
  0
VISUALSTYLE
  5
F9E
102
{ACAD_XDICTIONARY
360
F107E0
102
}
102
{ACAD_REACTORS
330
F93
102
}
330
F93
100
AcDbVisualStyle
  2

 70
    11
 71
     2
 72
     2
 73
     0
 90
        0
 40
-0.6
 41
-30.0
 62
     5
 63
     7
 74
     1
 91
        4
 64
     7
 65
   257
 75
     1
175
     1
 42
1.0
 92
        8
 66
     7
 43
1.0
 76
     1
 77
     6
 78
     2
 67
     7
 79
     5
170
     0
171
     0
290
     0
174
     0
 93
        1
 44
-50.0
173
     0
291
     1
 45
0.0
1001
ACAD
1000
AcDbSavedByObjectVersion
1070
     0
  0
VISUALSTYLE
  5
FA6
102
{ACAD_XDICTIONARY
360
F107F0
102
}
102
{ACAD_REACTORS
330
F93
102
}
330
F93
100
AcDbVisualStyle
  2

 70
    22
 71
     2
 72
     2
 73
     0
 90
        0
 40
-0.6
 41
-30.0
 62
     5
 63
     7
 74
     1
 91
        4
 64
     7
 65
   257
 75
     1
175
     1
 42
1.0
 92
        8
 66
     7
 43
1.0
 76
     1
 77
     6
 78
     2
 67
     7
 79
     5
170
     0
171
     0
290
     0
174
     0
 93
        1
 44
0.0
173
     0
291
     1
 45
0.0
1001
ACAD
1000
AcDbSavedByObjectVersion
1070
     0
  0
VISUALSTYLE
  5
FA2
102
{ACAD_XDICTIONARY
360
F107E8
102
}
102
{ACAD_REACTORS
330
F93
102
}
330
F93
100
AcDbVisualStyle
  2

 70
    15
 71
     2
 72
     2
 73
     0
 90
        0
 40
-0.6
 41
-30.0
 62
     5
 63
     7
 74
     1
 91
        4
 64
     7
 65
   257
 75
     1
175
     1
 42
1.0
 92
        8
 66
     7
 43
1.0
 76
     1
 77
     6
 78
     2
 67
     7
 79
     5
170
     0
171
     0
290
     0
174
     0
 93
        1
 44
0.0
173
     0
291
     1
 45
0.0
1001
ACAD
1000
AcDbSavedByObjectVersion
1070
     0
  0
VISUALSTYLE
  5
F94
102
{ACAD_XDICTIONARY
360
F107CC
102
}
102
{ACAD_REACTORS
330
F93
102
}
330
F93
100
AcDbVisualStyle
  2

 70
     0
 71
     2
 72
     1
 73
     1
 90
        2
 40
-0.6
 41
30.0
 62
     5
 63
     7
 74
     0
 91
        4
 64
     7
 65
   257
 75
     1
175
     1
 42
1.0
 92
        8
 66
     7
 43
1.0
 76
     1
 77
     6
 78
     2
 67
     7
 79
     5
170
     0
171
     0
290
     0
174
     0
 93
       13
 44
0.0
173
     0
291
     1
 45
0.0
1001
ACAD
1000
AcDbSavedByObjectVersion
1070
     0
  0
VISUALSTYLE
  5
F95
102
{ACAD_XDICTIONARY
360
F107CE
102
}
102
{ACAD_REACTORS
330
F93
102
}
330
F93
100
AcDbVisualStyle
  2

 70
     1
 71
     2
 72
     1
 73
     1
 90
        2
 40
-0.6
 41
30.0
 62
     5
 63
     7
 74
     1
 91
        4
 64
     7
 65
   257
 75
     1
175
     1
 42
1.0
 92
        0
 66
   257
 43
1.0
 76
     1
 77
     6
 78
     2
 67
     7
 79
     5
170
     0
171
     0
290
     0
174
     0
 93
       13
 44
0.0
173
     0
291
     1
 45
0.0
1001
ACAD
1000
AcDbSavedByObjectVersion
1070
     0
  0
VISUALSTYLE
  5
F96
102
{ACAD_XDICTIONARY
360
F107D0
102
}
102
{ACAD_REACTORS
330
F93
102
}
330
F93
100
AcDbVisualStyle
  2

 70
     2
 71
     2
 72
     2
 73
     1
 90
        2
 40
-0.6
 41
30.0
 62
     5
 63
     7
 74
     0
 91
        4
 64
     7
 65
   257
 75
     1
175
     1
 42
1.0
 92
        0
 66
     7
 43
1.0
 76
     1
 77
     6
 78
     2
 67
     7
 79
     5
170
     0
171
     0
290
     0
174
     0
 93
       13
 44
0.0
173
     0
291
     1
 45
0.0
1001
ACAD
1000
AcDbSavedByObjectVersion
1070
     0
  0
VISUALSTYLE
  5
F97
102
{ACAD_XDICTIONARY
360
F107D2
102
}
102
{ACAD_REACTORS
330
F93
102
}
330
F93
100
AcDbVisualStyle
  2

 70
     3
 71
     2
 72
     2
 73
     1
 90
        2
 40
-0.6
 41
30.0
 62
     5
 63
     7
 74
     1
 91
        4
 64
     7
 65
   257
 75
     1
175
     1
 42
1.0
 92
        0
 66
   257
 43
1.0
 76
     1
 77
     6
 78
     2
 67
     7
 79
     5
170
     0
171
     0
290
     0
174
     0
 93
       13
 44
0.0
173
     0
291
     1
 45
0.0
1001
ACAD
1000
AcDbSavedByObjectVersion
1070
     0
  0
VISUALSTYLE
  5
F103B2
102
{ACAD_XDICTIONARY
360
F107F9
102
}
102
{ACAD_REACTORS
330
F93
102
}
330
F93
100
AcDbVisualStyle
  2

 70
     6
 71
     1
 72
     2
 73
     2
 90
        0
 40
-0.6
 41
-30.0
 62
     5
 63
     7
 74
     2
 91
        2
 64
     7
 65
   257
 75
     2
175
     1
 42
40.0
 92
        0
 66
   257
 43
1.0
 76
     1
 77
     6
 78
     2
 67
     7
 79
     3
170
     0
171
     0
290
     0
174
     0
 93
        1
 44
0.0
173
     0
291
     0
 45
0.0
1001
ACAD
1000
AcDbSavedByObjectVersion
1070
     0
  0
VISUALSTYLE
  5
FA4
102
{ACAD_XDICTIONARY
360
F107EC
102
}
102
{ACAD_REACTORS
330
F93
102
}
330
F93
100
AcDbVisualStyle
  2

 70
    20
 71
     2
 72
     2
 73
     0
 90
        0
 40
-0.6
 41
-30.0
 62
     5
 63
     7
 74
     1
 91
        4
 64
     7
 65
   257
 75
     1
175
     1
 42
1.0
 92
       10
 66
     7
 43
1.0
 76
     1
 77
     6
 78
     2
 67
     7
 79
     5
170
     0
171
     0
290
     0
174
     0
 93
        1
 44
0.0
173
     0
291
     1
 45
0.0
1001
ACAD
1000
AcDbSavedByObjectVersion
1070
     0
  0
VISUALSTYLE
  5
FA1
102
{ACAD_XDICTIONARY
360
F107E6
102
}
102
{ACAD_REACTORS
330
F93
102
}
330
F93
100
AcDbVisualStyle
  2

 70
    14
 71
     2
 72
     2
 73
     0
 90
        0
 40
-0.6
 41
-30.0
 62
     5
 63
     7
 74
     1
 91
        4
 64
     7
 65
   257
 75
     7
175
     7
 42
1.0
 92
        8
 66
     7
 43
1.0
 76
     1
 77
     6
 78
     2
 67
     7
 79
     5
170
     0
171
     0
290
     0
174
     0
 93
        1
 44
0.0
173
     0
291
     1
 45
0.0
1001
ACAD
1000
AcDbSavedByObjectVersion
1070
     0
  0
VISUALSTYLE
  5
FA5
102
{ACAD_XDICTIONARY
360
F107EE
102
}
102
{ACAD_REACTORS
330
F93
102
}
330
F93
100
AcDbVisualStyle
  2

 70
    21
 71
     2
 72
     2
 73
     0
 90
        0
 40
-0.6
 41
-30.0
 62
     5
 63
     7
 74
     1
 91
        4
 64
     7
 65
   257
 75
     1
175
     1
 42
1.0
 92
        9
 66
     7
 43
1.0
 76
     1
 77
     6
 78
     2
 67
     7
 79
     5
170
     0
171
     0
290
     0
174
     0
 93
        1
 44
0.0
173
     0
291
     1
 45
0.0
1001
ACAD
1000
AcDbSavedByObjectVersion
1070
     0
  0
VISUALSTYLE
  5
F9D
102
{ACAD_XDICTIONARY
360
F107DE
102
}
102
{ACAD_REACTORS
330
F93
102
}
330
F93
100
AcDbVisualStyle
  2

 70
     8
 71
     2
 72
     2
 73
     0
 90
        0
 40
-0.6
 41
-30.0
 62
     5
 63
     7
 74
     1
 91
        0
 64
     7
 65
   257
 75
     1
175
     1
 42
1.0
 92
        8
 66
     8
 43
1.0
 76
     1
 77
     6
 78
     2
 67
     7
 79
     5
170
     0
171
     0
290
     0
174
     0
 93
       13
 44
0.0
173
     0
291
     0
 45
0.0
1001
ACAD
1000
AcDbSavedByObjectVersion
1070
     0
  0
VISUALSTYLE
  5
F103B7
102
{ACAD_XDICTIONARY
360
F10803
102
}
102
{ACAD_REACTORS
330
F93
102
}
330
F93
100
AcDbVisualStyle
  2

 70
    27
 71
     2
 72
     2
 73
     1
 90
        2
 40
-0.6
 41
30.0
 62
     5
 63
     7
 74
     0
 91
        4
 64
     7
 65
   257
 75
     1
175
     1
 42
1.0
 92
        8
 66
   257
 43
1.0
 76
     1
 77
     6
 78
     2
 67
     8
 79
     3
170
     0
171
     0
290
     0
174
     0
 93
        5
 44
0.0
173
     0
291
     0
 45
0.0
1001
ACAD
1000
AcDbSavedByObjectVersion
1070
     0
  0
VISUALSTYLE
  5
F103B6
102
{ACAD_XDICTIONARY
360
F10801
102
}
102
{ACAD_REACTORS
330
F93
102
}
330
F93
100
AcDbVisualStyle
  2

 70
    26
 71
     2
 72
     2
 73
     1
 90
        2
 40
-0.6
 41
30.0
 62
     5
 63
     7
 74
     1
 91
       10
 64
     7
 65
   257
 75
     2
175
     1
 42
1.0
 92
        8
 66
   257
 43
1.0
 76
     1
 77
     6
 78
     2
 67
     7
 79
     3
170
     0
171
     0
290
     0
174
     0
 93
        5
 44
0.0
173
     0
291
     0
 45
0.0
1001
ACAD
1000
AcDbSavedByObjectVersion
1070
     0
  0
VISUALSTYLE
  5
F103B3
102
{ACAD_XDICTIONARY
360
F107FB
102
}
102
{ACAD_REACTORS
330
F93
102
}
330
F93
100
AcDbVisualStyle
  2

 70
    23
 71
     2
 72
     2
 73
     3
 90
        0
 40
-0.6
 41
-30.0
 62
     5
 63
     7
 74
     2
 91
        2
 64
     7
 65
     7
 75
     1
175
     1
 42
40.0
 92
        8
 66
     7
 43
1.0
 76
     1
 77
     6
 78
     2
 67
     7
 79
     3
170
     0
171
     0
290
     0
174
     0
 93
        1
 44
0.0
173
     0
291
     0
 45
0.0
1001
ACAD
1000
AcDbSavedByObjectVersion
1070
     0
  0
VISUALSTYLE
  5
F103B4
102
{ACAD_XDICTIONARY
360
F107FD
102
}
102
{ACAD_REACTORS
330
F93
102
}
330
F93
100
AcDbVisualStyle
  2

 70
    24
 71
     1
 72
     2
 73
     2
 90
        0
 40
-0.6
 41
-30.0
 62
     5
 63
     7
 74
     2
 91
        2
 64
     7
 65
     7
 75
     1
175
     1
 42
40.0
 92
       11
 66
     7
 43
1.0
 76
     1
 77
     6
 78
     2
 67
     7
 79
     6
170
     0
171
     0
290
     0
174
     0
 93
        1
 44
0.0
173
     0
291
     0
 45
0.0
1001
ACAD
1000
AcDbSavedByObjectVersion
1070
     0
  0
VISUALSTYLE
  5
FA0
102
{ACAD_XDICTIONARY
360
F107E4
102
}
102
{ACAD_REACTORS
330
F93
102
}
330
F93
100
AcDbVisualStyle
  2

 70
    13
 71
     2
 72
     2
 73
     0
 90
        0
 40
-0.6
 41
-30.0
 62
     5
 63
     7
 74
     1
 91
        4
 64
     7
 65
   257
 75
     1
175
     1
 42
1.0
 92
       12
 66
     7
 43
1.0
 76
     1
 77
     6
 78
     2
 67
     7
 79
     5
170
     0
171
     0
290
     0
174
     0
 93
        1
 44
0.0
173
     0
291
     1
 45
0.0
1001
ACAD
1000
AcDbSavedByObjectVersion
1070
     0
  0
VISUALSTYLE
  5
F103B1
102
{ACAD_XDICTIONARY
360
F107F7
102
}
102
{ACAD_REACTORS
330
F93
102
}
330
F93
100
AcDbVisualStyle
  2

 70
     5
 71
     0
 72
     2
 73
     0
 90
        0
 40
-0.6
 41
-30.0
 62
     5
 63
     7
 74
     1
 91
        4
 64
     7
 65
   257
 75
     1
175
     1
 42
1.0
 92
        0
 66
   257
 43
1.0
 76
     1
 77
     6
 78
     2
 67
     7
 79
     3
170
     0
171
     0
290
     0
174
     0
 93
        1
 44
0.0
173
     0
291
     0
 45
0.0
1001
ACAD
1000
AcDbSavedByObjectVersion
1070
     0
  0
VISUALSTYLE
  5
F103B5
102
{ACAD_XDICTIONARY
360
F107FF
102
}
102
{ACAD_REACTORS
330
F93
102
}
330
F93
100
AcDbVisualStyle
  2

 70
    25
 71
     2
 72
     2
 73
     1
 90
        1
 40
0.5
 41
-30.0
 62
     5
 63
     7
 74
     1
 91
        0
 64
     7
 65
   257
 75
     1
175
     1
 42
1.0
 92
        8
 66
     7
 43
1.0
 76
     1
 77
     6
 78
     2
 67
     7
 79
     3
170
     0
171
     0
290
     0
174
     0
 93
       13
 44
0.0
173
     0
291
     0
 45
0.0
1001
ACAD
1000
AcDbSavedByObjectVersion
1070
     0
  0
DICTIONARYVAR
  5
F106F6
102
{ACAD_REACTORS
330
F106F3
102
}
330
F106F3
100
DictionaryVariables
280
     0
  1
1:1
  0
DICTIONARYVAR
  5
F106F5
102
{ACAD_REACTORS
330
F106F3
102
}
330
F106F3
100
DictionaryVariables
280
     0
  1
STANDARD
  0
DICTIONARYVAR
  5
F106F4
102
{ACAD_REACTORS
330
F106F3
102
}
330
F106F3
100
DictionaryVariables
280
     0
  1
STANDARD
  0
DICTIONARYVAR
  5
F106F9
102
{ACAD_REACTORS
330
F106F3
102
}
330
F106F3
100
DictionaryVariables
280
     0
  1
1
  0
DICTIONARYVAR
  5
F106F8
102
{ACAD_REACTORS
330
F106F3
102
}
330
F106F3
100
DictionaryVariables
280
     0
  1
0
  0
DICTIONARYVAR
  5
F106F7
102
{ACAD_REACTORS
330
F106F3
102
}
330
F106F3
100
DictionaryVariables
280
     0
  1
127
  0
DICTIONARYVAR
  5
F107B9
102
{ACAD_REACTORS
330
F106F3
102
}
330
F106F3
100
DictionaryVariables
280
     0
  1
2
  0
DICTIONARY
  5
F10411
102
{ACAD_REACTORS
330
F10406
102
}
330
F10406
100
AcDbDictionary
281
     1
  0
DICTIONARY
  5
F107F5
330
FD1
100
AcDbDictionary
280
     1
281
     1
  3
ACAD_XREC_ROUNDTRIP
360
F107F6
  0
DICTIONARY
  5
F107F3
330
FD0
100
AcDbDictionary
280
     1
281
     1
  3
ACAD_XREC_ROUNDTRIP
360
F107F4
  0
DICTIONARY
  5
F84
330
F83
100
AcDbDictionary
280
     1
281
     1
  3
ACAD_XREC_ROUNDTRIP
360
FFF
  3
BUMPTILE
360
F86
  3
DIFFUSETILE
360
F85
  3
OPACITYTILE
360
F89
  3
REFLECTIONTILE
360
F88
  3
REFRACTIONTILE
360
F8A
  3
SPECULARTILE
360
F87
  0
DICTIONARY
  5
F7C
330
F7B
100
AcDbDictionary
280
     1
281
     1
  3
ACAD_XREC_ROUNDTRIP
360
FFE
  3
BUMPTILE
360
F7E
  3
DIFFUSETILE
360
F7D
  3
OPACITYTILE
360
F81
  3
REFLECTIONTILE
360
F80
  3
REFRACTIONTILE
360
F82
  3
SPECULARTILE
360
F7F
  0
DICTIONARY
  5
F8C
330
F8B
100
AcDbDictionary
280
     1
281
     1
  3
ACAD_XREC_ROUNDTRIP
360
1000
  3
BUMPTILE
360
F8E
  3
DIFFUSETILE
360
F8D
  3
OPACITYTILE
360
F91
  3
REFLECTIONTILE
360
F90
  3
REFRACTIONTILE
360
F92
  3
SPECULARTILE
360
F8F
  0
DICTIONARY
  5
FF8
330
FA9
100
AcDbDictionary
280
     1
281
     1
  3
ACAD_ROUNDTRIP_2008_TABLESTYLE_CELLSTYLEMAP
360
F107BA
  3
ACAD_XREC_ROUNDTRIP
360
F107F2
  0
DICTIONARY
  5
F107D6
330
F99
100
AcDbDictionary
280
     1
281
     1
  3
ACAD_XREC_ROUNDTRIP
360
F107D7
  0
DICTIONARY
  5
F107DA
330
F9B
100
AcDbDictionary
280
     1
281
     1
  3
ACAD_XREC_ROUNDTRIP
360
F107DB
  0
DICTIONARY
  5
F107D8
330
F9A
100
AcDbDictionary
280
     1
281
     1
  3
ACAD_XREC_ROUNDTRIP
360
F107D9
  0
DICTIONARY
  5
F107D4
330
F98
100
AcDbDictionary
280
     1
281
     1
  3
ACAD_XREC_ROUNDTRIP
360
F107D5
  0
DICTIONARY
  5
F107E2
330
F9F
100
AcDbDictionary
280
     1
281
     1
  3
ACAD_XREC_ROUNDTRIP
360
F107E3
  0
DICTIONARY
  5
F107EA
330
FA3
100
AcDbDictionary
280
     1
281
     1
  3
ACAD_XREC_ROUNDTRIP
360
F107EB
  0
DICTIONARY
  5
F107DC
330
F9C
100
AcDbDictionary
280
     1
281
     1
  3
ACAD_XREC_ROUNDTRIP
360
F107DD
  0
DICTIONARY
  5
F107E0
330
F9E
100
AcDbDictionary
280
     1
281
     1
  3
ACAD_XREC_ROUNDTRIP
360
F107E1
  0
DICTIONARY
  5
F107F0
330
FA6
100
AcDbDictionary
280
     1
281
     1
  3
ACAD_XREC_ROUNDTRIP
360
F107F1
  0
DICTIONARY
  5
F107E8
330
FA2
100
AcDbDictionary
280
     1
281
     1
  3
ACAD_XREC_ROUNDTRIP
360
F107E9
  0
DICTIONARY
  5
F107CC
330
F94
100
AcDbDictionary
280
     1
281
     1
  3
ACAD_XREC_ROUNDTRIP
360
F107CD
  0
DICTIONARY
  5
F107CE
330
F95
100
AcDbDictionary
280
     1
281
     1
  3
ACAD_XREC_ROUNDTRIP
360
F107CF
  0
DICTIONARY
  5
F107D0
330
F96
100
AcDbDictionary
280
     1
281
     1
  3
ACAD_XREC_ROUNDTRIP
360
F107D1
  0
DICTIONARY
  5
F107D2
330
F97
100
AcDbDictionary
280
     1
281
     1
  3
ACAD_XREC_ROUNDTRIP
360
F107D3
  0
DICTIONARY
  5
F107F9
330
F103B2
100
AcDbDictionary
280
     1
281
     1
  3
ACAD_XREC_ROUNDTRIP
360
F107FA
  0
DICTIONARY
  5
F107EC
330
FA4
100
AcDbDictionary
280
     1
281
     1
  3
ACAD_XREC_ROUNDTRIP
360
F107ED
  0
DICTIONARY
  5
F107E6
330
FA1
100
AcDbDictionary
280
     1
281
     1
  3
ACAD_XREC_ROUNDTRIP
360
F107E7
  0
DICTIONARY
  5
F107EE
330
FA5
100
AcDbDictionary
280
     1
281
     1
  3
ACAD_XREC_ROUNDTRIP
360
F107EF
  0
DICTIONARY
  5
F107DE
330
F9D
100
AcDbDictionary
280
     1
281
     1
  3
ACAD_XREC_ROUNDTRIP
360
F107DF
  0
DICTIONARY
  5
F10803
330
F103B7
100
AcDbDictionary
280
     1
281
     1
  3
ACAD_XREC_ROUNDTRIP
360
F10804
  0
DICTIONARY
  5
F10801
330
F103B6
100
AcDbDictionary
280
     1
281
     1
  3
ACAD_XREC_ROUNDTRIP
360
F10802
  0
DICTIONARY
  5
F107FB
330
F103B3
100
AcDbDictionary
280
     1
281
     1
  3
ACAD_XREC_ROUNDTRIP
360
F107FC
  0
DICTIONARY
  5
F107FD
330
F103B4
100
AcDbDictionary
280
     1
281
     1
  3
ACAD_XREC_ROUNDTRIP
360
F107FE
  0
DICTIONARY
  5
F107E4
330
FA0
100
AcDbDictionary
280
     1
281
     1
  3
ACAD_XREC_ROUNDTRIP
360
F107E5
  0
DICTIONARY
  5
F107F7
330
F103B1
100
AcDbDictionary
280
     1
281
     1
  3
ACAD_XREC_ROUNDTRIP
360
F107F8
  0
DICTIONARY
  5
F107FF
330
F103B5
100
AcDbDictionary
280
     1
281
     1
  3
ACAD_XREC_ROUNDTRIP
360
F10800
  0
XRECORD
  5
F107F6
102
{ACAD_REACTORS
330
F107F5
102
}
330
F107F5
100
AcDbXrecord
280
     1
102
SHADEPLOT
 70
     0
102
SHADEPLOTRESLEVEL
 70
     2
102
SHADEPLOTCUSTOMDPI
 70
   300
  0
XRECORD
  5
F107F4
102
{ACAD_REACTORS
330
F107F3
102
}
330
F107F3
100
AcDbXrecord
280
     1
102
SHADEPLOT
 70
     0
102
SHADEPLOTRESLEVEL
 70
     2
102
SHADEPLOTCUSTOMDPI
 70
   300
  0
XRECORD
  5
FFF
102
{ACAD_REACTORS
330
F84
102
}
330
F84
100
AcDbXrecord
280
     1
102
MATERIAL
148
0.0
149
0.0
149
0.0
 93
        0
 94
      127
282
     0
 72
     0
 77
     0
171
     0
175
     0
179
     0
273
     0
  0
XRECORD
  5
F86
102
{ACAD_REACTORS
330
F84
102
}
330
F84
100
AcDbXrecord
280
     1
270
     1
271
     1
  0
XRECORD
  5
F85
102
{ACAD_REACTORS
330
F84
102
}
330
F84
100
AcDbXrecord
280
     1
270
     1
271
     1
  0
XRECORD
  5
F89
102
{ACAD_REACTORS
330
F84
102
}
330
F84
100
AcDbXrecord
280
     1
270
     1
271
     1
  0
XRECORD
  5
F88
102
{ACAD_REACTORS
330
F84
102
}
330
F84
100
AcDbXrecord
280
     1
270
     1
271
     1
  0
XRECORD
  5
F8A
102
{ACAD_REACTORS
330
F84
102
}
330
F84
100
AcDbXrecord
280
     1
270
     1
271
     1
  0
XRECORD
  5
F87
102
{ACAD_REACTORS
330
F84
102
}
330
F84
100
AcDbXrecord
280
     1
270
     1
271
     1
  0
XRECORD
  5
FFE
102
{ACAD_REACTORS
330
F7C
102
}
330
F7C
100
AcDbXrecord
280
     1
102
MATERIAL
148
0.0
149
0.0
149
0.0
 93
        0
 94
      127
282
     0
 72
     0
 77
     0
171
     0
175
     0
179
     0
273
     0
  0
XRECORD
  5
F7E
102
{ACAD_REACTORS
330
F7C
102
}
330
F7C
100
AcDbXrecord
280
     1
270
     1
271
     1
  0
XRECORD
  5
F7D
102
{ACAD_REACTORS
330
F7C
102
}
330
F7C
100
AcDbXrecord
280
     1
270
     1
271
     1
  0
XRECORD
  5
F81
102
{ACAD_REACTORS
330
F7C
102
}
330
F7C
100
AcDbXrecord
280
     1
270
     1
271
     1
  0
XRECORD
  5
F80
102
{ACAD_REACTORS
330
F7C
102
}
330
F7C
100
AcDbXrecord
280
     1
270
     1
271
     1
  0
XRECORD
  5
F82
102
{ACAD_REACTORS
330
F7C
102
}
330
F7C
100
AcDbXrecord
280
     1
270
     1
271
     1
  0
XRECORD
  5
F7F
102
{ACAD_REACTORS
330
F7C
102
}
330
F7C
100
AcDbXrecord
280
     1
270
     1
271
     1
  0
XRECORD
  5
1000
102
{ACAD_REACTORS
330
F8C
102
}
330
F8C
100
AcDbXrecord
280
     1
102
MATERIAL
148
0.0
149
0.0
149
0.0
 93
        0
 94
      127
282
     0
 72
     0
 77
     0
171
     0
175
     0
179
     0
273
     0
  0
XRECORD
  5
F8E
102
{ACAD_REACTORS
330
F8C
102
}
330
F8C
100
AcDbXrecord
280
     1
270
     1
271
     1
  0
XRECORD
  5
F8D
102
{ACAD_REACTORS
330
F8C
102
}
330
F8C
100
AcDbXrecord
280
     1
270
     1
271
     1
  0
XRECORD
  5
F91
102
{ACAD_REACTORS
330
F8C
102
}
330
F8C
100
AcDbXrecord
280
     1
270
     1
271
     1
  0
XRECORD
  5
F90
102
{ACAD_REACTORS
330
F8C
102
}
330
F8C
100
AcDbXrecord
280
     1
270
     1
271
     1
  0
XRECORD
  5
F92
102
{ACAD_REACTORS
330
F8C
102
}
330
F8C
100
AcDbXrecord
280
     1
270
     1
271
     1
  0
XRECORD
  5
F8F
102
{ACAD_REACTORS
330
F8C
102
}
330
F8C
100
AcDbXrecord
280
     1
270
     1
271
     1
  0
CELLSTYLEMAP
  5
F107BA
102
{ACAD_REACTORS
330
FF8
102
}
330
FF8
100
AcDbCellStyleMap
 90
        3
300
CELLSTYLE
  1
TABLEFORMAT_BEGIN
 90
        5
170
     1
 91
        0
 92
    32768
 62
   257
 93
        1
300
CONTENTFORMAT
  1
CONTENTFORMAT_BEGIN
 90
        0
 91
        0
 92
      512
 93
        0
300

 40
0.0
140
1.0
 94
        5
 62
     0
340
253
144
0.25
309
CONTENTFORMAT_END
171
     1
301
MARGIN
  1
CELLMARGIN_BEGIN
 40
0.06
 40
0.06
 40
0.06
 40
0.06
 40
0.18
 40
0.18
309
CELLMARGIN_END
 94
        6
 95
        1
302
GRIDFORMAT
  1
GRIDFORMAT_BEGIN
 90
        0
 91
        1
 62
     0
 92
       -2
340
0
 93
        0
 40
0.045
309
GRIDFORMAT_END
 95
        2
302
GRIDFORMAT
  1
GRIDFORMAT_BEGIN
 90
        0
 91
        1
 62
     0
 92
       -2
340
0
 93
        0
 40
0.045
309
GRIDFORMAT_END
 95
        4
302
GRIDFORMAT
  1
GRIDFORMAT_BEGIN
 90
        0
 91
        1
 62
     0
 92
       -2
340
0
 93
        0
 40
0.045
309
GRIDFORMAT_END
 95
        8
302
GRIDFORMAT
  1
GRIDFORMAT_BEGIN
 90
        0
 91
        1
 62
     0
 92
       -2
340
0
 93
        0
 40
0.045
309
GRIDFORMAT_END
 95
       16
302
GRIDFORMAT
  1
GRIDFORMAT_BEGIN
 90
        0
 91
        1
 62
     0
 92
       -2
340
0
 93
        0
 40
0.045
309
GRIDFORMAT_END
 95
       32
302
GRIDFORMAT
  1
GRIDFORMAT_BEGIN
 90
        0
 91
        1
 62
     0
 92
       -2
340
0
 93
        0
 40
0.045
309
GRIDFORMAT_END
309
TABLEFORMAT_END
  1
CELLSTYLE_BEGIN
 90
        1
 91
        1
300
_TITLE
309
CELLSTYLE_END
300
CELLSTYLE
  1
TABLEFORMAT_BEGIN
 90
        5
170
     1
 91
        0
 92
        0
 62
   257
 93
        1
300
CONTENTFORMAT
  1
CONTENTFORMAT_BEGIN
 90
        0
 91
        0
 92
      512
 93
        0
300

 40
0.0
140
1.0
 94
        5
 62
     0
340
253
144
0.18
309
CONTENTFORMAT_END
171
     1
301
MARGIN
  1
CELLMARGIN_BEGIN
 40
0.06
 40
0.06
 40
0.06
 40
0.06
 40
0.18
 40
0.18
309
CELLMARGIN_END
 94
        6
 95
        1
302
GRIDFORMAT
  1
GRIDFORMAT_BEGIN
 90
        0
 91
        1
 62
     0
 92
       -2
340
0
 93
        0
 40
0.045
309
GRIDFORMAT_END
 95
        2
302
GRIDFORMAT
  1
GRIDFORMAT_BEGIN
 90
        0
 91
        1
 62
     0
 92
       -2
340
0
 93
        0
 40
0.045
309
GRIDFORMAT_END
 95
        4
302
GRIDFORMAT
  1
GRIDFORMAT_BEGIN
 90
        0
 91
        1
 62
     0
 92
       -2
340
0
 93
        0
 40
0.045
309
GRIDFORMAT_END
 95
        8
302
GRIDFORMAT
  1
GRIDFORMAT_BEGIN
 90
        0
 91
        1
 62
     0
 92
       -2
340
0
 93
        0
 40
0.045
309
GRIDFORMAT_END
 95
       16
302
GRIDFORMAT
  1
GRIDFORMAT_BEGIN
 90
        0
 91
        1
 62
     0
 92
       -2
340
0
 93
        0
 40
0.045
309
GRIDFORMAT_END
 95
       32
302
GRIDFORMAT
  1
GRIDFORMAT_BEGIN
 90
        0
 91
        1
 62
     0
 92
       -2
340
0
 93
        0
 40
0.045
309
GRIDFORMAT_END
309
TABLEFORMAT_END
  1
CELLSTYLE_BEGIN
 90
        2
 91
        1
300
_HEADER
309
CELLSTYLE_END
300
CELLSTYLE
  1
TABLEFORMAT_BEGIN
 90
        5
170
     1
 91
        0
 92
        0
 62
   257
 93
        1
300
CONTENTFORMAT
  1
CONTENTFORMAT_BEGIN
 90
        0
 91
        0
 92
      512
 93
        0
300

 40
0.0
140
1.0
 94
        2
 62
     0
340
253
144
0.18
309
CONTENTFORMAT_END
171
     1
301
MARGIN
  1
CELLMARGIN_BEGIN
 40
0.06
 40
0.06
 40
0.06
 40
0.06
 40
0.18
 40
0.18
309
CELLMARGIN_END
 94
        6
 95
        1
302
GRIDFORMAT
  1
GRIDFORMAT_BEGIN
 90
        0
 91
        1
 62
     0
 92
       -2
340
0
 93
        0
 40
0.045
309
GRIDFORMAT_END
 95
        2
302
GRIDFORMAT
  1
GRIDFORMAT_BEGIN
 90
        0
 91
        1
 62
     0
 92
       -2
340
0
 93
        0
 40
0.045
309
GRIDFORMAT_END
 95
        4
302
GRIDFORMAT
  1
GRIDFORMAT_BEGIN
 90
        0
 91
        1
 62
     0
 92
       -2
340
0
 93
        0
 40
0.045
309
GRIDFORMAT_END
 95
        8
302
GRIDFORMAT
  1
GRIDFORMAT_BEGIN
 90
        0
 91
        1
 62
     0
 92
       -2
340
0
 93
        0
 40
0.045
309
GRIDFORMAT_END
 95
       16
302
GRIDFORMAT
  1
GRIDFORMAT_BEGIN
 90
        0
 91
        1
 62
     0
 92
       -2
340
0
 93
        0
 40
0.045
309
GRIDFORMAT_END
 95
       32
302
GRIDFORMAT
  1
GRIDFORMAT_BEGIN
 90
        0
 91
        1
 62
     0
 92
       -2
340
0
 93
        0
 40
0.045
309
GRIDFORMAT_END
309
TABLEFORMAT_END
  1
CELLSTYLE_BEGIN
 90
        3
 91
        2
300
_DATA
309
CELLSTYLE_END
  0
XRECORD
  5
F107F2
102
{ACAD_REACTORS
330
FF8
102
}
330
FF8
100
AcDbXrecord
280
     1
102
ACAD_ROUNDTRIP_PRE2007_TABLESTYLE
 90
      512
 91
        0
  1

 92
      512
 93
        0
  2

 94
      512
 95
        0
  3

  0
XRECORD
  5
F107D7
102
{ACAD_REACTORS
330
F107D6
102
}
330
F107D6
100
AcDbXrecord
280
     1
102
RTVSPropertyOp0
 70
     1
102
RTVSPropertyOp1
 70
     1
102
RTVSPropertyOp2
 70
     1
102
RTVSPropertyOp3
 70
     1
102
RTVSPropertyOp4
 70
     1
102
RTVSPropertyOp5
 70
     1
102
RTVSPropertyOp6
 70
     1
102
RTVSPropertyOp7
 70
     1
102
RTVSPropertyOp8
 70
     1
102
RTVSPropertyOp9
 70
     1
102
RTVSPropertyOp10
 70
     1
102
RTVSPropertyOp11
 70
     1
102
RTVSPropertyOp12
 70
     1
102
RTVSPropertyOp13
 70
     1
102
RTVSPropertyOp14
 70
     1
102
RTVSPropertyOp15
 70
     1
102
RTVSPropertyOp16
 70
     1
102
RTVSPropertyOp17
 70
     1
102
RTVSPropertyOp18
 70
     1
102
RTVSPropertyOp19
 70
     1
102
RTVSPropertyOp20
 70
     1
102
RTVSPropertyOp21
 70
     1
102
RTVSPropertyOp22
 70
     1
102
RTVSPropertyOp23
 70
     1
102
RTVSPropertyOp24
 70
     1
102
RTVSPropertyOp25
 70
     1
102
RTVSPropertyOp26
 70
     1
102
RTVSPropertyOp27
 70
     1
102
RTVSPropertyOp28
 70
     1
102
RTVSPropertyOp29
 70
     1
102
RTVSPropertyOp30
 70
     1
102
RTVSPropertyOp31
 70
     1
102
RTVSPropertyOp32
 70
     1
  0
XRECORD
  5
F107DB
102
{ACAD_REACTORS
330
F107DA
102
}
330
F107DA
100
AcDbXrecord
280
     1
102
RTVSPropertyOp0
 70
     1
102
RTVSPropertyOp1
 70
     1
102
RTVSPropertyOp2
 70
     1
102
RTVSPropertyOp3
 70
     1
102
RTVSPropertyOp4
 70
     1
102
RTVSPropertyOp5
 70
     1
102
RTVSPropertyOp6
 70
     1
102
RTVSPropertyOp7
 70
     1
102
RTVSPropertyOp8
 70
     1
102
RTVSPropertyOp9
 70
     1
102
RTVSPropertyOp10
 70
     1
102
RTVSPropertyOp11
 70
     1
102
RTVSPropertyOp12
 70
     1
102
RTVSPropertyOp13
 70
     1
102
RTVSPropertyOp14
 70
     1
102
RTVSPropertyOp15
 70
     1
102
RTVSPropertyOp16
 70
     1
102
RTVSPropertyOp17
 70
     1
102
RTVSPropertyOp18
 70
     1
102
RTVSPropertyOp19
 70
     1
102
RTVSPropertyOp20
 70
     1
102
RTVSPropertyOp21
 70
     1
102
RTVSPropertyOp22
 70
     1
102
RTVSPropertyOp23
 70
     1
102
RTVSPropertyOp24
 70
     1
102
RTVSPropertyOp25
 70
     1
102
RTVSPropertyOp26
 70
     1
102
RTVSPropertyOp27
 70
     1
102
RTVSPropertyOp28
 70
     1
102
RTVSPropertyOp29
 70
     1
102
RTVSPropertyOp30
 70
     1
102
RTVSPropertyOp31
 70
     1
102
RTVSPropertyOp32
 70
     1
  0
XRECORD
  5
F107D9
102
{ACAD_REACTORS
330
F107D8
102
}
330
F107D8
100
AcDbXrecord
280
     1
102
RTVSPropertyOp0
 70
     1
102
RTVSPropertyOp1
 70
     1
102
RTVSPropertyOp2
 70
     1
102
RTVSPropertyOp3
 70
     1
102
RTVSPropertyOp4
 70
     1
102
RTVSPropertyOp5
 70
     1
102
RTVSPropertyOp6
 70
     1
102
RTVSPropertyOp7
 70
     1
102
RTVSPropertyOp8
 70
     1
102
RTVSPropertyOp9
 70
     1
102
RTVSPropertyOp10
 70
     1
102
RTVSPropertyOp11
 70
     1
102
RTVSPropertyOp12
 70
     1
102
RTVSPropertyOp13
 70
     1
102
RTVSPropertyOp14
 70
     1
102
RTVSPropertyOp15
 70
     1
102
RTVSPropertyOp16
 70
     1
102
RTVSPropertyOp17
 70
     1
102
RTVSPropertyOp18
 70
     1
102
RTVSPropertyOp19
 70
     1
102
RTVSPropertyOp20
 70
     1
102
RTVSPropertyOp21
 70
     1
102
RTVSPropertyOp22
 70
     1
102
RTVSPropertyOp23
 70
     1
102
RTVSPropertyOp24
 70
     1
102
RTVSPropertyOp25
 70
     1
102
RTVSPropertyOp26
 70
     1
102
RTVSPropertyOp27
 70
     1
102
RTVSPropertyOp28
 70
     1
102
RTVSPropertyOp29
 70
     1
102
RTVSPropertyOp30
 70
     1
102
RTVSPropertyOp31
 70
     1
102
RTVSPropertyOp32
 70
     1
  0
XRECORD
  5
F107D5
102
{ACAD_REACTORS
330
F107D4
102
}
330
F107D4
100
AcDbXrecord
280
     1
102
RTVSPropertyOp0
 70
     1
102
RTVSPropertyOp1
 70
     1
102
RTVSPropertyOp2
 70
     1
102
RTVSPropertyOp3
 70
     1
102
RTVSPropertyOp4
 70
     1
102
RTVSPropertyOp5
 70
     1
102
RTVSPropertyOp6
 70
     1
102
RTVSPropertyOp7
 70
     1
102
RTVSPropertyOp8
 70
     1
102
RTVSPropertyOp9
 70
     1
102
RTVSPropertyOp10
 70
     1
102
RTVSPropertyOp11
 70
     1
102
RTVSPropertyOp12
 70
     1
102
RTVSPropertyOp13
 70
     1
102
RTVSPropertyOp14
 70
     1
102
RTVSPropertyOp15
 70
     1
102
RTVSPropertyOp16
 70
     1
102
RTVSPropertyOp17
 70
     1
102
RTVSPropertyOp18
 70
     1
102
RTVSPropertyOp19
 70
     1
102
RTVSPropertyOp20
 70
     1
102
RTVSPropertyOp21
 70
     1
102
RTVSPropertyOp22
 70
     1
102
RTVSPropertyOp23
 70
     1
102
RTVSPropertyOp24
 70
     1
102
RTVSPropertyOp25
 70
     1
102
RTVSPropertyOp26
 70
     1
102
RTVSPropertyOp27
 70
     1
102
RTVSPropertyOp28
 70
     1
102
RTVSPropertyOp29
 70
     1
102
RTVSPropertyOp30
 70
     1
102
RTVSPropertyOp31
 70
     1
102
RTVSPropertyOp32
 70
     1
  0
XRECORD
  5
F107E3
102
{ACAD_REACTORS
330
F107E2
102
}
330
F107E2
100
AcDbXrecord
280
     1
102
RTVSPropertyOp0
 70
     1
102
RTVSPropertyOp1
 70
     1
102
RTVSPropertyOp2
 70
     1
102
RTVSPropertyOp3
 70
     1
102
RTVSPropertyOp4
 70
     1
102
RTVSPropertyOp5
 70
     1
102
RTVSPropertyOp6
 70
     1
102
RTVSPropertyOp7
 70
     1
102
RTVSPropertyOp8
 70
     1
102
RTVSPropertyOp9
 70
     1
102
RTVSPropertyOp10
 70
     1
102
RTVSPropertyOp11
 70
     1
102
RTVSPropertyOp12
 70
     1
102
RTVSPropertyOp13
 70
     1
102
RTVSPropertyOp14
 70
     1
102
RTVSPropertyOp15
 70
     1
102
RTVSPropertyOp16
 70
     1
102
RTVSPropertyOp17
 70
     1
102
RTVSPropertyOp18
 70
     1
102
RTVSPropertyOp19
 70
     1
102
RTVSPropertyOp20
 70
     1
102
RTVSPropertyOp21
 70
     1
102
RTVSPropertyOp22
 70
     1
102
RTVSPropertyOp23
 70
     1
102
RTVSPropertyOp24
 70
     1
102
RTVSPropertyOp25
 70
     1
102
RTVSPropertyOp26
 70
     1
102
RTVSPropertyOp27
 70
     1
102
RTVSPropertyOp28
 70
     1
102
RTVSPropertyOp29
 70
     1
102
RTVSPropertyOp30
 70
     1
102
RTVSPropertyOp31
 70
     1
102
RTVSPropertyOp32
 70
     1
  0
XRECORD
  5
F107EB
102
{ACAD_REACTORS
330
F107EA
102
}
330
F107EA
100
AcDbXrecord
280
     1
102
RTVSPropertyOp0
 70
     1
102
RTVSPropertyOp1
 70
     1
102
RTVSPropertyOp2
 70
     1
102
RTVSPropertyOp3
 70
     1
102
RTVSPropertyOp4
 70
     1
102
RTVSPropertyOp5
 70
     1
102
RTVSPropertyOp6
 70
     1
102
RTVSPropertyOp7
 70
     1
102
RTVSPropertyOp8
 70
     1
102
RTVSPropertyOp9
 70
     1
102
RTVSPropertyOp10
 70
     1
102
RTVSPropertyOp11
 70
     1
102
RTVSPropertyOp12
 70
     1
102
RTVSPropertyOp13
 70
     1
102
RTVSPropertyOp14
 70
     1
102
RTVSPropertyOp15
 70
     1
102
RTVSPropertyOp16
 70
     1
102
RTVSPropertyOp17
 70
     1
102
RTVSPropertyOp18
 70
     1
102
RTVSPropertyOp19
 70
     1
102
RTVSPropertyOp20
 70
     1
102
RTVSPropertyOp21
 70
     1
102
RTVSPropertyOp22
 70
     1
102
RTVSPropertyOp23
 70
     1
102
RTVSPropertyOp24
 70
     1
102
RTVSPropertyOp25
 70
     1
102
RTVSPropertyOp26
 70
     1
102
RTVSPropertyOp27
 70
     1
102
RTVSPropertyOp28
 70
     1
102
RTVSPropertyOp29
 70
     1
102
RTVSPropertyOp30
 70
     1
102
RTVSPropertyOp31
 70
     1
102
RTVSPropertyOp32
 70
     1
  0
XRECORD
  5
F107DD
102
{ACAD_REACTORS
330
F107DC
102
}
330
F107DC
100
AcDbXrecord
280
     1
102
RTVSPropertyOp0
 70
     1
102
RTVSPropertyOp1
 70
     1
102
RTVSPropertyOp2
 70
     1
102
RTVSPropertyOp3
 70
     1
102
RTVSPropertyOp4
 70
     1
102
RTVSPropertyOp5
 70
     1
102
RTVSPropertyOp6
 70
     1
102
RTVSPropertyOp7
 70
     1
102
RTVSPropertyOp8
 70
     1
102
RTVSPropertyOp9
 70
     1
102
RTVSPropertyOp10
 70
     1
102
RTVSPropertyOp11
 70
     1
102
RTVSPropertyOp12
 70
     1
102
RTVSPropertyOp13
 70
     1
102
RTVSPropertyOp14
 70
     1
102
RTVSPropertyOp15
 70
     1
102
RTVSPropertyOp16
 70
     1
102
RTVSPropertyOp17
 70
     1
102
RTVSPropertyOp18
 70
     1
102
RTVSPropertyOp19
 70
     1
102
RTVSPropertyOp20
 70
     1
102
RTVSPropertyOp21
 70
     1
102
RTVSPropertyOp22
 70
     1
102
RTVSPropertyOp23
 70
     1
102
RTVSPropertyOp24
 70
     1
102
RTVSPropertyOp25
 70
     1
102
RTVSPropertyOp26
 70
     1
102
RTVSPropertyOp27
 70
     1
102
RTVSPropertyOp28
 70
     1
102
RTVSPropertyOp29
 70
     1
102
RTVSPropertyOp30
 70
     1
102
RTVSPropertyOp31
 70
     1
102
RTVSPropertyOp32
 70
     1
  0
XRECORD
  5
F107E1
102
{ACAD_REACTORS
330
F107E0
102
}
330
F107E0
100
AcDbXrecord
280
     1
102
RTVSPropertyOp0
 70
     1
102
RTVSPropertyOp1
 70
     1
102
RTVSPropertyOp2
 70
     1
102
RTVSPropertyOp3
 70
     1
102
RTVSPropertyOp4
 70
     1
102
RTVSPropertyOp5
 70
     1
102
RTVSPropertyOp6
 70
     1
102
RTVSPropertyOp7
 70
     1
102
RTVSPropertyOp8
 70
     1
102
RTVSPropertyOp9
 70
     1
102
RTVSPropertyOp10
 70
     1
102
RTVSPropertyOp11
 70
     1
102
RTVSPropertyOp12
 70
     1
102
RTVSPropertyOp13
 70
     1
102
RTVSPropertyOp14
 70
     1
102
RTVSPropertyOp15
 70
     1
102
RTVSPropertyOp16
 70
     1
102
RTVSPropertyOp17
 70
     1
102
RTVSPropertyOp18
 70
     1
102
RTVSPropertyOp19
 70
     1
102
RTVSPropertyOp20
 70
     1
102
RTVSPropertyOp21
 70
     1
102
RTVSPropertyOp22
 70
     1
102
RTVSPropertyOp23
 70
     1
102
RTVSPropertyOp24
 70
     1
102
RTVSPropertyOp25
 70
     1
102
RTVSPropertyOp26
 70
     1
102
RTVSPropertyOp27
 70
     1
102
RTVSPropertyOp28
 70
     1
102
RTVSPropertyOp29
 70
     1
102
RTVSPropertyOp30
 70
     1
102
RTVSPropertyOp31
 70
     1
102
RTVSPropertyOp32
 70
     1
  0
XRECORD
  5
F107F1
102
{ACAD_REACTORS
330
F107F0
102
}
330
F107F0
100
AcDbXrecord
280
     1
102
RTVSPropertyOp0
 70
     0
102
RTVSPropertyOp1
 70
     0
102
RTVSPropertyOp2
 70
     0
102
RTVSPropertyOp3
 70
     0
102
RTVSPropertyOp4
 70
     0
102
RTVSPropertyOp5
 70
     0
102
RTVSPropertyOp6
 70
     0
102
RTVSPropertyOp7
 70
     0
102
RTVSPropertyOp8
 70
     0
102
RTVSPropertyOp9
 70
     0
102
RTVSPropertyOp10
 70
     0
102
RTVSPropertyOp11
 70
     0
102
RTVSPropertyOp12
 70
     0
102
RTVSPropertyOp13
 70
     0
102
RTVSPropertyOp14
 70
     2
102
RTVSPropertyOp15
 70
     0
102
RTVSPropertyOp16
 70
     0
102
RTVSPropertyOp17
 70
     0
102
RTVSPropertyOp18
 70
     0
102
RTVSPropertyOp19
 70
     0
102
RTVSPropertyOp20
 70
     0
102
RTVSPropertyOp21
 70
     0
102
RTVSPropertyOp22
 70
     0
102
RTVSPropertyOp23
 70
     0
102
RTVSPropertyOp24
 70
     0
102
RTVSPropertyOp25
 70
     0
102
RTVSPropertyOp26
 70
     0
102
RTVSPropertyOp27
 70
     0
102
RTVSPropertyOp28
 70
     1
102
RTVSPropertyOp29
 70
     1
102
RTVSPropertyOp30
 70
     1
102
RTVSPropertyOp31
 70
     1
102
RTVSPropertyOp32
 70
     1
  0
XRECORD
  5
F107E9
102
{ACAD_REACTORS
330
F107E8
102
}
330
F107E8
100
AcDbXrecord
280
     1
102
RTVSPropertyOp0
 70
     1
102
RTVSPropertyOp1
 70
     1
102
RTVSPropertyOp2
 70
     1
102
RTVSPropertyOp3
 70
     1
102
RTVSPropertyOp4
 70
     1
102
RTVSPropertyOp5
 70
     1
102
RTVSPropertyOp6
 70
     1
102
RTVSPropertyOp7
 70
     1
102
RTVSPropertyOp8
 70
     1
102
RTVSPropertyOp9
 70
     1
102
RTVSPropertyOp10
 70
     1
102
RTVSPropertyOp11
 70
     1
102
RTVSPropertyOp12
 70
     1
102
RTVSPropertyOp13
 70
     1
102
RTVSPropertyOp14
 70
     1
102
RTVSPropertyOp15
 70
     1
102
RTVSPropertyOp16
 70
     1
102
RTVSPropertyOp17
 70
     1
102
RTVSPropertyOp18
 70
     1
102
RTVSPropertyOp19
 70
     1
102
RTVSPropertyOp20
 70
     1
102
RTVSPropertyOp21
 70
     1
102
RTVSPropertyOp22
 70
     1
102
RTVSPropertyOp23
 70
     1
102
RTVSPropertyOp24
 70
     1
102
RTVSPropertyOp25
 70
     1
102
RTVSPropertyOp26
 70
     1
102
RTVSPropertyOp27
 70
     1
102
RTVSPropertyOp28
 70
     1
102
RTVSPropertyOp29
 70
     1
102
RTVSPropertyOp30
 70
     1
102
RTVSPropertyOp31
 70
     1
102
RTVSPropertyOp32
 70
     1
  0
XRECORD
  5
F107CD
102
{ACAD_REACTORS
330
F107CC
102
}
330
F107CC
100
AcDbXrecord
280
     1
102
RTVSPropertyOp0
 70
     1
102
RTVSPropertyOp1
 70
     1
102
RTVSPropertyOp2
 70
     1
102
RTVSPropertyOp3
 70
     1
102
RTVSPropertyOp4
 70
     1
102
RTVSPropertyOp5
 70
     1
102
RTVSPropertyOp6
 70
     1
102
RTVSPropertyOp7
 70
     1
102
RTVSPropertyOp8
 70
     1
102
RTVSPropertyOp9
 70
     1
102
RTVSPropertyOp10
 70
     1
102
RTVSPropertyOp11
 70
     1
102
RTVSPropertyOp12
 70
     1
102
RTVSPropertyOp13
 70
     1
102
RTVSPropertyOp14
 70
     1
102
RTVSPropertyOp15
 70
     1
102
RTVSPropertyOp16
 70
     1
102
RTVSPropertyOp17
 70
     1
102
RTVSPropertyOp18
 70
     1
102
RTVSPropertyOp19
 70
     1
102
RTVSPropertyOp20
 70
     1
102
RTVSPropertyOp21
 70
     1
102
RTVSPropertyOp22
 70
     1
102
RTVSPropertyOp23
 70
     1
102
RTVSPropertyOp24
 70
     1
102
RTVSPropertyOp25
 70
     1
102
RTVSPropertyOp26
 70
     1
102
RTVSPropertyOp27
 70
     1
102
RTVSPropertyOp28
 70
     1
102
RTVSPropertyOp29
 70
     1
102
RTVSPropertyOp30
 70
     1
102
RTVSPropertyOp31
 70
     1
102
RTVSPropertyOp32
 70
     1
  0
XRECORD
  5
F107CF
102
{ACAD_REACTORS
330
F107CE
102
}
330
F107CE
100
AcDbXrecord
280
     1
102
RTVSPropertyOp0
 70
     1
102
RTVSPropertyOp1
 70
     1
102
RTVSPropertyOp2
 70
     1
102
RTVSPropertyOp3
 70
     1
102
RTVSPropertyOp4
 70
     1
102
RTVSPropertyOp5
 70
     1
102
RTVSPropertyOp6
 70
     1
102
RTVSPropertyOp7
 70
     1
102
RTVSPropertyOp8
 70
     1
102
RTVSPropertyOp9
 70
     1
102
RTVSPropertyOp10
 70
     1
102
RTVSPropertyOp11
 70
     1
102
RTVSPropertyOp12
 70
     1
102
RTVSPropertyOp13
 70
     1
102
RTVSPropertyOp14
 70
     1
102
RTVSPropertyOp15
 70
     1
102
RTVSPropertyOp16
 70
     1
102
RTVSPropertyOp17
 70
     1
102
RTVSPropertyOp18
 70
     1
102
RTVSPropertyOp19
 70
     1
102
RTVSPropertyOp20
 70
     1
102
RTVSPropertyOp21
 70
     1
102
RTVSPropertyOp22
 70
     1
102
RTVSPropertyOp23
 70
     1
102
RTVSPropertyOp24
 70
     1
102
RTVSPropertyOp25
 70
     1
102
RTVSPropertyOp26
 70
     1
102
RTVSPropertyOp27
 70
     1
102
RTVSPropertyOp28
 70
     1
102
RTVSPropertyOp29
 70
     1
102
RTVSPropertyOp30
 70
     1
102
RTVSPropertyOp31
 70
     1
102
RTVSPropertyOp32
 70
     1
  0
XRECORD
  5
F107D1
102
{ACAD_REACTORS
330
F107D0
102
}
330
F107D0
100
AcDbXrecord
280
     1
102
RTVSPropertyOp0
 70
     1
102
RTVSPropertyOp1
 70
     1
102
RTVSPropertyOp2
 70
     1
102
RTVSPropertyOp3
 70
     1
102
RTVSPropertyOp4
 70
     1
102
RTVSPropertyOp5
 70
     1
102
RTVSPropertyOp6
 70
     1
102
RTVSPropertyOp7
 70
     1
102
RTVSPropertyOp8
 70
     1
102
RTVSPropertyOp9
 70
     1
102
RTVSPropertyOp10
 70
     1
102
RTVSPropertyOp11
 70
     1
102
RTVSPropertyOp12
 70
     1
102
RTVSPropertyOp13
 70
     1
102
RTVSPropertyOp14
 70
     1
102
RTVSPropertyOp15
 70
     1
102
RTVSPropertyOp16
 70
     1
102
RTVSPropertyOp17
 70
     1
102
RTVSPropertyOp18
 70
     1
102
RTVSPropertyOp19
 70
     1
102
RTVSPropertyOp20
 70
     1
102
RTVSPropertyOp21
 70
     1
102
RTVSPropertyOp22
 70
     1
102
RTVSPropertyOp23
 70
     1
102
RTVSPropertyOp24
 70
     1
102
RTVSPropertyOp25
 70
     1
102
RTVSPropertyOp26
 70
     1
102
RTVSPropertyOp27
 70
     1
102
RTVSPropertyOp28
 70
     1
102
RTVSPropertyOp29
 70
     1
102
RTVSPropertyOp30
 70
     1
102
RTVSPropertyOp31
 70
     1
102
RTVSPropertyOp32
 70
     1
  0
XRECORD
  5
F107D3
102
{ACAD_REACTORS
330
F107D2
102
}
330
F107D2
100
AcDbXrecord
280
     1
102
RTVSPropertyOp0
 70
     1
102
RTVSPropertyOp1
 70
     1
102
RTVSPropertyOp2
 70
     1
102
RTVSPropertyOp3
 70
     1
102
RTVSPropertyOp4
 70
     1
102
RTVSPropertyOp5
 70
     1
102
RTVSPropertyOp6
 70
     1
102
RTVSPropertyOp7
 70
     1
102
RTVSPropertyOp8
 70
     1
102
RTVSPropertyOp9
 70
     1
102
RTVSPropertyOp10
 70
     1
102
RTVSPropertyOp11
 70
     1
102
RTVSPropertyOp12
 70
     1
102
RTVSPropertyOp13
 70
     1
102
RTVSPropertyOp14
 70
     1
102
RTVSPropertyOp15
 70
     1
102
RTVSPropertyOp16
 70
     1
102
RTVSPropertyOp17
 70
     1
102
RTVSPropertyOp18
 70
     1
102
RTVSPropertyOp19
 70
     1
102
RTVSPropertyOp20
 70
     1
102
RTVSPropertyOp21
 70
     1
102
RTVSPropertyOp22
 70
     1
102
RTVSPropertyOp23
 70
     1
102
RTVSPropertyOp24
 70
     1
102
RTVSPropertyOp25
 70
     1
102
RTVSPropertyOp26
 70
     1
102
RTVSPropertyOp27
 70
     1
102
RTVSPropertyOp28
 70
     1
102
RTVSPropertyOp29
 70
     1
102
RTVSPropertyOp30
 70
     1
102
RTVSPropertyOp31
 70
     1
102
RTVSPropertyOp32
 70
     1
  0
XRECORD
  5
F107FA
102
{ACAD_REACTORS
330
F107F9
102
}
330
F107F9
100
AcDbXrecord
280
     1
102
RTVSPropertyOp0
 70
     1
102
RTVSPropertyOp1
 70
     1
102
RTVSPropertyOp2
 70
     1
102
RTVSPropertyOp3
 70
     1
102
RTVSPropertyOp4
 70
     1
102
RTVSPropertyOp5
 70
     1
102
RTVSPropertyOp6
 70
     1
102
RTVSPropertyOp7
 70
     1
102
RTVSPropertyOp8
 70
     1
102
RTVSPropertyOp9
 70
     1
102
RTVSPropertyOp10
 70
     1
102
RTVSPropertyOp11
 70
     1
102
RTVSPropertyOp12
 70
     1
102
RTVSPropertyOp13
 70
     1
102
RTVSPropertyOp14
 70
     1
102
RTVSPropertyOp15
 70
     1
102
RTVSPropertyOp16
 70
     1
102
RTVSPropertyOp17
 70
     1
102
RTVSPropertyOp18
 70
     1
102
RTVSPropertyOp19
 70
     1
102
RTVSPropertyOp20
 70
     1
102
RTVSPropertyOp21
 70
     1
102
RTVSPropertyOp22
 70
     1
102
RTVSPropertyOp23
 70
     1
102
RTVSPropertyOp24
 70
     1
102
RTVSPropertyOp25
 70
     1
102
RTVSPropertyOp26
 70
     1
102
RTVSPropertyOp27
 70
     1
102
RTVSPropertyOp28
 70
     1
102
RTVSPropertyOp29
 70
     1
102
RTVSPropertyOp30
 70
     1
102
RTVSPropertyOp31
 70
     1
102
RTVSPropertyOp32
 70
     1
  0
XRECORD
  5
F107ED
102
{ACAD_REACTORS
330
F107EC
102
}
330
F107EC
100
AcDbXrecord
280
     1
102
RTVSPropertyOp0
 70
     0
102
RTVSPropertyOp1
 70
     0
102
RTVSPropertyOp2
 70
     0
102
RTVSPropertyOp3
 70
     0
102
RTVSPropertyOp4
 70
     0
102
RTVSPropertyOp5
 70
     0
102
RTVSPropertyOp6
 70
     0
102
RTVSPropertyOp7
 70
     0
102
RTVSPropertyOp8
 70
     0
102
RTVSPropertyOp9
 70
     0
102
RTVSPropertyOp10
 70
     0
102
RTVSPropertyOp11
 70
     0
102
RTVSPropertyOp12
 70
     0
102
RTVSPropertyOp13
 70
     0
102
RTVSPropertyOp14
 70
     2
102
RTVSPropertyOp15
 70
     0
102
RTVSPropertyOp16
 70
     0
102
RTVSPropertyOp17
 70
     0
102
RTVSPropertyOp18
 70
     0
102
RTVSPropertyOp19
 70
     0
102
RTVSPropertyOp20
 70
     0
102
RTVSPropertyOp21
 70
     0
102
RTVSPropertyOp22
 70
     0
102
RTVSPropertyOp23
 70
     0
102
RTVSPropertyOp24
 70
     0
102
RTVSPropertyOp25
 70
     0
102
RTVSPropertyOp26
 70
     0
102
RTVSPropertyOp27
 70
     0
102
RTVSPropertyOp28
 70
     1
102
RTVSPropertyOp29
 70
     1
102
RTVSPropertyOp30
 70
     1
102
RTVSPropertyOp31
 70
     1
102
RTVSPropertyOp32
 70
     1
  0
XRECORD
  5
F107E7
102
{ACAD_REACTORS
330
F107E6
102
}
330
F107E6
100
AcDbXrecord
280
     1
102
RTVSPropertyOp0
 70
     1
102
RTVSPropertyOp1
 70
     1
102
RTVSPropertyOp2
 70
     1
102
RTVSPropertyOp3
 70
     1
102
RTVSPropertyOp4
 70
     1
102
RTVSPropertyOp5
 70
     1
102
RTVSPropertyOp6
 70
     1
102
RTVSPropertyOp7
 70
     1
102
RTVSPropertyOp8
 70
     1
102
RTVSPropertyOp9
 70
     1
102
RTVSPropertyOp10
 70
     1
102
RTVSPropertyOp11
 70
     1
102
RTVSPropertyOp12
 70
     1
102
RTVSPropertyOp13
 70
     1
102
RTVSPropertyOp14
 70
     1
102
RTVSPropertyOp15
 70
     1
102
RTVSPropertyOp16
 70
     1
102
RTVSPropertyOp17
 70
     1
102
RTVSPropertyOp18
 70
     1
102
RTVSPropertyOp19
 70
     1
102
RTVSPropertyOp20
 70
     1
102
RTVSPropertyOp21
 70
     1
102
RTVSPropertyOp22
 70
     1
102
RTVSPropertyOp23
 70
     1
102
RTVSPropertyOp24
 70
     1
102
RTVSPropertyOp25
 70
     1
102
RTVSPropertyOp26
 70
     1
102
RTVSPropertyOp27
 70
     1
102
RTVSPropertyOp28
 70
     1
102
RTVSPropertyOp29
 70
     1
102
RTVSPropertyOp30
 70
     1
102
RTVSPropertyOp31
 70
     1
102
RTVSPropertyOp32
 70
     1
  0
XRECORD
  5
F107EF
102
{ACAD_REACTORS
330
F107EE
102
}
330
F107EE
100
AcDbXrecord
280
     1
102
RTVSPropertyOp0
 70
     0
102
RTVSPropertyOp1
 70
     0
102
RTVSPropertyOp2
 70
     0
102
RTVSPropertyOp3
 70
     0
102
RTVSPropertyOp4
 70
     0
102
RTVSPropertyOp5
 70
     0
102
RTVSPropertyOp6
 70
     0
102
RTVSPropertyOp7
 70
     0
102
RTVSPropertyOp8
 70
     0
102
RTVSPropertyOp9
 70
     0
102
RTVSPropertyOp10
 70
     0
102
RTVSPropertyOp11
 70
     0
102
RTVSPropertyOp12
 70
     0
102
RTVSPropertyOp13
 70
     0
102
RTVSPropertyOp14
 70
     2
102
RTVSPropertyOp15
 70
     0
102
RTVSPropertyOp16
 70
     0
102
RTVSPropertyOp17
 70
     0
102
RTVSPropertyOp18
 70
     0
102
RTVSPropertyOp19
 70
     0
102
RTVSPropertyOp20
 70
     0
102
RTVSPropertyOp21
 70
     0
102
RTVSPropertyOp22
 70
     0
102
RTVSPropertyOp23
 70
     0
102
RTVSPropertyOp24
 70
     0
102
RTVSPropertyOp25
 70
     0
102
RTVSPropertyOp26
 70
     0
102
RTVSPropertyOp27
 70
     0
102
RTVSPropertyOp28
 70
     1
102
RTVSPropertyOp29
 70
     1
102
RTVSPropertyOp30
 70
     1
102
RTVSPropertyOp31
 70
     1
102
RTVSPropertyOp32
 70
     1
  0
XRECORD
  5
F107DF
102
{ACAD_REACTORS
330
F107DE
102
}
330
F107DE
100
AcDbXrecord
280
     1
102
RTVSPropertyOp0
 70
     1
102
RTVSPropertyOp1
 70
     1
102
RTVSPropertyOp2
 70
     1
102
RTVSPropertyOp3
 70
     1
102
RTVSPropertyOp4
 70
     1
102
RTVSPropertyOp5
 70
     1
102
RTVSPropertyOp6
 70
     1
102
RTVSPropertyOp7
 70
     1
102
RTVSPropertyOp8
 70
     1
102
RTVSPropertyOp9
 70
     1
102
RTVSPropertyOp10
 70
     1
102
RTVSPropertyOp11
 70
     1
102
RTVSPropertyOp12
 70
     1
102
RTVSPropertyOp13
 70
     1
102
RTVSPropertyOp14
 70
     1
102
RTVSPropertyOp15
 70
     1
102
RTVSPropertyOp16
 70
     1
102
RTVSPropertyOp17
 70
     1
102
RTVSPropertyOp18
 70
     1
102
RTVSPropertyOp19
 70
     1
102
RTVSPropertyOp20
 70
     1
102
RTVSPropertyOp21
 70
     1
102
RTVSPropertyOp22
 70
     1
102
RTVSPropertyOp23
 70
     1
102
RTVSPropertyOp24
 70
     1
102
RTVSPropertyOp25
 70
     1
102
RTVSPropertyOp26
 70
     1
102
RTVSPropertyOp27
 70
     1
102
RTVSPropertyOp28
 70
     1
102
RTVSPropertyOp29
 70
     1
102
RTVSPropertyOp30
 70
     1
102
RTVSPropertyOp31
 70
     1
102
RTVSPropertyOp32
 70
     1
  0
XRECORD
  5
F10804
102
{ACAD_REACTORS
330
F10803
102
}
330
F10803
100
AcDbXrecord
280
     1
102
RTVSPropertyOp0
 70
     1
102
RTVSPropertyOp1
 70
     1
102
RTVSPropertyOp2
 70
     1
102
RTVSPropertyOp3
 70
     1
102
RTVSPropertyOp4
 70
     1
102
RTVSPropertyOp5
 70
     1
102
RTVSPropertyOp6
 70
     1
102
RTVSPropertyOp7
 70
     1
102
RTVSPropertyOp8
 70
     1
102
RTVSPropertyOp9
 70
     1
102
RTVSPropertyOp10
 70
     1
102
RTVSPropertyOp11
 70
     1
102
RTVSPropertyOp12
 70
     1
102
RTVSPropertyOp13
 70
     1
102
RTVSPropertyOp14
 70
     1
102
RTVSPropertyOp15
 70
     1
102
RTVSPropertyOp16
 70
     1
102
RTVSPropertyOp17
 70
     1
102
RTVSPropertyOp18
 70
     1
102
RTVSPropertyOp19
 70
     1
102
RTVSPropertyOp20
 70
     1
102
RTVSPropertyOp21
 70
     1
102
RTVSPropertyOp22
 70
     1
102
RTVSPropertyOp23
 70
     1
102
RTVSPropertyOp24
 70
     1
102
RTVSPropertyOp25
 70
     1
102
RTVSPropertyOp26
 70
     1
102
RTVSPropertyOp27
 70
     1
102
RTVSPropertyOp28
 70
     1
102
RTVSPropertyOp29
 70
     1
102
RTVSPropertyOp30
 70
     1
102
RTVSPropertyOp31
 70
     1
102
RTVSPropertyOp32
 70
     1
  0
XRECORD
  5
F10802
102
{ACAD_REACTORS
330
F10801
102
}
330
F10801
100
AcDbXrecord
280
     1
102
RTVSPropertyOp0
 70
     1
102
RTVSPropertyOp1
 70
     1
102
RTVSPropertyOp2
 70
     1
102
RTVSPropertyOp3
 70
     1
102
RTVSPropertyOp4
 70
     1
102
RTVSPropertyOp5
 70
     1
102
RTVSPropertyOp6
 70
     1
102
RTVSPropertyOp7
 70
     1
102
RTVSPropertyOp8
 70
     1
102
RTVSPropertyOp9
 70
     1
102
RTVSPropertyOp10
 70
     1
102
RTVSPropertyOp11
 70
     1
102
RTVSPropertyOp12
 70
     1
102
RTVSPropertyOp13
 70
     1
102
RTVSPropertyOp14
 70
     1
102
RTVSPropertyOp15
 70
     1
102
RTVSPropertyOp16
 70
     1
102
RTVSPropertyOp17
 70
     1
102
RTVSPropertyOp18
 70
     1
102
RTVSPropertyOp19
 70
     1
102
RTVSPropertyOp20
 70
     1
102
RTVSPropertyOp21
 70
     1
102
RTVSPropertyOp22
 70
     1
102
RTVSPropertyOp23
 70
     1
102
RTVSPropertyOp24
 70
     1
102
RTVSPropertyOp25
 70
     1
102
RTVSPropertyOp26
 70
     1
102
RTVSPropertyOp27
 70
     1
102
RTVSPropertyOp28
 70
     1
102
RTVSPropertyOp29
 70
     1
102
RTVSPropertyOp30
 70
     1
102
RTVSPropertyOp31
 70
     1
102
RTVSPropertyOp32
 70
     1
  0
XRECORD
  5
F107FC
102
{ACAD_REACTORS
330
F107FB
102
}
330
F107FB
100
AcDbXrecord
280
     1
102
RTVSPropertyOp0
 70
     1
102
RTVSPropertyOp1
 70
     1
102
RTVSPropertyOp2
 70
     1
102
RTVSPropertyOp3
 70
     1
102
RTVSPropertyOp4
 70
     1
102
RTVSPropertyOp5
 70
     1
102
RTVSPropertyOp6
 70
     1
102
RTVSPropertyOp7
 70
     1
102
RTVSPropertyOp8
 70
     1
102
RTVSPropertyOp9
 70
     1
102
RTVSPropertyOp10
 70
     1
102
RTVSPropertyOp11
 70
     1
102
RTVSPropertyOp12
 70
     1
102
RTVSPropertyOp13
 70
     1
102
RTVSPropertyOp14
 70
     1
102
RTVSPropertyOp15
 70
     1
102
RTVSPropertyOp16
 70
     1
102
RTVSPropertyOp17
 70
     1
102
RTVSPropertyOp18
 70
     1
102
RTVSPropertyOp19
 70
     1
102
RTVSPropertyOp20
 70
     1
102
RTVSPropertyOp21
 70
     1
102
RTVSPropertyOp22
 70
     1
102
RTVSPropertyOp23
 70
     1
102
RTVSPropertyOp24
 70
     1
102
RTVSPropertyOp25
 70
     1
102
RTVSPropertyOp26
 70
     1
102
RTVSPropertyOp27
 70
     1
102
RTVSPropertyOp28
 70
     1
102
RTVSPropertyOp29
 70
     1
102
RTVSPropertyOp30
 70
     1
102
RTVSPropertyOp31
 70
     1
102
RTVSPropertyOp32
 70
     1
  0
XRECORD
  5
F107FE
102
{ACAD_REACTORS
330
F107FD
102
}
330
F107FD
100
AcDbXrecord
280
     1
102
RTVSPropertyOp0
 70
     1
102
RTVSPropertyOp1
 70
     1
102
RTVSPropertyOp2
 70
     1
102
RTVSPropertyOp3
 70
     1
102
RTVSPropertyOp4
 70
     1
102
RTVSPropertyOp5
 70
     1
102
RTVSPropertyOp6
 70
     1
102
RTVSPropertyOp7
 70
     1
102
RTVSPropertyOp8
 70
     1
102
RTVSPropertyOp9
 70
     1
102
RTVSPropertyOp10
 70
     1
102
RTVSPropertyOp11
 70
     1
102
RTVSPropertyOp12
 70
     1
102
RTVSPropertyOp13
 70
     1
102
RTVSPropertyOp14
 70
     1
102
RTVSPropertyOp15
 70
     1
102
RTVSPropertyOp16
 70
     1
102
RTVSPropertyOp17
 70
     1
102
RTVSPropertyOp18
 70
     1
102
RTVSPropertyOp19
 70
     1
102
RTVSPropertyOp20
 70
     1
102
RTVSPropertyOp21
 70
     1
102
RTVSPropertyOp22
 70
     1
102
RTVSPropertyOp23
 70
     1
102
RTVSPropertyOp24
 70
     1
102
RTVSPropertyOp25
 70
     1
102
RTVSPropertyOp26
 70
     1
102
RTVSPropertyOp27
 70
     1
102
RTVSPropertyOp28
 70
     1
102
RTVSPropertyOp29
 70
     1
102
RTVSPropertyOp30
 70
     1
102
RTVSPropertyOp31
 70
     1
102
RTVSPropertyOp32
 70
     1
  0
XRECORD
  5
F107E5
102
{ACAD_REACTORS
330
F107E4
102
}
330
F107E4
100
AcDbXrecord
280
     1
102
RTVSPropertyOp0
 70
     1
102
RTVSPropertyOp1
 70
     1
102
RTVSPropertyOp2
 70
     1
102
RTVSPropertyOp3
 70
     1
102
RTVSPropertyOp4
 70
     1
102
RTVSPropertyOp5
 70
     1
102
RTVSPropertyOp6
 70
     1
102
RTVSPropertyOp7
 70
     1
102
RTVSPropertyOp8
 70
     1
102
RTVSPropertyOp9
 70
     1
102
RTVSPropertyOp10
 70
     1
102
RTVSPropertyOp11
 70
     1
102
RTVSPropertyOp12
 70
     1
102
RTVSPropertyOp13
 70
     1
102
RTVSPropertyOp14
 70
     1
102
RTVSPropertyOp15
 70
     1
102
RTVSPropertyOp16
 70
     1
102
RTVSPropertyOp17
 70
     1
102
RTVSPropertyOp18
 70
     1
102
RTVSPropertyOp19
 70
     1
102
RTVSPropertyOp20
 70
     1
102
RTVSPropertyOp21
 70
     1
102
RTVSPropertyOp22
 70
     1
102
RTVSPropertyOp23
 70
     1
102
RTVSPropertyOp24
 70
     1
102
RTVSPropertyOp25
 70
     1
102
RTVSPropertyOp26
 70
     1
102
RTVSPropertyOp27
 70
     1
102
RTVSPropertyOp28
 70
     1
102
RTVSPropertyOp29
 70
     1
102
RTVSPropertyOp30
 70
     1
102
RTVSPropertyOp31
 70
     1
102
RTVSPropertyOp32
 70
     1
  0
XRECORD
  5
F107F8
102
{ACAD_REACTORS
330
F107F7
102
}
330
F107F7
100
AcDbXrecord
280
     1
102
RTVSPropertyOp0
 70
     1
102
RTVSPropertyOp1
 70
     1
102
RTVSPropertyOp2
 70
     1
102
RTVSPropertyOp3
 70
     1
102
RTVSPropertyOp4
 70
     1
102
RTVSPropertyOp5
 70
     1
102
RTVSPropertyOp6
 70
     1
102
RTVSPropertyOp7
 70
     1
102
RTVSPropertyOp8
 70
     1
102
RTVSPropertyOp9
 70
     1
102
RTVSPropertyOp10
 70
     1
102
RTVSPropertyOp11
 70
     1
102
RTVSPropertyOp12
 70
     1
102
RTVSPropertyOp13
 70
     1
102
RTVSPropertyOp14
 70
     1
102
RTVSPropertyOp15
 70
     1
102
RTVSPropertyOp16
 70
     1
102
RTVSPropertyOp17
 70
     1
102
RTVSPropertyOp18
 70
     1
102
RTVSPropertyOp19
 70
     1
102
RTVSPropertyOp20
 70
     1
102
RTVSPropertyOp21
 70
     1
102
RTVSPropertyOp22
 70
     1
102
RTVSPropertyOp23
 70
     1
102
RTVSPropertyOp24
 70
     1
102
RTVSPropertyOp25
 70
     1
102
RTVSPropertyOp26
 70
     1
102
RTVSPropertyOp27
 70
     1
102
RTVSPropertyOp28
 70
     1
102
RTVSPropertyOp29
 70
     1
102
RTVSPropertyOp30
 70
     1
102
RTVSPropertyOp31
 70
     1
102
RTVSPropertyOp32
 70
     1
  0
XRECORD
  5
F10800
102
{ACAD_REACTORS
330
F107FF
102
}
330
F107FF
100
AcDbXrecord
280
     1
102
RTVSPropertyOp0
 70
     1
102
RTVSPropertyOp1
 70
     1
102
RTVSPropertyOp2
 70
     1
102
RTVSPropertyOp3
 70
     1
102
RTVSPropertyOp4
 70
     1
102
RTVSPropertyOp5
 70
     1
102
RTVSPropertyOp6
 70
     1
102
RTVSPropertyOp7
 70
     1
102
RTVSPropertyOp8
 70
     1
102
RTVSPropertyOp9
 70
     1
102
RTVSPropertyOp10
 70
     1
102
RTVSPropertyOp11
 70
     1
102
RTVSPropertyOp12
 70
     1
102
RTVSPropertyOp13
 70
     1
102
RTVSPropertyOp14
 70
     1
102
RTVSPropertyOp15
 70
     1
102
RTVSPropertyOp16
 70
     1
102
RTVSPropertyOp17
 70
     1
102
RTVSPropertyOp18
 70
     1
102
RTVSPropertyOp19
 70
     1
102
RTVSPropertyOp20
 70
     1
102
RTVSPropertyOp21
 70
     1
102
RTVSPropertyOp22
 70
     1
102
RTVSPropertyOp23
 70
     1
102
RTVSPropertyOp24
 70
     1
102
RTVSPropertyOp25
 70
     1
102
RTVSPropertyOp26
 70
     1
102
RTVSPropertyOp27
 70
     1
102
RTVSPropertyOp28
 70
     1
102
RTVSPropertyOp29
 70
     1
102
RTVSPropertyOp30
 70
     1
102
RTVSPropertyOp31
 70
     1
102
RTVSPropertyOp32
 70
     1
  0
ENDSEC
  0
EOF
