  0
SECTION
  2
HEADER
  9
$ACADVER
  1
AC1015
  9
$ACADMAINTVER
 70
    20
  9
$DWGCODEPAGE
  3
ANSI_1252
  9
$INSBASE
 10
0.0
 20
0.0
 30
0.0
  9
$EXTMIN
 10
-134.524070021882
 20
-100.175054704595
 30
0.0
  9
$EXTMAX
 10
143.484682713348
 20
99.945295404814
 30
0.0
  9
$LIMMIN
 10
0.0
 20
0.0
  9
$LIMMAX
 10
12.0
 20
9.0
  9
$ORTHOMODE
 70
     0
  9
$REGENMODE
 70
     1
  9
$FILLMODE
 70
     1
  9
$QTEXTMODE
 70
     0
  9
$MIRRTEXT
 70
     1
  9
$LTSCALE
 40
1.0
  9
$ATTMODE
 70
     1
  9
$TEXTSIZE
 40
0.2
  9
$TRACEWID
 40
0.05
  9
$TEXTSTYLE
  7
Standard
  9
$CLAYER
  8
0
  9
$CELTYPE
  6
ByLayer
  9
$CECOLOR
 62
   256
  9
$CELTSCALE
 40
1.0
  9
$DISPSILH
 70
     0
  9
$DIMSCALE
 40
1.0
  9
$DIMASZ
 40
2.5
  9
$DIMEXO
 40
0.625
  9
$DIMDLI
 40
0.38
  9
$DIMRND
 40
0.0
  9
$DIMDLE
 40
0.0
  9
$DIMEXE
 40
1.25
  9
$DIMTP
 40
0.0
  9
$DIMTM
 40
0.000000001
  9
$DIMTXT
 40
2.5
  9
$DIMCEN
 40
0.09
  9
$DIMTSZ
 40
0.0
  9
$DIMTOL
 70
     1
  9
$DIMLIM
 70
     0
  9
$DIMTIH
 70
     0
  9
$DIMTOH
 70
     0
  9
$DIMSE1
 70
     0
  9
$DIMSE2
 70
     0
  9
$DIMTAD
 70
     1
  9
$DIMZIN
 70
     0
  9
$DIMBLK
  1
VDDIM_DEFAULT
  9
$DIMASO
 70
     1
  9
$DIMSHO
 70
     1
  9
$DIMPOST
  1

  9
$DIMAPOST
  1

  9
$DIMALT
 70
     0
  9
$DIMALTD
 70
     2
  9
$DIMALTF
 40
25.4
  9
$DIMLFAC
 40
1.0
  9
$DIMTOFL
 70
     0
  9
$DIMTVP
 40
0.0
  9
$DIMTIX
 70
     0
  9
$DIMSOXD
 70
     0
  9
$DIMSAH
 70
     0
  9
$DIMBLK1
  1

  9
$DIMBLK2
  1

  9
$DIMSTYLE
  2
BEM-ISBE
  9
$DIMCLRD
 70
     0
  9
$DIMCLRE
 70
     0
  9
$DIMCLRT
 70
     0
  9
$DIMTFAC
 40
0.5
  9
$DIMGAP
 40
0.625
  9
$DIMJUST
 70
     0
  9
$DIMSD1
 70
     0
  9
$DIMSD2
 70
     0
  9
$DIMTOLJ
 70
     1
  9
$DIMTZIN
 70
     0
  9
$DIMALTZ
 70
     0
  9
$DIMALTTZ
 70
     0
  9
$DIMUPT
 70
     0
  9
$DIMDEC
 70
     3
  9
$DIMTDEC
 70
     3
  9
$DIMALTU
 70
     2
  9
$DIMALTTD
 70
     2
  9
$DIMTXSTY
  7
Standard
  9
$DIMAUNIT
 70
     0
  9
$DIMADEC
 70
     3
  9
$DIMALTRND
 40
0.0
  9
$DIMAZIN
 70
     0
  9
$DIMDSEP
 70
    46
  9
$DIMATFIT
 70
     3
  9
$DIMFRAC
 70
     0
  9
$DIMLDRBLK
  1

  9
$DIMLUNIT
 70
     2
  9
$DIMLWD
 70
    -2
  9
$DIMLWE
 70
    -2
  9
$DIMTMOVE
 70
     0
  9
$LUNITS
 70
     2
  9
$LUPREC
 70
     4
  9
$SKETCHINC
 40
0.1
  9
$FILLETRAD
 40
0.5
  9
$AUNITS
 70
     0
  9
$AUPREC
 70
     0
  9
$MENU
  1
.
  9
$ELEVATION
 40
0.0
  9
$PELEVATION
 40
0.0
  9
$THICKNESS
 40
0.0
  9
$LIMCHECK
 70
     0
  9
$CHAMFERA
 40
0.5
  9
$CHAMFERB
 40
0.5
  9
$CHAMFERC
 40
1.0
  9
$CHAMFERD
 40
0.0
  9
$SKPOLY
 70
     0
  9
$TDCREATE
 40
2456884.312397408
  9
$TDUCREATE
 40
2456884.229064074
  9
$TDUPDATE
 40
2456884.405409572
  9
$TDUUPDATE
 40
2456884.322076238
  9
$TDINDWG
 40
0.0113544444
  9
$TDUSRTIMER
 40
0.0113543634
  9
$USRTIMER
 70
     1
  9
$ANGBASE
 50
0.0
  9
$ANGDIR
 70
     0
  9
$PDMODE
 70
     0
  9
$PDSIZE
 40
0.0
  9
$PLINEWID
 40
0.0
  9
$SPLFRAME
 70
     0
  9
$SPLINETYPE
 70
     6
  9
$SPLINESEGS
 70
     8
  9
$HANDSEED
  5
F10A21
  9
$SURFTAB1
 70
     6
  9
$SURFTAB2
 70
     6
  9
$SURFTYPE
 70
     6
  9
$SURFU
 70
     6
  9
$SURFV
 70
     6
  9
$UCSBASE
  2

  9
$UCSNAME
  2

  9
$UCSORG
 10
14.76502901323609
 20
-1.315796381625077
 30
0.0
  9
$UCSXDIR
 10
1.0
 20
0.0
 30
0.0
  9
$UCSYDIR
 10
0.0
 20
1.0
 30
0.0
  9
$UCSORTHOREF
  2

  9
$UCSORTHOVIEW
 70
     0
  9
$UCSORGTOP
 10
0.0
 20
0.0
 30
0.0
  9
$UCSORGBOTTOM
 10
0.0
 20
0.0
 30
0.0
  9
$UCSORGLEFT
 10
0.0
 20
0.0
 30
0.0
  9
$UCSORGRIGHT
 10
0.0
 20
0.0
 30
0.0
  9
$UCSORGFRONT
 10
0.0
 20
0.0
 30
0.0
  9
$UCSORGBACK
 10
0.0
 20
0.0
 30
0.0
  9
$PUCSBASE
  2

  9
$PUCSNAME
  2

  9
$PUCSORG
 10
0.0
 20
0.0
 30
0.0
  9
$PUCSXDIR
 10
1.0
 20
0.0
 30
0.0
  9
$PUCSYDIR
 10
0.0
 20
1.0
 30
0.0
  9
$PUCSORTHOREF
  2

  9
$PUCSORTHOVIEW
 70
     0
  9
$PUCSORGTOP
 10
0.0
 20
0.0
 30
0.0
  9
$PUCSORGBOTTOM
 10
0.0
 20
0.0
 30
0.0
  9
$PUCSORGLEFT
 10
0.0
 20
0.0
 30
0.0
  9
$PUCSORGRIGHT
 10
0.0
 20
0.0
 30
0.0
  9
$PUCSORGFRONT
 10
0.0
 20
0.0
 30
0.0
  9
$PUCSORGBACK
 10
0.0
 20
0.0
 30
0.0
  9
$USERI1
 70
     0
  9
$USERI2
 70
     0
  9
$USERI3
 70
     0
  9
$USERI4
 70
     0
  9
$USERI5
 70
     0
  9
$USERR1
 40
0.0
  9
$USERR2
 40
0.0
  9
$USERR3
 40
0.0
  9
$USERR4
 40
0.0
  9
$USERR5
 40
0.0
  9
$WORLDVIEW
 70
     1
  9
$SHADEDGE
 70
     3
  9
$SHADEDIF
 70
    70
  9
$TILEMODE
 70
     1
  9
$MAXACTVP
 70
    64
  9
$PINSBASE
 10
0.0
 20
0.0
 30
0.0
  9
$PLIMCHECK
 70
     0
  9
$PEXTMIN
 10
1.000000000000000E+20
 20
1.000000000000000E+20
 30
1.000000000000000E+20
  9
$PEXTMAX
 10
-1.000000000000000E+20
 20
-1.000000000000000E+20
 30
-1.000000000000000E+20
  9
$PLIMMIN
 10
0.0
 20
0.0
  9
$PLIMMAX
 10
12.0
 20
9.0
  9
$UNITMODE
 70
     0
  9
$VISRETAIN
 70
     1
  9
$PLINEGEN
 70
     0
  9
$PSLTSCALE
 70
     1
  9
$TREEDEPTH
 70
  3020
  9
$CMLSTYLE
  2
Standard
  9
$CMLJUST
 70
     0
  9
$CMLSCALE
 40
1.0
  9
$PROXYGRAPHICS
 70
     1
  9
$MEASUREMENT
 70
     0
  9
$CELWEIGHT
370
    -1
  9
$ENDCAPS
280
     0
  9
$JOINSTYLE
280
     0
  9
$LWDISPLAY
290
     0
  9
$INSUNITS
 70
     4
  9
$HYPERLINKBASE
  1

  9
$STYLESHEET
  1

  9
$XEDIT
290
     1
  9
$CEPSNTYPE
380
     0
  9
$PSTYLEMODE
290
     0
  9
$FINGERPRINTGUID
  2
{FAEB1C30-E019-11D5-929B-00C0DF256EC4}
  9
$VERSIONGUID
  2
{727CE226-683E-472F-992C-B5A18263C917}
  9
$EXTNAMES
290
     1
  9
$PSVPSCALE
 40
0.0
  9
$OLESTARTUP
290
     0
  0
ENDSEC
  0
SECTION
  2
CLASSES
  0
CLASS
  1
ACDBDICTIONARYWDFLT
  2
AcDbDictionaryWithDefault
  3
ObjectDBX Classes
 90
        0
280
     0
281
     0
  0
CLASS
  1
MATERIAL
  2
AcDbMaterial
  3
ObjectDBX Classes
 90
     1153
280
     0
281
     0
  0
CLASS
  1
MLEADERSTYLE
  2
AcDbMLeaderStyle
  3
ACDB_MLEADERSTYLE_CLASS
 90
     4095
280
     0
281
     0
  0
CLASS
  1
SCALE
  2
AcDbScale
  3
ObjectDBX Classes
 90
     1153
280
     0
281
     0
  0
CLASS
  1
TABLESTYLE
  2
AcDbTableStyle
  3
ObjectDBX Classes
 90
     4095
280
     0
281
     0
  0
CLASS
  1
VISUALSTYLE
  2
AcDbVisualStyle
  3
ObjectDBX Classes
 90
     4095
280
     0
281
     0
  0
CLASS
  1
DICTIONARYVAR
  2
AcDbDictionaryVar
  3
ObjectDBX Classes
 90
        0
280
     0
281
     0
  0
CLASS
  1
CELLSTYLEMAP
  2
AcDbCellStyleMap
  3
ObjectDBX Classes
 90
     1152
280
     0
281
     0
  0
CLASS
  1
AMGSETTINGSOBJ
  2
AmgSettingsObj
  3
"AcadM|Product Description: AutoCAD Mechanical|Company: Autodesk, Inc."
 90
     1024
280
     0
281
     0
  0
CLASS
  1
ACME_DOCUMENT
  2
AcMeDbDoc
  3
AcMeServices
 90
     1024
280
     0
281
     0
  0
CLASS
  1
ACMESCOPE
  2
AcMeScope
  3
AcMeServices
 90
     1024
280
     0
281
     0
  0
CLASS
  1
ACMECOMMANDHISTORY
  2
AcMeCommandHistory
  3
AcMeServices
 90
     1024
280
     0
281
     0
  0
CLASS
  1
ACIMSYSVARMAN
  2
AcImSysVarManager
  3
AcMeServices
 90
     1024
280
     0
281
     0
  0
CLASS
  1
ACIMINTSYSVAR
  2
AcImIntSysVar
  3
AcMeServices
 90
     1024
280
     0
281
     0
  0
CLASS
  1
ACMESTATEMGR
  2
AcMeStateMgr
  3
AcMeServices
 90
     1024
280
     0
281
     0
  0
CLASS
  1
ACDBENTITYCACHE
  2
AcMeEntityCache
  3
AcMeServices
 90
     1024
280
     0
281
     0
  0
CLASS
  1
ACGREFMASTER
  2
AcGrefMaster
  3
AcAttribServices
 90
     1024
280
     0
281
     0
  0
CLASS
  1
AM_DRAWING_MGR
  2
AcDmDwgMgr
  3
AcMechDwgViewMgmt
 90
     1024
280
     0
281
     0
  0
CLASS
  1
AM_DWG_DOCUMENT
  2
AcDmDwgDocument
  3
AcMechDwgViewMgmt
 90
     1024
280
     0
281
     0
  0
CLASS
  1
AM_DWG_SHEET
  2
AcDmSheet
  3
AcMechDwgViewMgmt
 90
     1024
280
     0
281
     0
  0
CLASS
  1
AM_VIEWDIMPARMAP
  2
AcDmViewDimParMap
  3
AcMechDwgViewMgmt
 90
     1024
280
     0
281
     0
  0
CLASS
  1
AMDTINTERNALREACTOR
  2
AmdtInternalReactor
  3
AcMeServices
 90
     1024
280
     0
281
     0
  0
CLASS
  1
ACIMREALSYSVAR
  2
AcImRealSysVar
  3
AcMeServices
 90
     1024
280
     0
281
     0
  0
CLASS
  1
AM_DWGMGR_NAME
  2
AcDmDwgMgrName
  3
AcMechDwgViewMgmt
 90
     1024
280
     0
281
     0
  0
CLASS
  1
ACME_DATABASE
  2
AcMeDbDatabase
  3
AcMeServices
 90
     1024
280
     0
281
     0
  0
CLASS
  1
ACRFINSADJUSTERMGR
  2
AcRfInsAdjusterMgr
  3
AcMeServices
 90
     1024
280
     0
281
     0
  0
CLASS
  1
ACGREFACADMASTER
  2
AcGrefacadMaster
  3
AcGrefServices
 90
     1024
280
     0
281
     0
  0
CLASS
  1
AMDTMENUSTATEMGR
  2
AmdtMenuStateMgr
  3
McadcomServices
 90
     1024
280
     0
281
     0
  0
CLASS
  1
AMDTMCOMMENUSTATE
  2
AmdtMcomMenuState
  3
McadcomServices
 90
     1024
280
     0
281
     0
  0
CLASS
  1
AMIMASTER
  2
AmiMaster
  3
AmiServices
 90
     1024
280
     0
281
     0
  0
CLASS
  1
MAPIAMMOUDLE
  2
MApiAmModule
  3
MApiAmServices
 90
     1024
280
     0
281
     0
  0
CLASS
  1
ACIMSTRSYSVAR
  2
AcImStrSysVar
  3
AcMeServices
 90
     1024
280
     0
281
     0
  0
CLASS
  1
AMDTDMMENUSTATE
  2
AmdtDmMenuState
  3
AcMechDwgViewMgmt
 90
     1024
280
     0
281
     0
  0
CLASS
  1
AMDTAMMENUSTATE
  2
AmdtAmMenuState
  3
DesignerAssemblies
 90
     1024
280
     0
281
     0
  0
CLASS
  1
ACAMPROJECT
  2
AcAmProject
  3
DesignerAssemblies
 90
     1024
280
     0
281
     0
  0
CLASS
  1
ACAMGRCOMPDEF
  2
AcAmGrCompDef
  3
DesignerAssemblies
 90
     1024
280
     0
281
     0
  0
CLASS
  1
ACAMCOMPDEF
  2
AcAmCompDef
  3
DesignerAssemblies
 90
     1024
280
     0
281
     0
  0
CLASS
  1
ACAMCOMPDEFMGR
  2
AcAmCompDefMgr
  3
DesignerAssemblies
 90
     1024
280
     0
281
     0
  0
CLASS
  1
AMCONTEXTMGR
  2
AcAmContextMgr
  3
DesignerAssemblies
 90
     1024
280
     0
281
     0
  0
CLASS
  1
ACAMCONTEXTMODELER
  2
AcAmContextModeler
  3
DesignerAssemblies
 90
     1024
280
     0
281
     0
  0
CLASS
  1
ACMDATADICTIONARY
  2
AcmDataDictionary
  3
"AcmSymBB|Product Description: AutoCAD Mechanical|Company: Autodesk, Inc."
 90
     1024
280
     0
281
     0
  0
CLASS
  1
ACAMGRCOMPDEFSET
  2
AcAmGrCompDefSet
  3
DesignerAssemblies
 90
     1024
280
     0
281
     0
  0
CLASS
  1
AMDTBROWSERDBTAB
  2
AmdtBrowserDbTab
  3
McadcomServices
 90
     1024
280
     0
281
     0
  0
CLASS
  1
CBROWSERAPPOBJECT
  2
CBrowserAppObject
  3
McadcomServices
 90
     1024
280
     0
281
     0
  0
CLASS
  1
DM_PLACEHOLDER
  2
AcDmSelsetPlaceholder
  3
AcMechDwgViewMgmt
 90
     1024
280
     0
281
     0
  0
CLASS
  1
EXACXREFPANELOBJECT
  2
ExAcXREFPanelObject
  3
EXAC_ESW
 90
     1025
280
     0
281
     0
  0
CLASS
  1
NPOCOLLECTION
  2
AcDbImpNonPersistentObjectsCollection
  3
ObjectDBX Classes
 90
     1153
280
     0
281
     0
  0
CLASS
  1
ACMSTANDARDANSI
  2
AcmStandardANSI
  3
"Amdt_StdImp|Product Description: AutoCAD Mechanical|Company: Autodesk, Inc."
 90
     1024
280
     0
281
     0
  0
CLASS
  1
ACMSURFSTANDARDANSI
  2
AcmSurfTextStdANSI
  3
"Amdt_StdImp|Product Description: AutoCAD Mechanical|Company: Autodesk, Inc."
 90
     1024
280
     0
281
     0
  0
CLASS
  1
ACMFCFSTANDARDANSI
  2
AcmFCFStdANSI
  3
"Amdt_StdImp|Product Description: AutoCAD Mechanical|Company: Autodesk, Inc."
 90
     1024
280
     0
281
     0
  0
CLASS
  1
ACMWELDSTANDARDANSI
  2
AcmWeldingStdANSI
  3
"Amdt_StdImp|Product Description: AutoCAD Mechanical|Company: Autodesk, Inc."
 90
     1024
280
     0
281
     0
  0
CLASS
  1
ACMIDSTANDARDANSI
  2
AcmIdStdANSI
  3
"Amdt_StdImp|Product Description: AutoCAD Mechanical|Company: Autodesk, Inc."
 90
     1024
280
     0
281
     0
  0
CLASS
  1
ACMDATUMSTANDARDANSI
  2
AcmDatumStdANSI
  3
"Amdt_StdImp|Product Description: AutoCAD Mechanical|Company: Autodesk, Inc."
 90
     1024
280
     0
281
     0
  0
CLASS
  1
ACMBOMSTANDARDANSI
  2
AcmBOMStdANSI
  3
"Amdt_StdImp|Product Description: AutoCAD Mechanical|Company: Autodesk, Inc."
 90
     1024
280
     0
281
     0
  0
CLASS
  1
ACMDETAILSTANDARDANSI
  2
AmdtDetailSymStdANSI
  3
"Amdt_StdImp|Product Description: AutoCAD Mechanical|Company: Autodesk, Inc."
 90
     1024
280
     0
281
     0
  0
CLASS
  1
ACMSECTIONSTANDARDANSI
  2
AmdtSectionSymStdANSI
  3
"Amdt_StdImp|Product Description: AutoCAD Mechanical|Company: Autodesk, Inc."
 90
     1024
280
     0
281
     0
  0
CLASS
  1
ACMCENTERLINESTANDARDANSI
  2
AmdtCenterLineStdANSI
  3
"Amdt_StdImp|Product Description: AutoCAD Mechanical|Company: Autodesk, Inc."
 90
     1024
280
     0
281
     0
  0
CLASS
  1
ACMTHREADLINESTANDARDANSI
  2
AmdtThreadLineStdANSI
  3
"Amdt_StdImp|Product Description: AutoCAD Mechanical|Company: Autodesk, Inc."
 90
     1024
280
     0
281
     0
  0
CLASS
  1
ACMNOTESTANDARDANSI
  2
AmdtNoteStdANSI
  3
"Amdt_StdImp|Product Description: AutoCAD Mechanical|Company: Autodesk, Inc."
 90
     1024
280
     0
281
     0
  0
CLASS
  1
ACMTAPERSTANDARDANSI
  2
AcmTaperStdANSI
  3
"Amdt_StdImp|Product Description: AutoCAD Mechanical|Company: Autodesk, Inc."
 90
     1024
280
     0
281
     0
  0
CLASS
  1
ACMANOOTATIONVIEWSTANDARDANSI
  2
AmdtAnViewStdANSI
  3
"Amdt_StdImp|Product Description: AutoCAD Mechanical|Company: Autodesk, Inc."
 90
     1024
280
     0
281
     0
  0
CLASS
  1
ACAMGLAYSTD
  2
AcAmgLayStd
  3
"AmgLay|Product Description: AutoCAD Mechanical|Company: Autodesk, Inc."
 90
     1024
280
     0
281
     0
  0
CLASS
  1
ACAMGDIMSTD
  2
AcAmgDimStd
  3
"AmgDim|Product Description: AutoCAD Mechanical|Company: Autodesk, Inc."
 90
     1024
280
     0
281
     0
  0
CLASS
  1
AMGOBJPROPCFG
  2
AmgObjPropCfg
  3
"AmgLay|Product Description: AutoCAD Mechanical|Company: Autodesk, Inc."
 90
     1025
280
     0
281
     0
  0
CLASS
  1
ACAMGHOLECHARTSTDANSI
  2
AcAmgHoleChartStdANSI
  3
AmgDim|Product Description: AutoCAD Mechanical|Company: Autodesk, Inc.
 90
     1024
280
     0
281
     0
  0
CLASS
  1
ACAMGTITLESTD
  2
AcAmgTitleStd
  3
"AmgTitle|Product Description: AutoCAD Mechanical|Company: Autodesk, Inc."
 90
     4095
280
     0
281
     0
  0
CLASS
  1
AMDTNOTETEMPLATEDB
  2
AmdtNoteTemplateDB
  3
AcmSymBB|Product Description: AutoCAD Mechanical|Company: Autodesk, Inc.
 90
     1024
280
     0
281
     0
  0
CLASS
  1
ACAMGFILTERDAT
  2
AcAmgFilterDat
  3
"AcadM|Product Description: AutoCAD Mechanical|Company: Autodesk, Inc."
 90
    33792
280
     0
281
     0
  0
CLASS
  1
ACDBPLACEHOLDER
  2
AcDbPlaceHolder
  3
ObjectDBX Classes
 90
        0
280
     0
281
     0
  0
CLASS
  1
LAYOUT
  2
AcDbLayout
  3
ObjectDBX Classes
 90
        0
280
     0
281
     0
  0
ENDSEC
  0
SECTION
  2
TABLES
  0
TABLE
  2
VPORT
  5
24A
330
0
100
AcDbSymbolTable
 70
     1
  0
VPORT
  5
26B
330
24A
100
AcDbSymbolTableRecord
100
AcDbViewportTableRecord
  2
*Active
 70
     0
 10
0.0
 20
0.0
 11
1.0
 21
1.0
 12
40.75836813100626
 22
-27.58990311967288
 13
0.0
 23
0.0
 14
10.0
 24
10.0
 15
10.0
 25
10.0
 16
0.0
 26
0.0
 36
1.0
 17
0.0
 27
0.0
 37
0.0
 40
173.8251077084975
 41
1.466735966735966
 42
1.0
 43
0.0
 44
0.0
 50
0.0
 51
0.0000000000007958
 71
     0
 72
   100
 73
     1
 74
     3
 75
     0
 76
     0
 77
     0
 78
     1
281
     0
 65
     0
110
0.0
120
0.0
130
0.0
111
1.0
121
0.0
131
0.0
112
0.0
122
1.0
132
0.0
 79
     0
146
0.0
  0
ENDTAB
  0
TABLE
  2
LTYPE
  5
247
330
0
100
AcDbSymbolTable
 70
    36
  0
LTYPE
  5
256
330
247
100
AcDbSymbolTableRecord
100
AcDbLinetypeTableRecord
  2
ByBlock
 70
     0
  3

 72
    65
 73
     0
 40
0.0
  0
LTYPE
  5
257
330
247
100
AcDbSymbolTableRecord
100
AcDbLinetypeTableRecord
  2
ByLayer
 70
     0
  3

 72
    65
 73
     0
 40
0.0
  0
LTYPE
  5
258
330
247
100
AcDbSymbolTableRecord
100
AcDbLinetypeTableRecord
  2
Continuous
 70
     0
  3
Solid line
 72
    65
 73
     0
 40
0.0
  0
LTYPE
  5
273
330
247
100
AcDbSymbolTableRecord
100
AcDbLinetypeTableRecord
  2
CENTER
 70
     0
  3
Center ____ _ ____ _ ____ _ ____ _ ____ _ ____
 72
    65
 73
     4
 40
2.0
 49
1.25
 74
     0
 49
-0.25
 74
     0
 49
0.25
 74
     0
 49
-0.25
 74
     0
  0
LTYPE
  5
274
330
247
100
AcDbSymbolTableRecord
100
AcDbLinetypeTableRecord
  2
DASHDOT
 70
     0
  3
Dashdot __ . __ . __ . __ . __ . __ . __ . __
 72
    65
 73
     4
 40
1.0
 49
0.5
 74
     0
 49
-0.25
 74
     0
 49
0.0
 74
     0
 49
-0.25
 74
     0
  0
LTYPE
  5
275
330
247
100
AcDbSymbolTableRecord
100
AcDbLinetypeTableRecord
  2
DASHED
 70
     0
  3
Dashed __ __ __ __ __ __ __ __ __ __ __ __ __ _
 72
    65
 73
     2
 40
0.75
 49
0.5
 74
     0
 49
-0.25
 74
     0
  0
LTYPE
  5
276
330
247
100
AcDbSymbolTableRecord
100
AcDbLinetypeTableRecord
  2
HIDDEN
 70
     0
  3
Hidden __ __ __ __ __ __ __ __ __ __ __ __ __ __
 72
    65
 73
     2
 40
0.375
 49
0.25
 74
     0
 49
-0.125
 74
     0
  0
LTYPE
  5
277
330
247
100
AcDbSymbolTableRecord
100
AcDbLinetypeTableRecord
  2
HIDDEN2
 70
     0
  3
Hidden2 _ _ _ _ _ _ _ _ _ _ _ _ _ _ _ _ _
 72
    65
 73
     2
 40
0.1875
 49
0.125
 74
     0
 49
-0.0625
 74
     0
  0
LTYPE
  5
278
330
247
100
AcDbSymbolTableRecord
100
AcDbLinetypeTableRecord
  2
BORDER
 70
     0
  3
Border __ __ . __ __ . __ __ . __ __ . __ __ .
 72
    65
 73
     6
 40
1.75
 49
0.5
 74
     0
 49
-0.25
 74
     0
 49
0.5
 74
     0
 49
-0.25
 74
     0
 49
0.0
 74
     0
 49
-0.25
 74
     0
  0
LTYPE
  5
279
330
247
100
AcDbSymbolTableRecord
100
AcDbLinetypeTableRecord
  2
BORDER2
 70
     0
  3
Border2 __.__.__.__.__.__.__.__.__.__.__.
 72
    65
 73
     6
 40
0.875
 49
0.25
 74
     0
 49
-0.125
 74
     0
 49
0.25
 74
     0
 49
-0.125
 74
     0
 49
0.0
 74
     0
 49
-0.125
 74
     0
  0
LTYPE
  5
27A
330
247
100
AcDbSymbolTableRecord
100
AcDbLinetypeTableRecord
  2
BORDERX2
 70
     0
  3
Borderx2  ____  ____  .  ____  ____  .  ___
 72
    65
 73
     6
 40
3.5
 49
1.0
 74
     0
 49
-0.5
 74
     0
 49
1.0
 74
     0
 49
-0.5
 74
     0
 49
0.0
 74
     0
 49
-0.5
 74
     0
  0
LTYPE
  5
27B
330
247
100
AcDbSymbolTableRecord
100
AcDbLinetypeTableRecord
  2
CENTER2
 70
     0
  3
Center2  ___ _ ___ _ ___ _ ___ _ ___ _ ___
 72
    65
 73
     4
 40
1.125
 49
0.75
 74
     0
 49
-0.125
 74
     0
 49
0.125
 74
     0
 49
-0.125
 74
     0
  0
LTYPE
  5
27C
330
247
100
AcDbSymbolTableRecord
100
AcDbLinetypeTableRecord
  2
CENTERX2
 70
     0
  3
Centerx2  ________  __  ________  __  _____
 72
    65
 73
     4
 40
4.0
 49
2.5
 74
     0
 49
-0.5
 74
     0
 49
0.5
 74
     0
 49
-0.5
 74
     0
  0
LTYPE
  5
27D
330
247
100
AcDbSymbolTableRecord
100
AcDbLinetypeTableRecord
  2
DASHDOT2
 70
     0
  3
Dashdot2  _._._._._._._._._._._._._._._.
 72
    65
 73
     4
 40
0.5
 49
0.25
 74
     0
 49
-0.125
 74
     0
 49
0.0
 74
     0
 49
-0.125
 74
     0
  0
LTYPE
  5
27E
330
247
100
AcDbSymbolTableRecord
100
AcDbLinetypeTableRecord
  2
DASHDOTX2
 70
     0
  3
Dashdotx2 ____  .  ____  .  ____  .  ___
 72
    65
 73
     4
 40
2.0
 49
1.0
 74
     0
 49
-0.5
 74
     0
 49
0.0
 74
     0
 49
-0.5
 74
     0
  0
LTYPE
  5
27F
330
247
100
AcDbSymbolTableRecord
100
AcDbLinetypeTableRecord
  2
DASHED2
 70
     0
  3
Dashed2 _ _ _ _ _ _ _ _ _ _ _ _ _ _ _ _ _
 72
    65
 73
     2
 40
0.375
 49
0.25
 74
     0
 49
-0.125
 74
     0
  0
LTYPE
  5
280
330
247
100
AcDbSymbolTableRecord
100
AcDbLinetypeTableRecord
  2
DASHEDX2
 70
     0
  3
Dashedx2 ____  ____  ____  ____  ____  ___
 72
    65
 73
     2
 40
1.5
 49
1.0
 74
     0
 49
-0.5
 74
     0
  0
LTYPE
  5
281
330
247
100
AcDbSymbolTableRecord
100
AcDbLinetypeTableRecord
  2
DIVIDE
 70
     0
  3
Divide ____ . . ____ . . ____ . . ____ . . ____
 72
    65
 73
     6
 40
1.25
 49
0.5
 74
     0
 49
-0.25
 74
     0
 49
0.0
 74
     0
 49
-0.25
 74
     0
 49
0.0
 74
     0
 49
-0.25
 74
     0
  0
LTYPE
  5
282
330
247
100
AcDbSymbolTableRecord
100
AcDbLinetypeTableRecord
  2
DIVIDE2
 70
     0
  3
Divide2 __..__..__..__..__..__..__..__.._
 72
    65
 73
     6
 40
0.625
 49
0.25
 74
     0
 49
-0.125
 74
     0
 49
0.0
 74
     0
 49
-0.125
 74
     0
 49
0.0
 74
     0
 49
-0.125
 74
     0
  0
LTYPE
  5
283
330
247
100
AcDbSymbolTableRecord
100
AcDbLinetypeTableRecord
  2
DIVIDEX2
 70
     0
  3
Dividex2 ________  .  .  ________  .  .  _
 72
    65
 73
     6
 40
2.5
 49
1.0
 74
     0
 49
-0.5
 74
     0
 49
0.0
 74
     0
 49
-0.5
 74
     0
 49
0.0
 74
     0
 49
-0.5
 74
     0
  0
LTYPE
  5
284
330
247
100
AcDbSymbolTableRecord
100
AcDbLinetypeTableRecord
  2
DOT
 70
     0
  3
Dot . . . . . . . . . . . . . . . . . . . . . . . .
 72
    65
 73
     2
 40
0.25
 49
0.0
 74
     0
 49
-0.25
 74
     0
  0
LTYPE
  5
285
330
247
100
AcDbSymbolTableRecord
100
AcDbLinetypeTableRecord
  2
DOT2
 70
     0
  3
Dot2 ........................................
 72
    65
 73
     2
 40
0.125
 49
0.0
 74
     0
 49
-0.125
 74
     0
  0
LTYPE
  5
286
330
247
100
AcDbSymbolTableRecord
100
AcDbLinetypeTableRecord
  2
DOTX2
 70
     0
  3
Dotx2 .  .  .  .  .  .  .  .  .  .  .  .  .  .
 72
    65
 73
     2
 40
0.5
 49
0.0
 74
     0
 49
-0.5
 74
     0
  0
LTYPE
  5
287
330
247
100
AcDbSymbolTableRecord
100
AcDbLinetypeTableRecord
  2
HIDDENX2
 70
     0
  3
Hiddenx2 ____ ____ ____ ____ ____ ____ ____
 72
    65
 73
     2
 40
0.75
 49
0.5
 74
     0
 49
-0.25
 74
     0
  0
LTYPE
  5
288
330
247
100
AcDbSymbolTableRecord
100
AcDbLinetypeTableRecord
  2
PHANTOM
 70
     0
  3
Phantom ______  __  __  ______  __  __  ______
 72
    65
 73
     6
 40
2.5
 49
1.25
 74
     0
 49
-0.25
 74
     0
 49
0.25
 74
     0
 49
-0.25
 74
     0
 49
0.25
 74
     0
 49
-0.25
 74
     0
  0
LTYPE
  5
289
330
247
100
AcDbSymbolTableRecord
100
AcDbLinetypeTableRecord
  2
PHANTOM2
 70
     0
  3
Phantom2 ___ _ _ ___ _ _ ___ _ _ ___ _ _
 72
    65
 73
     6
 40
1.25
 49
0.625
 74
     0
 49
-0.125
 74
     0
 49
0.125
 74
     0
 49
-0.125
 74
     0
 49
0.125
 74
     0
 49
-0.125
 74
     0
  0
LTYPE
  5
28A
330
247
100
AcDbSymbolTableRecord
100
AcDbLinetypeTableRecord
  2
PHANTOMX2
 70
     0
  3
Phantomx2 ____________    ____    ____   _
 72
    65
 73
     6
 40
5.0
 49
2.5
 74
     0
 49
-0.5
 74
     0
 49
0.5
 74
     0
 49
-0.5
 74
     0
 49
0.5
 74
     0
 49
-0.5
 74
     0
  0
LTYPE
  5
F1079D
330
247
100
AcDbSymbolTableRecord
100
AcDbLinetypeTableRecord
  2
AM_ISO02W050
 70
     0
  3
__ __ __ __ __ __ __ __ __ __ __ __ __ __ __
 72
    65
 73
     2
 40
7.5
 49
6.0
 74
     0
 49
-1.5
 74
     0
  0
LTYPE
  5
F1079E
330
247
100
AcDbSymbolTableRecord
100
AcDbLinetypeTableRecord
  2
AM_ISO08W050
 70
     0
  3
____ . ____ . ____ . ____ . ____ . ____ . ____
 72
    65
 73
     4
 40
18.0
 49
12.0
 74
     0
 49
-1.5
 74
     0
 49
3.0
 74
     0
 49
-1.5
 74
     0
  0
LTYPE
  5
F1079F
330
247
100
AcDbSymbolTableRecord
100
AcDbLinetypeTableRecord
  2
AM_ISO09W050
 70
     0
  3
_____ . . _____ . . _____ . . ____ .. ____
 72
    65
 73
     6
 40
22.5
 49
12.0
 74
     0
 49
-1.5
 74
     0
 49
3.0
 74
     0
 49
-1.5
 74
     0
 49
3.0
 74
     0
 49
-1.5
 74
     0
  0
LTYPE
  5
F107A0
330
247
100
AcDbSymbolTableRecord
100
AcDbLinetypeTableRecord
  2
Amconstr
 70
     0
  3
_______________________
 72
    65
 73
     2
 40
9999.0
 49
9999.0
 74
     0
 49
0.0
 74
     0
  0
LTYPE
  5
F107A1
330
247
100
AcDbSymbolTableRecord
100
AcDbLinetypeTableRecord
  2
AM_ISO08W050x2
 70
     0
  3
__ . __ . __ . __ . __ . __
 72
    65
 73
     4
 40
9.0
 49
6.0
 74
     0
 49
-0.75
 74
     0
 49
1.5
 74
     0
 49
-0.75
 74
     0
  0
LTYPE
  5
F107A2
330
247
100
AcDbSymbolTableRecord
100
AcDbLinetypeTableRecord
  2
AM_ISO02W050x2
 70
     0
  3
 _ _ _ _ _ _ _ _ _ _ _ _
 72
    65
 73
     2
 40
3.75
 49
3.0
 74
     0
 49
-0.75
 74
     0
  0
LTYPE
  5
F107A5
330
247
100
AcDbSymbolTableRecord
100
AcDbLinetypeTableRecord
  2
Amzigzag
 70
     0
  3
/\/-/\/-/\/-/\/-/\/-/\/
 72
    65
 73
     2
 40
11.0001
 49
0.0001
 74
     4
 75
   136
340
F107A4
 46
0.04
 50
0.0
 44
0.0
 45
0.0
 49
-11.0
 74
     0
  0
LTYPE
  5
F107A6
330
247
100
AcDbSymbolTableRecord
100
AcDbLinetypeTableRecord
  2
Amzigzag2
 70
     0
  3
/\/-/\/-/\/-/\/-/\/-/\/
 72
    65
 73
     2
 40
0.4401
 49
0.0001
 74
     4
 75
   136
340
F107A4
 46
0.0016
 50
0.0
 44
0.0
 45
0.0
 49
-0.4400000000000002
 74
     0
  0
LTYPE
  5
F107B4
330
247
100
AcDbSymbolTableRecord
100
AcDbLinetypeTableRecord
  2
ACANSTGB
 70
     0
  3
__ . . __ . .
 72
    65
 73
     6
 40
0.35433070866
 49
0.15748031496
 74
     0
 49
-0.03937007874
 74
     0
 49
0.03937007874
 74
     0
 49
-0.03937007874
 74
     0
 49
0.03937007874
 74
     0
 49
-0.03937007874
 74
     0
  0
LTYPE
  5
F107B5
330
247
100
AcDbSymbolTableRecord
100
AcDbLinetypeTableRecord
  2
ACANSTGL
 70
     0
  3
_ _ _ _ _
 72
    65
 73
     2
 40
0.11811023622
 49
0.07874015748
 74
     0
 49
-0.03937007874
 74
     0
  0
ENDTAB
  0
TABLE
  2
LAYER
  5
244
330
0
100
AcDbSymbolTable
 70
     7
  0
LAYER
  5
252
102
{ACAD_XDICTIONARY
360
F10908
102
}
330
244
100
AcDbSymbolTableRecord
100
AcDbLayerTableRecord
  2
0
 70
     0
 62
     7
  6
Continuous
370
     0
390
19
  0
LAYER
  5
23F
102
{ACAD_XDICTIONARY
360
F1090A
102
}
330
244
100
AcDbSymbolTableRecord
100
AcDbLayerTableRecord
  2
Bemassung
 70
     0
 62
     7
  6
Continuous
370
     0
390
19
  0
LAYER
  5
240
102
{ACAD_XDICTIONARY
360
F1090C
102
}
330
244
100
AcDbSymbolTableRecord
100
AcDbLayerTableRecord
  2
Rahmen
 70
     0
 62
     7
  6
Continuous
370
     0
390
19
  0
LAYER
  5
241
102
{ACAD_XDICTIONARY
360
F1090E
102
}
330
244
100
AcDbSymbolTableRecord
100
AcDbLayerTableRecord
  2
Geo
 70
     0
 62
     7
  6
Continuous
370
     0
390
19
  0
LAYER
  5
33A
330
244
100
AcDbSymbolTableRecord
100
AcDbLayerTableRecord
  2
Defpoints
 70
     0
 62
     7
  6
Continuous
290
     0
370
    -3
390
19
  0
LAYER
  5
57E
102
{ACAD_XDICTIONARY
360
F10910
102
}
330
244
100
AcDbSymbolTableRecord
100
AcDbLayerTableRecord
  2
Text
 70
     0
 62
     7
  6
Continuous
370
     0
390
19
1001
AcAecLayerStandard
1000

1000

  0
LAYER
  5
F10854
102
{ACAD_XDICTIONARY
360
F10912
102
}
330
244
100
AcDbSymbolTableRecord
100
AcDbLayerTableRecord
  2
AM_5
 70
     0
 62
     3
  6
Continuous
370
    15
390
19
1001
AcAecLayerStandard
1000

1000

  0
ENDTAB
  0
TABLE
  2
STYLE
  5
245
330
0
100
AcDbSymbolTable
 70
     5
  0
STYLE
  5
253
330
245
100
AcDbSymbolTableRecord
100
AcDbTextStyleTableRecord
  2
Standard
 70
     0
 40
0.0
 41
1.0
 50
0.0
 71
     0
 42
0.2
  3
Arial
  4

1001
ACAD
1000
Arial
1071
        0
  0
STYLE
  5
132
330
245
100
AcDbSymbolTableRecord
100
AcDbTextStyleTableRecord
  2
Beschriftung
 70
     0
 40
0.0
 41
1.0
 50
0.0
 71
     0
 42
0.2
  3
Arial
  4

1001
ACAD
1000
Arial
1071
        0
1001
AcadAnnotative
1000
AnnotativeData
1070
     1
1070
     1
  0
STYLE
  5
F107A4
330
245
100
AcDbSymbolTableRecord
100
AcDbTextStyleTableRecord
  2

 70
     1
 40
0.0
 41
1.0
 50
0.0
 71
     0
 42
0.2
  3
genltshp.shx
  4

  0
STYLE
  5
F107B2
330
245
100
AcDbSymbolTableRecord
100
AcDbTextStyleTableRecord
  2
ACANSTS
 70
     0
 40
1.0
 41
1.0
 50
0.0
 71
     0
 42
0.2
  3
romans.shx
  4

  0
STYLE
  5
F107B3
330
245
100
AcDbSymbolTableRecord
100
AcDbTextStyleTableRecord
  2
ACANSGDT
 70
     0
 40
0.0
 41
1.0
 50
0.0
 71
     0
 42
0.2
  3
amgdt.shx
  4

  0
ENDTAB
  0
TABLE
  2
VIEW
  5
248
330
0
100
AcDbSymbolTable
 70
     0
  0
ENDTAB
  0
TABLE
  2
UCS
  5
249
330
0
100
AcDbSymbolTable
 70
     0
  0
ENDTAB
  0
TABLE
  2
APPID
  5
24B
330
0
100
AcDbSymbolTable
 70
    30
  0
APPID
  5
254
330
24B
100
AcDbSymbolTableRecord
100
AcDbRegAppTableRecord
  2
ACAD
 70
     0
  0
APPID
  5
26C
330
24B
100
AcDbSymbolTableRecord
100
AcDbRegAppTableRecord
  2
VD_INVISIBLE_NOT_FOR_READ
 70
     0
  0
APPID
  5
26D
330
24B
100
AcDbSymbolTableRecord
100
AcDbRegAppTableRecord
  2
VD_TEMPHATCH
 70
     0
  0
APPID
  5
26E
330
24B
100
AcDbSymbolTableRecord
100
AcDbRegAppTableRecord
  2
VDEXTRAPARAM
 70
     0
  0
APPID
  5
26F
330
24B
100
AcDbSymbolTableRecord
100
AcDbRegAppTableRecord
  2
PE_URL
 70
     0
  0
APPID
  5
270
330
24B
100
AcDbSymbolTableRecord
100
AcDbRegAppTableRecord
  2
VD_UNKNOWN
 70
     0
  0
APPID
  5
28F
330
24B
100
AcDbSymbolTableRecord
100
AcDbRegAppTableRecord
  2
AcadAnnotative
 70
     0
  0
APPID
  5
290
330
24B
100
AcDbSymbolTableRecord
100
AcDbRegAppTableRecord
  2
ACAD_DSTYLE_DIMJAG
 70
     0
  0
APPID
  5
291
330
24B
100
AcDbSymbolTableRecord
100
AcDbRegAppTableRecord
  2
ACAD_DSTYLE_DIMTALN
 70
     0
  0
APPID
  5
293
330
24B
100
AcDbSymbolTableRecord
100
AcDbRegAppTableRecord
  2
ACAD_PSEXT
 70
     0
  0
APPID
  5
42A
330
24B
100
AcDbSymbolTableRecord
100
AcDbRegAppTableRecord
  2
ACAD_MLEADERVER
 70
     0
  0
APPID
  5
532
330
24B
100
AcDbSymbolTableRecord
100
AcDbRegAppTableRecord
  2
ACAD_EXEMPT_FROM_CAD_STANDARDS
 70
     0
  0
APPID
  5
57F
330
24B
100
AcDbSymbolTableRecord
100
AcDbRegAppTableRecord
  2
AcAecLayerStandard
 70
     0
  0
APPID
  5
F10737
330
24B
100
AcDbSymbolTableRecord
100
AcDbRegAppTableRecord
  2
MCAD_NO_VIS
 70
     0
  0
APPID
  5
F10738
330
24B
100
AcDbSymbolTableRecord
100
AcDbRegAppTableRecord
  2
ACAD_TEMP_GRAPHIC
 70
     0
  0
APPID
  5
F10761
330
24B
100
AcDbSymbolTableRecord
100
AcDbRegAppTableRecord
  2
AD_DRAW
 70
     0
  0
APPID
  5
F10764
330
24B
100
AcDbSymbolTableRecord
100
AcDbRegAppTableRecord
  2
ACATTRIBSERVICES
 70
     0
  0
APPID
  5
F1077D
330
24B
100
AcDbSymbolTableRecord
100
AcDbRegAppTableRecord
  2
DESIGNERASSEMBLIES
 70
     0
  0
APPID
  5
F10782
330
24B
100
AcDbSymbolTableRecord
100
AcDbRegAppTableRecord
  2
ACADM_DIM_EDIT
 70
     0
  0
APPID
  5
F10783
330
24B
100
AcDbSymbolTableRecord
100
AcDbRegAppTableRecord
  2
AMDT_DM_ADJ
 70
     0
  0
APPID
  5
F1079B
330
24B
100
AcDbSymbolTableRecord
100
AcDbRegAppTableRecord
  2
ACAD_DSTYLE_DIMBREAK
 70
     0
  0
APPID
  5
F107BC
330
24B
100
AcDbSymbolTableRecord
100
AcDbRegAppTableRecord
  2
GENIUS_GENSCREG_15
 70
     0
  0
APPID
  5
F107BD
330
24B
100
AcDbSymbolTableRecord
100
AcDbRegAppTableRecord
  2
GENIUS_GENODEF_13
 70
     0
  0
APPID
  5
F107BE
330
24B
100
AcDbSymbolTableRecord
100
AcDbRegAppTableRecord
  2
GENIUS_GENOBJ-N-SDF_13
 70
     0
  0
APPID
  5
F1082F
330
24B
100
AcDbSymbolTableRecord
100
AcDbRegAppTableRecord
  2
GENIUS_GENDTOL_13
 70
     0
  0
APPID
  5
F1087C
330
24B
100
AcDbSymbolTableRecord
100
AcDbRegAppTableRecord
  2
ACAD_DSTYLE_DIMINSPECT
 70
     0
  0
APPID
  5
F10960
330
24B
100
AcDbSymbolTableRecord
100
AcDbRegAppTableRecord
  2
ACAD_DSTYLE_DIMARC_LENGTH_SYMBOL
 70
     0
  0
APPID
  5
F10961
330
24B
100
AcDbSymbolTableRecord
100
AcDbRegAppTableRecord
  2
ACAD_DSTYLE_DIM_LINETYPE
 70
     0
  0
APPID
  5
F10962
330
24B
100
AcDbSymbolTableRecord
100
AcDbRegAppTableRecord
  2
ACAD_DSTYLE_DIM_EXT1_LINETYPE
 70
     0
  0
APPID
  5
F10963
330
24B
100
AcDbSymbolTableRecord
100
AcDbRegAppTableRecord
  2
ACAD_DSTYLE_DIM_EXT2_LINETYPE
 70
     0
  0
ENDTAB
  0
TABLE
  2
DIMSTYLE
  5
24C
330
0
100
AcDbSymbolTable
 70
     9
100
AcDbDimStyleTable
 71
     2
340
27
340
269
  0
DIMSTYLE
105
269
330
24C
100
AcDbSymbolTableRecord
100
AcDbDimStyleTableRecord
  2
Standard
 70
     0
172
     1
174
     1
288
     1
340
253
342
23C
  0
DIMSTYLE
105
137
330
24C
100
AcDbSymbolTableRecord
100
AcDbDimStyleTableRecord
  2
Beschriftung
 70
     0
 41
2.5
 42
0.625
 44
1.25
 73
     0
 74
     0
 77
     1
140
2.5
147
0.625
172
     1
174
     1
271
     2
288
     1
340
253
342
23C
1001
AcadAnnotative
1000
AnnotativeData
1070
     1
1070
     1
1001
ACAD_DSTYLE_DIMJAG
1070
   388
1040
1.5
1001
ACAD_DSTYLE_DIMTALN
1070
   392
1070
     0
  0
DIMSTYLE
105
27
102
{ACAD_REACTORS
330
F1000D
330
F10017
330
F1001C
330
F10003
330
F10008
330
F10012
102
}
330
24C
100
AcDbSymbolTableRecord
100
AcDbDimStyleTableRecord
  2
BEM-ISBE
 70
     0
 41
2.5
 42
0.625
 44
1.25
 48
0.000000001
 71
     1
 73
     0
 74
     0
 77
     1
140
2.5
146
0.5
147
0.625
171
     3
172
     1
179
     3
271
     3
272
     3
274
     3
340
253
342
23C
1001
ACAD_DSTYLE_DIMJAG
1070
   388
1040
1.5
1001
ACAD_DSTYLE_DIMTALN
1070
   392
1070
     1
  0
DIMSTYLE
105
F1079A
102
{ACAD_REACTORS
330
F109BD
102
}
330
24C
100
AcDbSymbolTableRecord
100
AcDbDimStyleTableRecord
  2
AM_ANSI
 70
     0
  4
mm
 41
0.12
 42
0.05
 43
0.5
 44
0.1
 47
0.1
 48
0.1
 78
     7
 79
     2
140
0.12
141
0.0
146
0.71
147
0.06
176
   256
177
   256
178
     2
274
     4
284
     7
340
253
371
    -1
372
    -1
1001
ACAD_DSTYLE_DIMJAG
1070
   388
1040
1.5
1001
ACAD_DSTYLE_DIMBREAK
1070
   391
1040
0.125
1001
ACAD_DSTYLE_DIMARC_LENGTH_SYMBOL
1070
   379
1070
     1
1001
ACAD_DSTYLE_DIM_LINETYPE
1070
   380
1005
256
1001
ACAD_DSTYLE_DIM_EXT1_LINETYPE
1070
   381
1005
256
1001
ACAD_DSTYLE_DIM_EXT2_LINETYPE
1070
   382
1005
256
  0
DIMSTYLE
105
F107A7
330
24C
100
AcDbSymbolTableRecord
100
AcDbDimStyleTableRecord
  2
AM_ANSI$3
 70
     0
  4
mm
 41
0.12
 42
0.05
 43
0.5
 44
0.1
 47
0.1
 48
0.1
 78
     7
 79
     2
140
0.12
141
0.0
146
0.71
147
0.06
176
   256
177
   256
178
     2
274
     4
284
     7
288
     1
289
     0
340
253
371
    -1
372
    -1
1001
ACAD_DSTYLE_DIMBREAK
1070
   391
1040
0.125
1001
ACAD_DSTYLE_DIMJAG
1070
   388
1040
1.5
1001
ACAD_DSTYLE_DIMARC_LENGTH_SYMBOL
1070
   379
1070
     1
1001
ACAD_DSTYLE_DIM_LINETYPE
1070
   380
1005
256
1001
ACAD_DSTYLE_DIM_EXT1_LINETYPE
1070
   381
1005
256
1001
ACAD_DSTYLE_DIM_EXT2_LINETYPE
1070
   382
1005
256
  0
DIMSTYLE
105
F107A8
330
24C
100
AcDbSymbolTableRecord
100
AcDbDimStyleTableRecord
  2
AM_ANSI$4
 70
     0
  4
mm
 41
0.12
 42
0.05
 43
0.5
 44
0.1
 47
0.1
 48
0.1
 78
     7
 79
     2
140
0.12
141
0.0
146
0.71
147
0.06
176
   256
177
   256
178
     2
274
     4
284
     7
288
     1
289
     0
340
253
371
    -1
372
    -1
1001
ACAD_DSTYLE_DIMBREAK
1070
   391
1040
0.125
1001
ACAD_DSTYLE_DIMJAG
1070
   388
1040
1.5
1001
ACAD_DSTYLE_DIMARC_LENGTH_SYMBOL
1070
   379
1070
     1
1001
ACAD_DSTYLE_DIM_LINETYPE
1070
   380
1005
256
1001
ACAD_DSTYLE_DIM_EXT1_LINETYPE
1070
   381
1005
256
1001
ACAD_DSTYLE_DIM_EXT2_LINETYPE
1070
   382
1005
256
  0
DIMSTYLE
105
F107A9
330
24C
100
AcDbSymbolTableRecord
100
AcDbDimStyleTableRecord
  2
AM_ANSI$7
 70
     0
  4
mm
 41
0.12
 42
0.05
 43
0.5
 44
0.1
 47
0.1
 48
0.1
 78
     7
 79
     2
140
0.12
141
0.0
146
0.71
147
0.06
176
   256
177
   256
178
     2
274
     4
284
     7
340
253
371
    -1
372
    -1
1001
ACAD_DSTYLE_DIMBREAK
1070
   391
1040
0.125
1001
ACAD_DSTYLE_DIMJAG
1070
   388
1040
1.5
1001
ACAD_DSTYLE_DIMARC_LENGTH_SYMBOL
1070
   379
1070
     1
1001
ACAD_DSTYLE_DIM_LINETYPE
1070
   380
1005
256
1001
ACAD_DSTYLE_DIM_EXT1_LINETYPE
1070
   381
1005
256
1001
ACAD_DSTYLE_DIM_EXT2_LINETYPE
1070
   382
1005
256
  0
DIMSTYLE
105
F107AA
330
24C
100
AcDbSymbolTableRecord
100
AcDbDimStyleTableRecord
  2
AM_ANSI$SF
 70
     0
  4
mm
 41
0.12
 42
0.05
 43
0.5
 44
0.1
 47
0.1
 48
0.1
 75
     1
 76
     1
 78
     7
 79
     2
140
0.12
141
0.0
146
0.71
147
0.06
176
   256
177
   256
178
     2
274
     4
284
     7
340
253
371
    -1
372
    -1
1001
ACAD_DSTYLE_DIMBREAK
1070
   391
1040
0.125
1001
ACAD_DSTYLE_DIMJAG
1070
   388
1040
1.5
1001
ACAD_DSTYLE_DIMARC_LENGTH_SYMBOL
1070
   379
1070
     1
1001
ACAD_DSTYLE_DIM_LINETYPE
1070
   380
1005
256
1001
ACAD_DSTYLE_DIM_EXT1_LINETYPE
1070
   381
1005
256
1001
ACAD_DSTYLE_DIM_EXT2_LINETYPE
1070
   382
1005
256
  0
DIMSTYLE
105
F107AF
330
24C
100
AcDbSymbolTableRecord
100
AcDbDimStyleTableRecord
  2
AM_ANSI$SH
 70
     0
  4
mm
 41
0.12
 42
0.05
 43
0.5
 44
0.1
 47
0.1
 48
0.1
 75
     1
 76
     1
 78
     7
 79
     2
140
0.12
141
0.0
146
0.71
147
0.06
173
     1
176
   256
177
   256
178
     2
274
     4
284
     7
340
253
343
F107AB
371
    -1
372
    -1
1001
ACAD_DSTYLE_DIMBREAK
1070
   391
1040
0.125
1001
ACAD_DSTYLE_DIMJAG
1070
   388
1040
1.5
1001
ACAD_DSTYLE_DIMARC_LENGTH_SYMBOL
1070
   379
1070
     1
1001
ACAD_DSTYLE_DIM_LINETYPE
1070
   380
1005
256
1001
ACAD_DSTYLE_DIM_EXT1_LINETYPE
1070
   381
1005
256
1001
ACAD_DSTYLE_DIM_EXT2_LINETYPE
1070
   382
1005
256
  0
ENDTAB
  0
TABLE
  2
BLOCK_RECORD
  5
243
330
0
100
AcDbSymbolTable
 70
    11
  0
BLOCK_RECORD
  5
261
330
243
100
AcDbSymbolTableRecord
100
AcDbBlockTableRecord
  2
*Model_Space
340
FD0
  0
BLOCK_RECORD
  5
25D
330
243
100
AcDbSymbolTableRecord
100
AcDbBlockTableRecord
  2
*Paper_Space
340
FD1
  0
BLOCK_RECORD
  5
265
330
243
100
AcDbSymbolTableRecord
100
AcDbBlockTableRecord
  2
*Paper_Space0
340
0
  0
BLOCK_RECORD
  5
23C
330
243
100
AcDbSymbolTableRecord
100
AcDbBlockTableRecord
  2
VDDIM_DEFAULT
340
0
102
{BLKREFS
331
F107FE
331
F1083C
331
F1083D
331
F1084E
331
F1084F
331
F10864
331
F10865
331
F10876
331
F10877
331
F10902
331
F10903
102
}
  0
BLOCK_RECORD
  5
23E
330
243
100
AcDbSymbolTableRecord
100
AcDbBlockTableRecord
  2
VDDIM_NONE
340
0
  0
BLOCK_RECORD
  5
F1000C
330
243
100
AcDbSymbolTableRecord
100
AcDbBlockTableRecord
  2
*D3
340
0
  0
BLOCK_RECORD
  5
F10016
330
243
100
AcDbSymbolTableRecord
100
AcDbBlockTableRecord
  2
*D4
340
0
  0
BLOCK_RECORD
  5
F1001B
330
243
100
AcDbSymbolTableRecord
100
AcDbBlockTableRecord
  2
*D5
340
0
  0
BLOCK_RECORD
  5
F10002
330
243
100
AcDbSymbolTableRecord
100
AcDbBlockTableRecord
  2
*D6
340
0
  0
BLOCK_RECORD
  5
F10007
330
243
100
AcDbSymbolTableRecord
100
AcDbBlockTableRecord
  2
*D7
340
0
  0
BLOCK_RECORD
  5
F10011
330
243
100
AcDbSymbolTableRecord
100
AcDbBlockTableRecord
  2
*D8
340
0
  0
BLOCK_RECORD
  5
F107AB
330
243
100
AcDbSymbolTableRecord
100
AcDbBlockTableRecord
  2
GENAXEH
340
0
  0
ENDTAB
  0
ENDSEC
  0
SECTION
  2
BLOCKS
  0
BLOCK
  5
262
330
261
100
AcDbEntity
  8
0
100
AcDbBlockBegin
  2
*Model_Space
 70
     0
 10
0.0
 20
0.0
 30
0.0
  3
*Model_Space
  1

  0
ENDBLK
  5
263
330
261
100
AcDbEntity
  8
0
100
AcDbBlockEnd
  0
BLOCK
  5
25E
330
25D
100
AcDbEntity
 67
     1
  8
0
100
AcDbBlockBegin
  2
*Paper_Space
 70
     0
 10
0.0
 20
0.0
 30
0.0
  3
*Paper_Space
  1

  0
ENDBLK
  5
25F
330
25D
100
AcDbEntity
 67
     1
  8
0
100
AcDbBlockEnd
  0
BLOCK
  5
266
330
265
100
AcDbEntity
  8
0
100
AcDbBlockBegin
  2
*Paper_Space0
 70
     0
 10
0.0
 20
0.0
 30
0.0
  3
*Paper_Space0
  1

  0
VIEWPORT
  5
296
102
{ACAD_XDICTIONARY
360
F109E4
102
}
330
265
100
AcDbEntity
  8
0
 60
     1
100
AcDbViewport
 10
0.0
 20
0.0
 30
0.0
 40
10.0
 41
10.0
 69
     0
 12
0.0
 22
0.0
 13
0.0
 23
0.0
 14
1.0
 24
1.0
 15
0.0
 25
0.0
 16
0.0
 26
0.0
 36
1.0
 17
0.0
 27
0.0
 37
0.0
 42
0.0
 43
0.0
 44
0.0
 45
10.0
 50
0.0
 51
0.0000000000007958
 72
   100
 90
   163872
  1

281
     0
 71
     0
 74
     0
110
0.0
120
0.0
130
0.0
111
1.0
121
0.0
131
0.0
112
0.0
122
1.0
132
0.0
 79
     0
146
0.0
1001
VD_INVISIBLE_NOT_FOR_READ
1000
VD_INVISIBLE_NOT_FOR_READ
  0
VIEWPORT
  5
297
102
{ACAD_XDICTIONARY
360
F109E6
102
}
330
265
100
AcDbEntity
  8
0
 60
     1
100
AcDbViewport
 10
0.0
 20
0.0
 30
0.0
 40
10.0
 41
10.0
 69
     0
 12
0.0
 22
0.0
 13
0.0
 23
0.0
 14
1.0
 24
1.0
 15
0.0
 25
0.0
 16
0.0
 26
0.0
 36
1.0
 17
0.0
 27
0.0
 37
0.0
 42
0.0
 43
0.0
 44
0.0
 45
10.0
 50
0.0
 51
0.0000000000007958
 72
   100
 90
   163872
  1

281
     0
 71
     0
 74
     0
110
0.0
120
0.0
130
0.0
111
1.0
121
0.0
131
0.0
112
0.0
122
1.0
132
0.0
 79
     0
146
0.0
1001
VD_INVISIBLE_NOT_FOR_READ
1000
VD_INVISIBLE_NOT_FOR_READ
  0
ENDBLK
  5
267
330
265
100
AcDbEntity
  8
0
100
AcDbBlockEnd
  0
BLOCK
  5
28B
330
23C
100
AcDbEntity
  8
0
100
AcDbBlockBegin
  2
VDDIM_DEFAULT
 70
     0
 10
0.0
 20
0.0
 30
0.0
  3
VDDIM_DEFAULT
  1

  0
LWPOLYLINE
  5
23D
330
23C
100
AcDbEntity
  8
0
  6
Continuous
 62
     0
100
AcDbPolyline
 90
        4
 70
     0
 43
0.0
 10
0.0
 20
0.0
 10
-1.0
 20
-0.1665
 10
-1.0
 20
0.1665
 10
0.0
 20
0.0
1001
VDEXTRAPARAM
1071
        1
1071
        0
1071
        0
1040
1.0
1000

1000

1040
0.0
1040
0.0
  0
HATCH
  5
292
330
23C
100
AcDbEntity
  8
0
  6
Continuous
 62
     0
100
AcDbHatch
 10
0.0
 20
0.0
 30
0.0
210
0.0
220
0.0
230
1.0
  2
SOLID
 70
     1
 71
     0
 91
        1
 92
        2
 72
     0
 73
     1
 93
        3
 10
0.0
 20
0.0
 10
-1.0
 20
-0.1665
 10
-1.0
 20
0.1665
 97
        0
 75
     0
 76
     1
 98
        1
 10
0.0
 20
0.0
1001
VDEXTRAPARAM
1071
        1
1071
        0
1071
        0
1040
1.0
1000

1000

1040
0.0
1040
0.0
1001
VD_TEMPHATCH
1000
VD_TEMPHATCH
  0
ENDBLK
  5
28C
330
23C
100
AcDbEntity
  8
0
100
AcDbBlockEnd
  0
BLOCK
  5
28D
330
23E
100
AcDbEntity
  8
0
100
AcDbBlockBegin
  2
VDDIM_NONE
 70
     0
 10
0.0
 20
0.0
 30
0.0
  3
VDDIM_NONE
  1

  0
ENDBLK
  5
28E
330
23E
100
AcDbEntity
  8
0
100
AcDbBlockEnd
  0
BLOCK
  5
F10020
330
F1000C
100
AcDbEntity
  8
0
100
AcDbBlockBegin
  2
*D3
 70
     1
 10
0.0
 20
0.0
 30
0.0
  3
*D3
  1

  0
LINE
  5
F10873
330
F1000C
100
AcDbEntity
  8
Bemassung
 62
     0
370
    -2
100
AcDbLine
 10
14.76502901323609
 20
5.309203618374922
 30
0.0
 11
14.76502901323609
 21
20.93420361837492
 31
0.0
  0
LINE
  5
F10874
330
F1000C
100
AcDbEntity
  8
Bemassung
 62
     0
370
    -2
100
AcDbLine
 10
59.76502901323607
 20
4.609203618374922
 30
0.0
 11
59.76502901323607
 21
20.93420361837492
 31
0.0
  0
LINE
  5
F10875
330
F1000C
100
AcDbEntity
  8
Bemassung
 62
     0
370
    -2
100
AcDbLine
 10
17.26502901323609
 20
19.68420361837491
 30
0.0
 11
57.26502901323607
 21
19.68420361837491
 31
0.0
  0
INSERT
  5
F10876
330
F1000C
100
AcDbEntity
  8
Bemassung
 62
     0
370
    -2
100
AcDbBlockReference
  2
VDDIM_DEFAULT
 10
14.76502901323609
 20
19.68420361837491
 30
0.0
 41
2.5
 42
2.5
 43
2.5
 50
180.0
  0
INSERT
  5
F10877
330
F1000C
100
AcDbEntity
  8
Bemassung
 62
     0
370
    -2
100
AcDbBlockReference
  2
VDDIM_DEFAULT
 10
59.76502901323607
 20
19.68420361837491
 30
0.0
 41
2.5
 42
2.5
 43
2.5
  0
MTEXT
  5
F10878
330
F1000C
100
AcDbEntity
  8
Bemassung
 62
     0
100
AcDbMText
 10
37.26502901323609
 20
20.30920361837492
 30
0.0
 40
2.5
 41
0.0
 71
     8
 72
     1
  1
\A1;45
 73
     1
 44
1.0
1001
ACAD
1000
MTEXTBEGIN
1070
    73
1070
     1
1070
    44
1040
1.0
1070
    74
1070
     0
1000
MTEXTEND
  0
POINT
  5
F10879
330
F1000C
100
AcDbEntity
  8
Defpoints
 62
     0
100
AcDbPoint
 10
14.76502901323609
 20
4.684203618374922
 30
0.0
  0
POINT
  5
F1087A
330
F1000C
100
AcDbEntity
  8
Defpoints
 62
     0
100
AcDbPoint
 10
59.76502901323607
 20
3.984203618374923
 30
0.0
  0
POINT
  5
F1087B
330
F1000C
100
AcDbEntity
  8
Defpoints
 62
     0
100
AcDbPoint
 10
59.76502901323607
 20
19.68420361837491
 30
0.0
  0
ENDBLK
  5
F10029
330
F1000C
100
AcDbEntity
  8
0
100
AcDbBlockEnd
  0
BLOCK
  5
F1002A
330
F10016
100
AcDbEntity
  8
0
100
AcDbBlockBegin
  2
*D4
 70
     1
 10
0.0
 20
0.0
 30
0.0
  3
*D4
  1

  0
LINE
  5
F1084B
330
F10016
100
AcDbEntity
  8
Bemassung
 62
     0
370
    -2
100
AcDbLine
 10
-1.234970986763904
 20
-7.940796381625077
 30
0.0
 11
-1.234970986763904
 21
-23.56579638162509
 31
0.0
  0
LINE
  5
F1084C
330
F10016
100
AcDbEntity
  8
Bemassung
 62
     0
370
    -2
100
AcDbLine
 10
-23.23497098676391
 20
-23.69079638162508
 30
0.0
 11
-23.23497098676391
 21
-21.06579638162509
 31
0.0
  0
LINE
  5
F1084D
330
F10016
100
AcDbEntity
  8
Bemassung
 62
     0
370
    -2
100
AcDbLine
 10
-3.734970986763904
 20
-22.31579638162509
 30
0.0
 11
-20.73497098676391
 21
-22.31579638162509
 31
0.0
  0
INSERT
  5
F1084E
330
F10016
100
AcDbEntity
  8
Bemassung
 62
     0
370
    -2
100
AcDbBlockReference
  2
VDDIM_DEFAULT
 10
-1.234970986763904
 20
-22.31579638162509
 30
0.0
 41
2.5
 42
2.5
 43
2.5
  0
INSERT
  5
F1084F
330
F10016
100
AcDbEntity
  8
Bemassung
 62
     0
370
    -2
100
AcDbBlockReference
  2
VDDIM_DEFAULT
 10
-23.23497098676391
 20
-22.31579638162509
 30
0.0
 41
2.5
 42
2.5
 43
2.5
 50
180.0
  0
MTEXT
  5
F10850
330
F10016
100
AcDbEntity
  8
Bemassung
 62
     0
100
AcDbMText
 10
-12.23497098676391
 20
-21.69079638162509
 30
0.0
 40
2.5
 41
0.0
 71
     8
 72
     1
  1
\A1;22
 73
     1
 44
1.0
1001
ACAD
1000
MTEXTBEGIN
1070
    73
1070
     1
1070
    44
1040
1.0
1070
    74
1070
     0
1000
MTEXTEND
  0
POINT
  5
F10851
330
F10016
100
AcDbEntity
  8
Defpoints
 62
     0
100
AcDbPoint
 10
-1.234970986763904
 20
-7.315796381625077
 30
0.0
  0
POINT
  5
F10852
330
F10016
100
AcDbEntity
  8
Defpoints
 62
     0
100
AcDbPoint
 10
-23.23497098676391
 20
-24.31579638162508
 30
0.0
  0
POINT
  5
F10853
330
F10016
100
AcDbEntity
  8
Defpoints
 62
     0
100
AcDbPoint
 10
-23.23497098676391
 20
-22.31579638162509
 30
0.0
  0
ENDBLK
  5
F10033
330
F10016
100
AcDbEntity
  8
0
100
AcDbBlockEnd
  0
BLOCK
  5
F10034
330
F1001B
100
AcDbEntity
  8
0
100
AcDbBlockBegin
  2
*D5
 70
     1
 10
0.0
 20
0.0
 30
0.0
  3
*D5
  1

  0
LINE
  5
F10861
330
F1001B
100
AcDbEntity
  8
Bemassung
 62
     0
370
    -2
100
AcDbLine
 10
59.76502901323607
 20
4.609203618374922
 30
0.0
 11
59.76502901323607
 21
35.93420361837492
 31
0.0
  0
LINE
  5
F10862
330
F1001B
100
AcDbEntity
  8
Bemassung
 62
     0
370
    -2
100
AcDbLine
 10
-23.23497098676391
 20
-23.69079638162508
 30
0.0
 11
-23.23497098676391
 21
35.93420361837492
 31
0.0
  0
LINE
  5
F10863
330
F1001B
100
AcDbEntity
  8
Bemassung
 62
     0
370
    -2
100
AcDbLine
 10
57.26502901323607
 20
34.68420361837492
 30
0.0
 11
-20.73497098676391
 21
34.68420361837492
 31
0.0
  0
INSERT
  5
F10864
330
F1001B
100
AcDbEntity
  8
Bemassung
 62
     0
370
    -2
100
AcDbBlockReference
  2
VDDIM_DEFAULT
 10
59.76502901323607
 20
34.68420361837492
 30
0.0
 41
2.5
 42
2.5
 43
2.5
  0
INSERT
  5
F10865
330
F1001B
100
AcDbEntity
  8
Bemassung
 62
     0
370
    -2
100
AcDbBlockReference
  2
VDDIM_DEFAULT
 10
-23.23497098676391
 20
34.68420361837492
 30
0.0
 41
2.5
 42
2.5
 43
2.5
 50
180.0
  0
MTEXT
  5
F10866
330
F1001B
100
AcDbEntity
  8
Bemassung
 62
     0
100
AcDbMText
 10
18.26502901323609
 20
35.30920361837492
 30
0.0
 40
2.5
 41
0.0
 71
     8
 72
     1
  1
\A1;83
 73
     1
 44
1.0
1001
ACAD
1000
MTEXTBEGIN
1070
    73
1070
     1
1070
    44
1040
1.0
1070
    74
1070
     0
1000
MTEXTEND
  0
POINT
  5
F10867
330
F1001B
100
AcDbEntity
  8
Defpoints
 62
     0
100
AcDbPoint
 10
59.76502901323607
 20
3.984203618374923
 30
0.0
  0
POINT
  5
F10868
330
F1001B
100
AcDbEntity
  8
Defpoints
 62
     0
100
AcDbPoint
 10
-23.23497098676391
 20
-24.31579638162508
 30
0.0
  0
POINT
  5
F10869
330
F1001B
100
AcDbEntity
  8
Defpoints
 62
     0
100
AcDbPoint
 10
-23.23497098676391
 20
34.68420361837492
 30
0.0
  0
ENDBLK
  5
F1003D
330
F1001B
100
AcDbEntity
  8
0
100
AcDbBlockEnd
  0
BLOCK
  5
F1003E
330
F10002
100
AcDbEntity
  8
0
100
AcDbBlockBegin
  2
*D6
 70
     1
 10
0.0
 20
0.0
 30
0.0
  3
*D6
  1

  0
LINE
  5
F107FB
330
F10002
100
AcDbEntity
  8
Bemassung
 62
     0
370
    -2
100
AcDbLine
 10
-37.89101879019736
 20
18.46229878744656
 30
0.0
 11
-23.37443642446858
 21
4.56272079018188
 31
0.0
  0
MTEXT
  5
F107FC
330
F10002
100
AcDbEntity
  8
Bemassung
 62
     0
100
AcDbMText
 10
-35.55204739122574
 20
17.08804501587156
 30
0.0
 40
2.5
 41
0.0
 71
     8
 72
     1
  1
\A1;R6
 11
0.7222900514946693
 21
-0.6915902555067041
 31
0.0
 73
     1
 44
1.0
1001
ACAD
1000
MTEXTBEGIN
1070
    73
1070
     1
1070
    44
1040
1.0
1070
    74
1070
     0
1000
MTEXTEND
  0
LINE
  5
F107FD
330
F10002
100
AcDbEntity
  8
Bemassung
 62
     0
370
    -2
100
AcDbLine
 10
-17.23497098676391
 20
-1.315796381625081
 30
0.0
 11
-21.5687112957319
 21
2.833745151415122
 31
0.0
  0
INSERT
  5
F107FE
330
F10002
100
AcDbEntity
  8
Bemassung
 62
     0
370
    -2
100
AcDbBlockReference
  2
VDDIM_DEFAULT
 10
-21.5687112957319
 20
2.833745151415122
 30
0.0
 41
2.5
 42
2.5
 43
2.5
 50
316.2438764322198
  0
POINT
  5
F107FF
330
F10002
100
AcDbEntity
  8
Defpoints
 62
     0
100
AcDbPoint
 10
-21.5687112957319
 20
2.833745151415122
 30
0.0
  0
POINT
  5
F10800
330
F10002
100
AcDbEntity
  8
Defpoints
 62
     0
100
AcDbPoint
 10
-17.23497098676391
 20
-1.315796381625081
 30
0.0
  0
ENDBLK
  5
F10044
330
F10002
100
AcDbEntity
  8
0
100
AcDbBlockEnd
  0
BLOCK
  5
F10045
330
F10007
100
AcDbEntity
  8
0
100
AcDbBlockBegin
  2
*D7
 70
     1
 10
0.0
 20
0.0
 30
0.0
  3
*D7
  1

  0
LINE
  5
F10839
330
F10007
100
AcDbEntity
  8
Bemassung
 62
     0
370
    -2
100
AcDbLine
 10
-17.85997098676391
 20
-7.315796381625077
 30
0.0
 11
-34.48497098676391
 21
-7.315796381625071
 31
0.0
  0
LINE
  5
F1083A
330
F10007
100
AcDbEntity
  8
Bemassung
 62
     0
370
    -2
100
AcDbLine
 10
-17.85997098676391
 20
4.684203618374922
 30
0.0
 11
-34.48497098676391
 21
4.684203618374927
 31
0.0
  0
LINE
  5
F1083B
330
F10007
100
AcDbEntity
  8
Bemassung
 62
     0
370
    -2
100
AcDbLine
 10
-33.23497098676391
 20
-4.815796381625074
 30
0.0
 11
-33.23497098676391
 21
2.184203618374926
 31
0.0
  0
INSERT
  5
F1083C
330
F10007
100
AcDbEntity
  8
Bemassung
 62
     0
370
    -2
100
AcDbBlockReference
  2
VDDIM_DEFAULT
 10
-33.23497098676391
 20
-7.315796381625074
 30
0.0
 41
2.5
 42
2.5
 43
2.5
 50
270.0
  0
INSERT
  5
F1083D
330
F10007
100
AcDbEntity
  8
Bemassung
 62
     0
370
    -2
100
AcDbBlockReference
  2
VDDIM_DEFAULT
 10
-33.23497098676391
 20
4.684203618374927
 30
0.0
 41
2.5
 42
2.5
 43
2.5
 50
90.0
  0
MTEXT
  5
F1083E
330
F10007
100
AcDbEntity
  8
Bemassung
 62
     0
100
AcDbMText
 10
-33.85997098676391
 20
-1.315796381625077
 30
0.0
 40
2.5
 41
0.0
 71
     8
 72
     1
  1
\A1;%%c12
 11
0.0000000000000001
 21
1.0
 31
0.0
 73
     1
 44
1.0
1001
ACAD
1000
MTEXTBEGIN
1070
    73
1070
     1
1070
    44
1040
1.0
1070
    74
1070
     0
1000
MTEXTEND
  0
POINT
  5
F1083F
330
F10007
100
AcDbEntity
  8
Defpoints
 62
     0
100
AcDbPoint
 10
-17.23497098676391
 20
-7.315796381625077
 30
0.0
  0
POINT
  5
F10840
330
F10007
100
AcDbEntity
  8
Defpoints
 62
     0
100
AcDbPoint
 10
-17.23497098676391
 20
4.684203618374922
 30
0.0
  0
POINT
  5
F10841
330
F10007
100
AcDbEntity
  8
Defpoints
 62
     0
100
AcDbPoint
 10
-33.23497098676391
 20
4.684203618374927
 30
0.0
  0
ENDBLK
  5
F1004E
330
F10007
100
AcDbEntity
  8
0
100
AcDbBlockEnd
  0
BLOCK
  5
F1004F
330
F10011
100
AcDbEntity
  8
0
100
AcDbBlockBegin
  2
*D8
 70
     1
 10
0.0
 20
0.0
 30
0.0
  3
*D8
  1

  0
LINE
  5
F108FF
330
F10011
100
AcDbEntity
  8
Bemassung
 62
     0
370
    -2
100
AcDbLine
 10
59.69002901323609
 20
-7.315796381625077
 30
0.0
 11
71.01502901323609
 21
-7.315796381625082
 31
0.0
  0
LINE
  5
F10900
330
F10011
100
AcDbEntity
  8
Bemassung
 62
     0
370
    -2
100
AcDbLine
 10
59.69002901323609
 20
4.684203618374922
 30
0.0
 11
71.01502901323609
 21
4.684203618374918
 31
0.0
  0
LINE
  5
F10901
330
F10011
100
AcDbEntity
  8
Bemassung
 62
     0
370
    -2
100
AcDbLine
 10
69.76502901323609
 20
-4.815796381625081
 30
0.0
 11
69.76502901323609
 21
2.184203618374918
 31
0.0
  0
INSERT
  5
F10902
330
F10011
100
AcDbEntity
  8
Bemassung
 62
     0
370
    -2
100
AcDbBlockReference
  2
VDDIM_DEFAULT
 10
69.76502901323609
 20
-7.315796381625081
 30
0.0
 41
2.5
 42
2.5
 43
2.5
 50
270.0
  0
INSERT
  5
F10903
330
F10011
100
AcDbEntity
  8
Bemassung
 62
     0
370
    -2
100
AcDbBlockReference
  2
VDDIM_DEFAULT
 10
69.76502901323609
 20
4.68420361837492
 30
0.0
 41
2.5
 42
2.5
 43
2.5
 50
90.0
  0
MTEXT
  5
F10904
330
F10011
100
AcDbEntity
  8
Bemassung
 62
     0
100
AcDbMText
 10
69.14002901323609
 20
-1.315796381625069
 30
0.0
 40
2.5
 41
0.0
 71
     8
 72
     1
  1
\A1;%%C12
 11
0.0000000000000001
 21
1.0
 31
0.0
 73
     1
 44
1.0
1001
ACAD
1000
MTEXTBEGIN
1070
    73
1070
     1
1070
    44
1040
1.0
1070
    74
1070
     0
1000
MTEXTEND
  0
POINT
  5
F10905
330
F10011
100
AcDbEntity
  8
Defpoints
 62
     0
100
AcDbPoint
 10
59.06502901323609
 20
-7.315796381625077
 30
0.0
  0
POINT
  5
F10906
330
F10011
100
AcDbEntity
  8
Defpoints
 62
     0
100
AcDbPoint
 10
59.06502901323609
 20
4.684203618374922
 30
0.0
  0
POINT
  5
F10907
330
F10011
100
AcDbEntity
  8
Defpoints
 62
     0
100
AcDbPoint
 10
69.76502901323609
 20
4.68420361837492
 30
0.0
  0
ENDBLK
  5
F10058
330
F10011
100
AcDbEntity
  8
0
100
AcDbBlockEnd
  0
BLOCK
  5
F107AD
330
F107AB
100
AcDbEntity
  8
0
100
AcDbBlockBegin
  2
GENAXEH
 70
     0
 10
0.0
 20
0.0
 30
0.0
  3
GENAXEH
  1

  0
LINE
  5
F107AC
330
F107AB
100
AcDbEntity
  8
0
100
AcDbLine
 10
-1.0
 20
0.0
 30
0.0
 11
1.0
 21
0.0
 31
0.0
  0
ENDBLK
  5
F107AE
330
F107AB
100
AcDbEntity
  8
0
100
AcDbBlockEnd
  0
ENDSEC
  0
SECTION
  2
ENTITIES
  0
DIMENSION
  5
F1000D
330
261
100
AcDbEntity
  8
Bemassung
100
AcDbDimension
  2
*D3
 10
59.76502901323607
 20
19.68420361837491
 30
0.0
 11
37.26502901323609
 21
21.58052012587833
 31
0.0
 70
    32
  1
<>
 71
     8
 42
44.99999999999999
  3
BEM-ISBE
100
AcDbAlignedDimension
 13
14.76502901323609
 23
4.684203618374922
 33
0.0
 14
59.76502901323607
 24
3.984203618374923
 34
0.0
100
AcDbRotatedDimension
1001
ACAD
1000
DSTYLE
1002
{
1070
    47
1040
2.0
1070
    48
1040
0.0
1070
    71
1070
     0
1070
    78
1070
     8
1070
   284
1070
     8
1002
}
  0
DIMENSION
  5
F10017
330
261
100
AcDbEntity
  8
Bemassung
100
AcDbDimension
  2
*D4
 10
-23.23497098676391
 20
-22.31579638162509
 30
0.0
 11
-12.23497098676391
 21
-20.43568041982426
 31
0.0
 70
    32
  1
<>
 71
     8
 42
22.00000000000001
  3
BEM-ISBE
100
AcDbAlignedDimension
 13
-1.234970986763904
 23
-7.315796381625077
 33
0.0
 14
-23.23497098676391
 24
-24.31579638162508
 34
0.0
100
AcDbRotatedDimension
1001
ACAD
1000
DSTYLE
1002
{
1070
    47
1040
1.5
1070
    48
1040
0.0
1070
    71
1070
     0
1070
    78
1070
     8
1070
   284
1070
     8
1002
}
  0
DIMENSION
  5
F1001C
330
261
100
AcDbEntity
  8
Bemassung
100
AcDbDimension
  2
*D5
 10
-23.23497098676391
 20
34.68420361837492
 30
0.0
 11
18.26502901323609
 21
36.58648874797928
 31
0.0
 70
    32
  1
<>
 71
     8
 42
83.0
  3
BEM-ISBE
100
AcDbAlignedDimension
 13
59.76502901323607
 23
3.984203618374923
 33
0.0
 14
-23.23497098676391
 24
-24.31579638162508
 34
0.0
100
AcDbRotatedDimension
1001
ACAD
1000
DSTYLE
1002
{
1070
    47
1040
2.0
1070
    48
1040
0.0
1070
    71
1070
     0
1070
    78
1070
     8
1070
   284
1070
     8
1002
}
  0
DIMENSION
  5
F10003
330
261
100
AcDbEntity
  8
Bemassung
100
AcDbDimension
  2
*D6
 10
-17.23497098676391
 20
-1.315796381625081
 30
0.0
 11
-35.98429130091743
 21
16.63661373368739
 31
0.0
 70
   164
  1
<>
 71
     8
 42
5.999999999999968
  3
BEM-ISBE
100
AcDbRadialDimension
 15
-21.5687112957319
 25
2.833745151415122
 35
0.0
 40
0.0
1001
ACAD
1000
DSTYLE
1002
{
1070
   284
1070
     8
1070
    78
1070
     8
1070
   144
1040
1.0
1070
   147
1040
0.625
1070
    72
1070
     0
1070
    71
1070
     0
1002
}
  0
DIMENSION
  5
F10008
330
261
100
AcDbEntity
  8
Bemassung
100
AcDbDimension
  2
*D7
 10
-33.23497098676391
 20
4.684203618374927
 30
0.0
 11
-35.20632160067933
 21
-1.315796381625077
 31
0.0
 70
    32
  1
%%c<>
 71
     8
 42
12.0
  3
BEM-ISBE
100
AcDbAlignedDimension
 13
-17.23497098676391
 23
-7.315796381625077
 33
0.0
 14
-17.23497098676391
 24
4.684203618374922
 34
0.0
 50
90.0
100
AcDbRotatedDimension
1001
ACAD
1000
DSTYLE
1002
{
1070
    48
1040
-0.07
1070
    71
1070
     0
1070
    78
1070
     8
1070
   284
1070
     8
1002
}
  0
DIMENSION
  5
F10012
330
261
100
AcDbEntity
  8
Bemassung
100
AcDbDimension
  2
*D8
 10
69.76502901323609
 20
4.68420361837492
 30
0.0
 11
67.79367839932067
 21
-1.315796381625069
 31
0.0
 70
    32
  1
%%C<>
 71
     8
 42
12.0
  3
BEM-ISBE
100
AcDbAlignedDimension
 13
59.06502901323609
 23
-7.315796381625077
 33
0.0
 14
59.06502901323609
 24
4.684203618374922
 34
0.0
 50
90.0
100
AcDbRotatedDimension
1001
ACAD
1000
DSTYLE
1002
{
1070
    71
1070
     0
1070
    78
1070
     8
1002
}
1001
ACAD_DSTYLE_DIMINSPECT
1070
   396
1000
100%
1070
   395
1000

1070
   394
1070
    33
1070
   393
1070
     0
  0
ARC
  5
F10059
330
261
100
AcDbEntity
  8
Geo
100
AcDbCircle
 10
-17.23497098676391
 20
-1.31579638162508
 30
0.0
 40
6.0
100
AcDbArc
 50
89.9999999999996
 51
180.0
  0
LINE
  5
F1005B
330
261
100
AcDbEntity
  8
Geo
100
AcDbLine
 10
-17.23497098676391
 20
4.684203618374922
 30
0.0
 11
14.76502901323609
 21
4.684203618374922
 31
0.0
  0
LINE
  5
F1005D
330
261
100
AcDbEntity
  8
Geo
100
AcDbLine
 10
14.76502901323609
 20
4.684203618374922
 30
0.0
 11
59.06502901323609
 21
4.684203618374922
 31
0.0
  0
LINE
  5
F1005F
330
261
100
AcDbEntity
  8
Geo
100
AcDbLine
 10
59.06502901323609
 20
4.684203618374922
 30
0.0
 11
59.76502901323607
 21
3.984203618374923
 31
0.0
  0
LINE
  5
F10061
330
261
100
AcDbEntity
  8
Geo
100
AcDbLine
 10
-2.434970986763906
 20
4.684202504165618
 30
0.0
 11
-2.334970986763905
 21
4.683959913409721
 31
0.0
  0
LINE
  5
F10063
330
261
100
AcDbEntity
  8
Geo
100
AcDbLine
 10
-2.334970986763905
 20
4.683959913409721
 30
0.0
 11
-2.234970986763904
 21
4.683161793950123
 31
0.0
  0
LINE
  5
F10065
330
261
100
AcDbEntity
  8
Geo
100
AcDbLine
 10
-2.234970986763904
 20
4.683161793950123
 30
0.0
 11
-2.134970986763903
 21
4.681808219686121
 31
0.0
  0
LINE
  5
F10067
330
261
100
AcDbEntity
  8
Geo
100
AcDbLine
 10
-2.134970986763903
 20
4.681808219686121
 30
0.0
 11
-2.034970986763909
 21
4.679899315947722
 31
0.0
  0
LINE
  5
F10069
330
261
100
AcDbEntity
  8
Geo
100
AcDbLine
 10
-2.034970986763909
 20
4.679899315947722
 30
0.0
 11
-1.934970986763907
 21
4.67743525948392
 31
0.0
  0
LINE
  5
F1006B
330
261
100
AcDbEntity
  8
Geo
100
AcDbLine
 10
-1.934970986763907
 20
4.67743525948392
 30
0.0
 11
-1.834970986763905
 21
4.674416278446318
 31
0.0
  0
LINE
  5
F1006D
330
261
100
AcDbEntity
  8
Geo
100
AcDbLine
 10
-1.834970986763905
 20
4.674416278446318
 30
0.0
 11
-1.734970986763904
 21
4.67084265236792
 31
0.0
  0
LINE
  5
F1006F
330
261
100
AcDbEntity
  8
Geo
100
AcDbLine
 10
-1.734970986763904
 20
4.67084265236792
 30
0.0
 11
-1.634970986763903
 21
4.666714712137721
 31
0.0
  0
LINE
  5
F10071
330
261
100
AcDbEntity
  8
Geo
100
AcDbLine
 10
-1.634970986763903
 20
4.666714712137721
 30
0.0
 11
-1.534970986763909
 21
4.662032839969223
 31
0.0
  0
LINE
  5
F10073
330
261
100
AcDbEntity
  8
Geo
100
AcDbLine
 10
-1.534970986763909
 20
4.662032839969223
 30
0.0
 11
-1.434970986763907
 21
4.65679746936582
 31
0.0
  0
LINE
  5
F10075
330
261
100
AcDbEntity
  8
Geo
100
AcDbLine
 10
-1.434970986763907
 20
4.65679746936582
 30
0.0
 11
-1.334970986763906
 21
4.651009085080516
 31
0.0
  0
LINE
  5
F10077
330
261
100
AcDbEntity
  8
Geo
100
AcDbLine
 10
-1.334970986763906
 20
4.651009085080516
 30
0.0
 11
-1.234970986763904
 21
4.644668223070418
 31
0.0
  0
LINE
  5
F10079
330
261
100
AcDbEntity
  8
Geo
100
AcDbLine
 10
-1.234970986763904
 20
4.644668223070418
 30
0.0
 11
-1.234970986763904
 21
4.644668223070418
 31
0.0
  0
LINE
  5
F1007B
330
261
100
AcDbEntity
  8
Geo
100
AcDbLine
 10
-1.234970986763904
 20
4.644668223070418
 30
0.0
 11
-1.134970986763903
 21
4.626008047707922
 31
0.0
  0
LINE
  5
F1007D
330
261
100
AcDbEntity
  8
Geo
100
AcDbLine
 10
-1.134970986763903
 20
4.626008047707922
 30
0.0
 11
-1.034970986763908
 21
4.60300616534262
 31
0.0
  0
LINE
  5
F1007F
330
261
100
AcDbEntity
  8
Geo
100
AcDbLine
 10
-1.034970986763908
 20
4.60300616534262
 30
0.0
 11
-0.9349709867639075
 21
4.575325764222821
 31
0.0
  0
LINE
  5
F10081
330
261
100
AcDbEntity
  8
Geo
100
AcDbLine
 10
-0.9349709867639075
 20
4.575325764222821
 30
0.0
 11
-0.8349709867639063
 21
4.542624851771217
 31
0.0
  0
LINE
  5
F10083
330
261
100
AcDbEntity
  8
Geo
100
AcDbLine
 10
-0.8349709867639063
 20
4.542624851771217
 30
0.0
 11
-0.7349709867639051
 21
4.504557315055823
 31
0.0
  0
LINE
  5
F10085
330
261
100
AcDbEntity
  8
Geo
100
AcDbLine
 10
-0.7349709867639051
 20
4.504557315055823
 30
0.0
 11
-0.6349709867639035
 21
4.460774094087721
 31
0.0
  0
LINE
  5
F10087
330
261
100
AcDbEntity
  8
Geo
100
AcDbLine
 10
-0.6349709867639035
 20
4.460774094087721
 30
0.0
 11
-0.5349709867639092
 21
4.410924472966516
 31
0.0
  0
LINE
  5
F10089
330
261
100
AcDbEntity
  8
Geo
100
AcDbLine
 10
-0.5349709867639092
 20
4.410924472966516
 30
0.0
 11
-0.4349709867639078
 21
4.35465749353052
 31
0.0
  0
LINE
  5
F1008B
330
261
100
AcDbEntity
  8
Geo
100
AcDbLine
 10
-0.4349709867639078
 20
4.35465749353052
 30
0.0
 11
-0.3349709867639063
 21
4.291623495717316
 31
0.0
  0
LINE
  5
F1008D
330
261
100
AcDbEntity
  8
Geo
100
AcDbLine
 10
-0.3349709867639063
 20
4.291623495717316
 30
0.0
 11
-0.2349709867639049
 21
4.221475788310221
 31
0.0
  0
LINE
  5
F1008F
330
261
100
AcDbEntity
  8
Geo
100
AcDbLine
 10
-0.2349709867639049
 20
4.221475788310221
 30
0.0
 11
-0.1349709867639035
 21
4.143872453119318
 31
0.0
  0
LINE
  5
F10091
330
261
100
AcDbEntity
  8
Geo
100
AcDbLine
 10
-0.1349709867639035
 20
4.143872453119318
 30
0.0
 11
-0.0349709867639092
 21
4.058478284920723
 31
0.0
  0
LINE
  5
F10093
330
261
100
AcDbEntity
  8
Geo
100
AcDbLine
 10
-0.0349709867639092
 20
4.058478284920723
 30
0.0
 11
0.0650290132360922
 21
3.96496686865322
 31
0.0
  0
LINE
  5
F10095
330
261
100
AcDbEntity
  8
Geo
100
AcDbLine
 10
0.0650290132360922
 20
3.96496686865322
 30
0.0
 11
0.1650290132360936
 21
3.863022794432221
 31
0.0
  0
LINE
  5
F10097
330
261
100
AcDbEntity
  8
Geo
100
AcDbLine
 10
0.1650290132360936
 20
3.863022794432221
 30
0.0
 11
0.2650290132360951
 21
3.752344009893618
 31
0.0
  0
LINE
  5
F10099
330
261
100
AcDbEntity
  8
Geo
100
AcDbLine
 10
0.2650290132360951
 20
3.752344009893618
 30
0.0
 11
0.3650290132360965
 21
3.632644308214117
 31
0.0
  0
LINE
  5
F1009B
330
261
100
AcDbEntity
  8
Geo
100
AcDbLine
 10
0.3650290132360965
 20
3.632644308214117
 30
0.0
 11
0.4650290132360908
 21
3.503655948861922
 31
0.0
  0
LINE
  5
F1009D
330
261
100
AcDbEntity
  8
Geo
100
AcDbLine
 10
0.4650290132360908
 20
3.503655948861922
 30
0.0
 11
0.5650290132360924
 21
3.36513240672652
 31
0.0
  0
LINE
  5
F1009F
330
261
100
AcDbEntity
  8
Geo
100
AcDbLine
 10
0.5650290132360924
 20
3.36513240672652
 30
0.0
 11
0.6650290132360937
 21
3.216851243733517
 31
0.0
  0
LINE
  5
F100A1
330
261
100
AcDbEntity
  8
Geo
100
AcDbLine
 10
0.6650290132360937
 20
3.216851243733517
 30
0.0
 11
0.7650290132360951
 21
3.058617095390316
 31
0.0
  0
LINE
  5
F100A3
330
261
100
AcDbEntity
  8
Geo
100
AcDbLine
 10
0.7650290132360951
 20
3.058617095390316
 30
0.0
 11
0.8650290132360963
 21
2.890264762920721
 31
0.0
  0
LINE
  5
F100A5
330
261
100
AcDbEntity
  8
Geo
100
AcDbLine
 10
0.8650290132360963
 20
2.890264762920721
 30
0.0
 11
0.9650290132360908
 21
2.711662399734819
 31
0.0
  0
LINE
  5
F100A7
330
261
100
AcDbEntity
  8
Geo
100
AcDbLine
 10
0.9650290132360908
 20
2.711662399734819
 30
0.0
 11
1.065029013236092
 21
2.522714778951719
 31
0.0
  0
LINE
  5
F100A9
330
261
100
AcDbEntity
  8
Geo
100
AcDbLine
 10
1.065029013236092
 20
2.522714778951719
 30
0.0
 11
1.165029013236092
 21
2.323366626551219
 31
0.0
  0
LINE
  5
F100AB
330
261
100
AcDbEntity
  8
Geo
100
AcDbLine
 10
1.165029013236092
 20
2.323366626551219
 30
0.0
 11
1.265029013236095
 21
2.113606002483116
 31
0.0
  0
LINE
  5
F100AD
330
261
100
AcDbEntity
  8
Geo
100
AcDbLine
 10
1.265029013236095
 20
2.113606002483116
 30
0.0
 11
1.365029013236095
 21
1.893467709720223
 31
0.0
  0
LINE
  5
F100AF
330
261
100
AcDbEntity
  8
Geo
100
AcDbLine
 10
1.365029013236095
 20
1.893467709720223
 30
0.0
 11
1.465029013236089
 21
1.663036708819421
 31
0.0
  0
LINE
  5
F100B1
330
261
100
AcDbEntity
  8
Geo
100
AcDbLine
 10
1.465029013236089
 20
1.663036708819421
 30
0.0
 11
1.565029013236091
 21
1.42245151305962
 31
0.0
  0
LINE
  5
F100B3
330
261
100
AcDbEntity
  8
Geo
100
AcDbLine
 10
1.565029013236091
 20
1.42245151305962
 30
0.0
 11
1.665029013236092
 21
1.171907536690617
 31
0.0
  0
LINE
  5
F100B5
330
261
100
AcDbEntity
  8
Geo
100
AcDbLine
 10
1.665029013236092
 20
1.171907536690617
 30
0.0
 11
1.765029013236095
 21
0.9116603662519187
 31
0.0
  0
LINE
  5
F100B7
330
261
100
AcDbEntity
  8
Geo
100
AcDbLine
 10
1.765029013236095
 20
0.9116603662519187
 30
0.0
 11
1.865029013236095
 21
0.6420289223505195
 31
0.0
  0
LINE
  5
F100B9
330
261
100
AcDbEntity
  8
Geo
100
AcDbLine
 10
1.865029013236095
 20
0.6420289223505195
 30
0.0
 11
1.965029013236089
 21
0.3633984767355187
 31
0.0
  0
LINE
  5
F100BB
330
261
100
AcDbEntity
  8
Geo
100
AcDbLine
 10
1.965029013236089
 20
0.3633984767355187
 30
0.0
 11
2.065029013236091
 21
0.0762234870063203
 31
0.0
  0
LINE
  5
F100BD
330
261
100
AcDbEntity
  8
Geo
100
AcDbLine
 10
2.065029013236091
 20
0.0762234870063203
 30
0.0
 11
2.165029013236092
 21
-0.2189697911180808
 31
0.0
  0
LINE
  5
F100BF
330
261
100
AcDbEntity
  8
Geo
100
AcDbLine
 10
2.165029013236092
 20
-0.2189697911180808
 30
0.0
 11
2.265029013236186
 21
-0.5215809563314801
 31
0.0
  0
LINE
  5
F100C1
330
261
100
AcDbEntity
  8
Geo
100
AcDbLine
 10
2.265029013236186
 20
-0.5215809563314801
 30
0.0
 11
2.365029013236187
 21
-0.8309334235601788
 31
0.0
  0
LINE
  5
F100C3
330
261
100
AcDbEntity
  8
Geo
100
AcDbLine
 10
2.365029013236187
 20
-0.8309334235601788
 30
0.0
 11
2.46502901323619
 21
-1.14627274147488
 31
0.0
  0
LINE
  5
F100C5
330
261
100
AcDbEntity
  8
Geo
100
AcDbLine
 10
2.46502901323619
 20
-1.14627274147488
 30
0.0
 11
2.56502901323619
 21
-1.466765313761278
 31
0.0
  0
LINE
  5
F100C7
330
261
100
AcDbEntity
  8
Geo
100
AcDbLine
 10
2.56502901323619
 20
-1.466765313761278
 30
0.0
 11
2.665029013236186
 21
-1.791497573575078
 31
0.0
  0
LINE
  5
F100C9
330
261
100
AcDbEntity
  8
Geo
100
AcDbLine
 10
2.665029013236186
 20
-1.791497573575078
 30
0.0
 11
2.765029013236186
 21
-2.119475661609377
 31
0.0
  0
LINE
  5
F100CB
330
261
100
AcDbEntity
  8
Geo
100
AcDbLine
 10
2.765029013236186
 20
-2.119475661609377
 30
0.0
 11
2.865029013236187
 21
-2.449625658794981
 31
0.0
  0
LINE
  5
F100CD
330
261
100
AcDbEntity
  8
Geo
100
AcDbLine
 10
2.865029013236187
 20
-2.449625658794981
 30
0.0
 11
2.96502901323619
 21
-2.780794424776774
 31
0.0
  0
LINE
  5
F100CF
330
261
100
AcDbEntity
  8
Geo
100
AcDbLine
 10
2.96502901323619
 20
-2.780794424776774
 30
0.0
 11
3.065029013236191
 21
-3.111751092907276
 31
0.0
  0
LINE
  5
F100D1
330
261
100
AcDbEntity
  8
Geo
100
AcDbLine
 10
3.065029013236191
 20
-3.111751092907276
 30
0.0
 11
3.165029013236186
 21
-3.441189271512481
 31
0.0
  0
LINE
  5
F100D3
330
261
100
AcDbEntity
  8
Geo
100
AcDbLine
 10
3.165029013236186
 20
-3.441189271512481
 30
0.0
 11
3.265029013236186
 21
-3.767729999552276
 31
0.0
  0
LINE
  5
F100D5
330
261
100
AcDbEntity
  8
Geo
100
AcDbLine
 10
3.265029013236186
 20
-3.767729999552276
 30
0.0
 11
3.365029013236187
 21
-4.089925502466978
 31
0.0
  0
LINE
  5
F100D7
330
261
100
AcDbEntity
  8
Geo
100
AcDbLine
 10
3.365029013236187
 20
-4.089925502466978
 30
0.0
 11
3.46502901323619
 21
-4.406263790906479
 31
0.0
  0
LINE
  5
F100D9
330
261
100
AcDbEntity
  8
Geo
100
AcDbLine
 10
3.46502901323619
 20
-4.406263790906479
 30
0.0
 11
3.565029013236191
 21
-4.71517414113638
 31
0.0
  0
LINE
  5
F100DB
330
261
100
AcDbEntity
  8
Geo
100
AcDbLine
 10
3.565029013236191
 20
-4.71517414113638
 30
0.0
 11
3.665029013236186
 21
-5.015033491142978
 31
0.0
  0
LINE
  5
F100DD
330
261
100
AcDbEntity
  8
Geo
100
AcDbLine
 10
3.665029013236186
 20
-5.015033491142978
 30
0.0
 11
3.765029013236186
 21
-5.304173780782981
 31
0.0
  0
LINE
  5
F100DF
330
261
100
AcDbEntity
  8
Geo
100
AcDbLine
 10
3.765029013236186
 20
-5.304173780782981
 30
0.0
 11
3.865029013236187
 21
-5.58089025769378
 31
0.0
  0
LINE
  5
F100E1
330
261
100
AcDbEntity
  8
Geo
100
AcDbLine
 10
3.865029013236187
 20
-5.58089025769378
 30
0.0
 11
3.96502901323619
 21
-5.843450763076377
 31
0.0
  0
LINE
  5
F100E3
330
261
100
AcDbEntity
  8
Geo
100
AcDbLine
 10
3.96502901323619
 20
-5.843450763076377
 30
0.0
 11
4.065029013236191
 21
-6.09010600284628
 31
0.0
  0
LINE
  5
F100E5
330
261
100
AcDbEntity
  8
Geo
100
AcDbLine
 10
4.065029013236191
 20
-6.09010600284628
 30
0.0
 11
4.165029013236186
 21
-6.319100800027579
 31
0.0
  0
LINE
  5
F100E7
330
261
100
AcDbEntity
  8
Geo
100
AcDbLine
 10
4.165029013236186
 20
-6.319100800027579
 30
0.0
 11
4.265029013236095
 21
-6.528686313618877
 31
0.0
  0
LINE
  5
F100E9
330
261
100
AcDbEntity
  8
Geo
100
AcDbLine
 10
-23.23497098676391
 20
-1.31579638162508
 30
0.0
 11
-23.1349709867639
 21
-0.5518919854560807
 31
0.0
  0
LINE
  5
F100EB
330
261
100
AcDbEntity
  8
Geo
100
AcDbLine
 10
-23.1349709867639
 20
-0.5518919854560807
 30
0.0
 11
-23.03497098676391
 21
-0.2506236292657782
 31
0.0
  0
LINE
  5
F100ED
330
261
100
AcDbEntity
  8
Geo
100
AcDbLine
 10
-23.03497098676391
 20
-0.2506236292657782
 30
0.0
 11
-22.9349709867639
 21
-0.0298215334933794
 31
0.0
  0
LINE
  5
F100EF
330
261
100
AcDbEntity
  8
Geo
100
AcDbLine
 10
-22.9349709867639
 20
-0.0298215334933794
 30
0.0
 11
-22.83497098676391
 21
0.1476183419914214
 31
0.0
  0
LINE
  5
F100F1
330
261
100
AcDbEntity
  8
Geo
100
AcDbLine
 10
-22.83497098676391
 20
0.1476183419914214
 30
0.0
 11
-22.73497098676391
 21
0.2962767317279216
 31
0.0
  0
LINE
  5
F100F3
330
261
100
AcDbEntity
  8
Geo
100
AcDbLine
 10
-22.73497098676391
 20
0.2962767317279216
 30
0.0
 11
-22.6349709867639
 21
0.4237349930333211
 31
0.0
  0
LINE
  5
F100F5
330
261
100
AcDbEntity
  8
Geo
100
AcDbLine
 10
-22.6349709867639
 20
0.4237349930333211
 30
0.0
 11
-22.53497098676391
 21
0.5345581829410193
 31
0.0
  0
LINE
  5
F100F7
330
261
100
AcDbEntity
  8
Geo
100
AcDbLine
 10
-22.53497098676391
 20
0.5345581829410193
 30
0.0
 11
-22.4349709867639
 21
0.6317612051773196
 31
0.0
  0
LINE
  5
F100F9
330
261
100
AcDbEntity
  8
Geo
100
AcDbLine
 10
-22.4349709867639
 20
0.6317612051773196
 30
0.0
 11
-22.33497098676391
 21
0.7174669890302213
 31
0.0
  0
LINE
  5
F100FB
330
261
100
AcDbEntity
  8
Geo
100
AcDbLine
 10
-22.33497098676391
 20
0.7174669890302213
 30
0.0
 11
-22.23497098676391
 21
0.7932427874906196
 31
0.0
  0
LINE
  5
F100FD
330
261
100
AcDbEntity
  8
Geo
100
AcDbLine
 10
-22.23497098676391
 20
0.7932427874906196
 30
0.0
 11
-22.13497098676389
 21
0.8602885974854217
 31
0.0
  0
LINE
  5
F100FF
330
261
100
AcDbEntity
  8
Geo
100
AcDbLine
 10
-22.13497098676389
 20
0.8602885974854217
 30
0.0
 11
-22.03497098676391
 21
0.9195503085044228
 31
0.0
  0
LINE
  5
F10101
330
261
100
AcDbEntity
  8
Geo
100
AcDbLine
 10
-22.03497098676391
 20
0.9195503085044228
 30
0.0
 11
-21.9349709867639
 21
0.9717914377630163
 31
0.0
  0
LINE
  5
F10103
330
261
100
AcDbEntity
  8
Geo
100
AcDbLine
 10
-21.9349709867639
 20
0.9717914377630163
 30
0.0
 11
-21.83497098676391
 21
1.017640640281423
 31
0.0
  0
LINE
  5
F10105
330
261
100
AcDbEntity
  8
Geo
100
AcDbLine
 10
-21.83497098676391
 20
1.017640640281423
 30
0.0
 11
-21.73497098676391
 21
1.057624327174518
 31
0.0
  0
LINE
  5
F10107
330
261
100
AcDbEntity
  8
Geo
100
AcDbLine
 10
-21.73497098676391
 20
1.057624327174518
 30
0.0
 11
-21.63497098676391
 21
1.092189745581819
 31
0.0
  0
LINE
  5
F10109
330
261
100
AcDbEntity
  8
Geo
100
AcDbLine
 10
-21.63497098676391
 20
1.092189745581819
 30
0.0
 11
-21.53497098676391
 21
1.12172173402252
 31
0.0
  0
LINE
  5
F1010B
330
261
100
AcDbEntity
  8
Geo
100
AcDbLine
 10
-21.53497098676391
 20
1.12172173402252
 30
0.0
 11
-21.4349709867639
 21
1.146555158267119
 31
0.0
  0
LINE
  5
F1010D
330
261
100
AcDbEntity
  8
Geo
100
AcDbLine
 10
-21.4349709867639
 20
1.146555158267119
 30
0.0
 11
-21.33497098676391
 21
1.166984320727222
 31
0.0
  0
LINE
  5
F1010F
330
261
100
AcDbEntity
  8
Geo
100
AcDbLine
 10
-21.33497098676391
 20
1.166984320727222
 30
0.0
 11
-21.23497098676391
 21
1.183270201408817
 31
0.0
  0
LINE
  5
F10111
330
261
100
AcDbEntity
  8
Geo
100
AcDbLine
 10
-21.23497098676391
 20
1.183270201408817
 30
0.0
 11
-21.1349709867639
 21
1.195646114316222
 31
0.0
  0
LINE
  5
F10113
330
261
100
AcDbEntity
  8
Geo
100
AcDbLine
 10
-21.1349709867639
 20
1.195646114316222
 30
0.0
 11
-21.03497098676391
 21
1.204322185544018
 31
0.0
  0
LINE
  5
F10115
330
261
100
AcDbEntity
  8
Geo
100
AcDbLine
 10
-21.03497098676391
 20
1.204322185544018
 30
0.0
 11
-20.9349709867639
 21
1.209488941337922
 31
0.0
  0
LINE
  5
F10117
330
261
100
AcDbEntity
  8
Geo
100
AcDbLine
 10
-20.9349709867639
 20
1.209488941337922
 30
0.0
 11
-20.8349709867639
 21
1.211320214354724
 31
0.0
  0
LINE
  5
F10119
330
261
100
AcDbEntity
  8
Geo
100
AcDbLine
 10
-20.8349709867639
 20
1.211320214354724
 30
0.0
 11
-20.73497098676391
 21
1.209975520945422
 31
0.0
  0
LINE
  5
F1011B
330
261
100
AcDbEntity
  8
Geo
100
AcDbLine
 10
-20.73497098676391
 20
1.209975520945422
 30
0.0
 11
-20.6349709867639
 21
1.205602023264521
 31
0.0
  0
LINE
  5
F1011D
330
261
100
AcDbEntity
  8
Geo
100
AcDbLine
 10
-20.6349709867639
 20
1.205602023264521
 30
0.0
 11
-20.53497098676391
 21
1.198336162065817
 31
0.0
  0
LINE
  5
F1011F
330
261
100
AcDbEntity
  8
Geo
100
AcDbLine
 10
-20.53497098676391
 20
1.198336162065817
 30
0.0
 11
-20.4349709867639
 21
1.188305025757721
 31
0.0
  0
LINE
  5
F10121
330
261
100
AcDbEntity
  8
Geo
100
AcDbLine
 10
-20.4349709867639
 20
1.188305025757721
 30
0.0
 11
-20.33497098676391
 21
1.175627506346418
 31
0.0
  0
LINE
  5
F10123
330
261
100
AcDbEntity
  8
Geo
100
AcDbLine
 10
-20.33497098676391
 20
1.175627506346418
 30
0.0
 11
-20.23497098676391
 21
1.16041528176542
 31
0.0
  0
LINE
  5
F10125
330
261
100
AcDbEntity
  8
Geo
100
AcDbLine
 10
-20.23497098676391
 20
1.16041528176542
 30
0.0
 11
-20.1349709867639
 21
1.142773655690919
 31
0.0
  0
LINE
  5
F10127
330
261
100
AcDbEntity
  8
Geo
100
AcDbLine
 10
-20.1349709867639
 20
1.142773655690919
 30
0.0
 11
-20.03497098676391
 21
1.122802279552419
 31
0.0
  0
LINE
  5
F10129
330
261
100
AcDbEntity
  8
Geo
100
AcDbLine
 10
-20.03497098676391
 20
1.122802279552419
 30
0.0
 11
-19.9349709867639
 21
1.100595776525717
 31
0.0
  0
LINE
  5
F1012B
330
261
100
AcDbEntity
  8
Geo
100
AcDbLine
 10
-19.9349709867639
 20
1.100595776525717
 30
0.0
 11
-19.8349709867639
 21
1.076244283477318
 31
0.0
  0
LINE
  5
F1012D
330
261
100
AcDbEntity
  8
Geo
100
AcDbLine
 10
-19.8349709867639
 20
1.076244283477318
 30
0.0
 11
-19.73497098676391
 21
1.049833923839819
 31
0.0
  0
LINE
  5
F1012F
330
261
100
AcDbEntity
  8
Geo
100
AcDbLine
 10
-19.73497098676391
 20
1.049833923839819
 30
0.0
 11
-19.6349709867639
 21
1.02144722203842
 31
0.0
  0
LINE
  5
F10131
330
261
100
AcDbEntity
  8
Geo
100
AcDbLine
 10
-19.6349709867639
 20
1.02144722203842
 30
0.0
 11
-19.53497098676391
 21
0.991163468212818
 31
0.0
  0
LINE
  5
F10133
330
261
100
AcDbEntity
  8
Geo
100
AcDbLine
 10
-19.53497098676391
 20
0.991163468212818
 30
0.0
 11
-19.4349709867639
 21
0.9590590404779211
 31
0.0
  0
LINE
  5
F10135
330
261
100
AcDbEntity
  8
Geo
100
AcDbLine
 10
-19.4349709867639
 20
0.9590590404779211
 30
0.0
 11
-19.3349709867639
 21
0.9252076907565188
 31
0.0
  0
LINE
  5
F10137
330
261
100
AcDbEntity
  8
Geo
100
AcDbLine
 10
-19.3349709867639
 20
0.9252076907565188
 30
0.0
 11
-19.23497098676391
 21
0.8896807992362203
 31
0.0
  0
LINE
  5
F10139
330
261
100
AcDbEntity
  8
Geo
100
AcDbLine
 10
-19.23497098676391
 20
0.8896807992362203
 30
0.0
 11
-19.1349709867639
 21
0.8525476017045184
 31
0.0
  0
LINE
  5
F1013B
330
261
100
AcDbEntity
  8
Geo
100
AcDbLine
 10
-19.1349709867639
 20
0.8525476017045184
 30
0.0
 11
-19.03497098676391
 21
0.8138753933582234
 31
0.0
  0
LINE
  5
F1013D
330
261
100
AcDbEntity
  8
Geo
100
AcDbLine
 10
-19.03497098676391
 20
0.8138753933582234
 30
0.0
 11
-18.9349709867639
 21
0.7737297121454212
 31
0.0
  0
LINE
  5
F1013F
330
261
100
AcDbEntity
  8
Geo
100
AcDbLine
 10
-18.9349709867639
 20
0.7737297121454212
 30
0.0
 11
-18.8349709867639
 21
0.7321745042501178
 31
0.0
  0
LINE
  5
F10141
330
261
100
AcDbEntity
  8
Geo
100
AcDbLine
 10
-18.8349709867639
 20
0.7321745042501178
 30
0.0
 11
-18.73497098676391
 21
0.6892722739576165
 31
0.0
  0
LINE
  5
F10143
330
261
100
AcDbEntity
  8
Geo
100
AcDbLine
 10
-18.73497098676391
 20
0.6892722739576165
 30
0.0
 11
-18.6349709867639
 21
0.6450842198277229
 31
0.0
  0
LINE
  5
F10145
330
261
100
AcDbEntity
  8
Geo
100
AcDbLine
 10
-18.6349709867639
 20
0.6450842198277229
 30
0.0
 11
-18.53497098676391
 21
0.5996703588457244
 31
0.0
  0
LINE
  5
F10147
330
261
100
AcDbEntity
  8
Geo
100
AcDbLine
 10
-18.53497098676391
 20
0.5996703588457244
 30
0.0
 11
-18.4349709867639
 21
0.5530896399963156
 31
0.0
  0
LINE
  5
F10149
330
261
100
AcDbEntity
  8
Geo
100
AcDbLine
 10
-18.4349709867639
 20
0.5530896399963156
 30
0.0
 11
-18.3349709867639
 21
0.5054000485281202
 31
0.0
  0
LINE
  5
F1014B
330
261
100
AcDbEntity
  8
Geo
100
AcDbLine
 10
-18.3349709867639
 20
0.5054000485281202
 30
0.0
 11
-18.23497098676391
 21
0.4566587020134209
 31
0.0
  0
LINE
  5
F1014D
330
261
100
AcDbEntity
  8
Geo
100
AcDbLine
 10
-18.23497098676391
 20
0.4566587020134209
 30
0.0
 11
-18.1349709867639
 21
0.4069219391805207
 31
0.0
  0
LINE
  5
F1014F
330
261
100
AcDbEntity
  8
Geo
100
AcDbLine
 10
-18.1349709867639
 20
0.4069219391805207
 30
0.0
 11
-18.03497098676391
 21
0.3562454023801216
 31
0.0
  0
LINE
  5
F10151
330
261
100
AcDbEntity
  8
Geo
100
AcDbLine
 10
-18.03497098676391
 20
0.3562454023801216
 30
0.0
 11
-17.9349709867639
 21
0.3046841144527228
 31
0.0
  0
LINE
  5
F10153
330
261
100
AcDbEntity
  8
Geo
100
AcDbLine
 10
-17.9349709867639
 20
0.3046841144527228
 30
0.0
 11
-17.8349709867639
 21
0.2522925506834213
 31
0.0
  0
LINE
  5
F10155
330
261
100
AcDbEntity
  8
Geo
100
AcDbLine
 10
-17.8349709867639
 20
0.2522925506834213
 30
0.0
 11
-17.73497098676391
 21
0.1991247064587185
 31
0.0
  0
LINE
  5
F10157
330
261
100
AcDbEntity
  8
Geo
100
AcDbLine
 10
-17.73497098676391
 20
0.1991247064587185
 30
0.0
 11
-17.6349709867639
 21
0.1452341611842236
 31
0.0
  0
LINE
  5
F10159
330
261
100
AcDbEntity
  8
Geo
100
AcDbLine
 10
-17.6349709867639
 20
0.1452341611842236
 30
0.0
 11
-17.53497098676391
 21
0.0906741389696215
 31
0.0
  0
LINE
  5
F1015B
330
261
100
AcDbEntity
  8
Geo
100
AcDbLine
 10
-17.53497098676391
 20
0.0906741389696215
 30
0.0
 11
-17.4349709867639
 21
0.0354975665480168
 31
0.0
  0
LINE
  5
F1015D
330
261
100
AcDbEntity
  8
Geo
100
AcDbLine
 10
-17.4349709867639
 20
0.0354975665480168
 30
0.0
 11
-17.3349709867639
 21
-0.020242871140681
 31
0.0
  0
LINE
  5
F1015F
330
261
100
AcDbEntity
  8
Geo
100
AcDbLine
 10
-17.3349709867639
 20
-0.020242871140681
 30
0.0
 11
-17.23497098676391
 21
-0.0764946772986797
 31
0.0
  0
LINE
  5
F10161
330
261
100
AcDbEntity
  8
Geo
100
AcDbLine
 10
-17.23497098676391
 20
-0.0764946772986797
 30
0.0
 11
-17.1349709867639
 21
-0.1330412082123793
 31
0.0
  0
LINE
  5
F10163
330
261
100
AcDbEntity
  8
Geo
100
AcDbLine
 10
-17.1349709867639
 20
-0.1330412082123793
 30
0.0
 11
-17.03497098676391
 21
-0.1896972526489833
 31
0.0
  0
LINE
  5
F10165
330
261
100
AcDbEntity
  8
Geo
100
AcDbLine
 10
-17.03497098676391
 20
-0.1896972526489833
 30
0.0
 11
-16.9349709867639
 21
-0.2464575647189839
 31
0.0
  0
LINE
  5
F10167
330
261
100
AcDbEntity
  8
Geo
100
AcDbLine
 10
-16.9349709867639
 20
-0.2464575647189839
 30
0.0
 11
-16.8349709867639
 21
-0.3033168888783813
 31
0.0
  0
LINE
  5
F10169
330
261
100
AcDbEntity
  8
Geo
100
AcDbLine
 10
-16.8349709867639
 20
-0.3033168888783813
 30
0.0
 11
-16.73497098676391
 21
-0.3602699604155788
 31
0.0
  0
LINE
  5
F1016B
330
261
100
AcDbEntity
  8
Geo
100
AcDbLine
 10
-16.73497098676391
 20
-0.3602699604155788
 30
0.0
 11
-16.6349709867639
 21
-0.4173115059386811
 31
0.0
  0
LINE
  5
F1016D
330
261
100
AcDbEntity
  8
Geo
100
AcDbLine
 10
-16.6349709867639
 20
-0.4173115059386811
 30
0.0
 11
-16.53497098676391
 21
-0.474436243863984
 31
0.0
  0
LINE
  5
F1016F
330
261
100
AcDbEntity
  8
Geo
100
AcDbLine
 10
-16.53497098676391
 20
-0.474436243863984
 30
0.0
 11
-16.4349709867639
 21
-0.5316388849045808
 31
0.0
  0
LINE
  5
F10171
330
261
100
AcDbEntity
  8
Geo
100
AcDbLine
 10
-16.4349709867639
 20
-0.5316388849045808
 30
0.0
 11
-16.3349709867639
 21
-0.5889141325606815
 31
0.0
  0
LINE
  5
F10173
330
261
100
AcDbEntity
  8
Geo
100
AcDbLine
 10
-16.3349709867639
 20
-0.5889141325606815
 30
0.0
 11
-16.23497098676391
 21
-0.6462566836092769
 31
0.0
  0
LINE
  5
F10175
330
261
100
AcDbEntity
  8
Geo
100
AcDbLine
 10
-16.23497098676391
 20
-0.6462566836092769
 30
0.0
 11
-16.1349709867639
 21
-0.7036612285960793
 31
0.0
  0
LINE
  5
F10177
330
261
100
AcDbEntity
  8
Geo
100
AcDbLine
 10
-16.1349709867639
 20
-0.7036612285960793
 30
0.0
 11
-16.03497098676391
 21
-0.7611224523263794
 31
0.0
  0
LINE
  5
F10179
330
261
100
AcDbEntity
  8
Geo
100
AcDbLine
 10
-16.03497098676391
 20
-0.7611224523263794
 30
0.0
 11
-15.9349709867639
 21
-0.8186350343574806
 31
0.0
  0
LINE
  5
F1017B
330
261
100
AcDbEntity
  8
Geo
100
AcDbLine
 10
-15.9349709867639
 20
-0.8186350343574806
 30
0.0
 11
-15.8349709867639
 21
-0.8761936494915794
 31
0.0
  0
LINE
  5
F1017D
330
261
100
AcDbEntity
  8
Geo
100
AcDbLine
 10
-15.8349709867639
 20
-0.8761936494915794
 30
0.0
 11
-15.73497098676391
 21
-0.9337929682681822
 31
0.0
  0
LINE
  5
F1017F
330
261
100
AcDbEntity
  8
Geo
100
AcDbLine
 10
-15.73497098676391
 20
-0.9337929682681822
 30
0.0
 11
-15.6349709867639
 21
-0.9914276574582777
 31
0.0
  0
LINE
  5
F10181
330
261
100
AcDbEntity
  8
Geo
100
AcDbLine
 10
-15.6349709867639
 20
-0.9914276574582777
 30
0.0
 11
-15.53497098676391
 21
-1.04909238055788
 31
0.0
  0
LINE
  5
F10183
330
261
100
AcDbEntity
  8
Geo
100
AcDbLine
 10
-15.53497098676391
 20
-1.04909238055788
 30
0.0
 11
-15.4349709867639
 21
-1.10678179828178
 31
0.0
  0
LINE
  5
F10185
330
261
100
AcDbEntity
  8
Geo
100
AcDbLine
 10
-15.4349709867639
 20
-1.10678179828178
 30
0.0
 11
-15.3349709867639
 21
-1.164490569058481
 31
0.0
  0
LINE
  5
F10187
330
261
100
AcDbEntity
  8
Geo
100
AcDbLine
 10
-15.3349709867639
 20
-1.164490569058481
 30
0.0
 11
-15.23497098676391
 21
-1.222213349524579
 31
0.0
  0
LINE
  5
F10189
330
261
100
AcDbEntity
  8
Geo
100
AcDbLine
 10
-15.23497098676391
 20
-1.222213349524579
 30
0.0
 11
-15.1349709867639
 21
-1.279944795019377
 31
0.0
  0
LINE
  5
F1018B
330
261
100
AcDbEntity
  8
Geo
100
AcDbLine
 10
-15.1349709867639
 20
-1.279944795019377
 30
0.0
 11
-15.03497098676391
 21
-1.337679560079879
 31
0.0
  0
LINE
  5
F1018D
330
261
100
AcDbEntity
  8
Geo
100
AcDbLine
 10
-15.03497098676391
 20
-1.337679560079879
 30
0.0
 11
-14.9349709867639
 21
-1.395412298935777
 31
0.0
  0
LINE
  5
F1018F
330
261
100
AcDbEntity
  8
Geo
100
AcDbLine
 10
-14.9349709867639
 20
-1.395412298935777
 30
0.0
 11
-14.8349709867639
 21
-1.453137666004379
 31
0.0
  0
LINE
  5
F10191
330
261
100
AcDbEntity
  8
Geo
100
AcDbLine
 10
-14.8349709867639
 20
-1.453137666004379
 30
0.0
 11
-14.73497098676391
 21
-1.510850316385578
 31
0.0
  0
LINE
  5
F10193
330
261
100
AcDbEntity
  8
Geo
100
AcDbLine
 10
-14.73497098676391
 20
-1.510850316385578
 30
0.0
 11
-14.6349709867639
 21
-1.568544906356578
 31
0.0
  0
LINE
  5
F10195
330
261
100
AcDbEntity
  8
Geo
100
AcDbLine
 10
-14.6349709867639
 20
-1.568544906356578
 30
0.0
 11
-14.53497098676391
 21
-1.626216093866981
 31
0.0
  0
LINE
  5
F10197
330
261
100
AcDbEntity
  8
Geo
100
AcDbLine
 10
-14.53497098676391
 20
-1.626216093866981
 30
0.0
 11
-14.4349709867639
 21
-1.68385853903318
 31
0.0
  0
LINE
  5
F10199
330
261
100
AcDbEntity
  8
Geo
100
AcDbLine
 10
-14.4349709867639
 20
-1.68385853903318
 30
0.0
 11
-14.3349709867639
 21
-1.741466904632981
 31
0.0
  0
LINE
  5
F1019B
330
261
100
AcDbEntity
  8
Geo
100
AcDbLine
 10
-14.3349709867639
 20
-1.741466904632981
 30
0.0
 11
-14.23497098676391
 21
-1.799035856599575
 31
0.0
  0
LINE
  5
F1019D
330
261
100
AcDbEntity
  8
Geo
100
AcDbLine
 10
-14.23497098676391
 20
-1.799035856599575
 30
0.0
 11
-14.1349709867639
 21
-1.856560064515575
 31
0.0
  0
LINE
  5
F1019F
330
261
100
AcDbEntity
  8
Geo
100
AcDbLine
 10
-14.1349709867639
 20
-1.856560064515575
 30
0.0
 11
-14.03497098676391
 21
-1.914034202106581
 31
0.0
  0
LINE
  5
F101A1
330
261
100
AcDbEntity
  8
Geo
100
AcDbLine
 10
-14.03497098676391
 20
-1.914034202106581
 30
0.0
 11
-13.9349709867639
 21
-1.971452947734181
 31
0.0
  0
LINE
  5
F101A3
330
261
100
AcDbEntity
  8
Geo
100
AcDbLine
 10
-13.9349709867639
 20
-1.971452947734181
 30
0.0
 11
-13.83497098676391
 21
-2.028810984888878
 31
0.0
  0
LINE
  5
F101A5
330
261
100
AcDbEntity
  8
Geo
100
AcDbLine
 10
-13.83497098676391
 20
-2.028810984888878
 30
0.0
 11
-13.73497098676391
 21
-2.086103002682378
 31
0.0
  0
LINE
  5
F101A7
330
261
100
AcDbEntity
  8
Geo
100
AcDbLine
 10
-13.73497098676391
 20
-2.086103002682378
 30
0.0
 11
-13.6349709867639
 21
-2.14332369633908
 31
0.0
  0
LINE
  5
F101A9
330
261
100
AcDbEntity
  8
Geo
100
AcDbLine
 10
-13.6349709867639
 20
-2.14332369633908
 30
0.0
 11
-13.53497098676391
 21
-2.20046776768748
 31
0.0
  0
LINE
  5
F101AB
330
261
100
AcDbEntity
  8
Geo
100
AcDbLine
 10
-13.53497098676391
 20
-2.20046776768748
 30
0.0
 11
-13.4349709867639
 21
-2.257529925650679
 31
0.0
  0
LINE
  5
F101AD
330
261
100
AcDbEntity
  8
Geo
100
AcDbLine
 10
-13.4349709867639
 20
-2.257529925650679
 30
0.0
 11
-13.3349709867639
 21
-2.314504886736275
 31
0.0
  0
LINE
  5
F101AF
330
261
100
AcDbEntity
  8
Geo
100
AcDbLine
 10
-13.3349709867639
 20
-2.314504886736275
 30
0.0
 11
-13.23497098676391
 21
-2.371387375525776
 31
0.0
  0
LINE
  5
F101B1
330
261
100
AcDbEntity
  8
Geo
100
AcDbLine
 10
-13.23497098676391
 20
-2.371387375525776
 30
0.0
 11
-13.1349709867639
 21
-2.428172125162578
 31
0.0
  0
LINE
  5
F101B3
330
261
100
AcDbEntity
  8
Geo
100
AcDbLine
 10
-13.1349709867639
 20
-2.428172125162578
 30
0.0
 11
-13.03497098676391
 21
-2.48485387783998
 31
0.0
  0
LINE
  5
F101B5
330
261
100
AcDbEntity
  8
Geo
100
AcDbLine
 10
-13.03497098676391
 20
-2.48485387783998
 30
0.0
 11
-12.9349709867639
 21
-2.541427385288279
 31
0.0
  0
LINE
  5
F101B7
330
261
100
AcDbEntity
  8
Geo
100
AcDbLine
 10
-12.9349709867639
 20
-2.541427385288279
 30
0.0
 11
-12.8349709867639
 21
-2.597887409259981
 31
0.0
  0
LINE
  5
F101B9
330
261
100
AcDbEntity
  8
Geo
100
AcDbLine
 10
-12.8349709867639
 20
-2.597887409259981
 30
0.0
 11
-12.73497098676391
 21
-2.65422872201548
 31
0.0
  0
LINE
  5
F101BB
330
261
100
AcDbEntity
  8
Geo
100
AcDbLine
 10
-12.73497098676391
 20
-2.65422872201548
 30
0.0
 11
-12.6349709867639
 21
-2.710446106806777
 31
0.0
  0
LINE
  5
F101BD
330
261
100
AcDbEntity
  8
Geo
100
AcDbLine
 10
-12.6349709867639
 20
-2.710446106806777
 30
0.0
 11
-12.53497098676391
 21
-2.766534358360678
 31
0.0
  0
LINE
  5
F101BF
330
261
100
AcDbEntity
  8
Geo
100
AcDbLine
 10
-12.53497098676391
 20
-2.766534358360678
 30
0.0
 11
-12.4349709867639
 21
-2.82248828336068
 31
0.0
  0
LINE
  5
F101C1
330
261
100
AcDbEntity
  8
Geo
100
AcDbLine
 10
-12.4349709867639
 20
-2.82248828336068
 30
0.0
 11
-12.3349709867639
 21
-2.87830270092768
 31
0.0
  0
LINE
  5
F101C3
330
261
100
AcDbEntity
  8
Geo
100
AcDbLine
 10
-12.3349709867639
 20
-2.87830270092768
 30
0.0
 11
-12.23497098676391
 21
-2.933972443099878
 31
0.0
  0
LINE
  5
F101C5
330
261
100
AcDbEntity
  8
Geo
100
AcDbLine
 10
-12.23497098676391
 20
-2.933972443099878
 30
0.0
 11
-12.1349709867639
 21
-2.98949235531148
 31
0.0
  0
LINE
  5
F101C7
330
261
100
AcDbEntity
  8
Geo
100
AcDbLine
 10
-12.1349709867639
 20
-2.98949235531148
 30
0.0
 11
-12.03497098676391
 21
-3.044857296869381
 31
0.0
  0
LINE
  5
F101C9
330
261
100
AcDbEntity
  8
Geo
100
AcDbLine
 10
-12.03497098676391
 20
-3.044857296869381
 30
0.0
 11
-11.9349709867639
 21
-3.100062141429681
 31
0.0
  0
LINE
  5
F101CB
330
261
100
AcDbEntity
  8
Geo
100
AcDbLine
 10
-11.9349709867639
 20
-3.100062141429681
 30
0.0
 11
-11.8349709867639
 21
-3.155101777472278
 31
0.0
  0
LINE
  5
F101CD
330
261
100
AcDbEntity
  8
Geo
100
AcDbLine
 10
-11.8349709867639
 20
-3.155101777472278
 30
0.0
 11
-11.73497098676391
 21
-3.209971108773681
 31
0.0
  0
LINE
  5
F101CF
330
261
100
AcDbEntity
  8
Geo
100
AcDbLine
 10
-11.73497098676391
 20
-3.209971108773681
 30
0.0
 11
-11.6349709867639
 21
-3.264665054879578
 31
0.0
  0
LINE
  5
F101D1
330
261
100
AcDbEntity
  8
Geo
100
AcDbLine
 10
-11.6349709867639
 20
-3.264665054879578
 30
0.0
 11
-11.53497098676391
 21
-3.319178551574878
 31
0.0
  0
LINE
  5
F101D3
330
261
100
AcDbEntity
  8
Geo
100
AcDbLine
 10
-11.53497098676391
 20
-3.319178551574878
 30
0.0
 11
-11.4349709867639
 21
-3.373506551352278
 31
0.0
  0
LINE
  5
F101D5
330
261
100
AcDbEntity
  8
Geo
100
AcDbLine
 10
-11.4349709867639
 20
-3.373506551352278
 30
0.0
 11
-11.3349709867639
 21
-3.427644023880481
 31
0.0
  0
LINE
  5
F101D7
330
261
100
AcDbEntity
  8
Geo
100
AcDbLine
 10
-11.3349709867639
 20
-3.427644023880481
 30
0.0
 11
-11.23497098676391
 21
-3.481585956469078
 31
0.0
  0
LINE
  5
F101D9
330
261
100
AcDbEntity
  8
Geo
100
AcDbLine
 10
-11.23497098676391
 20
-3.481585956469078
 30
0.0
 11
-11.1349709867639
 21
-3.535327354533179
 31
0.0
  0
LINE
  5
F101DB
330
261
100
AcDbEntity
  8
Geo
100
AcDbLine
 10
-11.1349709867639
 20
-3.535327354533179
 30
0.0
 11
-11.03497098676391
 21
-3.588863242056078
 31
0.0
  0
LINE
  5
F101DD
330
261
100
AcDbEntity
  8
Geo
100
AcDbLine
 10
-11.03497098676391
 20
-3.588863242056078
 30
0.0
 11
-10.9349709867639
 21
-3.642188662049078
 31
0.0
  0
LINE
  5
F101DF
330
261
100
AcDbEntity
  8
Geo
100
AcDbLine
 10
-10.9349709867639
 20
-3.642188662049078
 30
0.0
 11
-10.8349709867639
 21
-3.695298677011578
 31
0.0
  0
LINE
  5
F101E1
330
261
100
AcDbEntity
  8
Geo
100
AcDbLine
 10
-10.8349709867639
 20
-3.695298677011578
 30
0.0
 11
-10.73497098676391
 21
-3.748188369387481
 31
0.0
  0
LINE
  5
F101E3
330
261
100
AcDbEntity
  8
Geo
100
AcDbLine
 10
-10.73497098676391
 20
-3.748188369387481
 30
0.0
 11
-10.6349709867639
 21
-3.80085284202088
 31
0.0
  0
LINE
  5
F101E5
330
261
100
AcDbEntity
  8
Geo
100
AcDbLine
 10
-10.6349709867639
 20
-3.80085284202088
 30
0.0
 11
-10.53497098676391
 21
-3.853287218609381
 31
0.0
  0
LINE
  5
F101E7
330
261
100
AcDbEntity
  8
Geo
100
AcDbLine
 10
-10.53497098676391
 20
-3.853287218609381
 30
0.0
 11
-10.4349709867639
 21
-3.905486644155381
 31
0.0
  0
LINE
  5
F101E9
330
261
100
AcDbEntity
  8
Geo
100
AcDbLine
 10
-10.4349709867639
 20
-3.905486644155381
 30
0.0
 11
-10.3349709867639
 21
-3.957446285416178
 31
0.0
  0
LINE
  5
F101EB
330
261
100
AcDbEntity
  8
Geo
100
AcDbLine
 10
-10.3349709867639
 20
-3.957446285416178
 30
0.0
 11
-10.23497098676391
 21
-4.009161331351079
 31
0.0
  0
LINE
  5
F101ED
330
261
100
AcDbEntity
  8
Geo
100
AcDbLine
 10
-10.23497098676391
 20
-4.009161331351079
 30
0.0
 11
-10.1349709867639
 21
-4.060626993566681
 31
0.0
  0
LINE
  5
F101EF
330
261
100
AcDbEntity
  8
Geo
100
AcDbLine
 10
-10.1349709867639
 20
-4.060626993566681
 30
0.0
 11
-10.03497098676391
 21
-4.11183850676068
 31
0.0
  0
LINE
  5
F101F1
330
261
100
AcDbEntity
  8
Geo
100
AcDbLine
 10
-10.03497098676391
 20
-4.11183850676068
 30
0.0
 11
-9.9349709867639
 21
-4.162791129162978
 31
0.0
  0
LINE
  5
F101F3
330
261
100
AcDbEntity
  8
Geo
100
AcDbLine
 10
-9.9349709867639
 20
-4.162791129162978
 30
0.0
 11
-9.834970986763906
 21
-4.213480142974578
 31
0.0
  0
LINE
  5
F101F5
330
261
100
AcDbEntity
  8
Geo
100
AcDbLine
 10
-9.834970986763906
 20
-4.213480142974578
 30
0.0
 11
-9.734970986763912
 21
-4.263900854804378
 31
0.0
  0
LINE
  5
F101F7
330
261
100
AcDbEntity
  8
Geo
100
AcDbLine
 10
-9.734970986763912
 20
-4.263900854804378
 30
0.0
 11
-9.634970986763903
 21
-4.314048596104078
 31
0.0
  0
LINE
  5
F101F9
330
261
100
AcDbEntity
  8
Geo
100
AcDbLine
 10
-9.634970986763903
 20
-4.314048596104078
 30
0.0
 11
-9.534970986763907
 21
-4.363918723600078
 31
0.0
  0
LINE
  5
F101FB
330
261
100
AcDbEntity
  8
Geo
100
AcDbLine
 10
-9.534970986763907
 20
-4.363918723600078
 30
0.0
 11
-9.4349709867639
 21
-4.413506619723579
 31
0.0
  0
LINE
  5
F101FD
330
261
100
AcDbEntity
  8
Geo
100
AcDbLine
 10
-9.4349709867639
 20
-4.413506619723579
 30
0.0
 11
-9.334970986763906
 21
-4.462807693038278
 31
0.0
  0
LINE
  5
F101FF
330
261
100
AcDbEntity
  8
Geo
100
AcDbLine
 10
-9.334970986763906
 20
-4.462807693038278
 30
0.0
 11
-9.234970986763912
 21
-4.511817378664979
 31
0.0
  0
LINE
  5
F10201
330
261
100
AcDbEntity
  8
Geo
100
AcDbLine
 10
-9.234970986763912
 20
-4.511817378664979
 30
0.0
 11
-9.134970986763903
 21
-4.56053113870508
 31
0.0
  0
LINE
  5
F10203
330
261
100
AcDbEntity
  8
Geo
100
AcDbLine
 10
-9.134970986763903
 20
-4.56053113870508
 30
0.0
 11
-9.034970986763907
 21
-4.608944462659881
 31
0.0
  0
LINE
  5
F10205
330
261
100
AcDbEntity
  8
Geo
100
AcDbLine
 10
-9.034970986763907
 20
-4.608944462659881
 30
0.0
 11
-8.9349709867639
 21
-4.657052867848879
 31
0.0
  0
LINE
  5
F10207
330
261
100
AcDbEntity
  8
Geo
100
AcDbLine
 10
-8.9349709867639
 20
-4.657052867848879
 30
0.0
 11
-8.834970986763906
 21
-4.70485189982438
 31
0.0
  0
LINE
  5
F10209
330
261
100
AcDbEntity
  8
Geo
100
AcDbLine
 10
-8.834970986763906
 20
-4.70485189982438
 30
0.0
 11
-8.734970986763912
 21
-4.752337132784378
 31
0.0
  0
LINE
  5
F1020B
330
261
100
AcDbEntity
  8
Geo
100
AcDbLine
 10
-8.734970986763912
 20
-4.752337132784378
 30
0.0
 11
-8.634970986763903
 21
-4.799504169981879
 31
0.0
  0
LINE
  5
F1020D
330
261
100
AcDbEntity
  8
Geo
100
AcDbLine
 10
-8.634970986763903
 20
-4.799504169981879
 30
0.0
 11
-8.534970986763909
 21
-4.84634864413238
 31
0.0
  0
LINE
  5
F1020F
330
261
100
AcDbEntity
  8
Geo
100
AcDbLine
 10
-8.534970986763909
 20
-4.84634864413238
 30
0.0
 11
-8.4349709867639
 21
-4.892866217817981
 31
0.0
  0
LINE
  5
F10211
330
261
100
AcDbEntity
  8
Geo
100
AcDbLine
 10
-8.4349709867639
 20
-4.892866217817981
 30
0.0
 11
-8.334970986763906
 21
-4.939052583889181
 31
0.0
  0
LINE
  5
F10213
330
261
100
AcDbEntity
  8
Geo
100
AcDbLine
 10
-8.334970986763906
 20
-4.939052583889181
 30
0.0
 11
-8.234970986763912
 21
-4.984903465863581
 31
0.0
  0
LINE
  5
F10215
330
261
100
AcDbEntity
  8
Geo
100
AcDbLine
 10
-8.234970986763912
 20
-4.984903465863581
 30
0.0
 11
-8.134970986763903
 21
-5.030414618321976
 31
0.0
  0
LINE
  5
F10217
330
261
100
AcDbEntity
  8
Geo
100
AcDbLine
 10
-8.134970986763903
 20
-5.030414618321976
 30
0.0
 11
-8.034970986763909
 21
-5.075581827301178
 31
0.0
  0
LINE
  5
F10219
330
261
100
AcDbEntity
  8
Geo
100
AcDbLine
 10
-8.034970986763909
 20
-5.075581827301178
 30
0.0
 11
-7.9349709867639
 21
-5.120400910684678
 31
0.0
  0
LINE
  5
F1021B
330
261
100
AcDbEntity
  8
Geo
100
AcDbLine
 10
-7.9349709867639
 20
-5.120400910684678
 30
0.0
 11
-7.834970986763906
 21
-5.164867718589079
 31
0.0
  0
LINE
  5
F1021D
330
261
100
AcDbEntity
  8
Geo
100
AcDbLine
 10
-7.834970986763906
 20
-5.164867718589079
 30
0.0
 11
-7.734970986763912
 21
-5.208978133749378
 31
0.0
  0
LINE
  5
F1021F
330
261
100
AcDbEntity
  8
Geo
100
AcDbLine
 10
-7.734970986763912
 20
-5.208978133749378
 30
0.0
 11
-7.634970986763902
 21
-5.25272807189928
 31
0.0
  0
LINE
  5
F10221
330
261
100
AcDbEntity
  8
Geo
100
AcDbLine
 10
-7.634970986763902
 20
-5.25272807189928
 30
0.0
 11
-7.534970986763909
 21
-5.296113482149777
 31
0.0
  0
LINE
  5
F10223
330
261
100
AcDbEntity
  8
Geo
100
AcDbLine
 10
-7.534970986763909
 20
-5.296113482149777
 30
0.0
 11
-7.4349709867639
 21
-5.339130347364378
 31
0.0
  0
LINE
  5
F10225
330
261
100
AcDbEntity
  8
Geo
100
AcDbLine
 10
-7.4349709867639
 20
-5.339130347364378
 30
0.0
 11
-7.334970986763906
 21
-5.381774684530578
 31
0.0
  0
LINE
  5
F10227
330
261
100
AcDbEntity
  8
Geo
100
AcDbLine
 10
-7.334970986763906
 20
-5.381774684530578
 30
0.0
 11
-7.234970986763912
 21
-5.424042545129378
 31
0.0
  0
LINE
  5
F10229
330
261
100
AcDbEntity
  8
Geo
100
AcDbLine
 10
-7.234970986763912
 20
-5.424042545129378
 30
0.0
 11
-7.134970986763902
 21
-5.465930015499878
 31
0.0
  0
LINE
  5
F1022B
330
261
100
AcDbEntity
  8
Geo
100
AcDbLine
 10
-7.134970986763902
 20
-5.465930015499878
 30
0.0
 11
-7.034970986763909
 21
-5.507433217202778
 31
0.0
  0
LINE
  5
F1022D
330
261
100
AcDbEntity
  8
Geo
100
AcDbLine
 10
-7.034970986763909
 20
-5.507433217202778
 30
0.0
 11
-6.9349709867639
 21
-5.54854830737848
 31
0.0
  0
LINE
  5
F1022F
330
261
100
AcDbEntity
  8
Geo
100
AcDbLine
 10
-6.9349709867639
 20
-5.54854830737848
 30
0.0
 11
-6.834970986763906
 21
-5.589271479103682
 31
0.0
  0
LINE
  5
F10231
330
261
100
AcDbEntity
  8
Geo
100
AcDbLine
 10
-6.834970986763906
 20
-5.589271479103682
 30
0.0
 11
-6.734970986763912
 21
-5.629598961743378
 31
0.0
  0
LINE
  5
F10233
330
261
100
AcDbEntity
  8
Geo
100
AcDbLine
 10
-6.734970986763912
 20
-5.629598961743378
 30
0.0
 11
-6.634970986763902
 21
-5.669527021300279
 31
0.0
  0
LINE
  5
F10235
330
261
100
AcDbEntity
  8
Geo
100
AcDbLine
 10
-6.634970986763902
 20
-5.669527021300279
 30
0.0
 11
-6.534970986763909
 21
-5.709051960760279
 31
0.0
  0
LINE
  5
F10237
330
261
100
AcDbEntity
  8
Geo
100
AcDbLine
 10
-6.534970986763909
 20
-5.709051960760279
 30
0.0
 11
-6.4349709867639
 21
-5.748170120434978
 31
0.0
  0
LINE
  5
F10239
330
261
100
AcDbEntity
  8
Geo
100
AcDbLine
 10
-6.4349709867639
 20
-5.748170120434978
 30
0.0
 11
-6.334970986763906
 21
-5.786877878300577
 31
0.0
  0
LINE
  5
F1023B
330
261
100
AcDbEntity
  8
Geo
100
AcDbLine
 10
-6.334970986763906
 20
-5.786877878300577
 30
0.0
 11
-6.234970986763912
 21
-5.825171650333179
 31
0.0
  0
LINE
  5
F1023D
330
261
100
AcDbEntity
  8
Geo
100
AcDbLine
 10
-6.234970986763912
 20
-5.825171650333179
 30
0.0
 11
-6.134970986763902
 21
-5.863047890840278
 31
0.0
  0
LINE
  5
F1023F
330
261
100
AcDbEntity
  8
Geo
100
AcDbLine
 10
-6.134970986763902
 20
-5.863047890840278
 30
0.0
 11
-6.034970986763909
 21
-5.900503092789779
 31
0.0
  0
LINE
  5
F10241
330
261
100
AcDbEntity
  8
Geo
100
AcDbLine
 10
-6.034970986763909
 20
-5.900503092789779
 30
0.0
 11
-5.9349709867639
 21
-5.937533788134079
 31
0.0
  0
LINE
  5
F10243
330
261
100
AcDbEntity
  8
Geo
100
AcDbLine
 10
-5.9349709867639
 20
-5.937533788134079
 30
0.0
 11
-5.834970986763906
 21
-5.974136548131679
 31
0.0
  0
LINE
  5
F10245
330
261
100
AcDbEntity
  8
Geo
100
AcDbLine
 10
-5.834970986763906
 20
-5.974136548131679
 30
0.0
 11
-5.734970986763903
 21
-6.01030798366418
 31
0.0
  0
LINE
  5
F10247
330
261
100
AcDbEntity
  8
Geo
100
AcDbLine
 10
-5.734970986763903
 20
-6.01030798366418
 30
0.0
 11
-5.634970986763902
 21
-6.046044745550477
 31
0.0
  0
LINE
  5
F10249
330
261
100
AcDbEntity
  8
Geo
100
AcDbLine
 10
-5.634970986763902
 20
-6.046044745550477
 30
0.0
 11
-5.534970986763909
 21
-6.081343524856682
 31
0.0
  0
LINE
  5
F1024B
330
261
100
AcDbEntity
  8
Geo
100
AcDbLine
 10
-5.534970986763909
 20
-6.081343524856682
 30
0.0
 11
-5.434970986763907
 21
-6.116201053202477
 31
0.0
  0
LINE
  5
F1024D
330
261
100
AcDbEntity
  8
Geo
100
AcDbLine
 10
-5.434970986763907
 20
-6.116201053202477
 30
0.0
 11
-5.334970986763906
 21
-6.15061410306388
 31
0.0
  0
LINE
  5
F1024F
330
261
100
AcDbEntity
  8
Geo
100
AcDbLine
 10
-5.334970986763906
 20
-6.15061410306388
 30
0.0
 11
-5.234970986763903
 21
-6.18457948807198
 31
0.0
  0
LINE
  5
F10251
330
261
100
AcDbEntity
  8
Geo
100
AcDbLine
 10
-5.234970986763903
 20
-6.18457948807198
 30
0.0
 11
-5.134970986763903
 21
-6.218094063307978
 31
0.0
  0
LINE
  5
F10253
330
261
100
AcDbEntity
  8
Geo
100
AcDbLine
 10
-5.134970986763903
 20
-6.218094063307978
 30
0.0
 11
-5.034970986763909
 21
-6.251154725594377
 31
0.0
  0
LINE
  5
F10255
330
261
100
AcDbEntity
  8
Geo
100
AcDbLine
 10
-5.034970986763909
 20
-6.251154725594377
 30
0.0
 11
-4.934970986763906
 21
-6.283758413782378
 31
0.0
  0
LINE
  5
F10257
330
261
100
AcDbEntity
  8
Geo
100
AcDbLine
 10
-4.934970986763906
 20
-6.283758413782378
 30
0.0
 11
-4.834970986763906
 21
-6.315902109035278
 31
0.0
  0
LINE
  5
F10259
330
261
100
AcDbEntity
  8
Geo
100
AcDbLine
 10
-4.834970986763906
 20
-6.315902109035278
 30
0.0
 11
-4.734970986763903
 21
-6.347582835107977
 31
0.0
  0
LINE
  5
F1025B
330
261
100
AcDbEntity
  8
Geo
100
AcDbLine
 10
-4.734970986763903
 20
-6.347582835107977
 30
0.0
 11
-4.634970986763903
 21
-6.378797658622477
 31
0.0
  0
LINE
  5
F1025D
330
261
100
AcDbEntity
  8
Geo
100
AcDbLine
 10
-4.634970986763903
 20
-6.378797658622477
 30
0.0
 11
-4.534970986763909
 21
-6.409543689339778
 31
0.0
  0
LINE
  5
F1025F
330
261
100
AcDbEntity
  8
Geo
100
AcDbLine
 10
-4.534970986763909
 20
-6.409543689339778
 30
0.0
 11
-4.434970986763906
 21
-6.439818080426977
 31
0.0
  0
LINE
  5
F10261
330
261
100
AcDbEntity
  8
Geo
100
AcDbLine
 10
-4.434970986763906
 20
-6.439818080426977
 30
0.0
 11
-4.334970986763906
 21
-6.469618028721378
 31
0.0
  0
LINE
  5
F10263
330
261
100
AcDbEntity
  8
Geo
100
AcDbLine
 10
-4.334970986763906
 20
-6.469618028721378
 30
0.0
 11
-4.234970986763904
 21
-6.49894077498988
 31
0.0
  0
LINE
  5
F10265
330
261
100
AcDbEntity
  8
Geo
100
AcDbLine
 10
-4.234970986763904
 20
-6.49894077498988
 30
0.0
 11
-4.134970986763903
 21
-6.527783604184378
 31
0.0
  0
LINE
  5
F10267
330
261
100
AcDbEntity
  8
Geo
100
AcDbLine
 10
-4.134970986763903
 20
-6.527783604184378
 30
0.0
 11
-4.034970986763909
 21
-6.556143845692979
 31
0.0
  0
LINE
  5
F10269
330
261
100
AcDbEntity
  8
Geo
100
AcDbLine
 10
-4.034970986763909
 20
-6.556143845692979
 30
0.0
 11
-3.934970986763906
 21
-6.584018873587777
 31
0.0
  0
LINE
  5
F1026B
330
261
100
AcDbEntity
  8
Geo
100
AcDbLine
 10
-3.934970986763906
 20
-6.584018873587777
 30
0.0
 11
-3.834970986763906
 21
-6.61140610686758
 31
0.0
  0
LINE
  5
F1026D
330
261
100
AcDbEntity
  8
Geo
100
AcDbLine
 10
-3.834970986763906
 20
-6.61140610686758
 30
0.0
 11
-3.734970986763904
 21
-6.638303009696878
 31
0.0
  0
LINE
  5
F1026F
330
261
100
AcDbEntity
  8
Geo
100
AcDbLine
 10
-3.734970986763904
 20
-6.638303009696878
 30
0.0
 11
-3.634970986763903
 21
-6.664707091641178
 31
0.0
  0
LINE
  5
F10271
330
261
100
AcDbEntity
  8
Geo
100
AcDbLine
 10
-3.634970986763903
 20
-6.664707091641178
 30
0.0
 11
-3.534970986763908
 21
-6.690615907896781
 31
0.0
  0
LINE
  5
F10273
330
261
100
AcDbEntity
  8
Geo
100
AcDbLine
 10
-3.534970986763908
 20
-6.690615907896781
 30
0.0
 11
-3.434970986763906
 21
-6.716027059517679
 31
0.0
  0
LINE
  5
F10275
330
261
100
AcDbEntity
  8
Geo
100
AcDbLine
 10
-3.434970986763906
 20
-6.716027059517679
 30
0.0
 11
-3.334970986763906
 21
-6.740938193637781
 31
0.0
  0
LINE
  5
F10277
330
261
100
AcDbEntity
  8
Geo
100
AcDbLine
 10
-3.334970986763906
 20
-6.740938193637781
 30
0.0
 11
-3.234970986763904
 21
-6.765347003688177
 31
0.0
  0
LINE
  5
F10279
330
261
100
AcDbEntity
  8
Geo
100
AcDbLine
 10
-3.234970986763904
 20
-6.765347003688177
 30
0.0
 11
-3.134970986763903
 21
-6.789251229611578
 31
0.0
  0
LINE
  5
F1027B
330
261
100
AcDbEntity
  8
Geo
100
AcDbLine
 10
-3.134970986763903
 20
-6.789251229611578
 30
0.0
 11
-3.034970986763908
 21
-6.812648658070576
 31
0.0
  0
LINE
  5
F1027D
330
261
100
AcDbEntity
  8
Geo
100
AcDbLine
 10
-3.034970986763908
 20
-6.812648658070576
 30
0.0
 11
-2.934970986763906
 21
-6.835537122653379
 31
0.0
  0
LINE
  5
F1027F
330
261
100
AcDbEntity
  8
Geo
100
AcDbLine
 10
-2.934970986763906
 20
-6.835537122653379
 30
0.0
 11
-2.834970986763906
 21
-6.857914504074178
 31
0.0
  0
LINE
  5
F10281
330
261
100
AcDbEntity
  8
Geo
100
AcDbLine
 10
-2.834970986763906
 20
-6.857914504074178
 30
0.0
 11
-2.734970986763904
 21
-6.879778730369077
 31
0.0
  0
LINE
  5
F10283
330
261
100
AcDbEntity
  8
Geo
100
AcDbLine
 10
-2.734970986763904
 20
-6.879778730369077
 30
0.0
 11
-2.634970986763903
 21
-6.901127777088277
 31
0.0
  0
LINE
  5
F10285
330
261
100
AcDbEntity
  8
Geo
100
AcDbLine
 10
-2.634970986763903
 20
-6.901127777088277
 30
0.0
 11
-2.534970986763909
 21
-6.921959667483577
 31
0.0
  0
LINE
  5
F10287
330
261
100
AcDbEntity
  8
Geo
100
AcDbLine
 10
-2.534970986763909
 20
-6.921959667483577
 30
0.0
 11
-2.434970986763906
 21
-6.94227247269098
 31
0.0
  0
LINE
  5
F10289
330
261
100
AcDbEntity
  8
Geo
100
AcDbLine
 10
-2.434970986763906
 20
-6.94227247269098
 30
0.0
 11
-2.334970986763905
 21
-6.962064311909777
 31
0.0
  0
LINE
  5
F1028B
330
261
100
AcDbEntity
  8
Geo
100
AcDbLine
 10
-2.334970986763905
 20
-6.962064311909777
 30
0.0
 11
-2.234970986763904
 21
-6.981333352576478
 31
0.0
  0
LINE
  5
F1028D
330
261
100
AcDbEntity
  8
Geo
100
AcDbLine
 10
-2.234970986763904
 20
-6.981333352576478
 30
0.0
 11
-2.134970986763903
 21
-7.00007781053428
 31
0.0
  0
LINE
  5
F1028F
330
261
100
AcDbEntity
  8
Geo
100
AcDbLine
 10
-2.134970986763903
 20
-7.00007781053428
 30
0.0
 11
-2.034970986763909
 21
-7.018295950198679
 31
0.0
  0
LINE
  5
F10291
330
261
100
AcDbEntity
  8
Geo
100
AcDbLine
 10
-2.034970986763909
 20
-7.018295950198679
 30
0.0
 11
-1.934970986763907
 21
-7.035986084717878
 31
0.0
  0
LINE
  5
F10293
330
261
100
AcDbEntity
  8
Geo
100
AcDbLine
 10
-1.934970986763907
 20
-7.035986084717878
 30
0.0
 11
-1.834970986763905
 21
-7.053146576129178
 31
0.0
  0
LINE
  5
F10295
330
261
100
AcDbEntity
  8
Geo
100
AcDbLine
 10
-1.834970986763905
 20
-7.053146576129178
 30
0.0
 11
-1.734970986763904
 21
-7.069775835510277
 31
0.0
  0
LINE
  5
F10297
330
261
100
AcDbEntity
  8
Geo
100
AcDbLine
 10
-1.734970986763904
 20
-7.069775835510277
 30
0.0
 11
-1.634970986763903
 21
-7.085872323127079
 31
0.0
  0
LINE
  5
F10299
330
261
100
AcDbEntity
  8
Geo
100
AcDbLine
 10
-1.634970986763903
 20
-7.085872323127079
 30
0.0
 11
-1.534970986763909
 21
-7.101434548575277
 31
0.0
  0
LINE
  5
F1029B
330
261
100
AcDbEntity
  8
Geo
100
AcDbLine
 10
-1.534970986763909
 20
-7.101434548575277
 30
0.0
 11
-1.434970986763907
 21
-7.116461070919378
 31
0.0
  0
LINE
  5
F1029D
330
261
100
AcDbEntity
  8
Geo
100
AcDbLine
 10
-1.434970986763907
 20
-7.116461070919378
 30
0.0
 11
-1.334970986763906
 21
-7.130950498825378
 31
0.0
  0
LINE
  5
F1029F
330
261
100
AcDbEntity
  8
Geo
100
AcDbLine
 10
-1.334970986763906
 20
-7.130950498825378
 30
0.0
 11
-1.234970986763904
 21
-7.144901490689981
 31
0.0
  0
LINE
  5
F102A1
330
261
100
AcDbEntity
  8
Geo
100
AcDbLine
 10
-1.234970986763904
 20
-7.144901490689981
 30
0.0
 11
-1.234970986763904
 21
-7.144901490689981
 31
0.0
  0
LINE
  5
F102A3
330
261
100
AcDbEntity
  8
Geo
100
AcDbLine
 10
-1.234970986763904
 20
-7.144901490689981
 30
0.0
 11
-1.134970986763903
 21
-7.141004507417178
 31
0.0
  0
LINE
  5
F102A5
330
261
100
AcDbEntity
  8
Geo
100
AcDbLine
 10
-1.134970986763903
 20
-7.141004507417178
 30
0.0
 11
-1.034970986763908
 21
-7.136938115146779
 31
0.0
  0
LINE
  5
F102A7
330
261
100
AcDbEntity
  8
Geo
100
AcDbLine
 10
-1.034970986763908
 20
-7.136938115146779
 30
0.0
 11
-0.9349709867639075
 21
-7.132698083464877
 31
0.0
  0
LINE
  5
F102A9
330
261
100
AcDbEntity
  8
Geo
100
AcDbLine
 10
-0.9349709867639075
 20
-7.132698083464877
 30
0.0
 11
-0.8349709867639063
 21
-7.128280057070477
 31
0.0
  0
LINE
  5
F102AB
330
261
100
AcDbEntity
  8
Geo
100
AcDbLine
 10
-0.8349709867639063
 20
-7.128280057070477
 30
0.0
 11
-0.7349709867639051
 21
-7.123679556377377
 31
0.0
  0
LINE
  5
F102AD
330
261
100
AcDbEntity
  8
Geo
100
AcDbLine
 10
-0.7349709867639051
 20
-7.123679556377377
 30
0.0
 11
-0.6349709867639035
 21
-7.118891978146979
 31
0.0
  0
LINE
  5
F102AF
330
261
100
AcDbEntity
  8
Geo
100
AcDbLine
 10
-0.6349709867639035
 20
-7.118891978146979
 30
0.0
 11
-0.5349709867639092
 21
-7.113912596154182
 31
0.0
  0
LINE
  5
F102B1
330
261
100
AcDbEntity
  8
Geo
100
AcDbLine
 10
-0.5349709867639092
 20
-7.113912596154182
 30
0.0
 11
-0.4349709867639078
 21
-7.108736561886179
 31
0.0
  0
LINE
  5
F102B3
330
261
100
AcDbEntity
  8
Geo
100
AcDbLine
 10
-0.4349709867639078
 20
-7.108736561886179
 30
0.0
 11
-0.3349709867639063
 21
-7.103358905276378
 31
0.0
  0
LINE
  5
F102B5
330
261
100
AcDbEntity
  8
Geo
100
AcDbLine
 10
-0.3349709867639063
 20
-7.103358905276378
 30
0.0
 11
-0.2349709867639049
 21
-7.09777453547518
 31
0.0
  0
LINE
  5
F102B7
330
261
100
AcDbEntity
  8
Geo
100
AcDbLine
 10
-0.2349709867639049
 20
-7.09777453547518
 30
0.0
 11
-0.1349709867639035
 21
-7.09197824165728
 31
0.0
  0
LINE
  5
F102B9
330
261
100
AcDbEntity
  8
Geo
100
AcDbLine
 10
-0.1349709867639035
 20
-7.09197824165728
 30
0.0
 11
-0.0349709867639092
 21
-7.085964693867478
 31
0.0
  0
LINE
  5
F102BB
330
261
100
AcDbEntity
  8
Geo
100
AcDbLine
 10
-0.0349709867639092
 20
-7.085964693867478
 30
0.0
 11
0.0650290132360922
 21
-7.079728443908179
 31
0.0
  0
LINE
  5
F102BD
330
261
100
AcDbEntity
  8
Geo
100
AcDbLine
 10
0.0650290132360922
 20
-7.079728443908179
 30
0.0
 11
0.1650290132360936
 21
-7.07326392626598
 31
0.0
  0
LINE
  5
F102BF
330
261
100
AcDbEntity
  8
Geo
100
AcDbLine
 10
0.1650290132360936
 20
-7.07326392626598
 30
0.0
 11
0.2650290132360951
 21
-7.066565459082879
 31
0.0
  0
LINE
  5
F102C1
330
261
100
AcDbEntity
  8
Geo
100
AcDbLine
 10
0.2650290132360951
 20
-7.066565459082879
 30
0.0
 11
0.3650290132360965
 21
-7.059627245171077
 31
0.0
  0
LINE
  5
F102C3
330
261
100
AcDbEntity
  8
Geo
100
AcDbLine
 10
0.3650290132360965
 20
-7.059627245171077
 30
0.0
 11
0.4650290132360908
 21
-7.052443373072977
 31
0.0
  0
LINE
  5
F102C5
330
261
100
AcDbEntity
  8
Geo
100
AcDbLine
 10
0.4650290132360908
 20
-7.052443373072977
 30
0.0
 11
0.5650290132360924
 21
-7.045007818168978
 31
0.0
  0
LINE
  5
F102C7
330
261
100
AcDbEntity
  8
Geo
100
AcDbLine
 10
0.5650290132360924
 20
-7.045007818168978
 30
0.0
 11
0.6650290132360937
 21
-7.037314443833378
 31
0.0
  0
LINE
  5
F102C9
330
261
100
AcDbEntity
  8
Geo
100
AcDbLine
 10
0.6650290132360937
 20
-7.037314443833378
 30
0.0
 11
0.7650290132360951
 21
-7.029357002640781
 31
0.0
  0
LINE
  5
F102CB
330
261
100
AcDbEntity
  8
Geo
100
AcDbLine
 10
0.7650290132360951
 20
-7.029357002640781
 30
0.0
 11
0.8650290132360963
 21
-7.021129137623682
 31
0.0
  0
LINE
  5
F102CD
330
261
100
AcDbEntity
  8
Geo
100
AcDbLine
 10
0.8650290132360963
 20
-7.021129137623682
 30
0.0
 11
0.9650290132360908
 21
-7.012624383583379
 31
0.0
  0
LINE
  5
F102CF
330
261
100
AcDbEntity
  8
Geo
100
AcDbLine
 10
0.9650290132360908
 20
-7.012624383583379
 30
0.0
 11
1.065029013236092
 21
-7.003836168456177
 31
0.0
  0
LINE
  5
F102D1
330
261
100
AcDbEntity
  8
Geo
100
AcDbLine
 10
1.065029013236092
 20
-7.003836168456177
 30
0.0
 11
1.165029013236092
 21
-6.994757814734879
 31
0.0
  0
LINE
  5
F102D3
330
261
100
AcDbEntity
  8
Geo
100
AcDbLine
 10
1.165029013236092
 20
-6.994757814734879
 30
0.0
 11
1.265029013236095
 21
-6.985382540949579
 31
0.0
  0
LINE
  5
F102D5
330
261
100
AcDbEntity
  8
Geo
100
AcDbLine
 10
1.265029013236095
 20
-6.985382540949579
 30
0.0
 11
1.365029013236095
 21
-6.975703463206682
 31
0.0
  0
LINE
  5
F102D7
330
261
100
AcDbEntity
  8
Geo
100
AcDbLine
 10
1.365029013236095
 20
-6.975703463206682
 30
0.0
 11
1.465029013236089
 21
-6.965713596790378
 31
0.0
  0
LINE
  5
F102D9
330
261
100
AcDbEntity
  8
Geo
100
AcDbLine
 10
1.465029013236089
 20
-6.965713596790378
 30
0.0
 11
1.565029013236091
 21
-6.955405857826678
 31
0.0
  0
LINE
  5
F102DB
330
261
100
AcDbEntity
  8
Geo
100
AcDbLine
 10
1.565029013236091
 20
-6.955405857826678
 30
0.0
 11
1.665029013236092
 21
-6.944773065011477
 31
0.0
  0
LINE
  5
F102DD
330
261
100
AcDbEntity
  8
Geo
100
AcDbLine
 10
1.665029013236092
 20
-6.944773065011477
 30
0.0
 11
1.765029013236095
 21
-6.933807941405778
 31
0.0
  0
LINE
  5
F102DF
330
261
100
AcDbEntity
  8
Geo
100
AcDbLine
 10
1.765029013236095
 20
-6.933807941405778
 30
0.0
 11
1.865029013236095
 21
-6.922503116298879
 31
0.0
  0
LINE
  5
F102E1
330
261
100
AcDbEntity
  8
Geo
100
AcDbLine
 10
1.865029013236095
 20
-6.922503116298879
 30
0.0
 11
1.965029013236089
 21
-6.91085112714078
 31
0.0
  0
LINE
  5
F102E3
330
261
100
AcDbEntity
  8
Geo
100
AcDbLine
 10
1.965029013236089
 20
-6.91085112714078
 30
0.0
 11
2.065029013236091
 21
-6.898844421546579
 31
0.0
  0
LINE
  5
F102E5
330
261
100
AcDbEntity
  8
Geo
100
AcDbLine
 10
2.065029013236091
 20
-6.898844421546579
 30
0.0
 11
2.165029013236092
 21
-6.88647535937418
 31
0.0
  0
LINE
  5
F102E7
330
261
100
AcDbEntity
  8
Geo
100
AcDbLine
 10
2.165029013236092
 20
-6.88647535937418
 30
0.0
 11
2.265029013236186
 21
-6.873736214876978
 31
0.0
  0
LINE
  5
F102E9
330
261
100
AcDbEntity
  8
Geo
100
AcDbLine
 10
2.265029013236186
 20
-6.873736214876978
 30
0.0
 11
2.365029013236187
 21
-6.860619178932977
 31
0.0
  0
LINE
  5
F102EB
330
261
100
AcDbEntity
  8
Geo
100
AcDbLine
 10
2.365029013236187
 20
-6.860619178932977
 30
0.0
 11
2.46502901323619
 21
-6.847116361353076
 31
0.0
  0
LINE
  5
F102ED
330
261
100
AcDbEntity
  8
Geo
100
AcDbLine
 10
2.46502901323619
 20
-6.847116361353076
 30
0.0
 11
2.56502901323619
 21
-6.833219793269579
 31
0.0
  0
LINE
  5
F102EF
330
261
100
AcDbEntity
  8
Geo
100
AcDbLine
 10
2.56502901323619
 20
-6.833219793269579
 30
0.0
 11
2.665029013236186
 21
-6.818921429606477
 31
0.0
  0
LINE
  5
F102F1
330
261
100
AcDbEntity
  8
Geo
100
AcDbLine
 10
2.665029013236186
 20
-6.818921429606477
 30
0.0
 11
2.765029013236186
 21
-6.804213151634177
 31
0.0
  0
LINE
  5
F102F3
330
261
100
AcDbEntity
  8
Geo
100
AcDbLine
 10
2.765029013236186
 20
-6.804213151634177
 30
0.0
 11
2.865029013236187
 21
-6.789086769609777
 31
0.0
  0
LINE
  5
F102F5
330
261
100
AcDbEntity
  8
Geo
100
AcDbLine
 10
2.865029013236187
 20
-6.789086769609777
 30
0.0
 11
2.96502901323619
 21
-6.773534025504777
 31
0.0
  0
LINE
  5
F102F7
330
261
100
AcDbEntity
  8
Geo
100
AcDbLine
 10
2.96502901323619
 20
-6.773534025504777
 30
0.0
 11
3.065029013236191
 21
-6.757546595822079
 31
0.0
  0
LINE
  5
F102F9
330
261
100
AcDbEntity
  8
Geo
100
AcDbLine
 10
3.065029013236191
 20
-6.757546595822079
 30
0.0
 11
3.165029013236186
 21
-6.741116094504278
 31
0.0
  0
LINE
  5
F102FB
330
261
100
AcDbEntity
  8
Geo
100
AcDbLine
 10
3.165029013236186
 20
-6.741116094504278
 30
0.0
 11
3.265029013236186
 21
-6.724234075934781
 31
0.0
  0
LINE
  5
F102FD
330
261
100
AcDbEntity
  8
Geo
100
AcDbLine
 10
3.265029013236186
 20
-6.724234075934781
 30
0.0
 11
3.365029013236187
 21
-6.706892038033077
 31
0.0
  0
LINE
  5
F102FF
330
261
100
AcDbEntity
  8
Geo
100
AcDbLine
 10
3.365029013236187
 20
-6.706892038033077
 30
0.0
 11
3.46502901323619
 21
-6.689081425447178
 31
0.0
  0
LINE
  5
F10301
330
261
100
AcDbEntity
  8
Geo
100
AcDbLine
 10
3.46502901323619
 20
-6.689081425447178
 30
0.0
 11
3.565029013236191
 21
-6.670793632843477
 31
0.0
  0
LINE
  5
F10303
330
261
100
AcDbEntity
  8
Geo
100
AcDbLine
 10
3.565029013236191
 20
-6.670793632843477
 30
0.0
 11
3.665029013236186
 21
-6.652020008296978
 31
0.0
  0
LINE
  5
F10305
330
261
100
AcDbEntity
  8
Geo
100
AcDbLine
 10
3.665029013236186
 20
-6.652020008296978
 30
0.0
 11
3.765029013236186
 21
-6.632751856782379
 31
0.0
  0
LINE
  5
F10307
330
261
100
AcDbEntity
  8
Geo
100
AcDbLine
 10
3.765029013236186
 20
-6.632751856782379
 30
0.0
 11
3.865029013236187
 21
-6.612980443769278
 31
0.0
  0
LINE
  5
F10309
330
261
100
AcDbEntity
  8
Geo
100
AcDbLine
 10
3.865029013236187
 20
-6.612980443769278
 30
0.0
 11
3.96502901323619
 21
-6.592696998921678
 31
0.0
  0
LINE
  5
F1030B
330
261
100
AcDbEntity
  8
Geo
100
AcDbLine
 10
3.96502901323619
 20
-6.592696998921678
 30
0.0
 11
4.065029013236191
 21
-6.571892719904277
 31
0.0
  0
LINE
  5
F1030D
330
261
100
AcDbEntity
  8
Geo
100
AcDbLine
 10
4.065029013236191
 20
-6.571892719904277
 30
0.0
 11
4.165029013236186
 21
-6.550558776296978
 31
0.0
  0
LINE
  5
F1030F
330
261
100
AcDbEntity
  8
Geo
100
AcDbLine
 10
4.165029013236186
 20
-6.550558776296978
 30
0.0
 11
4.265029013236095
 21
-6.528686313618877
 31
0.0
  0
LINE
  5
F10311
330
261
100
AcDbEntity
  8
Geo
100
AcDbLine
 10
-23.23497098676391
 20
-1.31579638162508
 30
0.0
 11
-23.1349709867639
 21
-0.8693179157140811
 31
0.0
  0
LINE
  5
F10313
330
261
100
AcDbEntity
  8
Geo
100
AcDbLine
 10
-23.1349709867639
 20
-0.8693179157140811
 30
0.0
 11
-23.03497098676391
 21
-0.7005555116738798
 31
0.0
  0
LINE
  5
F10315
330
261
100
AcDbEntity
  8
Geo
100
AcDbLine
 10
-23.03497098676391
 20
-0.7005555116738798
 30
0.0
 11
-22.9349709867639
 21
-0.5820362801791818
 31
0.0
  0
LINE
  5
F10317
330
261
100
AcDbEntity
  8
Geo
100
AcDbLine
 10
-22.9349709867639
 20
-0.5820362801791818
 30
0.0
 11
-22.83497098676391
 21
-0.4912622138471825
 31
0.0
  0
LINE
  5
F10319
330
261
100
AcDbEntity
  8
Geo
100
AcDbLine
 10
-22.83497098676391
 20
-0.4912622138471825
 30
0.0
 11
-22.73497098676391
 21
-0.4192800735744804
 31
0.0
  0
LINE
  5
F1031B
330
261
100
AcDbEntity
  8
Geo
100
AcDbLine
 10
-22.73497098676391
 20
-0.4192800735744804
 30
0.0
 11
-22.6349709867639
 21
-0.3613771992627797
 31
0.0
  0
LINE
  5
F1031D
330
261
100
AcDbEntity
  8
Geo
100
AcDbLine
 10
-22.6349709867639
 20
-0.3613771992627797
 30
0.0
 11
-22.53497098676391
 21
-0.3146809883299824
 31
0.0
  0
LINE
  5
F1031F
330
261
100
AcDbEntity
  8
Geo
100
AcDbLine
 10
-22.53497098676391
 20
-0.3146809883299824
 30
0.0
 11
-22.4349709867639
 21
-0.2772707664257794
 31
0.0
  0
LINE
  5
F10321
330
261
100
AcDbEntity
  8
Geo
100
AcDbLine
 10
-22.4349709867639
 20
-0.2772707664257794
 30
0.0
 11
-22.33497098676391
 21
-0.2477771400796804
 31
0.0
  0
LINE
  5
F10323
330
261
100
AcDbEntity
  8
Geo
100
AcDbLine
 10
-22.33497098676391
 20
-0.2477771400796804
 30
0.0
 11
-22.23497098676391
 21
-0.2251763106945788
 31
0.0
  0
LINE
  5
F10325
330
261
100
AcDbEntity
  8
Geo
100
AcDbLine
 10
-22.23497098676391
 20
-0.2251763106945788
 30
0.0
 11
-22.13497098676389
 21
-0.2086742962404813
 31
0.0
  0
LINE
  5
F10327
330
261
100
AcDbEntity
  8
Geo
100
AcDbLine
 10
-22.13497098676389
 20
-0.2086742962404813
 30
0.0
 11
-22.03497098676391
 21
-0.1976370865303778
 31
0.0
  0
LINE
  5
F10329
330
261
100
AcDbEntity
  8
Geo
100
AcDbLine
 10
-22.03497098676391
 20
-0.1976370865303778
 30
0.0
 11
-21.9349709867639
 21
-0.1915461625968824
 31
0.0
  0
LINE
  5
F1032B
330
261
100
AcDbEntity
  8
Geo
100
AcDbLine
 10
-21.9349709867639
 20
-0.1915461625968824
 30
0.0
 11
-21.83497098676391
 21
-0.1899689062356806
 31
0.0
  0
LINE
  5
F1032D
330
261
100
AcDbEntity
  8
Geo
100
AcDbLine
 10
-21.83497098676391
 20
-0.1899689062356806
 30
0.0
 11
-21.73497098676391
 21
-0.1925381953744818
 31
0.0
  0
LINE
  5
F1032F
330
261
100
AcDbEntity
  8
Geo
100
AcDbLine
 10
-21.73497098676391
 20
-0.1925381953744818
 30
0.0
 11
-21.63497098676391
 21
-0.1989379036809815
 31
0.0
  0
LINE
  5
F10331
330
261
100
AcDbEntity
  8
Geo
100
AcDbLine
 10
-21.63497098676391
 20
-0.1989379036809815
 30
0.0
 11
-21.53497098676391
 21
-0.2088923286470781
 31
0.0
  0
LINE
  5
F10333
330
261
100
AcDbEntity
  8
Geo
100
AcDbLine
 10
-21.53497098676391
 20
-0.2088923286470781
 30
0.0
 11
-21.4349709867639
 21
-0.2221583118957788
 31
0.0
  0
LINE
  5
F10335
330
261
100
AcDbEntity
  8
Geo
100
AcDbLine
 10
-21.4349709867639
 20
-0.2221583118957788
 30
0.0
 11
-21.33497098676391
 21
-0.2385192522141821
 31
0.0
  0
LINE
  5
F10337
330
261
100
AcDbEntity
  8
Geo
100
AcDbLine
 10
-21.33497098676391
 20
-0.2385192522141821
 30
0.0
 11
-21.23497098676391
 21
-0.2577804792524816
 31
0.0
  0
LINE
  5
F10339
330
261
100
AcDbEntity
  8
Geo
100
AcDbLine
 10
-21.23497098676391
 20
-0.2577804792524816
 30
0.0
 11
-21.1349709867639
 21
-0.2797656248087783
 31
0.0
  0
LINE
  5
F1033B
330
261
100
AcDbEntity
  8
Geo
100
AcDbLine
 10
-21.1349709867639
 20
-0.2797656248087783
 30
0.0
 11
-21.03497098676391
 21
-0.3043137383769832
 31
0.0
  0
LINE
  5
F1033D
330
261
100
AcDbEntity
  8
Geo
100
AcDbLine
 10
-21.03497098676391
 20
-0.3043137383769832
 30
0.0
 11
-20.9349709867639
 21
-0.3312769666932773
 31
0.0
  0
LINE
  5
F1033F
330
261
100
AcDbEntity
  8
Geo
100
AcDbLine
 10
-20.9349709867639
 20
-0.3312769666932773
 30
0.0
 11
-20.8349709867639
 21
-0.3605186667129807
 31
0.0
  0
LINE
  5
F10341
330
261
100
AcDbEntity
  8
Geo
100
AcDbLine
 10
-20.8349709867639
 20
-0.3605186667129807
 30
0.0
 11
-20.73497098676391
 21
-0.3919118559230803
 31
0.0
  0
LINE
  5
F10343
330
261
100
AcDbEntity
  8
Geo
100
AcDbLine
 10
-20.73497098676391
 20
-0.3919118559230803
 30
0.0
 11
-20.6349709867639
 21
-0.4253379282436818
 31
0.0
  0
LINE
  5
F10345
330
261
100
AcDbEntity
  8
Geo
100
AcDbLine
 10
-20.6349709867639
 20
-0.4253379282436818
 30
0.0
 11
-20.53497098676391
 21
-0.4606855812322764
 31
0.0
  0
LINE
  5
F10347
330
261
100
AcDbEntity
  8
Geo
100
AcDbLine
 10
-20.53497098676391
 20
-0.4606855812322764
 30
0.0
 11
-20.4349709867639
 21
-0.4978499130255793
 31
0.0
  0
LINE
  5
F10349
330
261
100
AcDbEntity
  8
Geo
100
AcDbLine
 10
-20.4349709867639
 20
-0.4978499130255793
 30
0.0
 11
-20.33497098676391
 21
-0.5367316568346788
 31
0.0
  0
LINE
  5
F1034B
330
261
100
AcDbEntity
  8
Geo
100
AcDbLine
 10
-20.33497098676391
 20
-0.5367316568346788
 30
0.0
 11
-20.23497098676391
 21
-0.5772365278199807
 31
0.0
  0
LINE
  5
F1034D
330
261
100
AcDbEntity
  8
Geo
100
AcDbLine
 10
-20.23497098676391
 20
-0.5772365278199807
 30
0.0
 11
-20.1349709867639
 21
-0.6192746624685768
 31
0.0
  0
LINE
  5
F1034F
330
261
100
AcDbEntity
  8
Geo
100
AcDbLine
 10
-20.1349709867639
 20
-0.6192746624685768
 30
0.0
 11
-20.03497098676391
 21
-0.6627601346403793
 31
0.0
  0
LINE
  5
F10351
330
261
100
AcDbEntity
  8
Geo
100
AcDbLine
 10
-20.03497098676391
 20
-0.6627601346403793
 30
0.0
 11
-19.9349709867639
 21
-0.7076105355655784
 31
0.0
  0
LINE
  5
F10353
330
261
100
AcDbEntity
  8
Geo
100
AcDbLine
 10
-19.9349709867639
 20
-0.7076105355655784
 30
0.0
 11
-19.8349709867639
 21
-0.7537466075055797
 31
0.0
  0
LINE
  5
F10355
330
261
100
AcDbEntity
  8
Geo
100
AcDbLine
 10
-19.8349709867639
 20
-0.7537466075055797
 30
0.0
 11
-19.73497098676391
 21
-0.8010919226858808
 31
0.0
  0
LINE
  5
F10357
330
261
100
AcDbEntity
  8
Geo
100
AcDbLine
 10
-19.73497098676391
 20
-0.8010919226858808
 30
0.0
 11
-19.6349709867639
 21
-0.8495726006221815
 31
0.0
  0
LINE
  5
F10359
330
261
100
AcDbEntity
  8
Geo
100
AcDbLine
 10
-19.6349709867639
 20
-0.8495726006221815
 30
0.0
 11
-19.53497098676391
 21
-0.8991170581518801
 31
0.0
  0
LINE
  5
F1035B
330
261
100
AcDbEntity
  8
Geo
100
AcDbLine
 10
-19.53497098676391
 20
-0.8991170581518801
 30
0.0
 11
-19.4349709867639
 21
-0.9496557874504816
 31
0.0
  0
LINE
  5
F1035D
330
261
100
AcDbEntity
  8
Geo
100
AcDbLine
 10
-19.4349709867639
 20
-0.9496557874504816
 30
0.0
 11
-19.3349709867639
 21
-1.001121158086276
 31
0.0
  0
LINE
  5
F1035F
330
261
100
AcDbEntity
  8
Geo
100
AcDbLine
 10
-19.3349709867639
 20
-1.001121158086276
 30
0.0
 11
-19.23497098676391
 21
-1.05344723979568
 31
0.0
  0
LINE
  5
F10361
330
261
100
AcDbEntity
  8
Geo
100
AcDbLine
 10
-19.23497098676391
 20
-1.05344723979568
 30
0.0
 11
-19.1349709867639
 21
-1.106569643178779
 31
0.0
  0
LINE
  5
F10363
330
261
100
AcDbEntity
  8
Geo
100
AcDbLine
 10
-19.1349709867639
 20
-1.106569643178779
 30
0.0
 11
-19.03497098676391
 21
-1.160425375936376
 31
0.0
  0
LINE
  5
F10365
330
261
100
AcDbEntity
  8
Geo
100
AcDbLine
 10
-19.03497098676391
 20
-1.160425375936376
 30
0.0
 11
-18.9349709867639
 21
-1.214952712617378
 31
0.0
  0
LINE
  5
F10367
330
261
100
AcDbEntity
  8
Geo
100
AcDbLine
 10
-18.9349709867639
 20
-1.214952712617378
 30
0.0
 11
-18.8349709867639
 21
-1.270091076136079
 31
0.0
  0
LINE
  5
F10369
330
261
100
AcDbEntity
  8
Geo
100
AcDbLine
 10
-18.8349709867639
 20
-1.270091076136079
 30
0.0
 11
-18.73497098676391
 21
-1.325780929557178
 31
0.0
  0
LINE
  5
F1036B
330
261
100
AcDbEntity
  8
Geo
100
AcDbLine
 10
-18.73497098676391
 20
-1.325780929557178
 30
0.0
 11
-18.6349709867639
 21
-1.381963676849277
 31
0.0
  0
LINE
  5
F1036D
330
261
100
AcDbEntity
  8
Geo
100
AcDbLine
 10
-18.6349709867639
 20
-1.381963676849277
 30
0.0
 11
-18.53497098676391
 21
-1.438581571473577
 31
0.0
  0
LINE
  5
F1036F
330
261
100
AcDbEntity
  8
Geo
100
AcDbLine
 10
-18.53497098676391
 20
-1.438581571473577
 30
0.0
 11
-18.4349709867639
 21
-1.49557763181768
 31
0.0
  0
LINE
  5
F10371
330
261
100
AcDbEntity
  8
Geo
100
AcDbLine
 10
-18.4349709867639
 20
-1.49557763181768
 30
0.0
 11
-18.3349709867639
 21
-1.552895562601278
 31
0.0
  0
LINE
  5
F10373
330
261
100
AcDbEntity
  8
Geo
100
AcDbLine
 10
-18.3349709867639
 20
-1.552895562601278
 30
0.0
 11
-18.23497098676391
 21
-1.610479681482278
 31
0.0
  0
LINE
  5
F10375
330
261
100
AcDbEntity
  8
Geo
100
AcDbLine
 10
-18.23497098676391
 20
-1.610479681482278
 30
0.0
 11
-18.1349709867639
 21
-1.668274850175578
 31
0.0
  0
LINE
  5
F10377
330
261
100
AcDbEntity
  8
Geo
100
AcDbLine
 10
-18.1349709867639
 20
-1.668274850175578
 30
0.0
 11
-18.03497098676391
 21
-1.726226409468178
 31
0.0
  0
LINE
  5
F10379
330
261
100
AcDbEntity
  8
Geo
100
AcDbLine
 10
-18.03497098676391
 20
-1.726226409468178
 30
0.0
 11
-17.9349709867639
 21
-1.78428011757338
 31
0.0
  0
LINE
  5
F1037B
330
261
100
AcDbEntity
  8
Geo
100
AcDbLine
 10
-17.9349709867639
 20
-1.78428011757338
 30
0.0
 11
-17.8349709867639
 21
-1.842382091318278
 31
0.0
  0
LINE
  5
F1037D
330
261
100
AcDbEntity
  8
Geo
100
AcDbLine
 10
-17.8349709867639
 20
-1.842382091318278
 30
0.0
 11
-17.73497098676391
 21
-1.900478749699679
 31
0.0
  0
LINE
  5
F1037F
330
261
100
AcDbEntity
  8
Geo
100
AcDbLine
 10
-17.73497098676391
 20
-1.900478749699679
 30
0.0
 11
-17.6349709867639
 21
-1.958516759376776
 31
0.0
  0
LINE
  5
F10381
330
261
100
AcDbEntity
  8
Geo
100
AcDbLine
 10
-17.6349709867639
 20
-1.958516759376776
 30
0.0
 11
-17.53497098676391
 21
-2.016442981699881
 31
0.0
  0
LINE
  5
F10383
330
261
100
AcDbEntity
  8
Geo
100
AcDbLine
 10
-17.53497098676391
 20
-2.016442981699881
 30
0.0
 11
-17.4349709867639
 21
-2.074204420892279
 31
0.0
  0
LINE
  5
F10385
330
261
100
AcDbEntity
  8
Geo
100
AcDbLine
 10
-17.4349709867639
 20
-2.074204420892279
 30
0.0
 11
-17.3349709867639
 21
-2.131748173022483
 31
0.0
  0
LINE
  5
F10387
330
261
100
AcDbEntity
  8
Geo
100
AcDbLine
 10
-17.3349709867639
 20
-2.131748173022483
 30
0.0
 11
-17.23497098676391
 21
-2.189021375414379
 31
0.0
  0
LINE
  5
F10389
330
261
100
AcDbEntity
  8
Geo
100
AcDbLine
 10
-17.23497098676391
 20
-2.189021375414379
 30
0.0
 11
-17.1349709867639
 21
-2.246100374011276
 31
0.0
  0
LINE
  5
F1038B
330
261
100
AcDbEntity
  8
Geo
100
AcDbLine
 10
-17.1349709867639
 20
-2.246100374011276
 30
0.0
 11
-17.03497098676391
 21
-2.30309323401418
 31
0.0
  0
LINE
  5
F1038D
330
261
100
AcDbEntity
  8
Geo
100
AcDbLine
 10
-17.03497098676391
 20
-2.30309323401418
 30
0.0
 11
-16.9349709867639
 21
-2.359994678347279
 31
0.0
  0
LINE
  5
F1038F
330
261
100
AcDbEntity
  8
Geo
100
AcDbLine
 10
-16.9349709867639
 20
-2.359994678347279
 30
0.0
 11
-16.8349709867639
 21
-2.416799438398978
 31
0.0
  0
LINE
  5
F10391
330
261
100
AcDbEntity
  8
Geo
100
AcDbLine
 10
-16.8349709867639
 20
-2.416799438398978
 30
0.0
 11
-16.73497098676391
 21
-2.473502254509778
 31
0.0
  0
LINE
  5
F10393
330
261
100
AcDbEntity
  8
Geo
100
AcDbLine
 10
-16.73497098676391
 20
-2.473502254509778
 30
0.0
 11
-16.6349709867639
 21
-2.530097876459481
 31
0.0
  0
LINE
  5
F10395
330
261
100
AcDbEntity
  8
Geo
100
AcDbLine
 10
-16.6349709867639
 20
-2.530097876459481
 30
0.0
 11
-16.53497098676391
 21
-2.586581063953079
 31
0.0
  0
LINE
  5
F10397
330
261
100
AcDbEntity
  8
Geo
100
AcDbLine
 10
-16.53497098676391
 20
-2.586581063953079
 30
0.0
 11
-16.4349709867639
 21
-2.642946587106275
 31
0.0
  0
LINE
  5
F10399
330
261
100
AcDbEntity
  8
Geo
100
AcDbLine
 10
-16.4349709867639
 20
-2.642946587106275
 30
0.0
 11
-16.3349709867639
 21
-2.699189226929276
 31
0.0
  0
LINE
  5
F1039B
330
261
100
AcDbEntity
  8
Geo
100
AcDbLine
 10
-16.3349709867639
 20
-2.699189226929276
 30
0.0
 11
-16.23497098676391
 21
-2.755303775810681
 31
0.0
  0
LINE
  5
F1039D
330
261
100
AcDbEntity
  8
Geo
100
AcDbLine
 10
-16.23497098676391
 20
-2.755303775810681
 30
0.0
 11
-16.1349709867639
 21
-2.811285037998679
 31
0.0
  0
LINE
  5
F1039F
330
261
100
AcDbEntity
  8
Geo
100
AcDbLine
 10
-16.1349709867639
 20
-2.811285037998679
 30
0.0
 11
-16.03497098676391
 21
-2.867127830083379
 31
0.0
  0
LINE
  5
F103A1
330
261
100
AcDbEntity
  8
Geo
100
AcDbLine
 10
-16.03497098676391
 20
-2.867127830083379
 30
0.0
 11
-15.9349709867639
 21
-2.92282698147558
 31
0.0
  0
LINE
  5
F103A3
330
261
100
AcDbEntity
  8
Geo
100
AcDbLine
 10
-15.9349709867639
 20
-2.92282698147558
 30
0.0
 11
-15.8349709867639
 21
-2.978377334886278
 31
0.0
  0
LINE
  5
F103A5
330
261
100
AcDbEntity
  8
Geo
100
AcDbLine
 10
-15.8349709867639
 20
-2.978377334886278
 30
0.0
 11
-15.73497098676391
 21
-3.03377374680398
 31
0.0
  0
LINE
  5
F103A7
330
261
100
AcDbEntity
  8
Geo
100
AcDbLine
 10
-15.73497098676391
 20
-3.03377374680398
 30
0.0
 11
-15.6349709867639
 21
-3.089011087970778
 31
0.0
  0
LINE
  5
F103A9
330
261
100
AcDbEntity
  8
Geo
100
AcDbLine
 10
-15.6349709867639
 20
-3.089011087970778
 30
0.0
 11
-15.53497098676391
 21
-3.144084243857576
 31
0.0
  0
LINE
  5
F103AB
330
261
100
AcDbEntity
  8
Geo
100
AcDbLine
 10
-15.53497098676391
 20
-3.144084243857576
 30
0.0
 11
-15.4349709867639
 21
-3.198988115137481
 31
0.0
  0
LINE
  5
F103AD
330
261
100
AcDbEntity
  8
Geo
100
AcDbLine
 10
-15.4349709867639
 20
-3.198988115137481
 30
0.0
 11
-15.3349709867639
 21
-3.253717618157877
 31
0.0
  0
LINE
  5
F103AF
330
261
100
AcDbEntity
  8
Geo
100
AcDbLine
 10
-15.3349709867639
 20
-3.253717618157877
 30
0.0
 11
-15.23497098676391
 21
-3.30826768541118
 31
0.0
  0
LINE
  5
F103B1
330
261
100
AcDbEntity
  8
Geo
100
AcDbLine
 10
-15.23497098676391
 20
-3.30826768541118
 30
0.0
 11
-15.1349709867639
 21
-3.36263326600438
 31
0.0
  0
LINE
  5
F103B3
330
261
100
AcDbEntity
  8
Geo
100
AcDbLine
 10
-15.1349709867639
 20
-3.36263326600438
 30
0.0
 11
-15.03497098676391
 21
-3.41680932612618
 31
0.0
  0
LINE
  5
F103B5
330
261
100
AcDbEntity
  8
Geo
100
AcDbLine
 10
-15.03497098676391
 20
-3.41680932612618
 30
0.0
 11
-14.9349709867639
 21
-3.47079084951348
 31
0.0
  0
LINE
  5
F103B7
330
261
100
AcDbEntity
  8
Geo
100
AcDbLine
 10
-14.9349709867639
 20
-3.47079084951348
 30
0.0
 11
-14.8349709867639
 21
-3.524572837915576
 31
0.0
  0
LINE
  5
F103B9
330
261
100
AcDbEntity
  8
Geo
100
AcDbLine
 10
-14.8349709867639
 20
-3.524572837915576
 30
0.0
 11
-14.73497098676391
 21
-3.57815031155718
 31
0.0
  0
LINE
  5
F103BB
330
261
100
AcDbEntity
  8
Geo
100
AcDbLine
 10
-14.73497098676391
 20
-3.57815031155718
 30
0.0
 11
-14.6349709867639
 21
-3.631518309599377
 31
0.0
  0
LINE
  5
F103BD
330
261
100
AcDbEntity
  8
Geo
100
AcDbLine
 10
-14.6349709867639
 20
-3.631518309599377
 30
0.0
 11
-14.53497098676391
 21
-3.684671890598981
 31
0.0
  0
LINE
  5
F103BF
330
261
100
AcDbEntity
  8
Geo
100
AcDbLine
 10
-14.53497098676391
 20
-3.684671890598981
 30
0.0
 11
-14.4349709867639
 21
-3.737606132966181
 31
0.0
  0
LINE
  5
F103C1
330
261
100
AcDbEntity
  8
Geo
100
AcDbLine
 10
-14.4349709867639
 20
-3.737606132966181
 30
0.0
 11
-14.3349709867639
 21
-3.790316135419881
 31
0.0
  0
LINE
  5
F103C3
330
261
100
AcDbEntity
  8
Geo
100
AcDbLine
 10
-14.3349709867639
 20
-3.790316135419881
 30
0.0
 11
-14.23497098676391
 21
-3.842797017442179
 31
0.0
  0
LINE
  5
F103C5
330
261
100
AcDbEntity
  8
Geo
100
AcDbLine
 10
-14.23497098676391
 20
-3.842797017442179
 30
0.0
 11
-14.1349709867639
 21
-3.895043919729481
 31
0.0
  0
LINE
  5
F103C7
330
261
100
AcDbEntity
  8
Geo
100
AcDbLine
 10
-14.1349709867639
 20
-3.895043919729481
 30
0.0
 11
-14.03497098676391
 21
-3.947052004643078
 31
0.0
  0
LINE
  5
F103C9
330
261
100
AcDbEntity
  8
Geo
100
AcDbLine
 10
-14.03497098676391
 20
-3.947052004643078
 30
0.0
 11
-13.9349709867639
 21
-3.998816456656579
 31
0.0
  0
LINE
  5
F103CB
330
261
100
AcDbEntity
  8
Geo
100
AcDbLine
 10
-13.9349709867639
 20
-3.998816456656579
 30
0.0
 11
-13.83497098676391
 21
-4.050332482802279
 31
0.0
  0
LINE
  5
F103CD
330
261
100
AcDbEntity
  8
Geo
100
AcDbLine
 10
-13.83497098676391
 20
-4.050332482802279
 30
0.0
 11
-13.73497098676391
 21
-4.101595313114478
 31
0.0
  0
LINE
  5
F103CF
330
261
100
AcDbEntity
  8
Geo
100
AcDbLine
 10
-13.73497098676391
 20
-4.101595313114478
 30
0.0
 11
-13.6349709867639
 21
-4.152600201071479
 31
0.0
  0
LINE
  5
F103D1
330
261
100
AcDbEntity
  8
Geo
100
AcDbLine
 10
-13.6349709867639
 20
-4.152600201071479
 30
0.0
 11
-13.53497098676391
 21
-4.203342424034878
 31
0.0
  0
LINE
  5
F103D3
330
261
100
AcDbEntity
  8
Geo
100
AcDbLine
 10
-13.53497098676391
 20
-4.203342424034878
 30
0.0
 11
-13.4349709867639
 21
-4.253817283687076
 31
0.0
  0
LINE
  5
F103D5
330
261
100
AcDbEntity
  8
Geo
100
AcDbLine
 10
-13.4349709867639
 20
-4.253817283687076
 30
0.0
 11
-13.3349709867639
 21
-4.30402010646588
 31
0.0
  0
LINE
  5
F103D7
330
261
100
AcDbEntity
  8
Geo
100
AcDbLine
 10
-13.3349709867639
 20
-4.30402010646588
 30
0.0
 11
-13.23497098676391
 21
-4.353946243997678
 31
0.0
  0
LINE
  5
F103D9
330
261
100
AcDbEntity
  8
Geo
100
AcDbLine
 10
-13.23497098676391
 20
-4.353946243997678
 30
0.0
 11
-13.1349709867639
 21
-4.403591073527579
 31
0.0
  0
LINE
  5
F103DB
330
261
100
AcDbEntity
  8
Geo
100
AcDbLine
 10
-13.1349709867639
 20
-4.403591073527579
 30
0.0
 11
-13.03497098676391
 21
-4.45294999834768
 31
0.0
  0
LINE
  5
F103DD
330
261
100
AcDbEntity
  8
Geo
100
AcDbLine
 10
-13.03497098676391
 20
-4.45294999834768
 30
0.0
 11
-12.9349709867639
 21
-4.502018448222378
 31
0.0
  0
LINE
  5
F103DF
330
261
100
AcDbEntity
  8
Geo
100
AcDbLine
 10
-12.9349709867639
 20
-4.502018448222378
 30
0.0
 11
-12.8349709867639
 21
-4.550791879811678
 31
0.0
  0
LINE
  5
F103E1
330
261
100
AcDbEntity
  8
Geo
100
AcDbLine
 10
-12.8349709867639
 20
-4.550791879811678
 30
0.0
 11
-12.73497098676391
 21
-4.599265777092078
 31
0.0
  0
LINE
  5
F103E3
330
261
100
AcDbEntity
  8
Geo
100
AcDbLine
 10
-12.73497098676391
 20
-4.599265777092078
 30
0.0
 11
-12.6349709867639
 21
-4.647435651774279
 31
0.0
  0
LINE
  5
F103E5
330
261
100
AcDbEntity
  8
Geo
100
AcDbLine
 10
-12.6349709867639
 20
-4.647435651774279
 30
0.0
 11
-12.53497098676391
 21
-4.695297043719181
 31
0.0
  0
LINE
  5
F103E7
330
261
100
AcDbEntity
  8
Geo
100
AcDbLine
 10
-12.53497098676391
 20
-4.695297043719181
 30
0.0
 11
-12.4349709867639
 21
-4.742845521350576
 31
0.0
  0
LINE
  5
F103E9
330
261
100
AcDbEntity
  8
Geo
100
AcDbLine
 10
-12.4349709867639
 20
-4.742845521350576
 30
0.0
 11
-12.3349709867639
 21
-4.790076682065682
 31
0.0
  0
LINE
  5
F103EB
330
261
100
AcDbEntity
  8
Geo
100
AcDbLine
 10
-12.3349709867639
 20
-4.790076682065682
 30
0.0
 11
-12.23497098676391
 21
-4.836986152642476
 31
0.0
  0
LINE
  5
F103ED
330
261
100
AcDbEntity
  8
Geo
100
AcDbLine
 10
-12.23497098676391
 20
-4.836986152642476
 30
0.0
 11
-12.1349709867639
 21
-4.883569589645079
 31
0.0
  0
LINE
  5
F103EF
330
261
100
AcDbEntity
  8
Geo
100
AcDbLine
 10
-12.1349709867639
 20
-4.883569589645079
 30
0.0
 11
-12.03497098676391
 21
-4.92982267982558
 31
0.0
  0
LINE
  5
F103F1
330
261
100
AcDbEntity
  8
Geo
100
AcDbLine
 10
-12.03497098676391
 20
-4.92982267982558
 30
0.0
 11
-11.9349709867639
 21
-4.975741140523478
 31
0.0
  0
LINE
  5
F103F3
330
261
100
AcDbEntity
  8
Geo
100
AcDbLine
 10
-11.9349709867639
 20
-4.975741140523478
 30
0.0
 11
-11.8349709867639
 21
-5.021320720062181
 31
0.0
  0
LINE
  5
F103F5
330
261
100
AcDbEntity
  8
Geo
100
AcDbLine
 10
-11.8349709867639
 20
-5.021320720062181
 30
0.0
 11
-11.73497098676391
 21
-5.066557198142881
 31
0.0
  0
LINE
  5
F103F7
330
261
100
AcDbEntity
  8
Geo
100
AcDbLine
 10
-11.73497098676391
 20
-5.066557198142881
 30
0.0
 11
-11.6349709867639
 21
-5.111446386235178
 31
0.0
  0
LINE
  5
F103F9
330
261
100
AcDbEntity
  8
Geo
100
AcDbLine
 10
-11.6349709867639
 20
-5.111446386235178
 30
0.0
 11
-11.53497098676391
 21
-5.155984127964678
 31
0.0
  0
LINE
  5
F103FB
330
261
100
AcDbEntity
  8
Geo
100
AcDbLine
 10
-11.53497098676391
 20
-5.155984127964678
 30
0.0
 11
-11.4349709867639
 21
-5.200166299498381
 31
0.0
  0
LINE
  5
F103FD
330
261
100
AcDbEntity
  8
Geo
100
AcDbLine
 10
-11.4349709867639
 20
-5.200166299498381
 30
0.0
 11
-11.3349709867639
 21
-5.24398880992598
 31
0.0
  0
LINE
  5
F103FF
330
261
100
AcDbEntity
  8
Geo
100
AcDbLine
 10
-11.3349709867639
 20
-5.24398880992598
 30
0.0
 11
-11.23497098676391
 21
-5.287447601638876
 31
0.0
  0
LINE
  5
F10401
330
261
100
AcDbEntity
  8
Geo
100
AcDbLine
 10
-11.23497098676391
 20
-5.287447601638876
 30
0.0
 11
-11.1349709867639
 21
-5.330538650705981
 31
0.0
  0
LINE
  5
F10403
330
261
100
AcDbEntity
  8
Geo
100
AcDbLine
 10
-11.1349709867639
 20
-5.330538650705981
 30
0.0
 11
-11.03497098676391
 21
-5.373257967246079
 31
0.0
  0
LINE
  5
F10405
330
261
100
AcDbEntity
  8
Geo
100
AcDbLine
 10
-11.03497098676391
 20
-5.373257967246079
 30
0.0
 11
-10.9349709867639
 21
-5.415601595797578
 31
0.0
  0
LINE
  5
F10407
330
261
100
AcDbEntity
  8
Geo
100
AcDbLine
 10
-10.9349709867639
 20
-5.415601595797578
 30
0.0
 11
-10.8349709867639
 21
-5.457565615684178
 31
0.0
  0
LINE
  5
F10409
330
261
100
AcDbEntity
  8
Geo
100
AcDbLine
 10
-10.8349709867639
 20
-5.457565615684178
 30
0.0
 11
-10.73497098676391
 21
-5.499146141378576
 31
0.0
  0
LINE
  5
F1040B
330
261
100
AcDbEntity
  8
Geo
100
AcDbLine
 10
-10.73497098676391
 20
-5.499146141378576
 30
0.0
 11
-10.6349709867639
 21
-5.540339322861678
 31
0.0
  0
LINE
  5
F1040D
330
261
100
AcDbEntity
  8
Geo
100
AcDbLine
 10
-10.6349709867639
 20
-5.540339322861678
 30
0.0
 11
-10.53497098676391
 21
-5.581141345979681
 31
0.0
  0
LINE
  5
F1040F
330
261
100
AcDbEntity
  8
Geo
100
AcDbLine
 10
-10.53497098676391
 20
-5.581141345979681
 30
0.0
 11
-10.4349709867639
 21
-5.621548432796481
 31
0.0
  0
LINE
  5
F10411
330
261
100
AcDbEntity
  8
Geo
100
AcDbLine
 10
-10.4349709867639
 20
-5.621548432796481
 30
0.0
 11
-10.3349709867639
 21
-5.661556841943977
 31
0.0
  0
LINE
  5
F10413
330
261
100
AcDbEntity
  8
Geo
100
AcDbLine
 10
-10.3349709867639
 20
-5.661556841943977
 30
0.0
 11
-10.23497098676391
 21
-5.701162868968478
 31
0.0
  0
LINE
  5
F10415
330
261
100
AcDbEntity
  8
Geo
100
AcDbLine
 10
-10.23497098676391
 20
-5.701162868968478
 30
0.0
 11
-10.1349709867639
 21
-5.740362846673576
 31
0.0
  0
LINE
  5
F10417
330
261
100
AcDbEntity
  8
Geo
100
AcDbLine
 10
-10.1349709867639
 20
-5.740362846673576
 30
0.0
 11
-10.03497098676391
 21
-5.779153145459678
 31
0.0
  0
LINE
  5
F10419
330
261
100
AcDbEntity
  8
Geo
100
AcDbLine
 10
-10.03497098676391
 20
-5.779153145459678
 30
0.0
 11
-9.9349709867639
 21
-5.817530173660178
 31
0.0
  0
LINE
  5
F1041B
330
261
100
AcDbEntity
  8
Geo
100
AcDbLine
 10
-9.9349709867639
 20
-5.817530173660178
 30
0.0
 11
-9.834970986763906
 21
-5.85549037787398
 31
0.0
  0
LINE
  5
F1041D
330
261
100
AcDbEntity
  8
Geo
100
AcDbLine
 10
-9.834970986763906
 20
-5.85549037787398
 30
0.0
 11
-9.734970986763912
 21
-5.893030243294478
 31
0.0
  0
LINE
  5
F1041F
330
261
100
AcDbEntity
  8
Geo
100
AcDbLine
 10
-9.734970986763912
 20
-5.893030243294478
 30
0.0
 11
-9.634970986763903
 21
-5.930146294035079
 31
0.0
  0
LINE
  5
F10421
330
261
100
AcDbEntity
  8
Geo
100
AcDbLine
 10
-9.634970986763903
 20
-5.930146294035079
 30
0.0
 11
-9.534970986763907
 21
-5.966835093450778
 31
0.0
  0
LINE
  5
F10423
330
261
100
AcDbEntity
  8
Geo
100
AcDbLine
 10
-9.534970986763907
 20
-5.966835093450778
 30
0.0
 11
-9.4349709867639
 21
-6.003093244456779
 31
0.0
  0
LINE
  5
F10425
330
261
100
AcDbEntity
  8
Geo
100
AcDbLine
 10
-9.4349709867639
 20
-6.003093244456779
 30
0.0
 11
-9.334970986763906
 21
-6.038917389842878
 31
0.0
  0
LINE
  5
F10427
330
261
100
AcDbEntity
  8
Geo
100
AcDbLine
 10
-9.334970986763906
 20
-6.038917389842878
 30
0.0
 11
-9.234970986763912
 21
-6.074304212584178
 31
0.0
  0
LINE
  5
F10429
330
261
100
AcDbEntity
  8
Geo
100
AcDbLine
 10
-9.234970986763912
 20
-6.074304212584178
 30
0.0
 11
-9.134970986763903
 21
-6.10925043614818
 31
0.0
  0
LINE
  5
F1042B
330
261
100
AcDbEntity
  8
Geo
100
AcDbLine
 10
-9.134970986763903
 20
-6.10925043614818
 30
0.0
 11
-9.034970986763907
 21
-6.143752824798379
 31
0.0
  0
LINE
  5
F1042D
330
261
100
AcDbEntity
  8
Geo
100
AcDbLine
 10
-9.034970986763907
 20
-6.143752824798379
 30
0.0
 11
-8.9349709867639
 21
-6.177808183893978
 31
0.0
  0
LINE
  5
F1042F
330
261
100
AcDbEntity
  8
Geo
100
AcDbLine
 10
-8.9349709867639
 20
-6.177808183893978
 30
0.0
 11
-8.834970986763906
 21
-6.211413360185278
 31
0.0
  0
LINE
  5
F10431
330
261
100
AcDbEntity
  8
Geo
100
AcDbLine
 10
-8.834970986763906
 20
-6.211413360185278
 30
0.0
 11
-8.734970986763912
 21
-6.24456524210578
 31
0.0
  0
LINE
  5
F10433
330
261
100
AcDbEntity
  8
Geo
100
AcDbLine
 10
-8.734970986763912
 20
-6.24456524210578
 30
0.0
 11
-8.634970986763903
 21
-6.277260760060578
 31
0.0
  0
LINE
  5
F10435
330
261
100
AcDbEntity
  8
Geo
100
AcDbLine
 10
-8.634970986763903
 20
-6.277260760060578
 30
0.0
 11
-8.534970986763909
 21
-6.309496886710281
 31
0.0
  0
LINE
  5
F10437
330
261
100
AcDbEntity
  8
Geo
100
AcDbLine
 10
-8.534970986763909
 20
-6.309496886710281
 30
0.0
 11
-8.4349709867639
 21
-6.34127063725128
 31
0.0
  0
LINE
  5
F10439
330
261
100
AcDbEntity
  8
Geo
100
AcDbLine
 10
-8.4349709867639
 20
-6.34127063725128
 30
0.0
 11
-8.334970986763906
 21
-6.372579069692378
 31
0.0
  0
LINE
  5
F1043B
330
261
100
AcDbEntity
  8
Geo
100
AcDbLine
 10
-8.334970986763906
 20
-6.372579069692378
 30
0.0
 11
-8.234970986763912
 21
-6.403419285126978
 31
0.0
  0
LINE
  5
F1043D
330
261
100
AcDbEntity
  8
Geo
100
AcDbLine
 10
-8.234970986763912
 20
-6.403419285126978
 30
0.0
 11
-8.134970986763903
 21
-6.433788428001679
 31
0.0
  0
LINE
  5
F1043F
330
261
100
AcDbEntity
  8
Geo
100
AcDbLine
 10
-8.134970986763903
 20
-6.433788428001679
 30
0.0
 11
-8.034970986763909
 21
-6.46368368638038
 31
0.0
  0
LINE
  5
F10441
330
261
100
AcDbEntity
  8
Geo
100
AcDbLine
 10
-8.034970986763909
 20
-6.46368368638038
 30
0.0
 11
-7.9349709867639
 21
-6.493102292205178
 31
0.0
  0
LINE
  5
F10443
330
261
100
AcDbEntity
  8
Geo
100
AcDbLine
 10
-7.9349709867639
 20
-6.493102292205178
 30
0.0
 11
-7.834970986763906
 21
-6.522041521551879
 31
0.0
  0
LINE
  5
F10445
330
261
100
AcDbEntity
  8
Geo
100
AcDbLine
 10
-7.834970986763906
 20
-6.522041521551879
 30
0.0
 11
-7.734970986763912
 21
-6.550498694883077
 31
0.0
  0
LINE
  5
F10447
330
261
100
AcDbEntity
  8
Geo
100
AcDbLine
 10
-7.734970986763912
 20
-6.550498694883077
 30
0.0
 11
-7.634970986763902
 21
-6.578471177295477
 31
0.0
  0
LINE
  5
F10449
330
261
100
AcDbEntity
  8
Geo
100
AcDbLine
 10
-7.634970986763902
 20
-6.578471177295477
 30
0.0
 11
-7.534970986763909
 21
-6.605956378764576
 31
0.0
  0
LINE
  5
F1044B
330
261
100
AcDbEntity
  8
Geo
100
AcDbLine
 10
-7.534970986763909
 20
-6.605956378764576
 30
0.0
 11
-7.4349709867639
 21
-6.632951754383779
 31
0.0
  0
LINE
  5
F1044D
330
261
100
AcDbEntity
  8
Geo
100
AcDbLine
 10
-7.4349709867639
 20
-6.632951754383779
 30
0.0
 11
-7.334970986763906
 21
-6.659454804600577
 31
0.0
  0
LINE
  5
F1044F
330
261
100
AcDbEntity
  8
Geo
100
AcDbLine
 10
-7.334970986763906
 20
-6.659454804600577
 30
0.0
 11
-7.234970986763912
 21
-6.685463075447881
 31
0.0
  0
LINE
  5
F10451
330
261
100
AcDbEntity
  8
Geo
100
AcDbLine
 10
-7.234970986763912
 20
-6.685463075447881
 30
0.0
 11
-7.134970986763902
 21
-6.71097415877098
 31
0.0
  0
LINE
  5
F10453
330
261
100
AcDbEntity
  8
Geo
100
AcDbLine
 10
-7.134970986763902
 20
-6.71097415877098
 30
0.0
 11
-7.034970986763909
 21
-6.73598569245078
 31
0.0
  0
LINE
  5
F10455
330
261
100
AcDbEntity
  8
Geo
100
AcDbLine
 10
-7.034970986763909
 20
-6.73598569245078
 30
0.0
 11
-6.9349709867639
 21
-6.760495360622376
 31
0.0
  0
LINE
  5
F10457
330
261
100
AcDbEntity
  8
Geo
100
AcDbLine
 10
-6.9349709867639
 20
-6.760495360622376
 30
0.0
 11
-6.834970986763906
 21
-6.784500893889577
 31
0.0
  0
LINE
  5
F10459
330
261
100
AcDbEntity
  8
Geo
100
AcDbLine
 10
-6.834970986763906
 20
-6.784500893889577
 30
0.0
 11
-6.734970986763912
 21
-6.80800006953498
 31
0.0
  0
LINE
  5
F1045B
330
261
100
AcDbEntity
  8
Geo
100
AcDbLine
 10
-6.734970986763912
 20
-6.80800006953498
 30
0.0
 11
-6.634970986763902
 21
-6.83099071172568
 31
0.0
  0
LINE
  5
F1045D
330
261
100
AcDbEntity
  8
Geo
100
AcDbLine
 10
-6.634970986763902
 20
-6.83099071172568
 30
0.0
 11
-6.534970986763909
 21
-6.853470691715079
 31
0.0
  0
LINE
  5
F1045F
330
261
100
AcDbEntity
  8
Geo
100
AcDbLine
 10
-6.534970986763909
 20
-6.853470691715079
 30
0.0
 11
-6.4349709867639
 21
-6.875437928039579
 31
0.0
  0
LINE
  5
F10461
330
261
100
AcDbEntity
  8
Geo
100
AcDbLine
 10
-6.4349709867639
 20
-6.875437928039579
 30
0.0
 11
-6.334970986763906
 21
-6.896890386711379
 31
0.0
  0
LINE
  5
F10463
330
261
100
AcDbEntity
  8
Geo
100
AcDbLine
 10
-6.334970986763906
 20
-6.896890386711379
 30
0.0
 11
-6.234970986763912
 21
-6.917826081407182
 31
0.0
  0
LINE
  5
F10465
330
261
100
AcDbEntity
  8
Geo
100
AcDbLine
 10
-6.234970986763912
 20
-6.917826081407182
 30
0.0
 11
-6.134970986763902
 21
-6.938243073651679
 31
0.0
  0
LINE
  5
F10467
330
261
100
AcDbEntity
  8
Geo
100
AcDbLine
 10
-6.134970986763902
 20
-6.938243073651679
 30
0.0
 11
-6.034970986763909
 21
-6.95813947299718
 31
0.0
  0
LINE
  5
F10469
330
261
100
AcDbEntity
  8
Geo
100
AcDbLine
 10
-6.034970986763909
 20
-6.95813947299718
 30
0.0
 11
-5.9349709867639
 21
-6.97751343719878
 31
0.0
  0
LINE
  5
F1046B
330
261
100
AcDbEntity
  8
Geo
100
AcDbLine
 10
-5.9349709867639
 20
-6.97751343719878
 30
0.0
 11
-5.834970986763906
 21
-6.996363172384576
 31
0.0
  0
LINE
  5
F1046D
330
261
100
AcDbEntity
  8
Geo
100
AcDbLine
 10
-5.834970986763906
 20
-6.996363172384576
 30
0.0
 11
-5.734970986763903
 21
-7.01468693322228
 31
0.0
  0
LINE
  5
F1046F
330
261
100
AcDbEntity
  8
Geo
100
AcDbLine
 10
-5.734970986763903
 20
-7.01468693322228
 30
0.0
 11
-5.634970986763902
 21
-7.032483023080478
 31
0.0
  0
LINE
  5
F10471
330
261
100
AcDbEntity
  8
Geo
100
AcDbLine
 10
-5.634970986763902
 20
-7.032483023080478
 30
0.0
 11
-5.534970986763909
 21
-7.04974979418578
 31
0.0
  0
LINE
  5
F10473
330
261
100
AcDbEntity
  8
Geo
100
AcDbLine
 10
-5.534970986763909
 20
-7.04974979418578
 30
0.0
 11
-5.434970986763907
 21
-7.066485647775478
 31
0.0
  0
LINE
  5
F10475
330
261
100
AcDbEntity
  8
Geo
100
AcDbLine
 10
-5.434970986763907
 20
-7.066485647775478
 30
0.0
 11
-5.334970986763906
 21
-7.082689034245279
 31
0.0
  0
LINE
  5
F10477
330
261
100
AcDbEntity
  8
Geo
100
AcDbLine
 10
-5.334970986763906
 20
-7.082689034245279
 30
0.0
 11
-5.234970986763903
 21
-7.098358453293379
 31
0.0
  0
LINE
  5
F10479
330
261
100
AcDbEntity
  8
Geo
100
AcDbLine
 10
-5.234970986763903
 20
-7.098358453293379
 30
0.0
 11
-5.134970986763903
 21
-7.11349245405878
 31
0.0
  0
LINE
  5
F1047B
330
261
100
AcDbEntity
  8
Geo
100
AcDbLine
 10
-5.134970986763903
 20
-7.11349245405878
 30
0.0
 11
-5.034970986763909
 21
-7.128089635255879
 31
0.0
  0
LINE
  5
F1047D
330
261
100
AcDbEntity
  8
Geo
100
AcDbLine
 10
-5.034970986763909
 20
-7.128089635255879
 30
0.0
 11
-4.934970986763906
 21
-7.142148645304281
 31
0.0
  0
LINE
  5
F1047F
330
261
100
AcDbEntity
  8
Geo
100
AcDbLine
 10
-4.934970986763906
 20
-7.142148645304281
 30
0.0
 11
-4.834970986763906
 21
-7.155668182453879
 31
0.0
  0
LINE
  5
F10481
330
261
100
AcDbEntity
  8
Geo
100
AcDbLine
 10
-4.834970986763906
 20
-7.155668182453879
 30
0.0
 11
-4.734970986763903
 21
-7.168646994905279
 31
0.0
  0
LINE
  5
F10483
330
261
100
AcDbEntity
  8
Geo
100
AcDbLine
 10
-4.734970986763903
 20
-7.168646994905279
 30
0.0
 11
-4.634970986763903
 21
-7.181083880925879
 31
0.0
  0
LINE
  5
F10485
330
261
100
AcDbEntity
  8
Geo
100
AcDbLine
 10
-4.634970986763903
 20
-7.181083880925879
 30
0.0
 11
-4.534970986763909
 21
-7.192977688961079
 31
0.0
  0
LINE
  5
F10487
330
261
100
AcDbEntity
  8
Geo
100
AcDbLine
 10
-4.534970986763909
 20
-7.192977688961079
 30
0.0
 11
-4.434970986763906
 21
-7.20432731774078
 31
0.0
  0
LINE
  5
F10489
330
261
100
AcDbEntity
  8
Geo
100
AcDbLine
 10
-4.434970986763906
 20
-7.20432731774078
 30
0.0
 11
-4.334970986763906
 21
-7.215131716381679
 31
0.0
  0
LINE
  5
F1048B
330
261
100
AcDbEntity
  8
Geo
100
AcDbLine
 10
-4.334970986763906
 20
-7.215131716381679
 30
0.0
 11
-4.234970986763904
 21
-7.225389884484077
 31
0.0
  0
LINE
  5
F1048D
330
261
100
AcDbEntity
  8
Geo
100
AcDbLine
 10
-4.234970986763904
 20
-7.225389884484077
 30
0.0
 11
-4.134970986763903
 21
-7.235100872224978
 31
0.0
  0
LINE
  5
F1048F
330
261
100
AcDbEntity
  8
Geo
100
AcDbLine
 10
-4.134970986763903
 20
-7.235100872224978
 30
0.0
 11
-4.034970986763909
 21
-7.244263780445778
 31
0.0
  0
LINE
  5
F10491
330
261
100
AcDbEntity
  8
Geo
100
AcDbLine
 10
-4.034970986763909
 20
-7.244263780445778
 30
0.0
 11
-3.934970986763906
 21
-7.252877760735577
 31
0.0
  0
LINE
  5
F10493
330
261
100
AcDbEntity
  8
Geo
100
AcDbLine
 10
-3.934970986763906
 20
-7.252877760735577
 30
0.0
 11
-3.834970986763906
 21
-7.260942015509781
 31
0.0
  0
LINE
  5
F10495
330
261
100
AcDbEntity
  8
Geo
100
AcDbLine
 10
-3.834970986763906
 20
-7.260942015509781
 30
0.0
 11
-3.734970986763904
 21
-7.268455798083878
 31
0.0
  0
LINE
  5
F10497
330
261
100
AcDbEntity
  8
Geo
100
AcDbLine
 10
-3.734970986763904
 20
-7.268455798083878
 30
0.0
 11
-3.634970986763903
 21
-7.275418412742681
 31
0.0
  0
LINE
  5
F10499
330
261
100
AcDbEntity
  8
Geo
100
AcDbLine
 10
-3.634970986763903
 20
-7.275418412742681
 30
0.0
 11
-3.534970986763908
 21
-7.281829214804578
 31
0.0
  0
LINE
  5
F1049B
330
261
100
AcDbEntity
  8
Geo
100
AcDbLine
 10
-3.534970986763908
 20
-7.281829214804578
 30
0.0
 11
-3.434970986763906
 21
-7.287687610681381
 31
0.0
  0
LINE
  5
F1049D
330
261
100
AcDbEntity
  8
Geo
100
AcDbLine
 10
-3.434970986763906
 20
-7.287687610681381
 30
0.0
 11
-3.334970986763906
 21
-7.292993057933179
 31
0.0
  0
LINE
  5
F1049F
330
261
100
AcDbEntity
  8
Geo
100
AcDbLine
 10
-3.334970986763906
 20
-7.292993057933179
 30
0.0
 11
-3.234970986763904
 21
-7.297745065318681
 31
0.0
  0
LINE
  5
F104A1
330
261
100
AcDbEntity
  8
Geo
100
AcDbLine
 10
-3.234970986763904
 20
-7.297745065318681
 30
0.0
 11
-3.134970986763903
 21
-7.301943192840577
 31
0.0
  0
LINE
  5
F104A3
330
261
100
AcDbEntity
  8
Geo
100
AcDbLine
 10
-3.134970986763903
 20
-7.301943192840577
 30
0.0
 11
-3.034970986763908
 21
-7.305587051786377
 31
0.0
  0
LINE
  5
F104A5
330
261
100
AcDbEntity
  8
Geo
100
AcDbLine
 10
-3.034970986763908
 20
-7.305587051786377
 30
0.0
 11
-2.934970986763906
 21
-7.308676304764277
 31
0.0
  0
LINE
  5
F104A7
330
261
100
AcDbEntity
  8
Geo
100
AcDbLine
 10
-2.934970986763906
 20
-7.308676304764277
 30
0.0
 11
-2.834970986763906
 21
-7.311210665734679
 31
0.0
  0
LINE
  5
F104A9
330
261
100
AcDbEntity
  8
Geo
100
AcDbLine
 10
-2.834970986763906
 20
-7.311210665734679
 30
0.0
 11
-2.734970986763904
 21
-7.313189900036181
 31
0.0
  0
LINE
  5
F104AB
330
261
100
AcDbEntity
  8
Geo
100
AcDbLine
 10
-2.734970986763904
 20
-7.313189900036181
 30
0.0
 11
-2.634970986763903
 21
-7.31461382440788
 31
0.0
  0
LINE
  5
F104AD
330
261
100
AcDbEntity
  8
Geo
100
AcDbLine
 10
-2.634970986763903
 20
-7.31461382440788
 30
0.0
 11
-2.534970986763909
 21
-7.315482307005878
 31
0.0
  0
LINE
  5
F104AF
330
261
100
AcDbEntity
  8
Geo
100
AcDbLine
 10
-2.534970986763909
 20
-7.315482307005878
 30
0.0
 11
-2.434970986763906
 21
-7.315795267415778
 31
0.0
  0
LINE
  5
F104B1
330
261
100
AcDbEntity
  8
Geo
100
AcDbLine
 10
-23.23497098676391
 20
-1.31579638162508
 30
0.0
 11
-23.1349709867639
 21
-0.6747399212228801
 31
0.0
  0
LINE
  5
F104B3
330
261
100
AcDbEntity
  8
Geo
100
AcDbLine
 10
-23.1349709867639
 20
-0.6747399212228801
 30
0.0
 11
-23.03497098676391
 21
-0.4248468203349809
 31
0.0
  0
LINE
  5
F104B5
330
261
100
AcDbEntity
  8
Geo
100
AcDbLine
 10
-23.03497098676391
 20
-0.4248468203349809
 30
0.0
 11
-22.9349709867639
 21
-0.2437644039825777
 31
0.0
  0
LINE
  5
F104B7
330
261
100
AcDbEntity
  8
Geo
100
AcDbLine
 10
-22.9349709867639
 20
-0.2437644039825777
 30
0.0
 11
-22.83497098676391
 21
-0.1000309583689791
 31
0.0
  0
LINE
  5
F104B9
330
261
100
AcDbEntity
  8
Geo
100
AcDbLine
 10
-22.83497098676391
 20
-0.1000309583689791
 30
0.0
 11
-22.73497098676391
 21
0.0187618605046218
 31
0.0
  0
LINE
  5
F104BB
330
261
100
AcDbEntity
  8
Geo
100
AcDbLine
 10
-22.73497098676391
 20
0.0187618605046218
 30
0.0
 11
-22.6349709867639
 21
0.119088793322117
 31
0.0
  0
LINE
  5
F104BD
330
261
100
AcDbEntity
  8
Geo
100
AcDbLine
 10
-22.6349709867639
 20
0.119088793322117
 30
0.0
 11
-22.53497098676391
 21
0.2048625139361206
 31
0.0
  0
LINE
  5
F104BF
330
261
100
AcDbEntity
  8
Geo
100
AcDbLine
 10
-22.53497098676391
 20
0.2048625139361206
 30
0.0
 11
-22.4349709867639
 21
0.2786764757491191
 31
0.0
  0
LINE
  5
F104C1
330
261
100
AcDbEntity
  8
Geo
100
AcDbLine
 10
-22.4349709867639
 20
0.2786764757491191
 30
0.0
 11
-22.33497098676391
 21
0.3423636269815198
 31
0.0
  0
LINE
  5
F104C3
330
261
100
AcDbEntity
  8
Geo
100
AcDbLine
 10
-22.33497098676391
 20
0.3423636269815198
 30
0.0
 11
-22.23497098676391
 21
0.3972822771553197
 31
0.0
  0
LINE
  5
F104C5
330
261
100
AcDbEntity
  8
Geo
100
AcDbLine
 10
-22.23497098676391
 20
0.3972822771553197
 30
0.0
 11
-22.13497098676389
 21
0.4444764763540193
 31
0.0
  0
LINE
  5
F104C7
330
261
100
AcDbEntity
  8
Geo
100
AcDbLine
 10
-22.13497098676389
 20
0.4444764763540193
 30
0.0
 11
-22.03497098676391
 21
0.4847724522283201
 31
0.0
  0
LINE
  5
F104C9
330
261
100
AcDbEntity
  8
Geo
100
AcDbLine
 10
-22.03497098676391
 20
0.4847724522283201
 30
0.0
 11
-21.9349709867639
 21
0.5188398300036213
 31
0.0
  0
LINE
  5
F104CB
330
261
100
AcDbEntity
  8
Geo
100
AcDbLine
 10
-21.9349709867639
 20
0.5188398300036213
 30
0.0
 11
-21.83497098676391
 21
0.5472322307718223
 31
0.0
  0
LINE
  5
F104CD
330
261
100
AcDbEntity
  8
Geo
100
AcDbLine
 10
-21.83497098676391
 20
0.5472322307718223
 30
0.0
 11
-21.73497098676391
 21
0.5704151801010227
 31
0.0
  0
LINE
  5
F104CF
330
261
100
AcDbEntity
  8
Geo
100
AcDbLine
 10
-21.73497098676391
 20
0.5704151801010227
 30
0.0
 11
-21.63497098676391
 21
0.5887858805195167
 31
0.0
  0
LINE
  5
F104D1
330
261
100
AcDbEntity
  8
Geo
100
AcDbLine
 10
-21.63497098676391
 20
0.5887858805195167
 30
0.0
 11
-21.53497098676391
 21
0.6026875837761203
 31
0.0
  0
LINE
  5
F104D3
330
261
100
AcDbEntity
  8
Geo
100
AcDbLine
 10
-21.53497098676391
 20
0.6026875837761203
 30
0.0
 11
-21.4349709867639
 21
0.6124202712402216
 31
0.0
  0
LINE
  5
F104D5
330
261
100
AcDbEntity
  8
Geo
100
AcDbLine
 10
-21.4349709867639
 20
0.6124202712402216
 30
0.0
 11
-21.33497098676391
 21
0.6182487450122203
 31
0.0
  0
LINE
  5
F104D7
330
261
100
AcDbEntity
  8
Geo
100
AcDbLine
 10
-21.33497098676391
 20
0.6182487450122203
 30
0.0
 11
-21.23497098676391
 21
0.6204088620218223
 31
0.0
  0
LINE
  5
F104D9
330
261
100
AcDbEntity
  8
Geo
100
AcDbLine
 10
-21.23497098676391
 20
0.6204088620218223
 30
0.0
 11
-21.1349709867639
 21
0.6191124098224208
 31
0.0
  0
LINE
  5
F104DB
330
261
100
AcDbEntity
  8
Geo
100
AcDbLine
 10
-21.1349709867639
 20
0.6191124098224208
 30
0.0
 11
-21.03497098676391
 21
0.6145509713455191
 31
0.0
  0
LINE
  5
F104DD
330
261
100
AcDbEntity
  8
Geo
100
AcDbLine
 10
-21.03497098676391
 20
0.6145509713455191
 30
0.0
 11
-20.9349709867639
 21
0.6068990252412192
 31
0.0
  0
LINE
  5
F104DF
330
261
100
AcDbEntity
  8
Geo
100
AcDbLine
 10
-20.9349709867639
 20
0.6068990252412192
 30
0.0
 11
-20.8349709867639
 21
0.5963164600932203
 31
0.0
  0
LINE
  5
F104E1
330
261
100
AcDbEntity
  8
Geo
100
AcDbLine
 10
-20.8349709867639
 20
0.5963164600932203
 30
0.0
 11
-20.73497098676391
 21
0.5829506334641188
 31
0.0
  0
LINE
  5
F104E3
330
261
100
AcDbEntity
  8
Geo
100
AcDbLine
 10
-20.73497098676391
 20
0.5829506334641188
 30
0.0
 11
-20.6349709867639
 21
0.5669380733639216
 31
0.0
  0
LINE
  5
F104E5
330
261
100
AcDbEntity
  8
Geo
100
AcDbLine
 10
-20.6349709867639
 20
0.5669380733639216
 30
0.0
 11
-20.53497098676391
 21
0.5484058958359235
 31
0.0
  0
LINE
  5
F104E7
330
261
100
AcDbEntity
  8
Geo
100
AcDbLine
 10
-20.53497098676391
 20
0.5484058958359235
 30
0.0
 11
-20.4349709867639
 21
0.5274729949830183
 31
0.0
  0
LINE
  5
F104E9
330
261
100
AcDbEntity
  8
Geo
100
AcDbLine
 10
-20.4349709867639
 20
0.5274729949830183
 30
0.0
 11
-20.33497098676391
 21
0.5042510489569203
 31
0.0
  0
LINE
  5
F104EB
330
261
100
AcDbEntity
  8
Geo
100
AcDbLine
 10
-20.33497098676391
 20
0.5042510489569203
 30
0.0
 11
-20.23497098676391
 21
0.4788453758934211
 31
0.0
  0
LINE
  5
F104ED
330
261
100
AcDbEntity
  8
Geo
100
AcDbLine
 10
-20.23497098676391
 20
0.4788453758934211
 30
0.0
 11
-20.1349709867639
 21
0.4513556665697216
 31
0.0
  0
LINE
  5
F104EF
330
261
100
AcDbEntity
  8
Geo
100
AcDbLine
 10
-20.1349709867639
 20
0.4513556665697216
 30
0.0
 11
-20.03497098676391
 21
0.4218766150777215
 31
0.0
  0
LINE
  5
F104F1
330
261
100
AcDbEntity
  8
Geo
100
AcDbLine
 10
-20.03497098676391
 20
0.4218766150777215
 30
0.0
 11
-19.9349709867639
 21
0.3904984645780161
 31
0.0
  0
LINE
  5
F104F3
330
261
100
AcDbEntity
  8
Geo
100
AcDbLine
 10
-19.9349709867639
 20
0.3904984645780161
 30
0.0
 11
-19.8349709867639
 21
0.357307481918518
 31
0.0
  0
LINE
  5
F104F5
330
261
100
AcDbEntity
  8
Geo
100
AcDbLine
 10
-19.8349709867639
 20
0.357307481918518
 30
0.0
 11
-19.73497098676391
 21
0.3223863723294187
 31
0.0
  0
LINE
  5
F104F7
330
261
100
AcDbEntity
  8
Geo
100
AcDbLine
 10
-19.73497098676391
 20
0.3223863723294187
 30
0.0
 11
-19.6349709867639
 21
0.2858146433783197
 31
0.0
  0
LINE
  5
F104F9
330
261
100
AcDbEntity
  8
Geo
100
AcDbLine
 10
-19.6349709867639
 20
0.2858146433783197
 30
0.0
 11
-19.53497098676391
 21
0.2476689257526203
 31
0.0
  0
LINE
  5
F104FB
330
261
100
AcDbEntity
  8
Geo
100
AcDbLine
 10
-19.53497098676391
 20
0.2476689257526203
 30
0.0
 11
-19.4349709867639
 21
0.2080232571419209
 31
0.0
  0
LINE
  5
F104FD
330
261
100
AcDbEntity
  8
Geo
100
AcDbLine
 10
-19.4349709867639
 20
0.2080232571419209
 30
0.0
 11
-19.3349709867639
 21
0.1669493344529229
 31
0.0
  0
LINE
  5
F104FF
330
261
100
AcDbEntity
  8
Geo
100
AcDbLine
 10
-19.3349709867639
 20
0.1669493344529229
 30
0.0
 11
-19.23497098676391
 21
0.1245167387415194
 31
0.0
  0
LINE
  5
F10501
330
261
100
AcDbEntity
  8
Geo
100
AcDbLine
 10
-19.23497098676391
 20
0.1245167387415194
 30
0.0
 11
-19.1349709867639
 21
0.0807931365575208
 31
0.0
  0
LINE
  5
F10503
330
261
100
AcDbEntity
  8
Geo
100
AcDbLine
 10
-19.1349709867639
 20
0.0807931365575208
 30
0.0
 11
-19.03497098676391
 21
0.0358444608308197
 31
0.0
  0
LINE
  5
F10505
330
261
100
AcDbEntity
  8
Geo
100
AcDbLine
 10
-19.03497098676391
 20
0.0358444608308197
 30
0.0
 11
-18.9349709867639
 21
-0.0102649260364842
 31
0.0
  0
LINE
  5
F10507
330
261
100
AcDbEntity
  8
Geo
100
AcDbLine
 10
-18.9349709867639
 20
-0.0102649260364842
 30
0.0
 11
-18.8349709867639
 21
-0.057472084597979
 31
0.0
  0
LINE
  5
F10509
330
261
100
AcDbEntity
  8
Geo
100
AcDbLine
 10
-18.8349709867639
 20
-0.057472084597979
 30
0.0
 11
-18.73497098676391
 21
-0.1057153643520792
 31
0.0
  0
LINE
  5
F1050B
330
261
100
AcDbEntity
  8
Geo
100
AcDbLine
 10
-18.73497098676391
 20
-0.1057153643520792
 30
0.0
 11
-18.6349709867639
 21
-0.1549342816083801
 31
0.0
  0
LINE
  5
F1050D
330
261
100
AcDbEntity
  8
Geo
100
AcDbLine
 10
-18.6349709867639
 20
-0.1549342816083801
 30
0.0
 11
-18.53497098676391
 21
-0.2050694077662776
 31
0.0
  0
LINE
  5
F1050F
330
261
100
AcDbEntity
  8
Geo
100
AcDbLine
 10
-18.53497098676391
 20
-0.2050694077662776
 30
0.0
 11
-18.4349709867639
 21
-0.2560622667336823
 31
0.0
  0
LINE
  5
F10511
330
261
100
AcDbEntity
  8
Geo
100
AcDbLine
 10
-18.4349709867639
 20
-0.2560622667336823
 30
0.0
 11
-18.3349709867639
 21
-0.3078552403720813
 31
0.0
  0
LINE
  5
F10513
330
261
100
AcDbEntity
  8
Geo
100
AcDbLine
 10
-18.3349709867639
 20
-0.3078552403720813
 30
0.0
 11
-18.23497098676391
 21
-0.3603914809869799
 31
0.0
  0
LINE
  5
F10515
330
261
100
AcDbEntity
  8
Geo
100
AcDbLine
 10
-18.23497098676391
 20
-0.3603914809869799
 30
0.0
 11
-18.1349709867639
 21
-0.4136148300006825
 31
0.0
  0
LINE
  5
F10517
330
261
100
AcDbEntity
  8
Geo
100
AcDbLine
 10
-18.1349709867639
 20
-0.4136148300006825
 30
0.0
 11
-18.03497098676391
 21
-0.4674697420352773
 31
0.0
  0
LINE
  5
F10519
330
261
100
AcDbEntity
  8
Geo
100
AcDbLine
 10
-18.03497098676391
 20
-0.4674697420352773
 30
0.0
 11
-17.9349709867639
 21
-0.5219012137230799
 31
0.0
  0
LINE
  5
F1051B
330
261
100
AcDbEntity
  8
Geo
100
AcDbLine
 10
-17.9349709867639
 20
-0.5219012137230799
 30
0.0
 11
-17.8349709867639
 21
-0.5768547166231813
 31
0.0
  0
LINE
  5
F1051D
330
261
100
AcDbEntity
  8
Geo
100
AcDbLine
 10
-17.8349709867639
 20
-0.5768547166231813
 30
0.0
 11
-17.73497098676391
 21
-0.6322761336871814
 31
0.0
  0
LINE
  5
F1051F
330
261
100
AcDbEntity
  8
Geo
100
AcDbLine
 10
-17.73497098676391
 20
-0.6322761336871814
 30
0.0
 11
-17.6349709867639
 21
-0.6881116987647788
 31
0.0
  0
LINE
  5
F10521
330
261
100
AcDbEntity
  8
Geo
100
AcDbLine
 10
-17.6349709867639
 20
-0.6881116987647788
 30
0.0
 11
-17.53497098676391
 21
-0.7443079386788796
 31
0.0
  0
LINE
  5
F10523
330
261
100
AcDbEntity
  8
Geo
100
AcDbLine
 10
-17.53497098676391
 20
-0.7443079386788796
 30
0.0
 11
-17.4349709867639
 21
-0.8008116174380788
 31
0.0
  0
LINE
  5
F10525
330
261
100
AcDbEntity
  8
Geo
100
AcDbLine
 10
-17.4349709867639
 20
-0.8008116174380788
 30
0.0
 11
-17.3349709867639
 21
-0.8575696821788801
 31
0.0
  0
LINE
  5
F10527
330
261
100
AcDbEntity
  8
Geo
100
AcDbLine
 10
-17.3349709867639
 20
-0.8575696821788801
 30
0.0
 11
-17.23497098676391
 21
-0.9145292104528801
 31
0.0
  0
LINE
  5
F10529
330
261
100
AcDbEntity
  8
Geo
100
AcDbLine
 10
-17.23497098676391
 20
-0.9145292104528801
 30
0.0
 11
-17.1349709867639
 21
-0.9715895486669834
 31
0.0
  0
LINE
  5
F1052B
330
261
100
AcDbEntity
  8
Geo
100
AcDbLine
 10
-17.1349709867639
 20
-0.9715895486669834
 30
0.0
 11
-17.03497098676391
 21
-1.028681757638177
 31
0.0
  0
LINE
  5
F1052D
330
261
100
AcDbEntity
  8
Geo
100
AcDbLine
 10
-17.03497098676391
 20
-1.028681757638177
 30
0.0
 11
-16.9349709867639
 21
-1.085800551091778
 31
0.0
  0
LINE
  5
F1052F
330
261
100
AcDbEntity
  8
Geo
100
AcDbLine
 10
-16.9349709867639
 20
-1.085800551091778
 30
0.0
 11
-16.8349709867639
 21
-1.142940640291179
 31
0.0
  0
LINE
  5
F10531
330
261
100
AcDbEntity
  8
Geo
100
AcDbLine
 10
-16.8349709867639
 20
-1.142940640291179
 30
0.0
 11
-16.73497098676391
 21
-1.20009673452828
 31
0.0
  0
LINE
  5
F10533
330
261
100
AcDbEntity
  8
Geo
100
AcDbLine
 10
-16.73497098676391
 20
-1.20009673452828
 30
0.0
 11
-16.6349709867639
 21
-1.257263541613081
 31
0.0
  0
LINE
  5
F10535
330
261
100
AcDbEntity
  8
Geo
100
AcDbLine
 10
-16.6349709867639
 20
-1.257263541613081
 30
0.0
 11
-16.53497098676391
 21
-1.314435768363479
 31
0.0
  0
LINE
  5
F10537
330
261
100
AcDbEntity
  8
Geo
100
AcDbLine
 10
-16.53497098676391
 20
-1.314435768363479
 30
0.0
 11
-16.4349709867639
 21
-1.371608121095575
 31
0.0
  0
LINE
  5
F10539
330
261
100
AcDbEntity
  8
Geo
100
AcDbLine
 10
-16.4349709867639
 20
-1.371608121095575
 30
0.0
 11
-16.3349709867639
 21
-1.428775306113877
 31
0.0
  0
LINE
  5
F1053B
330
261
100
AcDbEntity
  8
Geo
100
AcDbLine
 10
-16.3349709867639
 20
-1.428775306113877
 30
0.0
 11
-16.23497098676391
 21
-1.485932030201481
 31
0.0
  0
LINE
  5
F1053D
330
261
100
AcDbEntity
  8
Geo
100
AcDbLine
 10
-16.23497098676391
 20
-1.485932030201481
 30
0.0
 11
-16.1349709867639
 21
-1.543073001109679
 31
0.0
  0
LINE
  5
F1053F
330
261
100
AcDbEntity
  8
Geo
100
AcDbLine
 10
-16.1349709867639
 20
-1.543073001109679
 30
0.0
 11
-16.03497098676391
 21
-1.600192928048983
 31
0.0
  0
LINE
  5
F10541
330
261
100
AcDbEntity
  8
Geo
100
AcDbLine
 10
-16.03497098676391
 20
-1.600192928048983
 30
0.0
 11
-15.9349709867639
 21
-1.657286522177777
 31
0.0
  0
LINE
  5
F10543
330
261
100
AcDbEntity
  8
Geo
100
AcDbLine
 10
-15.9349709867639
 20
-1.657286522177777
 30
0.0
 11
-15.8349709867639
 21
-1.714348497093179
 31
0.0
  0
LINE
  5
F10545
330
261
100
AcDbEntity
  8
Geo
100
AcDbLine
 10
-15.8349709867639
 20
-1.714348497093179
 30
0.0
 11
-15.73497098676391
 21
-1.771373569319577
 31
0.0
  0
LINE
  5
F10547
330
261
100
AcDbEntity
  8
Geo
100
AcDbLine
 10
-15.73497098676391
 20
-1.771373569319577
 30
0.0
 11
-15.6349709867639
 21
-1.82835645879868
 31
0.0
  0
LINE
  5
F10549
330
261
100
AcDbEntity
  8
Geo
100
AcDbLine
 10
-15.6349709867639
 20
-1.82835645879868
 30
0.0
 11
-15.53497098676391
 21
-1.885291889377479
 31
0.0
  0
LINE
  5
F1054B
330
261
100
AcDbEntity
  8
Geo
100
AcDbLine
 10
-15.53497098676391
 20
-1.885291889377479
 30
0.0
 11
-15.4349709867639
 21
-1.942174589297579
 31
0.0
  0
LINE
  5
F1054D
330
261
100
AcDbEntity
  8
Geo
100
AcDbLine
 10
-15.4349709867639
 20
-1.942174589297579
 30
0.0
 11
-15.3349709867639
 21
-1.99899929168308
 31
0.0
  0
LINE
  5
F1054F
330
261
100
AcDbEntity
  8
Geo
100
AcDbLine
 10
-15.3349709867639
 20
-1.99899929168308
 30
0.0
 11
-15.23497098676391
 21
-2.055760735027881
 31
0.0
  0
LINE
  5
F10551
330
261
100
AcDbEntity
  8
Geo
100
AcDbLine
 10
-15.23497098676391
 20
-2.055760735027881
 30
0.0
 11
-15.1349709867639
 21
-2.112453663683576
 31
0.0
  0
LINE
  5
F10553
330
261
100
AcDbEntity
  8
Geo
100
AcDbLine
 10
-15.1349709867639
 20
-2.112453663683576
 30
0.0
 11
-15.03497098676391
 21
-2.169072828345182
 31
0.0
  0
LINE
  5
F10555
330
261
100
AcDbEntity
  8
Geo
100
AcDbLine
 10
-15.03497098676391
 20
-2.169072828345182
 30
0.0
 11
-14.9349709867639
 21
-2.225612986538076
 31
0.0
  0
LINE
  5
F10557
330
261
100
AcDbEntity
  8
Geo
100
AcDbLine
 10
-14.9349709867639
 20
-2.225612986538076
 30
0.0
 11
-14.8349709867639
 21
-2.282068903102679
 31
0.0
  0
LINE
  5
F10559
330
261
100
AcDbEntity
  8
Geo
100
AcDbLine
 10
-14.8349709867639
 20
-2.282068903102679
 30
0.0
 11
-14.73497098676391
 21
-2.338435350679776
 31
0.0
  0
LINE
  5
F1055B
330
261
100
AcDbEntity
  8
Geo
100
AcDbLine
 10
-14.73497098676391
 20
-2.338435350679776
 30
0.0
 11
-14.6349709867639
 21
-2.39470711019408
 31
0.0
  0
LINE
  5
F1055D
330
261
100
AcDbEntity
  8
Geo
100
AcDbLine
 10
-14.6349709867639
 20
-2.39470711019408
 30
0.0
 11
-14.53497098676391
 21
-2.45087897133758
 31
0.0
  0
LINE
  5
F1055F
330
261
100
AcDbEntity
  8
Geo
100
AcDbLine
 10
-14.53497098676391
 20
-2.45087897133758
 30
0.0
 11
-14.4349709867639
 21
-2.506945733052378
 31
0.0
  0
LINE
  5
F10561
330
261
100
AcDbEntity
  8
Geo
100
AcDbLine
 10
-14.4349709867639
 20
-2.506945733052378
 30
0.0
 11
-14.3349709867639
 21
-2.562902204011482
 31
0.0
  0
LINE
  5
F10563
330
261
100
AcDbEntity
  8
Geo
100
AcDbLine
 10
-14.3349709867639
 20
-2.562902204011482
 30
0.0
 11
-14.23497098676391
 21
-2.618743203100275
 31
0.0
  0
LINE
  5
F10565
330
261
100
AcDbEntity
  8
Geo
100
AcDbLine
 10
-14.23497098676391
 20
-2.618743203100275
 30
0.0
 11
-14.1349709867639
 21
-2.674463559895779
 31
0.0
  0
LINE
  5
F10567
330
261
100
AcDbEntity
  8
Geo
100
AcDbLine
 10
-14.1349709867639
 20
-2.674463559895779
 30
0.0
 11
-14.03497098676391
 21
-2.730058115145378
 31
0.0
  0
LINE
  5
F10569
330
261
100
AcDbEntity
  8
Geo
100
AcDbLine
 10
-14.03497098676391
 20
-2.730058115145378
 30
0.0
 11
-13.9349709867639
 21
-2.785521721244978
 31
0.0
  0
LINE
  5
F1056B
330
261
100
AcDbEntity
  8
Geo
100
AcDbLine
 10
-13.9349709867639
 20
-2.785521721244978
 30
0.0
 11
-13.83497098676391
 21
-2.84084924271498
 31
0.0
  0
LINE
  5
F1056D
330
261
100
AcDbEntity
  8
Geo
100
AcDbLine
 10
-13.83497098676391
 20
-2.84084924271498
 30
0.0
 11
-13.73497098676391
 21
-2.896035556676276
 31
0.0
  0
LINE
  5
F1056F
330
261
100
AcDbEntity
  8
Geo
100
AcDbLine
 10
-13.73497098676391
 20
-2.896035556676276
 30
0.0
 11
-13.6349709867639
 21
-2.951075553324481
 31
0.0
  0
LINE
  5
F10571
330
261
100
AcDbEntity
  8
Geo
100
AcDbLine
 10
-13.6349709867639
 20
-2.951075553324481
 30
0.0
 11
-13.53497098676391
 21
-3.005964136402879
 31
0.0
  0
LINE
  5
F10573
330
261
100
AcDbEntity
  8
Geo
100
AcDbLine
 10
-13.53497098676391
 20
-3.005964136402879
 30
0.0
 11
-13.4349709867639
 21
-3.060696223674478
 31
0.0
  0
LINE
  5
F10575
330
261
100
AcDbEntity
  8
Geo
100
AcDbLine
 10
-13.4349709867639
 20
-3.060696223674478
 30
0.0
 11
-13.3349709867639
 21
-3.115266747392482
 31
0.0
  0
LINE
  5
F10577
330
261
100
AcDbEntity
  8
Geo
100
AcDbLine
 10
-13.3349709867639
 20
-3.115266747392482
 30
0.0
 11
-13.23497098676391
 21
-3.169670654769678
 31
0.0
  0
LINE
  5
F10579
330
261
100
AcDbEntity
  8
Geo
100
AcDbLine
 10
-13.23497098676391
 20
-3.169670654769678
 30
0.0
 11
-13.1349709867639
 21
-3.223902908446078
 31
0.0
  0
LINE
  5
F1057B
330
261
100
AcDbEntity
  8
Geo
100
AcDbLine
 10
-13.1349709867639
 20
-3.223902908446078
 30
0.0
 11
-13.03497098676391
 21
-3.277958486955482
 31
0.0
  0
LINE
  5
F1057D
330
261
100
AcDbEntity
  8
Geo
100
AcDbLine
 10
-13.03497098676391
 20
-3.277958486955482
 30
0.0
 11
-12.9349709867639
 21
-3.331832385190278
 31
0.0
  0
LINE
  5
F1057F
330
261
100
AcDbEntity
  8
Geo
100
AcDbLine
 10
-12.9349709867639
 20
-3.331832385190278
 30
0.0
 11
-12.8349709867639
 21
-3.385519614865181
 31
0.0
  0
LINE
  5
F10581
330
261
100
AcDbEntity
  8
Geo
100
AcDbLine
 10
-12.8349709867639
 20
-3.385519614865181
 30
0.0
 11
-12.73497098676391
 21
-3.439015204978581
 31
0.0
  0
LINE
  5
F10583
330
261
100
AcDbEntity
  8
Geo
100
AcDbLine
 10
-12.73497098676391
 20
-3.439015204978581
 30
0.0
 11
-12.6349709867639
 21
-3.492314202273479
 31
0.0
  0
LINE
  5
F10585
330
261
100
AcDbEntity
  8
Geo
100
AcDbLine
 10
-12.6349709867639
 20
-3.492314202273479
 30
0.0
 11
-12.53497098676391
 21
-3.545411671695481
 31
0.0
  0
LINE
  5
F10587
330
261
100
AcDbEntity
  8
Geo
100
AcDbLine
 10
-12.53497098676391
 20
-3.545411671695481
 30
0.0
 11
-12.4349709867639
 21
-3.598302696850279
 31
0.0
  0
LINE
  5
F10589
330
261
100
AcDbEntity
  8
Geo
100
AcDbLine
 10
-12.4349709867639
 20
-3.598302696850279
 30
0.0
 11
-12.3349709867639
 21
-3.650982380458478
 31
0.0
  0
LINE
  5
F1058B
330
261
100
AcDbEntity
  8
Geo
100
AcDbLine
 10
-12.3349709867639
 20
-3.650982380458478
 30
0.0
 11
-12.23497098676391
 21
-3.703445844809181
 31
0.0
  0
LINE
  5
F1058D
330
261
100
AcDbEntity
  8
Geo
100
AcDbLine
 10
-12.23497098676391
 20
-3.703445844809181
 30
0.0
 11
-12.1349709867639
 21
-3.755688232211777
 31
0.0
  0
LINE
  5
F1058F
330
261
100
AcDbEntity
  8
Geo
100
AcDbLine
 10
-12.1349709867639
 20
-3.755688232211777
 30
0.0
 11
-12.03497098676391
 21
-3.807704705445479
 31
0.0
  0
LINE
  5
F10591
330
261
100
AcDbEntity
  8
Geo
100
AcDbLine
 10
-12.03497098676391
 20
-3.807704705445479
 30
0.0
 11
-11.9349709867639
 21
-3.859490448207278
 31
0.0
  0
LINE
  5
F10593
330
261
100
AcDbEntity
  8
Geo
100
AcDbLine
 10
-11.9349709867639
 20
-3.859490448207278
 30
0.0
 11
-11.8349709867639
 21
-3.91104066555798
 31
0.0
  0
LINE
  5
F10595
330
261
100
AcDbEntity
  8
Geo
100
AcDbLine
 10
-11.8349709867639
 20
-3.91104066555798
 30
0.0
 11
-11.73497098676391
 21
-3.962350584366181
 31
0.0
  0
LINE
  5
F10597
330
261
100
AcDbEntity
  8
Geo
100
AcDbLine
 10
-11.73497098676391
 20
-3.962350584366181
 30
0.0
 11
-11.6349709867639
 21
-4.013415453750179
 31
0.0
  0
LINE
  5
F10599
330
261
100
AcDbEntity
  8
Geo
100
AcDbLine
 10
-11.6349709867639
 20
-4.013415453750179
 30
0.0
 11
-11.53497098676391
 21
-4.064230545517779
 31
0.0
  0
LINE
  5
F1059B
330
261
100
AcDbEntity
  8
Geo
100
AcDbLine
 10
-11.53497098676391
 20
-4.064230545517779
 30
0.0
 11
-11.4349709867639
 21
-4.11479115460418
 31
0.0
  0
LINE
  5
F1059D
330
261
100
AcDbEntity
  8
Geo
100
AcDbLine
 10
-11.4349709867639
 20
-4.11479115460418
 30
0.0
 11
-11.3349709867639
 21
-4.165092599507679
 31
0.0
  0
LINE
  5
F1059F
330
261
100
AcDbEntity
  8
Geo
100
AcDbLine
 10
-11.3349709867639
 20
-4.165092599507679
 30
0.0
 11
-11.23497098676391
 21
-4.215130222722879
 31
0.0
  0
LINE
  5
F105A1
330
261
100
AcDbEntity
  8
Geo
100
AcDbLine
 10
-11.23497098676391
 20
-4.215130222722879
 30
0.0
 11
-11.1349709867639
 21
-4.264899391172381
 31
0.0
  0
LINE
  5
F105A3
330
261
100
AcDbEntity
  8
Geo
100
AcDbLine
 10
-11.1349709867639
 20
-4.264899391172381
 30
0.0
 11
-11.03497098676391
 21
-4.314395496635376
 31
0.0
  0
LINE
  5
F105A5
330
261
100
AcDbEntity
  8
Geo
100
AcDbLine
 10
-11.03497098676391
 20
-4.314395496635376
 30
0.0
 11
-10.9349709867639
 21
-4.363613956174577
 31
0.0
  0
LINE
  5
F105A7
330
261
100
AcDbEntity
  8
Geo
100
AcDbLine
 10
-10.9349709867639
 20
-4.363613956174577
 30
0.0
 11
-10.8349709867639
 21
-4.41255021256028
 31
0.0
  0
LINE
  5
F105A9
330
261
100
AcDbEntity
  8
Geo
100
AcDbLine
 10
-10.8349709867639
 20
-4.41255021256028
 30
0.0
 11
-10.73497098676391
 21
-4.461199734692581
 31
0.0
  0
LINE
  5
F105AB
330
261
100
AcDbEntity
  8
Geo
100
AcDbLine
 10
-10.73497098676391
 20
-4.461199734692581
 30
0.0
 11
-10.6349709867639
 21
-4.509558018020879
 31
0.0
  0
LINE
  5
F105AD
330
261
100
AcDbEntity
  8
Geo
100
AcDbLine
 10
-10.6349709867639
 20
-4.509558018020879
 30
0.0
 11
-10.53497098676391
 21
-4.557620584960978
 31
0.0
  0
LINE
  5
F105AF
330
261
100
AcDbEntity
  8
Geo
100
AcDbLine
 10
-10.53497098676391
 20
-4.557620584960978
 30
0.0
 11
-10.4349709867639
 21
-4.605382985309379
 31
0.0
  0
LINE
  5
F105B1
330
261
100
AcDbEntity
  8
Geo
100
AcDbLine
 10
-10.4349709867639
 20
-4.605382985309379
 30
0.0
 11
-10.3349709867639
 21
-4.652840796655879
 31
0.0
  0
LINE
  5
F105B3
330
261
100
AcDbEntity
  8
Geo
100
AcDbLine
 10
-10.3349709867639
 20
-4.652840796655879
 30
0.0
 11
-10.23497098676391
 21
-4.699989624792578
 31
0.0
  0
LINE
  5
F105B5
330
261
100
AcDbEntity
  8
Geo
100
AcDbLine
 10
-10.23497098676391
 20
-4.699989624792578
 30
0.0
 11
-10.1349709867639
 21
-4.74682510412088
 31
0.0
  0
LINE
  5
F105B7
330
261
100
AcDbEntity
  8
Geo
100
AcDbLine
 10
-10.1349709867639
 20
-4.74682510412088
 30
0.0
 11
-10.03497098676391
 21
-4.793342898055679
 31
0.0
  0
LINE
  5
F105B9
330
261
100
AcDbEntity
  8
Geo
100
AcDbLine
 10
-10.03497098676391
 20
-4.793342898055679
 30
0.0
 11
-9.9349709867639
 21
-4.839538699427277
 31
0.0
  0
LINE
  5
F105BB
330
261
100
AcDbEntity
  8
Geo
100
AcDbLine
 10
-9.9349709867639
 20
-4.839538699427277
 30
0.0
 11
-9.834970986763906
 21
-4.885408230879575
 31
0.0
  0
LINE
  5
F105BD
330
261
100
AcDbEntity
  8
Geo
100
AcDbLine
 10
-9.834970986763906
 20
-4.885408230879575
 30
0.0
 11
-9.734970986763912
 21
-4.93094724526648
 31
0.0
  0
LINE
  5
F105BF
330
261
100
AcDbEntity
  8
Geo
100
AcDbLine
 10
-9.734970986763912
 20
-4.93094724526648
 30
0.0
 11
-9.634970986763903
 21
-4.976151526045181
 31
0.0
  0
LINE
  5
F105C1
330
261
100
AcDbEntity
  8
Geo
100
AcDbLine
 10
-9.634970986763903
 20
-4.976151526045181
 30
0.0
 11
-9.534970986763907
 21
-5.021016887666281
 31
0.0
  0
LINE
  5
F105C3
330
261
100
AcDbEntity
  8
Geo
100
AcDbLine
 10
-9.534970986763907
 20
-5.021016887666281
 30
0.0
 11
-9.4349709867639
 21
-5.065539175961879
 31
0.0
  0
LINE
  5
F105C5
330
261
100
AcDbEntity
  8
Geo
100
AcDbLine
 10
-9.4349709867639
 20
-5.065539175961879
 30
0.0
 11
-9.334970986763906
 21
-5.109714268529478
 31
0.0
  0
LINE
  5
F105C7
330
261
100
AcDbEntity
  8
Geo
100
AcDbLine
 10
-9.334970986763906
 20
-5.109714268529478
 30
0.0
 11
-9.234970986763912
 21
-5.153538075114478
 31
0.0
  0
LINE
  5
F105C9
330
261
100
AcDbEntity
  8
Geo
100
AcDbLine
 10
-9.234970986763912
 20
-5.153538075114478
 30
0.0
 11
-9.134970986763903
 21
-5.197006537988277
 31
0.0
  0
LINE
  5
F105CB
330
261
100
AcDbEntity
  8
Geo
100
AcDbLine
 10
-9.134970986763903
 20
-5.197006537988277
 30
0.0
 11
-9.034970986763907
 21
-5.240115632324079
 31
0.0
  0
LINE
  5
F105CD
330
261
100
AcDbEntity
  8
Geo
100
AcDbLine
 10
-9.034970986763907
 20
-5.240115632324079
 30
0.0
 11
-8.9349709867639
 21
-5.282861366570179
 31
0.0
  0
LINE
  5
F105CF
330
261
100
AcDbEntity
  8
Geo
100
AcDbLine
 10
-8.9349709867639
 20
-5.282861366570179
 30
0.0
 11
-8.834970986763906
 21
-5.325239782818478
 31
0.0
  0
LINE
  5
F105D1
330
261
100
AcDbEntity
  8
Geo
100
AcDbLine
 10
-8.834970986763906
 20
-5.325239782818478
 30
0.0
 11
-8.734970986763912
 21
-5.367246957171978
 31
0.0
  0
LINE
  5
F105D3
330
261
100
AcDbEntity
  8
Geo
100
AcDbLine
 10
-8.734970986763912
 20
-5.367246957171978
 30
0.0
 11
-8.634970986763903
 21
-5.408879000107479
 31
0.0
  0
LINE
  5
F105D5
330
261
100
AcDbEntity
  8
Geo
100
AcDbLine
 10
-8.634970986763903
 20
-5.408879000107479
 30
0.0
 11
-8.534970986763909
 21
-5.450132056835977
 31
0.0
  0
LINE
  5
F105D7
330
261
100
AcDbEntity
  8
Geo
100
AcDbLine
 10
-8.534970986763909
 20
-5.450132056835977
 30
0.0
 11
-8.4349709867639
 21
-5.49100230765938
 31
0.0
  0
LINE
  5
F105D9
330
261
100
AcDbEntity
  8
Geo
100
AcDbLine
 10
-8.4349709867639
 20
-5.49100230765938
 30
0.0
 11
-8.334970986763906
 21
-5.531485968324377
 31
0.0
  0
LINE
  5
F105DB
330
261
100
AcDbEntity
  8
Geo
100
AcDbLine
 10
-8.334970986763906
 20
-5.531485968324377
 30
0.0
 11
-8.234970986763912
 21
-5.571579290372978
 31
0.0
  0
LINE
  5
F105DD
330
261
100
AcDbEntity
  8
Geo
100
AcDbLine
 10
-8.234970986763912
 20
-5.571579290372978
 30
0.0
 11
-8.134970986763903
 21
-5.61127856148898
 31
0.0
  0
LINE
  5
F105DF
330
261
100
AcDbEntity
  8
Geo
100
AcDbLine
 10
-8.134970986763903
 20
-5.61127856148898
 30
0.0
 11
-8.034970986763909
 21
-5.650580105842478
 31
0.0
  0
LINE
  5
F105E1
330
261
100
AcDbEntity
  8
Geo
100
AcDbLine
 10
-8.034970986763909
 20
-5.650580105842478
 30
0.0
 11
-7.9349709867639
 21
-5.689480284429577
 31
0.0
  0
LINE
  5
F105E3
330
261
100
AcDbEntity
  8
Geo
100
AcDbLine
 10
-7.9349709867639
 20
-5.689480284429577
 30
0.0
 11
-7.834970986763906
 21
-5.727975495409679
 31
0.0
  0
LINE
  5
F105E5
330
261
100
AcDbEntity
  8
Geo
100
AcDbLine
 10
-7.834970986763906
 20
-5.727975495409679
 30
0.0
 11
-7.734970986763912
 21
-5.766062174438976
 31
0.0
  0
LINE
  5
F105E7
330
261
100
AcDbEntity
  8
Geo
100
AcDbLine
 10
-7.734970986763912
 20
-5.766062174438976
 30
0.0
 11
-7.634970986763902
 21
-5.80373679500018
 31
0.0
  0
LINE
  5
F105E9
330
261
100
AcDbEntity
  8
Geo
100
AcDbLine
 10
-7.634970986763902
 20
-5.80373679500018
 30
0.0
 11
-7.534970986763909
 21
-5.840995868729576
 31
0.0
  0
LINE
  5
F105EB
330
261
100
AcDbEntity
  8
Geo
100
AcDbLine
 10
-7.534970986763909
 20
-5.840995868729576
 30
0.0
 11
-7.4349709867639
 21
-5.877835945739381
 31
0.0
  0
LINE
  5
F105ED
330
261
100
AcDbEntity
  8
Geo
100
AcDbLine
 10
-7.4349709867639
 20
-5.877835945739381
 30
0.0
 11
-7.334970986763906
 21
-5.914253614937877
 31
0.0
  0
LINE
  5
F105EF
330
261
100
AcDbEntity
  8
Geo
100
AcDbLine
 10
-7.334970986763906
 20
-5.914253614937877
 30
0.0
 11
-7.234970986763912
 21
-5.950245504344579
 31
0.0
  0
LINE
  5
F105F1
330
261
100
AcDbEntity
  8
Geo
100
AcDbLine
 10
-7.234970986763912
 20
-5.950245504344579
 30
0.0
 11
-7.134970986763902
 21
-5.985808281402779
 31
0.0
  0
LINE
  5
F105F3
330
261
100
AcDbEntity
  8
Geo
100
AcDbLine
 10
-7.134970986763902
 20
-5.985808281402779
 30
0.0
 11
-7.034970986763909
 21
-6.020938653288179
 31
0.0
  0
LINE
  5
F105F5
330
261
100
AcDbEntity
  8
Geo
100
AcDbLine
 10
-7.034970986763909
 20
-6.020938653288179
 30
0.0
 11
-6.9349709867639
 21
-6.055633367213778
 31
0.0
  0
LINE
  5
F105F7
330
261
100
AcDbEntity
  8
Geo
100
AcDbLine
 10
-6.9349709867639
 20
-6.055633367213778
 30
0.0
 11
-6.834970986763906
 21
-6.08988921073068
 31
0.0
  0
LINE
  5
F105F9
330
261
100
AcDbEntity
  8
Geo
100
AcDbLine
 10
-6.834970986763906
 20
-6.08988921073068
 30
0.0
 11
-6.734970986763912
 21
-6.123703012026179
 31
0.0
  0
LINE
  5
F105FB
330
261
100
AcDbEntity
  8
Geo
100
AcDbLine
 10
-6.734970986763912
 20
-6.123703012026179
 30
0.0
 11
-6.634970986763902
 21
-6.157071640216778
 31
0.0
  0
LINE
  5
F105FD
330
261
100
AcDbEntity
  8
Geo
100
AcDbLine
 10
-6.634970986763902
 20
-6.157071640216778
 30
0.0
 11
-6.534970986763909
 21
-6.189992005638579
 31
0.0
  0
LINE
  5
F105FF
330
261
100
AcDbEntity
  8
Geo
100
AcDbLine
 10
-6.534970986763909
 20
-6.189992005638579
 30
0.0
 11
-6.4349709867639
 21
-6.222461060133178
 31
0.0
  0
LINE
  5
F10601
330
261
100
AcDbEntity
  8
Geo
100
AcDbLine
 10
-6.4349709867639
 20
-6.222461060133178
 30
0.0
 11
-6.334970986763906
 21
-6.254475797329679
 31
0.0
  0
LINE
  5
F10603
330
261
100
AcDbEntity
  8
Geo
100
AcDbLine
 10
-6.334970986763906
 20
-6.254475797329679
 30
0.0
 11
-6.234970986763912
 21
-6.286033252923477
 31
0.0
  0
LINE
  5
F10605
330
261
100
AcDbEntity
  8
Geo
100
AcDbLine
 10
-6.234970986763912
 20
-6.286033252923477
 30
0.0
 11
-6.134970986763902
 21
-6.317130504950579
 31
0.0
  0
LINE
  5
F10607
330
261
100
AcDbEntity
  8
Geo
100
AcDbLine
 10
-6.134970986763902
 20
-6.317130504950579
 30
0.0
 11
-6.034970986763909
 21
-6.347764674057977
 31
0.0
  0
LINE
  5
F10609
330
261
100
AcDbEntity
  8
Geo
100
AcDbLine
 10
-6.034970986763909
 20
-6.347764674057977
 30
0.0
 11
-5.9349709867639
 21
-6.37793292377048
 31
0.0
  0
LINE
  5
F1060B
330
261
100
AcDbEntity
  8
Geo
100
AcDbLine
 10
-5.9349709867639
 20
-6.37793292377048
 30
0.0
 11
-5.834970986763906
 21
-6.407632460752981
 31
0.0
  0
LINE
  5
F1060D
330
261
100
AcDbEntity
  8
Geo
100
AcDbLine
 10
-5.834970986763906
 20
-6.407632460752981
 30
0.0
 11
-5.734970986763903
 21
-6.436860535069778
 31
0.0
  0
LINE
  5
F1060F
330
261
100
AcDbEntity
  8
Geo
100
AcDbLine
 10
-5.734970986763903
 20
-6.436860535069778
 30
0.0
 11
-5.634970986763902
 21
-6.465614440438478
 31
0.0
  0
LINE
  5
F10611
330
261
100
AcDbEntity
  8
Geo
100
AcDbLine
 10
-5.634970986763902
 20
-6.465614440438478
 30
0.0
 11
-5.534970986763909
 21
-6.493891514481079
 31
0.0
  0
LINE
  5
F10613
330
261
100
AcDbEntity
  8
Geo
100
AcDbLine
 10
-5.534970986763909
 20
-6.493891514481079
 30
0.0
 11
-5.434970986763907
 21
-6.521689138969978
 31
0.0
  0
LINE
  5
F10615
330
261
100
AcDbEntity
  8
Geo
100
AcDbLine
 10
-5.434970986763907
 20
-6.521689138969978
 30
0.0
 11
-5.334970986763906
 21
-6.549004740071181
 31
0.0
  0
LINE
  5
F10617
330
261
100
AcDbEntity
  8
Geo
100
AcDbLine
 10
-5.334970986763906
 20
-6.549004740071181
 30
0.0
 11
-5.234970986763903
 21
-6.575835788581681
 31
0.0
  0
LINE
  5
F10619
330
261
100
AcDbEntity
  8
Geo
100
AcDbLine
 10
-5.234970986763903
 20
-6.575835788581681
 30
0.0
 11
-5.134970986763903
 21
-6.602179800164377
 31
0.0
  0
LINE
  5
F1061B
330
261
100
AcDbEntity
  8
Geo
100
AcDbLine
 10
-5.134970986763903
 20
-6.602179800164377
 30
0.0
 11
-5.034970986763909
 21
-6.62803433557778
 31
0.0
  0
LINE
  5
F1061D
330
261
100
AcDbEntity
  8
Geo
100
AcDbLine
 10
-5.034970986763909
 20
-6.62803433557778
 30
0.0
 11
-4.934970986763906
 21
-6.653397000901777
 31
0.0
  0
LINE
  5
F1061F
330
261
100
AcDbEntity
  8
Geo
100
AcDbLine
 10
-4.934970986763906
 20
-6.653397000901777
 30
0.0
 11
-4.834970986763906
 21
-6.678265447759678
 31
0.0
  0
LINE
  5
F10621
330
261
100
AcDbEntity
  8
Geo
100
AcDbLine
 10
-4.834970986763906
 20
-6.678265447759678
 30
0.0
 11
-4.734970986763903
 21
-6.70263737353528
 31
0.0
  0
LINE
  5
F10623
330
261
100
AcDbEntity
  8
Geo
100
AcDbLine
 10
-4.734970986763903
 20
-6.70263737353528
 30
0.0
 11
-4.634970986763903
 21
-6.726510521586182
 31
0.0
  0
LINE
  5
F10625
330
261
100
AcDbEntity
  8
Geo
100
AcDbLine
 10
-4.634970986763903
 20
-6.726510521586182
 30
0.0
 11
-4.534970986763909
 21
-6.749882681452777
 31
0.0
  0
LINE
  5
F10627
330
261
100
AcDbEntity
  8
Geo
100
AcDbLine
 10
-4.534970986763909
 20
-6.749882681452777
 30
0.0
 11
-4.434970986763906
 21
-6.772751689062781
 31
0.0
  0
LINE
  5
F10629
330
261
100
AcDbEntity
  8
Geo
100
AcDbLine
 10
-4.434970986763906
 20
-6.772751689062781
 30
0.0
 11
-4.334970986763906
 21
-6.795115426931976
 31
0.0
  0
LINE
  5
F1062B
330
261
100
AcDbEntity
  8
Geo
100
AcDbLine
 10
-4.334970986763906
 20
-6.795115426931976
 30
0.0
 11
-4.234970986763904
 21
-6.81697182435978
 31
0.0
  0
LINE
  5
F1062D
330
261
100
AcDbEntity
  8
Geo
100
AcDbLine
 10
-4.234970986763904
 20
-6.81697182435978
 30
0.0
 11
-4.134970986763903
 21
-6.838318857621381
 31
0.0
  0
LINE
  5
F1062F
330
261
100
AcDbEntity
  8
Geo
100
AcDbLine
 10
-4.134970986763903
 20
-6.838318857621381
 30
0.0
 11
-4.034970986763909
 21
-6.859154550154779
 31
0.0
  0
LINE
  5
F10631
330
261
100
AcDbEntity
  8
Geo
100
AcDbLine
 10
-4.034970986763909
 20
-6.859154550154779
 30
0.0
 11
-3.934970986763906
 21
-6.879476972744077
 31
0.0
  0
LINE
  5
F10633
330
261
100
AcDbEntity
  8
Geo
100
AcDbLine
 10
-3.934970986763906
 20
-6.879476972744077
 30
0.0
 11
-3.834970986763906
 21
-6.899284243698077
 31
0.0
  0
LINE
  5
F10635
330
261
100
AcDbEntity
  8
Geo
100
AcDbLine
 10
-3.834970986763906
 20
-6.899284243698077
 30
0.0
 11
-3.734970986763904
 21
-6.91857452902438
 31
0.0
  0
LINE
  5
F10637
330
261
100
AcDbEntity
  8
Geo
100
AcDbLine
 10
-3.734970986763904
 20
-6.91857452902438
 30
0.0
 11
-3.634970986763903
 21
-6.937346042599079
 31
0.0
  0
LINE
  5
F10639
330
261
100
AcDbEntity
  8
Geo
100
AcDbLine
 10
-3.634970986763903
 20
-6.937346042599079
 30
0.0
 11
-3.534970986763908
 21
-6.955597046332679
 31
0.0
  0
LINE
  5
F1063B
330
261
100
AcDbEntity
  8
Geo
100
AcDbLine
 10
-3.534970986763908
 20
-6.955597046332679
 30
0.0
 11
-3.434970986763906
 21
-6.973325850330279
 31
0.0
  0
LINE
  5
F1063D
330
261
100
AcDbEntity
  8
Geo
100
AcDbLine
 10
-3.434970986763906
 20
-6.973325850330279
 30
0.0
 11
-3.334970986763906
 21
-6.990530813048779
 31
0.0
  0
LINE
  5
F1063F
330
261
100
AcDbEntity
  8
Geo
100
AcDbLine
 10
-3.334970986763906
 20
-6.990530813048779
 30
0.0
 11
-3.234970986763904
 21
-7.00721034144828
 31
0.0
  0
LINE
  5
F10641
330
261
100
AcDbEntity
  8
Geo
100
AcDbLine
 10
-3.234970986763904
 20
-7.00721034144828
 30
0.0
 11
-3.134970986763903
 21
-7.02336289113988
 31
0.0
  0
LINE
  5
F10643
330
261
100
AcDbEntity
  8
Geo
100
AcDbLine
 10
-3.134970986763903
 20
-7.02336289113988
 30
0.0
 11
-3.034970986763908
 21
-7.03898696652878
 31
0.0
  0
LINE
  5
F10645
330
261
100
AcDbEntity
  8
Geo
100
AcDbLine
 10
-3.034970986763908
 20
-7.03898696652878
 30
0.0
 11
-2.934970986763906
 21
-7.054081120952378
 31
0.0
  0
LINE
  5
F10647
330
261
100
AcDbEntity
  8
Geo
100
AcDbLine
 10
-2.934970986763906
 20
-7.054081120952378
 30
0.0
 11
-2.834970986763906
 21
-7.068643956814677
 31
0.0
  0
LINE
  5
F10649
330
261
100
AcDbEntity
  8
Geo
100
AcDbLine
 10
-2.834970986763906
 20
-7.068643956814677
 30
0.0
 11
-2.734970986763904
 21
-7.08267412571528
 31
0.0
  0
LINE
  5
F1064B
330
261
100
AcDbEntity
  8
Geo
100
AcDbLine
 10
-2.734970986763904
 20
-7.08267412571528
 30
0.0
 11
-2.634970986763903
 21
-7.096170328574577
 31
0.0
  0
LINE
  5
F1064D
330
261
100
AcDbEntity
  8
Geo
100
AcDbLine
 10
-2.634970986763903
 20
-7.096170328574577
 30
0.0
 11
-2.534970986763909
 21
-7.109131315753678
 31
0.0
  0
LINE
  5
F1064F
330
261
100
AcDbEntity
  8
Geo
100
AcDbLine
 10
-2.534970986763909
 20
-7.109131315753678
 30
0.0
 11
-2.434970986763906
 21
-7.121555887170478
 31
0.0
  0
LINE
  5
F10651
330
261
100
AcDbEntity
  8
Geo
100
AcDbLine
 10
-2.434970986763906
 20
-7.121555887170478
 30
0.0
 11
-2.334970986763905
 21
-7.13344289241068
 31
0.0
  0
LINE
  5
F10653
330
261
100
AcDbEntity
  8
Geo
100
AcDbLine
 10
-2.334970986763905
 20
-7.13344289241068
 30
0.0
 11
-2.234970986763904
 21
-7.14479123083398
 31
0.0
  0
LINE
  5
F10655
330
261
100
AcDbEntity
  8
Geo
100
AcDbLine
 10
-2.234970986763904
 20
-7.14479123083398
 30
0.0
 11
-2.134970986763903
 21
-7.155599851676577
 31
0.0
  0
LINE
  5
F10657
330
261
100
AcDbEntity
  8
Geo
100
AcDbLine
 10
-2.134970986763903
 20
-7.155599851676577
 30
0.0
 11
-2.034970986763909
 21
-7.165867754147778
 31
0.0
  0
LINE
  5
F10659
330
261
100
AcDbEntity
  8
Geo
100
AcDbLine
 10
-2.034970986763909
 20
-7.165867754147778
 30
0.0
 11
-1.934970986763907
 21
-7.175593987523377
 31
0.0
  0
LINE
  5
F1065B
330
261
100
AcDbEntity
  8
Geo
100
AcDbLine
 10
-1.934970986763907
 20
-7.175593987523377
 30
0.0
 11
-1.834970986763905
 21
-7.184777651233076
 31
0.0
  0
LINE
  5
F1065D
330
261
100
AcDbEntity
  8
Geo
100
AcDbLine
 10
-1.834970986763905
 20
-7.184777651233076
 30
0.0
 11
-1.734970986763904
 21
-7.19341789494428
 31
0.0
  0
LINE
  5
F1065F
330
261
100
AcDbEntity
  8
Geo
100
AcDbLine
 10
-1.734970986763904
 20
-7.19341789494428
 30
0.0
 11
-1.634970986763903
 21
-7.20151391864038
 31
0.0
  0
LINE
  5
F10661
330
261
100
AcDbEntity
  8
Geo
100
AcDbLine
 10
-1.634970986763903
 20
-7.20151391864038
 30
0.0
 11
-1.534970986763909
 21
-7.209064972695681
 31
0.0
  0
LINE
  5
F10663
330
261
100
AcDbEntity
  8
Geo
100
AcDbLine
 10
-1.534970986763909
 20
-7.209064972695681
 30
0.0
 11
-1.434970986763907
 21
-7.216070357943576
 31
0.0
  0
LINE
  5
F10665
330
261
100
AcDbEntity
  8
Geo
100
AcDbLine
 10
-1.434970986763907
 20
-7.216070357943576
 30
0.0
 11
-1.334970986763906
 21
-7.222529425742478
 31
0.0
  0
LINE
  5
F10667
330
261
100
AcDbEntity
  8
Geo
100
AcDbLine
 10
-1.334970986763906
 20
-7.222529425742478
 30
0.0
 11
-1.334970986763906
 21
-7.130950498825378
 31
0.0
  0
LINE
  5
F10669
330
261
100
AcDbEntity
  8
Geo
100
AcDbLine
 10
-1.334970986763906
 20
-7.222529425742478
 30
0.0
 11
-1.334970986763906
 21
-7.28260184833068
 31
0.0
  0
LINE
  5
F1066B
330
261
100
AcDbEntity
  8
Geo
100
AcDbLine
 10
-23.23497098676391
 20
-1.31579638162508
 30
0.0
 11
-23.23497098676391
 21
-1.31579638162508
 31
0.0
  0
LINE
  5
F1066D
330
261
100
AcDbEntity
  8
Geo
100
AcDbLine
 10
-23.23497098676391
 20
-1.31579638162508
 30
0.0
 11
-23.23497098676391
 21
-1.31579638162508
 31
0.0
  0
LINE
  5
F1066F
330
261
100
AcDbEntity
  8
Geo
100
AcDbLine
 10
59.76502901323607
 20
3.984203618374923
 30
0.0
 11
59.76502901323607
 21
-1.31579638162508
 31
0.0
  0
ARC
  5
F10671
330
261
100
AcDbEntity
  8
Geo
100
AcDbCircle
 10
-17.23497098676391
 20
-1.31579638162508
 30
0.0
 40
6.0
100
AcDbArc
 50
180.0
 51
270.0
  0
LINE
  5
F10673
330
261
100
AcDbEntity
  8
Geo
100
AcDbLine
 10
-17.23497098676391
 20
-7.315796381625077
 30
0.0
 11
14.76502901323609
 21
-7.315796381625077
 31
0.0
  0
LINE
  5
F10675
330
261
100
AcDbEntity
  8
Geo
100
AcDbLine
 10
14.76502901323609
 20
-7.315796381625077
 30
0.0
 11
59.06502901323609
 21
-7.315796381625077
 31
0.0
  0
LINE
  5
F10677
330
261
100
AcDbEntity
  8
Geo
100
AcDbLine
 10
59.06502901323609
 20
-7.315796381625077
 30
0.0
 11
59.76502901323607
 21
-6.615796381625078
 31
0.0
  0
LINE
  5
F10679
330
261
100
AcDbEntity
  8
Geo
100
AcDbLine
 10
-17.23497098676391
 20
4.684203618374922
 30
0.0
 11
-17.23497098676391
 21
-7.315796381625077
 31
0.0
  0
LINE
  5
F1067B
330
261
100
AcDbEntity
  8
Geo
100
AcDbLine
 10
14.76502901323609
 20
4.684203618374922
 30
0.0
 11
14.76502901323609
 21
-7.315796381625077
 31
0.0
  0
LINE
  5
F1067D
330
261
100
AcDbEntity
  8
Geo
100
AcDbLine
 10
59.06502901323609
 20
4.684203618374922
 30
0.0
 11
59.06502901323609
 21
-7.315796381625077
 31
0.0
  0
LINE
  5
F1067F
330
261
100
AcDbEntity
  8
Geo
100
AcDbLine
 10
59.76502901323607
 20
3.984203618374923
 30
0.0
 11
59.76502901323607
 21
-6.615796381625078
 31
0.0
  0
LWPOLYLINE
  5
F106E9
330
261
100
AcDbEntity
  8
Rahmen
100
AcDbPolyline
 90
        4
 70
     1
 43
0.0
 10
-134.524070021882
 20
99.945295404814
 10
143.484682713348
 20
99.945295404814
 10
143.484682713348
 20
-100.175054704595
 10
-134.524070021882
 20
-100.175054704595
  0
TEXT
  5
F106EB
330
261
100
AcDbEntity
  8
Text
100
AcDbText
 10
-133.6050328227569
 20
-99.67505470459521
 30
0.0
 40
1.0
  1
ISBESketcher
100
AcDbText
  0
LWPOLYLINE
  5
F106ED
330
261
100
AcDbEntity
  8
Rahmen
100
AcDbPolyline
 90
        4
 70
     1
 43
0.0
 10
103.276805251641
 20
-97.1881838074398
 10
143.484682713348
 20
-97.1881838074398
 10
143.484682713348
 20
-100.175054704595
 10
103.276805251641
 20
-100.175054704595
  0
TEXT
  5
F106EF
330
261
100
AcDbEntity
  8
Text
100
AcDbText
 10
104.425601750547
 20
-98.1881838074398
 30
0.0
 40
0.75
  1
Ers. durch:
100
AcDbText
  0
LWPOLYLINE
  5
F106F3
330
261
100
AcDbEntity
  8
Rahmen
100
AcDbPolyline
 90
        4
 70
     1
 43
0.0
 10
63.2986870897155
 20
-97.1881838074398
 10
103.276805251641
 20
-97.1881838074398
 10
103.276805251641
 20
-100.175054704595
 10
63.2986870897155
 20
-100.175054704595
  0
TEXT
  5
F106F5
330
261
100
AcDbEntity
  8
Text
100
AcDbText
 10
64.44748358862138
 20
-98.1881838074398
 30
0.0
 40
0.75
  1
Ers. für:
100
AcDbText
  0
TEXT
  5
F106F7
330
261
100
AcDbEntity
  8
Text
100
AcDbText
 10
91.32932166301969
 20
-99.5667396061269
 30
0.0
 40
0.75
  1

100
AcDbText
  0
LWPOLYLINE
  5
F106F9
330
261
100
AcDbEntity
  8
Rahmen
100
AcDbPolyline
 90
        4
 70
     1
 43
0.0
 10
130.158643326039
 20
-94.2013129102845
 10
143.484682713348
 20
-94.2013129102845
 10
143.484682713348
 20
-97.1881838074398
 10
130.158643326039
 20
-97.1881838074398
  0
TEXT
  5
F106FB
330
261
100
AcDbEntity
  8
Text
100
AcDbText
 10
131.077680525164
 20
-95.2013129102845
 30
0.0
 40
0.75
  1
Blätter
100
AcDbText
  0
TEXT
  5
F106FD
330
261
100
AcDbEntity
  8
Text
100
AcDbText
 10
141.187089715536
 20
-96.57986870897161
 30
0.0
 40
0.75
  1

100
AcDbText
  0
LWPOLYLINE
  5
F106FF
330
261
100
AcDbEntity
  8
Rahmen
100
AcDbPolyline
 90
        4
 70
     1
 43
0.0
 10
130.158643326039
 20
-91.21444201312909
 10
143.484682713348
 20
-91.21444201312909
 10
143.484682713348
 20
-94.2013129102845
 10
130.158643326039
 20
-94.2013129102845
  0
TEXT
  5
F10701
330
261
100
AcDbEntity
  8
Text
100
AcDbText
 10
131.077680525164
 20
-92.21444201312911
 30
0.0
 40
0.75
  1
Blatt
100
AcDbText
  0
TEXT
  5
F10703
330
261
100
AcDbEntity
  8
Text
100
AcDbText
 10
141.187089715536
 20
-93.59299781181618
 30
0.0
 40
0.75
  1

100
AcDbText
  0
LWPOLYLINE
  5
F10705
330
261
100
AcDbEntity
  8
Rahmen
100
AcDbPolyline
 90
        4
 70
     1
 43
0.0
 10
63.2986870897155
 20
-91.21444201312909
 10
130.158643326039
 20
-91.21444201312909
 10
130.158643326039
 20
-97.1881838074398
 10
63.2986870897155
 20
-97.1881838074398
  0
TEXT
  5
F10707
330
261
100
AcDbEntity
  8
Text
100
AcDbText
 10
64.44748358862138
 20
-92.21444201312911
 30
0.0
 40
0.75
  1
Datum:
100
AcDbText
  0
TEXT
  5
F10709
330
261
100
AcDbEntity
  8
Text
100
AcDbText
 10
90.410284463895
 20
-95.2013129102845
 30
0.0
 40
0.75
  1
14.08.2014
100
AcDbText
  0
LWPOLYLINE
  5
F1070B
330
261
100
AcDbEntity
  8
Rahmen
100
AcDbPolyline
 90
        4
 70
     1
 43
0.0
 10
63.2986870897155
 20
-85.0109409190372
 10
143.484682713348
 20
-85.0109409190372
 10
143.484682713348
 20
-91.21444201312909
 10
63.2986870897155
 20
-91.21444201312909
  0
TEXT
  5
F1070D
330
261
100
AcDbEntity
  8
Text
100
AcDbText
 10
-200.924507658643
 20
103.0
 30
0.0
 40
1.5
  1

100
AcDbText
  0
TEXT
  5
F1070F
330
261
100
AcDbEntity
  8
Text
100
AcDbText
 10
78.0032822757112
 20
-88.8037928519329
 30
0.0
 40
2.5
  1
4135-120
100
AcDbText
  0
LWPOLYLINE
  5
F10711
330
261
100
AcDbEntity
  8
Rahmen
100
AcDbPolyline
 90
        4
 70
     1
 43
0.0
 10
103.276805251641
 20
-79.0371991247265
 10
143.484682713348
 20
-79.0371991247265
 10
143.484682713348
 20
-85.0109409190372
 10
103.276805251641
 20
-85.0109409190372
  0
TEXT
  5
F10713
330
261
100
AcDbEntity
  8
Text
100
AcDbText
 10
104.425601750547
 20
-80.0371991247265
 30
0.0
 40
0.75
  1
Zu bearb. Material:
100
AcDbText
  0
TEXT
  5
F10715
330
261
100
AcDbEntity
  8
Text
100
AcDbText
 10
123.265864332604
 20
-84.4026258205689
 30
0.0
 40
0.75
  1

100
AcDbText
  0
LWPOLYLINE
  5
F10717
330
261
100
AcDbEntity
  8
Rahmen
100
AcDbPolyline
 90
        4
 70
     1
 43
0.0
 10
63.2986870897155
 20
-79.0371991247265
 10
103.276805251641
 20
-79.0371991247265
 10
103.276805251641
 20
-85.0109409190372
 10
63.2986870897155
 20
-85.0109409190372
  0
TEXT
  5
F10719
330
261
100
AcDbEntity
  8
Text
100
AcDbText
 10
64.44748358862138
 20
-80.0371991247265
 30
0.0
 40
0.75
  1
Werkstoff:
100
AcDbText
  0
TEXT
  5
F1071B
330
261
100
AcDbEntity
  8
Text
100
AcDbText
 10
83.28774617067841
 20
-84.4026258205689
 30
0.0
 40
0.75
  1

100
AcDbText
  0
LWPOLYLINE
  5
F1071D
330
261
100
AcDbEntity
  8
Rahmen
100
AcDbPolyline
 90
        4
 70
     1
 43
0.0
 10
103.276805251641
 20
-76.0503282275711
 10
143.484682713348
 20
-76.0503282275711
 10
143.484682713348
 20
-79.0371991247265
 10
103.276805251641
 20
-79.0371991247265
  0
TEXT
  5
F1071F
330
261
100
AcDbEntity
  8
Text
100
AcDbText
 10
-200.924507658643
 20
103.0
 30
0.0
 40
1.5
  1

100
AcDbText
  0
TEXT
  5
F10721
330
261
100
AcDbEntity
  8
Text
100
AcDbText
 10
123.265864332604
 20
-78.4288840262582
 30
0.0
 40
0.75
  1

100
AcDbText
  0
LWPOLYLINE
  5
F10723
330
261
100
AcDbEntity
  8
Rahmen
100
AcDbPolyline
 90
        4
 70
     1
 43
0.0
 10
63.2986870897155
 20
-76.0503282275711
 10
103.276805251641
 20
-76.0503282275711
 10
103.276805251641
 20
-79.0371991247265
 10
63.2986870897155
 20
-79.0371991247265
  0
TEXT
  5
F10725
330
261
100
AcDbEntity
  8
Text
100
AcDbText
 10
64.44748358862138
 20
-77.0503282275711
 30
0.0
 40
0.75
  1
Maßstab:
100
AcDbText
  0
TEXT
  5
F10727
330
261
100
AcDbEntity
  8
Text
100
AcDbText
 10
88.80196936542672
 20
-77.0503282275711
 30
0.0
 40
0.75
  1
1 : 1
100
AcDbText
  0
VIEWPORT
  5
294
102
{ACAD_XDICTIONARY
360
F109E0
102
}
330
25D
100
AcDbEntity
 67
     1
  8
0
 60
     1
100
AcDbViewport
 10
0.0
 20
0.0
 30
0.0
 40
10.0
 41
10.0
 68
    -1
 69
     1
 12
0.0
 22
0.0
 13
0.0
 23
0.0
 14
1.0
 24
1.0
 15
0.0
 25
0.0
 16
0.0
 26
0.0
 36
1.0
 17
0.0
 27
0.0
 37
0.0
 42
0.0
 43
0.0
 44
0.0
 45
10.0
 50
0.0
 51
0.0000000000007958
 72
   100
 90
    32800
  1

281
     0
 71
     0
 74
     0
110
0.0
120
0.0
130
0.0
111
1.0
121
0.0
131
0.0
112
0.0
122
1.0
132
0.0
 79
     0
146
0.0
1001
VD_INVISIBLE_NOT_FOR_READ
1000
VD_INVISIBLE_NOT_FOR_READ
1001
GENIUS_GENODEF_13
1002
{
1000
HIER
1070
     0
1002
}
1002
{
1000
MANEDIT
1070
     0
1002
}
1002
{
1000
NOSEL
1070
     0
1002
}
1002
{
1000
BEHIND
1070
     0
1002
}
1002
{
1000
OTHER
1070
     0
1002
}
1002
{
1000
REACTOR
1002
}
1001
GENIUS_GENOBJ-N-SDF_13
1002
{
1000
OWNER
1000
GEN
1002
}
1001
GENIUS_GENSCREG_15
1000
PF
1040
1.0
1000
DF
1040
1.0
1000
MIN
1011
-5.0
1021
-5.0
1031
0.0
1000
MAX
1011
5.0
1021
5.0
1031
0.0
1000
FLAGS
1070
     4
  0
VIEWPORT
  5
295
102
{ACAD_XDICTIONARY
360
F109E2
102
}
330
25D
100
AcDbEntity
 67
     1
  8
0
 60
     1
100
AcDbViewport
 10
0.0
 20
0.0
 30
0.0
 40
10.0
 41
10.0
 68
     0
 69
     2
 12
0.0
 22
0.0
 13
0.0
 23
0.0
 14
1.0
 24
1.0
 15
0.0
 25
0.0
 16
0.0
 26
0.0
 36
1.0
 17
0.0
 27
0.0
 37
0.0
 42
0.0
 43
0.0
 44
0.0
 45
10.0
 50
0.0
 51
0.0000000000007958
 72
   100
 90
   163872
  1

281
     0
 71
     0
 74
     0
110
0.0
120
0.0
130
0.0
111
1.0
121
0.0
131
0.0
112
0.0
122
1.0
132
0.0
 79
     0
146
0.0
1001
VD_INVISIBLE_NOT_FOR_READ
1000
VD_INVISIBLE_NOT_FOR_READ
1001
GENIUS_GENODEF_13
1002
{
1000
HIER
1070
     0
1002
}
1002
{
1000
MANEDIT
1070
     0
1002
}
1002
{
1000
NOSEL
1070
     0
1002
}
1002
{
1000
BEHIND
1070
     0
1002
}
1002
{
1000
OTHER
1070
     0
1002
}
1002
{
1000
REACTOR
1002
}
1001
GENIUS_GENOBJ-N-SDF_13
1002
{
1000
OWNER
1000
GEN
1002
}
1001
GENIUS_GENSCREG_15
1000
PF
1040
1.0
1000
DF
1040
1.0
1000
MIN
1011
-5.0
1021
-5.0
1031
0.0
1000
MAX
1011
5.0
1021
5.0
1031
0.0
1000
FLAGS
1070
     4
  0
ENDSEC
  0
SECTION
  2
OBJECTS
  0
DICTIONARY
  5
13
330
0
100
AcDbDictionary
281
     1
  3
ACAD_2007HEADERVARS_RT
350
F109DB
  3
ACAD_COLOR
350
FA7
  3
ACAD_GROUP
350
14
  3
ACAD_LAYOUT
350
FCF
  3
ACAD_MATERIAL
350
F7A
  3
ACAD_MLEADERSTYLE
350
FCD
  3
ACAD_MLINESTYLE
350
16
  3
ACAD_PLOTSETTINGS
350
17
  3
ACAD_PLOTSTYLENAME
350
18
  3
ACAD_SCALELIST
350
FAB
  3
ACAD_TABLESTYLE
350
FA8
  3
ACAD_VISUALSTYLE
350
F93
  3
ACDB_RECOMPOSE_DATA
350
F109D9
  3
AcDbVariableDictionary
350
F10914
  3
AcmDictionary
350
F1077E
  3
AMG
350
F10732
  3
AMGSNAPSETTINGS
350
F107F3
  3
DWGPROPS
350
F109DA
  0
DICTIONARY
  5
F10908
330
252
100
AcDbDictionary
280
     1
281
     1
  3
ADSK_XREC_LAYER_RECONCILED
360
F10909
  0
DICTIONARY
  5
F1090A
330
23F
100
AcDbDictionary
280
     1
281
     1
  3
ADSK_XREC_LAYER_RECONCILED
360
F1090B
  0
DICTIONARY
  5
F1090C
330
240
100
AcDbDictionary
280
     1
281
     1
  3
ADSK_XREC_LAYER_RECONCILED
360
F1090D
  0
DICTIONARY
  5
F1090E
330
241
100
AcDbDictionary
280
     1
281
     1
  3
ADSK_XREC_LAYER_RECONCILED
360
F1090F
  0
DICTIONARY
  5
F10910
330
57E
100
AcDbDictionary
280
     1
281
     1
  3
ADSK_XREC_LAYER_RECONCILED
360
F10911
  0
DICTIONARY
  5
F10912
330
F10854
100
AcDbDictionary
280
     1
281
     1
  3
ADSK_XREC_LAYER_RECONCILED
360
F10913
  0
DICTIONARY
  5
F109E4
330
296
100
AcDbDictionary
280
     1
281
     1
  3
ACAD_XREC_ROUNDTRIP
360
F109E5
  0
DICTIONARY
  5
F109E6
330
297
100
AcDbDictionary
280
     1
281
     1
  3
ACAD_XREC_ROUNDTRIP
360
F109E7
  0
DICTIONARY
  5
F109E0
330
294
100
AcDbDictionary
280
     1
281
     1
  3
ACAD_XREC_ROUNDTRIP
360
F109E1
  0
DICTIONARY
  5
F109E2
330
295
100
AcDbDictionary
280
     1
281
     1
  3
ACAD_XREC_ROUNDTRIP
360
F109E3
  0
DICTIONARY
  5
F109DB
102
{ACAD_REACTORS
330
13
102
}
330
13
100
AcDbDictionary
281
     1
  3
DIMARCSYM
350
F109DC
  3
DIMLTEX1
350
F109DE
  3
DIMLTEX2
350
F109DF
  3
DIMLTYPE
350
F109DD
  0
DICTIONARY
  5
FA7
102
{ACAD_REACTORS
330
13
102
}
330
13
100
AcDbDictionary
281
     1
  0
DICTIONARY
  5
14
330
13
100
AcDbDictionary
281
     1
  0
DICTIONARY
  5
FCF
102
{ACAD_REACTORS
330
13
102
}
330
13
100
AcDbDictionary
281
     1
  3
Layout1
350
FD1
  3
Model
350
FD0
  0
DICTIONARY
  5
F7A
102
{ACAD_REACTORS
330
13
102
}
330
13
100
AcDbDictionary
281
     1
  3
ByBlock
350
F83
  3
ByLayer
350
F7B
  3
Global
350
F8B
  0
DICTIONARY
  5
FCD
102
{ACAD_REACTORS
330
13
102
}
330
13
100
AcDbDictionary
281
     1
  3
Standard
350
FCE
  0
DICTIONARY
  5
16
330
13
100
AcDbDictionary
281
     1
  3
Standard
350
FAA
  0
DICTIONARY
  5
17
102
{ACAD_REACTORS
330
13
102
}
330
13
100
AcDbDictionary
281
     1
  0
ACDBDICTIONARYWDFLT
  5
18
102
{ACAD_REACTORS
330
13
102
}
330
13
100
AcDbDictionary
281
     1
  3
Normal
350
19
100
AcDbDictionaryWithDefault
340
19
  0
DICTIONARY
  5
FAB
102
{ACAD_REACTORS
330
13
102
}
330
13
100
AcDbDictionary
281
     1
  3
A0
350
FAC
  3
A1
350
FAD
  3
A2
350
FAE
  3
A3
350
FAF
  3
A4
350
FB0
  3
A5
350
FB1
  3
A6
350
FB2
  3
A7
350
FB3
  3
A8
350
FB4
  3
A9
350
FB5
  3
B0
350
FB6
  3
B1
350
FB7
  3
B2
350
FB8
  3
B3
350
FB9
  3
B4
350
FBA
  3
B5
350
FBB
  3
B6
350
FBC
  3
B7
350
FBD
  3
B8
350
FBE
  3
B9
350
FBF
  3
C0
350
FC0
  3
C1
350
FC1
  3
C2
350
FC2
  3
C3
350
FC3
  3
C4
350
FC4
  3
C5
350
FC5
  3
C6
350
FC6
  3
C7
350
FC7
  3
C8
350
FC8
  3
C9
350
FC9
  3
D0
350
FCA
  3
D1
350
FCB
  3
D2
350
FCC
  0
DICTIONARY
  5
FA8
102
{ACAD_REACTORS
330
13
102
}
330
13
100
AcDbDictionary
281
     1
  3
Standard
350
FA9
  0
DICTIONARY
  5
F93
102
{ACAD_REACTORS
330
13
102
}
330
13
100
AcDbDictionary
281
     1
  3
2dWireframe
350
F99
  3
3D Hidden
350
F9B
  3
3dWireframe
350
F9A
  3
Basic
350
F98
  3
Brighten
350
F9F
  3
ColorChange
350
FA3
  3
Conceptual
350
F9C
  3
Dim
350
F9E
  3
EdgeColorOff
350
FA6
  3
Facepattern
350
FA2
  3
Flat
350
F94
  3
FlatWithEdges
350
F95
  3
Gouraud
350
F96
  3
GouraudWithEdges
350
F97
  3
Hidden
350
F1072A
  3
JitterOff
350
FA4
  3
Linepattern
350
FA1
  3
OverhangOff
350
FA5
  3
Realistic
350
F9D
  3
Shaded
350
F1072F
  3
Shaded with edges
350
F1072E
  3
Shades of Gray
350
F1072B
  3
Sketchy
350
F1072C
  3
Thicken
350
FA0
  3
Wireframe
350
F10729
  3
X-Ray
350
F1072D
  0
XRECORD
  5
F109D9
102
{ACAD_REACTORS
330
13
102
}
330
13
100
AcDbXrecord
280
     1
 90
        1
330
FA9
  0
DICTIONARY
  5
F10914
102
{ACAD_REACTORS
330
13
102
}
330
13
100
AcDbDictionary
281
     1
  3
CANNOSCALE
350
F10917
  3
CMLEADERSTYLE
350
F10916
  3
CTABLESTYLE
350
F10915
  3
DIMASSOC
350
F1091A
  3
INDEXCTL
350
F10919
  3
SORTENTS
350
F10918
  3
XCLIPFRAME
350
F109D7
  0
DICTIONARY
  5
F1077E
102
{ACAD_REACTORS
330
13
102
}
330
13
100
AcDbDictionary
281
     1
  3
AcmStdDictionary
350
F10789
  0
DICTIONARY
  5
F10732
102
{ACAD_REACTORS
330
13
102
}
330
13
100
AcDbDictionary
281
     1
  0
DICTIONARY
  5
F107F3
102
{ACAD_REACTORS
330
13
102
}
330
13
100
AcDbDictionary
281
     1
  0
XRECORD
  5
F109DA
102
{ACAD_REACTORS
330
13
102
}
330
13
100
AcDbXrecord
280
     1
  1
DWGPROPS COOKIE
  2

  3

  4

  6

  7

  8
steigner
  9

300
=
301
=
302
=
303
=
304
=
305
=
306
=
307
=
308
=
309
=
 40
0.0113542476851852
 41
2456884.312397408
 42
2456884.405409572
  1

 90
        0
  0
XRECORD
  5
F10909
102
{ACAD_REACTORS
330
F10908
102
}
330
F10908
100
AcDbXrecord
280
     1
290
     1
  0
XRECORD
  5
F1090B
102
{ACAD_REACTORS
330
F1090A
102
}
330
F1090A
100
AcDbXrecord
280
     1
290
     1
  0
XRECORD
  5
F1090D
102
{ACAD_REACTORS
330
F1090C
102
}
330
F1090C
100
AcDbXrecord
280
     1
290
     1
  0
XRECORD
  5
F1090F
102
{ACAD_REACTORS
330
F1090E
102
}
330
F1090E
100
AcDbXrecord
280
     1
290
     1
  0
XRECORD
  5
F10911
102
{ACAD_REACTORS
330
F10910
102
}
330
F10910
100
AcDbXrecord
280
     1
290
     1
  0
XRECORD
  5
F10913
102
{ACAD_REACTORS
330
F10912
102
}
330
F10912
100
AcDbXrecord
280
     1
290
     1
  0
XRECORD
  5
F109E5
102
{ACAD_REACTORS
330
F109E4
102
}
330
F109E4
100
AcDbXrecord
280
     1
102
SHADEPLOT
 70
     0
  0
XRECORD
  5
F109E7
102
{ACAD_REACTORS
330
F109E6
102
}
330
F109E6
100
AcDbXrecord
280
     1
102
SHADEPLOT
 70
     0
  0
XRECORD
  5
F109E1
102
{ACAD_REACTORS
330
F109E0
102
}
330
F109E0
100
AcDbXrecord
280
     1
102
SHADEPLOT
 70
     0
  0
XRECORD
  5
F109E3
102
{ACAD_REACTORS
330
F109E2
102
}
330
F109E2
100
AcDbXrecord
280
     1
102
SHADEPLOT
 70
     0
  0
XRECORD
  5
F109DC
102
{ACAD_REACTORS
330
F109DB
102
}
330
F109DB
100
AcDbXrecord
280
     1
 70
     1
  0
XRECORD
  5
F109DE
102
{ACAD_REACTORS
330
F109DB
102
}
330
F109DB
100
AcDbXrecord
280
     1
340
256
  0
XRECORD
  5
F109DF
102
{ACAD_REACTORS
330
F109DB
102
}
330
F109DB
100
AcDbXrecord
280
     1
340
256
  0
XRECORD
  5
F109DD
102
{ACAD_REACTORS
330
F109DB
102
}
330
F109DB
100
AcDbXrecord
280
     1
340
256
  0
LAYOUT
  5
FD1
102
{ACAD_XDICTIONARY
360
F10A11
102
}
102
{ACAD_REACTORS
330
FCF
102
}
330
FCF
100
AcDbPlotSettings
  1

  2
Microsoft XPS Document Writer
  4

  6

 40
0.0
 41
0.0
 42
0.0
 43
0.0
 44
0.0
 45
0.0
 46
0.0
 47
0.0
 48
0.0
 49
0.0
140
0.0
141
0.0
142
1.0
143
1.0
 70
   688
 72
     0
 73
     0
 74
     5
  7

 75
    16
147
1.0
148
0.0
149
0.0
100
AcDbLayout
  1
Layout1
 70
     1
 71
     1
 10
0.0
 20
0.0
 11
12.0
 21
9.0
 12
0.0
 22
0.0
 32
0.0
 14
1.000000000000000E+20
 24
1.000000000000000E+20
 34
1.000000000000000E+20
 15
-1.000000000000000E+20
 25
-1.000000000000000E+20
 35
-1.000000000000000E+20
146
0.0
 13
0.0
 23
0.0
 33
0.0
 16
1.0
 26
0.0
 36
0.0
 17
0.0
 27
1.0
 37
0.0
 76
     0
330
25D
  0
LAYOUT
  5
FD0
102
{ACAD_XDICTIONARY
360
F10A0F
102
}
102
{ACAD_REACTORS
330
FCF
102
}
330
FCF
100
AcDbPlotSettings
  1

  2
Microsoft XPS Document Writer
  4

  6

 40
0.0
 41
0.0
 42
0.0
 43
0.0
 44
0.0
 45
0.0
 46
0.0
 47
0.0
 48
0.0
 49
0.0
140
0.0
141
0.0
142
1.0
143
1.0
 70
  1712
 72
     0
 73
     0
 74
     0
  7

 75
     0
147
1.0
148
0.0
149
0.0
100
AcDbLayout
  1
Model
 70
     1
 71
     0
 10
0.0
 20
0.0
 11
12.0
 21
9.0
 12
0.0
 22
0.0
 32
0.0
 14
0.0
 24
0.0
 34
0.0
 15
0.0
 25
0.0
 35
0.0
146
0.0
 13
0.0
 23
0.0
 33
0.0
 16
1.0
 26
0.0
 36
0.0
 17
0.0
 27
1.0
 37
0.0
 76
     0
330
261
331
26B
  0
MATERIAL
  5
F83
102
{ACAD_XDICTIONARY
360
F84
102
}
102
{ACAD_REACTORS
330
F7A
102
}
330
F7A
100
AcDbMaterial
  1
ByBlock
 72
     0
 43
0.0208333333333333
 43
0.0
 43
0.0
 43
0.0
 43
0.0
 43
0.0208333333333333
 43
0.0
 43
0.0
 43
0.0
 43
0.0
 43
1.0
 43
0.0
 43
0.0
 43
0.0
 43
0.0
 43
1.0
 77
     0
 47
0.0208333333333333
 47
0.0
 47
0.0
 47
0.0
 47
0.0
 47
0.0208333333333333
 47
0.0
 47
0.0
 47
0.0
 47
0.0
 47
1.0
 47
0.0
 47
0.0
 47
0.0
 47
0.0
 47
1.0
171
     0
 49
0.0208333333333333
 49
0.0
 49
0.0
 49
0.0
 49
0.0
 49
0.0208333333333333
 49
0.0
 49
0.0
 49
0.0
 49
0.0
 49
1.0
 49
0.0
 49
0.0
 49
0.0
 49
0.0
 49
1.0
175
     0
142
0.0208333333333333
142
0.0
142
0.0
142
0.0
142
0.0
142
0.0208333333333333
142
0.0
142
0.0
142
0.0
142
0.0
142
1.0
142
0.0
142
0.0
142
0.0
142
0.0
142
1.0
179
     0
144
0.0208333333333333
144
0.0
144
0.0
144
0.0
144
0.0
144
0.0208333333333333
144
0.0
144
0.0
144
0.0
144
0.0
144
1.0
144
0.0
144
0.0
144
0.0
144
0.0
144
1.0
147
0.0208333333333333
147
0.0
147
0.0
147
0.0
147
0.0
147
0.0208333333333333
147
0.0
147
0.0
147
0.0
147
0.0
147
1.0
147
0.0
147
0.0
147
0.0
147
0.0
147
1.0
  0
MATERIAL
  5
F7B
102
{ACAD_XDICTIONARY
360
F7C
102
}
102
{ACAD_REACTORS
330
F7A
102
}
330
F7A
100
AcDbMaterial
  1
ByLayer
 72
     0
 43
0.0208333333333333
 43
0.0
 43
0.0
 43
0.0
 43
0.0
 43
0.0208333333333333
 43
0.0
 43
0.0
 43
0.0
 43
0.0
 43
1.0
 43
0.0
 43
0.0
 43
0.0
 43
0.0
 43
1.0
 77
     0
 47
0.0208333333333333
 47
0.0
 47
0.0
 47
0.0
 47
0.0
 47
0.0208333333333333
 47
0.0
 47
0.0
 47
0.0
 47
0.0
 47
1.0
 47
0.0
 47
0.0
 47
0.0
 47
0.0
 47
1.0
171
     0
 49
0.0208333333333333
 49
0.0
 49
0.0
 49
0.0
 49
0.0
 49
0.0208333333333333
 49
0.0
 49
0.0
 49
0.0
 49
0.0
 49
1.0
 49
0.0
 49
0.0
 49
0.0
 49
0.0
 49
1.0
175
     0
142
0.0208333333333333
142
0.0
142
0.0
142
0.0
142
0.0
142
0.0208333333333333
142
0.0
142
0.0
142
0.0
142
0.0
142
1.0
142
0.0
142
0.0
142
0.0
142
0.0
142
1.0
179
     0
144
0.0208333333333333
144
0.0
144
0.0
144
0.0
144
0.0
144
0.0208333333333333
144
0.0
144
0.0
144
0.0
144
0.0
144
1.0
144
0.0
144
0.0
144
0.0
144
0.0
144
1.0
147
0.0208333333333333
147
0.0
147
0.0
147
0.0
147
0.0
147
0.0208333333333333
147
0.0
147
0.0
147
0.0
147
0.0
147
1.0
147
0.0
147
0.0
147
0.0
147
0.0
147
1.0
  0
MATERIAL
  5
F8B
102
{ACAD_XDICTIONARY
360
F8C
102
}
102
{ACAD_REACTORS
330
F7A
102
}
330
F7A
100
AcDbMaterial
  1
Global
 72
     0
 43
0.0208333333333333
 43
0.0
 43
0.0
 43
0.0
 43
0.0
 43
0.0208333333333333
 43
0.0
 43
0.0
 43
0.0
 43
0.0
 43
1.0
 43
0.0
 43
0.0
 43
0.0
 43
0.0
 43
1.0
 77
     0
 47
0.0208333333333333
 47
0.0
 47
0.0
 47
0.0
 47
0.0
 47
0.0208333333333333
 47
0.0
 47
0.0
 47
0.0
 47
0.0
 47
1.0
 47
0.0
 47
0.0
 47
0.0
 47
0.0
 47
1.0
171
     0
 49
0.0208333333333333
 49
0.0
 49
0.0
 49
0.0
 49
0.0
 49
0.0208333333333333
 49
0.0
 49
0.0
 49
0.0
 49
0.0
 49
1.0
 49
0.0
 49
0.0
 49
0.0
 49
0.0
 49
1.0
175
     0
142
0.0208333333333333
142
0.0
142
0.0
142
0.0
142
0.0
142
0.0208333333333333
142
0.0
142
0.0
142
0.0
142
0.0
142
1.0
142
0.0
142
0.0
142
0.0
142
0.0
142
1.0
179
     0
144
0.0208333333333333
144
0.0
144
0.0
144
0.0
144
0.0
144
0.0208333333333333
144
0.0
144
0.0
144
0.0
144
0.0
144
1.0
144
0.0
144
0.0
144
0.0
144
0.0
144
1.0
147
0.0208333333333333
147
0.0
147
0.0
147
0.0
147
0.0
147
0.0208333333333333
147
0.0
147
0.0
147
0.0
147
0.0
147
1.0
147
0.0
147
0.0
147
0.0
147
0.0
147
1.0
  0
MLEADERSTYLE
  5
FCE
102
{ACAD_REACTORS
330
FCD
102
}
330
FCD
100
AcDbMLeaderStyle
170
     2
171
     1
172
     0
 90
        2
 40
0.0
 41
0.0
173
     1
 91
-1056964608
340
256
 92
       -2
290
     1
 42
0.09
291
     1
 43
0.36
  3
Standard
 44
0.18
300

342
253
174
     1
178
     6
175
     1
176
     0
 93
-1056964608
 45
0.18
292
     0
297
     0
 46
0.18
 94
-1056964608
 47
1.0
 49
1.0
140
1.0
293
     1
141
0.0
294
     1
177
     0
142
1.0
295
     0
296
     0
143
0.125
1001
ACAD_MLEADERVER
1070
     2
  0
MLINESTYLE
  5
FAA
102
{ACAD_REACTORS
330
16
102
}
330
16
100
AcDbMlineStyle
  2
STANDARD
 70
     0
  3

 62
   256
 51
90.0
 52
90.0
 71
     2
 49
0.5
 62
   256
  6
BYLAYER
 49
-0.5
 62
   256
  6
BYLAYER
  0
ACDBPLACEHOLDER
  5
19
102
{ACAD_REACTORS
330
18
102
}
330
18
  0
SCALE
  5
FAC
102
{ACAD_REACTORS
330
FAB
102
}
330
FAB
100
AcDbScale
 70
     0
300
1:1
140
1.0
141
1.0
290
     1
  0
SCALE
  5
FAD
102
{ACAD_REACTORS
330
FAB
102
}
330
FAB
100
AcDbScale
 70
     0
300
1:2
140
1.0
141
2.0
290
     0
  0
SCALE
  5
FAE
102
{ACAD_REACTORS
330
FAB
102
}
330
FAB
100
AcDbScale
 70
     0
300
1:4
140
1.0
141
4.0
290
     0
  0
SCALE
  5
FAF
102
{ACAD_REACTORS
330
FAB
102
}
330
FAB
100
AcDbScale
 70
     0
300
1:5
140
1.0
141
5.0
290
     0
  0
SCALE
  5
FB0
102
{ACAD_REACTORS
330
FAB
102
}
330
FAB
100
AcDbScale
 70
     0
300
1:8
140
1.0
141
8.0
290
     0
  0
SCALE
  5
FB1
102
{ACAD_REACTORS
330
FAB
102
}
330
FAB
100
AcDbScale
 70
     0
300
1:10
140
1.0
141
10.0
290
     0
  0
SCALE
  5
FB2
102
{ACAD_REACTORS
330
FAB
102
}
330
FAB
100
AcDbScale
 70
     0
300
1:16
140
1.0
141
16.0
290
     0
  0
SCALE
  5
FB3
102
{ACAD_REACTORS
330
FAB
102
}
330
FAB
100
AcDbScale
 70
     0
300
1:20
140
1.0
141
20.0
290
     0
  0
SCALE
  5
FB4
102
{ACAD_REACTORS
330
FAB
102
}
330
FAB
100
AcDbScale
 70
     0
300
1:30
140
1.0
141
30.0
290
     0
  0
SCALE
  5
FB5
102
{ACAD_REACTORS
330
FAB
102
}
330
FAB
100
AcDbScale
 70
     0
300
1:40
140
1.0
141
40.0
290
     0
  0
SCALE
  5
FB6
102
{ACAD_REACTORS
330
FAB
102
}
330
FAB
100
AcDbScale
 70
     0
300
1:50
140
1.0
141
50.0
290
     0
  0
SCALE
  5
FB7
102
{ACAD_REACTORS
330
FAB
102
}
330
FAB
100
AcDbScale
 70
     0
300
1:100
140
1.0
141
100.0
290
     0
  0
SCALE
  5
FB8
102
{ACAD_REACTORS
330
FAB
102
}
330
FAB
100
AcDbScale
 70
     0
300
2:1
140
2.0
141
1.0
290
     0
  0
SCALE
  5
FB9
102
{ACAD_REACTORS
330
FAB
102
}
330
FAB
100
AcDbScale
 70
     0
300
4:1
140
4.0
141
1.0
290
     0
  0
SCALE
  5
FBA
102
{ACAD_REACTORS
330
FAB
102
}
330
FAB
100
AcDbScale
 70
     0
300
8:1
140
8.0
141
1.0
290
     0
  0
SCALE
  5
FBB
102
{ACAD_REACTORS
330
FAB
102
}
330
FAB
100
AcDbScale
 70
     0
300
10:1
140
10.0
141
1.0
290
     0
  0
SCALE
  5
FBC
102
{ACAD_REACTORS
330
FAB
102
}
330
FAB
100
AcDbScale
 70
     0
300
100:1
140
100.0
141
1.0
290
     0
  0
SCALE
  5
FBD
102
{ACAD_REACTORS
330
FAB
102
}
330
FAB
100
AcDbScale
 70
     0
300
1/128" = 1'-0"
140
0.0078125
141
12.0
290
     0
  0
SCALE
  5
FBE
102
{ACAD_REACTORS
330
FAB
102
}
330
FAB
100
AcDbScale
 70
     0
300
1/64" = 1'-0"
140
0.015625
141
12.0
290
     0
  0
SCALE
  5
FBF
102
{ACAD_REACTORS
330
FAB
102
}
330
FAB
100
AcDbScale
 70
     0
300
1/32" = 1'-0"
140
0.03125
141
12.0
290
     0
  0
SCALE
  5
FC0
102
{ACAD_REACTORS
330
FAB
102
}
330
FAB
100
AcDbScale
 70
     0
300
1/16" = 1'-0"
140
0.0625
141
12.0
290
     0
  0
SCALE
  5
FC1
102
{ACAD_REACTORS
330
FAB
102
}
330
FAB
100
AcDbScale
 70
     0
300
3/32" = 1'-0"
140
0.09375
141
12.0
290
     0
  0
SCALE
  5
FC2
102
{ACAD_REACTORS
330
FAB
102
}
330
FAB
100
AcDbScale
 70
     0
300
1/8" = 1'-0"
140
0.125
141
12.0
290
     0
  0
SCALE
  5
FC3
102
{ACAD_REACTORS
330
FAB
102
}
330
FAB
100
AcDbScale
 70
     0
300
3/16" = 1'-0"
140
0.1875
141
12.0
290
     0
  0
SCALE
  5
FC4
102
{ACAD_REACTORS
330
FAB
102
}
330
FAB
100
AcDbScale
 70
     0
300
1/4" = 1'-0"
140
0.25
141
12.0
290
     0
  0
SCALE
  5
FC5
102
{ACAD_REACTORS
330
FAB
102
}
330
FAB
100
AcDbScale
 70
     0
300
3/8" = 1'-0"
140
0.375
141
12.0
290
     0
  0
SCALE
  5
FC6
102
{ACAD_REACTORS
330
FAB
102
}
330
FAB
100
AcDbScale
 70
     0
300
1/2" = 1'-0"
140
0.5
141
12.0
290
     0
  0
SCALE
  5
FC7
102
{ACAD_REACTORS
330
FAB
102
}
330
FAB
100
AcDbScale
 70
     0
300
3/4" = 1'-0"
140
0.75
141
12.0
290
     0
  0
SCALE
  5
FC8
102
{ACAD_REACTORS
330
FAB
102
}
330
FAB
100
AcDbScale
 70
     0
300
1" = 1'-0"
140
1.0
141
12.0
290
     0
  0
SCALE
  5
FC9
102
{ACAD_REACTORS
330
FAB
102
}
330
FAB
100
AcDbScale
 70
     0
300
1-1/2" = 1'-0"
140
1.5
141
12.0
290
     0
  0
SCALE
  5
FCA
102
{ACAD_REACTORS
330
FAB
102
}
330
FAB
100
AcDbScale
 70
     0
300
3" = 1'-0"
140
3.0
141
12.0
290
     0
  0
SCALE
  5
FCB
102
{ACAD_REACTORS
330
FAB
102
}
330
FAB
100
AcDbScale
 70
     0
300
6" = 1'-0"
140
6.0
141
12.0
290
     0
  0
SCALE
  5
FCC
102
{ACAD_REACTORS
330
FAB
102
}
330
FAB
100
AcDbScale
 70
     0
300
1'-0" = 1'-0"
140
12.0
141
12.0
290
     0
  0
TABLESTYLE
  5
FA9
102
{ACAD_XDICTIONARY
360
FF8
102
}
102
{ACAD_REACTORS
330
FA8
102
}
330
FA8
100
AcDbTableStyle
  3
Standard
 70
     0
 71
     0
 40
0.06
 41
0.06
280
     0
281
     0
  7
Standard
140
0.18
170
     2
 62
     0
 63
     7
283
     0
274
    -2
284
     1
 64
     0
275
    -2
285
     1
 65
     0
276
    -2
286
     1
 66
     0
277
    -2
287
     1
 67
     0
278
    -2
288
     1
 68
     0
279
    -2
289
     1
 69
     0
  7
Standard
140
0.25
170
     5
 62
     0
 63
     7
283
     0
274
    -2
284
     1
 64
     0
275
    -2
285
     1
 65
     0
276
    -2
286
     1
 66
     0
277
    -2
287
     1
 67
     0
278
    -2
288
     1
 68
     0
279
    -2
289
     1
 69
     0
  7
Standard
140
0.18
170
     5
 62
     0
 63
     7
283
     0
274
    -2
284
     1
 64
     0
275
    -2
285
     1
 65
     0
276
    -2
286
     1
 66
     0
277
    -2
287
     1
 67
     0
278
    -2
288
     1
 68
     0
279
    -2
289
     1
 69
     0
  0
VISUALSTYLE
  5
F99
102
{ACAD_XDICTIONARY
360
F109F2
102
}
102
{ACAD_REACTORS
330
F93
102
}
330
F93
100
AcDbVisualStyle
  2

 70
     4
 71
     0
 72
     2
 73
     0
 90
        0
 40
-0.6
 41
-30.0
 62
     5
 63
     7
 74
     1
 91
        4
 64
     7
 65
   257
 75
     1
175
     1
 42
1.0
 92
        0
 66
   257
 43
1.0
 76
     1
 77
     6
 78
     2
 67
     7
 79
     5
170
     0
171
     0
290
     0
174
     0
 93
        1
 44
0.0
173
     0
291
     0
 45
0.0
1001
ACAD
1000
AcDbSavedByObjectVersion
1070
     0
  0
VISUALSTYLE
  5
F9B
102
{ACAD_XDICTIONARY
360
F109F6
102
}
102
{ACAD_REACTORS
330
F93
102
}
330
F93
100
AcDbVisualStyle
  2

 70
     6
 71
     1
 72
     2
 73
     2
 90
        0
 40
-0.6
 41
-30.0
 62
     5
 63
     7
 74
     2
 91
        2
 64
     7
 65
   257
 75
     2
175
     1
 42
179.0
 92
        0
 66
   257
 43
1.0
 76
     1
 77
     6
 78
     2
 67
     7
 79
     3
170
     0
171
     0
290
     0
174
     0
 93
        1
 44
0.0
173
     0
291
     0
 45
0.0
1001
ACAD
1000
AcDbSavedByObjectVersion
1070
     0
  0
VISUALSTYLE
  5
F9A
102
{ACAD_XDICTIONARY
360
F109F4
102
}
102
{ACAD_REACTORS
330
F93
102
}
330
F93
100
AcDbVisualStyle
  2

 70
     5
 71
     0
 72
     2
 73
     0
 90
        0
 40
-0.6
 41
-30.0
 62
     5
 63
     7
 74
     1
 91
        4
 64
     7
 65
   257
 75
     1
175
     1
 42
1.0
 92
        0
 66
   257
 43
1.0
 76
     1
 77
     6
 78
     2
 67
     7
 79
     5
170
     0
171
     0
290
     0
174
     0
 93
        1
 44
0.0
173
     0
291
     0
 45
0.0
1001
ACAD
1000
AcDbSavedByObjectVersion
1070
     0
  0
VISUALSTYLE
  5
F98
102
{ACAD_XDICTIONARY
360
F109F0
102
}
102
{ACAD_REACTORS
330
F93
102
}
330
F93
100
AcDbVisualStyle
  2

 70
     7
 71
     1
 72
     0
 73
     1
 90
        0
 40
-0.6
 41
-30.0
 62
     5
 63
     7
 74
     0
 91
        4
 64
     7
 65
   257
 75
     1
175
     1
 42
1.0
 92
        8
 66
     7
 43
1.0
 76
     1
 77
     6
 78
     2
 67
     7
 79
     5
170
     0
171
     0
290
     0
174
     0
 93
        1
 44
0.0
173
     0
291
     1
 45
0.0
1001
ACAD
1000
AcDbSavedByObjectVersion
1070
     0
  0
VISUALSTYLE
  5
F9F
102
{ACAD_XDICTIONARY
360
F109FE
102
}
102
{ACAD_REACTORS
330
F93
102
}
330
F93
100
AcDbVisualStyle
  2

 70
    12
 71
     2
 72
     2
 73
     0
 90
        0
 40
-0.6
 41
-30.0
 62
     5
 63
     7
 74
     1
 91
        4
 64
     7
 65
   257
 75
     1
175
     1
 42
1.0
 92
        8
 66
     7
 43
1.0
 76
     1
 77
     6
 78
     2
 67
     7
 79
     5
170
     0
171
     0
290
     0
174
     0
 93
        1
 44
50.0
173
     0
291
     1
 45
0.0
1001
ACAD
1000
AcDbSavedByObjectVersion
1070
     0
  0
VISUALSTYLE
  5
FA3
102
{ACAD_XDICTIONARY
360
F10A06
102
}
102
{ACAD_REACTORS
330
F93
102
}
330
F93
100
AcDbVisualStyle
  2

 70
    16
 71
     2
 72
     2
 73
     3
 90
        0
 40
-0.6
 41
-30.0
 62
     5
 63
     8
 74
     1
 91
        4
 64
     7
 65
   257
 75
     1
175
     1
 42
1.0
 92
        8
 66
     8
 43
1.0
 76
     1
 77
     6
 78
     2
 67
     7
 79
     5
170
     0
171
     0
290
     0
174
     0
 93
        1
 44
0.0
173
     0
291
     1
 45
0.0
1001
ACAD
1000
AcDbSavedByObjectVersion
1070
     0
  0
VISUALSTYLE
  5
F9C
102
{ACAD_XDICTIONARY
360
F109F8
102
}
102
{ACAD_REACTORS
330
F93
102
}
330
F93
100
AcDbVisualStyle
  2

 70
     9
 71
     3
 72
     2
 73
     0
 90
        0
 40
-0.6
 41
-30.0
 62
     5
 63
     7
 74
     2
 91
        2
 64
     7
 65
   257
 75
     1
175
     1
 42
179.0
 92
        8
 66
     7
 43
1.0
 76
     1
 77
     6
 78
     2
 67
     7
 79
     3
170
     0
171
     0
290
     0
174
     0
 93
        1
 44
0.0
173
     0
291
     0
 45
0.0
1001
ACAD
1000
AcDbSavedByObjectVersion
1070
     0
  0
VISUALSTYLE
  5
F9E
102
{ACAD_XDICTIONARY
360
F109FC
102
}
102
{ACAD_REACTORS
330
F93
102
}
330
F93
100
AcDbVisualStyle
  2

 70
    11
 71
     2
 72
     2
 73
     0
 90
        0
 40
-0.6
 41
-30.0
 62
     5
 63
     7
 74
     1
 91
        4
 64
     7
 65
   257
 75
     1
175
     1
 42
1.0
 92
        8
 66
     7
 43
1.0
 76
     1
 77
     6
 78
     2
 67
     7
 79
     5
170
     0
171
     0
290
     0
174
     0
 93
        1
 44
-50.0
173
     0
291
     1
 45
0.0
1001
ACAD
1000
AcDbSavedByObjectVersion
1070
     0
  0
VISUALSTYLE
  5
FA6
102
{ACAD_XDICTIONARY
360
F10A0C
102
}
102
{ACAD_REACTORS
330
F93
102
}
330
F93
100
AcDbVisualStyle
  2

 70
    22
 71
     2
 72
     2
 73
     0
 90
        0
 40
-0.6
 41
-30.0
 62
     5
 63
     7
 74
     1
 91
        4
 64
     7
 65
   257
 75
     1
175
     1
 42
1.0
 92
        8
 66
     7
 43
1.0
 76
     1
 77
     6
 78
     2
 67
     7
 79
     5
170
     0
171
     0
290
     0
174
     0
 93
        1
 44
0.0
173
     0
291
     1
 45
0.0
1001
ACAD
1000
AcDbSavedByObjectVersion
1070
     0
  0
VISUALSTYLE
  5
FA2
102
{ACAD_XDICTIONARY
360
F10A04
102
}
102
{ACAD_REACTORS
330
F93
102
}
330
F93
100
AcDbVisualStyle
  2

 70
    15
 71
     2
 72
     2
 73
     0
 90
        0
 40
-0.6
 41
-30.0
 62
     5
 63
     7
 74
     1
 91
        4
 64
     7
 65
   257
 75
     1
175
     1
 42
1.0
 92
        8
 66
     7
 43
1.0
 76
     1
 77
     6
 78
     2
 67
     7
 79
     5
170
     0
171
     0
290
     0
174
     0
 93
        1
 44
0.0
173
     0
291
     1
 45
0.0
1001
ACAD
1000
AcDbSavedByObjectVersion
1070
     0
  0
VISUALSTYLE
  5
F94
102
{ACAD_XDICTIONARY
360
F109E8
102
}
102
{ACAD_REACTORS
330
F93
102
}
330
F93
100
AcDbVisualStyle
  2

 70
     0
 71
     2
 72
     1
 73
     1
 90
        2
 40
-0.6
 41
30.0
 62
     5
 63
     7
 74
     0
 91
        4
 64
     7
 65
   257
 75
     1
175
     1
 42
1.0
 92
        8
 66
     7
 43
1.0
 76
     1
 77
     6
 78
     2
 67
     7
 79
     5
170
     0
171
     0
290
     0
174
     0
 93
       13
 44
0.0
173
     0
291
     1
 45
0.0
1001
ACAD
1000
AcDbSavedByObjectVersion
1070
     0
  0
VISUALSTYLE
  5
F95
102
{ACAD_XDICTIONARY
360
F109EA
102
}
102
{ACAD_REACTORS
330
F93
102
}
330
F93
100
AcDbVisualStyle
  2

 70
     1
 71
     2
 72
     1
 73
     1
 90
        2
 40
-0.6
 41
30.0
 62
     5
 63
     7
 74
     1
 91
        4
 64
     7
 65
   257
 75
     1
175
     1
 42
1.0
 92
        0
 66
   257
 43
1.0
 76
     1
 77
     6
 78
     2
 67
     7
 79
     5
170
     0
171
     0
290
     0
174
     0
 93
       13
 44
0.0
173
     0
291
     1
 45
0.0
1001
ACAD
1000
AcDbSavedByObjectVersion
1070
     0
  0
VISUALSTYLE
  5
F96
102
{ACAD_XDICTIONARY
360
F109EC
102
}
102
{ACAD_REACTORS
330
F93
102
}
330
F93
100
AcDbVisualStyle
  2

 70
     2
 71
     2
 72
     2
 73
     1
 90
        2
 40
-0.6
 41
30.0
 62
     5
 63
     7
 74
     0
 91
        4
 64
     7
 65
   257
 75
     1
175
     1
 42
1.0
 92
        0
 66
     7
 43
1.0
 76
     1
 77
     6
 78
     2
 67
     7
 79
     5
170
     0
171
     0
290
     0
174
     0
 93
       13
 44
0.0
173
     0
291
     1
 45
0.0
1001
ACAD
1000
AcDbSavedByObjectVersion
1070
     0
  0
VISUALSTYLE
  5
F97
102
{ACAD_XDICTIONARY
360
F109EE
102
}
102
{ACAD_REACTORS
330
F93
102
}
330
F93
100
AcDbVisualStyle
  2

 70
     3
 71
     2
 72
     2
 73
     1
 90
        2
 40
-0.6
 41
30.0
 62
     5
 63
     7
 74
     1
 91
        4
 64
     7
 65
   257
 75
     1
175
     1
 42
1.0
 92
        0
 66
   257
 43
1.0
 76
     1
 77
     6
 78
     2
 67
     7
 79
     5
170
     0
171
     0
290
     0
174
     0
 93
       13
 44
0.0
173
     0
291
     1
 45
0.0
1001
ACAD
1000
AcDbSavedByObjectVersion
1070
     0
  0
VISUALSTYLE
  5
F1072A
102
{ACAD_XDICTIONARY
360
F10A15
102
}
102
{ACAD_REACTORS
330
F93
102
}
330
F93
100
AcDbVisualStyle
  2

 70
     6
 71
     1
 72
     2
 73
     2
 90
        0
 40
-0.6
 41
-30.0
 62
     5
 63
     7
 74
     2
 91
        2
 64
     7
 65
   257
 75
     2
175
     1
 42
40.0
 92
        0
 66
   257
 43
1.0
 76
     1
 77
     6
 78
     2
 67
     7
 79
     3
170
     0
171
     0
290
     0
174
     0
 93
        1
 44
0.0
173
     0
291
     0
 45
0.0
1001
ACAD
1000
AcDbSavedByObjectVersion
1070
     0
  0
VISUALSTYLE
  5
FA4
102
{ACAD_XDICTIONARY
360
F10A08
102
}
102
{ACAD_REACTORS
330
F93
102
}
330
F93
100
AcDbVisualStyle
  2

 70
    20
 71
     2
 72
     2
 73
     0
 90
        0
 40
-0.6
 41
-30.0
 62
     5
 63
     7
 74
     1
 91
        4
 64
     7
 65
   257
 75
     1
175
     1
 42
1.0
 92
       10
 66
     7
 43
1.0
 76
     1
 77
     6
 78
     2
 67
     7
 79
     5
170
     0
171
     0
290
     0
174
     0
 93
        1
 44
0.0
173
     0
291
     1
 45
0.0
1001
ACAD
1000
AcDbSavedByObjectVersion
1070
     0
  0
VISUALSTYLE
  5
FA1
102
{ACAD_XDICTIONARY
360
F10A02
102
}
102
{ACAD_REACTORS
330
F93
102
}
330
F93
100
AcDbVisualStyle
  2

 70
    14
 71
     2
 72
     2
 73
     0
 90
        0
 40
-0.6
 41
-30.0
 62
     5
 63
     7
 74
     1
 91
        4
 64
     7
 65
   257
 75
     7
175
     7
 42
1.0
 92
        8
 66
     7
 43
1.0
 76
     1
 77
     6
 78
     2
 67
     7
 79
     5
170
     0
171
     0
290
     0
174
     0
 93
        1
 44
0.0
173
     0
291
     1
 45
0.0
1001
ACAD
1000
AcDbSavedByObjectVersion
1070
     0
  0
VISUALSTYLE
  5
FA5
102
{ACAD_XDICTIONARY
360
F10A0A
102
}
102
{ACAD_REACTORS
330
F93
102
}
330
F93
100
AcDbVisualStyle
  2

 70
    21
 71
     2
 72
     2
 73
     0
 90
        0
 40
-0.6
 41
-30.0
 62
     5
 63
     7
 74
     1
 91
        4
 64
     7
 65
   257
 75
     1
175
     1
 42
1.0
 92
        9
 66
     7
 43
1.0
 76
     1
 77
     6
 78
     2
 67
     7
 79
     5
170
     0
171
     0
290
     0
174
     0
 93
        1
 44
0.0
173
     0
291
     1
 45
0.0
1001
ACAD
1000
AcDbSavedByObjectVersion
1070
     0
  0
VISUALSTYLE
  5
F9D
102
{ACAD_XDICTIONARY
360
F109FA
102
}
102
{ACAD_REACTORS
330
F93
102
}
330
F93
100
AcDbVisualStyle
  2

 70
     8
 71
     2
 72
     2
 73
     0
 90
        0
 40
-0.6
 41
-30.0
 62
     5
 63
     7
 74
     1
 91
        0
 64
     7
 65
   257
 75
     1
175
     1
 42
1.0
 92
        8
 66
     8
 43
1.0
 76
     1
 77
     6
 78
     2
 67
     7
 79
     5
170
     0
171
     0
290
     0
174
     0
 93
       13
 44
0.0
173
     0
291
     0
 45
0.0
1001
ACAD
1000
AcDbSavedByObjectVersion
1070
     0
  0
VISUALSTYLE
  5
F1072F
102
{ACAD_XDICTIONARY
360
F10A1F
102
}
102
{ACAD_REACTORS
330
F93
102
}
330
F93
100
AcDbVisualStyle
  2

 70
    27
 71
     2
 72
     2
 73
     1
 90
        2
 40
-0.6
 41
30.0
 62
     5
 63
     7
 74
     0
 91
        4
 64
     7
 65
   257
 75
     1
175
     1
 42
1.0
 92
        8
 66
   257
 43
1.0
 76
     1
 77
     6
 78
     2
 67
     8
 79
     3
170
     0
171
     0
290
     0
174
     0
 93
        5
 44
0.0
173
     0
291
     0
 45
0.0
1001
ACAD
1000
AcDbSavedByObjectVersion
1070
     0
  0
VISUALSTYLE
  5
F1072E
102
{ACAD_XDICTIONARY
360
F10A1D
102
}
102
{ACAD_REACTORS
330
F93
102
}
330
F93
100
AcDbVisualStyle
  2

 70
    26
 71
     2
 72
     2
 73
     1
 90
        2
 40
-0.6
 41
30.0
 62
     5
 63
     7
 74
     1
 91
       10
 64
     7
 65
   257
 75
     2
175
     1
 42
1.0
 92
        8
 66
   257
 43
1.0
 76
     1
 77
     6
 78
     2
 67
     7
 79
     3
170
     0
171
     0
290
     0
174
     0
 93
        5
 44
0.0
173
     0
291
     0
 45
0.0
1001
ACAD
1000
AcDbSavedByObjectVersion
1070
     0
  0
VISUALSTYLE
  5
F1072B
102
{ACAD_XDICTIONARY
360
F10A17
102
}
102
{ACAD_REACTORS
330
F93
102
}
330
F93
100
AcDbVisualStyle
  2

 70
    23
 71
     2
 72
     2
 73
     3
 90
        0
 40
-0.6
 41
-30.0
 62
     5
 63
     7
 74
     2
 91
        2
 64
     7
 65
     7
 75
     1
175
     1
 42
40.0
 92
        8
 66
     7
 43
1.0
 76
     1
 77
     6
 78
     2
 67
     7
 79
     3
170
     0
171
     0
290
     0
174
     0
 93
        1
 44
0.0
173
     0
291
     0
 45
0.0
1001
ACAD
1000
AcDbSavedByObjectVersion
1070
     0
  0
VISUALSTYLE
  5
F1072C
102
{ACAD_XDICTIONARY
360
F10A19
102
}
102
{ACAD_REACTORS
330
F93
102
}
330
F93
100
AcDbVisualStyle
  2

 70
    24
 71
     1
 72
     2
 73
     2
 90
        0
 40
-0.6
 41
-30.0
 62
     5
 63
     7
 74
     2
 91
        2
 64
     7
 65
     7
 75
     1
175
     1
 42
40.0
 92
       11
 66
     7
 43
1.0
 76
     1
 77
     6
 78
     2
 67
     7
 79
     6
170
     0
171
     0
290
     0
174
     0
 93
        1
 44
0.0
173
     0
291
     0
 45
0.0
1001
ACAD
1000
AcDbSavedByObjectVersion
1070
     0
  0
VISUALSTYLE
  5
FA0
102
{ACAD_XDICTIONARY
360
F10A00
102
}
102
{ACAD_REACTORS
330
F93
102
}
330
F93
100
AcDbVisualStyle
  2

 70
    13
 71
     2
 72
     2
 73
     0
 90
        0
 40
-0.6
 41
-30.0
 62
     5
 63
     7
 74
     1
 91
        4
 64
     7
 65
   257
 75
     1
175
     1
 42
1.0
 92
       12
 66
     7
 43
1.0
 76
     1
 77
     6
 78
     2
 67
     7
 79
     5
170
     0
171
     0
290
     0
174
     0
 93
        1
 44
0.0
173
     0
291
     1
 45
0.0
1001
ACAD
1000
AcDbSavedByObjectVersion
1070
     0
  0
VISUALSTYLE
  5
F10729
102
{ACAD_XDICTIONARY
360
F10A13
102
}
102
{ACAD_REACTORS
330
F93
102
}
330
F93
100
AcDbVisualStyle
  2

 70
     5
 71
     0
 72
     2
 73
     0
 90
        0
 40
-0.6
 41
-30.0
 62
     5
 63
     7
 74
     1
 91
        4
 64
     7
 65
   257
 75
     1
175
     1
 42
1.0
 92
        0
 66
   257
 43
1.0
 76
     1
 77
     6
 78
     2
 67
     7
 79
     3
170
     0
171
     0
290
     0
174
     0
 93
        1
 44
0.0
173
     0
291
     0
 45
0.0
1001
ACAD
1000
AcDbSavedByObjectVersion
1070
     0
  0
VISUALSTYLE
  5
F1072D
102
{ACAD_XDICTIONARY
360
F10A1B
102
}
102
{ACAD_REACTORS
330
F93
102
}
330
F93
100
AcDbVisualStyle
  2

 70
    25
 71
     2
 72
     2
 73
     1
 90
        1
 40
0.5
 41
-30.0
 62
     5
 63
     7
 74
     1
 91
        0
 64
     7
 65
   257
 75
     1
175
     1
 42
1.0
 92
        8
 66
     7
 43
1.0
 76
     1
 77
     6
 78
     2
 67
     7
 79
     3
170
     0
171
     0
290
     0
174
     0
 93
       13
 44
0.0
173
     0
291
     0
 45
0.0
1001
ACAD
1000
AcDbSavedByObjectVersion
1070
     0
  0
DICTIONARYVAR
  5
F10917
102
{ACAD_REACTORS
330
F10914
102
}
330
F10914
100
DictionaryVariables
280
     0
  1
1:1
  0
DICTIONARYVAR
  5
F10916
102
{ACAD_REACTORS
330
F10914
102
}
330
F10914
100
DictionaryVariables
280
     0
  1
STANDARD
  0
DICTIONARYVAR
  5
F10915
102
{ACAD_REACTORS
330
F10914
102
}
330
F10914
100
DictionaryVariables
280
     0
  1
STANDARD
  0
DICTIONARYVAR
  5
F1091A
102
{ACAD_REACTORS
330
F10914
102
}
330
F10914
100
DictionaryVariables
280
     0
  1
1
  0
DICTIONARYVAR
  5
F10919
102
{ACAD_REACTORS
330
F10914
102
}
330
F10914
100
DictionaryVariables
280
     0
  1
0
  0
DICTIONARYVAR
  5
F10918
102
{ACAD_REACTORS
330
F10914
102
}
330
F10914
100
DictionaryVariables
280
     0
  1
127
  0
DICTIONARYVAR
  5
F109D7
102
{ACAD_REACTORS
330
F10914
102
}
330
F10914
100
DictionaryVariables
280
     0
  1
2
  0
DICTIONARY
  5
F10789
102
{ACAD_REACTORS
330
F1077E
102
}
330
F1077E
100
AcDbDictionary
281
     1
  0
DICTIONARY
  5
F10A11
330
FD1
100
AcDbDictionary
280
     1
281
     1
  3
ACAD_XREC_ROUNDTRIP
360
F10A12
  0
DICTIONARY
  5
F10A0F
330
FD0
100
AcDbDictionary
280
     1
281
     1
  3
ACAD_XREC_ROUNDTRIP
360
F10A10
  0
DICTIONARY
  5
F84
330
F83
100
AcDbDictionary
280
     1
281
     1
  3
ACAD_XREC_ROUNDTRIP
360
FFF
  3
BUMPTILE
360
F86
  3
DIFFUSETILE
360
F85
  3
OPACITYTILE
360
F89
  3
REFLECTIONTILE
360
F88
  3
REFRACTIONTILE
360
F8A
  3
SPECULARTILE
360
F87
  0
DICTIONARY
  5
F7C
330
F7B
100
AcDbDictionary
280
     1
281
     1
  3
ACAD_XREC_ROUNDTRIP
360
FFE
  3
BUMPTILE
360
F7E
  3
DIFFUSETILE
360
F7D
  3
OPACITYTILE
360
F81
  3
REFLECTIONTILE
360
F80
  3
REFRACTIONTILE
360
F82
  3
SPECULARTILE
360
F7F
  0
DICTIONARY
  5
F8C
330
F8B
100
AcDbDictionary
280
     1
281
     1
  3
ACAD_XREC_ROUNDTRIP
360
1000
  3
BUMPTILE
360
F8E
  3
DIFFUSETILE
360
F8D
  3
OPACITYTILE
360
F91
  3
REFLECTIONTILE
360
F90
  3
REFRACTIONTILE
360
F92
  3
SPECULARTILE
360
F8F
  0
DICTIONARY
  5
FF8
330
FA9
100
AcDbDictionary
280
     1
281
     1
  3
ACAD_ROUNDTRIP_2008_TABLESTYLE_CELLSTYLEMAP
360
F109D8
  3
ACAD_XREC_ROUNDTRIP
360
F10A0E
  0
DICTIONARY
  5
F109F2
330
F99
100
AcDbDictionary
280
     1
281
     1
  3
ACAD_XREC_ROUNDTRIP
360
F109F3
  0
DICTIONARY
  5
F109F6
330
F9B
100
AcDbDictionary
280
     1
281
     1
  3
ACAD_XREC_ROUNDTRIP
360
F109F7
  0
DICTIONARY
  5
F109F4
330
F9A
100
AcDbDictionary
280
     1
281
     1
  3
ACAD_XREC_ROUNDTRIP
360
F109F5
  0
DICTIONARY
  5
F109F0
330
F98
100
AcDbDictionary
280
     1
281
     1
  3
ACAD_XREC_ROUNDTRIP
360
F109F1
  0
DICTIONARY
  5
F109FE
330
F9F
100
AcDbDictionary
280
     1
281
     1
  3
ACAD_XREC_ROUNDTRIP
360
F109FF
  0
DICTIONARY
  5
F10A06
330
FA3
100
AcDbDictionary
280
     1
281
     1
  3
ACAD_XREC_ROUNDTRIP
360
F10A07
  0
DICTIONARY
  5
F109F8
330
F9C
100
AcDbDictionary
280
     1
281
     1
  3
ACAD_XREC_ROUNDTRIP
360
F109F9
  0
DICTIONARY
  5
F109FC
330
F9E
100
AcDbDictionary
280
     1
281
     1
  3
ACAD_XREC_ROUNDTRIP
360
F109FD
  0
DICTIONARY
  5
F10A0C
330
FA6
100
AcDbDictionary
280
     1
281
     1
  3
ACAD_XREC_ROUNDTRIP
360
F10A0D
  0
DICTIONARY
  5
F10A04
330
FA2
100
AcDbDictionary
280
     1
281
     1
  3
ACAD_XREC_ROUNDTRIP
360
F10A05
  0
DICTIONARY
  5
F109E8
330
F94
100
AcDbDictionary
280
     1
281
     1
  3
ACAD_XREC_ROUNDTRIP
360
F109E9
  0
DICTIONARY
  5
F109EA
330
F95
100
AcDbDictionary
280
     1
281
     1
  3
ACAD_XREC_ROUNDTRIP
360
F109EB
  0
DICTIONARY
  5
F109EC
330
F96
100
AcDbDictionary
280
     1
281
     1
  3
ACAD_XREC_ROUNDTRIP
360
F109ED
  0
DICTIONARY
  5
F109EE
330
F97
100
AcDbDictionary
280
     1
281
     1
  3
ACAD_XREC_ROUNDTRIP
360
F109EF
  0
DICTIONARY
  5
F10A15
330
F1072A
100
AcDbDictionary
280
     1
281
     1
  3
ACAD_XREC_ROUNDTRIP
360
F10A16
  0
DICTIONARY
  5
F10A08
330
FA4
100
AcDbDictionary
280
     1
281
     1
  3
ACAD_XREC_ROUNDTRIP
360
F10A09
  0
DICTIONARY
  5
F10A02
330
FA1
100
AcDbDictionary
280
     1
281
     1
  3
ACAD_XREC_ROUNDTRIP
360
F10A03
  0
DICTIONARY
  5
F10A0A
330
FA5
100
AcDbDictionary
280
     1
281
     1
  3
ACAD_XREC_ROUNDTRIP
360
F10A0B
  0
DICTIONARY
  5
F109FA
330
F9D
100
AcDbDictionary
280
     1
281
     1
  3
ACAD_XREC_ROUNDTRIP
360
F109FB
  0
DICTIONARY
  5
F10A1F
330
F1072F
100
AcDbDictionary
280
     1
281
     1
  3
ACAD_XREC_ROUNDTRIP
360
F10A20
  0
DICTIONARY
  5
F10A1D
330
F1072E
100
AcDbDictionary
280
     1
281
     1
  3
ACAD_XREC_ROUNDTRIP
360
F10A1E
  0
DICTIONARY
  5
F10A17
330
F1072B
100
AcDbDictionary
280
     1
281
     1
  3
ACAD_XREC_ROUNDTRIP
360
F10A18
  0
DICTIONARY
  5
F10A19
330
F1072C
100
AcDbDictionary
280
     1
281
     1
  3
ACAD_XREC_ROUNDTRIP
360
F10A1A
  0
DICTIONARY
  5
F10A00
330
FA0
100
AcDbDictionary
280
     1
281
     1
  3
ACAD_XREC_ROUNDTRIP
360
F10A01
  0
DICTIONARY
  5
F10A13
330
F10729
100
AcDbDictionary
280
     1
281
     1
  3
ACAD_XREC_ROUNDTRIP
360
F10A14
  0
DICTIONARY
  5
F10A1B
330
F1072D
100
AcDbDictionary
280
     1
281
     1
  3
ACAD_XREC_ROUNDTRIP
360
F10A1C
  0
XRECORD
  5
F10A12
102
{ACAD_REACTORS
330
F10A11
102
}
330
F10A11
100
AcDbXrecord
280
     1
102
SHADEPLOT
 70
     0
102
SHADEPLOTRESLEVEL
 70
     2
102
SHADEPLOTCUSTOMDPI
 70
   300
  0
XRECORD
  5
F10A10
102
{ACAD_REACTORS
330
F10A0F
102
}
330
F10A0F
100
AcDbXrecord
280
     1
102
SHADEPLOT
 70
     0
102
SHADEPLOTRESLEVEL
 70
     2
102
SHADEPLOTCUSTOMDPI
 70
   300
  0
XRECORD
  5
FFF
102
{ACAD_REACTORS
330
F84
102
}
330
F84
100
AcDbXrecord
280
     1
102
MATERIAL
148
0.0
149
0.0
149
0.0
 93
        0
 94
      127
282
     0
 72
     0
 77
     0
171
     0
175
     0
179
     0
273
     0
  0
XRECORD
  5
F86
102
{ACAD_REACTORS
330
F84
102
}
330
F84
100
AcDbXrecord
280
     1
270
     1
271
     1
  0
XRECORD
  5
F85
102
{ACAD_REACTORS
330
F84
102
}
330
F84
100
AcDbXrecord
280
     1
270
     1
271
     1
  0
XRECORD
  5
F89
102
{ACAD_REACTORS
330
F84
102
}
330
F84
100
AcDbXrecord
280
     1
270
     1
271
     1
  0
XRECORD
  5
F88
102
{ACAD_REACTORS
330
F84
102
}
330
F84
100
AcDbXrecord
280
     1
270
     1
271
     1
  0
XRECORD
  5
F8A
102
{ACAD_REACTORS
330
F84
102
}
330
F84
100
AcDbXrecord
280
     1
270
     1
271
     1
  0
XRECORD
  5
F87
102
{ACAD_REACTORS
330
F84
102
}
330
F84
100
AcDbXrecord
280
     1
270
     1
271
     1
  0
XRECORD
  5
FFE
102
{ACAD_REACTORS
330
F7C
102
}
330
F7C
100
AcDbXrecord
280
     1
102
MATERIAL
148
0.0
149
0.0
149
0.0
 93
        0
 94
      127
282
     0
 72
     0
 77
     0
171
     0
175
     0
179
     0
273
     0
  0
XRECORD
  5
F7E
102
{ACAD_REACTORS
330
F7C
102
}
330
F7C
100
AcDbXrecord
280
     1
270
     1
271
     1
  0
XRECORD
  5
F7D
102
{ACAD_REACTORS
330
F7C
102
}
330
F7C
100
AcDbXrecord
280
     1
270
     1
271
     1
  0
XRECORD
  5
F81
102
{ACAD_REACTORS
330
F7C
102
}
330
F7C
100
AcDbXrecord
280
     1
270
     1
271
     1
  0
XRECORD
  5
F80
102
{ACAD_REACTORS
330
F7C
102
}
330
F7C
100
AcDbXrecord
280
     1
270
     1
271
     1
  0
XRECORD
  5
F82
102
{ACAD_REACTORS
330
F7C
102
}
330
F7C
100
AcDbXrecord
280
     1
270
     1
271
     1
  0
XRECORD
  5
F7F
102
{ACAD_REACTORS
330
F7C
102
}
330
F7C
100
AcDbXrecord
280
     1
270
     1
271
     1
  0
XRECORD
  5
1000
102
{ACAD_REACTORS
330
F8C
102
}
330
F8C
100
AcDbXrecord
280
     1
102
MATERIAL
148
0.0
149
0.0
149
0.0
 93
        0
 94
      127
282
     0
 72
     0
 77
     0
171
     0
175
     0
179
     0
273
     0
  0
XRECORD
  5
F8E
102
{ACAD_REACTORS
330
F8C
102
}
330
F8C
100
AcDbXrecord
280
     1
270
     1
271
     1
  0
XRECORD
  5
F8D
102
{ACAD_REACTORS
330
F8C
102
}
330
F8C
100
AcDbXrecord
280
     1
270
     1
271
     1
  0
XRECORD
  5
F91
102
{ACAD_REACTORS
330
F8C
102
}
330
F8C
100
AcDbXrecord
280
     1
270
     1
271
     1
  0
XRECORD
  5
F90
102
{ACAD_REACTORS
330
F8C
102
}
330
F8C
100
AcDbXrecord
280
     1
270
     1
271
     1
  0
XRECORD
  5
F92
102
{ACAD_REACTORS
330
F8C
102
}
330
F8C
100
AcDbXrecord
280
     1
270
     1
271
     1
  0
XRECORD
  5
F8F
102
{ACAD_REACTORS
330
F8C
102
}
330
F8C
100
AcDbXrecord
280
     1
270
     1
271
     1
  0
CELLSTYLEMAP
  5
F109D8
102
{ACAD_REACTORS
330
FF8
102
}
330
FF8
100
AcDbCellStyleMap
 90
        3
300
CELLSTYLE
  1
TABLEFORMAT_BEGIN
 90
        5
170
     1
 91
        0
 92
    32768
 62
   257
 93
        1
300
CONTENTFORMAT
  1
CONTENTFORMAT_BEGIN
 90
        0
 91
        0
 92
      512
 93
        0
300

 40
0.0
140
1.0
 94
        5
 62
     0
340
253
144
0.25
309
CONTENTFORMAT_END
171
     1
301
MARGIN
  1
CELLMARGIN_BEGIN
 40
0.06
 40
0.06
 40
0.06
 40
0.06
 40
0.18
 40
0.18
309
CELLMARGIN_END
 94
        6
 95
        1
302
GRIDFORMAT
  1
GRIDFORMAT_BEGIN
 90
        0
 91
        1
 62
     0
 92
       -2
340
0
 93
        0
 40
0.045
309
GRIDFORMAT_END
 95
        2
302
GRIDFORMAT
  1
GRIDFORMAT_BEGIN
 90
        0
 91
        1
 62
     0
 92
       -2
340
0
 93
        0
 40
0.045
309
GRIDFORMAT_END
 95
        4
302
GRIDFORMAT
  1
GRIDFORMAT_BEGIN
 90
        0
 91
        1
 62
     0
 92
       -2
340
0
 93
        0
 40
0.045
309
GRIDFORMAT_END
 95
        8
302
GRIDFORMAT
  1
GRIDFORMAT_BEGIN
 90
        0
 91
        1
 62
     0
 92
       -2
340
0
 93
        0
 40
0.045
309
GRIDFORMAT_END
 95
       16
302
GRIDFORMAT
  1
GRIDFORMAT_BEGIN
 90
        0
 91
        1
 62
     0
 92
       -2
340
0
 93
        0
 40
0.045
309
GRIDFORMAT_END
 95
       32
302
GRIDFORMAT
  1
GRIDFORMAT_BEGIN
 90
        0
 91
        1
 62
     0
 92
       -2
340
0
 93
        0
 40
0.045
309
GRIDFORMAT_END
309
TABLEFORMAT_END
  1
CELLSTYLE_BEGIN
 90
        1
 91
        1
300
_TITLE
309
CELLSTYLE_END
300
CELLSTYLE
  1
TABLEFORMAT_BEGIN
 90
        5
170
     1
 91
        0
 92
        0
 62
   257
 93
        1
300
CONTENTFORMAT
  1
CONTENTFORMAT_BEGIN
 90
        0
 91
        0
 92
      512
 93
        0
300

 40
0.0
140
1.0
 94
        5
 62
     0
340
253
144
0.18
309
CONTENTFORMAT_END
171
     1
301
MARGIN
  1
CELLMARGIN_BEGIN
 40
0.06
 40
0.06
 40
0.06
 40
0.06
 40
0.18
 40
0.18
309
CELLMARGIN_END
 94
        6
 95
        1
302
GRIDFORMAT
  1
GRIDFORMAT_BEGIN
 90
        0
 91
        1
 62
     0
 92
       -2
340
0
 93
        0
 40
0.045
309
GRIDFORMAT_END
 95
        2
302
GRIDFORMAT
  1
GRIDFORMAT_BEGIN
 90
        0
 91
        1
 62
     0
 92
       -2
340
0
 93
        0
 40
0.045
309
GRIDFORMAT_END
 95
        4
302
GRIDFORMAT
  1
GRIDFORMAT_BEGIN
 90
        0
 91
        1
 62
     0
 92
       -2
340
0
 93
        0
 40
0.045
309
GRIDFORMAT_END
 95
        8
302
GRIDFORMAT
  1
GRIDFORMAT_BEGIN
 90
        0
 91
        1
 62
     0
 92
       -2
340
0
 93
        0
 40
0.045
309
GRIDFORMAT_END
 95
       16
302
GRIDFORMAT
  1
GRIDFORMAT_BEGIN
 90
        0
 91
        1
 62
     0
 92
       -2
340
0
 93
        0
 40
0.045
309
GRIDFORMAT_END
 95
       32
302
GRIDFORMAT
  1
GRIDFORMAT_BEGIN
 90
        0
 91
        1
 62
     0
 92
       -2
340
0
 93
        0
 40
0.045
309
GRIDFORMAT_END
309
TABLEFORMAT_END
  1
CELLSTYLE_BEGIN
 90
        2
 91
        1
300
_HEADER
309
CELLSTYLE_END
300
CELLSTYLE
  1
TABLEFORMAT_BEGIN
 90
        5
170
     1
 91
        0
 92
        0
 62
   257
 93
        1
300
CONTENTFORMAT
  1
CONTENTFORMAT_BEGIN
 90
        0
 91
        0
 92
      512
 93
        0
300

 40
0.0
140
1.0
 94
        2
 62
     0
340
253
144
0.18
309
CONTENTFORMAT_END
171
     1
301
MARGIN
  1
CELLMARGIN_BEGIN
 40
0.06
 40
0.06
 40
0.06
 40
0.06
 40
0.18
 40
0.18
309
CELLMARGIN_END
 94
        6
 95
        1
302
GRIDFORMAT
  1
GRIDFORMAT_BEGIN
 90
        0
 91
        1
 62
     0
 92
       -2
340
0
 93
        0
 40
0.045
309
GRIDFORMAT_END
 95
        2
302
GRIDFORMAT
  1
GRIDFORMAT_BEGIN
 90
        0
 91
        1
 62
     0
 92
       -2
340
0
 93
        0
 40
0.045
309
GRIDFORMAT_END
 95
        4
302
GRIDFORMAT
  1
GRIDFORMAT_BEGIN
 90
        0
 91
        1
 62
     0
 92
       -2
340
0
 93
        0
 40
0.045
309
GRIDFORMAT_END
 95
        8
302
GRIDFORMAT
  1
GRIDFORMAT_BEGIN
 90
        0
 91
        1
 62
     0
 92
       -2
340
0
 93
        0
 40
0.045
309
GRIDFORMAT_END
 95
       16
302
GRIDFORMAT
  1
GRIDFORMAT_BEGIN
 90
        0
 91
        1
 62
     0
 92
       -2
340
0
 93
        0
 40
0.045
309
GRIDFORMAT_END
 95
       32
302
GRIDFORMAT
  1
GRIDFORMAT_BEGIN
 90
        0
 91
        1
 62
     0
 92
       -2
340
0
 93
        0
 40
0.045
309
GRIDFORMAT_END
309
TABLEFORMAT_END
  1
CELLSTYLE_BEGIN
 90
        3
 91
        2
300
_DATA
309
CELLSTYLE_END
  0
XRECORD
  5
F10A0E
102
{ACAD_REACTORS
330
FF8
102
}
330
FF8
100
AcDbXrecord
280
     1
102
ACAD_ROUNDTRIP_PRE2007_TABLESTYLE
 90
      512
 91
        0
  1

 92
      512
 93
        0
  2

 94
      512
 95
        0
  3

  0
XRECORD
  5
F109F3
102
{ACAD_REACTORS
330
F109F2
102
}
330
F109F2
100
AcDbXrecord
280
     1
102
RTVSPropertyOp0
 70
     1
102
RTVSPropertyOp1
 70
     1
102
RTVSPropertyOp2
 70
     1
102
RTVSPropertyOp3
 70
     1
102
RTVSPropertyOp4
 70
     1
102
RTVSPropertyOp5
 70
     1
102
RTVSPropertyOp6
 70
     1
102
RTVSPropertyOp7
 70
     1
102
RTVSPropertyOp8
 70
     1
102
RTVSPropertyOp9
 70
     1
102
RTVSPropertyOp10
 70
     1
102
RTVSPropertyOp11
 70
     1
102
RTVSPropertyOp12
 70
     1
102
RTVSPropertyOp13
 70
     1
102
RTVSPropertyOp14
 70
     1
102
RTVSPropertyOp15
 70
     1
102
RTVSPropertyOp16
 70
     1
102
RTVSPropertyOp17
 70
     1
102
RTVSPropertyOp18
 70
     1
102
RTVSPropertyOp19
 70
     1
102
RTVSPropertyOp20
 70
     1
102
RTVSPropertyOp21
 70
     1
102
RTVSPropertyOp22
 70
     1
102
RTVSPropertyOp23
 70
     1
102
RTVSPropertyOp24
 70
     1
102
RTVSPropertyOp25
 70
     1
102
RTVSPropertyOp26
 70
     1
102
RTVSPropertyOp27
 70
     1
102
RTVSPropertyOp28
 70
     1
102
RTVSPropertyOp29
 70
     1
102
RTVSPropertyOp30
 70
     1
102
RTVSPropertyOp31
 70
     1
102
RTVSPropertyOp32
 70
     1
  0
XRECORD
  5
F109F7
102
{ACAD_REACTORS
330
F109F6
102
}
330
F109F6
100
AcDbXrecord
280
     1
102
RTVSPropertyOp0
 70
     1
102
RTVSPropertyOp1
 70
     1
102
RTVSPropertyOp2
 70
     1
102
RTVSPropertyOp3
 70
     1
102
RTVSPropertyOp4
 70
     1
102
RTVSPropertyOp5
 70
     1
102
RTVSPropertyOp6
 70
     1
102
RTVSPropertyOp7
 70
     1
102
RTVSPropertyOp8
 70
     1
102
RTVSPropertyOp9
 70
     1
102
RTVSPropertyOp10
 70
     1
102
RTVSPropertyOp11
 70
     1
102
RTVSPropertyOp12
 70
     1
102
RTVSPropertyOp13
 70
     1
102
RTVSPropertyOp14
 70
     1
102
RTVSPropertyOp15
 70
     1
102
RTVSPropertyOp16
 70
     1
102
RTVSPropertyOp17
 70
     1
102
RTVSPropertyOp18
 70
     1
102
RTVSPropertyOp19
 70
     1
102
RTVSPropertyOp20
 70
     1
102
RTVSPropertyOp21
 70
     1
102
RTVSPropertyOp22
 70
     1
102
RTVSPropertyOp23
 70
     1
102
RTVSPropertyOp24
 70
     1
102
RTVSPropertyOp25
 70
     1
102
RTVSPropertyOp26
 70
     1
102
RTVSPropertyOp27
 70
     1
102
RTVSPropertyOp28
 70
     1
102
RTVSPropertyOp29
 70
     1
102
RTVSPropertyOp30
 70
     1
102
RTVSPropertyOp31
 70
     1
102
RTVSPropertyOp32
 70
     1
  0
XRECORD
  5
F109F5
102
{ACAD_REACTORS
330
F109F4
102
}
330
F109F4
100
AcDbXrecord
280
     1
102
RTVSPropertyOp0
 70
     1
102
RTVSPropertyOp1
 70
     1
102
RTVSPropertyOp2
 70
     1
102
RTVSPropertyOp3
 70
     1
102
RTVSPropertyOp4
 70
     1
102
RTVSPropertyOp5
 70
     1
102
RTVSPropertyOp6
 70
     1
102
RTVSPropertyOp7
 70
     1
102
RTVSPropertyOp8
 70
     1
102
RTVSPropertyOp9
 70
     1
102
RTVSPropertyOp10
 70
     1
102
RTVSPropertyOp11
 70
     1
102
RTVSPropertyOp12
 70
     1
102
RTVSPropertyOp13
 70
     1
102
RTVSPropertyOp14
 70
     1
102
RTVSPropertyOp15
 70
     1
102
RTVSPropertyOp16
 70
     1
102
RTVSPropertyOp17
 70
     1
102
RTVSPropertyOp18
 70
     1
102
RTVSPropertyOp19
 70
     1
102
RTVSPropertyOp20
 70
     1
102
RTVSPropertyOp21
 70
     1
102
RTVSPropertyOp22
 70
     1
102
RTVSPropertyOp23
 70
     1
102
RTVSPropertyOp24
 70
     1
102
RTVSPropertyOp25
 70
     1
102
RTVSPropertyOp26
 70
     1
102
RTVSPropertyOp27
 70
     1
102
RTVSPropertyOp28
 70
     1
102
RTVSPropertyOp29
 70
     1
102
RTVSPropertyOp30
 70
     1
102
RTVSPropertyOp31
 70
     1
102
RTVSPropertyOp32
 70
     1
  0
XRECORD
  5
F109F1
102
{ACAD_REACTORS
330
F109F0
102
}
330
F109F0
100
AcDbXrecord
280
     1
102
RTVSPropertyOp0
 70
     1
102
RTVSPropertyOp1
 70
     1
102
RTVSPropertyOp2
 70
     1
102
RTVSPropertyOp3
 70
     1
102
RTVSPropertyOp4
 70
     1
102
RTVSPropertyOp5
 70
     1
102
RTVSPropertyOp6
 70
     1
102
RTVSPropertyOp7
 70
     1
102
RTVSPropertyOp8
 70
     1
102
RTVSPropertyOp9
 70
     1
102
RTVSPropertyOp10
 70
     1
102
RTVSPropertyOp11
 70
     1
102
RTVSPropertyOp12
 70
     1
102
RTVSPropertyOp13
 70
     1
102
RTVSPropertyOp14
 70
     1
102
RTVSPropertyOp15
 70
     1
102
RTVSPropertyOp16
 70
     1
102
RTVSPropertyOp17
 70
     1
102
RTVSPropertyOp18
 70
     1
102
RTVSPropertyOp19
 70
     1
102
RTVSPropertyOp20
 70
     1
102
RTVSPropertyOp21
 70
     1
102
RTVSPropertyOp22
 70
     1
102
RTVSPropertyOp23
 70
     1
102
RTVSPropertyOp24
 70
     1
102
RTVSPropertyOp25
 70
     1
102
RTVSPropertyOp26
 70
     1
102
RTVSPropertyOp27
 70
     1
102
RTVSPropertyOp28
 70
     1
102
RTVSPropertyOp29
 70
     1
102
RTVSPropertyOp30
 70
     1
102
RTVSPropertyOp31
 70
     1
102
RTVSPropertyOp32
 70
     1
  0
XRECORD
  5
F109FF
102
{ACAD_REACTORS
330
F109FE
102
}
330
F109FE
100
AcDbXrecord
280
     1
102
RTVSPropertyOp0
 70
     1
102
RTVSPropertyOp1
 70
     1
102
RTVSPropertyOp2
 70
     1
102
RTVSPropertyOp3
 70
     1
102
RTVSPropertyOp4
 70
     1
102
RTVSPropertyOp5
 70
     1
102
RTVSPropertyOp6
 70
     1
102
RTVSPropertyOp7
 70
     1
102
RTVSPropertyOp8
 70
     1
102
RTVSPropertyOp9
 70
     1
102
RTVSPropertyOp10
 70
     1
102
RTVSPropertyOp11
 70
     1
102
RTVSPropertyOp12
 70
     1
102
RTVSPropertyOp13
 70
     1
102
RTVSPropertyOp14
 70
     1
102
RTVSPropertyOp15
 70
     1
102
RTVSPropertyOp16
 70
     1
102
RTVSPropertyOp17
 70
     1
102
RTVSPropertyOp18
 70
     1
102
RTVSPropertyOp19
 70
     1
102
RTVSPropertyOp20
 70
     1
102
RTVSPropertyOp21
 70
     1
102
RTVSPropertyOp22
 70
     1
102
RTVSPropertyOp23
 70
     1
102
RTVSPropertyOp24
 70
     1
102
RTVSPropertyOp25
 70
     1
102
RTVSPropertyOp26
 70
     1
102
RTVSPropertyOp27
 70
     1
102
RTVSPropertyOp28
 70
     1
102
RTVSPropertyOp29
 70
     1
102
RTVSPropertyOp30
 70
     1
102
RTVSPropertyOp31
 70
     1
102
RTVSPropertyOp32
 70
     1
  0
XRECORD
  5
F10A07
102
{ACAD_REACTORS
330
F10A06
102
}
330
F10A06
100
AcDbXrecord
280
     1
102
RTVSPropertyOp0
 70
     1
102
RTVSPropertyOp1
 70
     1
102
RTVSPropertyOp2
 70
     1
102
RTVSPropertyOp3
 70
     1
102
RTVSPropertyOp4
 70
     1
102
RTVSPropertyOp5
 70
     1
102
RTVSPropertyOp6
 70
     1
102
RTVSPropertyOp7
 70
     1
102
RTVSPropertyOp8
 70
     1
102
RTVSPropertyOp9
 70
     1
102
RTVSPropertyOp10
 70
     1
102
RTVSPropertyOp11
 70
     1
102
RTVSPropertyOp12
 70
     1
102
RTVSPropertyOp13
 70
     1
102
RTVSPropertyOp14
 70
     1
102
RTVSPropertyOp15
 70
     1
102
RTVSPropertyOp16
 70
     1
102
RTVSPropertyOp17
 70
     1
102
RTVSPropertyOp18
 70
     1
102
RTVSPropertyOp19
 70
     1
102
RTVSPropertyOp20
 70
     1
102
RTVSPropertyOp21
 70
     1
102
RTVSPropertyOp22
 70
     1
102
RTVSPropertyOp23
 70
     1
102
RTVSPropertyOp24
 70
     1
102
RTVSPropertyOp25
 70
     1
102
RTVSPropertyOp26
 70
     1
102
RTVSPropertyOp27
 70
     1
102
RTVSPropertyOp28
 70
     1
102
RTVSPropertyOp29
 70
     1
102
RTVSPropertyOp30
 70
     1
102
RTVSPropertyOp31
 70
     1
102
RTVSPropertyOp32
 70
     1
  0
XRECORD
  5
F109F9
102
{ACAD_REACTORS
330
F109F8
102
}
330
F109F8
100
AcDbXrecord
280
     1
102
RTVSPropertyOp0
 70
     1
102
RTVSPropertyOp1
 70
     1
102
RTVSPropertyOp2
 70
     1
102
RTVSPropertyOp3
 70
     1
102
RTVSPropertyOp4
 70
     1
102
RTVSPropertyOp5
 70
     1
102
RTVSPropertyOp6
 70
     1
102
RTVSPropertyOp7
 70
     1
102
RTVSPropertyOp8
 70
     1
102
RTVSPropertyOp9
 70
     1
102
RTVSPropertyOp10
 70
     1
102
RTVSPropertyOp11
 70
     1
102
RTVSPropertyOp12
 70
     1
102
RTVSPropertyOp13
 70
     1
102
RTVSPropertyOp14
 70
     1
102
RTVSPropertyOp15
 70
     1
102
RTVSPropertyOp16
 70
     1
102
RTVSPropertyOp17
 70
     1
102
RTVSPropertyOp18
 70
     1
102
RTVSPropertyOp19
 70
     1
102
RTVSPropertyOp20
 70
     1
102
RTVSPropertyOp21
 70
     1
102
RTVSPropertyOp22
 70
     1
102
RTVSPropertyOp23
 70
     1
102
RTVSPropertyOp24
 70
     1
102
RTVSPropertyOp25
 70
     1
102
RTVSPropertyOp26
 70
     1
102
RTVSPropertyOp27
 70
     1
102
RTVSPropertyOp28
 70
     1
102
RTVSPropertyOp29
 70
     1
102
RTVSPropertyOp30
 70
     1
102
RTVSPropertyOp31
 70
     1
102
RTVSPropertyOp32
 70
     1
  0
XRECORD
  5
F109FD
102
{ACAD_REACTORS
330
F109FC
102
}
330
F109FC
100
AcDbXrecord
280
     1
102
RTVSPropertyOp0
 70
     1
102
RTVSPropertyOp1
 70
     1
102
RTVSPropertyOp2
 70
     1
102
RTVSPropertyOp3
 70
     1
102
RTVSPropertyOp4
 70
     1
102
RTVSPropertyOp5
 70
     1
102
RTVSPropertyOp6
 70
     1
102
RTVSPropertyOp7
 70
     1
102
RTVSPropertyOp8
 70
     1
102
RTVSPropertyOp9
 70
     1
102
RTVSPropertyOp10
 70
     1
102
RTVSPropertyOp11
 70
     1
102
RTVSPropertyOp12
 70
     1
102
RTVSPropertyOp13
 70
     1
102
RTVSPropertyOp14
 70
     1
102
RTVSPropertyOp15
 70
     1
102
RTVSPropertyOp16
 70
     1
102
RTVSPropertyOp17
 70
     1
102
RTVSPropertyOp18
 70
     1
102
RTVSPropertyOp19
 70
     1
102
RTVSPropertyOp20
 70
     1
102
RTVSPropertyOp21
 70
     1
102
RTVSPropertyOp22
 70
     1
102
RTVSPropertyOp23
 70
     1
102
RTVSPropertyOp24
 70
     1
102
RTVSPropertyOp25
 70
     1
102
RTVSPropertyOp26
 70
     1
102
RTVSPropertyOp27
 70
     1
102
RTVSPropertyOp28
 70
     1
102
RTVSPropertyOp29
 70
     1
102
RTVSPropertyOp30
 70
     1
102
RTVSPropertyOp31
 70
     1
102
RTVSPropertyOp32
 70
     1
  0
XRECORD
  5
F10A0D
102
{ACAD_REACTORS
330
F10A0C
102
}
330
F10A0C
100
AcDbXrecord
280
     1
102
RTVSPropertyOp0
 70
     0
102
RTVSPropertyOp1
 70
     0
102
RTVSPropertyOp2
 70
     0
102
RTVSPropertyOp3
 70
     0
102
RTVSPropertyOp4
 70
     0
102
RTVSPropertyOp5
 70
     0
102
RTVSPropertyOp6
 70
     0
102
RTVSPropertyOp7
 70
     0
102
RTVSPropertyOp8
 70
     0
102
RTVSPropertyOp9
 70
     0
102
RTVSPropertyOp10
 70
     0
102
RTVSPropertyOp11
 70
     0
102
RTVSPropertyOp12
 70
     0
102
RTVSPropertyOp13
 70
     0
102
RTVSPropertyOp14
 70
     2
102
RTVSPropertyOp15
 70
     0
102
RTVSPropertyOp16
 70
     0
102
RTVSPropertyOp17
 70
     0
102
RTVSPropertyOp18
 70
     0
102
RTVSPropertyOp19
 70
     0
102
RTVSPropertyOp20
 70
     0
102
RTVSPropertyOp21
 70
     0
102
RTVSPropertyOp22
 70
     0
102
RTVSPropertyOp23
 70
     0
102
RTVSPropertyOp24
 70
     0
102
RTVSPropertyOp25
 70
     0
102
RTVSPropertyOp26
 70
     0
102
RTVSPropertyOp27
 70
     0
102
RTVSPropertyOp28
 70
     1
102
RTVSPropertyOp29
 70
     1
102
RTVSPropertyOp30
 70
     1
102
RTVSPropertyOp31
 70
     1
102
RTVSPropertyOp32
 70
     1
  0
XRECORD
  5
F10A05
102
{ACAD_REACTORS
330
F10A04
102
}
330
F10A04
100
AcDbXrecord
280
     1
102
RTVSPropertyOp0
 70
     1
102
RTVSPropertyOp1
 70
     1
102
RTVSPropertyOp2
 70
     1
102
RTVSPropertyOp3
 70
     1
102
RTVSPropertyOp4
 70
     1
102
RTVSPropertyOp5
 70
     1
102
RTVSPropertyOp6
 70
     1
102
RTVSPropertyOp7
 70
     1
102
RTVSPropertyOp8
 70
     1
102
RTVSPropertyOp9
 70
     1
102
RTVSPropertyOp10
 70
     1
102
RTVSPropertyOp11
 70
     1
102
RTVSPropertyOp12
 70
     1
102
RTVSPropertyOp13
 70
     1
102
RTVSPropertyOp14
 70
     1
102
RTVSPropertyOp15
 70
     1
102
RTVSPropertyOp16
 70
     1
102
RTVSPropertyOp17
 70
     1
102
RTVSPropertyOp18
 70
     1
102
RTVSPropertyOp19
 70
     1
102
RTVSPropertyOp20
 70
     1
102
RTVSPropertyOp21
 70
     1
102
RTVSPropertyOp22
 70
     1
102
RTVSPropertyOp23
 70
     1
102
RTVSPropertyOp24
 70
     1
102
RTVSPropertyOp25
 70
     1
102
RTVSPropertyOp26
 70
     1
102
RTVSPropertyOp27
 70
     1
102
RTVSPropertyOp28
 70
     1
102
RTVSPropertyOp29
 70
     1
102
RTVSPropertyOp30
 70
     1
102
RTVSPropertyOp31
 70
     1
102
RTVSPropertyOp32
 70
     1
  0
XRECORD
  5
F109E9
102
{ACAD_REACTORS
330
F109E8
102
}
330
F109E8
100
AcDbXrecord
280
     1
102
RTVSPropertyOp0
 70
     1
102
RTVSPropertyOp1
 70
     1
102
RTVSPropertyOp2
 70
     1
102
RTVSPropertyOp3
 70
     1
102
RTVSPropertyOp4
 70
     1
102
RTVSPropertyOp5
 70
     1
102
RTVSPropertyOp6
 70
     1
102
RTVSPropertyOp7
 70
     1
102
RTVSPropertyOp8
 70
     1
102
RTVSPropertyOp9
 70
     1
102
RTVSPropertyOp10
 70
     1
102
RTVSPropertyOp11
 70
     1
102
RTVSPropertyOp12
 70
     1
102
RTVSPropertyOp13
 70
     1
102
RTVSPropertyOp14
 70
     1
102
RTVSPropertyOp15
 70
     1
102
RTVSPropertyOp16
 70
     1
102
RTVSPropertyOp17
 70
     1
102
RTVSPropertyOp18
 70
     1
102
RTVSPropertyOp19
 70
     1
102
RTVSPropertyOp20
 70
     1
102
RTVSPropertyOp21
 70
     1
102
RTVSPropertyOp22
 70
     1
102
RTVSPropertyOp23
 70
     1
102
RTVSPropertyOp24
 70
     1
102
RTVSPropertyOp25
 70
     1
102
RTVSPropertyOp26
 70
     1
102
RTVSPropertyOp27
 70
     1
102
RTVSPropertyOp28
 70
     1
102
RTVSPropertyOp29
 70
     1
102
RTVSPropertyOp30
 70
     1
102
RTVSPropertyOp31
 70
     1
102
RTVSPropertyOp32
 70
     1
  0
XRECORD
  5
F109EB
102
{ACAD_REACTORS
330
F109EA
102
}
330
F109EA
100
AcDbXrecord
280
     1
102
RTVSPropertyOp0
 70
     1
102
RTVSPropertyOp1
 70
     1
102
RTVSPropertyOp2
 70
     1
102
RTVSPropertyOp3
 70
     1
102
RTVSPropertyOp4
 70
     1
102
RTVSPropertyOp5
 70
     1
102
RTVSPropertyOp6
 70
     1
102
RTVSPropertyOp7
 70
     1
102
RTVSPropertyOp8
 70
     1
102
RTVSPropertyOp9
 70
     1
102
RTVSPropertyOp10
 70
     1
102
RTVSPropertyOp11
 70
     1
102
RTVSPropertyOp12
 70
     1
102
RTVSPropertyOp13
 70
     1
102
RTVSPropertyOp14
 70
     1
102
RTVSPropertyOp15
 70
     1
102
RTVSPropertyOp16
 70
     1
102
RTVSPropertyOp17
 70
     1
102
RTVSPropertyOp18
 70
     1
102
RTVSPropertyOp19
 70
     1
102
RTVSPropertyOp20
 70
     1
102
RTVSPropertyOp21
 70
     1
102
RTVSPropertyOp22
 70
     1
102
RTVSPropertyOp23
 70
     1
102
RTVSPropertyOp24
 70
     1
102
RTVSPropertyOp25
 70
     1
102
RTVSPropertyOp26
 70
     1
102
RTVSPropertyOp27
 70
     1
102
RTVSPropertyOp28
 70
     1
102
RTVSPropertyOp29
 70
     1
102
RTVSPropertyOp30
 70
     1
102
RTVSPropertyOp31
 70
     1
102
RTVSPropertyOp32
 70
     1
  0
XRECORD
  5
F109ED
102
{ACAD_REACTORS
330
F109EC
102
}
330
F109EC
100
AcDbXrecord
280
     1
102
RTVSPropertyOp0
 70
     1
102
RTVSPropertyOp1
 70
     1
102
RTVSPropertyOp2
 70
     1
102
RTVSPropertyOp3
 70
     1
102
RTVSPropertyOp4
 70
     1
102
RTVSPropertyOp5
 70
     1
102
RTVSPropertyOp6
 70
     1
102
RTVSPropertyOp7
 70
     1
102
RTVSPropertyOp8
 70
     1
102
RTVSPropertyOp9
 70
     1
102
RTVSPropertyOp10
 70
     1
102
RTVSPropertyOp11
 70
     1
102
RTVSPropertyOp12
 70
     1
102
RTVSPropertyOp13
 70
     1
102
RTVSPropertyOp14
 70
     1
102
RTVSPropertyOp15
 70
     1
102
RTVSPropertyOp16
 70
     1
102
RTVSPropertyOp17
 70
     1
102
RTVSPropertyOp18
 70
     1
102
RTVSPropertyOp19
 70
     1
102
RTVSPropertyOp20
 70
     1
102
RTVSPropertyOp21
 70
     1
102
RTVSPropertyOp22
 70
     1
102
RTVSPropertyOp23
 70
     1
102
RTVSPropertyOp24
 70
     1
102
RTVSPropertyOp25
 70
     1
102
RTVSPropertyOp26
 70
     1
102
RTVSPropertyOp27
 70
     1
102
RTVSPropertyOp28
 70
     1
102
RTVSPropertyOp29
 70
     1
102
RTVSPropertyOp30
 70
     1
102
RTVSPropertyOp31
 70
     1
102
RTVSPropertyOp32
 70
     1
  0
XRECORD
  5
F109EF
102
{ACAD_REACTORS
330
F109EE
102
}
330
F109EE
100
AcDbXrecord
280
     1
102
RTVSPropertyOp0
 70
     1
102
RTVSPropertyOp1
 70
     1
102
RTVSPropertyOp2
 70
     1
102
RTVSPropertyOp3
 70
     1
102
RTVSPropertyOp4
 70
     1
102
RTVSPropertyOp5
 70
     1
102
RTVSPropertyOp6
 70
     1
102
RTVSPropertyOp7
 70
     1
102
RTVSPropertyOp8
 70
     1
102
RTVSPropertyOp9
 70
     1
102
RTVSPropertyOp10
 70
     1
102
RTVSPropertyOp11
 70
     1
102
RTVSPropertyOp12
 70
     1
102
RTVSPropertyOp13
 70
     1
102
RTVSPropertyOp14
 70
     1
102
RTVSPropertyOp15
 70
     1
102
RTVSPropertyOp16
 70
     1
102
RTVSPropertyOp17
 70
     1
102
RTVSPropertyOp18
 70
     1
102
RTVSPropertyOp19
 70
     1
102
RTVSPropertyOp20
 70
     1
102
RTVSPropertyOp21
 70
     1
102
RTVSPropertyOp22
 70
     1
102
RTVSPropertyOp23
 70
     1
102
RTVSPropertyOp24
 70
     1
102
RTVSPropertyOp25
 70
     1
102
RTVSPropertyOp26
 70
     1
102
RTVSPropertyOp27
 70
     1
102
RTVSPropertyOp28
 70
     1
102
RTVSPropertyOp29
 70
     1
102
RTVSPropertyOp30
 70
     1
102
RTVSPropertyOp31
 70
     1
102
RTVSPropertyOp32
 70
     1
  0
XRECORD
  5
F10A16
102
{ACAD_REACTORS
330
F10A15
102
}
330
F10A15
100
AcDbXrecord
280
     1
102
RTVSPropertyOp0
 70
     1
102
RTVSPropertyOp1
 70
     1
102
RTVSPropertyOp2
 70
     1
102
RTVSPropertyOp3
 70
     1
102
RTVSPropertyOp4
 70
     1
102
RTVSPropertyOp5
 70
     1
102
RTVSPropertyOp6
 70
     1
102
RTVSPropertyOp7
 70
     1
102
RTVSPropertyOp8
 70
     1
102
RTVSPropertyOp9
 70
     1
102
RTVSPropertyOp10
 70
     1
102
RTVSPropertyOp11
 70
     1
102
RTVSPropertyOp12
 70
     1
102
RTVSPropertyOp13
 70
     1
102
RTVSPropertyOp14
 70
     1
102
RTVSPropertyOp15
 70
     1
102
RTVSPropertyOp16
 70
     1
102
RTVSPropertyOp17
 70
     1
102
RTVSPropertyOp18
 70
     1
102
RTVSPropertyOp19
 70
     1
102
RTVSPropertyOp20
 70
     1
102
RTVSPropertyOp21
 70
     1
102
RTVSPropertyOp22
 70
     1
102
RTVSPropertyOp23
 70
     1
102
RTVSPropertyOp24
 70
     1
102
RTVSPropertyOp25
 70
     1
102
RTVSPropertyOp26
 70
     1
102
RTVSPropertyOp27
 70
     1
102
RTVSPropertyOp28
 70
     1
102
RTVSPropertyOp29
 70
     1
102
RTVSPropertyOp30
 70
     1
102
RTVSPropertyOp31
 70
     1
102
RTVSPropertyOp32
 70
     1
  0
XRECORD
  5
F10A09
102
{ACAD_REACTORS
330
F10A08
102
}
330
F10A08
100
AcDbXrecord
280
     1
102
RTVSPropertyOp0
 70
     0
102
RTVSPropertyOp1
 70
     0
102
RTVSPropertyOp2
 70
     0
102
RTVSPropertyOp3
 70
     0
102
RTVSPropertyOp4
 70
     0
102
RTVSPropertyOp5
 70
     0
102
RTVSPropertyOp6
 70
     0
102
RTVSPropertyOp7
 70
     0
102
RTVSPropertyOp8
 70
     0
102
RTVSPropertyOp9
 70
     0
102
RTVSPropertyOp10
 70
     0
102
RTVSPropertyOp11
 70
     0
102
RTVSPropertyOp12
 70
     0
102
RTVSPropertyOp13
 70
     0
102
RTVSPropertyOp14
 70
     2
102
RTVSPropertyOp15
 70
     0
102
RTVSPropertyOp16
 70
     0
102
RTVSPropertyOp17
 70
     0
102
RTVSPropertyOp18
 70
     0
102
RTVSPropertyOp19
 70
     0
102
RTVSPropertyOp20
 70
     0
102
RTVSPropertyOp21
 70
     0
102
RTVSPropertyOp22
 70
     0
102
RTVSPropertyOp23
 70
     0
102
RTVSPropertyOp24
 70
     0
102
RTVSPropertyOp25
 70
     0
102
RTVSPropertyOp26
 70
     0
102
RTVSPropertyOp27
 70
     0
102
RTVSPropertyOp28
 70
     1
102
RTVSPropertyOp29
 70
     1
102
RTVSPropertyOp30
 70
     1
102
RTVSPropertyOp31
 70
     1
102
RTVSPropertyOp32
 70
     1
  0
XRECORD
  5
F10A03
102
{ACAD_REACTORS
330
F10A02
102
}
330
F10A02
100
AcDbXrecord
280
     1
102
RTVSPropertyOp0
 70
     1
102
RTVSPropertyOp1
 70
     1
102
RTVSPropertyOp2
 70
     1
102
RTVSPropertyOp3
 70
     1
102
RTVSPropertyOp4
 70
     1
102
RTVSPropertyOp5
 70
     1
102
RTVSPropertyOp6
 70
     1
102
RTVSPropertyOp7
 70
     1
102
RTVSPropertyOp8
 70
     1
102
RTVSPropertyOp9
 70
     1
102
RTVSPropertyOp10
 70
     1
102
RTVSPropertyOp11
 70
     1
102
RTVSPropertyOp12
 70
     1
102
RTVSPropertyOp13
 70
     1
102
RTVSPropertyOp14
 70
     1
102
RTVSPropertyOp15
 70
     1
102
RTVSPropertyOp16
 70
     1
102
RTVSPropertyOp17
 70
     1
102
RTVSPropertyOp18
 70
     1
102
RTVSPropertyOp19
 70
     1
102
RTVSPropertyOp20
 70
     1
102
RTVSPropertyOp21
 70
     1
102
RTVSPropertyOp22
 70
     1
102
RTVSPropertyOp23
 70
     1
102
RTVSPropertyOp24
 70
     1
102
RTVSPropertyOp25
 70
     1
102
RTVSPropertyOp26
 70
     1
102
RTVSPropertyOp27
 70
     1
102
RTVSPropertyOp28
 70
     1
102
RTVSPropertyOp29
 70
     1
102
RTVSPropertyOp30
 70
     1
102
RTVSPropertyOp31
 70
     1
102
RTVSPropertyOp32
 70
     1
  0
XRECORD
  5
F10A0B
102
{ACAD_REACTORS
330
F10A0A
102
}
330
F10A0A
100
AcDbXrecord
280
     1
102
RTVSPropertyOp0
 70
     0
102
RTVSPropertyOp1
 70
     0
102
RTVSPropertyOp2
 70
     0
102
RTVSPropertyOp3
 70
     0
102
RTVSPropertyOp4
 70
     0
102
RTVSPropertyOp5
 70
     0
102
RTVSPropertyOp6
 70
     0
102
RTVSPropertyOp7
 70
     0
102
RTVSPropertyOp8
 70
     0
102
RTVSPropertyOp9
 70
     0
102
RTVSPropertyOp10
 70
     0
102
RTVSPropertyOp11
 70
     0
102
RTVSPropertyOp12
 70
     0
102
RTVSPropertyOp13
 70
     0
102
RTVSPropertyOp14
 70
     2
102
RTVSPropertyOp15
 70
     0
102
RTVSPropertyOp16
 70
     0
102
RTVSPropertyOp17
 70
     0
102
RTVSPropertyOp18
 70
     0
102
RTVSPropertyOp19
 70
     0
102
RTVSPropertyOp20
 70
     0
102
RTVSPropertyOp21
 70
     0
102
RTVSPropertyOp22
 70
     0
102
RTVSPropertyOp23
 70
     0
102
RTVSPropertyOp24
 70
     0
102
RTVSPropertyOp25
 70
     0
102
RTVSPropertyOp26
 70
     0
102
RTVSPropertyOp27
 70
     0
102
RTVSPropertyOp28
 70
     1
102
RTVSPropertyOp29
 70
     1
102
RTVSPropertyOp30
 70
     1
102
RTVSPropertyOp31
 70
     1
102
RTVSPropertyOp32
 70
     1
  0
XRECORD
  5
F109FB
102
{ACAD_REACTORS
330
F109FA
102
}
330
F109FA
100
AcDbXrecord
280
     1
102
RTVSPropertyOp0
 70
     1
102
RTVSPropertyOp1
 70
     1
102
RTVSPropertyOp2
 70
     1
102
RTVSPropertyOp3
 70
     1
102
RTVSPropertyOp4
 70
     1
102
RTVSPropertyOp5
 70
     1
102
RTVSPropertyOp6
 70
     1
102
RTVSPropertyOp7
 70
     1
102
RTVSPropertyOp8
 70
     1
102
RTVSPropertyOp9
 70
     1
102
RTVSPropertyOp10
 70
     1
102
RTVSPropertyOp11
 70
     1
102
RTVSPropertyOp12
 70
     1
102
RTVSPropertyOp13
 70
     1
102
RTVSPropertyOp14
 70
     1
102
RTVSPropertyOp15
 70
     1
102
RTVSPropertyOp16
 70
     1
102
RTVSPropertyOp17
 70
     1
102
RTVSPropertyOp18
 70
     1
102
RTVSPropertyOp19
 70
     1
102
RTVSPropertyOp20
 70
     1
102
RTVSPropertyOp21
 70
     1
102
RTVSPropertyOp22
 70
     1
102
RTVSPropertyOp23
 70
     1
102
RTVSPropertyOp24
 70
     1
102
RTVSPropertyOp25
 70
     1
102
RTVSPropertyOp26
 70
     1
102
RTVSPropertyOp27
 70
     1
102
RTVSPropertyOp28
 70
     1
102
RTVSPropertyOp29
 70
     1
102
RTVSPropertyOp30
 70
     1
102
RTVSPropertyOp31
 70
     1
102
RTVSPropertyOp32
 70
     1
  0
XRECORD
  5
F10A20
102
{ACAD_REACTORS
330
F10A1F
102
}
330
F10A1F
100
AcDbXrecord
280
     1
102
RTVSPropertyOp0
 70
     1
102
RTVSPropertyOp1
 70
     1
102
RTVSPropertyOp2
 70
     1
102
RTVSPropertyOp3
 70
     1
102
RTVSPropertyOp4
 70
     1
102
RTVSPropertyOp5
 70
     1
102
RTVSPropertyOp6
 70
     1
102
RTVSPropertyOp7
 70
     1
102
RTVSPropertyOp8
 70
     1
102
RTVSPropertyOp9
 70
     1
102
RTVSPropertyOp10
 70
     1
102
RTVSPropertyOp11
 70
     1
102
RTVSPropertyOp12
 70
     1
102
RTVSPropertyOp13
 70
     1
102
RTVSPropertyOp14
 70
     1
102
RTVSPropertyOp15
 70
     1
102
RTVSPropertyOp16
 70
     1
102
RTVSPropertyOp17
 70
     1
102
RTVSPropertyOp18
 70
     1
102
RTVSPropertyOp19
 70
     1
102
RTVSPropertyOp20
 70
     1
102
RTVSPropertyOp21
 70
     1
102
RTVSPropertyOp22
 70
     1
102
RTVSPropertyOp23
 70
     1
102
RTVSPropertyOp24
 70
     1
102
RTVSPropertyOp25
 70
     1
102
RTVSPropertyOp26
 70
     1
102
RTVSPropertyOp27
 70
     1
102
RTVSPropertyOp28
 70
     1
102
RTVSPropertyOp29
 70
     1
102
RTVSPropertyOp30
 70
     1
102
RTVSPropertyOp31
 70
     1
102
RTVSPropertyOp32
 70
     1
  0
XRECORD
  5
F10A1E
102
{ACAD_REACTORS
330
F10A1D
102
}
330
F10A1D
100
AcDbXrecord
280
     1
102
RTVSPropertyOp0
 70
     1
102
RTVSPropertyOp1
 70
     1
102
RTVSPropertyOp2
 70
     1
102
RTVSPropertyOp3
 70
     1
102
RTVSPropertyOp4
 70
     1
102
RTVSPropertyOp5
 70
     1
102
RTVSPropertyOp6
 70
     1
102
RTVSPropertyOp7
 70
     1
102
RTVSPropertyOp8
 70
     1
102
RTVSPropertyOp9
 70
     1
102
RTVSPropertyOp10
 70
     1
102
RTVSPropertyOp11
 70
     1
102
RTVSPropertyOp12
 70
     1
102
RTVSPropertyOp13
 70
     1
102
RTVSPropertyOp14
 70
     1
102
RTVSPropertyOp15
 70
     1
102
RTVSPropertyOp16
 70
     1
102
RTVSPropertyOp17
 70
     1
102
RTVSPropertyOp18
 70
     1
102
RTVSPropertyOp19
 70
     1
102
RTVSPropertyOp20
 70
     1
102
RTVSPropertyOp21
 70
     1
102
RTVSPropertyOp22
 70
     1
102
RTVSPropertyOp23
 70
     1
102
RTVSPropertyOp24
 70
     1
102
RTVSPropertyOp25
 70
     1
102
RTVSPropertyOp26
 70
     1
102
RTVSPropertyOp27
 70
     1
102
RTVSPropertyOp28
 70
     1
102
RTVSPropertyOp29
 70
     1
102
RTVSPropertyOp30
 70
     1
102
RTVSPropertyOp31
 70
     1
102
RTVSPropertyOp32
 70
     1
  0
XRECORD
  5
F10A18
102
{ACAD_REACTORS
330
F10A17
102
}
330
F10A17
100
AcDbXrecord
280
     1
102
RTVSPropertyOp0
 70
     1
102
RTVSPropertyOp1
 70
     1
102
RTVSPropertyOp2
 70
     1
102
RTVSPropertyOp3
 70
     1
102
RTVSPropertyOp4
 70
     1
102
RTVSPropertyOp5
 70
     1
102
RTVSPropertyOp6
 70
     1
102
RTVSPropertyOp7
 70
     1
102
RTVSPropertyOp8
 70
     1
102
RTVSPropertyOp9
 70
     1
102
RTVSPropertyOp10
 70
     1
102
RTVSPropertyOp11
 70
     1
102
RTVSPropertyOp12
 70
     1
102
RTVSPropertyOp13
 70
     1
102
RTVSPropertyOp14
 70
     1
102
RTVSPropertyOp15
 70
     1
102
RTVSPropertyOp16
 70
     1
102
RTVSPropertyOp17
 70
     1
102
RTVSPropertyOp18
 70
     1
102
RTVSPropertyOp19
 70
     1
102
RTVSPropertyOp20
 70
     1
102
RTVSPropertyOp21
 70
     1
102
RTVSPropertyOp22
 70
     1
102
RTVSPropertyOp23
 70
     1
102
RTVSPropertyOp24
 70
     1
102
RTVSPropertyOp25
 70
     1
102
RTVSPropertyOp26
 70
     1
102
RTVSPropertyOp27
 70
     1
102
RTVSPropertyOp28
 70
     1
102
RTVSPropertyOp29
 70
     1
102
RTVSPropertyOp30
 70
     1
102
RTVSPropertyOp31
 70
     1
102
RTVSPropertyOp32
 70
     1
  0
XRECORD
  5
F10A1A
102
{ACAD_REACTORS
330
F10A19
102
}
330
F10A19
100
AcDbXrecord
280
     1
102
RTVSPropertyOp0
 70
     1
102
RTVSPropertyOp1
 70
     1
102
RTVSPropertyOp2
 70
     1
102
RTVSPropertyOp3
 70
     1
102
RTVSPropertyOp4
 70
     1
102
RTVSPropertyOp5
 70
     1
102
RTVSPropertyOp6
 70
     1
102
RTVSPropertyOp7
 70
     1
102
RTVSPropertyOp8
 70
     1
102
RTVSPropertyOp9
 70
     1
102
RTVSPropertyOp10
 70
     1
102
RTVSPropertyOp11
 70
     1
102
RTVSPropertyOp12
 70
     1
102
RTVSPropertyOp13
 70
     1
102
RTVSPropertyOp14
 70
     1
102
RTVSPropertyOp15
 70
     1
102
RTVSPropertyOp16
 70
     1
102
RTVSPropertyOp17
 70
     1
102
RTVSPropertyOp18
 70
     1
102
RTVSPropertyOp19
 70
     1
102
RTVSPropertyOp20
 70
     1
102
RTVSPropertyOp21
 70
     1
102
RTVSPropertyOp22
 70
     1
102
RTVSPropertyOp23
 70
     1
102
RTVSPropertyOp24
 70
     1
102
RTVSPropertyOp25
 70
     1
102
RTVSPropertyOp26
 70
     1
102
RTVSPropertyOp27
 70
     1
102
RTVSPropertyOp28
 70
     1
102
RTVSPropertyOp29
 70
     1
102
RTVSPropertyOp30
 70
     1
102
RTVSPropertyOp31
 70
     1
102
RTVSPropertyOp32
 70
     1
  0
XRECORD
  5
F10A01
102
{ACAD_REACTORS
330
F10A00
102
}
330
F10A00
100
AcDbXrecord
280
     1
102
RTVSPropertyOp0
 70
     1
102
RTVSPropertyOp1
 70
     1
102
RTVSPropertyOp2
 70
     1
102
RTVSPropertyOp3
 70
     1
102
RTVSPropertyOp4
 70
     1
102
RTVSPropertyOp5
 70
     1
102
RTVSPropertyOp6
 70
     1
102
RTVSPropertyOp7
 70
     1
102
RTVSPropertyOp8
 70
     1
102
RTVSPropertyOp9
 70
     1
102
RTVSPropertyOp10
 70
     1
102
RTVSPropertyOp11
 70
     1
102
RTVSPropertyOp12
 70
     1
102
RTVSPropertyOp13
 70
     1
102
RTVSPropertyOp14
 70
     1
102
RTVSPropertyOp15
 70
     1
102
RTVSPropertyOp16
 70
     1
102
RTVSPropertyOp17
 70
     1
102
RTVSPropertyOp18
 70
     1
102
RTVSPropertyOp19
 70
     1
102
RTVSPropertyOp20
 70
     1
102
RTVSPropertyOp21
 70
     1
102
RTVSPropertyOp22
 70
     1
102
RTVSPropertyOp23
 70
     1
102
RTVSPropertyOp24
 70
     1
102
RTVSPropertyOp25
 70
     1
102
RTVSPropertyOp26
 70
     1
102
RTVSPropertyOp27
 70
     1
102
RTVSPropertyOp28
 70
     1
102
RTVSPropertyOp29
 70
     1
102
RTVSPropertyOp30
 70
     1
102
RTVSPropertyOp31
 70
     1
102
RTVSPropertyOp32
 70
     1
  0
XRECORD
  5
F10A14
102
{ACAD_REACTORS
330
F10A13
102
}
330
F10A13
100
AcDbXrecord
280
     1
102
RTVSPropertyOp0
 70
     1
102
RTVSPropertyOp1
 70
     1
102
RTVSPropertyOp2
 70
     1
102
RTVSPropertyOp3
 70
     1
102
RTVSPropertyOp4
 70
     1
102
RTVSPropertyOp5
 70
     1
102
RTVSPropertyOp6
 70
     1
102
RTVSPropertyOp7
 70
     1
102
RTVSPropertyOp8
 70
     1
102
RTVSPropertyOp9
 70
     1
102
RTVSPropertyOp10
 70
     1
102
RTVSPropertyOp11
 70
     1
102
RTVSPropertyOp12
 70
     1
102
RTVSPropertyOp13
 70
     1
102
RTVSPropertyOp14
 70
     1
102
RTVSPropertyOp15
 70
     1
102
RTVSPropertyOp16
 70
     1
102
RTVSPropertyOp17
 70
     1
102
RTVSPropertyOp18
 70
     1
102
RTVSPropertyOp19
 70
     1
102
RTVSPropertyOp20
 70
     1
102
RTVSPropertyOp21
 70
     1
102
RTVSPropertyOp22
 70
     1
102
RTVSPropertyOp23
 70
     1
102
RTVSPropertyOp24
 70
     1
102
RTVSPropertyOp25
 70
     1
102
RTVSPropertyOp26
 70
     1
102
RTVSPropertyOp27
 70
     1
102
RTVSPropertyOp28
 70
     1
102
RTVSPropertyOp29
 70
     1
102
RTVSPropertyOp30
 70
     1
102
RTVSPropertyOp31
 70
     1
102
RTVSPropertyOp32
 70
     1
  0
XRECORD
  5
F10A1C
102
{ACAD_REACTORS
330
F10A1B
102
}
330
F10A1B
100
AcDbXrecord
280
     1
102
RTVSPropertyOp0
 70
     1
102
RTVSPropertyOp1
 70
     1
102
RTVSPropertyOp2
 70
     1
102
RTVSPropertyOp3
 70
     1
102
RTVSPropertyOp4
 70
     1
102
RTVSPropertyOp5
 70
     1
102
RTVSPropertyOp6
 70
     1
102
RTVSPropertyOp7
 70
     1
102
RTVSPropertyOp8
 70
     1
102
RTVSPropertyOp9
 70
     1
102
RTVSPropertyOp10
 70
     1
102
RTVSPropertyOp11
 70
     1
102
RTVSPropertyOp12
 70
     1
102
RTVSPropertyOp13
 70
     1
102
RTVSPropertyOp14
 70
     1
102
RTVSPropertyOp15
 70
     1
102
RTVSPropertyOp16
 70
     1
102
RTVSPropertyOp17
 70
     1
102
RTVSPropertyOp18
 70
     1
102
RTVSPropertyOp19
 70
     1
102
RTVSPropertyOp20
 70
     1
102
RTVSPropertyOp21
 70
     1
102
RTVSPropertyOp22
 70
     1
102
RTVSPropertyOp23
 70
     1
102
RTVSPropertyOp24
 70
     1
102
RTVSPropertyOp25
 70
     1
102
RTVSPropertyOp26
 70
     1
102
RTVSPropertyOp27
 70
     1
102
RTVSPropertyOp28
 70
     1
102
RTVSPropertyOp29
 70
     1
102
RTVSPropertyOp30
 70
     1
102
RTVSPropertyOp31
 70
     1
102
RTVSPropertyOp32
 70
     1
  0
ENDSEC
  0
EOF
