  0
SECTION
  2
HEADER
  9
$ACADVER
  1
AC1015
  9
$ACADMAINTVER
 70
    20
  9
$DWGCODEPAGE
  3
ANSI_1252
  9
$INSBASE
 10
0.0
 20
0.0
 30
0.0
  9
$EXTMIN
 10
-208.09585492228
 20
-100.103626943005
 30
0.0
  9
$EXTMAX
 10
143.354922279793
 20
106.7646657571623
 30
0.0
  9
$LIMMIN
 10
0.0
 20
0.0
  9
$LIMMAX
 10
12.0
 20
9.0
  9
$ORTHOMODE
 70
     0
  9
$REGENMODE
 70
     1
  9
$FILLMODE
 70
     1
  9
$QTEXTMODE
 70
     0
  9
$MIRRTEXT
 70
     1
  9
$LTSCALE
 40
1.0
  9
$ATTMODE
 70
     1
  9
$TEXTSIZE
 40
0.2
  9
$TRACEWID
 40
0.05
  9
$TEXTSTYLE
  7
Standard
  9
$CLAYER
  8
0
  9
$CELTYPE
  6
ByLayer
  9
$CECOLOR
 62
   256
  9
$CELTSCALE
 40
1.0
  9
$DISPSILH
 70
     0
  9
$DIMSCALE
 40
1.0
  9
$DIMASZ
 40
2.5
  9
$DIMEXO
 40
0.625
  9
$DIMDLI
 40
0.38
  9
$DIMRND
 40
0.0
  9
$DIMDLE
 40
0.0
  9
$DIMEXE
 40
1.25
  9
$DIMTP
 40
0.0
  9
$DIMTM
 40
0.000000001
  9
$DIMTXT
 40
2.5
  9
$DIMCEN
 40
0.09
  9
$DIMTSZ
 40
0.0
  9
$DIMTOL
 70
     1
  9
$DIMLIM
 70
     0
  9
$DIMTIH
 70
     0
  9
$DIMTOH
 70
     0
  9
$DIMSE1
 70
     0
  9
$DIMSE2
 70
     0
  9
$DIMTAD
 70
     1
  9
$DIMZIN
 70
     0
  9
$DIMBLK
  1
VDDIM_DEFAULT
  9
$DIMASO
 70
     1
  9
$DIMSHO
 70
     1
  9
$DIMPOST
  1

  9
$DIMAPOST
  1

  9
$DIMALT
 70
     0
  9
$DIMALTD
 70
     2
  9
$DIMALTF
 40
25.4
  9
$DIMLFAC
 40
1.0
  9
$DIMTOFL
 70
     0
  9
$DIMTVP
 40
0.0
  9
$DIMTIX
 70
     0
  9
$DIMSOXD
 70
     0
  9
$DIMSAH
 70
     0
  9
$DIMBLK1
  1

  9
$DIMBLK2
  1

  9
$DIMSTYLE
  2
BEM-ISBE
  9
$DIMCLRD
 70
     0
  9
$DIMCLRE
 70
     0
  9
$DIMCLRT
 70
     0
  9
$DIMTFAC
 40
0.5
  9
$DIMGAP
 40
0.625
  9
$DIMJUST
 70
     0
  9
$DIMSD1
 70
     0
  9
$DIMSD2
 70
     0
  9
$DIMTOLJ
 70
     1
  9
$DIMTZIN
 70
     0
  9
$DIMALTZ
 70
     0
  9
$DIMALTTZ
 70
     0
  9
$DIMUPT
 70
     0
  9
$DIMDEC
 70
     3
  9
$DIMTDEC
 70
     3
  9
$DIMALTU
 70
     2
  9
$DIMALTTD
 70
     2
  9
$DIMTXSTY
  7
Standard
  9
$DIMAUNIT
 70
     0
  9
$DIMADEC
 70
     3
  9
$DIMALTRND
 40
0.0
  9
$DIMAZIN
 70
     0
  9
$DIMDSEP
 70
    46
  9
$DIMATFIT
 70
     3
  9
$DIMFRAC
 70
     0
  9
$DIMLDRBLK
  1

  9
$DIMLUNIT
 70
     2
  9
$DIMLWD
 70
    -2
  9
$DIMLWE
 70
    -2
  9
$DIMTMOVE
 70
     0
  9
$LUNITS
 70
     2
  9
$LUPREC
 70
     4
  9
$SKETCHINC
 40
0.1
  9
$FILLETRAD
 40
0.0
  9
$AUNITS
 70
     0
  9
$AUPREC
 70
     0
  9
$MENU
  1
.
  9
$ELEVATION
 40
0.0
  9
$PELEVATION
 40
0.0
  9
$THICKNESS
 40
0.0
  9
$LIMCHECK
 70
     0
  9
$CHAMFERA
 40
0.5
  9
$CHAMFERB
 40
0.5
  9
$CHAMFERC
 40
1.0
  9
$CHAMFERD
 40
0.0
  9
$SKPOLY
 70
     0
  9
$TDCREATE
 40
2457010.653308426
  9
$TDUCREATE
 40
2457010.611641759
  9
$TDUPDATE
 40
2457010.656487118
  9
$TDUUPDATE
 40
2457010.614820452
  9
$TDINDWG
 40
0.0031800926
  9
$TDUSRTIMER
 40
0.0031800694
  9
$USRTIMER
 70
     1
  9
$ANGBASE
 50
0.0
  9
$ANGDIR
 70
     0
  9
$PDMODE
 70
     0
  9
$PDSIZE
 40
0.0
  9
$PLINEWID
 40
0.0
  9
$SPLFRAME
 70
     0
  9
$SPLINETYPE
 70
     6
  9
$SPLINESEGS
 70
     8
  9
$HANDSEED
  5
F10D94
  9
$SURFTAB1
 70
     6
  9
$SURFTAB2
 70
     6
  9
$SURFTYPE
 70
     6
  9
$SURFU
 70
     6
  9
$SURFV
 70
     6
  9
$UCSBASE
  2

  9
$UCSNAME
  2

  9
$UCSORG
 10
-12.6050915218878
 20
13.42645246249311
 30
0.0
  9
$UCSXDIR
 10
1.0
 20
0.0
 30
0.0
  9
$UCSYDIR
 10
0.0
 20
1.0
 30
0.0
  9
$UCSORTHOREF
  2

  9
$UCSORTHOVIEW
 70
     0
  9
$UCSORGTOP
 10
0.0
 20
0.0
 30
0.0
  9
$UCSORGBOTTOM
 10
0.0
 20
0.0
 30
0.0
  9
$UCSORGLEFT
 10
0.0
 20
0.0
 30
0.0
  9
$UCSORGRIGHT
 10
0.0
 20
0.0
 30
0.0
  9
$UCSORGFRONT
 10
0.0
 20
0.0
 30
0.0
  9
$UCSORGBACK
 10
0.0
 20
0.0
 30
0.0
  9
$PUCSBASE
  2

  9
$PUCSNAME
  2

  9
$PUCSORG
 10
0.0
 20
0.0
 30
0.0
  9
$PUCSXDIR
 10
1.0
 20
0.0
 30
0.0
  9
$PUCSYDIR
 10
0.0
 20
1.0
 30
0.0
  9
$PUCSORTHOREF
  2

  9
$PUCSORTHOVIEW
 70
     0
  9
$PUCSORGTOP
 10
0.0
 20
0.0
 30
0.0
  9
$PUCSORGBOTTOM
 10
0.0
 20
0.0
 30
0.0
  9
$PUCSORGLEFT
 10
0.0
 20
0.0
 30
0.0
  9
$PUCSORGRIGHT
 10
0.0
 20
0.0
 30
0.0
  9
$PUCSORGFRONT
 10
0.0
 20
0.0
 30
0.0
  9
$PUCSORGBACK
 10
0.0
 20
0.0
 30
0.0
  9
$USERI1
 70
     0
  9
$USERI2
 70
     0
  9
$USERI3
 70
     0
  9
$USERI4
 70
     0
  9
$USERI5
 70
     0
  9
$USERR1
 40
0.0
  9
$USERR2
 40
0.0
  9
$USERR3
 40
0.0
  9
$USERR4
 40
0.0
  9
$USERR5
 40
0.0
  9
$WORLDVIEW
 70
     1
  9
$SHADEDGE
 70
     3
  9
$SHADEDIF
 70
    70
  9
$TILEMODE
 70
     1
  9
$MAXACTVP
 70
    64
  9
$PINSBASE
 10
0.0
 20
0.0
 30
0.0
  9
$PLIMCHECK
 70
     0
  9
$PEXTMIN
 10
1.000000000000000E+20
 20
1.000000000000000E+20
 30
1.000000000000000E+20
  9
$PEXTMAX
 10
-1.000000000000000E+20
 20
-1.000000000000000E+20
 30
-1.000000000000000E+20
  9
$PLIMMIN
 10
0.0
 20
0.0
  9
$PLIMMAX
 10
12.0
 20
9.0
  9
$UNITMODE
 70
     0
  9
$VISRETAIN
 70
     1
  9
$PLINEGEN
 70
     0
  9
$PSLTSCALE
 70
     1
  9
$TREEDEPTH
 70
  3020
  9
$CMLSTYLE
  2
Standard
  9
$CMLJUST
 70
     0
  9
$CMLSCALE
 40
1.0
  9
$PROXYGRAPHICS
 70
     1
  9
$MEASUREMENT
 70
     0
  9
$CELWEIGHT
370
    -1
  9
$ENDCAPS
280
     0
  9
$JOINSTYLE
280
     0
  9
$LWDISPLAY
290
     0
  9
$INSUNITS
 70
     4
  9
$HYPERLINKBASE
  1

  9
$STYLESHEET
  1

  9
$XEDIT
290
     1
  9
$CEPSNTYPE
380
     0
  9
$PSTYLEMODE
290
     0
  9
$FINGERPRINTGUID
  2
{FAEB1C30-E019-11D5-929B-00C0DF256EC4}
  9
$VERSIONGUID
  2
{C2D6DFF1-06EC-494C-B184-0FB6C7772A26}
  9
$EXTNAMES
290
     1
  9
$PSVPSCALE
 40
0.0
  9
$OLESTARTUP
290
     0
  0
ENDSEC
  0
SECTION
  2
CLASSES
  0
CLASS
  1
ACDBDICTIONARYWDFLT
  2
AcDbDictionaryWithDefault
  3
ObjectDBX Classes
 90
        0
280
     0
281
     0
  0
CLASS
  1
MATERIAL
  2
AcDbMaterial
  3
ObjectDBX Classes
 90
     1153
280
     0
281
     0
  0
CLASS
  1
MLEADERSTYLE
  2
AcDbMLeaderStyle
  3
ACDB_MLEADERSTYLE_CLASS
 90
     4095
280
     0
281
     0
  0
CLASS
  1
SCALE
  2
AcDbScale
  3
ObjectDBX Classes
 90
     1153
280
     0
281
     0
  0
CLASS
  1
TABLESTYLE
  2
AcDbTableStyle
  3
ObjectDBX Classes
 90
     4095
280
     0
281
     0
  0
CLASS
  1
VISUALSTYLE
  2
AcDbVisualStyle
  3
ObjectDBX Classes
 90
     4095
280
     0
281
     0
  0
CLASS
  1
DICTIONARYVAR
  2
AcDbDictionaryVar
  3
ObjectDBX Classes
 90
        0
280
     0
281
     0
  0
CLASS
  1
CELLSTYLEMAP
  2
AcDbCellStyleMap
  3
ObjectDBX Classes
 90
     1152
280
     0
281
     0
  0
CLASS
  1
AMGSETTINGSOBJ
  2
AmgSettingsObj
  3
"AcadM|Product Description: AutoCAD Mechanical|Company: Autodesk, Inc."
 90
     1024
280
     0
281
     0
  0
CLASS
  1
ACME_DOCUMENT
  2
AcMeDbDoc
  3
AcMeServices
 90
     1024
280
     0
281
     0
  0
CLASS
  1
ACMESCOPE
  2
AcMeScope
  3
AcMeServices
 90
     1024
280
     0
281
     0
  0
CLASS
  1
ACMECOMMANDHISTORY
  2
AcMeCommandHistory
  3
AcMeServices
 90
     1024
280
     0
281
     0
  0
CLASS
  1
ACIMSYSVARMAN
  2
AcImSysVarManager
  3
AcMeServices
 90
     1024
280
     0
281
     0
  0
CLASS
  1
ACIMINTSYSVAR
  2
AcImIntSysVar
  3
AcMeServices
 90
     1024
280
     0
281
     0
  0
CLASS
  1
ACMESTATEMGR
  2
AcMeStateMgr
  3
AcMeServices
 90
     1024
280
     0
281
     0
  0
CLASS
  1
ACDBENTITYCACHE
  2
AcMeEntityCache
  3
AcMeServices
 90
     1024
280
     0
281
     0
  0
CLASS
  1
ACGREFMASTER
  2
AcGrefMaster
  3
AcAttribServices
 90
     1024
280
     0
281
     0
  0
CLASS
  1
AM_DRAWING_MGR
  2
AcDmDwgMgr
  3
AcMechDwgViewMgmt
 90
     1024
280
     0
281
     0
  0
CLASS
  1
AM_DWG_DOCUMENT
  2
AcDmDwgDocument
  3
AcMechDwgViewMgmt
 90
     1024
280
     0
281
     0
  0
CLASS
  1
AM_DWG_SHEET
  2
AcDmSheet
  3
AcMechDwgViewMgmt
 90
     1024
280
     0
281
     0
  0
CLASS
  1
AM_VIEWDIMPARMAP
  2
AcDmViewDimParMap
  3
AcMechDwgViewMgmt
 90
     1024
280
     0
281
     0
  0
CLASS
  1
AMDTINTERNALREACTOR
  2
AmdtInternalReactor
  3
AcMeServices
 90
     1024
280
     0
281
     0
  0
CLASS
  1
ACIMREALSYSVAR
  2
AcImRealSysVar
  3
AcMeServices
 90
     1024
280
     0
281
     0
  0
CLASS
  1
AM_DWGMGR_NAME
  2
AcDmDwgMgrName
  3
AcMechDwgViewMgmt
 90
     1024
280
     0
281
     0
  0
CLASS
  1
ACME_DATABASE
  2
AcMeDbDatabase
  3
AcMeServices
 90
     1024
280
     0
281
     0
  0
CLASS
  1
ACRFINSADJUSTERMGR
  2
AcRfInsAdjusterMgr
  3
AcMeServices
 90
     1024
280
     0
281
     0
  0
CLASS
  1
ACGREFACADMASTER
  2
AcGrefacadMaster
  3
AcGrefServices
 90
     1024
280
     0
281
     0
  0
CLASS
  1
AMDTMENUSTATEMGR
  2
AmdtMenuStateMgr
  3
McadcomServices
 90
     1024
280
     0
281
     0
  0
CLASS
  1
AMDTMCOMMENUSTATE
  2
AmdtMcomMenuState
  3
McadcomServices
 90
     1024
280
     0
281
     0
  0
CLASS
  1
AMIMASTER
  2
AmiMaster
  3
AmiServices
 90
     1024
280
     0
281
     0
  0
CLASS
  1
MAPIAMMOUDLE
  2
MApiAmModule
  3
MApiAmServices
 90
     1024
280
     0
281
     0
  0
CLASS
  1
ACIMSTRSYSVAR
  2
AcImStrSysVar
  3
AcMeServices
 90
     1024
280
     0
281
     0
  0
CLASS
  1
AMDTDMMENUSTATE
  2
AmdtDmMenuState
  3
AcMechDwgViewMgmt
 90
     1024
280
     0
281
     0
  0
CLASS
  1
AMDTAMMENUSTATE
  2
AmdtAmMenuState
  3
DesignerAssemblies
 90
     1024
280
     0
281
     0
  0
CLASS
  1
ACAMPROJECT
  2
AcAmProject
  3
DesignerAssemblies
 90
     1024
280
     0
281
     0
  0
CLASS
  1
ACAMGRCOMPDEF
  2
AcAmGrCompDef
  3
DesignerAssemblies
 90
     1024
280
     0
281
     0
  0
CLASS
  1
ACAMCOMPDEF
  2
AcAmCompDef
  3
DesignerAssemblies
 90
     1024
280
     0
281
     0
  0
CLASS
  1
ACAMCOMPDEFMGR
  2
AcAmCompDefMgr
  3
DesignerAssemblies
 90
     1024
280
     0
281
     0
  0
CLASS
  1
AMCONTEXTMGR
  2
AcAmContextMgr
  3
DesignerAssemblies
 90
     1024
280
     0
281
     0
  0
CLASS
  1
ACAMCONTEXTMODELER
  2
AcAmContextModeler
  3
DesignerAssemblies
 90
     1024
280
     0
281
     0
  0
CLASS
  1
ACMDATADICTIONARY
  2
AcmDataDictionary
  3
"AcmSymBB|Product Description: AutoCAD Mechanical|Company: Autodesk, Inc."
 90
     1024
280
     0
281
     0
  0
CLASS
  1
ACAMGRCOMPDEFSET
  2
AcAmGrCompDefSet
  3
DesignerAssemblies
 90
     1024
280
     0
281
     0
  0
CLASS
  1
AMDTBROWSERDBTAB
  2
AmdtBrowserDbTab
  3
McadcomServices
 90
     1024
280
     0
281
     0
  0
CLASS
  1
CBROWSERAPPOBJECT
  2
CBrowserAppObject
  3
McadcomServices
 90
     1024
280
     0
281
     0
  0
CLASS
  1
DM_PLACEHOLDER
  2
AcDmSelsetPlaceholder
  3
AcMechDwgViewMgmt
 90
     1024
280
     0
281
     0
  0
CLASS
  1
EXACXREFPANELOBJECT
  2
ExAcXREFPanelObject
  3
EXAC_ESW
 90
     1025
280
     0
281
     0
  0
CLASS
  1
NPOCOLLECTION
  2
AcDbImpNonPersistentObjectsCollection
  3
ObjectDBX Classes
 90
     1153
280
     0
281
     0
  0
CLASS
  1
ACMSTANDARDANSI
  2
AcmStandardANSI
  3
"Amdt_StdImp|Product Description: AutoCAD Mechanical|Company: Autodesk, Inc."
 90
     1024
280
     0
281
     0
  0
CLASS
  1
ACMSURFSTANDARDANSI
  2
AcmSurfTextStdANSI
  3
"Amdt_StdImp|Product Description: AutoCAD Mechanical|Company: Autodesk, Inc."
 90
     1024
280
     0
281
     0
  0
CLASS
  1
ACMFCFSTANDARDANSI
  2
AcmFCFStdANSI
  3
"Amdt_StdImp|Product Description: AutoCAD Mechanical|Company: Autodesk, Inc."
 90
     1024
280
     0
281
     0
  0
CLASS
  1
ACMWELDSTANDARDANSI
  2
AcmWeldingStdANSI
  3
"Amdt_StdImp|Product Description: AutoCAD Mechanical|Company: Autodesk, Inc."
 90
     1024
280
     0
281
     0
  0
CLASS
  1
ACMIDSTANDARDANSI
  2
AcmIdStdANSI
  3
"Amdt_StdImp|Product Description: AutoCAD Mechanical|Company: Autodesk, Inc."
 90
     1024
280
     0
281
     0
  0
CLASS
  1
ACMDATUMSTANDARDANSI
  2
AcmDatumStdANSI
  3
"Amdt_StdImp|Product Description: AutoCAD Mechanical|Company: Autodesk, Inc."
 90
     1024
280
     0
281
     0
  0
CLASS
  1
ACMBOMSTANDARDANSI
  2
AcmBOMStdANSI
  3
"Amdt_StdImp|Product Description: AutoCAD Mechanical|Company: Autodesk, Inc."
 90
     1024
280
     0
281
     0
  0
CLASS
  1
ACMDETAILSTANDARDANSI
  2
AmdtDetailSymStdANSI
  3
"Amdt_StdImp|Product Description: AutoCAD Mechanical|Company: Autodesk, Inc."
 90
     1024
280
     0
281
     0
  0
CLASS
  1
ACMSECTIONSTANDARDANSI
  2
AmdtSectionSymStdANSI
  3
"Amdt_StdImp|Product Description: AutoCAD Mechanical|Company: Autodesk, Inc."
 90
     1024
280
     0
281
     0
  0
CLASS
  1
ACMCENTERLINESTANDARDANSI
  2
AmdtCenterLineStdANSI
  3
"Amdt_StdImp|Product Description: AutoCAD Mechanical|Company: Autodesk, Inc."
 90
     1024
280
     0
281
     0
  0
CLASS
  1
ACMTHREADLINESTANDARDANSI
  2
AmdtThreadLineStdANSI
  3
"Amdt_StdImp|Product Description: AutoCAD Mechanical|Company: Autodesk, Inc."
 90
     1024
280
     0
281
     0
  0
CLASS
  1
ACMNOTESTANDARDANSI
  2
AmdtNoteStdANSI
  3
"Amdt_StdImp|Product Description: AutoCAD Mechanical|Company: Autodesk, Inc."
 90
     1024
280
     0
281
     0
  0
CLASS
  1
ACMTAPERSTANDARDANSI
  2
AcmTaperStdANSI
  3
"Amdt_StdImp|Product Description: AutoCAD Mechanical|Company: Autodesk, Inc."
 90
     1024
280
     0
281
     0
  0
CLASS
  1
ACMANOOTATIONVIEWSTANDARDANSI
  2
AmdtAnViewStdANSI
  3
"Amdt_StdImp|Product Description: AutoCAD Mechanical|Company: Autodesk, Inc."
 90
     1024
280
     0
281
     0
  0
CLASS
  1
ACAMGLAYSTD
  2
AcAmgLayStd
  3
"AmgLay|Product Description: AutoCAD Mechanical|Company: Autodesk, Inc."
 90
     1024
280
     0
281
     0
  0
CLASS
  1
ACAMGDIMSTD
  2
AcAmgDimStd
  3
"AmgDim|Product Description: AutoCAD Mechanical|Company: Autodesk, Inc."
 90
     1024
280
     0
281
     0
  0
CLASS
  1
AMGOBJPROPCFG
  2
AmgObjPropCfg
  3
"AmgLay|Product Description: AutoCAD Mechanical|Company: Autodesk, Inc."
 90
     1025
280
     0
281
     0
  0
CLASS
  1
ACAMGHOLECHARTSTDANSI
  2
AcAmgHoleChartStdANSI
  3
AmgDim|Product Description: AutoCAD Mechanical|Company: Autodesk, Inc.
 90
     1024
280
     0
281
     0
  0
CLASS
  1
ACAMGTITLESTD
  2
AcAmgTitleStd
  3
"AmgTitle|Product Description: AutoCAD Mechanical|Company: Autodesk, Inc."
 90
     4095
280
     0
281
     0
  0
CLASS
  1
AMDTNOTETEMPLATEDB
  2
AmdtNoteTemplateDB
  3
AcmSymBB|Product Description: AutoCAD Mechanical|Company: Autodesk, Inc.
 90
     1024
280
     0
281
     0
  0
CLASS
  1
ACAMGFILTERDAT
  2
AcAmgFilterDat
  3
"AcadM|Product Description: AutoCAD Mechanical|Company: Autodesk, Inc."
 90
     1024
280
     0
281
     0
  0
CLASS
  1
ACDBPLACEHOLDER
  2
AcDbPlaceHolder
  3
ObjectDBX Classes
 90
        0
280
     0
281
     0
  0
CLASS
  1
LAYOUT
  2
AcDbLayout
  3
ObjectDBX Classes
 90
        0
280
     0
281
     0
  0
ENDSEC
  0
SECTION
  2
TABLES
  0
TABLE
  2
VPORT
  5
24A
330
0
100
AcDbSymbolTable
 70
     1
  0
VPORT
  5
26B
330
24A
100
AcDbSymbolTableRecord
100
AcDbViewportTableRecord
  2
*Active
 70
     0
 10
0.0
 20
0.0
 11
1.0
 21
1.0
 12
42.70806773975695
 22
-2.017552593739367
 13
0.0
 23
0.0
 14
10.0
 24
10.0
 15
10.0
 25
10.0
 16
0.0
 26
0.0
 36
1.0
 17
0.0
 27
0.0
 37
0.0
 40
197.4847123236298
 41
1.492489270386266
 42
1.0
 43
0.0
 44
0.0
 50
0.0
 51
0.0000000000007958
 71
     0
 72
   100
 73
     1
 74
     3
 75
     0
 76
     0
 77
     0
 78
     1
281
     0
 65
     0
110
0.0
120
0.0
130
0.0
111
1.0
121
0.0
131
0.0
112
0.0
122
1.0
132
0.0
 79
     0
146
0.0
  0
ENDTAB
  0
TABLE
  2
LTYPE
  5
247
330
0
100
AcDbSymbolTable
 70
    37
  0
LTYPE
  5
256
330
247
100
AcDbSymbolTableRecord
100
AcDbLinetypeTableRecord
  2
ByBlock
 70
     0
  3

 72
    65
 73
     0
 40
0.0
  0
LTYPE
  5
257
330
247
100
AcDbSymbolTableRecord
100
AcDbLinetypeTableRecord
  2
ByLayer
 70
     0
  3

 72
    65
 73
     0
 40
0.0
  0
LTYPE
  5
258
330
247
100
AcDbSymbolTableRecord
100
AcDbLinetypeTableRecord
  2
Continuous
 70
     0
  3
Solid line
 72
    65
 73
     0
 40
0.0
  0
LTYPE
  5
273
330
247
100
AcDbSymbolTableRecord
100
AcDbLinetypeTableRecord
  2
CENTER
 70
     0
  3
Center ____ _ ____ _ ____ _ ____ _ ____ _ ____
 72
    65
 73
     4
 40
2.0
 49
1.25
 74
     0
 49
-0.25
 74
     0
 49
0.25
 74
     0
 49
-0.25
 74
     0
  0
LTYPE
  5
274
330
247
100
AcDbSymbolTableRecord
100
AcDbLinetypeTableRecord
  2
DASHDOT
 70
     0
  3
Dashdot __ . __ . __ . __ . __ . __ . __ . __
 72
    65
 73
     4
 40
1.0
 49
0.5
 74
     0
 49
-0.25
 74
     0
 49
0.0
 74
     0
 49
-0.25
 74
     0
  0
LTYPE
  5
275
330
247
100
AcDbSymbolTableRecord
100
AcDbLinetypeTableRecord
  2
DASHED
 70
     0
  3
Dashed __ __ __ __ __ __ __ __ __ __ __ __ __ _
 72
    65
 73
     2
 40
0.75
 49
0.5
 74
     0
 49
-0.25
 74
     0
  0
LTYPE
  5
276
330
247
100
AcDbSymbolTableRecord
100
AcDbLinetypeTableRecord
  2
HIDDEN
 70
     0
  3
Hidden __ __ __ __ __ __ __ __ __ __ __ __ __ __
 72
    65
 73
     2
 40
0.375
 49
0.25
 74
     0
 49
-0.125
 74
     0
  0
LTYPE
  5
277
330
247
100
AcDbSymbolTableRecord
100
AcDbLinetypeTableRecord
  2
HIDDEN2
 70
     0
  3
Hidden2 _ _ _ _ _ _ _ _ _ _ _ _ _ _ _ _ _
 72
    65
 73
     2
 40
0.1875
 49
0.125
 74
     0
 49
-0.0625
 74
     0
  0
LTYPE
  5
278
330
247
100
AcDbSymbolTableRecord
100
AcDbLinetypeTableRecord
  2
BORDER
 70
     0
  3
Border __ __ . __ __ . __ __ . __ __ . __ __ .
 72
    65
 73
     6
 40
1.75
 49
0.5
 74
     0
 49
-0.25
 74
     0
 49
0.5
 74
     0
 49
-0.25
 74
     0
 49
0.0
 74
     0
 49
-0.25
 74
     0
  0
LTYPE
  5
279
330
247
100
AcDbSymbolTableRecord
100
AcDbLinetypeTableRecord
  2
BORDER2
 70
     0
  3
Border2 __.__.__.__.__.__.__.__.__.__.__.
 72
    65
 73
     6
 40
0.875
 49
0.25
 74
     0
 49
-0.125
 74
     0
 49
0.25
 74
     0
 49
-0.125
 74
     0
 49
0.0
 74
     0
 49
-0.125
 74
     0
  0
LTYPE
  5
27A
330
247
100
AcDbSymbolTableRecord
100
AcDbLinetypeTableRecord
  2
BORDERX2
 70
     0
  3
Borderx2  ____  ____  .  ____  ____  .  ___
 72
    65
 73
     6
 40
3.5
 49
1.0
 74
     0
 49
-0.5
 74
     0
 49
1.0
 74
     0
 49
-0.5
 74
     0
 49
0.0
 74
     0
 49
-0.5
 74
     0
  0
LTYPE
  5
27B
330
247
100
AcDbSymbolTableRecord
100
AcDbLinetypeTableRecord
  2
CENTER2
 70
     0
  3
Center2  ___ _ ___ _ ___ _ ___ _ ___ _ ___
 72
    65
 73
     4
 40
1.125
 49
0.75
 74
     0
 49
-0.125
 74
     0
 49
0.125
 74
     0
 49
-0.125
 74
     0
  0
LTYPE
  5
27C
330
247
100
AcDbSymbolTableRecord
100
AcDbLinetypeTableRecord
  2
CENTERX2
 70
     0
  3
Centerx2  ________  __  ________  __  _____
 72
    65
 73
     4
 40
4.0
 49
2.5
 74
     0
 49
-0.5
 74
     0
 49
0.5
 74
     0
 49
-0.5
 74
     0
  0
LTYPE
  5
27D
330
247
100
AcDbSymbolTableRecord
100
AcDbLinetypeTableRecord
  2
DASHDOT2
 70
     0
  3
Dashdot2  _._._._._._._._._._._._._._._.
 72
    65
 73
     4
 40
0.5
 49
0.25
 74
     0
 49
-0.125
 74
     0
 49
0.0
 74
     0
 49
-0.125
 74
     0
  0
LTYPE
  5
27E
330
247
100
AcDbSymbolTableRecord
100
AcDbLinetypeTableRecord
  2
DASHDOTX2
 70
     0
  3
Dashdotx2 ____  .  ____  .  ____  .  ___
 72
    65
 73
     4
 40
2.0
 49
1.0
 74
     0
 49
-0.5
 74
     0
 49
0.0
 74
     0
 49
-0.5
 74
     0
  0
LTYPE
  5
27F
330
247
100
AcDbSymbolTableRecord
100
AcDbLinetypeTableRecord
  2
DASHED2
 70
     0
  3
Dashed2 _ _ _ _ _ _ _ _ _ _ _ _ _ _ _ _ _
 72
    65
 73
     2
 40
0.375
 49
0.25
 74
     0
 49
-0.125
 74
     0
  0
LTYPE
  5
280
330
247
100
AcDbSymbolTableRecord
100
AcDbLinetypeTableRecord
  2
DASHEDX2
 70
     0
  3
Dashedx2 ____  ____  ____  ____  ____  ___
 72
    65
 73
     2
 40
1.5
 49
1.0
 74
     0
 49
-0.5
 74
     0
  0
LTYPE
  5
281
330
247
100
AcDbSymbolTableRecord
100
AcDbLinetypeTableRecord
  2
DIVIDE
 70
     0
  3
Divide ____ . . ____ . . ____ . . ____ . . ____
 72
    65
 73
     6
 40
1.25
 49
0.5
 74
     0
 49
-0.25
 74
     0
 49
0.0
 74
     0
 49
-0.25
 74
     0
 49
0.0
 74
     0
 49
-0.25
 74
     0
  0
LTYPE
  5
282
330
247
100
AcDbSymbolTableRecord
100
AcDbLinetypeTableRecord
  2
DIVIDE2
 70
     0
  3
Divide2 __..__..__..__..__..__..__..__.._
 72
    65
 73
     6
 40
0.625
 49
0.25
 74
     0
 49
-0.125
 74
     0
 49
0.0
 74
     0
 49
-0.125
 74
     0
 49
0.0
 74
     0
 49
-0.125
 74
     0
  0
LTYPE
  5
283
330
247
100
AcDbSymbolTableRecord
100
AcDbLinetypeTableRecord
  2
DIVIDEX2
 70
     0
  3
Dividex2 ________  .  .  ________  .  .  _
 72
    65
 73
     6
 40
2.5
 49
1.0
 74
     0
 49
-0.5
 74
     0
 49
0.0
 74
     0
 49
-0.5
 74
     0
 49
0.0
 74
     0
 49
-0.5
 74
     0
  0
LTYPE
  5
284
330
247
100
AcDbSymbolTableRecord
100
AcDbLinetypeTableRecord
  2
DOT
 70
     0
  3
Dot . . . . . . . . . . . . . . . . . . . . . . . .
 72
    65
 73
     2
 40
0.25
 49
0.0
 74
     0
 49
-0.25
 74
     0
  0
LTYPE
  5
285
330
247
100
AcDbSymbolTableRecord
100
AcDbLinetypeTableRecord
  2
DOT2
 70
     0
  3
Dot2 ........................................
 72
    65
 73
     2
 40
0.125
 49
0.0
 74
     0
 49
-0.125
 74
     0
  0
LTYPE
  5
286
330
247
100
AcDbSymbolTableRecord
100
AcDbLinetypeTableRecord
  2
DOTX2
 70
     0
  3
Dotx2 .  .  .  .  .  .  .  .  .  .  .  .  .  .
 72
    65
 73
     2
 40
0.5
 49
0.0
 74
     0
 49
-0.5
 74
     0
  0
LTYPE
  5
287
330
247
100
AcDbSymbolTableRecord
100
AcDbLinetypeTableRecord
  2
HIDDENX2
 70
     0
  3
Hiddenx2 ____ ____ ____ ____ ____ ____ ____
 72
    65
 73
     2
 40
0.75
 49
0.5
 74
     0
 49
-0.25
 74
     0
  0
LTYPE
  5
288
330
247
100
AcDbSymbolTableRecord
100
AcDbLinetypeTableRecord
  2
PHANTOM
 70
     0
  3
Phantom ______  __  __  ______  __  __  ______
 72
    65
 73
     6
 40
2.5
 49
1.25
 74
     0
 49
-0.25
 74
     0
 49
0.25
 74
     0
 49
-0.25
 74
     0
 49
0.25
 74
     0
 49
-0.25
 74
     0
  0
LTYPE
  5
289
330
247
100
AcDbSymbolTableRecord
100
AcDbLinetypeTableRecord
  2
PHANTOM2
 70
     0
  3
Phantom2 ___ _ _ ___ _ _ ___ _ _ ___ _ _
 72
    65
 73
     6
 40
1.25
 49
0.625
 74
     0
 49
-0.125
 74
     0
 49
0.125
 74
     0
 49
-0.125
 74
     0
 49
0.125
 74
     0
 49
-0.125
 74
     0
  0
LTYPE
  5
28A
330
247
100
AcDbSymbolTableRecord
100
AcDbLinetypeTableRecord
  2
PHANTOMX2
 70
     0
  3
Phantomx2 ____________    ____    ____   _
 72
    65
 73
     6
 40
5.0
 49
2.5
 74
     0
 49
-0.5
 74
     0
 49
0.5
 74
     0
 49
-0.5
 74
     0
 49
0.5
 74
     0
 49
-0.5
 74
     0
  0
LTYPE
  5
F10B6C
330
247
100
AcDbSymbolTableRecord
100
AcDbLinetypeTableRecord
  2
AM_ISO02W050
 70
     0
  3
__ __ __ __ __ __ __ __ __ __ __ __ __ __ __
 72
    65
 73
     2
 40
7.5
 49
6.0
 74
     0
 49
-1.5
 74
     0
  0
LTYPE
  5
F10B6D
330
247
100
AcDbSymbolTableRecord
100
AcDbLinetypeTableRecord
  2
AM_ISO08W050
 70
     0
  3
____ . ____ . ____ . ____ . ____ . ____ . ____
 72
    65
 73
     4
 40
18.0
 49
12.0
 74
     0
 49
-1.5
 74
     0
 49
3.0
 74
     0
 49
-1.5
 74
     0
  0
LTYPE
  5
F10B6E
330
247
100
AcDbSymbolTableRecord
100
AcDbLinetypeTableRecord
  2
AM_ISO09W050
 70
     0
  3
_____ . . _____ . . _____ . . ____ .. ____
 72
    65
 73
     6
 40
22.5
 49
12.0
 74
     0
 49
-1.5
 74
     0
 49
3.0
 74
     0
 49
-1.5
 74
     0
 49
3.0
 74
     0
 49
-1.5
 74
     0
  0
LTYPE
  5
F10B6F
330
247
100
AcDbSymbolTableRecord
100
AcDbLinetypeTableRecord
  2
Amconstr
 70
     0
  3
_______________________
 72
    65
 73
     2
 40
9999.0
 49
9999.0
 74
     0
 49
0.0
 74
     0
  0
LTYPE
  5
F10B70
330
247
100
AcDbSymbolTableRecord
100
AcDbLinetypeTableRecord
  2
AM_ISO08W050x2
 70
     0
  3
__ . __ . __ . __ . __ . __
 72
    65
 73
     4
 40
9.0
 49
6.0
 74
     0
 49
-0.75
 74
     0
 49
1.5
 74
     0
 49
-0.75
 74
     0
  0
LTYPE
  5
F10B71
330
247
100
AcDbSymbolTableRecord
100
AcDbLinetypeTableRecord
  2
AM_ISO02W050x2
 70
     0
  3
 _ _ _ _ _ _ _ _ _ _ _ _
 72
    65
 73
     2
 40
3.75
 49
3.0
 74
     0
 49
-0.75
 74
     0
  0
LTYPE
  5
F10B74
330
247
100
AcDbSymbolTableRecord
100
AcDbLinetypeTableRecord
  2
Amzigzag
 70
     0
  3
/\/-/\/-/\/-/\/-/\/-/\/
 72
    65
 73
     2
 40
11.0001
 49
0.0001
 74
     4
 75
   136
340
F10B73
 46
0.04
 50
0.0
 44
0.0
 45
0.0
 49
-11.0
 74
     0
  0
LTYPE
  5
F10B75
330
247
100
AcDbSymbolTableRecord
100
AcDbLinetypeTableRecord
  2
Amzigzag2
 70
     0
  3
/\/-/\/-/\/-/\/-/\/-/\/
 72
    65
 73
     2
 40
0.4401
 49
0.0001
 74
     4
 75
   136
340
F10B73
 46
0.0016
 50
0.0
 44
0.0
 45
0.0
 49
-0.4400000000000001
 74
     0
  0
LTYPE
  5
F10B83
330
247
100
AcDbSymbolTableRecord
100
AcDbLinetypeTableRecord
  2
ACANSTGB
 70
     0
  3
__ . . __ . .
 72
    65
 73
     6
 40
0.35433070866
 49
0.15748031496
 74
     0
 49
-0.03937007874
 74
     0
 49
0.03937007874
 74
     0
 49
-0.03937007874
 74
     0
 49
0.03937007874
 74
     0
 49
-0.03937007874
 74
     0
  0
LTYPE
  5
F10B84
330
247
100
AcDbSymbolTableRecord
100
AcDbLinetypeTableRecord
  2
ACANSTGL
 70
     0
  3
_ _ _ _ _
 72
    65
 73
     2
 40
0.11811023622
 49
0.07874015748
 74
     0
 49
-0.03937007874
 74
     0
  0
ENDTAB
  0
TABLE
  2
LAYER
  5
244
330
0
100
AcDbSymbolTable
 70
     6
  0
LAYER
  5
252
330
244
100
AcDbSymbolTableRecord
100
AcDbLayerTableRecord
  2
0
 70
     0
 62
     7
  6
Continuous
370
     0
390
19
  0
LAYER
  5
23F
330
244
100
AcDbSymbolTableRecord
100
AcDbLayerTableRecord
  2
Bemassung
 70
     0
 62
     7
  6
Continuous
370
     0
390
19
  0
LAYER
  5
240
330
244
100
AcDbSymbolTableRecord
100
AcDbLayerTableRecord
  2
Rahmen
 70
     0
 62
     7
  6
Continuous
370
     0
390
19
  0
LAYER
  5
241
330
244
100
AcDbSymbolTableRecord
100
AcDbLayerTableRecord
  2
Geo
 70
     0
 62
     7
  6
Continuous
370
     0
390
19
  0
LAYER
  5
33A
330
244
100
AcDbSymbolTableRecord
100
AcDbLayerTableRecord
  2
Defpoints
 70
     0
 62
     7
  6
Continuous
290
     0
370
    -3
390
19
  0
LAYER
  5
57E
330
244
100
AcDbSymbolTableRecord
100
AcDbLayerTableRecord
  2
Text
 70
     0
 62
     7
  6
Continuous
370
     0
390
19
1001
AcAecLayerStandard
1000

1000

  0
ENDTAB
  0
TABLE
  2
STYLE
  5
245
330
0
100
AcDbSymbolTable
 70
     5
  0
STYLE
  5
253
330
245
100
AcDbSymbolTableRecord
100
AcDbTextStyleTableRecord
  2
Standard
 70
     0
 40
0.0
 41
1.0
 50
0.0
 71
     0
 42
0.2
  3
Arial
  4

1001
ACAD
1000
Arial
1071
        0
  0
STYLE
  5
132
330
245
100
AcDbSymbolTableRecord
100
AcDbTextStyleTableRecord
  2
Beschriftung
 70
     0
 40
0.0
 41
1.0
 50
0.0
 71
     0
 42
0.2
  3
Arial
  4

1001
ACAD
1000
Arial
1071
        0
1001
AcadAnnotative
1000
AnnotativeData
1070
     1
1070
     1
  0
STYLE
  5
F10B73
330
245
100
AcDbSymbolTableRecord
100
AcDbTextStyleTableRecord
  2

 70
     1
 40
0.0
 41
1.0
 50
0.0
 71
     0
 42
0.2
  3
genltshp.shx
  4

  0
STYLE
  5
F10B81
330
245
100
AcDbSymbolTableRecord
100
AcDbTextStyleTableRecord
  2
ACANSTS
 70
     0
 40
1.0
 41
1.0
 50
0.0
 71
     0
 42
0.2
  3
romans.shx
  4

  0
STYLE
  5
F10B82
330
245
100
AcDbSymbolTableRecord
100
AcDbTextStyleTableRecord
  2
ACANSGDT
 70
     0
 40
0.0
 41
1.0
 50
0.0
 71
     0
 42
0.2
  3
amgdt.shx
  4

  0
ENDTAB
  0
TABLE
  2
VIEW
  5
248
330
0
100
AcDbSymbolTable
 70
     0
  0
ENDTAB
  0
TABLE
  2
UCS
  5
249
330
0
100
AcDbSymbolTable
 70
     0
  0
ENDTAB
  0
TABLE
  2
APPID
  5
24B
330
0
100
AcDbSymbolTable
 70
    28
  0
APPID
  5
254
330
24B
100
AcDbSymbolTableRecord
100
AcDbRegAppTableRecord
  2
ACAD
 70
     0
  0
APPID
  5
26C
330
24B
100
AcDbSymbolTableRecord
100
AcDbRegAppTableRecord
  2
VD_INVISIBLE_NOT_FOR_READ
 70
     0
  0
APPID
  5
26D
330
24B
100
AcDbSymbolTableRecord
100
AcDbRegAppTableRecord
  2
VD_TEMPHATCH
 70
     0
  0
APPID
  5
26E
330
24B
100
AcDbSymbolTableRecord
100
AcDbRegAppTableRecord
  2
VDEXTRAPARAM
 70
     0
  0
APPID
  5
26F
330
24B
100
AcDbSymbolTableRecord
100
AcDbRegAppTableRecord
  2
PE_URL
 70
     0
  0
APPID
  5
270
330
24B
100
AcDbSymbolTableRecord
100
AcDbRegAppTableRecord
  2
VD_UNKNOWN
 70
     0
  0
APPID
  5
28F
330
24B
100
AcDbSymbolTableRecord
100
AcDbRegAppTableRecord
  2
AcadAnnotative
 70
     0
  0
APPID
  5
290
330
24B
100
AcDbSymbolTableRecord
100
AcDbRegAppTableRecord
  2
ACAD_DSTYLE_DIMJAG
 70
     0
  0
APPID
  5
291
330
24B
100
AcDbSymbolTableRecord
100
AcDbRegAppTableRecord
  2
ACAD_DSTYLE_DIMTALN
 70
     0
  0
APPID
  5
293
330
24B
100
AcDbSymbolTableRecord
100
AcDbRegAppTableRecord
  2
ACAD_PSEXT
 70
     0
  0
APPID
  5
42A
330
24B
100
AcDbSymbolTableRecord
100
AcDbRegAppTableRecord
  2
ACAD_MLEADERVER
 70
     0
  0
APPID
  5
532
330
24B
100
AcDbSymbolTableRecord
100
AcDbRegAppTableRecord
  2
ACAD_EXEMPT_FROM_CAD_STANDARDS
 70
     0
  0
APPID
  5
57F
330
24B
100
AcDbSymbolTableRecord
100
AcDbRegAppTableRecord
  2
AcAecLayerStandard
 70
     0
  0
APPID
  5
F10B06
330
24B
100
AcDbSymbolTableRecord
100
AcDbRegAppTableRecord
  2
MCAD_NO_VIS
 70
     0
  0
APPID
  5
F10B07
330
24B
100
AcDbSymbolTableRecord
100
AcDbRegAppTableRecord
  2
ACAD_TEMP_GRAPHIC
 70
     0
  0
APPID
  5
F10B30
330
24B
100
AcDbSymbolTableRecord
100
AcDbRegAppTableRecord
  2
AD_DRAW
 70
     0
  0
APPID
  5
F10B33
330
24B
100
AcDbSymbolTableRecord
100
AcDbRegAppTableRecord
  2
ACATTRIBSERVICES
 70
     0
  0
APPID
  5
F10B4C
330
24B
100
AcDbSymbolTableRecord
100
AcDbRegAppTableRecord
  2
DESIGNERASSEMBLIES
 70
     0
  0
APPID
  5
F10B51
330
24B
100
AcDbSymbolTableRecord
100
AcDbRegAppTableRecord
  2
ACADM_DIM_EDIT
 70
     0
  0
APPID
  5
F10B52
330
24B
100
AcDbSymbolTableRecord
100
AcDbRegAppTableRecord
  2
AMDT_DM_ADJ
 70
     0
  0
APPID
  5
F10B6A
330
24B
100
AcDbSymbolTableRecord
100
AcDbRegAppTableRecord
  2
ACAD_DSTYLE_DIMBREAK
 70
     0
  0
APPID
  5
F10B8B
330
24B
100
AcDbSymbolTableRecord
100
AcDbRegAppTableRecord
  2
GENIUS_GENSCREG_15
 70
     0
  0
APPID
  5
F10B8C
330
24B
100
AcDbSymbolTableRecord
100
AcDbRegAppTableRecord
  2
GENIUS_GENOBJ-N-SDF_13
 70
     0
  0
APPID
  5
F10B8D
330
24B
100
AcDbSymbolTableRecord
100
AcDbRegAppTableRecord
  2
GENIUS_GENODEF_13
 70
     0
  0
APPID
  5
F10D8F
330
24B
100
AcDbSymbolTableRecord
100
AcDbRegAppTableRecord
  2
ACAD_DSTYLE_DIMARC_LENGTH_SYMBOL
 70
     0
  0
APPID
  5
F10D90
330
24B
100
AcDbSymbolTableRecord
100
AcDbRegAppTableRecord
  2
ACAD_DSTYLE_DIM_LINETYPE
 70
     0
  0
APPID
  5
F10D91
330
24B
100
AcDbSymbolTableRecord
100
AcDbRegAppTableRecord
  2
ACAD_DSTYLE_DIM_EXT1_LINETYPE
 70
     0
  0
APPID
  5
F10D92
330
24B
100
AcDbSymbolTableRecord
100
AcDbRegAppTableRecord
  2
ACAD_DSTYLE_DIM_EXT2_LINETYPE
 70
     0
  0
ENDTAB
  0
TABLE
  2
DIMSTYLE
  5
24C
330
0
100
AcDbSymbolTable
 70
    10
100
AcDbDimStyleTable
 71
     2
340
27
340
269
  0
DIMSTYLE
105
269
330
24C
100
AcDbSymbolTableRecord
100
AcDbDimStyleTableRecord
  2
Standard
 70
     0
172
     1
174
     1
288
     1
340
253
342
23C
  0
DIMSTYLE
105
137
330
24C
100
AcDbSymbolTableRecord
100
AcDbDimStyleTableRecord
  2
Beschriftung
 70
     0
 41
2.5
 42
0.625
 44
1.25
 73
     0
 74
     0
 77
     1
140
2.5
147
0.625
172
     1
174
     1
271
     2
288
     1
340
253
342
23C
1001
AcadAnnotative
1000
AnnotativeData
1070
     1
1070
     1
1001
ACAD_DSTYLE_DIMJAG
1070
   388
1040
1.5
1001
ACAD_DSTYLE_DIMTALN
1070
   392
1070
     0
  0
DIMSTYLE
105
27
102
{ACAD_REACTORS
330
F10017
330
F10021
330
F1002B
330
F10030
330
F10008
330
F1000D
330
F1001C
102
}
330
24C
100
AcDbSymbolTableRecord
100
AcDbDimStyleTableRecord
  2
BEM-ISBE
 70
     0
 41
2.5
 42
0.625
 44
1.25
 48
0.000000001
 71
     1
 73
     0
 74
     0
 77
     1
140
2.5
146
0.5
147
0.625
171
     3
172
     1
179
     3
271
     3
272
     3
274
     3
340
253
342
23C
1001
ACAD_DSTYLE_DIMJAG
1070
   388
1040
1.5
1001
ACAD_DSTYLE_DIMTALN
1070
   392
1070
     1
  0
DIMSTYLE
105
F10B69
102
{ACAD_REACTORS
330
F10B59
102
}
330
24C
100
AcDbSymbolTableRecord
100
AcDbDimStyleTableRecord
  2
AM_ANSI
 70
     0
  4
mm
 41
0.12
 42
0.05
 43
0.5
 44
0.1
 47
0.1
 48
0.1
 78
     7
 79
     2
140
0.12
141
0.0
146
0.71
147
0.06
176
   256
177
   256
178
     2
274
     4
284
     7
340
253
371
    -1
372
    -1
1001
ACAD_DSTYLE_DIMJAG
1070
   388
1040
1.5
1001
ACAD_DSTYLE_DIMBREAK
1070
   391
1040
0.125
1001
ACAD_DSTYLE_DIMARC_LENGTH_SYMBOL
1070
   379
1070
     1
1001
ACAD_DSTYLE_DIM_LINETYPE
1070
   380
1005
256
1001
ACAD_DSTYLE_DIM_EXT1_LINETYPE
1070
   381
1005
256
1001
ACAD_DSTYLE_DIM_EXT2_LINETYPE
1070
   382
1005
256
  0
DIMSTYLE
105
F10B76
330
24C
100
AcDbSymbolTableRecord
100
AcDbDimStyleTableRecord
  2
AM_ANSI$3
 70
     0
  4
mm
 41
0.12
 42
0.05
 43
0.5
 44
0.1
 47
0.1
 48
0.1
 78
     7
 79
     2
140
0.12
141
0.0
146
0.71
147
0.06
176
   256
177
   256
178
     2
274
     4
284
     7
288
     1
289
     0
340
253
371
    -1
372
    -1
1001
ACAD_DSTYLE_DIMBREAK
1070
   391
1040
0.125
1001
ACAD_DSTYLE_DIMJAG
1070
   388
1040
1.5
1001
ACAD_DSTYLE_DIMARC_LENGTH_SYMBOL
1070
   379
1070
     1
1001
ACAD_DSTYLE_DIM_LINETYPE
1070
   380
1005
256
1001
ACAD_DSTYLE_DIM_EXT1_LINETYPE
1070
   381
1005
256
1001
ACAD_DSTYLE_DIM_EXT2_LINETYPE
1070
   382
1005
256
  0
DIMSTYLE
105
F10B77
330
24C
100
AcDbSymbolTableRecord
100
AcDbDimStyleTableRecord
  2
AM_ANSI$4
 70
     0
  4
mm
 41
0.12
 42
0.05
 43
0.5
 44
0.1
 47
0.1
 48
0.1
 78
     7
 79
     2
140
0.12
141
0.0
146
0.71
147
0.06
176
   256
177
   256
178
     2
274
     4
284
     7
288
     1
289
     0
340
253
371
    -1
372
    -1
1001
ACAD_DSTYLE_DIMBREAK
1070
   391
1040
0.125
1001
ACAD_DSTYLE_DIMJAG
1070
   388
1040
1.5
1001
ACAD_DSTYLE_DIMARC_LENGTH_SYMBOL
1070
   379
1070
     1
1001
ACAD_DSTYLE_DIM_LINETYPE
1070
   380
1005
256
1001
ACAD_DSTYLE_DIM_EXT1_LINETYPE
1070
   381
1005
256
1001
ACAD_DSTYLE_DIM_EXT2_LINETYPE
1070
   382
1005
256
  0
DIMSTYLE
105
F10B78
330
24C
100
AcDbSymbolTableRecord
100
AcDbDimStyleTableRecord
  2
AM_ANSI$7
 70
     0
  4
mm
 41
0.12
 42
0.05
 43
0.5
 44
0.1
 47
0.1
 48
0.1
 78
     7
 79
     2
140
0.12
141
0.0
146
0.71
147
0.06
176
   256
177
   256
178
     2
274
     4
284
     7
340
253
371
    -1
372
    -1
1001
ACAD_DSTYLE_DIMBREAK
1070
   391
1040
0.125
1001
ACAD_DSTYLE_DIMJAG
1070
   388
1040
1.5
1001
ACAD_DSTYLE_DIMARC_LENGTH_SYMBOL
1070
   379
1070
     1
1001
ACAD_DSTYLE_DIM_LINETYPE
1070
   380
1005
256
1001
ACAD_DSTYLE_DIM_EXT1_LINETYPE
1070
   381
1005
256
1001
ACAD_DSTYLE_DIM_EXT2_LINETYPE
1070
   382
1005
256
  0
DIMSTYLE
105
F10B79
330
24C
100
AcDbSymbolTableRecord
100
AcDbDimStyleTableRecord
  2
AM_ANSI$SF
 70
     0
  4
mm
 41
0.12
 42
0.05
 43
0.5
 44
0.1
 47
0.1
 48
0.1
 75
     1
 76
     1
 78
     7
 79
     2
140
0.12
141
0.0
146
0.71
147
0.06
176
   256
177
   256
178
     2
274
     4
284
     7
340
253
371
    -1
372
    -1
1001
ACAD_DSTYLE_DIMBREAK
1070
   391
1040
0.125
1001
ACAD_DSTYLE_DIMJAG
1070
   388
1040
1.5
1001
ACAD_DSTYLE_DIMARC_LENGTH_SYMBOL
1070
   379
1070
     1
1001
ACAD_DSTYLE_DIM_LINETYPE
1070
   380
1005
256
1001
ACAD_DSTYLE_DIM_EXT1_LINETYPE
1070
   381
1005
256
1001
ACAD_DSTYLE_DIM_EXT2_LINETYPE
1070
   382
1005
256
  0
DIMSTYLE
105
F10B7E
330
24C
100
AcDbSymbolTableRecord
100
AcDbDimStyleTableRecord
  2
AM_ANSI$SH
 70
     0
  4
mm
 41
0.12
 42
0.05
 43
0.5
 44
0.1
 47
0.1
 48
0.1
 75
     1
 76
     1
 78
     7
 79
     2
140
0.12
141
0.0
146
0.71
147
0.06
173
     1
176
   256
177
   256
178
     2
274
     4
284
     7
340
253
343
F10B7A
371
    -1
372
    -1
1001
ACAD_DSTYLE_DIMBREAK
1070
   391
1040
0.125
1001
ACAD_DSTYLE_DIMJAG
1070
   388
1040
1.5
1001
ACAD_DSTYLE_DIMARC_LENGTH_SYMBOL
1070
   379
1070
     1
1001
ACAD_DSTYLE_DIM_LINETYPE
1070
   380
1005
256
1001
ACAD_DSTYLE_DIM_EXT1_LINETYPE
1070
   381
1005
256
1001
ACAD_DSTYLE_DIM_EXT2_LINETYPE
1070
   382
1005
256
  0
ENDTAB
  0
TABLE
  2
BLOCK_RECORD
  5
243
330
0
100
AcDbSymbolTable
 70
    16
  0
BLOCK_RECORD
  5
261
330
243
100
AcDbSymbolTableRecord
100
AcDbBlockTableRecord
  2
*Model_Space
340
FD0
  0
BLOCK_RECORD
  5
25D
330
243
100
AcDbSymbolTableRecord
100
AcDbBlockTableRecord
  2
*Paper_Space
340
FD1
  0
BLOCK_RECORD
  5
265
330
243
100
AcDbSymbolTableRecord
100
AcDbBlockTableRecord
  2
*Paper_Space0
340
0
  0
BLOCK_RECORD
  5
23C
330
243
100
AcDbSymbolTableRecord
100
AcDbBlockTableRecord
  2
VDDIM_DEFAULT
340
0
102
{BLKREFS
331
F10B9A
331
F10B9B
331
F10BB9
331
F10BBA
331
F10BE1
331
F10BE2
331
F10C5A
331
F10C5B
331
F10C65
331
F10C66
331
F10C6E
331
F10C6F
331
F10C79
331
F10C7A
331
F10C82
331
F10C83
331
F10C8B
331
F10C8C
331
F10C94
331
F10C95
102
}
  0
BLOCK_RECORD
  5
23E
330
243
100
AcDbSymbolTableRecord
100
AcDbBlockTableRecord
  2
VDDIM_NONE
340
0
  0
BLOCK_RECORD
  5
F10002
330
243
100
AcDbSymbolTableRecord
100
AcDbBlockTableRecord
  2
*D3
340
0
  0
BLOCK_RECORD
  5
F10016
330
243
100
AcDbSymbolTableRecord
100
AcDbBlockTableRecord
  2
*D4
340
0
  0
BLOCK_RECORD
  5
F10020
330
243
100
AcDbSymbolTableRecord
100
AcDbBlockTableRecord
  2
*D5
340
0
  0
BLOCK_RECORD
  5
F10025
330
243
100
AcDbSymbolTableRecord
100
AcDbBlockTableRecord
  2
*D6
340
0
  0
BLOCK_RECORD
  5
F1002A
330
243
100
AcDbSymbolTableRecord
100
AcDbBlockTableRecord
  2
*D7
340
0
  0
BLOCK_RECORD
  5
F1002F
330
243
100
AcDbSymbolTableRecord
100
AcDbBlockTableRecord
  2
*D8
340
0
  0
BLOCK_RECORD
  5
F10011
330
243
100
AcDbSymbolTableRecord
100
AcDbBlockTableRecord
  2
*D9
340
0
  0
BLOCK_RECORD
  5
F10007
330
243
100
AcDbSymbolTableRecord
100
AcDbBlockTableRecord
  2
*D10
340
0
  0
BLOCK_RECORD
  5
F1000C
330
243
100
AcDbSymbolTableRecord
100
AcDbBlockTableRecord
  2
*D11
340
0
  0
BLOCK_RECORD
  5
F1001B
330
243
100
AcDbSymbolTableRecord
100
AcDbBlockTableRecord
  2
*D12
340
0
  0
BLOCK_RECORD
  5
F10B7A
330
243
100
AcDbSymbolTableRecord
100
AcDbBlockTableRecord
  2
GENAXEH
340
0
  0
ENDTAB
  0
ENDSEC
  0
SECTION
  2
BLOCKS
  0
BLOCK
  5
262
330
261
100
AcDbEntity
  8
0
100
AcDbBlockBegin
  2
*Model_Space
 70
     0
 10
0.0
 20
0.0
 30
0.0
  3
*Model_Space
  1

  0
ENDBLK
  5
263
330
261
100
AcDbEntity
  8
0
100
AcDbBlockEnd
  0
BLOCK
  5
25E
330
25D
100
AcDbEntity
 67
     1
  8
0
100
AcDbBlockBegin
  2
*Paper_Space
 70
     0
 10
0.0
 20
0.0
 30
0.0
  3
*Paper_Space
  1

  0
ENDBLK
  5
25F
330
25D
100
AcDbEntity
 67
     1
  8
0
100
AcDbBlockEnd
  0
BLOCK
  5
266
330
265
100
AcDbEntity
  8
0
100
AcDbBlockBegin
  2
*Paper_Space0
 70
     0
 10
0.0
 20
0.0
 30
0.0
  3
*Paper_Space0
  1

  0
VIEWPORT
  5
296
102
{ACAD_XDICTIONARY
360
F10D52
102
}
330
265
100
AcDbEntity
  8
0
 60
     1
100
AcDbViewport
 10
0.0
 20
0.0
 30
0.0
 40
10.0
 41
10.0
 69
     0
 12
0.0
 22
0.0
 13
0.0
 23
0.0
 14
1.0
 24
1.0
 15
0.0
 25
0.0
 16
0.0
 26
0.0
 36
1.0
 17
0.0
 27
0.0
 37
0.0
 42
0.0
 43
0.0
 44
0.0
 45
10.0
 50
0.0
 51
0.0000000000007958
 72
   100
 90
   163872
  1

281
     0
 71
     0
 74
     0
110
0.0
120
0.0
130
0.0
111
1.0
121
0.0
131
0.0
112
0.0
122
1.0
132
0.0
 79
     0
146
0.0
1001
VD_INVISIBLE_NOT_FOR_READ
1000
VD_INVISIBLE_NOT_FOR_READ
  0
VIEWPORT
  5
297
102
{ACAD_XDICTIONARY
360
F10D54
102
}
330
265
100
AcDbEntity
  8
0
 60
     1
100
AcDbViewport
 10
0.0
 20
0.0
 30
0.0
 40
10.0
 41
10.0
 69
     0
 12
0.0
 22
0.0
 13
0.0
 23
0.0
 14
1.0
 24
1.0
 15
0.0
 25
0.0
 16
0.0
 26
0.0
 36
1.0
 17
0.0
 27
0.0
 37
0.0
 42
0.0
 43
0.0
 44
0.0
 45
10.0
 50
0.0
 51
0.0000000000007958
 72
   100
 90
   163872
  1

281
     0
 71
     0
 74
     0
110
0.0
120
0.0
130
0.0
111
1.0
121
0.0
131
0.0
112
0.0
122
1.0
132
0.0
 79
     0
146
0.0
1001
VD_INVISIBLE_NOT_FOR_READ
1000
VD_INVISIBLE_NOT_FOR_READ
  0
ENDBLK
  5
267
330
265
100
AcDbEntity
  8
0
100
AcDbBlockEnd
  0
BLOCK
  5
28B
330
23C
100
AcDbEntity
  8
0
100
AcDbBlockBegin
  2
VDDIM_DEFAULT
 70
     0
 10
0.0
 20
0.0
 30
0.0
  3
VDDIM_DEFAULT
  1

  0
LWPOLYLINE
  5
23D
330
23C
100
AcDbEntity
  8
0
  6
Continuous
 62
     0
100
AcDbPolyline
 90
        4
 70
     0
 43
0.0
 10
0.0
 20
0.0
 10
-1.0
 20
-0.1665
 10
-1.0
 20
0.1665
 10
0.0
 20
0.0
1001
VDEXTRAPARAM
1071
        1
1071
        0
1071
        0
1040
1.0
1000

1000

1040
0.0
1040
0.0
  0
HATCH
  5
292
330
23C
100
AcDbEntity
  8
0
  6
Continuous
 62
     0
100
AcDbHatch
 10
0.0
 20
0.0
 30
0.0
210
0.0
220
0.0
230
1.0
  2
SOLID
 70
     1
 71
     0
 91
        1
 92
        2
 72
     0
 73
     1
 93
        3
 10
0.0
 20
0.0
 10
-1.0
 20
-0.1665
 10
-1.0
 20
0.1665
 97
        0
 75
     0
 76
     1
 98
        1
 10
0.0
 20
0.0
1001
VDEXTRAPARAM
1071
        1
1071
        0
1071
        0
1040
1.0
1000

1000

1040
0.0
1040
0.0
1001
VD_TEMPHATCH
1000
VD_TEMPHATCH
  0
ENDBLK
  5
28C
330
23C
100
AcDbEntity
  8
0
100
AcDbBlockEnd
  0
BLOCK
  5
28D
330
23E
100
AcDbEntity
  8
0
100
AcDbBlockBegin
  2
VDDIM_NONE
 70
     0
 10
0.0
 20
0.0
 30
0.0
  3
VDDIM_NONE
  1

  0
ENDBLK
  5
28E
330
23E
100
AcDbEntity
  8
0
100
AcDbBlockEnd
  0
BLOCK
  5
F10034
330
F10002
100
AcDbEntity
  8
0
100
AcDbBlockBegin
  2
*D3
 70
     1
 10
0.0
 20
0.0
 30
0.0
  3
*D3
  1

  0
LINE
  5
F10B95
330
F10002
100
AcDbEntity
  8
Bemassung
 62
     0
370
    -2
100
AcDbLine
 10
-86.91675734494021
 20
1.957970620239509
 30
0.0
 11
-86.91675734494021
 21
50.5829706202395
 31
0.0
  0
LINE
  5
F10B96
330
F10002
100
AcDbEntity
  8
Bemassung
 62
     0
370
    -2
100
AcDbLine
 10
-86.7967573449402
 20
39.4579706202395
 30
0.0
 11
-86.7967573449402
 21
50.5829706202395
 31
0.0
  0
LINE
  5
F10B97
330
F10002
100
AcDbEntity
  8
Bemassung
 62
     0
370
    -2
100
AcDbLine
 10
-89.41675734494021
 20
49.3329706202395
 30
0.0
 11
-91.91675734494021
 21
49.3329706202395
 31
0.0
  0
LINE
  5
F10B98
330
F10002
100
AcDbEntity
  8
Bemassung
 62
     0
370
    -2
100
AcDbLine
 10
-84.2967573449402
 20
49.3329706202395
 30
0.0
 11
-74.07847630810528
 21
49.3329706202395
 31
0.0
  0
LINE
  5
F10B99
330
F10002
100
AcDbEntity
  8
Bemassung
 62
     0
370
    -2
100
AcDbLine
 10
-86.91675734494021
 20
49.3329706202395
 30
0.0
 11
-86.7967573449402
 21
49.3329706202395
 31
0.0
  0
INSERT
  5
F10B9A
330
F10002
100
AcDbEntity
  8
Bemassung
 62
     0
370
    -2
100
AcDbBlockReference
  2
VDDIM_DEFAULT
 10
-86.91675734494021
 20
49.3329706202395
 30
0.0
 41
2.5
 42
2.5
 43
2.5
  0
INSERT
  5
F10B9B
330
F10002
100
AcDbEntity
  8
Bemassung
 62
     0
370
    -2
100
AcDbBlockReference
  2
VDDIM_DEFAULT
 10
-86.7967573449402
 20
49.3329706202395
 30
0.0
 41
2.5
 42
2.5
 43
2.5
 50
180.0
  0
MTEXT
  5
F10B9C
330
F10002
100
AcDbEntity
  8
Bemassung
 62
     0
100
AcDbMText
 10
-77.93761682652274
 20
49.9579706202395
 30
0.0
 40
2.5
 41
0.0
 71
     8
 72
     1
  1
\A1;0.12
 73
     1
 44
1.0
1001
ACAD
1000
MTEXTBEGIN
1070
    73
1070
     1
1070
    44
1040
1.0
1070
    74
1070
     0
1000
MTEXTEND
  0
POINT
  5
F10B9D
330
F10002
100
AcDbEntity
  8
Defpoints
 62
     0
100
AcDbPoint
 10
-86.91675734494021
 20
1.332970620239509
 30
0.0
  0
POINT
  5
F10B9E
330
F10002
100
AcDbEntity
  8
Defpoints
 62
     0
100
AcDbPoint
 10
-86.7967573449402
 20
38.8329706202395
 30
0.0
  0
POINT
  5
F10B9F
330
F10002
100
AcDbEntity
  8
Defpoints
 62
     0
100
AcDbPoint
 10
-86.7967573449402
 20
49.3329706202395
 30
0.0
  0
ENDBLK
  5
F1003D
330
F10002
100
AcDbEntity
  8
0
100
AcDbBlockEnd
  0
BLOCK
  5
F1003E
330
F10016
100
AcDbEntity
  8
0
100
AcDbBlockBegin
  2
*D4
 70
     1
 10
0.0
 20
0.0
 30
0.0
  3
*D4
  1

  0
LINE
  5
F10C6B
330
F10016
100
AcDbEntity
  8
Bemassung
 62
     0
370
    -2
100
AcDbLine
 10
-12.6050915218878
 20
17.05145246249311
 30
0.0
 11
-12.6050915218878
 21
37.67645246249311
 31
0.0
  0
LINE
  5
F10C6C
330
F10016
100
AcDbEntity
  8
Bemassung
 62
     0
370
    -2
100
AcDbLine
 10
23.39490847811221
 20
16.65145246249311
 30
0.0
 11
23.39490847811221
 21
37.67645246249311
 31
0.0
  0
LINE
  5
F10C6D
330
F10016
100
AcDbEntity
  8
Bemassung
 62
     0
370
    -2
100
AcDbLine
 10
-10.1050915218878
 20
36.42645246249311
 30
0.0
 11
20.89490847811221
 21
36.42645246249311
 31
0.0
  0
INSERT
  5
F10C6E
330
F10016
100
AcDbEntity
  8
Bemassung
 62
     0
370
    -2
100
AcDbBlockReference
  2
VDDIM_DEFAULT
 10
-12.6050915218878
 20
36.42645246249311
 30
0.0
 41
2.5
 42
2.5
 43
2.5
 50
180.0
  0
INSERT
  5
F10C6F
330
F10016
100
AcDbEntity
  8
Bemassung
 62
     0
370
    -2
100
AcDbBlockReference
  2
VDDIM_DEFAULT
 10
23.39490847811221
 20
36.42645246249311
 30
0.0
 41
2.5
 42
2.5
 43
2.5
  0
MTEXT
  5
F10C70
330
F10016
100
AcDbEntity
  8
Bemassung
 62
     0
100
AcDbMText
 10
5.394908478112204
 20
37.05145246249311
 30
0.0
 40
2.5
 41
0.0
 71
     8
 72
     1
  1
\A1;36
 73
     1
 44
1.0
1001
ACAD
1000
MTEXTBEGIN
1070
    73
1070
     1
1070
    44
1040
1.0
1070
    74
1070
     0
1000
MTEXTEND
  0
POINT
  5
F10C71
330
F10016
100
AcDbEntity
  8
Defpoints
 62
     0
100
AcDbPoint
 10
-12.6050915218878
 20
16.42645246249311
 30
0.0
  0
POINT
  5
F10C72
330
F10016
100
AcDbEntity
  8
Defpoints
 62
     0
100
AcDbPoint
 10
23.39490847811221
 20
16.02645246249311
 30
0.0
  0
POINT
  5
F10C73
330
F10016
100
AcDbEntity
  8
Defpoints
 62
     0
100
AcDbPoint
 10
23.39490847811221
 20
36.42645246249311
 30
0.0
  0
ENDBLK
  5
F10047
330
F10016
100
AcDbEntity
  8
0
100
AcDbBlockEnd
  0
BLOCK
  5
F10048
330
F10020
100
AcDbEntity
  8
0
100
AcDbBlockBegin
  2
*D5
 70
     1
 10
0.0
 20
0.0
 30
0.0
  3
*D5
  1

  0
LINE
  5
F10C7F
330
F10020
100
AcDbEntity
  8
Bemassung
 62
     0
370
    -2
100
AcDbLine
 10
-20.6050915218878
 20
10.40145246249311
 30
0.0
 11
-20.6050915218878
 21
-5.823547537506886
 31
0.0
  0
LINE
  5
F10C80
330
F10020
100
AcDbEntity
  8
Bemassung
 62
     0
370
    -2
100
AcDbLine
 10
-33.6050915218878
 20
12.80145246249311
 30
0.0
 11
-33.6050915218878
 21
-5.823547537506886
 31
0.0
  0
LINE
  5
F10C81
330
F10020
100
AcDbEntity
  8
Bemassung
 62
     0
370
    -2
100
AcDbLine
 10
-23.1050915218878
 20
-4.573547537506886
 30
0.0
 11
-31.1050915218878
 21
-4.573547537506886
 31
0.0
  0
INSERT
  5
F10C82
330
F10020
100
AcDbEntity
  8
Bemassung
 62
     0
370
    -2
100
AcDbBlockReference
  2
VDDIM_DEFAULT
 10
-20.6050915218878
 20
-4.573547537506886
 30
0.0
 41
2.5
 42
2.5
 43
2.5
  0
INSERT
  5
F10C83
330
F10020
100
AcDbEntity
  8
Bemassung
 62
     0
370
    -2
100
AcDbBlockReference
  2
VDDIM_DEFAULT
 10
-33.6050915218878
 20
-4.573547537506886
 30
0.0
 41
2.5
 42
2.5
 43
2.5
 50
180.0
  0
MTEXT
  5
F10C84
330
F10020
100
AcDbEntity
  8
Bemassung
 62
     0
100
AcDbMText
 10
-27.1050915218878
 20
-3.948547537506886
 30
0.0
 40
2.5
 41
0.0
 71
     8
 72
     1
  1
\A1;13
 73
     1
 44
1.0
1001
ACAD
1000
MTEXTBEGIN
1070
    73
1070
     1
1070
    44
1040
1.0
1070
    74
1070
     0
1000
MTEXTEND
  0
POINT
  5
F10C85
330
F10020
100
AcDbEntity
  8
Defpoints
 62
     0
100
AcDbPoint
 10
-20.6050915218878
 20
11.02645246249311
 30
0.0
  0
POINT
  5
F10C86
330
F10020
100
AcDbEntity
  8
Defpoints
 62
     0
100
AcDbPoint
 10
-33.6050915218878
 20
13.42645246249311
 30
0.0
  0
POINT
  5
F10C87
330
F10020
100
AcDbEntity
  8
Defpoints
 62
     0
100
AcDbPoint
 10
-33.6050915218878
 20
-4.573547537506886
 30
0.0
  0
ENDBLK
  5
F10051
330
F10020
100
AcDbEntity
  8
0
100
AcDbBlockEnd
  0
BLOCK
  5
F10052
330
F10025
100
AcDbEntity
  8
0
100
AcDbBlockBegin
  2
*D6
 70
     1
 10
0.0
 20
0.0
 30
0.0
  3
*D6
  1

  0
LINE
  5
F10BDE
330
F10025
100
AcDbEntity
  8
Bemassung
 62
     0
370
    -2
100
AcDbLine
 10
-71.91675734494021
 20
33.3079706202395
 30
0.0
 11
-71.91675734494021
 21
2.08297062023951
 31
0.0
  0
LINE
  5
F10BDF
330
F10025
100
AcDbEntity
  8
Bemassung
 62
     0
370
    -2
100
AcDbLine
 10
-86.91675734494021
 20
1.957970620239509
 30
0.0
 11
-86.91675734494021
 21
4.582970620239509
 31
0.0
  0
LINE
  5
F10BE0
330
F10025
100
AcDbEntity
  8
Bemassung
 62
     0
370
    -2
100
AcDbLine
 10
-74.41675734494021
 20
3.332970620239509
 30
0.0
 11
-84.41675734494021
 21
3.332970620239509
 31
0.0
  0
INSERT
  5
F10BE1
330
F10025
100
AcDbEntity
  8
Bemassung
 62
     0
370
    -2
100
AcDbBlockReference
  2
VDDIM_DEFAULT
 10
-71.91675734494021
 20
3.332970620239509
 30
0.0
 41
2.5
 42
2.5
 43
2.5
  0
INSERT
  5
F10BE2
330
F10025
100
AcDbEntity
  8
Bemassung
 62
     0
370
    -2
100
AcDbBlockReference
  2
VDDIM_DEFAULT
 10
-86.91675734494021
 20
3.332970620239509
 30
0.0
 41
2.5
 42
2.5
 43
2.5
 50
180.0
  0
MTEXT
  5
F10BE3
330
F10025
100
AcDbEntity
  8
Bemassung
 62
     0
100
AcDbMText
 10
-79.41675734494021
 20
3.957970620239509
 30
0.0
 40
2.5
 41
0.0
 71
     8
 72
     1
  1
\A1;15
 73
     1
 44
1.0
1001
ACAD
1000
MTEXTBEGIN
1070
    73
1070
     1
1070
    44
1040
1.0
1070
    74
1070
     0
1000
MTEXTEND
  0
POINT
  5
F10BE4
330
F10025
100
AcDbEntity
  8
Defpoints
 62
     0
100
AcDbPoint
 10
-71.91675734494021
 20
33.9329706202395
 30
0.0
  0
POINT
  5
F10BE5
330
F10025
100
AcDbEntity
  8
Defpoints
 62
     0
100
AcDbPoint
 10
-86.91675734494021
 20
1.332970620239509
 30
0.0
  0
POINT
  5
F10BE6
330
F10025
100
AcDbEntity
  8
Defpoints
 62
     0
100
AcDbPoint
 10
-86.91675734494021
 20
3.332970620239509
 30
0.0
  0
ENDBLK
  5
F1005B
330
F10025
100
AcDbEntity
  8
0
100
AcDbBlockEnd
  0
BLOCK
  5
F1005C
330
F1002A
100
AcDbEntity
  8
0
100
AcDbBlockBegin
  2
*D7
 70
     1
 10
0.0
 20
0.0
 30
0.0
  3
*D7
  1

  0
LINE
  5
F10C88
330
F1002A
100
AcDbEntity
  8
Bemassung
 62
     0
370
    -2
100
AcDbLine
 10
23.39490847811221
 20
16.65145246249311
 30
0.0
 11
23.39490847811221
 21
52.6764524624931
 31
0.0
  0
LINE
  5
F10C89
330
F1002A
100
AcDbEntity
  8
Bemassung
 62
     0
370
    -2
100
AcDbLine
 10
-33.6050915218878
 20
14.05145246249311
 30
0.0
 11
-33.6050915218878
 21
52.6764524624931
 31
0.0
  0
LINE
  5
F10C8A
330
F1002A
100
AcDbEntity
  8
Bemassung
 62
     0
370
    -2
100
AcDbLine
 10
20.89490847811221
 20
51.4264524624931
 30
0.0
 11
-31.1050915218878
 21
51.4264524624931
 31
0.0
  0
INSERT
  5
F10C8B
330
F1002A
100
AcDbEntity
  8
Bemassung
 62
     0
370
    -2
100
AcDbBlockReference
  2
VDDIM_DEFAULT
 10
23.39490847811221
 20
51.4264524624931
 30
0.0
 41
2.5
 42
2.5
 43
2.5
  0
INSERT
  5
F10C8C
330
F1002A
100
AcDbEntity
  8
Bemassung
 62
     0
370
    -2
100
AcDbBlockReference
  2
VDDIM_DEFAULT
 10
-33.6050915218878
 20
51.4264524624931
 30
0.0
 41
2.5
 42
2.5
 43
2.5
 50
180.0
  0
MTEXT
  5
F10C8D
330
F1002A
100
AcDbEntity
  8
Bemassung
 62
     0
100
AcDbMText
 10
-5.105091521887795
 20
52.0514524624931
 30
0.0
 40
2.5
 41
0.0
 71
     8
 72
     1
  1
\A1;57
 73
     1
 44
1.0
1001
ACAD
1000
MTEXTBEGIN
1070
    73
1070
     1
1070
    44
1040
1.0
1070
    74
1070
     0
1000
MTEXTEND
  0
POINT
  5
F10C8E
330
F1002A
100
AcDbEntity
  8
Defpoints
 62
     0
100
AcDbPoint
 10
23.39490847811221
 20
16.02645246249311
 30
0.0
  0
POINT
  5
F10C8F
330
F1002A
100
AcDbEntity
  8
Defpoints
 62
     0
100
AcDbPoint
 10
-33.6050915218878
 20
13.42645246249311
 30
0.0
  0
POINT
  5
F10C90
330
F1002A
100
AcDbEntity
  8
Defpoints
 62
     0
100
AcDbPoint
 10
-33.6050915218878
 20
51.4264524624931
 30
0.0
  0
ENDBLK
  5
F10065
330
F1002A
100
AcDbEntity
  8
0
100
AcDbBlockEnd
  0
BLOCK
  5
F10066
330
F1002F
100
AcDbEntity
  8
0
100
AcDbBlockBegin
  2
*D8
 70
     1
 10
0.0
 20
0.0
 30
0.0
  3
*D8
  1

  0
LINE
  5
F10C91
330
F1002F
100
AcDbEntity
  8
Bemassung
 62
     0
370
    -2
100
AcDbLine
 10
-13.6050915218878
 20
16.45145246249311
 30
0.0
 11
-13.6050915218878
 21
37.35393029321762
 31
0.0
  0
LINE
  5
F10C92
330
F1002F
100
AcDbEntity
  8
Bemassung
 62
     0
370
    -2
100
AcDbLine
 10
-33.6050915218878
 20
14.05145246249311
 30
0.0
 11
-33.6050915218878
 21
37.35393029321762
 31
0.0
  0
LINE
  5
F10C93
330
F1002F
100
AcDbEntity
  8
Bemassung
 62
     0
370
    -2
100
AcDbLine
 10
-16.1050915218878
 20
36.10393029321762
 30
0.0
 11
-31.1050915218878
 21
36.10393029321762
 31
0.0
  0
INSERT
  5
F10C94
330
F1002F
100
AcDbEntity
  8
Bemassung
 62
     0
370
    -2
100
AcDbBlockReference
  2
VDDIM_DEFAULT
 10
-13.6050915218878
 20
36.10393029321762
 30
0.0
 41
2.5
 42
2.5
 43
2.5
  0
INSERT
  5
F10C95
330
F1002F
100
AcDbEntity
  8
Bemassung
 62
     0
370
    -2
100
AcDbBlockReference
  2
VDDIM_DEFAULT
 10
-33.6050915218878
 20
36.10393029321762
 30
0.0
 41
2.5
 42
2.5
 43
2.5
 50
180.0
  0
MTEXT
  5
F10C96
330
F1002F
100
AcDbEntity
  8
Bemassung
 62
     0
100
AcDbMText
 10
-23.6050915218878
 20
36.72893029321762
 30
0.0
 40
2.5
 41
0.0
 71
     8
 72
     1
  1
\A1;20
 73
     1
 44
1.0
1001
ACAD
1000
MTEXTBEGIN
1070
    73
1070
     1
1070
    44
1040
1.0
1070
    74
1070
     0
1000
MTEXTEND
  0
POINT
  5
F10C97
330
F1002F
100
AcDbEntity
  8
Defpoints
 62
     0
100
AcDbPoint
 10
-13.6050915218878
 20
15.82645246249311
 30
0.0
  0
POINT
  5
F10C98
330
F1002F
100
AcDbEntity
  8
Defpoints
 62
     0
100
AcDbPoint
 10
-33.6050915218878
 20
13.42645246249311
 30
0.0
  0
POINT
  5
F10C99
330
F1002F
100
AcDbEntity
  8
Defpoints
 62
     0
100
AcDbPoint
 10
-33.6050915218878
 20
36.10393029321762
 30
0.0
  0
ENDBLK
  5
F1006F
330
F1002F
100
AcDbEntity
  8
0
100
AcDbBlockEnd
  0
BLOCK
  5
F10070
330
F10011
100
AcDbEntity
  8
0
100
AcDbBlockBegin
  2
*D9
 70
     1
 10
0.0
 20
0.0
 30
0.0
  3
*D9
  1

  0
ARC
  5
F10BB6
330
F10011
100
AcDbEntity
  8
Bemassung
 62
     0
370
    -2
100
AcDbCircle
 10
-65.91675734494022
 20
39.3329706202395
 30
0.0
 40
21.02796357996168
100
AcDbArc
 50
346.3682526607002
 51
353.1841263303501
  0
ARC
  5
F10BB7
330
F10011
100
AcDbEntity
  8
Bemassung
 62
     0
370
    -2
100
AcDbCircle
 10
-65.91675734494022
 20
39.3329706202395
 30
0.0
 40
21.02796357996168
100
AcDbArc
 50
36.81587366964986
 51
43.63174733929976
  0
ARC
  5
F10BB8
330
F10011
100
AcDbEntity
  8
Bemassung
 62
     0
370
    -2
100
AcDbCircle
 10
-65.91675734494022
 20
39.3329706202395
 30
0.0
 40
21.02796357996168
100
AcDbArc
 50
0.0000000000000127
 51
29.99999999999998
  0
INSERT
  5
F10BB9
330
F10011
100
AcDbEntity
  8
Bemassung
 62
     0
370
    -2
100
AcDbBlockReference
  2
VDDIM_DEFAULT
 10
-44.88879376497854
 20
39.33297062023951
 30
0.0
 41
2.5
 42
2.5
 43
2.5
 50
86.59206316517506
  0
INSERT
  5
F10BBA
330
F10011
100
AcDbEntity
  8
Bemassung
 62
     0
370
    -2
100
AcDbBlockReference
  2
VDDIM_DEFAULT
 10
-47.70600669483942
 20
49.84695241022033
 30
0.0
 41
2.5
 42
2.5
 43
2.5
 50
303.4079368348249
  0
MTEXT
  5
F10BBB
102
{ACAD_XDICTIONARY
360
F10D4A
102
}
330
F10011
100
AcDbEntity
  8
Bemassung
 62
     0
100
AcDbMText
 10
-45.00160060735863
 20
44.93716997764483
 30
0.0
 40
2.5
 41
0.0
 71
     8
 72
     1
  1
\A1;30\U+00B0{\H0.5x;\S+5°^ +5°;}
 11
0.2588190451025214
 21
-0.9659258262890681
 31
0.0
 73
     1
 44
1.0
1001
ACAD
1000
MTEXTBEGIN
1070
    73
1070
     1
1070
    44
1040
1.0
1070
    74
1070
     0
1000
MTEXTEND
  0
POINT
  5
F10BBC
330
F10011
100
AcDbEntity
  8
Defpoints
 62
     0
100
AcDbPoint
 10
-45.20825578133561
 20
42.98443817594642
 30
0.0
  0
POINT
  5
F10BBD
330
F10011
100
AcDbEntity
  8
Defpoints
 62
     0
100
AcDbPoint
 10
-45.9739558872705
 20
50.8469524102204
 30
0.0
  0
POINT
  5
F10BBE
330
F10011
100
AcDbEntity
  8
Defpoints
 62
     0
100
AcDbPoint
 10
-65.91675734494022
 20
39.3329706202395
 30
0.0
  0
POINT
  5
F10BBF
330
F10011
100
AcDbEntity
  8
Defpoints
 62
     0
100
AcDbPoint
 10
-42.88879376497852
 20
39.33297062023951
 30
0.0
  0
POINT
  5
F10BC0
330
F10011
100
AcDbEntity
  8
Defpoints
 62
     0
100
AcDbPoint
 10
-65.91675734494022
 20
39.3329706202395
 30
0.0
  0
ENDBLK
  5
F1007B
330
F10011
100
AcDbEntity
  8
0
100
AcDbBlockEnd
  0
BLOCK
  5
F1007C
330
F10007
100
AcDbEntity
  8
0
100
AcDbBlockBegin
  2
*D10
 70
     1
 10
0.0
 20
0.0
 30
0.0
  3
*D10
  1

  0
LINE
  5
F10C55
330
F10007
100
AcDbEntity
  8
Bemassung
 62
     0
370
    -2
100
AcDbLine
 10
-34.1100915218878
 20
10.92645246249311
 30
0.0
 11
-44.8550915218878
 21
10.92645246249311
 31
0.0
  0
LINE
  5
F10C56
330
F10007
100
AcDbEntity
  8
Bemassung
 62
     0
370
    -2
100
AcDbLine
 10
-34.1100915218878
 20
15.92645246249311
 30
0.0
 11
-44.8550915218878
 21
15.92645246249311
 31
0.0
  0
LINE
  5
F10C57
330
F10007
100
AcDbEntity
  8
Bemassung
 62
     0
370
    -2
100
AcDbLine
 10
-43.6050915218878
 20
8.426452462493115
 30
0.0
 11
-43.6050915218878
 21
5.926452462493116
 31
0.0
  0
LINE
  5
F10C58
330
F10007
100
AcDbEntity
  8
Bemassung
 62
     0
370
    -2
100
AcDbLine
 10
-43.60509152188779
 20
18.42645246249311
 30
0.0
 11
-43.60509152188779
 21
26.55401044339353
 31
0.0
  0
LINE
  5
F10C59
330
F10007
100
AcDbEntity
  8
Bemassung
 62
     0
370
    -2
100
AcDbLine
 10
-43.6050915218878
 20
10.92645246249311
 30
0.0
 11
-43.6050915218878
 21
15.92645246249311
 31
0.0
  0
INSERT
  5
F10C5A
330
F10007
100
AcDbEntity
  8
Bemassung
 62
     0
370
    -2
100
AcDbBlockReference
  2
VDDIM_DEFAULT
 10
-43.6050915218878
 20
10.92645246249311
 30
0.0
 41
2.5
 42
2.5
 43
2.5
 50
90.0
  0
INSERT
  5
F10C5B
330
F10007
100
AcDbEntity
  8
Bemassung
 62
     0
370
    -2
100
AcDbBlockReference
  2
VDDIM_DEFAULT
 10
-43.6050915218878
 20
15.92645246249311
 30
0.0
 41
2.5
 42
2.5
 43
2.5
 50
270.0
  0
MTEXT
  5
F10C5C
330
F10007
100
AcDbEntity
  8
Bemassung
 62
     0
100
AcDbMText
 10
-44.2300915218878
 20
23.74023145294332
 30
0.0
 40
2.5
 41
0.0
 71
     8
 72
     1
  1
\A1;%%c5
 11
0.0000000000000001
 21
1.0
 31
0.0
 73
     1
 44
1.0
1001
ACAD
1000
MTEXTBEGIN
1070
    73
1070
     1
1070
    44
1040
1.0
1070
    74
1070
     0
1000
MTEXTEND
  0
POINT
  5
F10C5D
330
F10007
100
AcDbEntity
  8
Defpoints
 62
     0
100
AcDbPoint
 10
-33.4850915218878
 20
10.92645246249311
 30
0.0
  0
POINT
  5
F10C5E
330
F10007
100
AcDbEntity
  8
Defpoints
 62
     0
100
AcDbPoint
 10
-33.4850915218878
 20
15.92645246249311
 30
0.0
  0
POINT
  5
F10C5F
330
F10007
100
AcDbEntity
  8
Defpoints
 62
     0
100
AcDbPoint
 10
-43.6050915218878
 20
15.92645246249311
 30
0.0
  0
ENDBLK
  5
F10085
330
F10007
100
AcDbEntity
  8
0
100
AcDbBlockEnd
  0
BLOCK
  5
F10086
330
F1000C
100
AcDbEntity
  8
0
100
AcDbBlockBegin
  2
*D11
 70
     1
 10
0.0
 20
0.0
 30
0.0
  3
*D11
  1

  0
LINE
  5
F10C60
330
F1000C
100
AcDbEntity
  8
Bemassung
 62
     0
370
    -2
100
AcDbLine
 10
-16.88259403121618
 20
11.02645246249311
 30
0.0
 11
-14.25759403121619
 21
11.02645246249311
 31
0.0
  0
LINE
  5
F10C61
330
F1000C
100
AcDbEntity
  8
Bemassung
 62
     0
370
    -2
100
AcDbLine
 10
-16.88259403121618
 20
15.82645246249311
 30
0.0
 11
-14.25759403121618
 21
15.82645246249311
 31
0.0
  0
LINE
  5
F10C62
330
F1000C
100
AcDbEntity
  8
Bemassung
 62
     0
370
    -2
100
AcDbLine
 10
-15.50759403121619
 20
8.526452462493114
 30
0.0
 11
-15.50759403121619
 21
6.026452462493114
 31
0.0
  0
LINE
  5
F10C63
330
F1000C
100
AcDbEntity
  8
Bemassung
 62
     0
370
    -2
100
AcDbLine
 10
-15.50759403121618
 20
18.32645246249311
 30
0.0
 11
-15.50759403121618
 21
29.35305546385737
 31
0.0
  0
LINE
  5
F10C64
330
F1000C
100
AcDbEntity
  8
Bemassung
 62
     0
370
    -2
100
AcDbLine
 10
-15.50759403121619
 20
11.02645246249311
 30
0.0
 11
-15.50759403121618
 21
15.82645246249311
 31
0.0
  0
INSERT
  5
F10C65
330
F1000C
100
AcDbEntity
  8
Bemassung
 62
     0
370
    -2
100
AcDbBlockReference
  2
VDDIM_DEFAULT
 10
-15.50759403121619
 20
11.02645246249311
 30
0.0
 41
2.5
 42
2.5
 43
2.5
 50
90.0
  0
INSERT
  5
F10C66
330
F1000C
100
AcDbEntity
  8
Bemassung
 62
     0
370
    -2
100
AcDbBlockReference
  2
VDDIM_DEFAULT
 10
-15.50759403121618
 20
15.82645246249311
 30
0.0
 41
2.5
 42
2.5
 43
2.5
 50
270.0
  0
MTEXT
  5
F10C67
330
F1000C
100
AcDbEntity
  8
Bemassung
 62
     0
100
AcDbMText
 10
-16.13259403121619
 20
25.08975396317524
 30
0.0
 40
2.5
 41
0.0
 71
     8
 72
     1
  1
\A1;%%c4.8
 11
0.0000000000000001
 21
1.0
 31
0.0
 73
     1
 44
1.0
1001
ACAD
1000
MTEXTBEGIN
1070
    73
1070
     1
1070
    44
1040
1.0
1070
    74
1070
     0
1000
MTEXTEND
  0
POINT
  5
F10C68
330
F1000C
100
AcDbEntity
  8
Defpoints
 62
     0
100
AcDbPoint
 10
-17.50759403121618
 20
11.02645246249311
 30
0.0
  0
POINT
  5
F10C69
330
F1000C
100
AcDbEntity
  8
Defpoints
 62
     0
100
AcDbPoint
 10
-17.50759403121618
 20
15.82645246249311
 30
0.0
  0
POINT
  5
F10C6A
330
F1000C
100
AcDbEntity
  8
Defpoints
 62
     0
100
AcDbPoint
 10
-15.50759403121618
 20
15.82645246249311
 30
0.0
  0
ENDBLK
  5
F1008F
330
F1000C
100
AcDbEntity
  8
0
100
AcDbBlockEnd
  0
BLOCK
  5
F10090
330
F1001B
100
AcDbEntity
  8
0
100
AcDbBlockBegin
  2
*D12
 70
     1
 10
0.0
 20
0.0
 30
0.0
  3
*D12
  1

  0
LINE
  5
F10C74
330
F1001B
100
AcDbEntity
  8
Bemassung
 62
     0
370
    -2
100
AcDbLine
 10
23.61990847811221
 20
10.42645246249311
 30
0.0
 11
34.6449084781122
 21
10.42645246249311
 31
0.0
  0
LINE
  5
F10C75
330
F1001B
100
AcDbEntity
  8
Bemassung
 62
     0
370
    -2
100
AcDbLine
 10
23.61990847811221
 20
16.42645246249311
 30
0.0
 11
34.64490847811221
 21
16.42645246249311
 31
0.0
  0
LINE
  5
F10C76
330
F1001B
100
AcDbEntity
  8
Bemassung
 62
     0
370
    -2
100
AcDbLine
 10
33.3949084781122
 20
7.926452462493111
 30
0.0
 11
33.3949084781122
 21
5.426452462493111
 31
0.0
  0
LINE
  5
F10C77
330
F1001B
100
AcDbEntity
  8
Bemassung
 62
     0
370
    -2
100
AcDbLine
 10
33.39490847811221
 20
18.92645246249311
 30
0.0
 11
33.39490847811221
 21
31.88859434516706
 31
0.0
  0
LINE
  5
F10C78
330
F1001B
100
AcDbEntity
  8
Bemassung
 62
     0
370
    -2
100
AcDbLine
 10
33.3949084781122
 20
10.42645246249311
 30
0.0
 11
33.39490847811221
 21
16.42645246249311
 31
0.0
  0
INSERT
  5
F10C79
330
F1001B
100
AcDbEntity
  8
Bemassung
 62
     0
370
    -2
100
AcDbBlockReference
  2
VDDIM_DEFAULT
 10
33.3949084781122
 20
10.42645246249311
 30
0.0
 41
2.5
 42
2.5
 43
2.5
 50
90.0
  0
INSERT
  5
F10C7A
330
F1001B
100
AcDbEntity
  8
Bemassung
 62
     0
370
    -2
100
AcDbBlockReference
  2
VDDIM_DEFAULT
 10
33.39490847811221
 20
16.42645246249311
 30
0.0
 41
2.5
 42
2.5
 43
2.5
 50
270.0
  0
MTEXT
  5
F10C7B
330
F1001B
100
AcDbEntity
  8
Bemassung
 62
     0
100
AcDbMText
 10
32.7699084781122
 20
26.65752340383009
 30
0.0
 40
2.5
 41
0.0
 71
     8
 72
     1
  1
\A1;%%c6 h6
 11
0.0000000000000001
 21
1.0
 31
0.0
 73
     1
 44
1.0
1001
ACAD
1000
MTEXTBEGIN
1070
    73
1070
     1
1070
    44
1040
1.0
1070
    74
1070
     0
1000
MTEXTEND
  0
POINT
  5
F10C7C
330
F1001B
100
AcDbEntity
  8
Defpoints
 62
     0
100
AcDbPoint
 10
22.99490847811221
 20
10.42645246249311
 30
0.0
  0
POINT
  5
F10C7D
330
F1001B
100
AcDbEntity
  8
Defpoints
 62
     0
100
AcDbPoint
 10
22.99490847811221
 20
16.42645246249311
 30
0.0
  0
POINT
  5
F10C7E
330
F1001B
100
AcDbEntity
  8
Defpoints
 62
     0
100
AcDbPoint
 10
33.39490847811221
 20
16.42645246249311
 30
0.0
  0
ENDBLK
  5
F10099
330
F1001B
100
AcDbEntity
  8
0
100
AcDbBlockEnd
  0
BLOCK
  5
F10B7C
330
F10B7A
100
AcDbEntity
  8
0
100
AcDbBlockBegin
  2
GENAXEH
 70
     0
 10
0.0
 20
0.0
 30
0.0
  3
GENAXEH
  1

  0
LINE
  5
F10B7B
330
F10B7A
100
AcDbEntity
  8
0
100
AcDbLine
 10
-1.0
 20
0.0
 30
0.0
 11
1.0
 21
0.0
 31
0.0
  0
ENDBLK
  5
F10B7D
330
F10B7A
100
AcDbEntity
  8
0
100
AcDbBlockEnd
  0
ENDSEC
  0
SECTION
  2
ENTITIES
  0
DIMENSION
  5
F10017
330
261
100
AcDbEntity
  8
Bemassung
100
AcDbDimension
  2
*D4
 10
23.39490847811221
 20
36.42645246249311
 30
0.0
 11
5.394908478112204
 21
38.32873759209747
 31
0.0
 70
    32
  1
<>
 71
     8
 42
36.00000000000001
  3
BEM-ISBE
100
AcDbAlignedDimension
 13
-12.6050915218878
 23
16.42645246249311
 33
0.0
 14
23.39490847811221
 24
16.02645246249311
 34
0.0
100
AcDbRotatedDimension
1001
ACAD
1000
DSTYLE
1002
{
1070
   147
1040
0.625
1070
    72
1070
     0
1070
    71
1070
     0
1070
   284
1070
     8
1070
    78
1070
     8
1070
   144
1040
1.0
1070
    47
1040
2.0
1070
    48
1040
0.0
1002
}
  0
DIMENSION
  5
F10021
330
261
100
AcDbEntity
  8
Bemassung
100
AcDbDimension
  2
*D5
 10
-33.6050915218878
 20
-4.573547537506886
 30
0.0
 11
-27.1050915218878
 21
-2.671262407902521
 31
0.0
 70
    32
  1
<>
 71
     8
 42
13.0
  3
BEM-ISBE
100
AcDbAlignedDimension
 13
-20.6050915218878
 23
11.02645246249311
 33
0.0
 14
-33.6050915218878
 24
13.42645246249311
 34
0.0
100
AcDbRotatedDimension
1001
ACAD
1000
DSTYLE
1002
{
1070
   147
1040
0.625
1070
    72
1070
     0
1070
    71
1070
     0
1070
   284
1070
     8
1070
    78
1070
     8
1070
   144
1040
1.0
1070
    47
1040
1.5
1070
    48
1040
0.0
1002
}
  0
DIMENSION
  5
F1002B
330
261
100
AcDbEntity
  8
Bemassung
100
AcDbDimension
  2
*D7
 10
-33.6050915218878
 20
51.4264524624931
 30
0.0
 11
-5.105091521887795
 21
53.32276896999651
 31
0.0
 70
    32
  1
<>
 71
     8
 42
57.00000000000001
  3
BEM-ISBE
100
AcDbAlignedDimension
 13
23.39490847811221
 23
16.02645246249311
 33
0.0
 14
-33.6050915218878
 24
13.42645246249311
 34
0.0
100
AcDbRotatedDimension
1001
ACAD
1000
DSTYLE
1002
{
1070
   147
1040
0.625
1070
    72
1070
     0
1070
    71
1070
     0
1070
   284
1070
     8
1070
    78
1070
     8
1070
   144
1040
1.0
1070
    47
1040
2.0
1070
    48
1040
0.0
1002
}
  0
DIMENSION
  5
F10030
330
261
100
AcDbEntity
  8
Bemassung
100
AcDbDimension
  2
*D8
 10
-33.6050915218878
 20
36.10393029321762
 30
0.0
 11
-23.6050915218878
 21
38.00536276252185
 31
0.0
 70
    32
  1
<>
 71
     8
 42
20.0
  3
BEM-ISBE
100
AcDbAlignedDimension
 13
-13.6050915218878
 23
15.82645246249311
 33
0.0
 14
-33.6050915218878
 24
13.42645246249311
 34
0.0
100
AcDbRotatedDimension
1001
ACAD
1000
DSTYLE
1002
{
1070
   284
1070
     8
1070
    78
1070
     8
1070
   144
1040
1.0
1070
   147
1040
0.625
1070
    72
1070
     0
1070
    71
1070
     0
1002
}
  0
DIMENSION
  5
F10008
330
261
100
AcDbEntity
  8
Bemassung
100
AcDbDimension
  2
*D10
 10
-43.6050915218878
 20
15.92645246249311
 30
0.0
 11
-45.57644213580322
 21
23.74023145294332
 31
0.0
 70
    32
  1
%%c<>
 71
     8
 42
5.0
  3
BEM-ISBE
100
AcDbAlignedDimension
 13
-33.4850915218878
 23
10.92645246249311
 33
0.0
 14
-33.4850915218878
 24
15.92645246249311
 34
0.0
 50
90.0
100
AcDbRotatedDimension
1001
ACAD
1000
DSTYLE
1002
{
1070
   147
1040
0.625
1070
    72
1070
     0
1070
    71
1070
     0
1070
   284
1070
     8
1070
    78
1070
     8
1070
   144
1040
1.0
1070
    47
1040
0.0
1070
    48
1040
-0.048
1002
}
  0
DIMENSION
  5
F1000D
330
261
100
AcDbEntity
  8
Bemassung
100
AcDbDimension
  2
*D11
 10
-15.50759403121618
 20
15.82645246249311
 30
0.0
 11
-17.4789446451316
 21
25.08975396317524
 31
0.0
 70
    32
  1
%%c<>
 71
     8
 42
4.799999999999997
  3
BEM-ISBE
100
AcDbAlignedDimension
 13
-17.50759403121618
 23
11.02645246249311
 33
0.0
 14
-17.50759403121618
 24
15.82645246249311
 34
0.0
 50
90.0
100
AcDbRotatedDimension
1001
ACAD
1000
DSTYLE
1002
{
1070
   147
1040
0.625
1070
    72
1070
     0
1070
    71
1070
     0
1070
   284
1070
     8
1070
    78
1070
     8
1070
   144
1040
1.0
1070
    47
1040
0.0
1070
    48
1040
-0.1
1002
}
  0
DIMENSION
  5
F1001C
330
261
100
AcDbEntity
  8
Bemassung
100
AcDbDimension
  2
*D12
 10
33.39490847811221
 20
16.42645246249311
 30
0.0
 11
31.42355786419678
 21
26.65752340383009
 31
0.0
 70
    32
  1
%%c<> h6
 71
     8
 42
5.999999999999998
  3
BEM-ISBE
100
AcDbAlignedDimension
 13
22.99490847811221
 23
10.42645246249311
 33
0.0
 14
22.99490847811221
 24
16.42645246249311
 34
0.0
 50
90.0
100
AcDbRotatedDimension
1001
ACAD
1000
DSTYLE
1002
{
1070
   284
1070
     8
1070
    78
1070
     8
1070
   144
1040
1.0
1070
   147
1040
0.625
1070
    72
1070
     0
1070
    71
1070
     0
1002
}
  0
LINE
  5
F1009A
330
261
100
AcDbEntity
  8
Geo
100
AcDbLine
 10
-33.6050915218878
 20
13.42645246249311
 30
0.0
 11
-33.6050915218878
 21
15.80645246249311
 31
0.0
  0
LINE
  5
F1009C
330
261
100
AcDbEntity
  8
Geo
100
AcDbLine
 10
-33.6050915218878
 20
15.80645246249311
 30
0.0
 11
-33.4850915218878
 21
15.92645246249311
 31
0.0
  0
LINE
  5
F1009E
330
261
100
AcDbEntity
  8
Geo
100
AcDbLine
 10
-33.4850915218878
 20
15.92645246249311
 30
0.0
 11
-20.6050915218878
 21
15.92645246249311
 31
0.0
  0
LINE
  5
F100A0
330
261
100
AcDbEntity
  8
Geo
100
AcDbLine
 10
-20.6050915218878
 20
15.92645246249311
 30
0.0
 11
-20.6050915218878
 21
15.82645246249311
 31
0.0
  0
LINE
  5
F100A2
330
261
100
AcDbEntity
  8
Geo
100
AcDbLine
 10
-20.6050915218878
 20
15.82645246249311
 30
0.0
 11
-13.6050915218878
 21
15.82645246249311
 31
0.0
  0
LINE
  5
F100A4
330
261
100
AcDbEntity
  8
Geo
100
AcDbLine
 10
-13.6050915218878
 20
15.82645246249311
 30
0.0
 11
-12.6050915218878
 21
16.42645246249311
 31
0.0
  0
LINE
  5
F100A6
330
261
100
AcDbEntity
  8
Geo
100
AcDbLine
 10
-12.6050915218878
 20
16.42645246249311
 30
0.0
 11
2.394908478112206
 21
16.42645246249311
 31
0.0
  0
LINE
  5
F100A8
330
261
100
AcDbEntity
  8
Geo
100
AcDbLine
 10
2.394908478112206
 20
16.42645246249311
 30
0.0
 11
3.294908478112205
 21
15.52645246249311
 31
0.0
  0
LINE
  5
F100AA
330
261
100
AcDbEntity
  8
Geo
100
AcDbLine
 10
3.294908478112205
 20
15.52645246249311
 30
0.0
 11
7.494908478112201
 21
15.52645246249311
 31
0.0
  0
LINE
  5
F100AC
330
261
100
AcDbEntity
  8
Geo
100
AcDbLine
 10
7.494908478112201
 20
15.52645246249311
 30
0.0
 11
8.394908478112206
 21
16.42645246249311
 31
0.0
  0
LINE
  5
F100AE
330
261
100
AcDbEntity
  8
Geo
100
AcDbLine
 10
8.394908478112206
 20
16.42645246249311
 30
0.0
 11
22.99490847811221
 21
16.42645246249311
 31
0.0
  0
LINE
  5
F100B0
330
261
100
AcDbEntity
  8
Geo
100
AcDbLine
 10
22.99490847811221
 20
16.42645246249311
 30
0.0
 11
23.39490847811221
 21
16.02645246249311
 31
0.0
  0
LINE
  5
F100B2
330
261
100
AcDbEntity
  8
Geo
100
AcDbLine
 10
-31.8050915218878
 20
15.92637773823982
 30
0.0
 11
-31.7050915218878
 21
15.92604606854151
 31
0.0
  0
LINE
  5
F100B4
330
261
100
AcDbEntity
  8
Geo
100
AcDbLine
 10
-31.7050915218878
 20
15.92604606854151
 30
0.0
 11
-31.6050915218878
 21
15.92405543923081
 31
0.0
  0
LINE
  5
F100B6
330
261
100
AcDbEntity
  8
Geo
100
AcDbLine
 10
-31.6050915218878
 20
15.92405543923081
 30
0.0
 11
-31.50509152188779
 21
15.92040717147181
 31
0.0
  0
LINE
  5
F100B8
330
261
100
AcDbEntity
  8
Geo
100
AcDbLine
 10
-31.50509152188779
 20
15.92040717147181
 30
0.0
 11
-31.4050915218878
 21
15.91510368658971
 31
0.0
  0
LINE
  5
F100BA
330
261
100
AcDbEntity
  8
Geo
100
AcDbLine
 10
-31.4050915218878
 20
15.91510368658971
 30
0.0
 11
-31.30509152188781
 21
15.90814850446371
 31
0.0
  0
LINE
  5
F100BC
330
261
100
AcDbEntity
  8
Geo
100
AcDbLine
 10
-31.30509152188781
 20
15.90814850446371
 30
0.0
 11
-31.20509152188779
 21
15.89954624119051
 31
0.0
  0
LINE
  5
F100BE
330
261
100
AcDbEntity
  8
Geo
100
AcDbLine
 10
-31.20509152188779
 20
15.89954624119051
 30
0.0
 11
-31.1050915218878
 21
15.88930260602121
 31
0.0
  0
LINE
  5
F100C0
330
261
100
AcDbEntity
  8
Geo
100
AcDbLine
 10
-31.1050915218878
 20
15.88930260602121
 30
0.0
 11
-31.00509152188779
 21
15.87742439757182
 31
0.0
  0
LINE
  5
F100C2
330
261
100
AcDbEntity
  8
Geo
100
AcDbLine
 10
-31.00509152188779
 20
15.87742439757182
 30
0.0
 11
-30.9050915218878
 21
15.86391949931101
 31
0.0
  0
LINE
  5
F100C4
330
261
100
AcDbEntity
  8
Geo
100
AcDbLine
 10
-30.9050915218878
 20
15.86391949931101
 30
0.0
 11
-30.8050915218878
 21
15.84879687432811
 31
0.0
  0
LINE
  5
F100C6
330
261
100
AcDbEntity
  8
Geo
100
AcDbLine
 10
-30.8050915218878
 20
15.84879687432811
 30
0.0
 11
-30.7050915218878
 21
15.8320665593844
 31
0.0
  0
LINE
  5
F100C8
330
261
100
AcDbEntity
  8
Geo
100
AcDbLine
 10
-30.7050915218878
 20
15.8320665593844
 30
0.0
 11
-30.6050915218878
 21
15.81373965825162
 31
0.0
  0
LINE
  5
F100CA
330
261
100
AcDbEntity
  8
Geo
100
AcDbLine
 10
-30.6050915218878
 20
15.81373965825162
 30
0.0
 11
-30.50509152188779
 21
15.79382833434241
 31
0.0
  0
LINE
  5
F100CC
330
261
100
AcDbEntity
  8
Geo
100
AcDbLine
 10
-30.50509152188779
 20
15.79382833434241
 30
0.0
 11
-30.4050915218878
 21
15.77234580263791
 31
0.0
  0
LINE
  5
F100CE
330
261
100
AcDbEntity
  8
Geo
100
AcDbLine
 10
-30.4050915218878
 20
15.77234580263791
 30
0.0
 11
-30.30509152188781
 21
15.74930632091681
 31
0.0
  0
LINE
  5
F100D0
330
261
100
AcDbEntity
  8
Geo
100
AcDbLine
 10
-30.30509152188781
 20
15.74930632091681
 30
0.0
 11
-30.20509152188779
 21
15.72472518029272
 31
0.0
  0
LINE
  5
F100D2
330
261
100
AcDbEntity
  8
Geo
100
AcDbLine
 10
-30.20509152188779
 20
15.72472518029272
 30
0.0
 11
-30.1050915218878
 21
15.69861869506541
 31
0.0
  0
LINE
  5
F100D4
330
261
100
AcDbEntity
  8
Geo
100
AcDbLine
 10
-30.1050915218878
 20
15.69861869506541
 30
0.0
 11
-30.00509152188779
 21
15.67100419189321
 31
0.0
  0
LINE
  5
F100D6
330
261
100
AcDbEntity
  8
Geo
100
AcDbLine
 10
-30.00509152188779
 20
15.67100419189321
 30
0.0
 11
-29.9050915218878
 21
15.64189999829381
 31
0.0
  0
LINE
  5
F100D8
330
261
100
AcDbEntity
  8
Geo
100
AcDbLine
 10
-29.9050915218878
 20
15.64189999829381
 30
0.0
 11
-29.8050915218878
 21
15.61132543047972
 31
0.0
  0
LINE
  5
F100DA
330
261
100
AcDbEntity
  8
Geo
100
AcDbLine
 10
-29.8050915218878
 20
15.61132543047972
 30
0.0
 11
-29.7050915218878
 21
15.57930078053891
 31
0.0
  0
LINE
  5
F100DC
330
261
100
AcDbEntity
  8
Geo
100
AcDbLine
 10
-29.7050915218878
 20
15.57930078053891
 30
0.0
 11
-29.6050915218878
 21
15.54584730296681
 31
0.0
  0
LINE
  5
F100DE
330
261
100
AcDbEntity
  8
Geo
100
AcDbLine
 10
-29.6050915218878
 20
15.54584730296681
 30
0.0
 11
-29.50509152188779
 21
15.51098720055991
 31
0.0
  0
LINE
  5
F100E0
330
261
100
AcDbEntity
  8
Geo
100
AcDbLine
 10
-29.50509152188779
 20
15.51098720055991
 30
0.0
 11
-29.4050915218878
 21
15.47474360967991
 31
0.0
  0
LINE
  5
F100E2
330
261
100
AcDbEntity
  8
Geo
100
AcDbLine
 10
-29.4050915218878
 20
15.47474360967991
 30
0.0
 11
-29.30509152188781
 21
15.43714058489862
 31
0.0
  0
LINE
  5
F100E4
330
261
100
AcDbEntity
  8
Geo
100
AcDbLine
 10
-29.30509152188781
 20
15.43714058489862
 30
0.0
 11
-29.2050915218878
 21
15.39820308303261
 31
0.0
  0
LINE
  5
F100E6
330
261
100
AcDbEntity
  8
Geo
100
AcDbLine
 10
-29.2050915218878
 20
15.39820308303261
 30
0.0
 11
-29.1050915218878
 21
15.35795694658001
 31
0.0
  0
LINE
  5
F100E8
330
261
100
AcDbEntity
  8
Geo
100
AcDbLine
 10
-29.1050915218878
 20
15.35795694658001
 30
0.0
 11
-29.00509152188779
 21
15.31642888656891
 31
0.0
  0
LINE
  5
F100EA
330
261
100
AcDbEntity
  8
Geo
100
AcDbLine
 10
-29.00509152188779
 20
15.31642888656891
 30
0.0
 11
-28.9050915218878
 21
15.27364646482941
 31
0.0
  0
LINE
  5
F100EC
330
261
100
AcDbEntity
  8
Geo
100
AcDbLine
 10
-28.9050915218878
 20
15.27364646482941
 30
0.0
 11
-28.80509152188781
 21
15.22963807570101
 31
0.0
  0
LINE
  5
F100EE
330
261
100
AcDbEntity
  8
Geo
100
AcDbLine
 10
-28.80509152188781
 20
15.22963807570101
 30
0.0
 11
-28.70509152188779
 21
15.18443292718801
 31
0.0
  0
LINE
  5
F100F0
330
261
100
AcDbEntity
  8
Geo
100
AcDbLine
 10
-28.70509152188779
 20
15.18443292718801
 30
0.0
 11
-28.6050915218878
 21
15.13806102157361
 31
0.0
  0
LINE
  5
F100F2
330
261
100
AcDbEntity
  8
Geo
100
AcDbLine
 10
-28.6050915218878
 20
15.13806102157361
 30
0.0
 11
-28.50509152188779
 21
15.09055313550821
 31
0.0
  0
LINE
  5
F100F4
330
261
100
AcDbEntity
  8
Geo
100
AcDbLine
 10
-28.50509152188779
 20
15.09055313550821
 30
0.0
 11
-28.4050915218878
 21
15.04194079958301
 31
0.0
  0
LINE
  5
F100F6
330
261
100
AcDbEntity
  8
Geo
100
AcDbLine
 10
-28.4050915218878
 20
15.04194079958301
 30
0.0
 11
-28.3050915218878
 21
14.99225627740371
 31
0.0
  0
LINE
  5
F100F8
330
261
100
AcDbEntity
  8
Geo
100
AcDbLine
 10
-28.3050915218878
 20
14.99225627740371
 30
0.0
 11
-28.2050915218878
 21
14.94153254417671
 31
0.0
  0
LINE
  5
F100FA
330
261
100
AcDbEntity
  8
Geo
100
AcDbLine
 10
-28.2050915218878
 20
14.94153254417671
 30
0.0
 11
-28.1050915218878
 21
14.88980326482451
 31
0.0
  0
LINE
  5
F100FC
330
261
100
AcDbEntity
  8
Geo
100
AcDbLine
 10
-28.1050915218878
 20
14.88980326482451
 30
0.0
 11
-28.00509152188779
 21
14.83710277164221
 31
0.0
  0
LINE
  5
F100FE
330
261
100
AcDbEntity
  8
Geo
100
AcDbLine
 10
-28.00509152188779
 20
14.83710277164221
 30
0.0
 11
-27.9050915218878
 21
14.78346604151141
 31
0.0
  0
LINE
  5
F10100
330
261
100
AcDbEntity
  8
Geo
100
AcDbLine
 10
-27.9050915218878
 20
14.78346604151141
 30
0.0
 11
-27.80509152188781
 21
14.72892867268651
 31
0.0
  0
LINE
  5
F10102
330
261
100
AcDbEntity
  8
Geo
100
AcDbLine
 10
-27.80509152188781
 20
14.72892867268651
 30
0.0
 11
-27.70509152188779
 21
14.67352686116831
 31
0.0
  0
LINE
  5
F10104
330
261
100
AcDbEntity
  8
Geo
100
AcDbLine
 10
-27.70509152188779
 20
14.67352686116831
 30
0.0
 11
-27.6050915218878
 21
14.61729737668111
 31
0.0
  0
LINE
  5
F10106
330
261
100
AcDbEntity
  8
Geo
100
AcDbLine
 10
-27.6050915218878
 20
14.61729737668111
 30
0.0
 11
-27.50509152188779
 21
14.56027753826911
 31
0.0
  0
LINE
  5
F10108
330
261
100
AcDbEntity
  8
Geo
100
AcDbLine
 10
-27.50509152188779
 20
14.56027753826911
 30
0.0
 11
-27.4050915218878
 21
14.5025051895274
 31
0.0
  0
LINE
  5
F1010A
330
261
100
AcDbEntity
  8
Geo
100
AcDbLine
 10
-27.4050915218878
 20
14.5025051895274
 30
0.0
 11
-27.3050915218878
 21
14.44401867348641
 31
0.0
  0
LINE
  5
F1010C
330
261
100
AcDbEntity
  8
Geo
100
AcDbLine
 10
-27.3050915218878
 20
14.44401867348641
 30
0.0
 11
-27.2050915218878
 21
14.38485680716331
 31
0.0
  0
LINE
  5
F1010E
330
261
100
AcDbEntity
  8
Geo
100
AcDbLine
 10
-27.2050915218878
 20
14.38485680716331
 30
0.0
 11
-27.1050915218878
 21
14.32505885579971
 31
0.0
  0
LINE
  5
F10110
330
261
100
AcDbEntity
  8
Geo
100
AcDbLine
 10
-27.1050915218878
 20
14.32505885579971
 30
0.0
 11
-27.00509152188779
 21
14.26466450680151
 31
0.0
  0
LINE
  5
F10112
330
261
100
AcDbEntity
  8
Geo
100
AcDbLine
 10
-27.00509152188779
 20
14.26466450680151
 30
0.0
 11
-26.9050915218878
 21
14.20371384339901
 31
0.0
  0
LINE
  5
F10114
330
261
100
AcDbEntity
  8
Geo
100
AcDbLine
 10
-26.9050915218878
 20
14.20371384339901
 30
0.0
 11
-26.8050915218878
 21
14.1422473180434
 31
0.0
  0
LINE
  5
F10116
330
261
100
AcDbEntity
  8
Geo
100
AcDbLine
 10
-26.8050915218878
 20
14.1422473180434
 30
0.0
 11
-26.7050915218878
 21
14.08030572555971
 31
0.0
  0
LINE
  5
F10118
330
261
100
AcDbEntity
  8
Geo
100
AcDbLine
 10
-26.7050915218878
 20
14.08030572555971
 30
0.0
 11
-26.6050915218878
 21
14.01793017607061
 31
0.0
  0
LINE
  5
F1011A
330
261
100
AcDbEntity
  8
Geo
100
AcDbLine
 10
-26.6050915218878
 20
14.01793017607061
 30
0.0
 11
-26.50509152188779
 21
13.95516206771261
 31
0.0
  0
LINE
  5
F1011C
330
261
100
AcDbEntity
  8
Geo
100
AcDbLine
 10
-26.50509152188779
 20
13.95516206771261
 30
0.0
 11
-26.4050915218878
 21
13.89204305916051
 31
0.0
  0
LINE
  5
F1011E
330
261
100
AcDbEntity
  8
Geo
100
AcDbLine
 10
-26.4050915218878
 20
13.89204305916051
 30
0.0
 11
-26.30509152188781
 21
13.82861504197841
 31
0.0
  0
LINE
  5
F10120
330
261
100
AcDbEntity
  8
Geo
100
AcDbLine
 10
-26.30509152188781
 20
13.82861504197841
 30
0.0
 11
-26.20509152188779
 21
13.76492011281691
 31
0.0
  0
LINE
  5
F10122
330
261
100
AcDbEntity
  8
Geo
100
AcDbLine
 10
-26.20509152188779
 20
13.76492011281691
 30
0.0
 11
-26.1050915218878
 21
13.7010005454739
 31
0.0
  0
LINE
  5
F10124
330
261
100
AcDbEntity
  8
Geo
100
AcDbLine
 10
-26.1050915218878
 20
13.7010005454739
 30
0.0
 11
-26.00509152188779
 21
13.63689876283791
 31
0.0
  0
LINE
  5
F10126
330
261
100
AcDbEntity
  8
Geo
100
AcDbLine
 10
-26.00509152188779
 20
13.63689876283791
 30
0.0
 11
-25.9050915218878
 21
13.57265730873221
 31
0.0
  0
LINE
  5
F10128
330
261
100
AcDbEntity
  8
Geo
100
AcDbLine
 10
-25.9050915218878
 20
13.57265730873221
 30
0.0
 11
-25.8050915218878
 21
13.50831881967861
 31
0.0
  0
LINE
  5
F1012A
330
261
100
AcDbEntity
  8
Geo
100
AcDbLine
 10
-25.8050915218878
 20
13.50831881967861
 30
0.0
 11
-25.7050915218878
 21
13.44392599660061
 31
0.0
  0
LINE
  5
F1012C
330
261
100
AcDbEntity
  8
Geo
100
AcDbLine
 10
-25.7050915218878
 20
13.44392599660061
 30
0.0
 11
-25.6050915218878
 21
13.3795215764824
 31
0.0
  0
LINE
  5
F1012E
330
261
100
AcDbEntity
  8
Geo
100
AcDbLine
 10
-25.6050915218878
 20
13.3795215764824
 30
0.0
 11
-25.50509152188779
 21
13.31514830400531
 31
0.0
  0
LINE
  5
F10130
330
261
100
AcDbEntity
  8
Geo
100
AcDbLine
 10
-25.50509152188779
 20
13.31514830400531
 30
0.0
 11
-25.4050915218878
 21
13.25084890317811
 31
0.0
  0
LINE
  5
F10132
330
261
100
AcDbEntity
  8
Geo
100
AcDbLine
 10
-25.4050915218878
 20
13.25084890317811
 30
0.0
 11
-25.30509152188781
 21
13.18666604898141
 31
0.0
  0
LINE
  5
F10134
330
261
100
AcDbEntity
  8
Geo
100
AcDbLine
 10
-25.30509152188781
 20
13.18666604898141
 30
0.0
 11
-25.20509152188779
 21
13.12264233904511
 31
0.0
  0
LINE
  5
F10136
330
261
100
AcDbEntity
  8
Geo
100
AcDbLine
 10
-25.20509152188779
 20
13.12264233904511
 30
0.0
 11
-25.1050915218878
 21
13.05882026537621
 31
0.0
  0
LINE
  5
F10138
330
261
100
AcDbEntity
  8
Geo
100
AcDbLine
 10
-25.1050915218878
 20
13.05882026537621
 30
0.0
 11
-25.00509152188779
 21
12.99524218615741
 31
0.0
  0
LINE
  5
F1013A
330
261
100
AcDbEntity
  8
Geo
100
AcDbLine
 10
-25.00509152188779
 20
12.99524218615741
 30
0.0
 11
-24.9050915218878
 21
12.93195029763421
 31
0.0
  0
LINE
  5
F1013C
330
261
100
AcDbEntity
  8
Geo
100
AcDbLine
 10
-24.9050915218878
 20
12.93195029763421
 30
0.0
 11
-24.8050915218878
 21
12.86898660610971
 31
0.0
  0
LINE
  5
F1013E
330
261
100
AcDbEntity
  8
Geo
100
AcDbLine
 10
-24.8050915218878
 20
12.86898660610971
 30
0.0
 11
-24.7050915218878
 21
12.80639290006571
 31
0.0
  0
LINE
  5
F10140
330
261
100
AcDbEntity
  8
Geo
100
AcDbLine
 10
-24.7050915218878
 20
12.80639290006571
 30
0.0
 11
-24.6050915218878
 21
12.74421072242731
 31
0.0
  0
LINE
  5
F10142
330
261
100
AcDbEntity
  8
Geo
100
AcDbLine
 10
-24.6050915218878
 20
12.74421072242731
 30
0.0
 11
-24.50509152188779
 21
12.68248134299171
 31
0.0
  0
LINE
  5
F10144
330
261
100
AcDbEntity
  8
Geo
100
AcDbLine
 10
-24.50509152188779
 20
12.68248134299171
 30
0.0
 11
-24.4050915218878
 21
12.62124573103781
 31
0.0
  0
LINE
  5
F10146
330
261
100
AcDbEntity
  8
Geo
100
AcDbLine
 10
-24.4050915218878
 20
12.62124573103781
 30
0.0
 11
-24.3050915218878
 21
12.56054452813501
 31
0.0
  0
LINE
  5
F10148
330
261
100
AcDbEntity
  8
Geo
100
AcDbLine
 10
-24.3050915218878
 20
12.56054452813501
 30
0.0
 11
-24.2050915218878
 21
12.50041802116991
 31
0.0
  0
LINE
  5
F1014A
330
261
100
AcDbEntity
  8
Geo
100
AcDbLine
 10
-24.2050915218878
 20
12.50041802116991
 30
0.0
 11
-24.1050915218878
 21
12.44090611560801
 31
0.0
  0
LINE
  5
F1014C
330
261
100
AcDbEntity
  8
Geo
100
AcDbLine
 10
-24.1050915218878
 20
12.44090611560801
 30
0.0
 11
-24.00509152188779
 21
12.38204830900921
 31
0.0
  0
LINE
  5
F1014E
330
261
100
AcDbEntity
  8
Geo
100
AcDbLine
 10
-24.00509152188779
 20
12.38204830900921
 30
0.0
 11
-23.9050915218878
 21
12.32388366481311
 31
0.0
  0
LINE
  5
F10150
330
261
100
AcDbEntity
  8
Geo
100
AcDbLine
 10
-23.9050915218878
 20
12.32388366481311
 30
0.0
 11
-23.8050915218878
 21
12.26645078641311
 31
0.0
  0
LINE
  5
F10152
330
261
100
AcDbEntity
  8
Geo
100
AcDbLine
 10
-23.8050915218878
 20
12.26645078641311
 30
0.0
 11
-23.70509152188779
 21
12.20978779153591
 31
0.0
  0
LINE
  5
F10154
330
261
100
AcDbEntity
  8
Geo
100
AcDbLine
 10
-23.70509152188779
 20
12.20978779153591
 30
0.0
 11
-23.6050915218878
 21
12.15393228694281
 31
0.0
  0
LINE
  5
F10156
330
261
100
AcDbEntity
  8
Geo
100
AcDbLine
 10
-23.6050915218878
 20
12.15393228694281
 30
0.0
 11
-23.50509152188779
 21
12.09892134347051
 31
0.0
  0
LINE
  5
F10158
330
261
100
AcDbEntity
  8
Geo
100
AcDbLine
 10
-23.50509152188779
 20
12.09892134347051
 30
0.0
 11
-23.4050915218878
 21
12.04479147142721
 31
0.0
  0
LINE
  5
F1015A
330
261
100
AcDbEntity
  8
Geo
100
AcDbLine
 10
-23.4050915218878
 20
12.04479147142721
 30
0.0
 11
-23.3050915218878
 21
11.99157859636171
 31
0.0
  0
LINE
  5
F1015C
330
261
100
AcDbEntity
  8
Geo
100
AcDbLine
 10
-23.3050915218878
 20
11.99157859636171
 30
0.0
 11
-23.2050915218878
 21
11.93931803521922
 31
0.0
  0
LINE
  5
F1015E
330
261
100
AcDbEntity
  8
Geo
100
AcDbLine
 10
-23.2050915218878
 20
11.93931803521922
 30
0.0
 11
-23.1050915218878
 21
11.88804447290211
 31
0.0
  0
LINE
  5
F10160
330
261
100
AcDbEntity
  8
Geo
100
AcDbLine
 10
-23.1050915218878
 20
11.88804447290211
 30
0.0
 11
-23.00509152188779
 21
11.83779193924971
 31
0.0
  0
LINE
  5
F10162
330
261
100
AcDbEntity
  8
Geo
100
AcDbLine
 10
-23.00509152188779
 20
11.83779193924971
 30
0.0
 11
-22.9050915218878
 21
11.78859378645341
 31
0.0
  0
LINE
  5
F10164
330
261
100
AcDbEntity
  8
Geo
100
AcDbLine
 10
-22.9050915218878
 20
11.78859378645341
 30
0.0
 11
-22.80509152188781
 21
11.74048266692041
 31
0.0
  0
LINE
  5
F10166
330
261
100
AcDbEntity
  8
Geo
100
AcDbLine
 10
-22.80509152188781
 20
11.74048266692041
 30
0.0
 11
-22.70509152188779
 21
11.69349051160291
 31
0.0
  0
LINE
  5
F10168
330
261
100
AcDbEntity
  8
Geo
100
AcDbLine
 10
-22.70509152188779
 20
11.69349051160291
 30
0.0
 11
-22.6050915218878
 21
11.64764850880601
 31
0.0
  0
LINE
  5
F1016A
330
261
100
AcDbEntity
  8
Geo
100
AcDbLine
 10
-22.6050915218878
 20
11.64764850880601
 30
0.0
 11
-22.50509152188779
 21
11.60298708348801
 31
0.0
  0
LINE
  5
F1016C
330
261
100
AcDbEntity
  8
Geo
100
AcDbLine
 10
-22.50509152188779
 20
11.60298708348801
 30
0.0
 11
-22.4050915218878
 21
11.55953587706761
 31
0.0
  0
LINE
  5
F1016E
330
261
100
AcDbEntity
  8
Geo
100
AcDbLine
 10
-22.4050915218878
 20
11.55953587706761
 30
0.0
 11
-22.3050915218878
 21
11.51732372775141
 31
0.0
  0
LINE
  5
F10170
330
261
100
AcDbEntity
  8
Geo
100
AcDbLine
 10
-22.3050915218878
 20
11.51732372775141
 30
0.0
 11
-22.2050915218878
 21
11.47637865139381
 31
0.0
  0
LINE
  5
F10172
330
261
100
AcDbEntity
  8
Geo
100
AcDbLine
 10
-22.2050915218878
 20
11.47637865139381
 30
0.0
 11
-22.1050915218878
 21
11.43672782290371
 31
0.0
  0
LINE
  5
F10174
330
261
100
AcDbEntity
  8
Geo
100
AcDbLine
 10
-22.1050915218878
 20
11.43672782290371
 30
0.0
 11
-22.00509152188779
 21
11.39839755820791
 31
0.0
  0
LINE
  5
F10176
330
261
100
AcDbEntity
  8
Geo
100
AcDbLine
 10
-22.00509152188779
 20
11.39839755820791
 30
0.0
 11
-21.9050915218878
 21
11.36141329678641
 31
0.0
  0
LINE
  5
F10178
330
261
100
AcDbEntity
  8
Geo
100
AcDbLine
 10
-21.9050915218878
 20
11.36141329678641
 30
0.0
 11
-21.8050915218878
 21
11.32579958478771
 31
0.0
  0
LINE
  5
F1017A
330
261
100
AcDbEntity
  8
Geo
100
AcDbLine
 10
-21.8050915218878
 20
11.32579958478771
 30
0.0
 11
-21.70509152188779
 21
11.29158005873811
 31
0.0
  0
LINE
  5
F1017C
330
261
100
AcDbEntity
  8
Geo
100
AcDbLine
 10
-21.70509152188779
 20
11.29158005873811
 30
0.0
 11
-21.6050915218878
 21
11.25877742985401
 31
0.0
  0
LINE
  5
F1017E
330
261
100
AcDbEntity
  8
Geo
100
AcDbLine
 10
-21.6050915218878
 20
11.25877742985401
 30
0.0
 11
-21.50509152188779
 21
11.22741346896921
 31
0.0
  0
LINE
  5
F10180
330
261
100
AcDbEntity
  8
Geo
100
AcDbLine
 10
-21.50509152188779
 20
11.22741346896921
 30
0.0
 11
-21.4050915218878
 21
11.19750899208511
 31
0.0
  0
LINE
  5
F10182
330
261
100
AcDbEntity
  8
Geo
100
AcDbLine
 10
-21.4050915218878
 20
11.19750899208511
 30
0.0
 11
-21.3050915218878
 21
11.16908384655592
 31
0.0
  0
LINE
  5
F10184
330
261
100
AcDbEntity
  8
Geo
100
AcDbLine
 10
-21.3050915218878
 20
11.16908384655592
 30
0.0
 11
-21.20509152188779
 21
11.14215689791571
 31
0.0
  0
LINE
  5
F10186
330
261
100
AcDbEntity
  8
Geo
100
AcDbLine
 10
-21.20509152188779
 20
11.14215689791571
 30
0.0
 11
-21.1050915218878
 21
11.11674601735761
 31
0.0
  0
LINE
  5
F10188
330
261
100
AcDbEntity
  8
Geo
100
AcDbLine
 10
-21.1050915218878
 20
11.11674601735761
 30
0.0
 11
-21.00509152188779
 21
11.09286806987311
 31
0.0
  0
LINE
  5
F1018A
330
261
100
AcDbEntity
  8
Geo
100
AcDbLine
 10
-21.00509152188779
 20
11.09286806987311
 30
0.0
 11
-20.9050915218878
 21
11.07053890305842
 31
0.0
  0
LINE
  5
F1018C
330
261
100
AcDbEntity
  8
Geo
100
AcDbLine
 10
-20.9050915218878
 20
11.07053890305842
 30
0.0
 11
-20.8050915218878
 21
11.04977333659711
 31
0.0
  0
LINE
  5
F1018E
330
261
100
AcDbEntity
  8
Geo
100
AcDbLine
 10
-20.8050915218878
 20
11.04977333659711
 30
0.0
 11
-20.7050915218878
 21
11.03058515242381
 31
0.0
  0
LINE
  5
F10190
330
261
100
AcDbEntity
  8
Geo
100
AcDbLine
 10
-20.7050915218878
 20
11.03058515242381
 30
0.0
 11
-20.6050915218878
 21
11.01298708557781
 31
0.0
  0
LINE
  5
F10192
330
261
100
AcDbEntity
  8
Geo
100
AcDbLine
 10
-20.6050915218878
 20
11.01298708557781
 30
0.0
 11
-20.6050915218878
 21
11.01298708557781
 31
0.0
  0
LINE
  5
F10194
330
261
100
AcDbEntity
  8
Geo
100
AcDbLine
 10
-20.6050915218878
 20
11.01298708557781
 30
0.0
 11
-20.6050915218878
 21
11.10952570065441
 31
0.0
  0
LINE
  5
F10196
330
261
100
AcDbEntity
  8
Geo
100
AcDbLine
 10
-20.6050915218878
 20
11.10952570065441
 30
0.0
 11
-20.6050915218878
 21
11.01298708557781
 31
0.0
  0
LINE
  5
F10198
330
261
100
AcDbEntity
  8
Geo
100
AcDbLine
 10
-20.6050915218878
 20
11.01298708557781
 30
0.0
 11
-20.6050915218878
 21
11.01298708557781
 31
0.0
  0
LINE
  5
F1019A
330
261
100
AcDbEntity
  8
Geo
100
AcDbLine
 10
-20.6050915218878
 20
11.01298708557781
 30
0.0
 11
-20.50509152188779
 21
11.09150955539231
 31
0.0
  0
LINE
  5
F1019C
330
261
100
AcDbEntity
  8
Geo
100
AcDbLine
 10
-20.50509152188779
 20
11.09150955539231
 30
0.0
 11
-20.4050915218878
 21
11.07434982282641
 31
0.0
  0
LINE
  5
F1019E
330
261
100
AcDbEntity
  8
Geo
100
AcDbLine
 10
-20.4050915218878
 20
11.07434982282641
 30
0.0
 11
-20.30509152188781
 21
11.05870625386691
 31
0.0
  0
LINE
  5
F101A0
330
261
100
AcDbEntity
  8
Geo
100
AcDbLine
 10
-20.30509152188781
 20
11.05870625386691
 30
0.0
 11
-20.20509152188779
 21
11.04529750691072
 31
0.0
  0
LINE
  5
F101A2
330
261
100
AcDbEntity
  8
Geo
100
AcDbLine
 10
-20.20509152188779
 20
11.04529750691072
 30
0.0
 11
-20.1050915218878
 21
11.03489983230411
 31
0.0
  0
LINE
  5
F101A4
330
261
100
AcDbEntity
  8
Geo
100
AcDbLine
 10
-20.1050915218878
 20
11.03489983230411
 30
0.0
 11
-20.00509152188779
 21
11.02834473266911
 31
0.0
  0
LINE
  5
F101A6
330
261
100
AcDbEntity
  8
Geo
100
AcDbLine
 10
-33.6050915218878
 20
15.10974611304622
 30
0.0
 11
-33.50509152188779
 21
15.13472735011231
 31
0.0
  0
LINE
  5
F101A8
330
261
100
AcDbEntity
  8
Geo
100
AcDbLine
 10
-33.50509152188779
 20
15.13472735011231
 30
0.0
 11
-33.4050915218878
 21
15.10124654796872
 31
0.0
  0
LINE
  5
F101AA
330
261
100
AcDbEntity
  8
Geo
100
AcDbLine
 10
-33.4050915218878
 20
15.10124654796872
 30
0.0
 11
-33.3050915218878
 21
15.05287778845191
 31
0.0
  0
LINE
  5
F101AC
330
261
100
AcDbEntity
  8
Geo
100
AcDbLine
 10
-33.3050915218878
 20
15.05287778845191
 30
0.0
 11
-33.2050915218878
 21
15.00342958389171
 31
0.0
  0
LINE
  5
F101AE
330
261
100
AcDbEntity
  8
Geo
100
AcDbLine
 10
-33.2050915218878
 20
15.00342958389171
 30
0.0
 11
-33.1050915218878
 21
14.95293475265272
 31
0.0
  0
LINE
  5
F101B0
330
261
100
AcDbEntity
  8
Geo
100
AcDbLine
 10
-33.1050915218878
 20
14.95293475265272
 30
0.0
 11
-33.00509152188779
 21
14.90142680773711
 31
0.0
  0
LINE
  5
F101B2
330
261
100
AcDbEntity
  8
Geo
100
AcDbLine
 10
-33.00509152188779
 20
14.90142680773711
 30
0.0
 11
-32.9050915218878
 21
14.84893993454191
 31
0.0
  0
LINE
  5
F101B4
330
261
100
AcDbEntity
  8
Geo
100
AcDbLine
 10
-32.9050915218878
 20
14.84893993454191
 30
0.0
 11
-32.80509152188781
 21
14.79550896817121
 31
0.0
  0
LINE
  5
F101B6
330
261
100
AcDbEntity
  8
Geo
100
AcDbLine
 10
-32.80509152188781
 20
14.79550896817121
 30
0.0
 11
-32.70509152188779
 21
14.7411693703154
 31
0.0
  0
LINE
  5
F101B8
330
261
100
AcDbEntity
  8
Geo
100
AcDbLine
 10
-32.70509152188779
 20
14.7411693703154
 30
0.0
 11
-32.6050915218878
 21
14.68595720571661
 31
0.0
  0
LINE
  5
F101BA
330
261
100
AcDbEntity
  8
Geo
100
AcDbLine
 10
-32.6050915218878
 20
14.68595720571661
 30
0.0
 11
-32.50509152188779
 21
14.62990911823191
 31
0.0
  0
LINE
  5
F101BC
330
261
100
AcDbEntity
  8
Geo
100
AcDbLine
 10
-32.50509152188779
 20
14.62990911823191
 30
0.0
 11
-32.4050915218878
 21
14.57306230651362
 31
0.0
  0
LINE
  5
F101BE
330
261
100
AcDbEntity
  8
Geo
100
AcDbLine
 10
-32.4050915218878
 20
14.57306230651362
 30
0.0
 11
-32.3050915218878
 21
14.51545449932081
 31
0.0
  0
LINE
  5
F101C0
330
261
100
AcDbEntity
  8
Geo
100
AcDbLine
 10
-32.3050915218878
 20
14.51545449932081
 30
0.0
 11
-32.2050915218878
 21
14.45712393047882
 31
0.0
  0
LINE
  5
F101C2
330
261
100
AcDbEntity
  8
Geo
100
AcDbLine
 10
-32.2050915218878
 20
14.45712393047882
 30
0.0
 11
-32.1050915218878
 21
14.3981093135039
 31
0.0
  0
LINE
  5
F101C4
330
261
100
AcDbEntity
  8
Geo
100
AcDbLine
 10
-32.1050915218878
 20
14.3981093135039
 30
0.0
 11
-32.00509152188779
 21
14.33844981590961
 31
0.0
  0
LINE
  5
F101C6
330
261
100
AcDbEntity
  8
Geo
100
AcDbLine
 10
-32.00509152188779
 20
14.33844981590961
 30
0.0
 11
-31.9050915218878
 21
14.27818503321132
 31
0.0
  0
LINE
  5
F101C8
330
261
100
AcDbEntity
  8
Geo
100
AcDbLine
 10
-31.9050915218878
 20
14.27818503321132
 30
0.0
 11
-31.8050915218878
 21
14.21735496264691
 31
0.0
  0
LINE
  5
F101CA
330
261
100
AcDbEntity
  8
Geo
100
AcDbLine
 10
-31.8050915218878
 20
14.21735496264691
 30
0.0
 11
-31.7050915218878
 21
14.15599997663151
 31
0.0
  0
LINE
  5
F101CC
330
261
100
AcDbEntity
  8
Geo
100
AcDbLine
 10
-31.7050915218878
 20
14.15599997663151
 30
0.0
 11
-31.6050915218878
 21
14.09416079596211
 31
0.0
  0
LINE
  5
F101CE
330
261
100
AcDbEntity
  8
Geo
100
AcDbLine
 10
-31.6050915218878
 20
14.09416079596211
 30
0.0
 11
-31.50509152188779
 21
14.03187846279161
 31
0.0
  0
LINE
  5
F101D0
330
261
100
AcDbEntity
  8
Geo
100
AcDbLine
 10
-31.50509152188779
 20
14.03187846279161
 30
0.0
 11
-31.4050915218878
 21
13.96919431338972
 31
0.0
  0
LINE
  5
F101D2
330
261
100
AcDbEntity
  8
Geo
100
AcDbLine
 10
-31.4050915218878
 20
13.96919431338972
 30
0.0
 11
-31.30509152188781
 21
13.90614995070821
 31
0.0
  0
LINE
  5
F101D4
330
261
100
AcDbEntity
  8
Geo
100
AcDbLine
 10
-31.30509152188781
 20
13.90614995070821
 30
0.0
 11
-31.20509152188779
 21
13.8427872167694
 31
0.0
  0
LINE
  5
F101D6
330
261
100
AcDbEntity
  8
Geo
100
AcDbLine
 10
-31.20509152188779
 20
13.8427872167694
 30
0.0
 11
-31.1050915218878
 21
13.77914816489591
 31
0.0
  0
LINE
  5
F101D8
330
261
100
AcDbEntity
  8
Geo
100
AcDbLine
 10
-31.1050915218878
 20
13.77914816489591
 30
0.0
 11
-31.00509152188779
 21
13.7152750318004
 31
0.0
  0
LINE
  5
F101DA
330
261
100
AcDbEntity
  8
Geo
100
AcDbLine
 10
-31.00509152188779
 20
13.7152750318004
 30
0.0
 11
-30.9050915218878
 21
13.65121020955341
 31
0.0
  0
LINE
  5
F101DC
330
261
100
AcDbEntity
  8
Geo
100
AcDbLine
 10
-30.9050915218878
 20
13.65121020955341
 30
0.0
 11
-30.8050915218878
 21
13.58699621744771
 31
0.0
  0
LINE
  5
F101DE
330
261
100
AcDbEntity
  8
Geo
100
AcDbLine
 10
-30.8050915218878
 20
13.58699621744771
 30
0.0
 11
-30.7050915218878
 21
13.52267567377901
 31
0.0
  0
LINE
  5
F101E0
330
261
100
AcDbEntity
  8
Geo
100
AcDbLine
 10
-30.7050915218878
 20
13.52267567377901
 30
0.0
 11
-30.6050915218878
 21
13.45829126756051
 31
0.0
  0
LINE
  5
F101E2
330
261
100
AcDbEntity
  8
Geo
100
AcDbLine
 10
-30.6050915218878
 20
13.45829126756051
 30
0.0
 11
-30.50509152188779
 21
13.39388573019022
 31
0.0
  0
LINE
  5
F101E4
330
261
100
AcDbEntity
  8
Geo
100
AcDbLine
 10
-30.50509152188779
 20
13.39388573019022
 30
0.0
 11
-30.4050915218878
 21
13.32950180709101
 31
0.0
  0
LINE
  5
F101E6
330
261
100
AcDbEntity
  8
Geo
100
AcDbLine
 10
-30.4050915218878
 20
13.32950180709101
 30
0.0
 11
-30.30509152188781
 21
13.26518222934031
 31
0.0
  0
LINE
  5
F101E8
330
261
100
AcDbEntity
  8
Geo
100
AcDbLine
 10
-30.30509152188781
 20
13.26518222934031
 30
0.0
 11
-30.20509152188779
 21
13.20096968531011
 31
0.0
  0
LINE
  5
F101EA
330
261
100
AcDbEntity
  8
Geo
100
AcDbLine
 10
-30.20509152188779
 20
13.20096968531011
 30
0.0
 11
-30.1050915218878
 21
13.13690679233501
 31
0.0
  0
LINE
  5
F101EC
330
261
100
AcDbEntity
  8
Geo
100
AcDbLine
 10
-30.1050915218878
 20
13.13690679233501
 30
0.0
 11
-30.00509152188779
 21
13.07303606842761
 31
0.0
  0
LINE
  5
F101EE
330
261
100
AcDbEntity
  8
Geo
100
AcDbLine
 10
-30.00509152188779
 20
13.07303606842761
 30
0.0
 11
-29.9050915218878
 21
13.00939990405931
 31
0.0
  0
LINE
  5
F101F0
330
261
100
AcDbEntity
  8
Geo
100
AcDbLine
 10
-29.9050915218878
 20
13.00939990405931
 30
0.0
 11
-29.8050915218878
 21
12.94604053402632
 31
0.0
  0
LINE
  5
F101F2
330
261
100
AcDbEntity
  8
Geo
100
AcDbLine
 10
-29.8050915218878
 20
12.94604053402632
 30
0.0
 11
-29.7050915218878
 21
12.88300000941872
 31
0.0
  0
LINE
  5
F101F4
330
261
100
AcDbEntity
  8
Geo
100
AcDbLine
 10
-29.7050915218878
 20
12.88300000941872
 30
0.0
 11
-29.6050915218878
 21
12.82032016971161
 31
0.0
  0
LINE
  5
F101F6
330
261
100
AcDbEntity
  8
Geo
100
AcDbLine
 10
-29.6050915218878
 20
12.82032016971161
 30
0.0
 11
-29.50509152188779
 21
12.75804261499631
 31
0.0
  0
LINE
  5
F101F8
330
261
100
AcDbEntity
  8
Geo
100
AcDbLine
 10
-29.50509152188779
 20
12.75804261499631
 30
0.0
 11
-29.4050915218878
 21
12.69620867837122
 31
0.0
  0
LINE
  5
F101FA
330
261
100
AcDbEntity
  8
Geo
100
AcDbLine
 10
-29.4050915218878
 20
12.69620867837122
 30
0.0
 11
-29.30509152188781
 21
12.63485939850871
 31
0.0
  0
LINE
  5
F101FC
330
261
100
AcDbEntity
  8
Geo
100
AcDbLine
 10
-29.30509152188781
 20
12.63485939850871
 30
0.0
 11
-29.2050915218878
 21
12.57403549241871
 31
0.0
  0
LINE
  5
F101FE
330
261
100
AcDbEntity
  8
Geo
100
AcDbLine
 10
-29.2050915218878
 20
12.57403549241871
 30
0.0
 11
-29.1050915218878
 21
12.51377732842501
 31
0.0
  0
LINE
  5
F10200
330
261
100
AcDbEntity
  8
Geo
100
AcDbLine
 10
-29.1050915218878
 20
12.51377732842501
 30
0.0
 11
-29.00509152188779
 21
12.45412489937272
 31
0.0
  0
LINE
  5
F10202
330
261
100
AcDbEntity
  8
Geo
100
AcDbLine
 10
-29.00509152188779
 20
12.45412489937272
 30
0.0
 11
-28.9050915218878
 21
12.39511779608591
 31
0.0
  0
LINE
  5
F10204
330
261
100
AcDbEntity
  8
Geo
100
AcDbLine
 10
-28.9050915218878
 20
12.39511779608591
 30
0.0
 11
-28.80509152188781
 21
12.33679518109131
 31
0.0
  0
LINE
  5
F10206
330
261
100
AcDbEntity
  8
Geo
100
AcDbLine
 10
-28.80509152188781
 20
12.33679518109131
 30
0.0
 11
-28.70509152188779
 21
12.27919576262632
 31
0.0
  0
LINE
  5
F10208
330
261
100
AcDbEntity
  8
Geo
100
AcDbLine
 10
-28.70509152188779
 20
12.27919576262632
 30
0.0
 11
-28.6050915218878
 21
12.22235776894881
 31
0.0
  0
LINE
  5
F1020A
330
261
100
AcDbEntity
  8
Geo
100
AcDbLine
 10
-28.6050915218878
 20
12.22235776894881
 30
0.0
 11
-28.50509152188779
 21
12.16631892296521
 31
0.0
  0
LINE
  5
F1020C
330
261
100
AcDbEntity
  8
Geo
100
AcDbLine
 10
-28.50509152188779
 20
12.16631892296521
 30
0.0
 11
-28.4050915218878
 21
12.11111641719441
 31
0.0
  0
LINE
  5
F1020E
330
261
100
AcDbEntity
  8
Geo
100
AcDbLine
 10
-28.4050915218878
 20
12.11111641719441
 30
0.0
 11
-28.3050915218878
 21
12.05678688908311
 31
0.0
  0
LINE
  5
F10210
330
261
100
AcDbEntity
  8
Geo
100
AcDbLine
 10
-28.3050915218878
 20
12.05678688908311
 30
0.0
 11
-28.2050915218878
 21
12.00336639669001
 31
0.0
  0
LINE
  5
F10212
330
261
100
AcDbEntity
  8
Geo
100
AcDbLine
 10
-28.2050915218878
 20
12.00336639669001
 30
0.0
 11
-28.1050915218878
 21
11.95089039475421
 31
0.0
  0
LINE
  5
F10214
330
261
100
AcDbEntity
  8
Geo
100
AcDbLine
 10
-28.1050915218878
 20
11.95089039475421
 30
0.0
 11
-28.00509152188779
 21
11.89939371116451
 31
0.0
  0
LINE
  5
F10216
330
261
100
AcDbEntity
  8
Geo
100
AcDbLine
 10
-28.00509152188779
 20
11.89939371116451
 30
0.0
 11
-27.9050915218878
 21
11.84891052384401
 31
0.0
  0
LINE
  5
F10218
330
261
100
AcDbEntity
  8
Geo
100
AcDbLine
 10
-27.9050915218878
 20
11.84891052384401
 30
0.0
 11
-27.80509152188781
 21
11.79947433806681
 31
0.0
  0
LINE
  5
F1021A
330
261
100
AcDbEntity
  8
Geo
100
AcDbLine
 10
-27.80509152188781
 20
11.79947433806681
 30
0.0
 11
-27.70509152188779
 21
11.75111796422081
 31
0.0
  0
LINE
  5
F1021C
330
261
100
AcDbEntity
  8
Geo
100
AcDbLine
 10
-27.70509152188779
 20
11.75111796422081
 30
0.0
 11
-27.6050915218878
 21
11.70387349603141
 31
0.0
  0
LINE
  5
F1021E
330
261
100
AcDbEntity
  8
Geo
100
AcDbLine
 10
-27.6050915218878
 20
11.70387349603141
 30
0.0
 11
-27.50509152188779
 21
11.65777228926171
 31
0.0
  0
LINE
  5
F10220
330
261
100
AcDbEntity
  8
Geo
100
AcDbLine
 10
-27.50509152188779
 20
11.65777228926171
 30
0.0
 11
-27.4050915218878
 21
11.61284494090141
 31
0.0
  0
LINE
  5
F10222
330
261
100
AcDbEntity
  8
Geo
100
AcDbLine
 10
-27.4050915218878
 20
11.61284494090141
 30
0.0
 11
-27.3050915218878
 21
11.56912126886031
 31
0.0
  0
LINE
  5
F10224
330
261
100
AcDbEntity
  8
Geo
100
AcDbLine
 10
-27.3050915218878
 20
11.56912126886031
 30
0.0
 11
-27.2050915218878
 21
11.52663029217811
 31
0.0
  0
LINE
  5
F10226
330
261
100
AcDbEntity
  8
Geo
100
AcDbLine
 10
-27.2050915218878
 20
11.52663029217811
 30
0.0
 11
-27.1050915218878
 21
11.48540021176471
 31
0.0
  0
LINE
  5
F10228
330
261
100
AcDbEntity
  8
Geo
100
AcDbLine
 10
-27.1050915218878
 20
11.48540021176471
 30
0.0
 11
-27.00509152188779
 21
11.44545839168361
 31
0.0
  0
LINE
  5
F1022A
330
261
100
AcDbEntity
  8
Geo
100
AcDbLine
 10
-27.00509152188779
 20
11.44545839168361
 30
0.0
 11
-26.9050915218878
 21
11.40683134099061
 31
0.0
  0
LINE
  5
F1022C
330
261
100
AcDbEntity
  8
Geo
100
AcDbLine
 10
-26.9050915218878
 20
11.40683134099061
 30
0.0
 11
-26.8050915218878
 21
11.36954469613991
 31
0.0
  0
LINE
  5
F1022E
330
261
100
AcDbEntity
  8
Geo
100
AcDbLine
 10
-26.8050915218878
 20
11.36954469613991
 30
0.0
 11
-26.7050915218878
 21
11.33362320396951
 31
0.0
  0
LINE
  5
F10230
330
261
100
AcDbEntity
  8
Geo
100
AcDbLine
 10
-26.7050915218878
 20
11.33362320396951
 30
0.0
 11
-26.6050915218878
 21
11.29909070527691
 31
0.0
  0
LINE
  5
F10232
330
261
100
AcDbEntity
  8
Geo
100
AcDbLine
 10
-26.6050915218878
 20
11.29909070527691
 30
0.0
 11
-26.50509152188779
 21
11.26597011899571
 31
0.0
  0
LINE
  5
F10234
330
261
100
AcDbEntity
  8
Geo
100
AcDbLine
 10
-26.50509152188779
 20
11.26597011899571
 30
0.0
 11
-26.4050915218878
 21
11.23428342698551
 31
0.0
  0
LINE
  5
F10236
330
261
100
AcDbEntity
  8
Geo
100
AcDbLine
 10
-26.4050915218878
 20
11.23428342698551
 30
0.0
 11
-26.30509152188781
 21
11.20405165944171
 31
0.0
  0
LINE
  5
F10238
330
261
100
AcDbEntity
  8
Geo
100
AcDbLine
 10
-26.30509152188781
 20
11.20405165944171
 30
0.0
 11
-26.20509152188779
 21
11.17529488093851
 31
0.0
  0
LINE
  5
F1023A
330
261
100
AcDbEntity
  8
Geo
100
AcDbLine
 10
-26.20509152188779
 20
11.17529488093851
 30
0.0
 11
-26.1050915218878
 21
11.14803217711221
 31
0.0
  0
LINE
  5
F1023C
330
261
100
AcDbEntity
  8
Geo
100
AcDbLine
 10
-26.1050915218878
 20
11.14803217711221
 30
0.0
 11
-26.00509152188779
 21
11.12228164199371
 31
0.0
  0
LINE
  5
F1023E
330
261
100
AcDbEntity
  8
Geo
100
AcDbLine
 10
-26.00509152188779
 20
11.12228164199371
 30
0.0
 11
-25.9050915218878
 21
11.09806036600051
 31
0.0
  0
LINE
  5
F10240
330
261
100
AcDbEntity
  8
Geo
100
AcDbLine
 10
-25.9050915218878
 20
11.09806036600051
 30
0.0
 11
-25.8050915218878
 21
11.07538442459311
 31
0.0
  0
LINE
  5
F10242
330
261
100
AcDbEntity
  8
Geo
100
AcDbLine
 10
-25.8050915218878
 20
11.07538442459311
 30
0.0
 11
-25.7050915218878
 21
11.05426886760651
 31
0.0
  0
LINE
  5
F10244
330
261
100
AcDbEntity
  8
Geo
100
AcDbLine
 10
-25.7050915218878
 20
11.05426886760651
 30
0.0
 11
-25.6050915218878
 21
11.03472770926111
 31
0.0
  0
LINE
  5
F10246
330
261
100
AcDbEntity
  8
Geo
100
AcDbLine
 10
-25.6050915218878
 20
11.03472770926111
 30
0.0
 11
-25.50509152188779
 21
11.01677391886241
 31
0.0
  0
LINE
  5
F10248
330
261
100
AcDbEntity
  8
Geo
100
AcDbLine
 10
-25.50509152188779
 20
11.01677391886241
 30
0.0
 11
-25.4050915218878
 21
11.00041941219251
 31
0.0
  0
LINE
  5
F1024A
330
261
100
AcDbEntity
  8
Geo
100
AcDbLine
 10
-25.4050915218878
 20
11.00041941219251
 30
0.0
 11
-25.30509152188781
 21
10.98567504360231
 31
0.0
  0
LINE
  5
F1024C
330
261
100
AcDbEntity
  8
Geo
100
AcDbLine
 10
-25.30509152188781
 20
10.98567504360231
 30
0.0
 11
-25.20509152188779
 21
10.97255059880731
 31
0.0
  0
LINE
  5
F1024E
330
261
100
AcDbEntity
  8
Geo
100
AcDbLine
 10
-25.20509152188779
 20
10.97255059880731
 30
0.0
 11
-25.1050915218878
 21
10.96105478839311
 31
0.0
  0
LINE
  5
F10250
330
261
100
AcDbEntity
  8
Geo
100
AcDbLine
 10
-25.1050915218878
 20
10.96105478839311
 30
0.0
 11
-25.00509152188779
 21
10.95119524203411
 31
0.0
  0
LINE
  5
F10252
330
261
100
AcDbEntity
  8
Geo
100
AcDbLine
 10
-25.00509152188779
 20
10.95119524203411
 30
0.0
 11
-24.9050915218878
 21
10.94297850342951
 31
0.0
  0
LINE
  5
F10254
330
261
100
AcDbEntity
  8
Geo
100
AcDbLine
 10
-24.9050915218878
 20
10.94297850342951
 30
0.0
 11
-24.8050915218878
 21
10.93641002596101
 31
0.0
  0
LINE
  5
F10256
330
261
100
AcDbEntity
  8
Geo
100
AcDbLine
 10
-24.8050915218878
 20
10.93641002596101
 30
0.0
 11
-24.7050915218878
 21
10.93149416907261
 31
0.0
  0
LINE
  5
F10258
330
261
100
AcDbEntity
  8
Geo
100
AcDbLine
 10
-24.7050915218878
 20
10.93149416907261
 30
0.0
 11
-24.6050915218878
 21
10.92823419537811
 31
0.0
  0
LINE
  5
F1025A
330
261
100
AcDbEntity
  8
Geo
100
AcDbLine
 10
-24.6050915218878
 20
10.92823419537811
 30
0.0
 11
-24.50509152188779
 21
10.92663226849492
 31
0.0
  0
LINE
  5
F1025C
330
261
100
AcDbEntity
  8
Geo
100
AcDbLine
 10
-33.6050915218878
 20
11.30610067760971
 30
0.0
 11
-33.50509152188779
 21
11.18872744371001
 31
0.0
  0
LINE
  5
F1025E
330
261
100
AcDbEntity
  8
Geo
100
AcDbLine
 10
-33.50509152188779
 20
11.18872744371001
 30
0.0
 11
-33.4050915218878
 21
11.14366750084251
 31
0.0
  0
LINE
  5
F10260
330
261
100
AcDbEntity
  8
Geo
100
AcDbLine
 10
-33.4050915218878
 20
11.14366750084251
 30
0.0
 11
-33.3050915218878
 21
11.1181687929888
 31
0.0
  0
LINE
  5
F10262
330
261
100
AcDbEntity
  8
Geo
100
AcDbLine
 10
-33.3050915218878
 20
11.1181687929888
 30
0.0
 11
-33.2050915218878
 21
11.09420207392422
 31
0.0
  0
LINE
  5
F10264
330
261
100
AcDbEntity
  8
Geo
100
AcDbLine
 10
-33.2050915218878
 20
11.09420207392422
 30
0.0
 11
-33.1050915218878
 21
11.07178325016201
 31
0.0
  0
LINE
  5
F10266
330
261
100
AcDbEntity
  8
Geo
100
AcDbLine
 10
-33.1050915218878
 20
11.07178325016201
 30
0.0
 11
-33.00509152188779
 21
11.05092720089031
 31
0.0
  0
LINE
  5
F10268
330
261
100
AcDbEntity
  8
Geo
100
AcDbLine
 10
-33.00509152188779
 20
11.05092720089031
 30
0.0
 11
-32.9050915218878
 21
11.03164776809641
 31
0.0
  0
LINE
  5
F1026A
330
261
100
AcDbEntity
  8
Geo
100
AcDbLine
 10
-32.9050915218878
 20
11.03164776809641
 30
0.0
 11
-32.80509152188781
 21
11.01395774738071
 31
0.0
  0
LINE
  5
F1026C
330
261
100
AcDbEntity
  8
Geo
100
AcDbLine
 10
-32.80509152188781
 20
11.01395774738071
 30
0.0
 11
-32.70509152188779
 21
10.99786887946341
 31
0.0
  0
LINE
  5
F1026E
330
261
100
AcDbEntity
  8
Geo
100
AcDbLine
 10
-32.70509152188779
 20
10.99786887946341
 30
0.0
 11
-32.6050915218878
 21
10.98339184239341
 31
0.0
  0
LINE
  5
F10270
330
261
100
AcDbEntity
  8
Geo
100
AcDbLine
 10
-32.6050915218878
 20
10.98339184239341
 30
0.0
 11
-32.50509152188779
 21
10.97053624446041
 31
0.0
  0
LINE
  5
F10272
330
261
100
AcDbEntity
  8
Geo
100
AcDbLine
 10
-32.50509152188779
 20
10.97053624446041
 30
0.0
 11
-32.4050915218878
 21
10.95931061781851
 31
0.0
  0
LINE
  5
F10274
330
261
100
AcDbEntity
  8
Geo
100
AcDbLine
 10
-32.4050915218878
 20
10.95931061781851
 30
0.0
 11
-32.3050915218878
 21
10.94972241282331
 31
0.0
  0
LINE
  5
F10276
330
261
100
AcDbEntity
  8
Geo
100
AcDbLine
 10
-32.3050915218878
 20
10.94972241282331
 30
0.0
 11
-32.2050915218878
 21
10.94177799308722
 31
0.0
  0
LINE
  5
F10278
330
261
100
AcDbEntity
  8
Geo
100
AcDbLine
 10
-32.2050915218878
 20
10.94177799308722
 30
0.0
 11
-32.1050915218878
 21
10.93548263125591
 31
0.0
  0
LINE
  5
F1027A
330
261
100
AcDbEntity
  8
Geo
100
AcDbLine
 10
-32.1050915218878
 20
10.93548263125591
 30
0.0
 11
-32.00509152188779
 21
10.93084050550901
 31
0.0
  0
LINE
  5
F1027C
330
261
100
AcDbEntity
  8
Geo
100
AcDbLine
 10
-32.00509152188779
 20
10.93084050550901
 30
0.0
 11
-31.9050915218878
 21
10.92785469678701
 31
0.0
  0
LINE
  5
F1027E
330
261
100
AcDbEntity
  8
Geo
100
AcDbLine
 10
-31.9050915218878
 20
10.92785469678701
 30
0.0
 11
-31.8050915218878
 21
10.92652718674641
 31
0.0
  0
LINE
  5
F10280
330
261
100
AcDbEntity
  8
Geo
100
AcDbLine
 10
-20.00509152188779
 20
15.82456019231711
 30
0.0
 11
-19.9050915218878
 21
15.82638952789891
 31
0.0
  0
LINE
  5
F10282
330
261
100
AcDbEntity
  8
Geo
100
AcDbLine
 10
-19.9050915218878
 20
15.82638952789891
 30
0.0
 11
-19.8050915218878
 21
15.82256322602132
 31
0.0
  0
LINE
  5
F10284
330
261
100
AcDbEntity
  8
Geo
100
AcDbLine
 10
-19.8050915218878
 20
15.82256322602132
 30
0.0
 11
-19.70509152188779
 21
15.81211138180121
 31
0.0
  0
LINE
  5
F10286
330
261
100
AcDbEntity
  8
Geo
100
AcDbLine
 10
-19.70509152188779
 20
15.81211138180121
 30
0.0
 11
-19.6050915218878
 21
15.79403257599031
 31
0.0
  0
LINE
  5
F10288
330
261
100
AcDbEntity
  8
Geo
100
AcDbLine
 10
-19.6050915218878
 20
15.79403257599031
 30
0.0
 11
-19.50509152188779
 21
15.76730446276691
 31
0.0
  0
LINE
  5
F1028A
330
261
100
AcDbEntity
  8
Geo
100
AcDbLine
 10
-19.50509152188779
 20
15.76730446276691
 30
0.0
 11
-19.4050915218878
 21
15.73089661985751
 31
0.0
  0
LINE
  5
F1028C
330
261
100
AcDbEntity
  8
Geo
100
AcDbLine
 10
-19.4050915218878
 20
15.73089661985751
 30
0.0
 11
-19.3050915218878
 21
15.68378582883622
 31
0.0
  0
LINE
  5
F1028E
330
261
100
AcDbEntity
  8
Geo
100
AcDbLine
 10
-19.3050915218878
 20
15.68378582883622
 30
0.0
 11
-19.20509152188779
 21
15.62497391915761
 31
0.0
  0
LINE
  5
F10290
330
261
100
AcDbEntity
  8
Geo
100
AcDbLine
 10
-19.20509152188779
 20
15.62497391915761
 30
0.0
 11
-19.1050915218878
 21
15.55350826328041
 31
0.0
  0
LINE
  5
F10292
330
261
100
AcDbEntity
  8
Geo
100
AcDbLine
 10
-19.1050915218878
 20
15.55350826328041
 30
0.0
 11
-19.00509152188779
 21
15.46850495077951
 31
0.0
  0
LINE
  5
F10294
330
261
100
AcDbEntity
  8
Geo
100
AcDbLine
 10
-19.00509152188779
 20
15.46850495077951
 30
0.0
 11
-18.9050915218878
 21
15.36917459545331
 31
0.0
  0
LINE
  5
F10296
330
261
100
AcDbEntity
  8
Geo
100
AcDbLine
 10
-18.9050915218878
 20
15.36917459545331
 30
0.0
 11
-18.8050915218878
 21
15.25485064019681
 31
0.0
  0
LINE
  5
F10298
330
261
100
AcDbEntity
  8
Geo
100
AcDbLine
 10
-18.8050915218878
 20
15.25485064019681
 30
0.0
 11
-18.70509152188779
 21
15.12501991929651
 31
0.0
  0
LINE
  5
F1029A
330
261
100
AcDbEntity
  8
Geo
100
AcDbLine
 10
-18.70509152188779
 20
15.12501991929651
 30
0.0
 11
-18.6050915218878
 21
14.97935511678721
 31
0.0
  0
LINE
  5
F1029C
330
261
100
AcDbEntity
  8
Geo
100
AcDbLine
 10
-18.6050915218878
 20
14.97935511678721
 30
0.0
 11
-18.6050915218878
 21
14.97935511678721
 31
0.0
  0
LINE
  5
F1029E
330
261
100
AcDbEntity
  8
Geo
100
AcDbLine
 10
-24.50509152188779
 20
15.92627265649132
 30
0.0
 11
-24.4050915218878
 21
15.92621547337751
 31
0.0
  0
LINE
  5
F102A0
330
261
100
AcDbEntity
  8
Geo
100
AcDbLine
 10
-24.4050915218878
 20
15.92621547337751
 30
0.0
 11
-24.3050915218878
 21
15.92449921821871
 31
0.0
  0
LINE
  5
F102A2
330
261
100
AcDbEntity
  8
Geo
100
AcDbLine
 10
-24.3050915218878
 20
15.92449921821871
 30
0.0
 11
-24.2050915218878
 21
15.92112503007921
 31
0.0
  0
LINE
  5
F102A4
330
261
100
AcDbEntity
  8
Geo
100
AcDbLine
 10
-24.2050915218878
 20
15.92112503007921
 30
0.0
 11
-24.1050915218878
 21
15.91609514837981
 31
0.0
  0
LINE
  5
F102A6
330
261
100
AcDbEntity
  8
Geo
100
AcDbLine
 10
-24.1050915218878
 20
15.91609514837981
 30
0.0
 11
-24.00509152188779
 21
15.90941291141141
 31
0.0
  0
LINE
  5
F102A8
330
261
100
AcDbEntity
  8
Geo
100
AcDbLine
 10
-24.00509152188779
 20
15.90941291141141
 30
0.0
 11
-23.9050915218878
 21
15.90108275411941
 31
0.0
  0
LINE
  5
F102AA
330
261
100
AcDbEntity
  8
Geo
100
AcDbLine
 10
-23.9050915218878
 20
15.90108275411941
 30
0.0
 11
-23.8050915218878
 21
15.8911102051604
 31
0.0
  0
LINE
  5
F102AC
330
261
100
AcDbEntity
  8
Geo
100
AcDbLine
 10
-23.8050915218878
 20
15.8911102051604
 30
0.0
 11
-23.70509152188779
 21
15.87950188323261
 31
0.0
  0
LINE
  5
F102AE
330
261
100
AcDbEntity
  8
Geo
100
AcDbLine
 10
-23.70509152188779
 20
15.87950188323261
 30
0.0
 11
-23.6050915218878
 21
15.86626549268351
 31
0.0
  0
LINE
  5
F102B0
330
261
100
AcDbEntity
  8
Geo
100
AcDbLine
 10
-23.6050915218878
 20
15.86626549268351
 30
0.0
 11
-23.50509152188779
 21
15.85140981839581
 31
0.0
  0
LINE
  5
F102B2
330
261
100
AcDbEntity
  8
Geo
100
AcDbLine
 10
-23.50509152188779
 20
15.85140981839581
 30
0.0
 11
-23.4050915218878
 21
15.834944719958
 31
0.0
  0
LINE
  5
F102B4
330
261
100
AcDbEntity
  8
Geo
100
AcDbLine
 10
-23.4050915218878
 20
15.834944719958
 30
0.0
 11
-23.3050915218878
 21
15.81688112511961
 31
0.0
  0
LINE
  5
F102B6
330
261
100
AcDbEntity
  8
Geo
100
AcDbLine
 10
-23.3050915218878
 20
15.81688112511961
 30
0.0
 11
-23.2050915218878
 21
15.79723102253932
 31
0.0
  0
LINE
  5
F102B8
330
261
100
AcDbEntity
  8
Geo
100
AcDbLine
 10
-23.2050915218878
 20
15.79723102253932
 30
0.0
 11
-23.1050915218878
 21
15.77600745382761
 31
0.0
  0
LINE
  5
F102BA
330
261
100
AcDbEntity
  8
Geo
100
AcDbLine
 10
-23.1050915218878
 20
15.77600745382761
 30
0.0
 11
-23.00509152188779
 21
15.75322450489171
 31
0.0
  0
LINE
  5
F102BC
330
261
100
AcDbEntity
  8
Geo
100
AcDbLine
 10
-23.00509152188779
 20
15.75322450489171
 30
0.0
 11
-22.9050915218878
 21
15.72889729658651
 31
0.0
  0
LINE
  5
F102BE
330
261
100
AcDbEntity
  8
Geo
100
AcDbLine
 10
-22.9050915218878
 20
15.72889729658651
 30
0.0
 11
-22.80509152188781
 21
15.70304197467901
 31
0.0
  0
LINE
  5
F102C0
330
261
100
AcDbEntity
  8
Geo
100
AcDbLine
 10
-22.80509152188781
 20
15.70304197467901
 30
0.0
 11
-22.70509152188779
 21
15.67567569913251
 31
0.0
  0
LINE
  5
F102C2
330
261
100
AcDbEntity
  8
Geo
100
AcDbLine
 10
-22.70509152188779
 20
15.67567569913251
 30
0.0
 11
-22.6050915218878
 21
15.64681663271812
 31
0.0
  0
LINE
  5
F102C4
330
261
100
AcDbEntity
  8
Geo
100
AcDbLine
 10
-22.6050915218878
 20
15.64681663271812
 30
0.0
 11
-22.50509152188779
 21
15.61648392895931
 31
0.0
  0
LINE
  5
F102C6
330
261
100
AcDbEntity
  8
Geo
100
AcDbLine
 10
-22.50509152188779
 20
15.61648392895931
 30
0.0
 11
-22.4050915218878
 21
15.58469771942101
 31
0.0
  0
LINE
  5
F102C8
330
261
100
AcDbEntity
  8
Geo
100
AcDbLine
 10
-22.4050915218878
 20
15.58469771942101
 30
0.0
 11
-22.3050915218878
 21
15.55147910034771
 31
0.0
  0
LINE
  5
F102CA
330
261
100
AcDbEntity
  8
Geo
100
AcDbLine
 10
-22.3050915218878
 20
15.55147910034771
 30
0.0
 11
-22.2050915218878
 21
15.51685011866231
 31
0.0
  0
LINE
  5
F102CC
330
261
100
AcDbEntity
  8
Geo
100
AcDbLine
 10
-22.2050915218878
 20
15.51685011866231
 30
0.0
 11
-22.1050915218878
 21
15.48083375733351
 31
0.0
  0
LINE
  5
F102CE
330
261
100
AcDbEntity
  8
Geo
100
AcDbLine
 10
-22.1050915218878
 20
15.48083375733351
 30
0.0
 11
-22.00509152188779
 21
15.44345392012271
 31
0.0
  0
LINE
  5
F102D0
330
261
100
AcDbEntity
  8
Geo
100
AcDbLine
 10
-22.00509152188779
 20
15.44345392012271
 30
0.0
 11
-21.9050915218878
 21
15.40473541571891
 31
0.0
  0
LINE
  5
F102D2
330
261
100
AcDbEntity
  8
Geo
100
AcDbLine
 10
-21.9050915218878
 20
15.40473541571891
 30
0.0
 11
-21.8050915218878
 21
15.36470394127321
 31
0.0
  0
LINE
  5
F102D4
330
261
100
AcDbEntity
  8
Geo
100
AcDbLine
 10
-21.8050915218878
 20
15.36470394127321
 30
0.0
 11
-21.70509152188779
 21
15.32338606534441
 31
0.0
  0
LINE
  5
F102D6
330
261
100
AcDbEntity
  8
Geo
100
AcDbLine
 10
-21.70509152188779
 20
15.32338606534441
 30
0.0
 11
-21.6050915218878
 21
15.28080921026521
 31
0.0
  0
LINE
  5
F102D8
330
261
100
AcDbEntity
  8
Geo
100
AcDbLine
 10
-21.6050915218878
 20
15.28080921026521
 30
0.0
 11
-21.50509152188779
 21
15.23700163394221
 31
0.0
  0
LINE
  5
F102DA
330
261
100
AcDbEntity
  8
Geo
100
AcDbLine
 10
-21.50509152188779
 20
15.23700163394221
 30
0.0
 11
-21.4050915218878
 21
15.19199241110182
 31
0.0
  0
LINE
  5
F102DC
330
261
100
AcDbEntity
  8
Geo
100
AcDbLine
 10
-21.4050915218878
 20
15.19199241110182
 30
0.0
 11
-21.3050915218878
 21
15.14581141399301
 31
0.0
  0
LINE
  5
F102DE
330
261
100
AcDbEntity
  8
Geo
100
AcDbLine
 10
-21.3050915218878
 20
15.14581141399301
 30
0.0
 11
-21.20509152188779
 21
15.09848929256191
 31
0.0
  0
LINE
  5
F102E0
330
261
100
AcDbEntity
  8
Geo
100
AcDbLine
 10
-21.20509152188779
 20
15.09848929256191
 30
0.0
 11
-21.1050915218878
 21
15.05005745410922
 31
0.0
  0
LINE
  5
F102E2
330
261
100
AcDbEntity
  8
Geo
100
AcDbLine
 10
-21.1050915218878
 20
15.05005745410922
 30
0.0
 11
-21.00509152188779
 21
15.00054804244572
 31
0.0
  0
LINE
  5
F102E4
330
261
100
AcDbEntity
  8
Geo
100
AcDbLine
 10
-21.00509152188779
 20
15.00054804244572
 30
0.0
 11
-20.9050915218878
 21
14.94999391655882
 31
0.0
  0
LINE
  5
F102E6
330
261
100
AcDbEntity
  8
Geo
100
AcDbLine
 10
-20.9050915218878
 20
14.94999391655882
 30
0.0
 11
-20.8050915218878
 21
14.89842862880372
 31
0.0
  0
LINE
  5
F102E8
330
261
100
AcDbEntity
  8
Geo
100
AcDbLine
 10
-20.8050915218878
 20
14.89842862880372
 30
0.0
 11
-20.7050915218878
 21
14.84588640263571
 31
0.0
  0
LINE
  5
F102EA
330
261
100
AcDbEntity
  8
Geo
100
AcDbLine
 10
-20.7050915218878
 20
14.84588640263571
 30
0.0
 11
-20.6050915218878
 21
14.79240210989601
 31
0.0
  0
LINE
  5
F102EC
330
261
100
AcDbEntity
  8
Geo
100
AcDbLine
 10
-20.6050915218878
 20
14.79240210989601
 30
0.0
 11
-20.6050915218878
 21
14.79240210989601
 31
0.0
  0
LINE
  5
F102EE
330
261
100
AcDbEntity
  8
Geo
100
AcDbLine
 10
-20.6050915218878
 20
14.79240210989601
 30
0.0
 11
-20.6050915218878
 21
14.73776412399991
 31
0.0
  0
LINE
  5
F102F0
330
261
100
AcDbEntity
  8
Geo
100
AcDbLine
 10
-20.6050915218878
 20
14.73776412399991
 30
0.0
 11
-20.6050915218878
 21
14.79240210989601
 31
0.0
  0
LINE
  5
F102F2
330
261
100
AcDbEntity
  8
Geo
100
AcDbLine
 10
-20.6050915218878
 20
14.79240210989601
 30
0.0
 11
-20.6050915218878
 21
14.79240210989601
 31
0.0
  0
LINE
  5
F102F4
330
261
100
AcDbEntity
  8
Geo
100
AcDbLine
 10
-20.6050915218878
 20
14.79240210989601
 30
0.0
 11
-20.50509152188779
 21
14.74457028170601
 31
0.0
  0
LINE
  5
F102F6
330
261
100
AcDbEntity
  8
Geo
100
AcDbLine
 10
-20.50509152188779
 20
14.74457028170601
 30
0.0
 11
-20.4050915218878
 21
14.75197072773451
 31
0.0
  0
LINE
  5
F102F8
330
261
100
AcDbEntity
  8
Geo
100
AcDbLine
 10
-20.4050915218878
 20
14.75197072773451
 30
0.0
 11
-20.30509152188781
 21
14.75996089819041
 31
0.0
  0
LINE
  5
F102FA
330
261
100
AcDbEntity
  8
Geo
100
AcDbLine
 10
-20.30509152188781
 20
14.75996089819041
 30
0.0
 11
-20.20509152188779
 21
14.76853580636071
 31
0.0
  0
LINE
  5
F102FC
330
261
100
AcDbEntity
  8
Geo
100
AcDbLine
 10
-20.20509152188779
 20
14.76853580636071
 30
0.0
 11
-20.1050915218878
 21
14.77769003186082
 31
0.0
  0
LINE
  5
F102FE
330
261
100
AcDbEntity
  8
Geo
100
AcDbLine
 10
-20.1050915218878
 20
14.77769003186082
 30
0.0
 11
-20.00509152188779
 21
14.78741770903391
 31
0.0
  0
LINE
  5
F10300
330
261
100
AcDbEntity
  8
Geo
100
AcDbLine
 10
-20.00509152188779
 20
14.78741770903391
 30
0.0
 11
-19.9050915218878
 21
14.79771251462282
 31
0.0
  0
LINE
  5
F10302
330
261
100
AcDbEntity
  8
Geo
100
AcDbLine
 10
-19.9050915218878
 20
14.79771251462282
 30
0.0
 11
-19.8050915218878
 21
14.80856765473361
 31
0.0
  0
LINE
  5
F10304
330
261
100
AcDbEntity
  8
Geo
100
AcDbLine
 10
-19.8050915218878
 20
14.80856765473361
 30
0.0
 11
-19.70509152188779
 21
14.81997585111401
 31
0.0
  0
LINE
  5
F10306
330
261
100
AcDbEntity
  8
Geo
100
AcDbLine
 10
-19.70509152188779
 20
14.81997585111401
 30
0.0
 11
-19.6050915218878
 21
14.83192932676951
 31
0.0
  0
LINE
  5
F10308
330
261
100
AcDbEntity
  8
Geo
100
AcDbLine
 10
-19.6050915218878
 20
14.83192932676951
 30
0.0
 11
-19.50509152188779
 21
14.84441979094411
 31
0.0
  0
LINE
  5
F1030A
330
261
100
AcDbEntity
  8
Geo
100
AcDbLine
 10
-19.50509152188779
 20
14.84441979094411
 30
0.0
 11
-19.4050915218878
 21
14.85743842349181
 31
0.0
  0
LINE
  5
F1030C
330
261
100
AcDbEntity
  8
Geo
100
AcDbLine
 10
-19.4050915218878
 20
14.85743842349181
 30
0.0
 11
-19.3050915218878
 21
14.87097585867091
 31
0.0
  0
LINE
  5
F1030E
330
261
100
AcDbEntity
  8
Geo
100
AcDbLine
 10
-19.3050915218878
 20
14.87097585867091
 30
0.0
 11
-19.20509152188779
 21
14.88502216838991
 31
0.0
  0
LINE
  5
F10310
330
261
100
AcDbEntity
  8
Geo
100
AcDbLine
 10
-19.20509152188779
 20
14.88502216838991
 30
0.0
 11
-19.1050915218878
 21
14.89956684494281
 31
0.0
  0
LINE
  5
F10312
330
261
100
AcDbEntity
  8
Geo
100
AcDbLine
 10
-19.1050915218878
 20
14.89956684494281
 30
0.0
 11
-19.00509152188779
 21
14.91459878326651
 31
0.0
  0
LINE
  5
F10314
330
261
100
AcDbEntity
  8
Geo
100
AcDbLine
 10
-19.00509152188779
 20
14.91459878326651
 30
0.0
 11
-18.9050915218878
 21
14.93010626276281
 31
0.0
  0
LINE
  5
F10316
330
261
100
AcDbEntity
  8
Geo
100
AcDbLine
 10
-18.9050915218878
 20
14.93010626276281
 30
0.0
 11
-18.8050915218878
 21
14.94607692872332
 31
0.0
  0
LINE
  5
F10318
330
261
100
AcDbEntity
  8
Geo
100
AcDbLine
 10
-18.8050915218878
 20
14.94607692872332
 30
0.0
 11
-18.70509152188779
 21
14.96249777340261
 31
0.0
  0
LINE
  5
F1031A
330
261
100
AcDbEntity
  8
Geo
100
AcDbLine
 10
-18.70509152188779
 20
14.96249777340261
 30
0.0
 11
-18.6050915218878
 21
14.97935511678721
 31
0.0
  0
LINE
  5
F1031C
330
261
100
AcDbEntity
  8
Geo
100
AcDbLine
 10
-18.6050915218878
 20
14.97935511678721
 30
0.0
 11
-18.6050915218878
 21
14.97935511678721
 31
0.0
  0
LINE
  5
F1031E
330
261
100
AcDbEntity
  8
Geo
100
AcDbLine
 10
-33.6050915218878
 20
14.50790627413781
 30
0.0
 11
-33.50509152188779
 21
14.5014802527534
 31
0.0
  0
LINE
  5
F10320
330
261
100
AcDbEntity
  8
Geo
100
AcDbLine
 10
-33.50509152188779
 20
14.5014802527534
 30
0.0
 11
-33.4050915218878
 21
14.45727597021481
 31
0.0
  0
LINE
  5
F10322
330
261
100
AcDbEntity
  8
Geo
100
AcDbLine
 10
-33.4050915218878
 20
14.45727597021481
 30
0.0
 11
-33.3050915218878
 21
14.40384057524581
 31
0.0
  0
LINE
  5
F10324
330
261
100
AcDbEntity
  8
Geo
100
AcDbLine
 10
-33.3050915218878
 20
14.40384057524581
 30
0.0
 11
-33.2050915218878
 21
14.34987275533601
 31
0.0
  0
LINE
  5
F10326
330
261
100
AcDbEntity
  8
Geo
100
AcDbLine
 10
-33.2050915218878
 20
14.34987275533601
 30
0.0
 11
-33.1050915218878
 21
14.29540190905601
 31
0.0
  0
LINE
  5
F10328
330
261
100
AcDbEntity
  8
Geo
100
AcDbLine
 10
-33.1050915218878
 20
14.29540190905601
 30
0.0
 11
-33.00509152188779
 21
14.24045770899601
 31
0.0
  0
LINE
  5
F1032A
330
261
100
AcDbEntity
  8
Geo
100
AcDbLine
 10
-33.00509152188779
 20
14.24045770899601
 30
0.0
 11
-32.9050915218878
 21
14.18507008560241
 31
0.0
  0
LINE
  5
F1032C
330
261
100
AcDbEntity
  8
Geo
100
AcDbLine
 10
-32.9050915218878
 20
14.18507008560241
 30
0.0
 11
-32.80509152188781
 21
14.12926921087311
 31
0.0
  0
LINE
  5
F1032E
330
261
100
AcDbEntity
  8
Geo
100
AcDbLine
 10
-32.80509152188781
 20
14.12926921087311
 30
0.0
 11
-32.70509152188779
 21
14.07308548192171
 31
0.0
  0
LINE
  5
F10330
330
261
100
AcDbEntity
  8
Geo
100
AcDbLine
 10
-32.70509152188779
 20
14.07308548192171
 30
0.0
 11
-32.6050915218878
 21
14.01654950441861
 31
0.0
  0
LINE
  5
F10332
330
261
100
AcDbEntity
  8
Geo
100
AcDbLine
 10
-32.6050915218878
 20
14.01654950441861
 30
0.0
 11
-32.50509152188779
 21
13.95969207591932
 31
0.0
  0
LINE
  5
F10334
330
261
100
AcDbEntity
  8
Geo
100
AcDbLine
 10
-32.50509152188779
 20
13.95969207591932
 30
0.0
 11
-32.4050915218878
 21
13.90254416908711
 31
0.0
  0
LINE
  5
F10336
330
261
100
AcDbEntity
  8
Geo
100
AcDbLine
 10
-32.4050915218878
 20
13.90254416908711
 30
0.0
 11
-32.3050915218878
 21
13.84513691482131
 31
0.0
  0
LINE
  5
F10338
330
261
100
AcDbEntity
  8
Geo
100
AcDbLine
 10
-32.3050915218878
 20
13.84513691482131
 30
0.0
 11
-32.2050915218878
 21
13.78750158529872
 31
0.0
  0
LINE
  5
F1033A
330
261
100
AcDbEntity
  8
Geo
100
AcDbLine
 10
-32.2050915218878
 20
13.78750158529872
 30
0.0
 11
-32.1050915218878
 21
13.72966957693861
 31
0.0
  0
LINE
  5
F1033C
330
261
100
AcDbEntity
  8
Geo
100
AcDbLine
 10
-32.1050915218878
 20
13.72966957693861
 30
0.0
 11
-32.00509152188779
 21
13.67167239329951
 31
0.0
  0
LINE
  5
F1033E
330
261
100
AcDbEntity
  8
Geo
100
AcDbLine
 10
-32.00509152188779
 20
13.67167239329951
 30
0.0
 11
-31.9050915218878
 21
13.61354162791801
 31
0.0
  0
LINE
  5
F10340
330
261
100
AcDbEntity
  8
Geo
100
AcDbLine
 10
-31.9050915218878
 20
13.61354162791801
 30
0.0
 11
-31.8050915218878
 21
13.55530894709821
 31
0.0
  0
LINE
  5
F10342
330
261
100
AcDbEntity
  8
Geo
100
AcDbLine
 10
-31.8050915218878
 20
13.55530894709821
 30
0.0
 11
-31.7050915218878
 21
13.49700607266211
 31
0.0
  0
LINE
  5
F10344
330
261
100
AcDbEntity
  8
Geo
100
AcDbLine
 10
-31.7050915218878
 20
13.49700607266211
 30
0.0
 11
-31.6050915218878
 21
13.43866476466911
 31
0.0
  0
LINE
  5
F10346
330
261
100
AcDbEntity
  8
Geo
100
AcDbLine
 10
-31.6050915218878
 20
13.43866476466911
 30
0.0
 11
-31.50509152188779
 21
13.38031680411482
 31
0.0
  0
LINE
  5
F10348
330
261
100
AcDbEntity
  8
Geo
100
AcDbLine
 10
-31.50509152188779
 20
13.38031680411482
 30
0.0
 11
-31.4050915218878
 21
13.32199397561901
 31
0.0
  0
LINE
  5
F1034A
330
261
100
AcDbEntity
  8
Geo
100
AcDbLine
 10
-31.4050915218878
 20
13.32199397561901
 30
0.0
 11
-31.30509152188781
 21
13.26372805011082
 31
0.0
  0
LINE
  5
F1034C
330
261
100
AcDbEntity
  8
Geo
100
AcDbLine
 10
-31.30509152188781
 20
13.26372805011082
 30
0.0
 11
-31.20509152188779
 21
13.20555076752191
 31
0.0
  0
LINE
  5
F1034E
330
261
100
AcDbEntity
  8
Geo
100
AcDbLine
 10
-31.20509152188779
 20
13.20555076752191
 30
0.0
 11
-31.1050915218878
 21
13.14749381949651
 31
0.0
  0
LINE
  5
F10350
330
261
100
AcDbEntity
  8
Geo
100
AcDbLine
 10
-31.1050915218878
 20
13.14749381949651
 30
0.0
 11
-31.00509152188779
 21
13.08958883212731
 31
0.0
  0
LINE
  5
F10352
330
261
100
AcDbEntity
  8
Geo
100
AcDbLine
 10
-31.00509152188779
 20
13.08958883212731
 30
0.0
 11
-30.9050915218878
 21
13.03186734872761
 31
0.0
  0
LINE
  5
F10354
330
261
100
AcDbEntity
  8
Geo
100
AcDbLine
 10
-30.9050915218878
 20
13.03186734872761
 30
0.0
 11
-30.8050915218878
 21
12.97436081264832
 31
0.0
  0
LINE
  5
F10356
330
261
100
AcDbEntity
  8
Geo
100
AcDbLine
 10
-30.8050915218878
 20
12.97436081264832
 30
0.0
 11
-30.7050915218878
 21
12.91710055014932
 31
0.0
  0
LINE
  5
F10358
330
261
100
AcDbEntity
  8
Geo
100
AcDbLine
 10
-30.7050915218878
 20
12.91710055014932
 30
0.0
 11
-30.6050915218878
 21
12.86011775333491
 31
0.0
  0
LINE
  5
F1035A
330
261
100
AcDbEntity
  8
Geo
100
AcDbLine
 10
-30.6050915218878
 20
12.86011775333491
 30
0.0
 11
-30.50509152188779
 21
12.80344346316191
 31
0.0
  0
LINE
  5
F1035C
330
261
100
AcDbEntity
  8
Geo
100
AcDbLine
 10
-30.50509152188779
 20
12.80344346316191
 30
0.0
 11
-30.4050915218878
 21
12.74710855253031
 31
0.0
  0
LINE
  5
F1035E
330
261
100
AcDbEntity
  8
Geo
100
AcDbLine
 10
-30.4050915218878
 20
12.74710855253031
 30
0.0
 11
-30.30509152188781
 21
12.69114370946591
 31
0.0
  0
LINE
  5
F10360
330
261
100
AcDbEntity
  8
Geo
100
AcDbLine
 10
-30.30509152188781
 20
12.69114370946591
 30
0.0
 11
-30.20509152188779
 21
12.63557942040271
 31
0.0
  0
LINE
  5
F10362
330
261
100
AcDbEntity
  8
Geo
100
AcDbLine
 10
-30.20509152188779
 20
12.63557942040271
 30
0.0
 11
-30.1050915218878
 21
12.58044595357591
 31
0.0
  0
LINE
  5
F10364
330
261
100
AcDbEntity
  8
Geo
100
AcDbLine
 10
-30.1050915218878
 20
12.58044595357591
 30
0.0
 11
-30.00509152188779
 21
12.52577334253361
 31
0.0
  0
LINE
  5
F10366
330
261
100
AcDbEntity
  8
Geo
100
AcDbLine
 10
-30.00509152188779
 20
12.52577334253361
 30
0.0
 11
-29.9050915218878
 21
12.47159136977601
 31
0.0
  0
LINE
  5
F10368
330
261
100
AcDbEntity
  8
Geo
100
AcDbLine
 10
-29.9050915218878
 20
12.47159136977601
 30
0.0
 11
-29.8050915218878
 21
12.41792955053171
 31
0.0
  0
LINE
  5
F1036A
330
261
100
AcDbEntity
  8
Geo
100
AcDbLine
 10
-29.8050915218878
 20
12.41792955053171
 30
0.0
 11
-29.7050915218878
 21
12.36481711667961
 31
0.0
  0
LINE
  5
F1036C
330
261
100
AcDbEntity
  8
Geo
100
AcDbLine
 10
-29.7050915218878
 20
12.36481711667961
 30
0.0
 11
-29.6050915218878
 21
12.31228300082501
 31
0.0
  0
LINE
  5
F1036E
330
261
100
AcDbEntity
  8
Geo
100
AcDbLine
 10
-29.6050915218878
 20
12.31228300082501
 30
0.0
 11
-29.50509152188779
 21
12.26035582053881
 31
0.0
  0
LINE
  5
F10370
330
261
100
AcDbEntity
  8
Geo
100
AcDbLine
 10
-29.50509152188779
 20
12.26035582053881
 30
0.0
 11
-29.4050915218878
 21
12.20906386276791
 31
0.0
  0
LINE
  5
F10372
330
261
100
AcDbEntity
  8
Geo
100
AcDbLine
 10
-29.4050915218878
 20
12.20906386276791
 30
0.0
 11
-29.30509152188781
 21
12.15843506842691
 31
0.0
  0
LINE
  5
F10374
330
261
100
AcDbEntity
  8
Geo
100
AcDbLine
 10
-29.30509152188781
 20
12.15843506842691
 30
0.0
 11
-29.2050915218878
 21
12.10849701717671
 31
0.0
  0
LINE
  5
F10376
330
261
100
AcDbEntity
  8
Geo
100
AcDbLine
 10
-29.2050915218878
 20
12.10849701717671
 30
0.0
 11
-29.1050915218878
 21
12.05927691240111
 31
0.0
  0
LINE
  5
F10378
330
261
100
AcDbEntity
  8
Geo
100
AcDbLine
 10
-29.1050915218878
 20
12.05927691240111
 30
0.0
 11
-29.00509152188779
 21
12.01080156638811
 31
0.0
  0
LINE
  5
F1037A
330
261
100
AcDbEntity
  8
Geo
100
AcDbLine
 10
-29.00509152188779
 20
12.01080156638811
 30
0.0
 11
-28.9050915218878
 21
11.96309738572341
 31
0.0
  0
LINE
  5
F1037C
330
261
100
AcDbEntity
  8
Geo
100
AcDbLine
 10
-28.9050915218878
 20
11.96309738572341
 30
0.0
 11
-28.80509152188781
 21
11.91619035690661
 31
0.0
  0
LINE
  5
F1037E
330
261
100
AcDbEntity
  8
Geo
100
AcDbLine
 10
-28.80509152188781
 20
11.91619035690661
 30
0.0
 11
-28.70509152188779
 21
11.87010603219441
 31
0.0
  0
LINE
  5
F10380
330
261
100
AcDbEntity
  8
Geo
100
AcDbLine
 10
-28.70509152188779
 20
11.87010603219441
 30
0.0
 11
-28.6050915218878
 21
11.82486951568151
 31
0.0
  0
LINE
  5
F10382
330
261
100
AcDbEntity
  8
Geo
100
AcDbLine
 10
-28.6050915218878
 20
11.82486951568151
 30
0.0
 11
-28.50509152188779
 21
11.78050544962571
 31
0.0
  0
LINE
  5
F10384
330
261
100
AcDbEntity
  8
Geo
100
AcDbLine
 10
-28.50509152188779
 20
11.78050544962571
 30
0.0
 11
-28.4050915218878
 21
11.73703800102351
 31
0.0
  0
LINE
  5
F10386
330
261
100
AcDbEntity
  8
Geo
100
AcDbLine
 10
-28.4050915218878
 20
11.73703800102351
 30
0.0
 11
-28.3050915218878
 21
11.69449084844581
 31
0.0
  0
LINE
  5
F10388
330
261
100
AcDbEntity
  8
Geo
100
AcDbLine
 10
-28.3050915218878
 20
11.69449084844581
 30
0.0
 11
-28.2050915218878
 21
11.65288716913911
 31
0.0
  0
LINE
  5
F1038A
330
261
100
AcDbEntity
  8
Geo
100
AcDbLine
 10
-28.2050915218878
 20
11.65288716913911
 30
0.0
 11
-28.1050915218878
 21
11.61224962639991
 31
0.0
  0
LINE
  5
F1038C
330
261
100
AcDbEntity
  8
Geo
100
AcDbLine
 10
-28.1050915218878
 20
11.61224962639991
 30
0.0
 11
-28.00509152188779
 21
11.57260035722871
 31
0.0
  0
LINE
  5
F1038E
330
261
100
AcDbEntity
  8
Geo
100
AcDbLine
 10
-28.00509152188779
 20
11.57260035722871
 30
0.0
 11
-27.9050915218878
 21
11.53396096027161
 31
0.0
  0
LINE
  5
F10390
330
261
100
AcDbEntity
  8
Geo
100
AcDbLine
 10
-27.9050915218878
 20
11.53396096027161
 30
0.0
 11
-27.80509152188781
 21
11.49635248405401
 31
0.0
  0
LINE
  5
F10392
330
261
100
AcDbEntity
  8
Geo
100
AcDbLine
 10
-27.80509152188781
 20
11.49635248405401
 30
0.0
 11
-27.70509152188779
 21
11.45979541551501
 31
0.0
  0
LINE
  5
F10394
330
261
100
AcDbEntity
  8
Geo
100
AcDbLine
 10
-27.70509152188779
 20
11.45979541551501
 30
0.0
 11
-27.6050915218878
 21
11.42430966884711
 31
0.0
  0
LINE
  5
F10396
330
261
100
AcDbEntity
  8
Geo
100
AcDbLine
 10
-27.6050915218878
 20
11.42430966884711
 30
0.0
 11
-27.50509152188779
 21
11.38991457464821
 31
0.0
  0
LINE
  5
F10398
330
261
100
AcDbEntity
  8
Geo
100
AcDbLine
 10
-27.50509152188779
 20
11.38991457464821
 30
0.0
 11
-27.4050915218878
 21
11.35662886939141
 31
0.0
  0
LINE
  5
F1039A
330
261
100
AcDbEntity
  8
Geo
100
AcDbLine
 10
-27.4050915218878
 20
11.35662886939141
 30
0.0
 11
-27.3050915218878
 21
11.32447068521811
 31
0.0
  0
LINE
  5
F1039C
330
261
100
AcDbEntity
  8
Geo
100
AcDbLine
 10
-27.3050915218878
 20
11.32447068521811
 30
0.0
 11
-27.2050915218878
 21
11.29345754006131
 31
0.0
  0
LINE
  5
F1039E
330
261
100
AcDbEntity
  8
Geo
100
AcDbLine
 10
-27.2050915218878
 20
11.29345754006131
 30
0.0
 11
-27.1050915218878
 21
11.26360632810222
 31
0.0
  0
LINE
  5
F103A0
330
261
100
AcDbEntity
  8
Geo
100
AcDbLine
 10
-27.1050915218878
 20
11.26360632810222
 30
0.0
 11
-27.00509152188779
 21
11.23493331056761
 31
0.0
  0
LINE
  5
F103A2
330
261
100
AcDbEntity
  8
Geo
100
AcDbLine
 10
-27.00509152188779
 20
11.23493331056761
 30
0.0
 11
-26.9050915218878
 21
11.20745410687161
 31
0.0
  0
LINE
  5
F103A4
330
261
100
AcDbEntity
  8
Geo
100
AcDbLine
 10
-26.9050915218878
 20
11.20745410687161
 30
0.0
 11
-26.8050915218878
 21
11.18118368610711
 31
0.0
  0
LINE
  5
F103A6
330
261
100
AcDbEntity
  8
Geo
100
AcDbLine
 10
-26.8050915218878
 20
11.18118368610711
 30
0.0
 11
-26.7050915218878
 21
11.15613635889131
 31
0.0
  0
LINE
  5
F103A8
330
261
100
AcDbEntity
  8
Geo
100
AcDbLine
 10
-26.7050915218878
 20
11.15613635889131
 30
0.0
 11
-26.6050915218878
 21
11.13232576957041
 31
0.0
  0
LINE
  5
F103AA
330
261
100
AcDbEntity
  8
Geo
100
AcDbLine
 10
-26.6050915218878
 20
11.13232576957041
 30
0.0
 11
-26.50509152188779
 21
11.10976488878661
 31
0.0
  0
LINE
  5
F103AC
330
261
100
AcDbEntity
  8
Geo
100
AcDbLine
 10
-26.50509152188779
 20
11.10976488878661
 30
0.0
 11
-26.4050915218878
 21
11.08846600641281
 31
0.0
  0
LINE
  5
F103AE
330
261
100
AcDbEntity
  8
Geo
100
AcDbLine
 10
-26.4050915218878
 20
11.08846600641281
 30
0.0
 11
-26.30509152188781
 21
11.06844072485761
 31
0.0
  0
LINE
  5
F103B0
330
261
100
AcDbEntity
  8
Geo
100
AcDbLine
 10
-26.30509152188781
 20
11.06844072485761
 30
0.0
 11
-26.20509152188779
 21
11.04969995274481
 31
0.0
  0
LINE
  5
F103B2
330
261
100
AcDbEntity
  8
Geo
100
AcDbLine
 10
-26.20509152188779
 20
11.04969995274481
 30
0.0
 11
-26.1050915218878
 21
11.03225389897141
 31
0.0
  0
LINE
  5
F103B4
330
261
100
AcDbEntity
  8
Geo
100
AcDbLine
 10
-26.1050915218878
 20
11.03225389897141
 30
0.0
 11
-26.00509152188779
 21
11.01611206714611
 31
0.0
  0
LINE
  5
F103B6
330
261
100
AcDbEntity
  8
Geo
100
AcDbLine
 10
-26.00509152188779
 20
11.01611206714611
 30
0.0
 11
-25.9050915218878
 21
11.00128325041222
 31
0.0
  0
LINE
  5
F103B8
330
261
100
AcDbEntity
  8
Geo
100
AcDbLine
 10
-25.9050915218878
 20
11.00128325041222
 30
0.0
 11
-25.8050915218878
 21
10.98777552665801
 31
0.0
  0
LINE
  5
F103BA
330
261
100
AcDbEntity
  8
Geo
100
AcDbLine
 10
-25.8050915218878
 20
10.98777552665801
 30
0.0
 11
-25.7050915218878
 21
10.97559625411592
 31
0.0
  0
LINE
  5
F103BC
330
261
100
AcDbEntity
  8
Geo
100
AcDbLine
 10
-25.7050915218878
 20
10.97559625411592
 30
0.0
 11
-25.6050915218878
 21
10.96475206735461
 31
0.0
  0
LINE
  5
F103BE
330
261
100
AcDbEntity
  8
Geo
100
AcDbLine
 10
-25.6050915218878
 20
10.96475206735461
 30
0.0
 11
-25.50509152188779
 21
10.95524887366451
 31
0.0
  0
LINE
  5
F103C0
330
261
100
AcDbEntity
  8
Geo
100
AcDbLine
 10
-25.50509152188779
 20
10.95524887366451
 30
0.0
 11
-25.4050915218878
 21
10.94709184984011
 31
0.0
  0
LINE
  5
F103C2
330
261
100
AcDbEntity
  8
Geo
100
AcDbLine
 10
-25.4050915218878
 20
10.94709184984011
 30
0.0
 11
-25.30509152188781
 21
10.94028543935971
 31
0.0
  0
LINE
  5
F103C4
330
261
100
AcDbEntity
  8
Geo
100
AcDbLine
 10
-25.30509152188781
 20
10.94028543935971
 30
0.0
 11
-25.20509152188779
 21
10.93483334996511
 31
0.0
  0
LINE
  5
F103C6
330
261
100
AcDbEntity
  8
Geo
100
AcDbLine
 10
-25.20509152188779
 20
10.93483334996511
 30
0.0
 11
-25.1050915218878
 21
10.93073855164161
 31
0.0
  0
LINE
  5
F103C8
330
261
100
AcDbEntity
  8
Geo
100
AcDbLine
 10
-25.1050915218878
 20
10.93073855164161
 30
0.0
 11
-25.00509152188779
 21
10.92800327500031
 31
0.0
  0
LINE
  5
F103CA
330
261
100
AcDbEntity
  8
Geo
100
AcDbLine
 10
-25.00509152188779
 20
10.92800327500031
 30
0.0
 11
-24.9050915218878
 21
10.92662901006291
 31
0.0
  0
LINE
  5
F103CC
330
261
100
AcDbEntity
  8
Geo
100
AcDbLine
 10
-33.6050915218878
 20
11.74429760271361
 30
0.0
 11
-33.50509152188779
 21
11.63315146453332
 31
0.0
  0
LINE
  5
F103CE
330
261
100
AcDbEntity
  8
Geo
100
AcDbLine
 10
-33.50509152188779
 20
11.63315146453332
 30
0.0
 11
-33.4050915218878
 21
11.57888041302471
 31
0.0
  0
LINE
  5
F103D0
330
261
100
AcDbEntity
  8
Geo
100
AcDbLine
 10
-33.4050915218878
 20
11.57888041302471
 30
0.0
 11
-33.3050915218878
 21
11.54007791753851
 31
0.0
  0
LINE
  5
F103D2
330
261
100
AcDbEntity
  8
Geo
100
AcDbLine
 10
-33.3050915218878
 20
11.54007791753851
 30
0.0
 11
-33.2050915218878
 21
11.50230301062451
 31
0.0
  0
LINE
  5
F103D4
330
261
100
AcDbEntity
  8
Geo
100
AcDbLine
 10
-33.2050915218878
 20
11.50230301062451
 30
0.0
 11
-33.1050915218878
 21
11.46557626988391
 31
0.0
  0
LINE
  5
F103D6
330
261
100
AcDbEntity
  8
Geo
100
AcDbLine
 10
-33.1050915218878
 20
11.46557626988391
 30
0.0
 11
-33.00509152188779
 21
11.42991770193681
 31
0.0
  0
LINE
  5
F103D8
330
261
100
AcDbEntity
  8
Geo
100
AcDbLine
 10
-33.00509152188779
 20
11.42991770193681
 30
0.0
 11
-32.9050915218878
 21
11.39534673152422
 31
0.0
  0
LINE
  5
F103DA
330
261
100
AcDbEntity
  8
Geo
100
AcDbLine
 10
-32.9050915218878
 20
11.39534673152422
 30
0.0
 11
-32.80509152188781
 21
11.36188219092631
 31
0.0
  0
LINE
  5
F103DC
330
261
100
AcDbEntity
  8
Geo
100
AcDbLine
 10
-32.80509152188781
 20
11.36188219092631
 30
0.0
 11
-32.70509152188779
 21
11.32954230970411
 31
0.0
  0
LINE
  5
F103DE
330
261
100
AcDbEntity
  8
Geo
100
AcDbLine
 10
-32.70509152188779
 20
11.32954230970411
 30
0.0
 11
-32.6050915218878
 21
11.29834470476831
 31
0.0
  0
LINE
  5
F103E0
330
261
100
AcDbEntity
  8
Geo
100
AcDbLine
 10
-32.6050915218878
 20
11.29834470476831
 30
0.0
 11
-32.50509152188779
 21
11.26830637078342
 31
0.0
  0
LINE
  5
F103E2
330
261
100
AcDbEntity
  8
Geo
100
AcDbLine
 10
-32.50509152188779
 20
11.26830637078342
 30
0.0
 11
-32.4050915218878
 21
11.23944367090971
 31
0.0
  0
LINE
  5
F103E4
330
261
100
AcDbEntity
  8
Geo
100
AcDbLine
 10
-32.4050915218878
 20
11.23944367090971
 30
0.0
 11
-32.3050915218878
 21
11.21177232788911
 31
0.0
  0
LINE
  5
F103E6
330
261
100
AcDbEntity
  8
Geo
100
AcDbLine
 10
-32.3050915218878
 20
11.21177232788911
 30
0.0
 11
-32.2050915218878
 21
11.18530741548101
 31
0.0
  0
LINE
  5
F103E8
330
261
100
AcDbEntity
  8
Geo
100
AcDbLine
 10
-32.2050915218878
 20
11.18530741548101
 30
0.0
 11
-32.1050915218878
 21
11.16006335025061
 31
0.0
  0
LINE
  5
F103EA
330
261
100
AcDbEntity
  8
Geo
100
AcDbLine
 10
-32.1050915218878
 20
11.16006335025061
 30
0.0
 11
-32.00509152188779
 21
11.13605388371551
 31
0.0
  0
LINE
  5
F103EC
330
261
100
AcDbEntity
  8
Geo
100
AcDbLine
 10
-32.00509152188779
 20
11.13605388371551
 30
0.0
 11
-31.9050915218878
 21
11.11329209485501
 31
0.0
  0
LINE
  5
F103EE
330
261
100
AcDbEntity
  8
Geo
100
AcDbLine
 10
-31.9050915218878
 20
11.11329209485501
 30
0.0
 11
-31.8050915218878
 21
11.09179038298521
 31
0.0
  0
LINE
  5
F103F0
330
261
100
AcDbEntity
  8
Geo
100
AcDbLine
 10
-31.8050915218878
 20
11.09179038298521
 30
0.0
 11
-31.7050915218878
 21
11.07156046100431
 31
0.0
  0
LINE
  5
F103F2
330
261
100
AcDbEntity
  8
Geo
100
AcDbLine
 10
-31.7050915218878
 20
11.07156046100431
 30
0.0
 11
-31.6050915218878
 21
11.05261334901281
 31
0.0
  0
LINE
  5
F103F4
330
261
100
AcDbEntity
  8
Geo
100
AcDbLine
 10
-31.6050915218878
 20
11.05261334901281
 30
0.0
 11
-31.50509152188779
 21
11.03495936830951
 31
0.0
  0
LINE
  5
F103F6
330
261
100
AcDbEntity
  8
Geo
100
AcDbLine
 10
-31.50509152188779
 20
11.03495936830951
 30
0.0
 11
-31.4050915218878
 21
11.01860813576991
 31
0.0
  0
LINE
  5
F103F8
330
261
100
AcDbEntity
  8
Geo
100
AcDbLine
 10
-31.4050915218878
 20
11.01860813576991
 30
0.0
 11
-31.30509152188781
 21
11.00356855860692
 31
0.0
  0
LINE
  5
F103FA
330
261
100
AcDbEntity
  8
Geo
100
AcDbLine
 10
-31.30509152188781
 20
11.00356855860692
 30
0.0
 11
-31.20509152188779
 21
10.98984882951872
 31
0.0
  0
LINE
  5
F103FC
330
261
100
AcDbEntity
  8
Geo
100
AcDbLine
 10
-31.20509152188779
 20
10.98984882951872
 30
0.0
 11
-31.1050915218878
 21
10.97745642222641
 31
0.0
  0
LINE
  5
F103FE
330
261
100
AcDbEntity
  8
Geo
100
AcDbLine
 10
-31.1050915218878
 20
10.97745642222641
 30
0.0
 11
-31.00509152188779
 21
10.96639808740201
 31
0.0
  0
LINE
  5
F10400
330
261
100
AcDbEntity
  8
Geo
100
AcDbLine
 10
-31.00509152188779
 20
10.96639808740201
 30
0.0
 11
-30.9050915218878
 21
10.95667984899161
 31
0.0
  0
LINE
  5
F10402
330
261
100
AcDbEntity
  8
Geo
100
AcDbLine
 10
-30.9050915218878
 20
10.95667984899161
 30
0.0
 11
-30.8050915218878
 21
10.94830700093361
 31
0.0
  0
LINE
  5
F10404
330
261
100
AcDbEntity
  8
Geo
100
AcDbLine
 10
-30.8050915218878
 20
10.94830700093361
 30
0.0
 11
-30.7050915218878
 21
10.94128410427511
 31
0.0
  0
LINE
  5
F10406
330
261
100
AcDbEntity
  8
Geo
100
AcDbLine
 10
-30.7050915218878
 20
10.94128410427511
 30
0.0
 11
-30.6050915218878
 21
10.93561498468711
 31
0.0
  0
LINE
  5
F10408
330
261
100
AcDbEntity
  8
Geo
100
AcDbLine
 10
-30.6050915218878
 20
10.93561498468711
 30
0.0
 11
-30.50509152188779
 21
10.93130273038041
 31
0.0
  0
LINE
  5
F1040A
330
261
100
AcDbEntity
  8
Geo
100
AcDbLine
 10
-30.50509152188779
 20
10.93130273038041
 30
0.0
 11
-30.4050915218878
 21
10.92834969042381
 31
0.0
  0
LINE
  5
F1040C
330
261
100
AcDbEntity
  8
Geo
100
AcDbLine
 10
-30.4050915218878
 20
10.92834969042381
 30
0.0
 11
-30.30509152188781
 21
10.92675747346371
 31
0.0
  0
LINE
  5
F1040E
330
261
100
AcDbEntity
  8
Geo
100
AcDbLine
 10
-24.9050915218878
 20
15.92627591492331
 30
0.0
 11
-24.8050915218878
 21
15.92628841953622
 31
0.0
  0
LINE
  5
F10410
330
261
100
AcDbEntity
  8
Geo
100
AcDbLine
 10
-24.8050915218878
 20
15.92628841953622
 30
0.0
 11
-24.7050915218878
 21
15.92493915701271
 31
0.0
  0
LINE
  5
F10412
330
261
100
AcDbEntity
  8
Geo
100
AcDbLine
 10
-24.7050915218878
 20
15.92493915701271
 30
0.0
 11
-24.6050915218878
 21
15.92222886235371
 31
0.0
  0
LINE
  5
F10414
330
261
100
AcDbEntity
  8
Geo
100
AcDbLine
 10
-24.6050915218878
 20
15.92222886235371
 30
0.0
 11
-24.50509152188779
 21
15.91815901197201
 31
0.0
  0
LINE
  5
F10416
330
261
100
AcDbEntity
  8
Geo
100
AcDbLine
 10
-24.50509152188779
 20
15.91815901197201
 30
0.0
 11
-24.4050915218878
 21
15.91273182288861
 31
0.0
  0
LINE
  5
F10418
330
261
100
AcDbEntity
  8
Geo
100
AcDbLine
 10
-24.4050915218878
 20
15.91273182288861
 30
0.0
 11
-24.3050915218878
 21
15.90595025152451
 31
0.0
  0
LINE
  5
F1041A
330
261
100
AcDbEntity
  8
Geo
100
AcDbLine
 10
-24.3050915218878
 20
15.90595025152451
 30
0.0
 11
-24.2050915218878
 21
15.89781799209061
 31
0.0
  0
LINE
  5
F1041C
330
261
100
AcDbEntity
  8
Geo
100
AcDbLine
 10
-24.2050915218878
 20
15.89781799209061
 30
0.0
 11
-24.1050915218878
 21
15.88833947457501
 31
0.0
  0
LINE
  5
F1041E
330
261
100
AcDbEntity
  8
Geo
100
AcDbLine
 10
-24.1050915218878
 20
15.88833947457501
 30
0.0
 11
-24.00509152188779
 21
15.87751986233001
 31
0.0
  0
LINE
  5
F10420
330
261
100
AcDbEntity
  8
Geo
100
AcDbLine
 10
-24.00509152188779
 20
15.87751986233001
 30
0.0
 11
-23.9050915218878
 21
15.86536504925921
 31
0.0
  0
LINE
  5
F10422
330
261
100
AcDbEntity
  8
Geo
100
AcDbLine
 10
-23.9050915218878
 20
15.86536504925921
 30
0.0
 11
-23.8050915218878
 21
15.85188165660711
 31
0.0
  0
LINE
  5
F10424
330
261
100
AcDbEntity
  8
Geo
100
AcDbLine
 10
-23.8050915218878
 20
15.85188165660711
 30
0.0
 11
-23.70509152188779
 21
15.83707702935211
 31
0.0
  0
LINE
  5
F10426
330
261
100
AcDbEntity
  8
Geo
100
AcDbLine
 10
-23.70509152188779
 20
15.83707702935211
 30
0.0
 11
-23.6050915218878
 21
15.82095923220531
 31
0.0
  0
LINE
  5
F10428
330
261
100
AcDbEntity
  8
Geo
100
AcDbLine
 10
-23.6050915218878
 20
15.82095923220531
 30
0.0
 11
-23.50509152188779
 21
15.80353704521751
 31
0.0
  0
LINE
  5
F1042A
330
261
100
AcDbEntity
  8
Geo
100
AcDbLine
 10
-23.50509152188779
 20
15.80353704521751
 30
0.0
 11
-23.4050915218878
 21
15.78481995899591
 31
0.0
  0
LINE
  5
F1042C
330
261
100
AcDbEntity
  8
Geo
100
AcDbLine
 10
-23.4050915218878
 20
15.78481995899591
 30
0.0
 11
-23.3050915218878
 21
15.76481816953491
 31
0.0
  0
LINE
  5
F1042E
330
261
100
AcDbEntity
  8
Geo
100
AcDbLine
 10
-23.3050915218878
 20
15.76481816953491
 30
0.0
 11
-23.2050915218878
 21
15.74354257266121
 31
0.0
  0
LINE
  5
F10430
330
261
100
AcDbEntity
  8
Geo
100
AcDbLine
 10
-23.2050915218878
 20
15.74354257266121
 30
0.0
 11
-23.1050915218878
 21
15.72100475809872
 31
0.0
  0
LINE
  5
F10432
330
261
100
AcDbEntity
  8
Geo
100
AcDbLine
 10
-23.1050915218878
 20
15.72100475809872
 30
0.0
 11
-23.00509152188779
 21
15.69721700315522
 31
0.0
  0
LINE
  5
F10434
330
261
100
AcDbEntity
  8
Geo
100
AcDbLine
 10
-23.00509152188779
 20
15.69721700315522
 30
0.0
 11
-22.9050915218878
 21
15.67219226603401
 31
0.0
  0
LINE
  5
F10436
330
261
100
AcDbEntity
  8
Geo
100
AcDbLine
 10
-22.9050915218878
 20
15.67219226603401
 30
0.0
 11
-22.80509152188781
 21
15.64594417877551
 31
0.0
  0
LINE
  5
F10438
330
261
100
AcDbEntity
  8
Geo
100
AcDbLine
 10
-22.80509152188781
 20
15.64594417877551
 30
0.0
 11
-22.70509152188779
 21
15.61848703983111
 31
0.0
  0
LINE
  5
F1043A
330
261
100
AcDbEntity
  8
Geo
100
AcDbLine
 10
-22.70509152188779
 20
15.61848703983111
 30
0.0
 11
-22.6050915218878
 21
15.58983580627381
 31
0.0
  0
LINE
  5
F1043C
330
261
100
AcDbEntity
  8
Geo
100
AcDbLine
 10
-22.6050915218878
 20
15.58983580627381
 30
0.0
 11
-22.50509152188779
 21
15.56000608565121
 31
0.0
  0
LINE
  5
F1043E
330
261
100
AcDbEntity
  8
Geo
100
AcDbLine
 10
-22.50509152188779
 20
15.56000608565121
 30
0.0
 11
-22.4050915218878
 21
15.52901412748271
 31
0.0
  0
LINE
  5
F10440
330
261
100
AcDbEntity
  8
Geo
100
AcDbLine
 10
-22.4050915218878
 20
15.52901412748271
 30
0.0
 11
-22.3050915218878
 21
15.49687681440841
 31
0.0
  0
LINE
  5
F10442
330
261
100
AcDbEntity
  8
Geo
100
AcDbLine
 10
-22.3050915218878
 20
15.49687681440841
 30
0.0
 11
-22.2050915218878
 21
15.4636116529914
 31
0.0
  0
LINE
  5
F10444
330
261
100
AcDbEntity
  8
Geo
100
AcDbLine
 10
-22.2050915218878
 20
15.4636116529914
 30
0.0
 11
-22.1050915218878
 21
15.42923676418251
 31
0.0
  0
LINE
  5
F10446
330
261
100
AcDbEntity
  8
Geo
100
AcDbLine
 10
-22.1050915218878
 20
15.42923676418251
 30
0.0
 11
-22.00509152188779
 21
15.39377087344771
 31
0.0
  0
LINE
  5
F10448
330
261
100
AcDbEntity
  8
Geo
100
AcDbLine
 10
-22.00509152188779
 20
15.39377087344771
 30
0.0
 11
-21.9050915218878
 21
15.35723330056881
 31
0.0
  0
LINE
  5
F1044A
330
261
100
AcDbEntity
  8
Geo
100
AcDbLine
 10
-21.9050915218878
 20
15.35723330056881
 30
0.0
 11
-21.8050915218878
 21
15.3196439491179
 31
0.0
  0
LINE
  5
F1044C
330
261
100
AcDbEntity
  8
Geo
100
AcDbLine
 10
-21.8050915218878
 20
15.3196439491179
 30
0.0
 11
-21.70509152188779
 21
15.28102329561622
 31
0.0
  0
LINE
  5
F1044E
330
261
100
AcDbEntity
  8
Geo
100
AcDbLine
 10
-21.70509152188779
 20
15.28102329561622
 30
0.0
 11
-21.6050915218878
 21
15.24139237837881
 31
0.0
  0
LINE
  5
F10450
330
261
100
AcDbEntity
  8
Geo
100
AcDbLine
 10
-21.6050915218878
 20
15.24139237837881
 30
0.0
 11
-21.50509152188779
 21
15.20077278605461
 31
0.0
  0
LINE
  5
F10452
330
261
100
AcDbEntity
  8
Geo
100
AcDbLine
 10
-21.50509152188779
 20
15.20077278605461
 30
0.0
 11
-21.4050915218878
 21
15.15918664586582
 31
0.0
  0
LINE
  5
F10454
330
261
100
AcDbEntity
  8
Geo
100
AcDbLine
 10
-21.4050915218878
 20
15.15918664586582
 30
0.0
 11
-21.3050915218878
 21
15.11665661155461
 31
0.0
  0
LINE
  5
F10456
330
261
100
AcDbEntity
  8
Geo
100
AcDbLine
 10
-21.3050915218878
 20
15.11665661155461
 30
0.0
 11
-21.20509152188779
 21
15.0732058510424
 31
0.0
  0
LINE
  5
F10458
330
261
100
AcDbEntity
  8
Geo
100
AcDbLine
 10
-21.20509152188779
 20
15.0732058510424
 30
0.0
 11
-21.1050915218878
 21
15.02885803380932
 31
0.0
  0
LINE
  5
F1045A
330
261
100
AcDbEntity
  8
Geo
100
AcDbLine
 10
-21.1050915218878
 20
15.02885803380932
 30
0.0
 11
-21.00509152188779
 21
14.98363731800071
 31
0.0
  0
LINE
  5
F1045C
330
261
100
AcDbEntity
  8
Geo
100
AcDbLine
 10
-21.00509152188779
 20
14.98363731800071
 30
0.0
 11
-20.9050915218878
 21
14.93756833726671
 31
0.0
  0
LINE
  5
F1045E
330
261
100
AcDbEntity
  8
Geo
100
AcDbLine
 10
-20.9050915218878
 20
14.93756833726671
 30
0.0
 11
-20.8050915218878
 21
14.89067618734372
 31
0.0
  0
LINE
  5
F10460
330
261
100
AcDbEntity
  8
Geo
100
AcDbLine
 10
-20.8050915218878
 20
14.89067618734372
 30
0.0
 11
-20.7050915218878
 21
14.84298641238331
 31
0.0
  0
LINE
  5
F10462
330
261
100
AcDbEntity
  8
Geo
100
AcDbLine
 10
-20.7050915218878
 20
14.84298641238331
 30
0.0
 11
-20.6050915218878
 21
14.79452499103741
 31
0.0
  0
LINE
  5
F10464
330
261
100
AcDbEntity
  8
Geo
100
AcDbLine
 10
-20.6050915218878
 20
14.79452499103741
 30
0.0
 11
-20.6050915218878
 21
14.79452499103741
 31
0.0
  0
LINE
  5
F10466
330
261
100
AcDbEntity
  8
Geo
100
AcDbLine
 10
-20.6050915218878
 20
14.79452499103741
 30
0.0
 11
-20.6050915218878
 21
14.73980208989571
 31
0.0
  0
LINE
  5
F10468
330
261
100
AcDbEntity
  8
Geo
100
AcDbLine
 10
-20.6050915218878
 20
14.73980208989571
 30
0.0
 11
-20.6050915218878
 21
14.79452499103741
 31
0.0
  0
LINE
  5
F1046A
330
261
100
AcDbEntity
  8
Geo
100
AcDbLine
 10
-20.6050915218878
 20
14.79452499103741
 30
0.0
 11
-20.6050915218878
 21
14.79452499103741
 31
0.0
  0
LINE
  5
F1046C
330
261
100
AcDbEntity
  8
Geo
100
AcDbLine
 10
-20.6050915218878
 20
14.79452499103741
 30
0.0
 11
-20.50509152188779
 21
14.68324409087861
 31
0.0
  0
LINE
  5
F1046E
330
261
100
AcDbEntity
  8
Geo
100
AcDbLine
 10
-20.50509152188779
 20
14.68324409087861
 30
0.0
 11
-20.4050915218878
 21
14.61943391881231
 31
0.0
  0
LINE
  5
F10470
330
261
100
AcDbEntity
  8
Geo
100
AcDbLine
 10
-20.4050915218878
 20
14.61943391881231
 30
0.0
 11
-20.30509152188781
 21
14.54809094476922
 31
0.0
  0
LINE
  5
F10472
330
261
100
AcDbEntity
  8
Geo
100
AcDbLine
 10
-20.30509152188781
 20
14.54809094476922
 30
0.0
 11
-20.20509152188779
 21
14.46894314884732
 31
0.0
  0
LINE
  5
F10474
330
261
100
AcDbEntity
  8
Geo
100
AcDbLine
 10
-20.20509152188779
 20
14.46894314884732
 30
0.0
 11
-20.1050915218878
 21
14.38173812403691
 31
0.0
  0
LINE
  5
F10476
330
261
100
AcDbEntity
  8
Geo
100
AcDbLine
 10
-20.1050915218878
 20
14.38173812403691
 30
0.0
 11
-20.00509152188779
 21
14.28625536923801
 31
0.0
  0
LINE
  5
F10478
330
261
100
AcDbEntity
  8
Geo
100
AcDbLine
 10
-20.00509152188779
 20
14.28625536923801
 30
0.0
 11
-19.9050915218878
 21
14.18231987674591
 31
0.0
  0
LINE
  5
F1047A
330
261
100
AcDbEntity
  8
Geo
100
AcDbLine
 10
-19.9050915218878
 20
14.18231987674591
 30
0.0
 11
-19.8050915218878
 21
14.06981698778451
 31
0.0
  0
LINE
  5
F1047C
330
261
100
AcDbEntity
  8
Geo
100
AcDbLine
 10
-19.8050915218878
 20
14.06981698778451
 30
0.0
 11
-19.70509152188779
 21
13.94870844972311
 31
0.0
  0
LINE
  5
F1047E
330
261
100
AcDbEntity
  8
Geo
100
AcDbLine
 10
-19.70509152188779
 20
13.94870844972311
 30
0.0
 11
-19.6050915218878
 21
13.81904955994301
 31
0.0
  0
LINE
  5
F10480
330
261
100
AcDbEntity
  8
Geo
100
AcDbLine
 10
-19.6050915218878
 20
13.81904955994301
 30
0.0
 11
-19.50509152188779
 21
13.68100722353411
 31
0.0
  0
LINE
  5
F10482
330
261
100
AcDbEntity
  8
Geo
100
AcDbLine
 10
-19.50509152188779
 20
13.68100722353411
 30
0.0
 11
-19.4050915218878
 21
13.53487868498032
 31
0.0
  0
LINE
  5
F10484
330
261
100
AcDbEntity
  8
Geo
100
AcDbLine
 10
-19.4050915218878
 20
13.53487868498032
 30
0.0
 11
-19.3050915218878
 21
13.38111061793632
 31
0.0
  0
LINE
  5
F10486
330
261
100
AcDbEntity
  8
Geo
100
AcDbLine
 10
-19.3050915218878
 20
13.38111061793632
 30
0.0
 11
-19.20509152188779
 21
13.22031817272141
 31
0.0
  0
LINE
  5
F10488
330
261
100
AcDbEntity
  8
Geo
100
AcDbLine
 10
-19.20509152188779
 20
13.22031817272141
 30
0.0
 11
-19.1050915218878
 21
13.05330348937682
 31
0.0
  0
LINE
  5
F1048A
330
261
100
AcDbEntity
  8
Geo
100
AcDbLine
 10
-19.1050915218878
 20
13.05330348937682
 30
0.0
 11
-19.00509152188779
 21
12.88107308679661
 31
0.0
  0
LINE
  5
F1048C
330
261
100
AcDbEntity
  8
Geo
100
AcDbLine
 10
-19.00509152188779
 20
12.88107308679661
 30
0.0
 11
-18.9050915218878
 21
12.70485343798871
 31
0.0
  0
LINE
  5
F1048E
330
261
100
AcDbEntity
  8
Geo
100
AcDbLine
 10
-18.9050915218878
 20
12.70485343798871
 30
0.0
 11
-18.8050915218878
 21
12.52610394119421
 31
0.0
  0
LINE
  5
F10490
330
261
100
AcDbEntity
  8
Geo
100
AcDbLine
 10
-18.8050915218878
 20
12.52610394119421
 30
0.0
 11
-18.70509152188779
 21
12.34652640054251
 31
0.0
  0
LINE
  5
F10492
330
261
100
AcDbEntity
  8
Geo
100
AcDbLine
 10
-18.70509152188779
 20
12.34652640054251
 30
0.0
 11
-18.6050915218878
 21
12.16807004320612
 31
0.0
  0
LINE
  5
F10494
330
261
100
AcDbEntity
  8
Geo
100
AcDbLine
 10
-18.6050915218878
 20
12.16807004320612
 30
0.0
 11
-18.6050915218878
 21
12.16807004320612
 31
0.0
  0
LINE
  5
F10496
330
261
100
AcDbEntity
  8
Geo
100
AcDbLine
 10
-30.30509152188781
 20
15.92614745152251
 30
0.0
 11
-30.20509152188779
 21
15.92637797813741
 31
0.0
  0
LINE
  5
F10498
330
261
100
AcDbEntity
  8
Geo
100
AcDbLine
 10
-30.20509152188779
 20
15.92637797813741
 30
0.0
 11
-30.1050915218878
 21
15.92524668882961
 31
0.0
  0
LINE
  5
F1049A
330
261
100
AcDbEntity
  8
Geo
100
AcDbLine
 10
-30.1050915218878
 20
15.92524668882961
 30
0.0
 11
-30.00509152188779
 21
15.92275419986061
 31
0.0
  0
LINE
  5
F1049C
330
261
100
AcDbEntity
  8
Geo
100
AcDbLine
 10
-30.00509152188779
 20
15.92275419986061
 30
0.0
 11
-29.9050915218878
 21
15.91890186899521
 31
0.0
  0
LINE
  5
F1049E
330
261
100
AcDbEntity
  8
Geo
100
AcDbLine
 10
-29.9050915218878
 20
15.91890186899521
 30
0.0
 11
-29.8050915218878
 21
15.91369179476232
 31
0.0
  0
LINE
  5
F104A0
330
261
100
AcDbEntity
  8
Geo
100
AcDbLine
 10
-29.8050915218878
 20
15.91369179476232
 30
0.0
 11
-29.7050915218878
 21
15.90712681531111
 31
0.0
  0
LINE
  5
F104A2
330
261
100
AcDbEntity
  8
Geo
100
AcDbLine
 10
-29.7050915218878
 20
15.90712681531111
 30
0.0
 11
-29.6050915218878
 21
15.89921050686562
 31
0.0
  0
LINE
  5
F104A4
330
261
100
AcDbEntity
  8
Geo
100
AcDbLine
 10
-29.6050915218878
 20
15.89921050686562
 30
0.0
 11
-29.50509152188779
 21
15.88994718177632
 31
0.0
  0
LINE
  5
F104A6
330
261
100
AcDbEntity
  8
Geo
100
AcDbLine
 10
-29.50509152188779
 20
15.88994718177632
 30
0.0
 11
-29.4050915218878
 21
15.87934188617101
 31
0.0
  0
LINE
  5
F104A8
330
261
100
AcDbEntity
  8
Geo
100
AcDbLine
 10
-29.4050915218878
 20
15.87934188617101
 30
0.0
 11
-29.30509152188781
 21
15.86740039720591
 31
0.0
  0
LINE
  5
F104AA
330
261
100
AcDbEntity
  8
Geo
100
AcDbLine
 10
-29.30509152188781
 20
15.86740039720591
 30
0.0
 11
-29.2050915218878
 21
15.8541292199189
 31
0.0
  0
LINE
  5
F104AC
330
261
100
AcDbEntity
  8
Geo
100
AcDbLine
 10
-29.2050915218878
 20
15.8541292199189
 30
0.0
 11
-29.1050915218878
 21
15.83953558368541
 31
0.0
  0
LINE
  5
F104AE
330
261
100
AcDbEntity
  8
Geo
100
AcDbLine
 10
-29.1050915218878
 20
15.83953558368541
 30
0.0
 11
-29.00509152188779
 21
15.82362743828081
 31
0.0
  0
LINE
  5
F104B0
330
261
100
AcDbEntity
  8
Geo
100
AcDbLine
 10
-29.00509152188779
 20
15.82362743828081
 30
0.0
 11
-28.9050915218878
 21
15.80641344954971
 31
0.0
  0
LINE
  5
F104B2
330
261
100
AcDbEntity
  8
Geo
100
AcDbLine
 10
-28.9050915218878
 20
15.80641344954971
 30
0.0
 11
-28.80509152188781
 21
15.78790299468491
 31
0.0
  0
LINE
  5
F104B4
330
261
100
AcDbEntity
  8
Geo
100
AcDbLine
 10
-28.80509152188781
 20
15.78790299468491
 30
0.0
 11
-28.70509152188779
 21
15.76810615711982
 31
0.0
  0
LINE
  5
F104B6
330
261
100
AcDbEntity
  8
Geo
100
AcDbLine
 10
-28.70509152188779
 20
15.76810615711982
 30
0.0
 11
-28.6050915218878
 21
15.74703372103501
 31
0.0
  0
LINE
  5
F104B8
330
261
100
AcDbEntity
  8
Geo
100
AcDbLine
 10
-28.6050915218878
 20
15.74703372103501
 30
0.0
 11
-28.50509152188779
 21
15.72469716548432
 31
0.0
  0
LINE
  5
F104BA
330
261
100
AcDbEntity
  8
Geo
100
AcDbLine
 10
-28.50509152188779
 20
15.72469716548432
 30
0.0
 11
-28.4050915218878
 21
15.70110865814091
 31
0.0
  0
LINE
  5
F104BC
330
261
100
AcDbEntity
  8
Geo
100
AcDbLine
 10
-28.4050915218878
 20
15.70110865814091
 30
0.0
 11
-28.3050915218878
 21
15.67628104866961
 31
0.0
  0
LINE
  5
F104BE
330
261
100
AcDbEntity
  8
Geo
100
AcDbLine
 10
-28.3050915218878
 20
15.67628104866961
 30
0.0
 11
-28.2050915218878
 21
15.65022786172691
 31
0.0
  0
LINE
  5
F104C0
330
261
100
AcDbEntity
  8
Geo
100
AcDbLine
 10
-28.2050915218878
 20
15.65022786172691
 30
0.0
 11
-28.1050915218878
 21
15.62296328959371
 31
0.0
  0
LINE
  5
F104C2
330
261
100
AcDbEntity
  8
Geo
100
AcDbLine
 10
-28.1050915218878
 20
15.62296328959371
 30
0.0
 11
-28.00509152188779
 21
15.59450218444371
 31
0.0
  0
LINE
  5
F104C4
330
261
100
AcDbEntity
  8
Geo
100
AcDbLine
 10
-28.00509152188779
 20
15.59450218444371
 30
0.0
 11
-27.9050915218878
 21
15.56486005025341
 31
0.0
  0
LINE
  5
F104C6
330
261
100
AcDbEntity
  8
Geo
100
AcDbLine
 10
-27.9050915218878
 20
15.56486005025341
 30
0.0
 11
-27.80509152188781
 21
15.53405303435601
 31
0.0
  0
LINE
  5
F104C8
330
261
100
AcDbEntity
  8
Geo
100
AcDbLine
 10
-27.80509152188781
 20
15.53405303435601
 30
0.0
 11
-27.70509152188779
 21
15.5020979186454
 31
0.0
  0
LINE
  5
F104CA
330
261
100
AcDbEntity
  8
Geo
100
AcDbLine
 10
-27.70509152188779
 20
15.5020979186454
 30
0.0
 11
-27.6050915218878
 21
15.46901211043441
 31
0.0
  0
LINE
  5
F104CC
330
261
100
AcDbEntity
  8
Geo
100
AcDbLine
 10
-27.6050915218878
 20
15.46901211043441
 30
0.0
 11
-27.50509152188779
 21
15.43481363297211
 31
0.0
  0
LINE
  5
F104CE
330
261
100
AcDbEntity
  8
Geo
100
AcDbLine
 10
-27.50509152188779
 20
15.43481363297211
 30
0.0
 11
-27.4050915218878
 21
15.39952111562612
 31
0.0
  0
LINE
  5
F104D0
330
261
100
AcDbEntity
  8
Geo
100
AcDbLine
 10
-27.4050915218878
 20
15.39952111562612
 30
0.0
 11
-27.3050915218878
 21
15.36315378373391
 31
0.0
  0
LINE
  5
F104D2
330
261
100
AcDbEntity
  8
Geo
100
AcDbLine
 10
-27.3050915218878
 20
15.36315378373391
 30
0.0
 11
-27.2050915218878
 21
15.32573144813051
 31
0.0
  0
LINE
  5
F104D4
330
261
100
AcDbEntity
  8
Geo
100
AcDbLine
 10
-27.2050915218878
 20
15.32573144813051
 30
0.0
 11
-27.1050915218878
 21
15.28727449435621
 31
0.0
  0
LINE
  5
F104D6
330
261
100
AcDbEntity
  8
Geo
100
AcDbLine
 10
-27.1050915218878
 20
15.28727449435621
 30
0.0
 11
-27.00509152188779
 21
15.24780387155201
 31
0.0
  0
LINE
  5
F104D8
330
261
100
AcDbEntity
  8
Geo
100
AcDbLine
 10
-27.00509152188779
 20
15.24780387155201
 30
0.0
 11
-26.9050915218878
 21
15.20734108104751
 31
0.0
  0
LINE
  5
F104DA
330
261
100
AcDbEntity
  8
Geo
100
AcDbLine
 10
-26.9050915218878
 20
15.20734108104751
 30
0.0
 11
-26.8050915218878
 21
15.16590816464832
 31
0.0
  0
LINE
  5
F104DC
330
261
100
AcDbEntity
  8
Geo
100
AcDbLine
 10
-26.8050915218878
 20
15.16590816464832
 30
0.0
 11
-26.7050915218878
 21
15.12352769262911
 31
0.0
  0
LINE
  5
F104DE
330
261
100
AcDbEntity
  8
Geo
100
AcDbLine
 10
-26.7050915218878
 20
15.12352769262911
 30
0.0
 11
-26.6050915218878
 21
15.08022275143831
 31
0.0
  0
LINE
  5
F104E0
330
261
100
AcDbEntity
  8
Geo
100
AcDbLine
 10
-26.6050915218878
 20
15.08022275143831
 30
0.0
 11
-26.50509152188779
 21
15.03601693112211
 31
0.0
  0
LINE
  5
F104E2
330
261
100
AcDbEntity
  8
Geo
100
AcDbLine
 10
-26.50509152188779
 20
15.03601693112211
 30
0.0
 11
-26.4050915218878
 21
14.99093431247411
 31
0.0
  0
LINE
  5
F104E4
330
261
100
AcDbEntity
  8
Geo
100
AcDbLine
 10
-26.4050915218878
 20
14.99093431247411
 30
0.0
 11
-26.30509152188781
 21
14.94499945391691
 31
0.0
  0
LINE
  5
F104E6
330
261
100
AcDbEntity
  8
Geo
100
AcDbLine
 10
-26.30509152188781
 20
14.94499945391691
 30
0.0
 11
-26.20509152188779
 21
14.89823737812491
 31
0.0
  0
LINE
  5
F104E8
330
261
100
AcDbEntity
  8
Geo
100
AcDbLine
 10
-26.20509152188779
 20
14.89823737812491
 30
0.0
 11
-26.1050915218878
 21
14.85067355839281
 31
0.0
  0
LINE
  5
F104EA
330
261
100
AcDbEntity
  8
Geo
100
AcDbLine
 10
-26.1050915218878
 20
14.85067355839281
 30
0.0
 11
-26.00509152188779
 21
14.80233390475932
 31
0.0
  0
LINE
  5
F104EC
330
261
100
AcDbEntity
  8
Geo
100
AcDbLine
 10
-26.00509152188779
 20
14.80233390475932
 30
0.0
 11
-25.9050915218878
 21
14.75324474989311
 31
0.0
  0
LINE
  5
F104EE
330
261
100
AcDbEntity
  8
Geo
100
AcDbLine
 10
-25.9050915218878
 20
14.75324474989311
 30
0.0
 11
-25.8050915218878
 21
14.70343283474781
 31
0.0
  0
LINE
  5
F104F0
330
261
100
AcDbEntity
  8
Geo
100
AcDbLine
 10
-25.8050915218878
 20
14.70343283474781
 30
0.0
 11
-25.7050915218878
 21
14.65292529399571
 31
0.0
  0
LINE
  5
F104F2
330
261
100
AcDbEntity
  8
Geo
100
AcDbLine
 10
-25.7050915218878
 20
14.65292529399571
 30
0.0
 11
-25.6050915218878
 21
14.60174964124582
 31
0.0
  0
LINE
  5
F104F4
330
261
100
AcDbEntity
  8
Geo
100
AcDbLine
 10
-25.6050915218878
 20
14.60174964124582
 30
0.0
 11
-25.50509152188779
 21
14.54993375405601
 31
0.0
  0
LINE
  5
F104F6
330
261
100
AcDbEntity
  8
Geo
100
AcDbLine
 10
-25.50509152188779
 20
14.54993375405601
 30
0.0
 11
-25.4050915218878
 21
14.49750585874762
 31
0.0
  0
LINE
  5
F104F8
330
261
100
AcDbEntity
  8
Geo
100
AcDbLine
 10
-25.4050915218878
 20
14.49750585874762
 30
0.0
 11
-25.30509152188781
 21
14.4444945150284
 31
0.0
  0
LINE
  5
F104FA
330
261
100
AcDbEntity
  8
Geo
100
AcDbLine
 10
-25.30509152188781
 20
14.4444945150284
 30
0.0
 11
-25.20509152188779
 21
14.39092860043561
 31
0.0
  0
LINE
  5
F104FC
330
261
100
AcDbEntity
  8
Geo
100
AcDbLine
 10
-25.20509152188779
 20
14.39092860043561
 30
0.0
 11
-25.1050915218878
 21
14.33683729460472
 31
0.0
  0
LINE
  5
F104FE
330
261
100
AcDbEntity
  8
Geo
100
AcDbLine
 10
-25.1050915218878
 20
14.33683729460472
 30
0.0
 11
-25.00509152188779
 21
14.28225006337432
 31
0.0
  0
LINE
  5
F10500
330
261
100
AcDbEntity
  8
Geo
100
AcDbLine
 10
-25.00509152188779
 20
14.28225006337432
 30
0.0
 11
-24.9050915218878
 21
14.22719664273461
 31
0.0
  0
LINE
  5
F10502
330
261
100
AcDbEntity
  8
Geo
100
AcDbLine
 10
-24.9050915218878
 20
14.22719664273461
 30
0.0
 11
-24.8050915218878
 21
14.1717070226289
 31
0.0
  0
LINE
  5
F10504
330
261
100
AcDbEntity
  8
Geo
100
AcDbLine
 10
-24.8050915218878
 20
14.1717070226289
 30
0.0
 11
-24.7050915218878
 21
14.11581143061732
 31
0.0
  0
LINE
  5
F10506
330
261
100
AcDbEntity
  8
Geo
100
AcDbLine
 10
-24.7050915218878
 20
14.11581143061732
 30
0.0
 11
-24.6050915218878
 21
14.05954031540971
 31
0.0
  0
LINE
  5
F10508
330
261
100
AcDbEntity
  8
Geo
100
AcDbLine
 10
-24.6050915218878
 20
14.05954031540971
 30
0.0
 11
-24.50509152188779
 21
14.00292433027971
 31
0.0
  0
LINE
  5
F1050A
330
261
100
AcDbEntity
  8
Geo
100
AcDbLine
 10
-24.50509152188779
 20
14.00292433027971
 30
0.0
 11
-24.4050915218878
 21
13.94599431636611
 31
0.0
  0
LINE
  5
F1050C
330
261
100
AcDbEntity
  8
Geo
100
AcDbLine
 10
-24.4050915218878
 20
13.94599431636611
 30
0.0
 11
-24.3050915218878
 21
13.88878128587281
 31
0.0
  0
LINE
  5
F1050E
330
261
100
AcDbEntity
  8
Geo
100
AcDbLine
 10
-24.3050915218878
 20
13.88878128587281
 30
0.0
 11
-24.2050915218878
 21
13.83131640517471
 31
0.0
  0
LINE
  5
F10510
330
261
100
AcDbEntity
  8
Geo
100
AcDbLine
 10
-24.2050915218878
 20
13.83131640517471
 30
0.0
 11
-24.1050915218878
 21
13.77363097784021
 31
0.0
  0
LINE
  5
F10512
330
261
100
AcDbEntity
  8
Geo
100
AcDbLine
 10
-24.1050915218878
 20
13.77363097784021
 30
0.0
 11
-24.00509152188779
 21
13.71575642757891
 31
0.0
  0
LINE
  5
F10514
330
261
100
AcDbEntity
  8
Geo
100
AcDbLine
 10
-24.00509152188779
 20
13.71575642757891
 30
0.0
 11
-23.9050915218878
 21
13.65772428112371
 31
0.0
  0
LINE
  5
F10516
330
261
100
AcDbEntity
  8
Geo
100
AcDbLine
 10
-23.9050915218878
 20
13.65772428112371
 30
0.0
 11
-23.8050915218878
 21
13.59956615105701
 31
0.0
  0
LINE
  5
F10518
330
261
100
AcDbEntity
  8
Geo
100
AcDbLine
 10
-23.8050915218878
 20
13.59956615105701
 30
0.0
 11
-23.70509152188779
 21
13.54131371858972
 31
0.0
  0
LINE
  5
F1051A
330
261
100
AcDbEntity
  8
Geo
100
AcDbLine
 10
-23.70509152188779
 20
13.54131371858972
 30
0.0
 11
-23.6050915218878
 21
13.48299871630322
 31
0.0
  0
LINE
  5
F1051C
330
261
100
AcDbEntity
  8
Geo
100
AcDbLine
 10
-23.6050915218878
 20
13.48299871630322
 30
0.0
 11
-23.50509152188779
 21
13.42465291086341
 31
0.0
  0
LINE
  5
F1051E
330
261
100
AcDbEntity
  8
Geo
100
AcDbLine
 10
-23.50509152188779
 20
13.42465291086341
 30
0.0
 11
-23.4050915218878
 21
13.36630808571612
 31
0.0
  0
LINE
  5
F10520
330
261
100
AcDbEntity
  8
Geo
100
AcDbLine
 10
-23.4050915218878
 20
13.36630808571612
 30
0.0
 11
-23.3050915218878
 21
13.30799602377291
 31
0.0
  0
LINE
  5
F10522
330
261
100
AcDbEntity
  8
Geo
100
AcDbLine
 10
-23.3050915218878
 20
13.30799602377291
 30
0.0
 11
-23.2050915218878
 21
13.24974849009801
 31
0.0
  0
LINE
  5
F10524
330
261
100
AcDbEntity
  8
Geo
100
AcDbLine
 10
-23.2050915218878
 20
13.24974849009801
 30
0.0
 11
-23.1050915218878
 21
13.19159721460422
 31
0.0
  0
LINE
  5
F10526
330
261
100
AcDbEntity
  8
Geo
100
AcDbLine
 10
-23.1050915218878
 20
13.19159721460422
 30
0.0
 11
-23.00509152188779
 21
13.13357387476861
 31
0.0
  0
LINE
  5
F10528
330
261
100
AcDbEntity
  8
Geo
100
AcDbLine
 10
-23.00509152188779
 20
13.13357387476861
 30
0.0
 11
-22.9050915218878
 21
13.07571007837611
 31
0.0
  0
LINE
  5
F1052A
330
261
100
AcDbEntity
  8
Geo
100
AcDbLine
 10
-22.9050915218878
 20
13.07571007837611
 30
0.0
 11
-22.80509152188781
 21
13.01803734630141
 31
0.0
  0
LINE
  5
F1052C
330
261
100
AcDbEntity
  8
Geo
100
AcDbLine
 10
-22.80509152188781
 20
13.01803734630141
 30
0.0
 11
-22.70509152188779
 21
12.96058709533871
 31
0.0
  0
LINE
  5
F1052E
330
261
100
AcDbEntity
  8
Geo
100
AcDbLine
 10
-22.70509152188779
 20
12.96058709533871
 30
0.0
 11
-22.6050915218878
 21
12.90339062108682
 31
0.0
  0
LINE
  5
F10530
330
261
100
AcDbEntity
  8
Geo
100
AcDbLine
 10
-22.6050915218878
 20
12.90339062108682
 30
0.0
 11
-22.50509152188779
 21
12.84647908090191
 31
0.0
  0
LINE
  5
F10532
330
261
100
AcDbEntity
  8
Geo
100
AcDbLine
 10
-22.50509152188779
 20
12.84647908090191
 30
0.0
 11
-22.4050915218878
 21
12.78988347692421
 31
0.0
  0
LINE
  5
F10534
330
261
100
AcDbEntity
  8
Geo
100
AcDbLine
 10
-22.4050915218878
 20
12.78988347692421
 30
0.0
 11
-22.3050915218878
 21
12.73363463919011
 31
0.0
  0
LINE
  5
F10536
330
261
100
AcDbEntity
  8
Geo
100
AcDbLine
 10
-22.3050915218878
 20
12.73363463919011
 30
0.0
 11
-22.2050915218878
 21
12.67776320883781
 31
0.0
  0
LINE
  5
F10538
330
261
100
AcDbEntity
  8
Geo
100
AcDbLine
 10
-22.2050915218878
 20
12.67776320883781
 30
0.0
 11
-22.1050915218878
 21
12.62229962141541
 31
0.0
  0
LINE
  5
F1053A
330
261
100
AcDbEntity
  8
Geo
100
AcDbLine
 10
-22.1050915218878
 20
12.62229962141541
 30
0.0
 11
-22.00509152188779
 21
12.56727409030161
 31
0.0
  0
LINE
  5
F1053C
330
261
100
AcDbEntity
  8
Geo
100
AcDbLine
 10
-22.00509152188779
 20
12.56727409030161
 30
0.0
 11
-21.9050915218878
 21
12.51271659024732
 31
0.0
  0
LINE
  5
F1053E
330
261
100
AcDbEntity
  8
Geo
100
AcDbLine
 10
-21.9050915218878
 20
12.51271659024732
 30
0.0
 11
-21.8050915218878
 21
12.45865684104681
 31
0.0
  0
LINE
  5
F10540
330
261
100
AcDbEntity
  8
Geo
100
AcDbLine
 10
-21.8050915218878
 20
12.45865684104681
 30
0.0
 11
-21.70509152188779
 21
12.40512429134851
 31
0.0
  0
LINE
  5
F10542
330
261
100
AcDbEntity
  8
Geo
100
AcDbLine
 10
-21.70509152188779
 20
12.40512429134851
 30
0.0
 11
-21.6050915218878
 21
12.35214810261261
 31
0.0
  0
LINE
  5
F10544
330
261
100
AcDbEntity
  8
Geo
100
AcDbLine
 10
-21.6050915218878
 20
12.35214810261261
 30
0.0
 11
-21.50509152188779
 21
12.29975713322581
 31
0.0
  0
LINE
  5
F10546
330
261
100
AcDbEntity
  8
Geo
100
AcDbLine
 10
-21.50509152188779
 20
12.29975713322581
 30
0.0
 11
-21.4050915218878
 21
12.24797992278101
 31
0.0
  0
LINE
  5
F10548
330
261
100
AcDbEntity
  8
Geo
100
AcDbLine
 10
-21.4050915218878
 20
12.24797992278101
 30
0.0
 11
-21.3050915218878
 21
12.19684467653031
 31
0.0
  0
LINE
  5
F1054A
330
261
100
AcDbEntity
  8
Geo
100
AcDbLine
 10
-21.3050915218878
 20
12.19684467653031
 30
0.0
 11
-21.20509152188779
 21
12.14637925002081
 31
0.0
  0
LINE
  5
F1054C
330
261
100
AcDbEntity
  8
Geo
100
AcDbLine
 10
-21.20509152188779
 20
12.14637925002081
 30
0.0
 11
-21.1050915218878
 21
12.09661113391992
 31
0.0
  0
LINE
  5
F1054E
330
261
100
AcDbEntity
  8
Geo
100
AcDbLine
 10
-21.1050915218878
 20
12.09661113391992
 30
0.0
 11
-21.00509152188779
 21
12.04756743904061
 31
0.0
  0
LINE
  5
F10550
330
261
100
AcDbEntity
  8
Geo
100
AcDbLine
 10
-21.00509152188779
 20
12.04756743904061
 30
0.0
 11
-20.9050915218878
 21
11.99927488157271
 31
0.0
  0
LINE
  5
F10552
330
261
100
AcDbEntity
  8
Geo
100
AcDbLine
 10
-20.9050915218878
 20
11.99927488157271
 30
0.0
 11
-20.8050915218878
 21
11.95175976852951
 31
0.0
  0
LINE
  5
F10554
330
261
100
AcDbEntity
  8
Geo
100
AcDbLine
 10
-20.8050915218878
 20
11.95175976852951
 30
0.0
 11
-20.7050915218878
 21
11.90504798341721
 31
0.0
  0
LINE
  5
F10556
330
261
100
AcDbEntity
  8
Geo
100
AcDbLine
 10
-20.7050915218878
 20
11.90504798341721
 30
0.0
 11
-20.6050915218878
 21
11.85916497213491
 31
0.0
  0
LINE
  5
F10558
330
261
100
AcDbEntity
  8
Geo
100
AcDbLine
 10
-20.6050915218878
 20
11.85916497213491
 30
0.0
 11
-20.6050915218878
 21
11.85916497213491
 31
0.0
  0
LINE
  5
F1055A
330
261
100
AcDbEntity
  8
Geo
100
AcDbLine
 10
-20.6050915218878
 20
11.85916497213491
 30
0.0
 11
-20.6050915218878
 21
11.92185647174921
 31
0.0
  0
LINE
  5
F1055C
330
261
100
AcDbEntity
  8
Geo
100
AcDbLine
 10
-20.6050915218878
 20
11.92185647174921
 30
0.0
 11
-20.6050915218878
 21
11.85916497213491
 31
0.0
  0
LINE
  5
F1055E
330
261
100
AcDbEntity
  8
Geo
100
AcDbLine
 10
-20.6050915218878
 20
11.85916497213491
 30
0.0
 11
-20.6050915218878
 21
11.85916497213491
 31
0.0
  0
LINE
  5
F10560
330
261
100
AcDbEntity
  8
Geo
100
AcDbLine
 10
-20.6050915218878
 20
11.85916497213491
 30
0.0
 11
-20.50509152188779
 21
11.92766109888771
 31
0.0
  0
LINE
  5
F10562
330
261
100
AcDbEntity
  8
Geo
100
AcDbLine
 10
-20.50509152188779
 20
11.92766109888771
 30
0.0
 11
-20.4050915218878
 21
11.93410974869801
 31
0.0
  0
LINE
  5
F10564
330
261
100
AcDbEntity
  8
Geo
100
AcDbLine
 10
-20.4050915218878
 20
11.93410974869801
 30
0.0
 11
-20.30509152188781
 21
11.94120750799831
 31
0.0
  0
LINE
  5
F10566
330
261
100
AcDbEntity
  8
Geo
100
AcDbLine
 10
-20.30509152188781
 20
11.94120750799831
 30
0.0
 11
-20.20509152188779
 21
11.94895991659691
 31
0.0
  0
LINE
  5
F10568
330
261
100
AcDbEntity
  8
Geo
100
AcDbLine
 10
-20.20509152188779
 20
11.94895991659691
 30
0.0
 11
-20.1050915218878
 21
11.95737295507381
 31
0.0
  0
LINE
  5
F1056A
330
261
100
AcDbEntity
  8
Geo
100
AcDbLine
 10
-20.1050915218878
 20
11.95737295507381
 30
0.0
 11
-20.00509152188779
 21
11.96645303138321
 31
0.0
  0
LINE
  5
F1056C
330
261
100
AcDbEntity
  8
Geo
100
AcDbLine
 10
-20.00509152188779
 20
11.96645303138321
 30
0.0
 11
-19.9050915218878
 21
11.97620696625641
 31
0.0
  0
LINE
  5
F1056E
330
261
100
AcDbEntity
  8
Geo
100
AcDbLine
 10
-19.9050915218878
 20
11.97620696625641
 30
0.0
 11
-19.8050915218878
 21
11.98664197738081
 31
0.0
  0
LINE
  5
F10570
330
261
100
AcDbEntity
  8
Geo
100
AcDbLine
 10
-19.8050915218878
 20
11.98664197738081
 30
0.0
 11
-19.70509152188779
 21
11.99776566232981
 31
0.0
  0
LINE
  5
F10572
330
261
100
AcDbEntity
  8
Geo
100
AcDbLine
 10
-19.70509152188779
 20
11.99776566232981
 30
0.0
 11
-19.6050915218878
 21
12.00958598021701
 31
0.0
  0
LINE
  5
F10574
330
261
100
AcDbEntity
  8
Geo
100
AcDbLine
 10
-19.6050915218878
 20
12.00958598021701
 30
0.0
 11
-19.50509152188779
 21
12.02211123204811
 31
0.0
  0
LINE
  5
F10576
330
261
100
AcDbEntity
  8
Geo
100
AcDbLine
 10
-19.50509152188779
 20
12.02211123204811
 30
0.0
 11
-19.4050915218878
 21
12.03535003974141
 31
0.0
  0
LINE
  5
F10578
330
261
100
AcDbEntity
  8
Geo
100
AcDbLine
 10
-19.4050915218878
 20
12.03535003974141
 30
0.0
 11
-19.3050915218878
 21
12.04931132378901
 31
0.0
  0
LINE
  5
F1057A
330
261
100
AcDbEntity
  8
Geo
100
AcDbLine
 10
-19.3050915218878
 20
12.04931132378901
 30
0.0
 11
-19.20509152188779
 21
12.06400427952761
 31
0.0
  0
LINE
  5
F1057C
330
261
100
AcDbEntity
  8
Geo
100
AcDbLine
 10
-19.20509152188779
 20
12.06400427952761
 30
0.0
 11
-19.1050915218878
 21
12.07943835199031
 31
0.0
  0
LINE
  5
F1057E
330
261
100
AcDbEntity
  8
Geo
100
AcDbLine
 10
-19.1050915218878
 20
12.07943835199031
 30
0.0
 11
-19.00509152188779
 21
12.09562320930791
 31
0.0
  0
LINE
  5
F10580
330
261
100
AcDbEntity
  8
Geo
100
AcDbLine
 10
-19.00509152188779
 20
12.09562320930791
 30
0.0
 11
-18.9050915218878
 21
12.11256871463011
 31
0.0
  0
LINE
  5
F10582
330
261
100
AcDbEntity
  8
Geo
100
AcDbLine
 10
-18.9050915218878
 20
12.11256871463011
 30
0.0
 11
-18.8050915218878
 21
12.13028489653571
 31
0.0
  0
LINE
  5
F10584
330
261
100
AcDbEntity
  8
Geo
100
AcDbLine
 10
-18.8050915218878
 20
12.13028489653571
 30
0.0
 11
-18.70509152188779
 21
12.14878191790241
 31
0.0
  0
LINE
  5
F10586
330
261
100
AcDbEntity
  8
Geo
100
AcDbLine
 10
-18.70509152188779
 20
12.14878191790241
 30
0.0
 11
-18.6050915218878
 21
12.16807004320612
 31
0.0
  0
LINE
  5
F10588
330
261
100
AcDbEntity
  8
Geo
100
AcDbLine
 10
-18.6050915218878
 20
12.16807004320612
 30
0.0
 11
-18.6050915218878
 21
12.16807004320612
 31
0.0
  0
LINE
  5
F1058A
330
261
100
AcDbEntity
  8
Geo
100
AcDbLine
 10
-33.6050915218878
 20
14.91970317015011
 30
0.0
 11
-33.50509152188779
 21
14.93291927891461
 31
0.0
  0
LINE
  5
F1058C
330
261
100
AcDbEntity
  8
Geo
100
AcDbLine
 10
-33.6050915218878
 20
14.65606745180661
 30
0.0
 11
-33.50509152188779
 21
14.65437286824961
 31
0.0
  0
LINE
  5
F1058E
330
261
100
AcDbEntity
  8
Geo
100
AcDbLine
 10
-33.6050915218878
 20
11.60097990496471
 30
0.0
 11
-33.50509152188779
 21
11.48847350686901
 31
0.0
  0
LINE
  5
F10590
330
261
100
AcDbEntity
  8
Geo
100
AcDbLine
 10
-33.6050915218878
 20
11.45470704721631
 30
0.0
 11
-33.50509152188779
 21
11.34250672791441
 31
0.0
  0
LINE
  5
F10592
330
261
100
AcDbEntity
  8
Geo
100
AcDbLine
 10
-33.50509152188779
 20
14.93291927891461
 30
0.0
 11
-33.4050915218878
 21
14.89413539519632
 31
0.0
  0
LINE
  5
F10594
330
261
100
AcDbEntity
  8
Geo
100
AcDbLine
 10
-33.50509152188779
 20
14.65437286824961
 30
0.0
 11
-33.4050915218878
 21
14.60966452522281
 31
0.0
  0
LINE
  5
F10596
330
261
100
AcDbEntity
  8
Geo
100
AcDbLine
 10
-33.50509152188779
 20
11.48847350686901
 30
0.0
 11
-33.4050915218878
 21
11.43781423023571
 31
0.0
  0
LINE
  5
F10598
330
261
100
AcDbEntity
  8
Geo
100
AcDbLine
 10
-33.50509152188779
 20
11.34250672791441
 30
0.0
 11
-33.4050915218878
 21
11.29725448482691
 31
0.0
  0
LINE
  5
F1059A
330
261
100
AcDbEntity
  8
Geo
100
AcDbLine
 10
-33.4050915218878
 20
14.89413539519632
 30
0.0
 11
-33.3050915218878
 21
14.84222849650991
 31
0.0
  0
LINE
  5
F1059C
330
261
100
AcDbEntity
  8
Geo
100
AcDbLine
 10
-33.4050915218878
 20
14.60966452522281
 30
0.0
 11
-33.3050915218878
 21
14.55426831021411
 31
0.0
  0
LINE
  5
F1059E
330
261
100
AcDbEntity
  8
Geo
100
AcDbLine
 10
-33.4050915218878
 20
11.43781423023571
 30
0.0
 11
-33.3050915218878
 21
11.40386711210691
 31
0.0
  0
LINE
  5
F105A0
330
261
100
AcDbEntity
  8
Geo
100
AcDbLine
 10
-33.4050915218878
 20
11.29725448482691
 30
0.0
 11
-33.3050915218878
 21
11.26996812056801
 31
0.0
  0
LINE
  5
F105A2
330
261
100
AcDbEntity
  8
Geo
100
AcDbLine
 10
-33.3050915218878
 20
14.84222849650991
 30
0.0
 11
-33.2050915218878
 21
14.78938195897382
 31
0.0
  0
LINE
  5
F105A4
330
261
100
AcDbEntity
  8
Geo
100
AcDbLine
 10
-33.3050915218878
 20
14.55426831021411
 30
0.0
 11
-33.2050915218878
 21
14.49812357315082
 31
0.0
  0
LINE
  5
F105A6
330
261
100
AcDbEntity
  8
Geo
100
AcDbLine
 10
-33.3050915218878
 20
11.40386711210691
 30
0.0
 11
-33.2050915218878
 21
11.37102178237851
 31
0.0
  0
LINE
  5
F105A8
330
261
100
AcDbEntity
  8
Geo
100
AcDbLine
 10
-33.3050915218878
 20
11.26996812056801
 30
0.0
 11
-33.2050915218878
 21
11.24385648519441
 31
0.0
  0
LINE
  5
F105AA
330
261
100
AcDbEntity
  8
Geo
100
AcDbLine
 10
-33.2050915218878
 20
14.78938195897382
 30
0.0
 11
-33.1050915218878
 21
14.73563085639811
 31
0.0
  0
LINE
  5
F105AC
330
261
100
AcDbEntity
  8
Geo
100
AcDbLine
 10
-33.2050915218878
 20
14.49812357315082
 30
0.0
 11
-33.1050915218878
 21
14.44126757683071
 31
0.0
  0
LINE
  5
F105AE
330
261
100
AcDbEntity
  8
Geo
100
AcDbLine
 10
-33.2050915218878
 20
11.37102178237851
 30
0.0
 11
-33.1050915218878
 21
11.33929613330091
 31
0.0
  0
LINE
  5
F105B0
330
261
100
AcDbEntity
  8
Geo
100
AcDbLine
 10
-33.2050915218878
 20
11.24385648519441
 30
0.0
 11
-33.1050915218878
 21
11.21893380282591
 31
0.0
  0
LINE
  5
F105B2
330
261
100
AcDbEntity
  8
Geo
100
AcDbLine
 10
-33.1050915218878
 20
14.73563085639811
 30
0.0
 11
-33.00509152188779
 21
14.68101086294511
 31
0.0
  0
LINE
  5
F105B4
330
261
100
AcDbEntity
  8
Geo
100
AcDbLine
 10
-33.1050915218878
 20
14.44126757683071
 30
0.0
 11
-33.00509152188779
 21
14.38373805610871
 31
0.0
  0
LINE
  5
F105B6
330
261
100
AcDbEntity
  8
Geo
100
AcDbLine
 10
-33.1050915218878
 20
11.33929613330091
 30
0.0
 11
-33.00509152188779
 21
11.30870744718671
 31
0.0
  0
LINE
  5
F105B8
330
261
100
AcDbEntity
  8
Geo
100
AcDbLine
 10
-33.1050915218878
 20
11.21893380282591
 30
0.0
 11
-33.00509152188779
 21
11.19521364990961
 31
0.0
  0
LINE
  5
F105BA
330
261
100
AcDbEntity
  8
Geo
100
AcDbLine
 10
-33.00509152188779
 20
14.68101086294511
 30
0.0
 11
-32.9050915218878
 21
14.62555822945311
 31
0.0
  0
LINE
  5
F105BC
330
261
100
AcDbEntity
  8
Geo
100
AcDbLine
 10
-33.00509152188779
 20
14.38373805610871
 30
0.0
 11
-32.9050915218878
 21
14.32557319285191
 31
0.0
  0
LINE
  5
F105BE
330
261
100
AcDbEntity
  8
Geo
100
AcDbLine
 10
-33.00509152188779
 20
11.30870744718671
 30
0.0
 11
-32.9050915218878
 21
11.27927238699611
 31
0.0
  0
LINE
  5
F105C0
330
261
100
AcDbEntity
  8
Geo
100
AcDbLine
 10
-33.00509152188779
 20
11.19521364990961
 30
0.0
 11
-32.9050915218878
 21
11.17270894782301
 31
0.0
  0
LINE
  5
F105C2
330
261
100
AcDbEntity
  8
Geo
100
AcDbLine
 10
-32.9050915218878
 20
14.62555822945311
 30
0.0
 11
-32.80509152188781
 21
14.56930975937651
 31
0.0
  0
LINE
  5
F105C4
330
261
100
AcDbEntity
  8
Geo
100
AcDbLine
 10
-32.9050915218878
 20
14.32557319285191
 30
0.0
 11
-32.80509152188781
 21
14.2668115905994
 31
0.0
  0
LINE
  5
F105C6
330
261
100
AcDbEntity
  8
Geo
100
AcDbLine
 10
-32.9050915218878
 20
11.27927238699611
 30
0.0
 11
-32.80509152188781
 21
11.25100698726041
 31
0.0
  0
LINE
  5
F105C8
330
261
100
AcDbEntity
  8
Geo
100
AcDbLine
 10
-32.9050915218878
 20
11.17270894782301
 30
0.0
 11
-32.80509152188781
 21
11.15143195583611
 31
0.0
  0
LINE
  5
F105CA
330
261
100
AcDbEntity
  8
Geo
100
AcDbLine
 10
-32.80509152188781
 20
14.56930975937651
 30
0.0
 11
-32.70509152188779
 21
14.51230278435981
 31
0.0
  0
LINE
  5
F105CC
330
261
100
AcDbEntity
  8
Geo
100
AcDbLine
 10
-32.80509152188781
 20
14.2668115905994
 30
0.0
 11
-32.70509152188779
 21
14.20749224894061
 31
0.0
  0
LINE
  5
F105CE
330
261
100
AcDbEntity
  8
Geo
100
AcDbLine
 10
-32.80509152188781
 20
11.25100698726041
 30
0.0
 11
-32.70509152188779
 21
11.22392664534691
 31
0.0
  0
LINE
  5
F105D0
330
261
100
AcDbEntity
  8
Geo
100
AcDbLine
 10
-32.80509152188781
 20
11.15143195583611
 30
0.0
 11
-32.70509152188779
 21
11.13139426443281
 31
0.0
  0
LINE
  5
F105D2
330
261
100
AcDbEntity
  8
Geo
100
AcDbLine
 10
-32.70509152188779
 20
14.51230278435981
 30
0.0
 11
-32.6050915218878
 21
14.45457513946111
 31
0.0
  0
LINE
  5
F105D4
330
261
100
AcDbEntity
  8
Geo
100
AcDbLine
 10
-32.70509152188779
 20
14.20749224894061
 30
0.0
 11
-32.6050915218878
 21
14.14765453763241
 31
0.0
  0
LINE
  5
F105D6
330
261
100
AcDbEntity
  8
Geo
100
AcDbLine
 10
-32.70509152188779
 20
11.22392664534691
 30
0.0
 11
-32.6050915218878
 21
11.19804611307141
 31
0.0
  0
LINE
  5
F105D8
330
261
100
AcDbEntity
  8
Geo
100
AcDbLine
 10
-32.70509152188779
 20
11.13139426443281
 30
0.0
 11
-32.6050915218878
 21
11.11260678899721
 31
0.0
  0
LINE
  5
F105DA
330
261
100
AcDbEntity
  8
Geo
100
AcDbLine
 10
-32.6050915218878
 20
14.45457513946111
 30
0.0
 11
-32.50509152188779
 21
14.39616513804111
 31
0.0
  0
LINE
  5
F105DC
330
261
100
AcDbEntity
  8
Geo
100
AcDbLine
 10
-32.6050915218878
 20
14.14765453763241
 30
0.0
 11
-32.50509152188779
 21
14.08733817046911
 31
0.0
  0
LINE
  5
F105DE
330
261
100
AcDbEntity
  8
Geo
100
AcDbLine
 10
-32.6050915218878
 20
11.19804611307141
 30
0.0
 11
-32.50509152188779
 21
11.17337948866241
 31
0.0
  0
LINE
  5
F105E0
330
261
100
AcDbEntity
  8
Geo
100
AcDbLine
 10
-32.6050915218878
 20
11.11260678899721
 30
0.0
 11
-32.50509152188779
 21
11.09507976386751
 31
0.0
  0
LINE
  5
F105E2
330
261
100
AcDbEntity
  8
Geo
100
AcDbLine
 10
-32.50509152188779
 20
14.39616513804111
 30
0.0
 11
-32.4050915218878
 21
14.33711154633481
 31
0.0
  0
LINE
  5
F105E4
330
261
100
AcDbEntity
  8
Geo
100
AcDbLine
 10
-32.50509152188779
 20
14.08733817046911
 30
0.0
 11
-32.4050915218878
 21
14.02658317892482
 31
0.0
  0
LINE
  5
F105E6
330
261
100
AcDbEntity
  8
Geo
100
AcDbLine
 10
-32.50509152188779
 20
11.17337948866241
 30
0.0
 11
-32.4050915218878
 21
11.1499402090808
 31
0.0
  0
LINE
  5
F105E8
330
261
100
AcDbEntity
  8
Geo
100
AcDbLine
 10
-32.50509152188779
 20
11.09507976386751
 30
0.0
 11
-32.4050915218878
 21
11.07882273676091
 31
0.0
  0
LINE
  5
F105EA
330
261
100
AcDbEntity
  8
Geo
100
AcDbLine
 10
-32.4050915218878
 20
14.33711154633481
 30
0.0
 11
-32.3050915218878
 21
14.27745355772301
 31
0.0
  0
LINE
  5
F105EC
330
261
100
AcDbEntity
  8
Geo
100
AcDbLine
 10
-32.4050915218878
 20
14.02658317892482
 30
0.0
 11
-32.3050915218878
 21
13.96542988558521
 31
0.0
  0
LINE
  5
F105EE
330
261
100
AcDbEntity
  8
Geo
100
AcDbLine
 10
-32.4050915218878
 20
11.1499402090808
 30
0.0
 11
-32.3050915218878
 21
11.12774104270091
 31
0.0
  0
LINE
  5
F105F0
330
261
100
AcDbEntity
  8
Geo
100
AcDbLine
 10
-32.4050915218878
 20
11.07882273676091
 30
0.0
 11
-32.3050915218878
 21
11.06384456357261
 31
0.0
  0
LINE
  5
F105F2
330
261
100
AcDbEntity
  8
Geo
100
AcDbLine
 10
-32.3050915218878
 20
14.27745355772301
 30
0.0
 11
-32.2050915218878
 21
14.21723076671931
 31
0.0
  0
LINE
  5
F105F4
330
261
100
AcDbEntity
  8
Geo
100
AcDbLine
 10
-32.3050915218878
 20
13.96542988558521
 30
0.0
 11
-32.2050915218878
 21
13.90391887738561
 31
0.0
  0
LINE
  5
F105F6
330
261
100
AcDbEntity
  8
Geo
100
AcDbLine
 10
-32.3050915218878
 20
11.12774104270091
 30
0.0
 11
-32.2050915218878
 21
11.10679408235421
 31
0.0
  0
LINE
  5
F105F8
330
261
100
AcDbEntity
  8
Geo
100
AcDbLine
 10
-32.3050915218878
 20
11.06384456357261
 30
0.0
 11
-32.2050915218878
 21
11.05015340355171
 31
0.0
  0
LINE
  5
F105FA
330
261
100
AcDbEntity
  8
Geo
100
AcDbLine
 10
-32.2050915218878
 20
14.21723076671931
 30
0.0
 11
-32.1050915218878
 21
14.1564831426924
 31
0.0
  0
LINE
  5
F105FC
330
261
100
AcDbEntity
  8
Geo
100
AcDbLine
 10
-32.2050915218878
 20
13.90391887738561
 30
0.0
 11
-32.1050915218878
 21
13.84209097867371
 31
0.0
  0
LINE
  5
F105FE
330
261
100
AcDbEntity
  8
Geo
100
AcDbLine
 10
-32.2050915218878
 20
11.10679408235421
 30
0.0
 11
-32.1050915218878
 21
11.08711073874231
 31
0.0
  0
LINE
  5
F10600
330
261
100
AcDbEntity
  8
Geo
100
AcDbLine
 10
-32.2050915218878
 20
11.05015340355171
 30
0.0
 11
-32.1050915218878
 21
11.03775671485611
 31
0.0
  0
LINE
  5
F10602
330
261
100
AcDbEntity
  8
Geo
100
AcDbLine
 10
-32.1050915218878
 20
14.1564831426924
 30
0.0
 11
-32.00509152188779
 21
14.09525100333821
 31
0.0
  0
LINE
  5
F10604
330
261
100
AcDbEntity
  8
Geo
100
AcDbLine
 10
-32.1050915218878
 20
13.84209097867371
 30
0.0
 11
-32.00509152188779
 21
13.77998722411451
 31
0.0
  0
LINE
  5
F10606
330
261
100
AcDbEntity
  8
Geo
100
AcDbLine
 10
-32.1050915218878
 20
11.08711073874231
 30
0.0
 11
-32.00509152188779
 21
11.06870173422101
 31
0.0
  0
LINE
  5
F10608
330
261
100
AcDbEntity
  8
Geo
100
AcDbLine
 10
-32.1050915218878
 20
11.03775671485611
 30
0.0
 11
-32.00509152188779
 21
11.02666125049041
 31
0.0
  0
LINE
  5
F1060A
330
261
100
AcDbEntity
  8
Geo
100
AcDbLine
 10
-32.00509152188779
 20
14.09525100333821
 30
0.0
 11
-31.9050915218878
 21
14.03357498792131
 31
0.0
  0
LINE
  5
F1060C
330
261
100
AcDbEntity
  8
Geo
100
AcDbLine
 10
-32.00509152188779
 20
13.77998722411451
 30
0.0
 11
-31.9050915218878
 21
13.71764883145671
 31
0.0
  0
LINE
  5
F1060E
330
261
100
AcDbEntity
  8
Geo
100
AcDbLine
 10
-32.00509152188779
 20
11.06870173422101
 30
0.0
 11
-31.9050915218878
 21
11.05157709695921
 31
0.0
  0
LINE
  5
F10610
330
261
100
AcDbEntity
  8
Geo
100
AcDbLine
 10
-32.00509152188779
 20
11.02666125049041
 30
0.0
 11
-31.9050915218878
 21
11.01687305462651
 31
0.0
  0
LINE
  5
F10612
330
261
100
AcDbEntity
  8
Geo
100
AcDbLine
 10
-31.9050915218878
 20
14.03357498792131
 30
0.0
 11
-31.8050915218878
 21
13.97149603030332
 31
0.0
  0
LINE
  5
F10614
330
261
100
AcDbEntity
  8
Geo
100
AcDbLine
 10
-31.9050915218878
 20
13.71764883145671
 30
0.0
 11
-31.8050915218878
 21
13.65511717417611
 31
0.0
  0
LINE
  5
F10616
330
261
100
AcDbEntity
  8
Geo
100
AcDbLine
 10
-31.9050915218878
 20
11.05157709695921
 30
0.0
 11
-31.8050915218878
 21
11.03574615547641
 31
0.0
  0
LINE
  5
F10618
330
261
100
AcDbEntity
  8
Geo
100
AcDbLine
 10
-31.9050915218878
 20
11.01687305462651
 30
0.0
 11
-31.8050915218878
 21
11.00839745931191
 31
0.0
  0
LINE
  5
F1061A
330
261
100
AcDbEntity
  8
Geo
100
AcDbLine
 10
-31.8050915218878
 20
13.97149603030332
 30
0.0
 11
-31.7050915218878
 21
13.90905533177511
 31
0.0
  0
LINE
  5
F1061C
330
261
100
AcDbEntity
  8
Geo
100
AcDbLine
 10
-31.8050915218878
 20
13.65511717417611
 30
0.0
 11
-31.7050915218878
 21
13.59243375401681
 31
0.0
  0
LINE
  5
F1061E
330
261
100
AcDbEntity
  8
Geo
100
AcDbLine
 10
-31.8050915218878
 20
11.03574615547641
 30
0.0
 11
-31.7050915218878
 21
11.02121753356081
 31
0.0
  0
LINE
  5
F10620
330
261
100
AcDbEntity
  8
Geo
100
AcDbLine
 10
-31.8050915218878
 20
11.00839745931191
 30
0.0
 11
-31.7050915218878
 21
11.00123908156422
 31
0.0
  0
LINE
  5
F10622
330
261
100
AcDbEntity
  8
Geo
100
AcDbLine
 10
-31.7050915218878
 20
13.90905533177511
 30
0.0
 11
-31.6050915218878
 21
13.84629433371232
 31
0.0
  0
LINE
  5
F10624
330
261
100
AcDbEntity
  8
Geo
100
AcDbLine
 10
-31.7050915218878
 20
13.59243375401681
 30
0.0
 11
-31.6050915218878
 21
13.52964017344641
 31
0.0
  0
LINE
  5
F10626
330
261
100
AcDbEntity
  8
Geo
100
AcDbLine
 10
-31.7050915218878
 20
11.02121753356081
 30
0.0
 11
-31.6050915218878
 21
11.00799914557151
 31
0.0
  0
LINE
  5
F10628
330
261
100
AcDbEntity
  8
Geo
100
AcDbLine
 10
-31.7050915218878
 20
11.00123908156422
 30
0.0
 11
-31.6050915218878
 21
10.99540182085681
 31
0.0
  0
LINE
  5
F1062A
330
261
100
AcDbEntity
  8
Geo
100
AcDbLine
 10
-31.6050915218878
 20
13.84629433371232
 30
0.0
 11
-31.50509152188779
 21
13.78325469007031
 31
0.0
  0
LINE
  5
F1062C
330
261
100
AcDbEntity
  8
Geo
100
AcDbLine
 10
-31.6050915218878
 20
13.52964017344641
 30
0.0
 11
-31.50509152188779
 21
13.46677810804521
 31
0.0
  0
LINE
  5
F1062E
330
261
100
AcDbEntity
  8
Geo
100
AcDbLine
 10
-31.6050915218878
 20
11.00799914557151
 30
0.0
 11
-31.50509152188779
 21
10.99609819212771
 31
0.0
  0
LINE
  5
F10630
330
261
100
AcDbEntity
  8
Geo
100
AcDbLine
 10
-31.6050915218878
 20
10.99540182085681
 30
0.0
 11
-31.50509152188779
 21
10.99088885699431
 31
0.0
  0
LINE
  5
F10632
330
261
100
AcDbEntity
  8
Geo
100
AcDbLine
 10
-31.50509152188779
 20
13.78325469007031
 30
0.0
 11
-31.4050915218878
 21
13.71997823973951
 31
0.0
  0
LINE
  5
F10634
330
261
100
AcDbEntity
  8
Geo
100
AcDbLine
 10
-31.50509152188779
 20
13.46677810804521
 30
0.0
 11
-31.4050915218878
 21
13.40388927884651
 31
0.0
  0
LINE
  5
F10636
330
261
100
AcDbEntity
  8
Geo
100
AcDbLine
 10
-31.50509152188779
 20
10.99609819212771
 30
0.0
 11
-31.4050915218878
 21
10.98552115618571
 31
0.0
  0
LINE
  5
F10638
330
261
100
AcDbEntity
  8
Geo
100
AcDbLine
 10
-31.50509152188779
 20
10.99088885699431
 30
0.0
 11
-31.4050915218878
 21
10.98770264838031
 31
0.0
  0
LINE
  5
F1063A
330
261
100
AcDbEntity
  8
Geo
100
AcDbLine
 10
-31.4050915218878
 20
13.71997823973951
 30
0.0
 11
-31.30509152188781
 21
13.65650697877691
 31
0.0
  0
LINE
  5
F1063C
330
261
100
AcDbEntity
  8
Geo
100
AcDbLine
 10
-31.4050915218878
 20
13.40388927884651
 30
0.0
 11
-31.30509152188781
 21
13.34101542464632
 31
0.0
  0
LINE
  5
F1063E
330
261
100
AcDbEntity
  8
Geo
100
AcDbLine
 10
-31.4050915218878
 20
10.98552115618571
 30
0.0
 11
-31.30509152188781
 21
10.97627379950751
 31
0.0
  0
LINE
  5
F10640
330
261
100
AcDbEntity
  8
Geo
100
AcDbLine
 10
-31.4050915218878
 20
10.98770264838031
 30
0.0
 11
-31.30509152188781
 21
10.98584493067841
 31
0.0
  0
LINE
  5
F10642
330
261
100
AcDbEntity
  8
Geo
100
AcDbLine
 10
-31.30509152188781
 20
13.65650697877691
 30
0.0
 11
-31.20509152188779
 21
13.59288303253361
 31
0.0
  0
LINE
  5
F10644
330
261
100
AcDbEntity
  8
Geo
100
AcDbLine
 10
-31.30509152188781
 20
13.34101542464632
 30
0.0
 11
-31.20509152188779
 21
13.27819827430171
 31
0.0
  0
LINE
  5
F10646
330
261
100
AcDbEntity
  8
Geo
100
AcDbLine
 10
-31.30509152188781
 20
10.97627379950751
 30
0.0
 11
-31.20509152188779
 21
10.96836115952221
 31
0.0
  0
LINE
  5
F10648
330
261
100
AcDbEntity
  8
Geo
100
AcDbLine
 10
-31.20509152188779
 20
13.59288303253361
 30
0.0
 11
-31.1050915218878
 21
13.52914862769691
 31
0.0
  0
LINE
  5
F1064A
330
261
100
AcDbEntity
  8
Geo
100
AcDbLine
 10
-31.20509152188779
 20
13.27819827430171
 30
0.0
 11
-31.1050915218878
 21
13.21547951903632
 31
0.0
  0
LINE
  5
F1064C
330
261
100
AcDbEntity
  8
Geo
100
AcDbLine
 10
-31.20509152188779
 20
10.96836115952221
 30
0.0
 11
-31.1050915218878
 21
10.96178754658191
 31
0.0
  0
LINE
  5
F1064E
330
261
100
AcDbEntity
  8
Geo
100
AcDbLine
 10
-31.20509152188779
 20
15.86758820911971
 30
0.0
 11
-31.1050915218878
 21
15.86678663330041
 31
0.0
  0
LINE
  5
F10650
330
261
100
AcDbEntity
  8
Geo
100
AcDbLine
 10
-31.1050915218878
 20
13.52914862769691
 30
0.0
 11
-31.00509152188779
 21
13.46534606426441
 31
0.0
  0
LINE
  5
F10652
330
261
100
AcDbEntity
  8
Geo
100
AcDbLine
 10
-31.1050915218878
 20
13.21547951903632
 30
0.0
 11
-31.00509152188779
 21
13.15290078476941
 31
0.0
  0
LINE
  5
F10654
330
261
100
AcDbEntity
  8
Geo
100
AcDbLine
 10
-31.1050915218878
 20
10.96178754658191
 30
0.0
 11
-31.00509152188779
 21
10.95655654161361
 31
0.0
  0
LINE
  5
F10656
330
261
100
AcDbEntity
  8
Geo
100
AcDbLine
 10
-31.1050915218878
 20
15.86678663330041
 30
0.0
 11
-31.00509152188779
 21
15.86465570350251
 31
0.0
  0
LINE
  5
F10658
330
261
100
AcDbEntity
  8
Geo
100
AcDbLine
 10
-31.00509152188779
 20
13.46534606426441
 30
0.0
 11
-30.9050915218878
 21
13.40151768746991
 31
0.0
  0
LINE
  5
F1065A
330
261
100
AcDbEntity
  8
Geo
100
AcDbLine
 10
-31.00509152188779
 20
13.15290078476941
 30
0.0
 11
-30.9050915218878
 21
13.09050360448951
 31
0.0
  0
LINE
  5
F1065C
330
261
100
AcDbEntity
  8
Geo
100
AcDbLine
 10
-31.00509152188779
 20
10.95655654161361
 30
0.0
 11
-30.9050915218878
 21
10.95267099416851
 31
0.0
  0
LINE
  5
F1065E
330
261
100
AcDbEntity
  8
Geo
100
AcDbLine
 10
-31.00509152188779
 20
15.86465570350251
 30
0.0
 11
-30.9050915218878
 21
15.86119658053411
 31
0.0
  0
LINE
  5
F10660
330
261
100
AcDbEntity
  8
Geo
100
AcDbLine
 10
-30.9050915218878
 20
13.40151768746991
 30
0.0
 11
-30.8050915218878
 21
13.3377058596794
 31
0.0
  0
LINE
  5
F10662
330
261
100
AcDbEntity
  8
Geo
100
AcDbLine
 10
-30.9050915218878
 20
13.09050360448951
 30
0.0
 11
-30.8050915218878
 21
13.02832939068941
 31
0.0
  0
LINE
  5
F10664
330
261
100
AcDbEntity
  8
Geo
100
AcDbLine
 10
-30.9050915218878
 20
10.95267099416851
 30
0.0
 11
-30.8050915218878
 21
10.95013302086991
 31
0.0
  0
LINE
  5
F10666
330
261
100
AcDbEntity
  8
Geo
100
AcDbLine
 10
-30.9050915218878
 20
15.86119658053411
 30
0.0
 11
-30.8050915218878
 21
15.85641114872691
 31
0.0
  0
LINE
  5
F10668
330
261
100
AcDbEntity
  8
Geo
100
AcDbLine
 10
-30.8050915218878
 20
13.3377058596794
 30
0.0
 11
-30.7050915218878
 21
13.27395293227551
 31
0.0
  0
LINE
  5
F1066A
330
261
100
AcDbEntity
  8
Geo
100
AcDbLine
 10
-30.8050915218878
 20
13.02832939068941
 30
0.0
 11
-30.7050915218878
 21
12.96641940788091
 31
0.0
  0
LINE
  5
F1066C
330
261
100
AcDbEntity
  8
Geo
100
AcDbLine
 10
-30.8050915218878
 20
10.95013302086991
 30
0.0
 11
-30.7050915218878
 21
10.94894400425991
 31
0.0
  0
LINE
  5
F1066E
330
261
100
AcDbEntity
  8
Geo
100
AcDbLine
 10
-30.8050915218878
 20
15.85641114872691
 30
0.0
 11
-30.7050915218878
 21
15.85030201490951
 31
0.0
  0
LINE
  5
F10670
330
261
100
AcDbEntity
  8
Geo
100
AcDbLine
 10
-30.7050915218878
 20
13.27395293227551
 30
0.0
 11
-30.6050915218878
 21
13.21030121754921
 31
0.0
  0
LINE
  5
F10672
330
261
100
AcDbEntity
  8
Geo
100
AcDbLine
 10
-30.7050915218878
 20
12.96641940788091
 30
0.0
 11
-30.6050915218878
 21
12.90481474520761
 31
0.0
  0
LINE
  5
F10674
330
261
100
AcDbEntity
  8
Geo
100
AcDbLine
 10
-30.7050915218878
 20
15.85030201490951
 30
0.0
 11
-30.6050915218878
 21
15.84287250698731
 31
0.0
  0
LINE
  5
F10676
330
261
100
AcDbEntity
  8
Geo
100
AcDbLine
 10
-30.6050915218878
 20
13.21030121754921
 30
0.0
 11
-30.50509152188779
 21
13.14679296061721
 31
0.0
  0
LINE
  5
F10678
330
261
100
AcDbEntity
  8
Geo
100
AcDbLine
 10
-30.6050915218878
 20
12.90481474520761
 30
0.0
 11
-30.50509152188779
 21
12.84355628917501
 31
0.0
  0
LINE
  5
F1067A
330
261
100
AcDbEntity
  8
Geo
100
AcDbLine
 10
-30.6050915218878
 20
15.90380033293981
 30
0.0
 11
-30.50509152188779
 21
15.90229022823561
 31
0.0
  0
LINE
  5
F1067C
330
261
100
AcDbEntity
  8
Geo
100
AcDbLine
 10
-30.6050915218878
 20
15.84287250698731
 30
0.0
 11
-30.50509152188779
 21
15.83412667212972
 31
0.0
  0
LINE
  5
F1067E
330
261
100
AcDbEntity
  8
Geo
100
AcDbLine
 10
-30.50509152188779
 20
13.14679296061721
 30
0.0
 11
-30.4050915218878
 21
13.08347031138472
 31
0.0
  0
LINE
  5
F10680
330
261
100
AcDbEntity
  8
Geo
100
AcDbLine
 10
-30.50509152188779
 20
12.84355628917501
 30
0.0
 11
-30.4050915218878
 21
12.78268469651391
 31
0.0
  0
LINE
  5
F10682
330
261
100
AcDbEntity
  8
Geo
100
AcDbLine
 10
-30.50509152188779
 20
15.90229022823561
 30
0.0
 11
-30.4050915218878
 21
15.89943142923211
 31
0.0
  0
LINE
  5
F10684
330
261
100
AcDbEntity
  8
Geo
100
AcDbLine
 10
-30.50509152188779
 20
15.83412667212972
 30
0.0
 11
-30.4050915218878
 21
15.82406927456561
 31
0.0
  0
LINE
  5
F10686
330
261
100
AcDbEntity
  8
Geo
100
AcDbLine
 10
-30.4050915218878
 20
13.08347031138472
 30
0.0
 11
-30.30509152188781
 21
13.02037529657051
 31
0.0
  0
LINE
  5
F10688
330
261
100
AcDbEntity
  8
Geo
100
AcDbLine
 10
-30.4050915218878
 20
12.78268469651391
 30
0.0
 11
-30.30509152188781
 21
12.72224036719701
 31
0.0
  0
LINE
  5
F1068A
330
261
100
AcDbEntity
  8
Geo
100
AcDbLine
 10
-30.4050915218878
 20
15.89943142923211
 30
0.0
 11
-30.30509152188781
 21
15.89522549323901
 31
0.0
  0
LINE
  5
F1068C
330
261
100
AcDbEntity
  8
Geo
100
AcDbLine
 10
-30.4050915218878
 20
15.82406927456561
 30
0.0
 11
-30.30509152188781
 21
15.81270579298791
 31
0.0
  0
LINE
  5
F1068E
330
261
100
AcDbEntity
  8
Geo
100
AcDbLine
 10
-30.30509152188781
 20
13.02037529657051
 30
0.0
 11
-30.20509152188779
 21
12.95754979181432
 31
0.0
  0
LINE
  5
F10690
330
261
100
AcDbEntity
  8
Geo
100
AcDbLine
 10
-30.30509152188781
 20
12.72224036719701
 30
0.0
 11
-30.20509152188779
 21
12.66226341762621
 31
0.0
  0
LINE
  5
F10692
330
261
100
AcDbEntity
  8
Geo
100
AcDbLine
 10
-30.30509152188781
 20
15.89522549323901
 30
0.0
 11
-30.20509152188779
 21
15.88967471140881
 31
0.0
  0
LINE
  5
F10694
330
261
100
AcDbEntity
  8
Geo
100
AcDbLine
 10
-30.30509152188781
 20
15.81270579298791
 30
0.0
 11
-30.20509152188779
 21
15.80004241756901
 31
0.0
  0
LINE
  5
F10696
330
261
100
AcDbEntity
  8
Geo
100
AcDbLine
 10
-30.20509152188779
 20
12.95754979181432
 30
0.0
 11
-30.1050915218878
 21
12.89503549388432
 31
0.0
  0
LINE
  5
F10698
330
261
100
AcDbEntity
  8
Geo
100
AcDbLine
 10
-30.20509152188779
 20
12.66226341762621
 30
0.0
 11
-30.1050915218878
 21
12.60279365400701
 31
0.0
  0
LINE
  5
F1069A
330
261
100
AcDbEntity
  8
Geo
100
AcDbLine
 10
-30.20509152188779
 20
15.88967471140881
 30
0.0
 11
-30.1050915218878
 21
15.88278210748871
 31
0.0
  0
LINE
  5
F1069C
330
261
100
AcDbEntity
  8
Geo
100
AcDbLine
 10
-30.20509152188779
 20
15.80004241756901
 30
0.0
 11
-30.1050915218878
 21
15.78608604658901
 31
0.0
  0
LINE
  5
F1069E
330
261
100
AcDbEntity
  8
Geo
100
AcDbLine
 10
-30.1050915218878
 20
12.89503549388432
 30
0.0
 11
-30.00509152188779
 21
12.83287389300321
 31
0.0
  0
LINE
  5
F106A0
330
261
100
AcDbEntity
  8
Geo
100
AcDbLine
 10
-30.1050915218878
 20
12.60279365400701
 30
0.0
 11
-30.00509152188779
 21
12.54387054592991
 31
0.0
  0
LINE
  5
F106A2
330
261
100
AcDbEntity
  8
Geo
100
AcDbLine
 10
-30.1050915218878
 20
15.88278210748871
 30
0.0
 11
-30.00509152188779
 21
15.87455143617381
 31
0.0
  0
LINE
  5
F106A4
330
261
100
AcDbEntity
  8
Geo
100
AcDbLine
 10
-30.1050915218878
 20
15.78608604658901
 30
0.0
 11
-30.00509152188779
 21
15.77084428267772
 31
0.0
  0
LINE
  5
F106A6
330
261
100
AcDbEntity
  8
Geo
100
AcDbLine
 10
-30.00509152188779
 20
12.83287389300321
 30
0.0
 11
-29.9050915218878
 21
12.77110624531151
 31
0.0
  0
LINE
  5
F106A8
330
261
100
AcDbEntity
  8
Geo
100
AcDbLine
 10
-30.00509152188779
 20
12.54387054592991
 30
0.0
 11
-29.9050915218878
 21
12.48553320017461
 31
0.0
  0
LINE
  5
F106AA
330
261
100
AcDbEntity
  8
Geo
100
AcDbLine
 10
-30.00509152188779
 20
15.87455143617381
 30
0.0
 11
-29.9050915218878
 21
15.86498718106141
 31
0.0
  0
LINE
  5
F106AC
330
261
100
AcDbEntity
  8
Geo
100
AcDbLine
 10
-30.00509152188779
 20
15.77084428267772
 30
0.0
 11
-29.9050915218878
 21
15.75432542867311
 31
0.0
  0
LINE
  5
F106AE
330
261
100
AcDbEntity
  8
Geo
100
AcDbLine
 10
-29.9050915218878
 20
12.77110624531151
 30
0.0
 11
-29.8050915218878
 21
12.70977354548661
 31
0.0
  0
LINE
  5
F106B0
330
261
100
AcDbEntity
  8
Geo
100
AcDbLine
 10
-29.9050915218878
 20
12.48553320017461
 30
0.0
 11
-29.8050915218878
 21
12.42782033475521
 31
0.0
  0
LINE
  5
F106B2
330
261
100
AcDbEntity
  8
Geo
100
AcDbLine
 10
-29.9050915218878
 20
15.86498718106141
 30
0.0
 11
-29.8050915218878
 21
15.85409455220851
 31
0.0
  0
LINE
  5
F106B4
330
261
100
AcDbEntity
  8
Geo
100
AcDbLine
 10
-29.9050915218878
 20
15.75432542867311
 30
0.0
 11
-29.8050915218878
 21
15.73653848309881
 31
0.0
  0
LINE
  5
F106B6
330
261
100
AcDbEntity
  8
Geo
100
AcDbLine
 10
-29.8050915218878
 20
12.70977354548661
 30
0.0
 11
-29.7050915218878
 21
12.64891649953421
 31
0.0
  0
LINE
  5
F106B8
330
261
100
AcDbEntity
  8
Geo
100
AcDbLine
 10
-29.8050915218878
 20
12.42782033475521
 30
0.0
 11
-29.7050915218878
 21
12.37077025322341
 31
0.0
  0
LINE
  5
F106BA
330
261
100
AcDbEntity
  8
Geo
100
AcDbLine
 10
-29.8050915218878
 20
15.85409455220851
 30
0.0
 11
-29.7050915218878
 21
15.84187948329432
 31
0.0
  0
LINE
  5
F106BC
330
261
100
AcDbEntity
  8
Geo
100
AcDbLine
 10
-29.8050915218878
 20
15.73653848309881
 30
0.0
 11
-29.7050915218878
 21
15.71749313526171
 31
0.0
  0
LINE
  5
F106BE
330
261
100
AcDbEntity
  8
Geo
100
AcDbLine
 10
-29.7050915218878
 20
12.64891649953421
 30
0.0
 11
-29.6050915218878
 21
12.58857549777251
 31
0.0
  0
LINE
  5
F106C0
330
261
100
AcDbEntity
  8
Geo
100
AcDbLine
 10
-29.7050915218878
 20
12.37077025322341
 30
0.0
 11
-29.6050915218878
 21
12.31442081924661
 31
0.0
  0
LINE
  5
F106C2
330
261
100
AcDbEntity
  8
Geo
100
AcDbLine
 10
-29.7050915218878
 20
15.84187948329432
 30
0.0
 11
-29.6050915218878
 21
15.82834862838691
 31
0.0
  0
LINE
  5
F106C4
330
261
100
AcDbEntity
  8
Geo
100
AcDbLine
 10
-29.7050915218878
 20
15.71749313526171
 30
0.0
 11
-29.6050915218878
 21
15.69719975997401
 31
0.0
  0
LINE
  5
F106C6
330
261
100
AcDbEntity
  8
Geo
100
AcDbLine
 10
-29.6050915218878
 20
12.58857549777251
 30
0.0
 11
-29.50509152188779
 21
12.52879058802571
 31
0.0
  0
LINE
  5
F106C8
330
261
100
AcDbEntity
  8
Geo
100
AcDbLine
 10
-29.6050915218878
 20
12.31442081924661
 30
0.0
 11
-29.50509152188779
 21
12.25880943147851
 31
0.0
  0
LINE
  5
F106CA
330
261
100
AcDbEntity
  8
Geo
100
AcDbLine
 10
-29.6050915218878
 20
15.82834862838691
 30
0.0
 11
-29.50509152188779
 21
15.81350935831971
 31
0.0
  0
LINE
  5
F106CC
330
261
100
AcDbEntity
  8
Geo
100
AcDbLine
 10
-29.6050915218878
 20
15.69719975997401
 30
0.0
 11
-29.50509152188779
 21
15.67566941190182
 31
0.0
  0
LINE
  5
F106CE
330
261
100
AcDbEntity
  8
Geo
100
AcDbLine
 10
-29.50509152188779
 20
12.52879058802571
 30
0.0
 11
-29.4050915218878
 21
12.46960144904411
 31
0.0
  0
LINE
  5
F106D0
330
261
100
AcDbEntity
  8
Geo
100
AcDbLine
 10
-29.50509152188779
 20
12.25880943147851
 30
0.0
 11
-29.4050915218878
 21
12.20397299873722
 31
0.0
  0
LINE
  5
F106D2
330
261
100
AcDbEntity
  8
Geo
100
AcDbLine
 10
-29.50509152188779
 20
15.81350935831971
 30
0.0
 11
-29.4050915218878
 21
15.79736975667501
 31
0.0
  0
LINE
  5
F106D4
330
261
100
AcDbEntity
  8
Geo
100
AcDbLine
 10
-29.50509152188779
 20
15.67566941190182
 30
0.0
 11
-29.4050915218878
 21
15.6529138195429
 31
0.0
  0
LINE
  5
F106D6
330
261
100
AcDbEntity
  8
Geo
100
AcDbLine
 10
-29.4050915218878
 20
12.46960144904411
 30
0.0
 11
-29.30509152188781
 21
12.41104736417001
 31
0.0
  0
LINE
  5
F106D8
330
261
100
AcDbEntity
  8
Geo
100
AcDbLine
 10
-29.4050915218878
 20
12.20397299873722
 30
0.0
 11
-29.30509152188781
 21
12.14994791550991
 31
0.0
  0
LINE
  5
F106DA
330
261
100
AcDbEntity
  8
Geo
100
AcDbLine
 10
-29.4050915218878
 20
15.79736975667501
 30
0.0
 11
-29.30509152188781
 21
15.77993861538141
 31
0.0
  0
LINE
  5
F106DC
330
261
100
AcDbEntity
  8
Geo
100
AcDbLine
 10
-29.4050915218878
 20
15.6529138195429
 30
0.0
 11
-29.30509152188781
 21
15.62894537883761
 31
0.0
  0
LINE
  5
F106DE
330
261
100
AcDbEntity
  8
Geo
100
AcDbLine
 10
-29.30509152188781
 20
12.41104736417001
 30
0.0
 11
-29.2050915218878
 21
12.35316719526531
 31
0.0
  0
LINE
  5
F106E0
330
261
100
AcDbEntity
  8
Geo
100
AcDbLine
 10
-29.30509152188781
 20
12.14994791550991
 30
0.0
 11
-29.2050915218878
 21
12.09677003779771
 31
0.0
  0
LINE
  5
F106E2
330
261
100
AcDbEntity
  8
Geo
100
AcDbLine
 10
-29.30509152188781
 20
15.77993861538141
 30
0.0
 11
-29.2050915218878
 21
15.76122542992421
 31
0.0
  0
LINE
  5
F106E4
330
261
100
AcDbEntity
  8
Geo
100
AcDbLine
 10
-29.30509152188781
 20
15.62894537883761
 30
0.0
 11
-29.2050915218878
 21
15.60377714641691
 31
0.0
  0
LINE
  5
F106E6
330
261
100
AcDbEntity
  8
Geo
100
AcDbLine
 10
-29.2050915218878
 20
12.35316719526531
 30
0.0
 11
-29.1050915218878
 21
12.29599935691982
 31
0.0
  0
LINE
  5
F106E8
330
261
100
AcDbEntity
  8
Geo
100
AcDbLine
 10
-29.2050915218878
 20
12.09677003779771
 30
0.0
 11
-29.1050915218878
 21
12.04447465931851
 31
0.0
  0
LINE
  5
F106EA
330
261
100
AcDbEntity
  8
Geo
100
AcDbLine
 10
-29.2050915218878
 20
15.76122542992421
 30
0.0
 11
-29.1050915218878
 21
15.74124039417251
 31
0.0
  0
LINE
  5
F106EC
330
261
100
AcDbEntity
  8
Geo
100
AcDbLine
 10
-29.2050915218878
 20
15.60377714641691
 30
0.0
 11
-29.1050915218878
 21
15.57742283248891
 31
0.0
  0
LINE
  5
F106EE
330
261
100
AcDbEntity
  8
Geo
100
AcDbLine
 10
-29.1050915218878
 20
12.29599935691982
 30
0.0
 11
-29.00509152188779
 21
12.23958179095512
 31
0.0
  0
LINE
  5
F106F0
330
261
100
AcDbEntity
  8
Geo
100
AcDbLine
 10
-29.1050915218878
 20
12.04447465931851
 30
0.0
 11
-29.00509152188779
 21
11.99309648808251
 31
0.0
  0
LINE
  5
F106F2
330
261
100
AcDbEntity
  8
Geo
100
AcDbLine
 10
-29.1050915218878
 20
15.74124039417251
 30
0.0
 11
-29.00509152188779
 21
15.71999439482691
 31
0.0
  0
LINE
  5
F106F4
330
261
100
AcDbEntity
  8
Geo
100
AcDbLine
 10
-29.1050915218878
 20
15.57742283248891
 30
0.0
 11
-29.00509152188779
 21
15.54989679337121
 31
0.0
  0
LINE
  5
F106F6
330
261
100
AcDbEntity
  8
Geo
100
AcDbLine
 10
-29.00509152188779
 20
12.23958179095512
 30
0.0
 11
-28.9050915218878
 21
12.18395194124331
 31
0.0
  0
LINE
  5
F106F8
330
261
100
AcDbEntity
  8
Geo
100
AcDbLine
 10
-29.00509152188779
 20
11.99309648808251
 30
0.0
 11
-28.9050915218878
 21
11.94266962335731
 31
0.0
  0
LINE
  5
F106FA
330
261
100
AcDbEntity
  8
Geo
100
AcDbLine
 10
-29.00509152188779
 20
15.71999439482691
 30
0.0
 11
-28.9050915218878
 21
15.69749900548801
 31
0.0
  0
LINE
  5
F106FC
330
261
100
AcDbEntity
  8
Geo
100
AcDbLine
 10
-29.00509152188779
 20
15.54989679337121
 30
0.0
 11
-28.9050915218878
 21
15.52121402366982
 31
0.0
  0
LINE
  5
F106FE
330
261
100
AcDbEntity
  8
Geo
100
AcDbLine
 10
-28.9050915218878
 20
12.18395194124331
 30
0.0
 11
-28.80509152188781
 21
12.12914672885592
 31
0.0
  0
LINE
  5
F10700
330
261
100
AcDbEntity
  8
Geo
100
AcDbLine
 10
-28.9050915218878
 20
11.94266962335731
 30
0.0
 11
-28.80509152188781
 21
11.89322753303621
 31
0.0
  0
LINE
  5
F10702
330
261
100
AcDbEntity
  8
Geo
100
AcDbLine
 10
-28.9050915218878
 20
15.69749900548801
 30
0.0
 11
-28.80509152188781
 21
15.67376648035291
 31
0.0
  0
LINE
  5
F10704
330
261
100
AcDbEntity
  8
Geo
100
AcDbLine
 10
-28.9050915218878
 20
15.52121402366982
 30
0.0
 11
-28.80509152188781
 21
15.49139014811132
 31
0.0
  0
LINE
  5
F10706
330
261
100
AcDbEntity
  8
Geo
100
AcDbLine
 10
-28.80509152188781
 20
12.12914672885592
 30
0.0
 11
-28.70509152188779
 21
12.07520252755921
 31
0.0
  0
LINE
  5
F10708
330
261
100
AcDbEntity
  8
Geo
100
AcDbLine
 10
-28.80509152188781
 20
11.89322753303621
 30
0.0
 11
-28.70509152188779
 21
11.84480303142581
 31
0.0
  0
LINE
  5
F1070A
330
261
100
AcDbEntity
  8
Geo
100
AcDbLine
 10
-28.80509152188781
 20
15.67376648035291
 30
0.0
 11
-28.70509152188779
 21
15.64880974753881
 31
0.0
  0
LINE
  5
F1070C
330
261
100
AcDbEntity
  8
Geo
100
AcDbLine
 10
-28.80509152188781
 20
15.49139014811132
 30
0.0
 11
-28.70509152188779
 21
15.46044141303111
 31
0.0
  0
LINE
  5
F1070E
330
261
100
AcDbEntity
  8
Geo
100
AcDbLine
 10
-28.70509152188779
 20
12.07520252755921
 30
0.0
 11
-28.6050915218878
 21
12.02215513967372
 31
0.0
  0
LINE
  5
F10710
330
261
100
AcDbEntity
  8
Geo
100
AcDbLine
 10
-28.70509152188779
 20
11.84480303142581
 30
0.0
 11
-28.6050915218878
 21
11.79742825746741
 31
0.0
  0
LINE
  5
F10712
330
261
100
AcDbEntity
  8
Geo
100
AcDbLine
 10
-28.70509152188779
 20
15.64880974753881
 30
0.0
 11
-28.6050915218878
 21
15.62264240204141
 31
0.0
  0
LINE
  5
F10714
330
261
100
AcDbEntity
  8
Geo
100
AcDbLine
 10
-28.70509152188779
 20
15.46044141303111
 30
0.0
 11
-28.6050915218878
 21
15.42838467752361
 31
0.0
  0
LINE
  5
F10716
330
261
100
AcDbEntity
  8
Geo
100
AcDbLine
 10
-28.6050915218878
 20
12.02215513967372
 30
0.0
 11
-28.50509152188779
 21
11.97003977231221
 31
0.0
  0
LINE
  5
F10718
330
261
100
AcDbEntity
  8
Geo
100
AcDbLine
 10
-28.6050915218878
 20
11.79742825746741
 30
0.0
 11
-28.50509152188779
 21
11.75113465340692
 31
0.0
  0
LINE
  5
F1071A
330
261
100
AcDbEntity
  8
Geo
100
AcDbLine
 10
-28.6050915218878
 20
15.62264240204141
 30
0.0
 11
-28.50509152188779
 21
15.59527869832832
 31
0.0
  0
LINE
  5
F1071C
330
261
100
AcDbEntity
  8
Geo
100
AcDbLine
 10
-28.6050915218878
 20
15.42838467752361
 30
0.0
 11
-28.50509152188779
 21
15.39523740425821
 31
0.0
  0
LINE
  5
F1071E
330
261
100
AcDbEntity
  8
Geo
100
AcDbLine
 10
-28.50509152188779
 20
11.97003977231221
 30
0.0
 11
-28.4050915218878
 21
11.91889101401311
 31
0.0
  0
LINE
  5
F10720
330
261
100
AcDbEntity
  8
Geo
100
AcDbLine
 10
-28.50509152188779
 20
11.75113465340692
 30
0.0
 11
-28.4050915218878
 21
11.70595294392671
 31
0.0
  0
LINE
  5
F10722
330
261
100
AcDbEntity
  8
Geo
100
AcDbLine
 10
-28.50509152188779
 20
15.59527869832832
 30
0.0
 11
-28.4050915218878
 21
15.56673354257481
 31
0.0
  0
LINE
  5
F10724
330
261
100
AcDbEntity
  8
Geo
100
AcDbLine
 10
-28.50509152188779
 20
15.39523740425821
 30
0.0
 11
-28.4050915218878
 21
15.36101764996681
 31
0.0
  0
LINE
  5
F10726
330
261
100
AcDbEntity
  8
Geo
100
AcDbLine
 10
-28.4050915218878
 20
11.91889101401311
 30
0.0
 11
-28.3050915218878
 21
11.86874281178451
 31
0.0
  0
LINE
  5
F10728
330
261
100
AcDbEntity
  8
Geo
100
AcDbLine
 10
-28.4050915218878
 20
11.70595294392671
 30
0.0
 11
-28.3050915218878
 21
11.66191311575371
 31
0.0
  0
LINE
  5
F1072A
330
261
100
AcDbEntity
  8
Geo
100
AcDbLine
 10
-28.4050915218878
 20
15.56673354257481
 30
0.0
 11
-28.3050915218878
 21
15.53702248454301
 31
0.0
  0
LINE
  5
F1072C
330
261
100
AcDbEntity
  8
Geo
100
AcDbLine
 10
-28.4050915218878
 20
15.36101764996681
 30
0.0
 11
-28.3050915218878
 21
15.32574405560721
 31
0.0
  0
LINE
  5
F1072E
330
261
100
AcDbEntity
  8
Geo
100
AcDbLine
 10
-28.3050915218878
 20
11.86874281178451
 30
0.0
 11
-28.2050915218878
 21
11.81962844857361
 31
0.0
  0
LINE
  5
F10730
330
261
100
AcDbEntity
  8
Geo
100
AcDbLine
 10
-28.3050915218878
 20
11.66191311575371
 30
0.0
 11
-28.2050915218878
 21
11.61904439775781
 31
0.0
  0
LINE
  5
F10732
330
261
100
AcDbEntity
  8
Geo
100
AcDbLine
 10
-28.3050915218878
 20
15.53702248454301
 30
0.0
 11
-28.2050915218878
 21
15.50616170911212
 31
0.0
  0
LINE
  5
F10734
330
261
100
AcDbEntity
  8
Geo
100
AcDbLine
 10
-28.3050915218878
 20
15.32574405560721
 30
0.0
 11
-28.2050915218878
 21
15.28943583620891
 31
0.0
  0
LINE
  5
F10736
330
261
100
AcDbEntity
  8
Geo
100
AcDbLine
 10
-28.2050915218878
 20
11.81962844857361
 30
0.0
 11
-28.1050915218878
 21
11.77158052117741
 31
0.0
  0
LINE
  5
F10738
330
261
100
AcDbEntity
  8
Geo
100
AcDbLine
 10
-28.2050915218878
 20
11.61904439775781
 30
0.0
 11
-28.1050915218878
 21
11.57737524155292
 31
0.0
  0
LINE
  5
F1073A
330
261
100
AcDbEntity
  8
Geo
100
AcDbLine
 10
-28.2050915218878
 20
15.50616170911212
 30
0.0
 11
-28.1050915218878
 21
15.47416802746091
 31
0.0
  0
LINE
  5
F1073C
330
261
100
AcDbEntity
  8
Geo
100
AcDbLine
 10
-28.2050915218878
 20
15.28943583620891
 30
0.0
 11
-28.1050915218878
 21
15.25211277040572
 31
0.0
  0
LINE
  5
F1073E
330
261
100
AcDbEntity
  8
Geo
100
AcDbLine
 10
-28.1050915218878
 20
11.77158052117741
 30
0.0
 11
-28.00509152188779
 21
11.72463091860791
 31
0.0
  0
LINE
  5
F10740
330
261
100
AcDbEntity
  8
Geo
100
AcDbLine
 10
-28.1050915218878
 20
11.57737524155292
 30
0.0
 11
-28.00509152188779
 21
11.53693330261341
 31
0.0
  0
LINE
  5
F10742
330
261
100
AcDbEntity
  8
Geo
100
AcDbLine
 10
-28.1050915218878
 20
15.47416802746091
 30
0.0
 11
-28.00509152188779
 21
15.44105886791091
 31
0.0
  0
LINE
  5
F10744
330
261
100
AcDbEntity
  8
Geo
100
AcDbLine
 10
-28.1050915218878
 20
15.25211277040572
 30
0.0
 11
-28.00509152188779
 21
15.21379518966141
 31
0.0
  0
LINE
  5
F10746
330
261
100
AcDbEntity
  8
Geo
100
AcDbLine
 10
-28.00509152188779
 20
11.72463091860791
 30
0.0
 11
-27.9050915218878
 21
11.67881080092831
 31
0.0
  0
LINE
  5
F10748
330
261
100
AcDbEntity
  8
Geo
100
AcDbLine
 10
-28.00509152188779
 20
11.53693330261341
 30
0.0
 11
-27.9050915218878
 21
11.49774542191981
 31
0.0
  0
LINE
  5
F1074A
330
261
100
AcDbEntity
  8
Geo
100
AcDbLine
 10
-28.00509152188779
 20
15.44105886791091
 30
0.0
 11
-27.9050915218878
 21
15.40685226643161
 31
0.0
  0
LINE
  5
F1074C
330
261
100
AcDbEntity
  8
Geo
100
AcDbLine
 10
-28.00509152188779
 20
15.21379518966141
 30
0.0
 11
-27.9050915218878
 21
15.17450396719461
 31
0.0
  0
LINE
  5
F1074E
330
261
100
AcDbEntity
  8
Geo
100
AcDbLine
 10
-27.9050915218878
 20
11.67881080092831
 30
0.0
 11
-27.80509152188781
 21
11.63415057857191
 31
0.0
  0
LINE
  5
F10750
330
261
100
AcDbEntity
  8
Geo
100
AcDbLine
 10
-27.9050915218878
 20
11.49774542191981
 30
0.0
 11
-27.80509152188781
 21
11.45983760814461
 31
0.0
  0
LINE
  5
F10752
330
261
100
AcDbEntity
  8
Geo
100
AcDbLine
 10
-27.9050915218878
 20
15.40685226643161
 30
0.0
 11
-27.80509152188781
 21
15.37156685681601
 31
0.0
  0
LINE
  5
F10754
330
261
100
AcDbEntity
  8
Geo
100
AcDbLine
 10
-27.9050915218878
 20
15.17450396719461
 30
0.0
 11
-27.80509152188781
 21
15.13426050660791
 31
0.0
  0
LINE
  5
F10756
330
261
100
AcDbEntity
  8
Geo
100
AcDbLine
 10
-27.80509152188781
 20
11.63415057857191
 30
0.0
 11
-27.70509152188779
 21
11.59067989215911
 31
0.0
  0
LINE
  5
F10758
330
261
100
AcDbEntity
  8
Geo
100
AcDbLine
 10
-27.80509152188781
 20
11.45983760814461
 30
0.0
 11
-27.70509152188779
 21
11.42323502039051
 31
0.0
  0
LINE
  5
F1075A
330
261
100
AcDbEntity
  8
Geo
100
AcDbLine
 10
-27.80509152188781
 20
15.37156685681601
 30
0.0
 11
-27.70509152188779
 21
15.33522186052991
 31
0.0
  0
LINE
  5
F1075C
330
261
100
AcDbEntity
  8
Geo
100
AcDbLine
 10
-27.80509152188781
 20
15.13426050660791
 30
0.0
 11
-27.70509152188779
 21
15.09308673022871
 31
0.0
  0
LINE
  5
F1075E
330
261
100
AcDbEntity
  8
Geo
100
AcDbLine
 10
-27.70509152188779
 20
11.59067989215911
 30
0.0
 11
-27.6050915218878
 21
11.54842759282511
 31
0.0
  0
LINE
  5
F10760
330
261
100
AcDbEntity
  8
Geo
100
AcDbLine
 10
-27.70509152188779
 20
11.42323502039051
 30
0.0
 11
-27.6050915218878
 21
11.38796195149231
 31
0.0
  0
LINE
  5
F10762
330
261
100
AcDbEntity
  8
Geo
100
AcDbLine
 10
-27.70509152188779
 20
15.33522186052991
 30
0.0
 11
-27.6050915218878
 21
15.29783707624091
 31
0.0
  0
LINE
  5
F10764
330
261
100
AcDbEntity
  8
Geo
100
AcDbLine
 10
-27.70509152188779
 20
15.09308673022871
 30
0.0
 11
-27.6050915218878
 21
15.05100506716681
 31
0.0
  0
LINE
  5
F10766
330
261
100
AcDbEntity
  8
Geo
100
AcDbLine
 10
-27.6050915218878
 20
11.54842759282511
 30
0.0
 11
-27.50509152188779
 21
11.50742172307171
 31
0.0
  0
LINE
  5
F10768
330
261
100
AcDbEntity
  8
Geo
100
AcDbLine
 10
-27.6050915218878
 20
11.38796195149231
 30
0.0
 11
-27.50509152188779
 21
11.35404181189421
 31
0.0
  0
LINE
  5
F1076A
330
261
100
AcDbEntity
  8
Geo
100
AcDbLine
 10
-27.6050915218878
 20
15.29783707624091
 30
0.0
 11
-27.50509152188779
 21
15.25943286903371
 31
0.0
  0
LINE
  5
F1076C
330
261
100
AcDbEntity
  8
Geo
100
AcDbLine
 10
-27.6050915218878
 20
15.05100506716681
 30
0.0
 11
-27.50509152188779
 21
15.00803844109682
 31
0.0
  0
LINE
  5
F1076E
330
261
100
AcDbEntity
  8
Geo
100
AcDbLine
 10
-27.50509152188779
 20
11.50742172307171
 30
0.0
 11
-27.4050915218878
 21
11.46768949815551
 31
0.0
  0
LINE
  5
F10770
330
261
100
AcDbEntity
  8
Geo
100
AcDbLine
 10
-27.50509152188779
 20
11.35404181189421
 30
0.0
 11
-27.4050915218878
 21
11.32149711411261
 31
0.0
  0
LINE
  5
F10772
330
261
100
AcDbEntity
  8
Geo
100
AcDbLine
 10
-27.50509152188779
 20
15.25943286903371
 30
0.0
 11
-27.4050915218878
 21
15.22003015931591
 31
0.0
  0
LINE
  5
F10774
330
261
100
AcDbEntity
  8
Geo
100
AcDbLine
 10
-27.50509152188779
 20
15.00803844109682
 30
0.0
 11
-27.4050915218878
 21
14.96421025777031
 31
0.0
  0
LINE
  5
F10776
330
261
100
AcDbEntity
  8
Geo
100
AcDbLine
 10
-27.4050915218878
 20
11.46768949815551
 30
0.0
 11
-27.3050915218878
 21
11.42925728802591
 31
0.0
  0
LINE
  5
F10778
330
261
100
AcDbEntity
  8
Geo
100
AcDbLine
 10
-27.4050915218878
 20
11.32149711411261
 30
0.0
 11
-27.3050915218878
 21
11.29034945779421
 31
0.0
  0
LINE
  5
F1077A
330
261
100
AcDbEntity
  8
Geo
100
AcDbLine
 10
-27.4050915218878
 20
15.22003015931591
 30
0.0
 11
-27.3050915218878
 21
15.17965041142211
 31
0.0
  0
LINE
  5
F1077C
330
261
100
AcDbEntity
  8
Geo
100
AcDbLine
 10
-27.4050915218878
 20
14.96421025777031
 30
0.0
 11
-27.3050915218878
 21
14.91954439226581
 31
0.0
  0
LINE
  5
F1077E
330
261
100
AcDbEntity
  8
Geo
100
AcDbLine
 10
-27.3050915218878
 20
11.42925728802591
 30
0.0
 11
-27.2050915218878
 21
11.39215059982301
 31
0.0
  0
LINE
  5
F10780
330
261
100
AcDbEntity
  8
Geo
100
AcDbLine
 10
-27.3050915218878
 20
11.29034945779421
 30
0.0
 11
-27.2050915218878
 21
11.26061951538101
 31
0.0
  0
LINE
  5
F10782
330
261
100
AcDbEntity
  8
Geo
100
AcDbLine
 10
-27.3050915218878
 20
15.17965041142211
 30
0.0
 11
-27.2050915218878
 21
15.1383156219209
 31
0.0
  0
LINE
  5
F10784
330
261
100
AcDbEntity
  8
Geo
100
AcDbLine
 10
-27.3050915218878
 20
14.91954439226581
 30
0.0
 11
-27.2050915218878
 21
14.87406517598282
 31
0.0
  0
LINE
  5
F10786
330
261
100
AcDbEntity
  8
Geo
100
AcDbLine
 10
-27.2050915218878
 20
11.39215059982301
 30
0.0
 11
-27.1050915218878
 21
11.35639406094901
 31
0.0
  0
LINE
  5
F10788
330
261
100
AcDbEntity
  8
Geo
100
AcDbLine
 10
-27.2050915218878
 20
11.26061951538101
 30
0.0
 11
-27.1050915218878
 21
11.23232701839022
 31
0.0
  0
LINE
  5
F1078A
330
261
100
AcDbEntity
  8
Geo
100
AcDbLine
 10
-27.2050915218878
 20
15.1383156219209
 30
0.0
 11
-27.1050915218878
 21
15.09604830763311
 31
0.0
  0
LINE
  5
F1078C
330
261
100
AcDbEntity
  8
Geo
100
AcDbLine
 10
-27.2050915218878
 20
14.87406517598282
 30
0.0
 11
-27.1050915218878
 21
14.82779738338801
 31
0.0
  0
LINE
  5
F1078E
330
261
100
AcDbEntity
  8
Geo
100
AcDbLine
 10
-27.1050915218878
 20
11.35639406094901
 30
0.0
 11
-27.00509152188779
 21
11.32201140272311
 31
0.0
  0
LINE
  5
F10790
330
261
100
AcDbEntity
  8
Geo
100
AcDbLine
 10
-27.1050915218878
 20
11.23232701839022
 30
0.0
 11
-27.00509152188779
 21
11.20549074431801
 31
0.0
  0
LINE
  5
F10792
330
261
100
AcDbEntity
  8
Geo
100
AcDbLine
 10
-27.1050915218878
 20
15.09604830763311
 30
0.0
 11
-27.00509152188779
 21
15.05287149336531
 31
0.0
  0
LINE
  5
F10794
330
261
100
AcDbEntity
  8
Geo
100
AcDbLine
 10
-27.1050915218878
 20
14.82779738338801
 30
0.0
 11
-27.00509152188779
 21
14.78076621851881
 31
0.0
  0
LINE
  5
F10796
330
261
100
AcDbEntity
  8
Geo
100
AcDbLine
 10
-27.00509152188779
 20
11.32201140272311
 30
0.0
 11
-26.9050915218878
 21
11.28902544463141
 31
0.0
  0
LINE
  5
F10798
330
261
100
AcDbEntity
  8
Geo
100
AcDbLine
 10
-27.00509152188779
 20
11.20549074431801
 30
0.0
 11
-26.9050915218878
 21
11.18012850417771
 31
0.0
  0
LINE
  5
F1079A
330
261
100
AcDbEntity
  8
Geo
100
AcDbLine
 10
-27.00509152188779
 20
15.05287149336531
 30
0.0
 11
-26.9050915218878
 21
15.00880869936761
 31
0.0
  0
LINE
  5
F1079C
330
261
100
AcDbEntity
  8
Geo
100
AcDbLine
 10
-27.00509152188779
 20
14.78076621851881
 30
0.0
 11
-26.9050915218878
 21
14.73299730125421
 31
0.0
  0
LINE
  5
F1079E
330
261
100
AcDbEntity
  8
Geo
100
AcDbLine
 10
-26.9050915218878
 20
11.28902544463141
 30
0.0
 11
-26.8050915218878
 21
11.25745807918161
 31
0.0
  0
LINE
  5
F107A0
330
261
100
AcDbEntity
  8
Geo
100
AcDbLine
 10
-26.9050915218878
 20
11.18012850417771
 30
0.0
 11
-26.8050915218878
 21
11.15625713067831
 31
0.0
  0
LINE
  5
F107A2
330
261
100
AcDbEntity
  8
Geo
100
AcDbLine
 10
-26.9050915218878
 20
15.00880869936761
 30
0.0
 11
-26.8050915218878
 21
14.96388392852082
 31
0.0
  0
LINE
  5
F107A4
330
261
100
AcDbEntity
  8
Geo
100
AcDbLine
 10
-26.9050915218878
 20
14.73299730125421
 30
0.0
 11
-26.8050915218878
 21
14.68451665335851
 31
0.0
  0
LINE
  5
F107A6
330
261
100
AcDbEntity
  8
Geo
100
AcDbLine
 10
-26.8050915218878
 20
11.25745807918161
 30
0.0
 11
-26.7050915218878
 21
11.22733025737311
 31
0.0
  0
LINE
  5
F107A8
330
261
100
AcDbEntity
  8
Geo
100
AcDbLine
 10
-26.8050915218878
 20
11.15625713067831
 30
0.0
 11
-26.7050915218878
 21
11.13389246705331
 31
0.0
  0
LINE
  5
F107AA
330
261
100
AcDbEntity
  8
Geo
100
AcDbLine
 10
-26.8050915218878
 20
14.96388392852082
 30
0.0
 11
-26.7050915218878
 21
14.9181216532614
 31
0.0
  0
LINE
  5
F107AC
330
261
100
AcDbEntity
  8
Geo
100
AcDbLine
 10
-26.8050915218878
 20
14.68451665335851
 30
0.0
 11
-26.7050915218878
 21
14.63535068430581
 31
0.0
  0
LINE
  5
F107AE
330
261
100
AcDbEntity
  8
Geo
100
AcDbLine
 10
-26.7050915218878
 20
11.22733025737311
 30
0.0
 11
-26.6050915218878
 21
11.19866197479221
 31
0.0
  0
LINE
  5
F107B0
330
261
100
AcDbEntity
  8
Geo
100
AcDbLine
 10
-26.7050915218878
 20
11.13389246705331
 30
0.0
 11
-26.6050915218878
 21
11.11304935654481
 31
0.0
  0
LINE
  5
F107B2
330
261
100
AcDbEntity
  8
Geo
100
AcDbLine
 10
-26.7050915218878
 20
14.9181216532614
 30
0.0
 11
-26.6050915218878
 21
14.87154680225021
 31
0.0
  0
LINE
  5
F107B4
330
261
100
AcDbEntity
  8
Geo
100
AcDbLine
 10
-26.7050915218878
 20
14.63535068430581
 30
0.0
 11
-26.6050915218878
 21
14.58552617689372
 31
0.0
  0
LINE
  5
F107B6
330
261
100
AcDbEntity
  8
Geo
100
AcDbLine
 10
-26.6050915218878
 20
11.19866197479221
 30
0.0
 11
-26.50509152188779
 21
11.17147225834111
 31
0.0
  0
LINE
  5
F107B8
330
261
100
AcDbEntity
  8
Geo
100
AcDbLine
 10
-26.6050915218878
 20
11.11304935654481
 30
0.0
 11
-26.50509152188779
 21
11.09374163255311
 31
0.0
  0
LINE
  5
F107BA
330
261
100
AcDbEntity
  8
Geo
100
AcDbLine
 10
-26.6050915218878
 20
14.87154680225021
 30
0.0
 11
-26.50509152188779
 21
14.82418474679251
 31
0.0
  0
LINE
  5
F107BC
330
261
100
AcDbEntity
  8
Geo
100
AcDbLine
 10
-26.6050915218878
 20
14.58552617689372
 30
0.0
 11
-26.50509152188779
 21
14.53507027265401
 31
0.0
  0
LINE
  5
F107BE
330
261
100
AcDbEntity
  8
Geo
100
AcDbLine
 10
-26.50509152188779
 20
11.17147225834111
 30
0.0
 11
-26.4050915218878
 21
11.14577915360981
 31
0.0
  0
LINE
  5
F107C0
330
261
100
AcDbEntity
  8
Geo
100
AcDbLine
 10
-26.50509152188779
 20
11.09374163255311
 30
0.0
 11
-26.4050915218878
 21
11.07598210945491
 31
0.0
  0
LINE
  5
F107C2
330
261
100
AcDbEntity
  8
Geo
100
AcDbLine
 10
-26.50509152188779
 20
14.82418474679251
 30
0.0
 11
-26.4050915218878
 21
14.77606128701761
 31
0.0
  0
LINE
  5
F107C4
330
261
100
AcDbEntity
  8
Geo
100
AcDbLine
 10
-26.50509152188779
 20
14.53507027265401
 30
0.0
 11
-26.4050915218878
 21
14.48401045706711
 31
0.0
  0
LINE
  5
F107C6
330
261
100
AcDbEntity
  8
Geo
100
AcDbLine
 10
-26.4050915218878
 20
11.14577915360981
 30
0.0
 11
-26.30509152188781
 21
11.12159971289951
 31
0.0
  0
LINE
  5
F107C8
330
261
100
AcDbEntity
  8
Geo
100
AcDbLine
 10
-26.4050915218878
 20
11.07598210945491
 30
0.0
 11
-26.30509152188781
 21
11.05978257409901
 31
0.0
  0
LINE
  5
F107CA
330
261
100
AcDbEntity
  8
Geo
100
AcDbLine
 10
-26.4050915218878
 20
14.77606128701761
 30
0.0
 11
-26.30509152188781
 21
14.72720263782391
 31
0.0
  0
LINE
  5
F107CC
330
261
100
AcDbEntity
  8
Geo
100
AcDbLine
 10
-26.4050915218878
 20
14.48401045706711
 30
0.0
 11
-26.30509152188781
 21
14.43237454458962
 31
0.0
  0
LINE
  5
F107CE
330
261
100
AcDbEntity
  8
Geo
100
AcDbLine
 10
-26.30509152188781
 20
11.12159971289951
 30
0.0
 11
-26.20509152188779
 21
11.09894998390511
 31
0.0
  0
LINE
  5
F107D0
330
261
100
AcDbEntity
  8
Geo
100
AcDbLine
 10
-26.30509152188781
 20
11.05978257409901
 30
0.0
 11
-26.20509152188779
 21
11.04515377798301
 31
0.0
  0
LINE
  5
F107D2
330
261
100
AcDbEntity
  8
Geo
100
AcDbLine
 10
-26.30509152188781
 20
14.72720263782391
 30
0.0
 11
-26.20509152188779
 21
14.67763541459901
 31
0.0
  0
LINE
  5
F107D4
330
261
100
AcDbEntity
  8
Geo
100
AcDbLine
 10
-26.30509152188781
 20
14.43237454458962
 30
0.0
 11
-26.20509152188779
 21
14.38019066350272
 31
0.0
  0
LINE
  5
F107D6
330
261
100
AcDbEntity
  8
Geo
100
AcDbLine
 10
-26.20509152188779
 20
11.09894998390511
 30
0.0
 11
-26.1050915218878
 21
11.07784499906451
 31
0.0
  0
LINE
  5
F107D8
330
261
100
AcDbEntity
  8
Geo
100
AcDbLine
 10
-26.20509152188779
 20
11.04515377798301
 30
0.0
 11
-26.1050915218878
 21
11.03210543011791
 31
0.0
  0
LINE
  5
F107DA
330
261
100
AcDbEntity
  8
Geo
100
AcDbLine
 10
-26.20509152188779
 20
14.67763541459901
 30
0.0
 11
-26.1050915218878
 21
14.62738661872101
 31
0.0
  0
LINE
  5
F107DC
330
261
100
AcDbEntity
  8
Geo
100
AcDbLine
 10
-26.20509152188779
 20
14.38019066350272
 30
0.0
 11
-26.1050915218878
 21
14.32748724058941
 31
0.0
  0
LINE
  5
F107DE
330
261
100
AcDbEntity
  8
Geo
100
AcDbLine
 10
-26.1050915218878
 20
11.07784499906451
 30
0.0
 11
-26.00509152188779
 21
11.05829876558171
 31
0.0
  0
LINE
  5
F107E0
330
261
100
AcDbEntity
  8
Geo
100
AcDbLine
 10
-26.1050915218878
 20
11.03210543011791
 30
0.0
 11
-26.00509152188779
 21
11.02064619058431
 31
0.0
  0
LINE
  5
F107E2
330
261
100
AcDbEntity
  8
Geo
100
AcDbLine
 10
-26.1050915218878
 20
14.62738661872101
 30
0.0
 11
-26.00509152188779
 21
14.57648362284951
 31
0.0
  0
LINE
  5
F107E4
330
261
100
AcDbEntity
  8
Geo
100
AcDbLine
 10
-26.1050915218878
 20
14.32748724058941
 30
0.0
 11
-26.00509152188779
 21
14.27429298564932
 31
0.0
  0
LINE
  5
F107E6
330
261
100
AcDbEntity
  8
Geo
100
AcDbLine
 10
-26.00509152188779
 20
11.05829876558171
 30
0.0
 11
-25.9050915218878
 21
11.04032425613031
 31
0.0
  0
LINE
  5
F107E8
330
261
100
AcDbEntity
  8
Geo
100
AcDbLine
 10
-26.00509152188779
 20
11.02064619058431
 30
0.0
 11
-25.9050915218878
 21
11.01078366478491
 31
0.0
  0
LINE
  5
F107EA
330
261
100
AcDbEntity
  8
Geo
100
AcDbLine
 10
-26.00509152188779
 20
14.57648362284951
 30
0.0
 11
-25.9050915218878
 21
14.52495415601471
 31
0.0
  0
LINE
  5
F107EC
330
261
100
AcDbEntity
  8
Geo
100
AcDbLine
 10
-26.00509152188779
 20
14.27429298564932
 30
0.0
 11
-25.9050915218878
 21
14.22063687585911
 31
0.0
  0
LINE
  5
F107EE
330
261
100
AcDbEntity
  8
Geo
100
AcDbLine
 10
-25.9050915218878
 20
11.04032425613031
 30
0.0
 11
-25.8050915218878
 21
11.02393340024351
 31
0.0
  0
LINE
  5
F107F0
330
261
100
AcDbEntity
  8
Geo
100
AcDbLine
 10
-25.9050915218878
 20
11.01078366478491
 30
0.0
 11
-25.8050915218878
 21
11.00252439839651
 31
0.0
  0
LINE
  5
F107F2
330
261
100
AcDbEntity
  8
Geo
100
AcDbLine
 10
-25.9050915218878
 20
14.52495415601471
 30
0.0
 11
-25.8050915218878
 21
14.47282628851241
 31
0.0
  0
LINE
  5
F107F4
330
261
100
AcDbEntity
  8
Geo
100
AcDbLine
 10
-25.9050915218878
 20
14.22063687585911
 30
0.0
 11
-25.8050915218878
 21
14.16654813998741
 31
0.0
  0
LINE
  5
F107F6
330
261
100
AcDbEntity
  8
Geo
100
AcDbLine
 10
-25.8050915218878
 20
11.02393340024351
 30
0.0
 11
-25.7050915218878
 21
11.00913707639701
 31
0.0
  0
LINE
  5
F107F8
330
261
100
AcDbEntity
  8
Geo
100
AcDbLine
 10
-25.8050915218878
 20
11.00252439839651
 30
0.0
 11
-25.7050915218878
 21
10.99587387302581
 31
0.0
  0
LINE
  5
F107FA
330
261
100
AcDbEntity
  8
Geo
100
AcDbLine
 10
-25.8050915218878
 20
14.47282628851241
 30
0.0
 11
-25.7050915218878
 21
14.42012841661251
 31
0.0
  0
LINE
  5
F107FC
330
261
100
AcDbEntity
  8
Geo
100
AcDbLine
 10
-25.8050915218878
 20
14.16654813998741
 30
0.0
 11
-25.7050915218878
 21
14.11205624247291
 31
0.0
  0
LINE
  5
F107FE
330
261
100
AcDbEntity
  8
Geo
100
AcDbLine
 10
-25.7050915218878
 20
11.00913707639701
 30
0.0
 11
-25.6050915218878
 21
10.99594510478851
 31
0.0
  0
LINE
  5
F10800
330
261
100
AcDbEntity
  8
Geo
100
AcDbLine
 10
-25.7050915218878
 20
10.99587387302581
 30
0.0
 11
-25.6050915218878
 21
10.99083650257161
 31
0.0
  0
LINE
  5
F10802
330
261
100
AcDbEntity
  8
Geo
100
AcDbLine
 10
-25.7050915218878
 20
14.42012841661251
 30
0.0
 11
-25.6050915218878
 21
14.36688924709091
 31
0.0
  0
LINE
  5
F10804
330
261
100
AcDbEntity
  8
Geo
100
AcDbLine
 10
-25.7050915218878
 20
14.11205624247291
 30
0.0
 11
-25.6050915218878
 21
14.05719086737332
 31
0.0
  0
LINE
  5
F10806
330
261
100
AcDbEntity
  8
Geo
100
AcDbLine
 10
-25.6050915218878
 20
10.99594510478851
 30
0.0
 11
-25.50509152188779
 21
10.98436624082061
 31
0.0
  0
LINE
  5
F10808
330
261
100
AcDbEntity
  8
Geo
100
AcDbLine
 10
-25.6050915218878
 20
10.99083650257161
 30
0.0
 11
-25.50509152188779
 21
10.987415630295
 31
0.0
  0
LINE
  5
F1080A
330
261
100
AcDbEntity
  8
Geo
100
AcDbLine
 10
-25.6050915218878
 20
14.36688924709091
 30
0.0
 11
-25.50509152188779
 21
14.31313778159091
 31
0.0
  0
LINE
  5
F1080C
330
261
100
AcDbEntity
  8
Geo
100
AcDbLine
 10
-25.6050915218878
 20
14.05719086737332
 30
0.0
 11
-25.50509152188779
 21
14.00198190219582
 31
0.0
  0
LINE
  5
F1080E
330
261
100
AcDbEntity
  8
Geo
100
AcDbLine
 10
-25.50509152188779
 20
10.98436624082061
 30
0.0
 11
-25.4050915218878
 21
10.97440816928961
 31
0.0
  0
LINE
  5
F10810
330
261
100
AcDbEntity
  8
Geo
100
AcDbLine
 10
-25.50509152188779
 20
10.987415630295
 30
0.0
 11
-25.4050915218878
 21
10.98561352660061
 31
0.0
  0
LINE
  5
F10812
330
261
100
AcDbEntity
  8
Geo
100
AcDbLine
 10
-25.50509152188779
 20
14.31313778159091
 30
0.0
 11
-25.4050915218878
 21
14.25890330082582
 31
0.0
  0
LINE
  5
F10814
330
261
100
AcDbEntity
  8
Geo
100
AcDbLine
 10
-25.50509152188779
 20
14.00198190219582
 30
0.0
 11
-25.4050915218878
 21
13.94645942161551
 31
0.0
  0
LINE
  5
F10816
330
261
100
AcDbEntity
  8
Geo
100
AcDbLine
 10
-25.4050915218878
 20
10.97440816928961
 30
0.0
 11
-25.30509152188781
 21
10.96607749928511
 31
0.0
  0
LINE
  5
F10818
330
261
100
AcDbEntity
  8
Geo
100
AcDbLine
 10
-25.4050915218878
 20
14.25890330082582
 30
0.0
 11
-25.30509152188781
 21
14.20421534862741
 31
0.0
  0
LINE
  5
F1081A
330
261
100
AcDbEntity
  8
Geo
100
AcDbLine
 10
-25.4050915218878
 20
13.94645942161551
 30
0.0
 11
-25.30509152188781
 21
13.89065367109282
 31
0.0
  0
LINE
  5
F1081C
330
261
100
AcDbEntity
  8
Geo
100
AcDbLine
 10
-25.30509152188781
 20
10.96607749928511
 30
0.0
 11
-25.20509152188779
 21
10.95937975980401
 31
0.0
  0
LINE
  5
F1081E
330
261
100
AcDbEntity
  8
Geo
100
AcDbLine
 10
-25.30509152188781
 20
15.86747353745631
 30
0.0
 11
-25.20509152188779
 21
15.86603559101931
 31
0.0
  0
LINE
  5
F10820
330
261
100
AcDbEntity
  8
Geo
100
AcDbLine
 10
-25.30509152188781
 20
14.20421534862741
 30
0.0
 11
-25.20509152188779
 21
14.14910371585301
 31
0.0
  0
LINE
  5
F10822
330
261
100
AcDbEntity
  8
Geo
100
AcDbLine
 10
-25.30509152188781
 20
13.89065367109282
 30
0.0
 11
-25.20509152188779
 21
13.83459505039721
 31
0.0
  0
LINE
  5
F10824
330
261
100
AcDbEntity
  8
Geo
100
AcDbLine
 10
-25.20509152188779
 20
10.95937975980401
 30
0.0
 11
-25.1050915218878
 21
10.95431939608071
 31
0.0
  0
LINE
  5
F10826
330
261
100
AcDbEntity
  8
Geo
100
AcDbLine
 10
-25.20509152188779
 20
15.86603559101931
 30
0.0
 11
-25.1050915218878
 21
15.86297851342771
 31
0.0
  0
LINE
  5
F10828
330
261
100
AcDbEntity
  8
Geo
100
AcDbLine
 10
-25.20509152188779
 20
14.14910371585301
 30
0.0
 11
-25.1050915218878
 21
14.09359842415671
 31
0.0
  0
LINE
  5
F1082A
330
261
100
AcDbEntity
  8
Geo
100
AcDbLine
 10
-25.20509152188779
 20
13.83459505039721
 30
0.0
 11
-25.1050915218878
 21
13.77831409704751
 31
0.0
  0
LINE
  5
F1082C
330
261
100
AcDbEntity
  8
Geo
100
AcDbLine
 10
-25.1050915218878
 20
10.95431939608071
 30
0.0
 11
-25.00509152188779
 21
10.95089976663671
 31
0.0
  0
LINE
  5
F1082E
330
261
100
AcDbEntity
  8
Geo
100
AcDbLine
 10
-25.1050915218878
 20
15.86297851342771
 30
0.0
 11
-25.00509152188779
 21
15.85830433363851
 31
0.0
  0
LINE
  5
F10830
330
261
100
AcDbEntity
  8
Geo
100
AcDbLine
 10
-25.1050915218878
 20
14.09359842415671
 30
0.0
 11
-25.00509152188779
 21
14.03772970963531
 31
0.0
  0
LINE
  5
F10832
330
261
100
AcDbEntity
  8
Geo
100
AcDbLine
 10
-25.1050915218878
 20
13.77831409704751
 30
0.0
 11
-25.00509152188779
 21
13.72184146967661
 31
0.0
  0
LINE
  5
F10834
330
261
100
AcDbEntity
  8
Geo
100
AcDbLine
 10
-25.00509152188779
 20
10.95089976663671
 30
0.0
 11
-24.9050915218878
 21
10.94912314105171
 31
0.0
  0
LINE
  5
F10836
330
261
100
AcDbEntity
  8
Geo
100
AcDbLine
 10
-25.00509152188779
 20
15.85830433363851
 30
0.0
 11
-24.9050915218878
 21
15.85201615386641
 31
0.0
  0
LINE
  5
F10838
330
261
100
AcDbEntity
  8
Geo
100
AcDbLine
 10
-25.00509152188779
 20
14.03772970963531
 30
0.0
 11
-24.9050915218878
 21
13.98152800635761
 31
0.0
  0
LINE
  5
F1083A
330
261
100
AcDbEntity
  8
Geo
100
AcDbLine
 10
-25.00509152188779
 20
13.72184146967661
 30
0.0
 11
-24.9050915218878
 21
13.66520793133011
 31
0.0
  0
LINE
  5
F1083C
330
261
100
AcDbEntity
  8
Geo
100
AcDbLine
 10
-24.9050915218878
 20
15.85201615386641
 30
0.0
 11
-24.8050915218878
 21
15.84411814752422
 31
0.0
  0
LINE
  5
F1083E
330
261
100
AcDbEntity
  8
Geo
100
AcDbLine
 10
-24.9050915218878
 20
13.98152800635761
 30
0.0
 11
-24.8050915218878
 21
13.9250239297854
 31
0.0
  0
LINE
  5
F10840
330
261
100
AcDbEntity
  8
Geo
100
AcDbLine
 10
-24.9050915218878
 20
13.66520793133011
 30
0.0
 11
-24.8050915218878
 21
13.60844433270901
 31
0.0
  0
LINE
  5
F10842
330
261
100
AcDbEntity
  8
Geo
100
AcDbLine
 10
-24.8050915218878
 20
15.90391422652861
 30
0.0
 11
-24.7050915218878
 21
15.90240239823081
 31
0.0
  0
LINE
  5
F10844
330
261
100
AcDbEntity
  8
Geo
100
AcDbLine
 10
-24.8050915218878
 20
15.84411814752422
 30
0.0
 11
-24.7050915218878
 21
15.83461555645341
 31
0.0
  0
LINE
  5
F10846
330
261
100
AcDbEntity
  8
Geo
100
AcDbLine
 10
-24.8050915218878
 20
13.9250239297854
 30
0.0
 11
-24.7050915218878
 21
13.86824826009641
 31
0.0
  0
LINE
  5
F10848
330
261
100
AcDbEntity
  8
Geo
100
AcDbLine
 10
-24.8050915218878
 20
13.60844433270901
 30
0.0
 11
-24.7050915218878
 21
13.55158159536351
 31
0.0
  0
LINE
  5
F1084A
330
261
100
AcDbEntity
  8
Geo
100
AcDbLine
 10
-24.7050915218878
 20
15.90240239823081
 30
0.0
 11
-24.6050915218878
 21
15.89924730242921
 31
0.0
  0
LINE
  5
F1084C
330
261
100
AcDbEntity
  8
Geo
100
AcDbLine
 10
-24.7050915218878
 20
15.83461555645341
 30
0.0
 11
-24.6050915218878
 21
15.82351468744521
 31
0.0
  0
LINE
  5
F1084E
330
261
100
AcDbEntity
  8
Geo
100
AcDbLine
 10
-24.7050915218878
 20
13.86824826009641
 30
0.0
 11
-24.6050915218878
 21
13.81123192541641
 31
0.0
  0
LINE
  5
F10850
330
261
100
AcDbEntity
  8
Geo
100
AcDbLine
 10
-24.7050915218878
 20
13.55158159536351
 30
0.0
 11
-24.6050915218878
 21
13.49465069484901
 31
0.0
  0
LINE
  5
F10852
330
261
100
AcDbEntity
  8
Geo
100
AcDbLine
 10
-24.6050915218878
 20
15.89924730242921
 30
0.0
 11
-24.50509152188779
 21
15.89445103313461
 31
0.0
  0
LINE
  5
F10854
330
261
100
AcDbEntity
  8
Geo
100
AcDbLine
 10
-24.6050915218878
 20
15.82351468744521
 30
0.0
 11
-24.50509152188779
 21
15.81082290805461
 31
0.0
  0
LINE
  5
F10856
330
261
100
AcDbEntity
  8
Geo
100
AcDbLine
 10
-24.6050915218878
 20
13.81123192541641
 30
0.0
 11
-24.50509152188779
 21
13.75400598497172
 31
0.0
  0
LINE
  5
F10858
330
261
100
AcDbEntity
  8
Geo
100
AcDbLine
 10
-24.6050915218878
 20
13.49465069484901
 30
0.0
 11
-24.50509152188779
 21
13.43768264385222
 31
0.0
  0
LINE
  5
F1085A
330
261
100
AcDbEntity
  8
Geo
100
AcDbLine
 10
-24.50509152188779
 20
15.89445103313461
 30
0.0
 11
-24.4050915218878
 21
15.88801677359132
 31
0.0
  0
LINE
  5
F1085C
330
261
100
AcDbEntity
  8
Geo
100
AcDbLine
 10
-24.50509152188779
 20
15.81082290805461
 30
0.0
 11
-24.4050915218878
 21
15.79654864171062
 31
0.0
  0
LINE
  5
F1085E
330
261
100
AcDbEntity
  8
Geo
100
AcDbLine
 10
-24.50509152188779
 20
13.75400598497172
 30
0.0
 11
-24.4050915218878
 21
13.69660161216982
 31
0.0
  0
LINE
  5
F10860
330
261
100
AcDbEntity
  8
Geo
100
AcDbLine
 10
-24.50509152188779
 20
13.43768264385222
 30
0.0
 11
-24.4050915218878
 21
13.38070847529711
 31
0.0
  0
LINE
  5
F10862
330
261
100
AcDbEntity
  8
Geo
100
AcDbLine
 10
-24.4050915218878
 20
15.88801677359132
 30
0.0
 11
-24.3050915218878
 21
15.87994879416432
 31
0.0
  0
LINE
  5
F10864
330
261
100
AcDbEntity
  8
Geo
100
AcDbLine
 10
-24.4050915218878
 20
15.79654864171062
 30
0.0
 11
-24.3050915218878
 21
15.78070136212581
 31
0.0
  0
LINE
  5
F10866
330
261
100
AcDbEntity
  8
Geo
100
AcDbLine
 10
-24.4050915218878
 20
13.69660161216982
 30
0.0
 11
-24.3050915218878
 21
13.63905007761801
 31
0.0
  0
LINE
  5
F10868
330
261
100
AcDbEntity
  8
Geo
100
AcDbLine
 10
-24.4050915218878
 20
13.38070847529711
 30
0.0
 11
-24.3050915218878
 21
13.32375922544061
 31
0.0
  0
LINE
  5
F1086A
330
261
100
AcDbEntity
  8
Geo
100
AcDbLine
 10
-24.3050915218878
 20
15.87994879416432
 30
0.0
 11
-24.2050915218878
 21
15.87025244950482
 31
0.0
  0
LINE
  5
F1086C
330
261
100
AcDbEntity
  8
Geo
100
AcDbLine
 10
-24.3050915218878
 20
15.78070136212581
 30
0.0
 11
-24.2050915218878
 21
15.76329158700861
 31
0.0
  0
LINE
  5
F1086E
330
261
100
AcDbEntity
  8
Geo
100
AcDbLine
 10
-24.3050915218878
 20
13.63905007761801
 30
0.0
 11
-24.2050915218878
 21
13.58138273208881
 31
0.0
  0
LINE
  5
F10870
330
261
100
AcDbEntity
  8
Geo
100
AcDbLine
 10
-24.3050915218878
 20
13.32375922544061
 30
0.0
 11
-24.2050915218878
 21
13.26686591696481
 31
0.0
  0
LINE
  5
F10872
330
261
100
AcDbEntity
  8
Geo
100
AcDbLine
 10
-24.2050915218878
 20
15.87025244950482
 30
0.0
 11
-24.1050915218878
 21
15.85893417499651
 31
0.0
  0
LINE
  5
F10874
330
261
100
AcDbEntity
  8
Geo
100
AcDbLine
 10
-24.2050915218878
 20
15.76329158700861
 30
0.0
 11
-24.1050915218878
 21
15.74433087108291
 31
0.0
  0
LINE
  5
F10876
330
261
100
AcDbEntity
  8
Geo
100
AcDbLine
 10
-24.2050915218878
 20
13.58138273208881
 30
0.0
 11
-24.1050915218878
 21
13.52363098944191
 31
0.0
  0
LINE
  5
F10878
330
261
100
AcDbEntity
  8
Geo
100
AcDbLine
 10
-24.2050915218878
 20
13.26686591696481
 30
0.0
 11
-24.1050915218878
 21
13.21005954207871
 31
0.0
  0
LINE
  5
F1087A
330
261
100
AcDbEntity
  8
Geo
100
AcDbLine
 10
-24.1050915218878
 20
15.85893417499651
 30
0.0
 11
-24.00509152188779
 21
15.84600148248482
 31
0.0
  0
LINE
  5
F1087C
330
261
100
AcDbEntity
  8
Geo
100
AcDbLine
 10
-24.1050915218878
 20
15.74433087108291
 30
0.0
 11
-24.00509152188779
 21
15.72383179841921
 31
0.0
  0
LINE
  5
F1087E
330
261
100
AcDbEntity
  8
Geo
100
AcDbLine
 10
-24.1050915218878
 20
13.52363098944191
 30
0.0
 11
-24.00509152188779
 21
13.46582630951161
 31
0.0
  0
LINE
  5
F10880
330
261
100
AcDbEntity
  8
Geo
100
AcDbLine
 10
-24.1050915218878
 20
13.21005954207871
 30
0.0
 11
-24.00509152188779
 21
13.15337104563451
 31
0.0
  0
LINE
  5
F10882
330
261
100
AcDbEntity
  8
Geo
100
AcDbLine
 10
-24.00509152188779
 20
15.84600148248482
 30
0.0
 11
-23.9050915218878
 21
15.83146295529061
 31
0.0
  0
LINE
  5
F10884
330
261
100
AcDbEntity
  8
Geo
100
AcDbLine
 10
-24.00509152188779
 20
15.72383179841921
 30
0.0
 11
-23.9050915218878
 21
15.70180797408232
 31
0.0
  0
LINE
  5
F10886
330
261
100
AcDbEntity
  8
Geo
100
AcDbLine
 10
-24.00509152188779
 20
13.46582630951161
 30
0.0
 11
-23.9050915218878
 21
13.40800018096961
 31
0.0
  0
LINE
  5
F10888
330
261
100
AcDbEntity
  8
Geo
100
AcDbLine
 10
-24.00509152188779
 20
13.15337104563451
 30
0.0
 11
-23.9050915218878
 21
13.09683130827101
 31
0.0
  0
LINE
  5
F1088A
330
261
100
AcDbEntity
  8
Geo
100
AcDbLine
 10
-23.9050915218878
 20
15.83146295529061
 30
0.0
 11
-23.8050915218878
 21
15.81532824251431
 31
0.0
  0
LINE
  5
F1088C
330
261
100
AcDbEntity
  8
Geo
100
AcDbLine
 10
-23.9050915218878
 20
15.70180797408232
 30
0.0
 11
-23.8050915218878
 21
15.67827401510261
 31
0.0
  0
LINE
  5
F1088E
330
261
100
AcDbEntity
  8
Geo
100
AcDbLine
 10
-23.9050915218878
 20
13.40800018096961
 30
0.0
 11
-23.8050915218878
 21
13.35018410417141
 31
0.0
  0
LINE
  5
F10890
330
261
100
AcDbEntity
  8
Geo
100
AcDbLine
 10
-23.9050915218878
 20
13.09683130827101
 30
0.0
 11
-23.8050915218878
 21
13.04047112959171
 31
0.0
  0
LINE
  5
F10892
330
261
100
AcDbEntity
  8
Geo
100
AcDbLine
 10
-23.8050915218878
 20
15.81532824251431
 30
0.0
 11
-23.70509152188779
 21
15.79760805263141
 31
0.0
  0
LINE
  5
F10894
330
261
100
AcDbEntity
  8
Geo
100
AcDbLine
 10
-23.8050915218878
 20
15.67827401510261
 30
0.0
 11
-23.70509152188779
 21
15.65324554077391
 31
0.0
  0
LINE
  5
F10896
330
261
100
AcDbEntity
  8
Geo
100
AcDbLine
 10
-23.8050915218878
 20
13.35018410417141
 30
0.0
 11
-23.70509152188779
 21
13.29240957399691
 31
0.0
  0
LINE
  5
F10898
330
261
100
AcDbEntity
  8
Geo
100
AcDbLine
 10
-23.8050915218878
 20
13.04047112959171
 30
0.0
 11
-23.70509152188779
 21
12.98432121138691
 31
0.0
  0
LINE
  5
F1089A
330
261
100
AcDbEntity
  8
Geo
100
AcDbLine
 10
-23.70509152188779
 20
15.79760805263141
 30
0.0
 11
-23.6050915218878
 21
15.77831414638551
 31
0.0
  0
LINE
  5
F1089C
330
261
100
AcDbEntity
  8
Geo
100
AcDbLine
 10
-23.70509152188779
 20
15.65324554077391
 30
0.0
 11
-23.6050915218878
 21
15.62673916228791
 31
0.0
  0
LINE
  5
F1089E
330
261
100
AcDbEntity
  8
Geo
100
AcDbLine
 10
-23.70509152188779
 20
13.29240957399691
 30
0.0
 11
-23.6050915218878
 21
13.23470806269391
 31
0.0
  0
LINE
  5
F108A0
330
261
100
AcDbEntity
  8
Geo
100
AcDbLine
 10
-23.70509152188779
 20
12.98432121138691
 30
0.0
 11
-23.6050915218878
 21
12.92841214090891
 31
0.0
  0
LINE
  5
F108A2
330
261
100
AcDbEntity
  8
Geo
100
AcDbLine
 10
-23.6050915218878
 20
15.77831414638551
 30
0.0
 11
-23.50509152188779
 21
15.75745932898251
 31
0.0
  0
LINE
  5
F108A4
330
261
100
AcDbEntity
  8
Geo
100
AcDbLine
 10
-23.6050915218878
 20
15.62673916228791
 30
0.0
 11
-23.50509152188779
 21
15.59877247170881
 31
0.0
  0
LINE
  5
F108A6
330
261
100
AcDbEntity
  8
Geo
100
AcDbLine
 10
-23.6050915218878
 20
13.23470806269391
 30
0.0
 11
-23.50509152188779
 21
13.17711100273351
 31
0.0
  0
LINE
  5
F108A8
330
261
100
AcDbEntity
  8
Geo
100
AcDbLine
 10
-23.6050915218878
 20
12.92841214090891
 30
0.0
 11
-23.50509152188779
 21
12.87277437421021
 31
0.0
  0
LINE
  5
F108AA
330
261
100
AcDbEntity
  8
Geo
100
AcDbLine
 10
-23.50509152188779
 20
15.75745932898251
 30
0.0
 11
-23.4050915218878
 21
15.73505744159251
 31
0.0
  0
LINE
  5
F108AC
330
261
100
AcDbEntity
  8
Geo
100
AcDbLine
 10
-23.50509152188779
 20
15.59877247170881
 30
0.0
 11
-23.4050915218878
 21
15.56936403029791
 31
0.0
  0
LINE
  5
F108AE
330
261
100
AcDbEntity
  8
Geo
100
AcDbLine
 10
-23.50509152188779
 20
13.17711100273351
 30
0.0
 11
-23.4050915218878
 21
13.119649769688
 31
0.0
  0
LINE
  5
F108B0
330
261
100
AcDbEntity
  8
Geo
100
AcDbLine
 10
-23.50509152188779
 20
12.87277437421021
 30
0.0
 11
-23.4050915218878
 21
12.81743821955222
 31
0.0
  0
LINE
  5
F108B2
330
261
100
AcDbEntity
  8
Geo
100
AcDbLine
 10
-23.4050915218878
 20
15.73505744159251
 30
0.0
 11
-23.3050915218878
 21
15.71112335216282
 31
0.0
  0
LINE
  5
F108B4
330
261
100
AcDbEntity
  8
Geo
100
AcDbLine
 10
-23.4050915218878
 20
15.56936403029791
 30
0.0
 11
-23.3050915218878
 21
15.53853335619461
 31
0.0
  0
LINE
  5
F108B6
330
261
100
AcDbEntity
  8
Geo
100
AcDbLine
 10
-23.4050915218878
 20
13.119649769688
 30
0.0
 11
-23.3050915218878
 21
13.06235566513881
 31
0.0
  0
LINE
  5
F108B8
330
261
100
AcDbEntity
  8
Geo
100
AcDbLine
 10
-23.4050915218878
 20
12.81743821955222
 30
0.0
 11
-23.3050915218878
 21
12.76243382089581
 31
0.0
  0
LINE
  5
F108BA
330
261
100
AcDbEntity
  8
Geo
100
AcDbLine
 10
-23.3050915218878
 20
15.71112335216282
 30
0.0
 11
-23.2050915218878
 21
15.68567294555081
 31
0.0
  0
LINE
  5
F108BC
330
261
100
AcDbEntity
  8
Geo
100
AcDbLine
 10
-23.3050915218878
 20
15.53853335619461
 30
0.0
 11
-23.2050915218878
 21
15.50630091146261
 31
0.0
  0
LINE
  5
F108BE
330
261
100
AcDbEntity
  8
Geo
100
AcDbLine
 10
-23.3050915218878
 20
13.06235566513881
 30
0.0
 11
-23.2050915218878
 21
13.00525989962521
 31
0.0
  0
LINE
  5
F108C0
330
261
100
AcDbEntity
  8
Geo
100
AcDbLine
 10
-23.3050915218878
 20
12.76243382089581
 30
0.0
 11
-23.2050915218878
 21
12.70779114148001
 31
0.0
  0
LINE
  5
F108C2
330
261
100
AcDbEntity
  8
Geo
100
AcDbLine
 10
-23.2050915218878
 20
15.68567294555081
 30
0.0
 11
-23.1050915218878
 21
15.65872311298101
 31
0.0
  0
LINE
  5
F108C4
330
261
100
AcDbEntity
  8
Geo
100
AcDbLine
 10
-23.2050915218878
 20
15.50630091146261
 30
0.0
 11
-23.1050915218878
 21
15.47268808850891
 31
0.0
  0
LINE
  5
F108C6
330
261
100
AcDbEntity
  8
Geo
100
AcDbLine
 10
-23.2050915218878
 20
13.00525989962521
 30
0.0
 11
-23.1050915218878
 21
12.948393575643
 31
0.0
  0
LINE
  5
F108C8
330
261
100
AcDbEntity
  8
Geo
100
AcDbLine
 10
-23.2050915218878
 20
12.70779114148001
 30
0.0
 11
-23.1050915218878
 21
12.65353994750001
 31
0.0
  0
LINE
  5
F108CA
330
261
100
AcDbEntity
  8
Geo
100
AcDbLine
 10
-23.1050915218878
 20
15.65872311298101
 30
0.0
 11
-23.00509152188779
 21
15.63029174083441
 31
0.0
  0
LINE
  5
F108CC
330
261
100
AcDbEntity
  8
Geo
100
AcDbLine
 10
-23.1050915218878
 20
15.47268808850891
 30
0.0
 11
-23.00509152188779
 21
15.43771719588631
 31
0.0
  0
LINE
  5
F108CE
330
261
100
AcDbEntity
  8
Geo
100
AcDbLine
 10
-23.1050915218878
 20
12.948393575643
 30
0.0
 11
-23.00509152188779
 21
12.89178767070141
 31
0.0
  0
LINE
  5
F108D0
330
261
100
AcDbEntity
  8
Geo
100
AcDbLine
 10
-23.1050915218878
 20
12.65353994750001
 30
0.0
 11
-23.00509152188779
 21
12.59970979189232
 31
0.0
  0
LINE
  5
F108D2
330
261
100
AcDbEntity
  8
Geo
100
AcDbLine
 10
-23.00509152188779
 20
15.63029174083441
 30
0.0
 11
-22.9050915218878
 21
15.60039769877761
 31
0.0
  0
LINE
  5
F108D4
330
261
100
AcDbEntity
  8
Geo
100
AcDbLine
 10
-23.00509152188779
 20
15.43771719588631
 30
0.0
 11
-22.9050915218878
 21
15.40141144348701
 31
0.0
  0
LINE
  5
F108D6
330
261
100
AcDbEntity
  8
Geo
100
AcDbLine
 10
-23.00509152188779
 20
12.89178767070141
 30
0.0
 11
-22.9050915218878
 21
12.83547302044801
 31
0.0
  0
LINE
  5
F108D8
330
261
100
AcDbEntity
  8
Geo
100
AcDbLine
 10
-23.00509152188779
 20
12.59970979189232
 30
0.0
 11
-22.9050915218878
 21
12.54632999823561
 31
0.0
  0
LINE
  5
F108DA
330
261
100
AcDbEntity
  8
Geo
100
AcDbLine
 10
-22.9050915218878
 20
15.60039769877761
 30
0.0
 11
-22.80509152188781
 21
15.56906082723931
 31
0.0
  0
LINE
  5
F108DC
330
261
100
AcDbEntity
  8
Geo
100
AcDbLine
 10
-22.9050915218878
 20
15.40141144348701
 30
0.0
 11
-22.80509152188781
 21
15.36379492713881
 31
0.0
  0
LINE
  5
F108DE
330
261
100
AcDbEntity
  8
Geo
100
AcDbLine
 10
-22.9050915218878
 20
12.83547302044801
 30
0.0
 11
-22.80509152188781
 21
12.77948030187182
 31
0.0
  0
LINE
  5
F108E0
330
261
100
AcDbEntity
  8
Geo
100
AcDbLine
 10
-22.9050915218878
 20
12.54632999823561
 30
0.0
 11
-22.80509152188781
 21
12.49342964477761
 31
0.0
  0
LINE
  5
F108E2
330
261
100
AcDbEntity
  8
Geo
100
AcDbLine
 10
-22.80509152188781
 20
15.56906082723931
 30
0.0
 11
-22.70509152188779
 21
15.53630192424211
 31
0.0
  0
LINE
  5
F108E4
330
261
100
AcDbEntity
  8
Geo
100
AcDbLine
 10
-22.80509152188781
 20
15.36379492713881
 30
0.0
 11
-22.70509152188779
 21
15.32489261261261
 31
0.0
  0
LINE
  5
F108E6
330
261
100
AcDbEntity
  8
Geo
100
AcDbLine
 10
-22.80509152188781
 20
12.77948030187182
 30
0.0
 11
-22.70509152188779
 21
12.72384001659191
 31
0.0
  0
LINE
  5
F108E8
330
261
100
AcDbEntity
  8
Geo
100
AcDbLine
 10
-22.80509152188781
 20
12.49342964477761
 30
0.0
 11
-22.70509152188779
 21
12.44103754859422
 31
0.0
  0
LINE
  5
F108EA
330
261
100
AcDbEntity
  8
Geo
100
AcDbLine
 10
-22.70509152188779
 20
15.53630192424211
 30
0.0
 11
-22.6050915218878
 21
15.50214273159901
 31
0.0
  0
LINE
  5
F108EC
330
261
100
AcDbEntity
  8
Geo
100
AcDbLine
 10
-22.70509152188779
 20
15.32489261261261
 30
0.0
 11
-22.6050915218878
 21
15.28473031905311
 31
0.0
  0
LINE
  5
F108EE
330
261
100
AcDbEntity
  8
Geo
100
AcDbLine
 10
-22.70509152188779
 20
12.72384001659191
 30
0.0
 11
-22.6050915218878
 21
12.66858247424191
 31
0.0
  0
LINE
  5
F108F0
330
261
100
AcDbEntity
  8
Geo
100
AcDbLine
 10
-22.70509152188779
 20
12.44103754859422
 30
0.0
 11
-22.6050915218878
 21
12.38918224989222
 31
0.0
  0
LINE
  5
F108F2
330
261
100
AcDbEntity
  8
Geo
100
AcDbLine
 10
-22.6050915218878
 20
15.50214273159901
 30
0.0
 11
-22.50509152188779
 21
15.46660592048382
 31
0.0
  0
LINE
  5
F108F4
330
261
100
AcDbEntity
  8
Geo
100
AcDbLine
 10
-22.6050915218878
 20
15.28473031905311
 30
0.0
 11
-22.50509152188779
 21
15.24333470184232
 31
0.0
  0
LINE
  5
F108F6
330
261
100
AcDbEntity
  8
Geo
100
AcDbLine
 10
-22.6050915218878
 20
12.66858247424191
 30
0.0
 11
-22.50509152188779
 21
12.61373777595901
 31
0.0
  0
LINE
  5
F108F8
330
261
100
AcDbEntity
  8
Geo
100
AcDbLine
 10
-22.6050915218878
 20
12.38918224989222
 30
0.0
 11
-22.50509152188779
 21
12.33789199646162
 31
0.0
  0
LINE
  5
F108FA
330
261
100
AcDbEntity
  8
Geo
100
AcDbLine
 10
-22.50509152188779
 20
15.46660592048382
 30
0.0
 11
-22.4050915218878
 21
15.42971507638431
 31
0.0
  0
LINE
  5
F108FC
330
261
100
AcDbEntity
  8
Geo
100
AcDbLine
 10
-22.50509152188779
 20
15.24333470184232
 30
0.0
 11
-22.4050915218878
 21
15.20073323490921
 31
0.0
  0
LINE
  5
F108FE
330
261
100
AcDbEntity
  8
Geo
100
AcDbLine
 10
-22.50509152188779
 20
12.61373777595901
 30
0.0
 11
-22.4050915218878
 21
12.55933579798671
 31
0.0
  0
LINE
  5
F10900
330
261
100
AcDbEntity
  8
Geo
100
AcDbLine
 10
-22.50509152188779
 20
12.33789199646162
 30
0.0
 11
-22.4050915218878
 21
12.28719472828851
 31
0.0
  0
LINE
  5
F10902
330
261
100
AcDbEntity
  8
Geo
100
AcDbLine
 10
-22.4050915218878
 20
15.42971507638431
 30
0.0
 11
-22.3050915218878
 21
15.39149468344881
 31
0.0
  0
LINE
  5
F10904
330
261
100
AcDbEntity
  8
Geo
100
AcDbLine
 10
-22.4050915218878
 20
15.20073323490921
 30
0.0
 11
-22.3050915218878
 21
15.15695419249531
 31
0.0
  0
LINE
  5
F10906
330
261
100
AcDbEntity
  8
Geo
100
AcDbLine
 10
-22.4050915218878
 20
12.55933579798671
 30
0.0
 11
-22.3050915218878
 21
12.50540617539982
 31
0.0
  0
LINE
  5
F10908
330
261
100
AcDbEntity
  8
Geo
100
AcDbLine
 10
-22.4050915218878
 20
12.28719472828851
 30
0.0
 11
-22.3050915218878
 21
12.23711806233441
 31
0.0
  0
LINE
  5
F1090A
330
261
100
AcDbEntity
  8
Geo
100
AcDbLine
 10
-22.3050915218878
 20
15.39149468344881
 30
0.0
 11
-22.2050915218878
 21
15.35197010823601
 31
0.0
  0
LINE
  5
F1090C
330
261
100
AcDbEntity
  8
Geo
100
AcDbLine
 10
-22.3050915218878
 20
15.15695419249531
 30
0.0
 11
-22.2050915218878
 21
15.11202663038911
 31
0.0
  0
LINE
  5
F1090E
330
261
100
AcDbEntity
  8
Geo
100
AcDbLine
 10
-22.3050915218878
 20
12.50540617539982
 30
0.0
 11
-22.2050915218878
 21
12.45197828596121
 31
0.0
  0
LINE
  5
F10910
330
261
100
AcDbEntity
  8
Geo
100
AcDbLine
 10
-22.3050915218878
 20
12.23711806233441
 30
0.0
 11
-22.2050915218878
 21
12.18768927749261
 31
0.0
  0
LINE
  5
F10912
330
261
100
AcDbEntity
  8
Geo
100
AcDbLine
 10
-22.2050915218878
 20
15.35197010823601
 30
0.0
 11
-22.1050915218878
 21
15.31116758287971
 31
0.0
  0
LINE
  5
F10914
330
261
100
AcDbEntity
  8
Geo
100
AcDbLine
 10
-22.2050915218878
 20
15.11202663038911
 30
0.0
 11
-22.1050915218878
 21
15.06598036664211
 31
0.0
  0
LINE
  5
F10916
330
261
100
AcDbEntity
  8
Geo
100
AcDbLine
 10
-22.2050915218878
 20
12.45197828596121
 30
0.0
 11
-22.1050915218878
 21
12.39908123411821
 31
0.0
  0
LINE
  5
F10918
330
261
100
AcDbEntity
  8
Geo
100
AcDbLine
 10
-22.2050915218878
 20
12.18768927749261
 30
0.0
 11
-22.1050915218878
 21
12.13893529972781
 31
0.0
  0
LINE
  5
F1091A
330
261
100
AcDbEntity
  8
Geo
100
AcDbLine
 10
-22.1050915218878
 20
15.31116758287971
 30
0.0
 11
-22.00509152188779
 21
15.26911418767882
 31
0.0
  0
LINE
  5
F1091C
330
261
100
AcDbEntity
  8
Geo
100
AcDbLine
 10
-22.1050915218878
 20
15.06598036664211
 30
0.0
 11
-22.00509152188779
 21
15.01884596177891
 31
0.0
  0
LINE
  5
F1091E
330
261
100
AcDbEntity
  8
Geo
100
AcDbLine
 10
-22.1050915218878
 20
12.39908123411821
 30
0.0
 11
-22.00509152188779
 21
12.34674383514831
 31
0.0
  0
LINE
  5
F10920
330
261
100
AcDbEntity
  8
Geo
100
AcDbLine
 10
-22.1050915218878
 20
12.13893529972781
 30
0.0
 11
-22.00509152188779
 21
12.09088268740851
 31
0.0
  0
LINE
  5
F10922
330
261
100
AcDbEntity
  8
Geo
100
AcDbLine
 10
-22.00509152188779
 20
15.26911418767882
 30
0.0
 11
-21.9050915218878
 21
15.22583783312401
 31
0.0
  0
LINE
  5
F10924
330
261
100
AcDbEntity
  8
Geo
100
AcDbLine
 10
-22.00509152188779
 20
15.01884596177891
 30
0.0
 11
-21.9050915218878
 21
14.97065469851441
 31
0.0
  0
LINE
  5
F10926
330
261
100
AcDbEntity
  8
Geo
100
AcDbLine
 10
-22.00509152188779
 20
12.34674383514831
 30
0.0
 11
-21.9050915218878
 21
12.29499459946221
 31
0.0
  0
LINE
  5
F10928
330
261
100
AcDbEntity
  8
Geo
100
AcDbLine
 10
-22.00509152188779
 20
12.09088268740851
 30
0.0
 11
-21.9050915218878
 21
12.04355761683961
 31
0.0
  0
LINE
  5
F1092A
330
261
100
AcDbEntity
  8
Geo
100
AcDbLine
 10
-21.9050915218878
 20
15.22583783312401
 30
0.0
 11
-21.8050915218878
 21
15.18136724137411
 31
0.0
  0
LINE
  5
F1092C
330
261
100
AcDbEntity
  8
Geo
100
AcDbLine
 10
-21.9050915218878
 20
14.97065469851441
 30
0.0
 11
-21.8050915218878
 21
14.92143856099161
 31
0.0
  0
LINE
  5
F1092E
330
261
100
AcDbEntity
  8
Geo
100
AcDbLine
 10
-21.9050915218878
 20
12.29499459946221
 30
0.0
 11
-21.8050915218878
 21
12.24386171707311
 31
0.0
  0
LINE
  5
F10930
330
261
100
AcDbEntity
  8
Geo
100
AcDbLine
 10
-21.9050915218878
 20
12.04355761683961
 30
0.0
 11
-21.8050915218878
 21
11.99698586800312
 31
0.0
  0
LINE
  5
F10932
330
261
100
AcDbEntity
  8
Geo
100
AcDbLine
 10
-21.8050915218878
 20
15.18136724137411
 30
0.0
 11
-21.70509152188779
 21
15.13573192719311
 31
0.0
  0
LINE
  5
F10934
330
261
100
AcDbEntity
  8
Geo
100
AcDbLine
 10
-21.8050915218878
 20
14.92143856099161
 30
0.0
 11
-21.70509152188779
 21
14.87123021355422
 31
0.0
  0
LINE
  5
F10936
330
261
100
AcDbEntity
  8
Geo
100
AcDbLine
 10
-21.8050915218878
 20
12.24386171707311
 30
0.0
 11
-21.70509152188779
 21
12.19337304224031
 31
0.0
  0
LINE
  5
F10938
330
261
100
AcDbEntity
  8
Geo
100
AcDbLine
 10
-21.8050915218878
 20
11.99698586800312
 30
0.0
 11
-21.70509152188779
 21
11.95119281051451
 31
0.0
  0
LINE
  5
F1093A
330
261
100
AcDbEntity
  8
Geo
100
AcDbLine
 10
-21.70509152188779
 20
15.13573192719311
 30
0.0
 11
-21.6050915218878
 21
15.08896217836181
 31
0.0
  0
LINE
  5
F1093C
330
261
100
AcDbEntity
  8
Geo
100
AcDbLine
 10
-21.70509152188779
 20
14.87123021355422
 30
0.0
 11
-21.6050915218878
 21
14.82006297906721
 31
0.0
  0
LINE
  5
F1093E
330
261
100
AcDbEntity
  8
Geo
100
AcDbLine
 10
-21.70509152188779
 20
12.19337304224031
 30
0.0
 11
-21.6050915218878
 21
12.14355607829561
 31
0.0
  0
LINE
  5
F10940
330
261
100
AcDbEntity
  8
Geo
100
AcDbLine
 10
-21.70509152188779
 20
11.95119281051451
 30
0.0
 11
-21.6050915218878
 21
11.90620338980291
 31
0.0
  0
LINE
  5
F10942
330
261
100
AcDbEntity
  8
Geo
100
AcDbLine
 10
-21.6050915218878
 20
15.08896217836181
 30
0.0
 11
-21.50509152188779
 21
15.04108903557591
 31
0.0
  0
LINE
  5
F10944
330
261
100
AcDbEntity
  8
Geo
100
AcDbLine
 10
-21.6050915218878
 20
14.82006297906721
 30
0.0
 11
-21.50509152188779
 21
14.76797081680121
 31
0.0
  0
LINE
  5
F10946
330
261
100
AcDbEntity
  8
Geo
100
AcDbLine
 10
-21.6050915218878
 20
12.14355607829561
 30
0.0
 11
-21.50509152188779
 21
12.09443796266151
 31
0.0
  0
LINE
  5
F10948
330
261
100
AcDbEntity
  8
Geo
100
AcDbLine
 10
-21.6050915218878
 20
11.90620338980291
 30
0.0
 11
-21.50509152188779
 21
11.86204211352231
 31
0.0
  0
LINE
  5
F1094A
330
261
100
AcDbEntity
  8
Geo
100
AcDbLine
 10
-21.50509152188779
 20
15.04108903557591
 30
0.0
 11
-21.4050915218878
 21
14.99214427184451
 31
0.0
  0
LINE
  5
F1094C
330
261
100
AcDbEntity
  8
Geo
100
AcDbLine
 10
-21.50509152188779
 20
14.76797081680121
 30
0.0
 11
-21.4050915218878
 21
14.71498829989361
 31
0.0
  0
LINE
  5
F1094E
330
261
100
AcDbEntity
  8
Geo
100
AcDbLine
 10
-21.50509152188779
 20
12.09443796266151
 30
0.0
 11
-21.4050915218878
 21
12.04604545206801
 31
0.0
  0
LINE
  5
F10950
330
261
100
AcDbEntity
  8
Geo
100
AcDbLine
 10
-21.50509152188779
 20
11.86204211352231
 30
0.0
 11
-21.4050915218878
 21
11.81873303820111
 31
0.0
  0
LINE
  5
F10952
330
261
100
AcDbEntity
  8
Geo
100
AcDbLine
 10
-21.4050915218878
 20
14.99214427184451
 30
0.0
 11
-21.3050915218878
 21
14.94216037140261
 31
0.0
  0
LINE
  5
F10954
330
261
100
AcDbEntity
  8
Geo
100
AcDbLine
 10
-21.4050915218878
 20
14.71498829989361
 30
0.0
 11
-21.3050915218878
 21
14.66115059240291
 31
0.0
  0
LINE
  5
F10956
330
261
100
AcDbEntity
  8
Geo
100
AcDbLine
 10
-21.4050915218878
 20
12.04604545206801
 30
0.0
 11
-21.3050915218878
 21
11.99840490797701
 31
0.0
  0
LINE
  5
F10958
330
261
100
AcDbEntity
  8
Geo
100
AcDbLine
 10
-21.4050915218878
 20
11.81873303820111
 30
0.0
 11
-21.3050915218878
 21
11.77629975613771
 31
0.0
  0
LINE
  5
F1095A
330
261
100
AcDbEntity
  8
Geo
100
AcDbLine
 10
-21.3050915218878
 20
14.94216037140261
 30
0.0
 11
-21.20509152188779
 21
14.89117050815182
 31
0.0
  0
LINE
  5
F1095C
330
261
100
AcDbEntity
  8
Geo
100
AcDbLine
 10
-21.3050915218878
 20
14.66115059240291
 30
0.0
 11
-21.20509152188779
 21
14.60649342597061
 31
0.0
  0
LINE
  5
F1095E
330
261
100
AcDbEntity
  8
Geo
100
AcDbLine
 10
-21.3050915218878
 20
11.99840490797701
 30
0.0
 11
-21.20509152188779
 21
11.95154228222241
 31
0.0
  0
LINE
  5
F10960
330
261
100
AcDbEntity
  8
Geo
100
AcDbLine
 10
-21.3050915218878
 20
11.77629975613771
 30
0.0
 11
-21.20509152188779
 21
11.73476538254821
 31
0.0
  0
LINE
  5
F10962
330
261
100
AcDbEntity
  8
Geo
100
AcDbLine
 10
-21.20509152188779
 20
14.89117050815182
 30
0.0
 11
-21.1050915218878
 21
14.83920852364281
 31
0.0
  0
LINE
  5
F10964
330
261
100
AcDbEntity
  8
Geo
100
AcDbLine
 10
-21.20509152188779
 20
14.60649342597061
 30
0.0
 11
-21.1050915218878
 21
14.55105307610601
 31
0.0
  0
LINE
  5
F10966
330
261
100
AcDbEntity
  8
Geo
100
AcDbLine
 10
-21.20509152188779
 20
11.95154228222241
 30
0.0
 11
-21.1050915218878
 21
11.90548310287271
 31
0.0
  0
LINE
  5
F10968
330
261
100
AcDbEntity
  8
Geo
100
AcDbLine
 10
-21.20509152188779
 20
11.73476538254821
 30
0.0
 11
-21.1050915218878
 21
11.69415254297541
 31
0.0
  0
LINE
  5
F1096A
330
261
100
AcDbEntity
  8
Geo
100
AcDbLine
 10
-21.1050915218878
 20
14.83920852364281
 30
0.0
 11
-21.00509152188779
 21
14.78630890461511
 31
0.0
  0
LINE
  5
F1096C
330
261
100
AcDbEntity
  8
Geo
100
AcDbLine
 10
-21.1050915218878
 20
14.55105307610601
 30
0.0
 11
-21.00509152188779
 21
14.49486633811121
 31
0.0
  0
LINE
  5
F1096E
330
261
100
AcDbEntity
  8
Geo
100
AcDbLine
 10
-21.1050915218878
 20
11.90548310287271
 30
0.0
 11
-21.00509152188779
 21
11.86025246032491
 31
0.0
  0
LINE
  5
F10970
330
261
100
AcDbEntity
  8
Geo
100
AcDbLine
 10
-21.1050915218878
 20
11.69415254297541
 30
0.0
 11
-21.00509152188779
 21
11.65448336096301
 31
0.0
  0
LINE
  5
F10972
330
261
100
AcDbEntity
  8
Geo
100
AcDbLine
 10
-21.00509152188779
 20
14.78630890461511
 30
0.0
 11
-20.9050915218878
 21
14.73250676010861
 31
0.0
  0
LINE
  5
F10974
330
261
100
AcDbEntity
  8
Geo
100
AcDbLine
 10
-21.00509152188779
 20
14.49486633811121
 30
0.0
 11
-20.9050915218878
 21
14.43797050265961
 31
0.0
  0
LINE
  5
F10976
330
261
100
AcDbEntity
  8
Geo
100
AcDbLine
 10
-21.00509152188779
 20
11.86025246032491
 30
0.0
 11
-20.9050915218878
 21
11.81587499363701
 31
0.0
  0
LINE
  5
F10978
330
261
100
AcDbEntity
  8
Geo
100
AcDbLine
 10
-21.00509152188779
 20
11.65448336096301
 30
0.0
 11
-20.9050915218878
 21
11.61577944600441
 31
0.0
  0
LINE
  5
F1097A
330
261
100
AcDbEntity
  8
Geo
100
AcDbLine
 10
-20.9050915218878
 20
14.73250676010861
 30
0.0
 11
-20.8050915218878
 21
14.67783779816171
 31
0.0
  0
LINE
  5
F1097C
330
261
100
AcDbEntity
  8
Geo
100
AcDbLine
 10
-20.9050915218878
 20
14.43797050265961
 30
0.0
 11
-20.8050915218878
 21
14.38040333104682
 31
0.0
  0
LINE
  5
F1097E
330
261
100
AcDbEntity
  8
Geo
100
AcDbLine
 10
-20.9050915218878
 20
11.81587499363701
 30
0.0
 11
-20.8050915218878
 21
11.77237487710531
 31
0.0
  0
LINE
  5
F10980
330
261
100
AcDbEntity
  8
Geo
100
AcDbLine
 10
-20.9050915218878
 20
11.61577944600441
 30
0.0
 11
-20.8050915218878
 21
11.57806188177072
 31
0.0
  0
LINE
  5
F10982
330
261
100
AcDbEntity
  8
Geo
100
AcDbLine
 10
-20.8050915218878
 20
14.67783779816171
 30
0.0
 11
-20.7050915218878
 21
14.62233830211261
 31
0.0
  0
LINE
  5
F10984
330
261
100
AcDbEntity
  8
Geo
100
AcDbLine
 10
-20.8050915218878
 20
14.38040333104682
 30
0.0
 11
-20.7050915218878
 21
14.32220303012881
 31
0.0
  0
LINE
  5
F10986
330
261
100
AcDbEntity
  8
Geo
100
AcDbLine
 10
-20.8050915218878
 20
11.77237487710531
 30
0.0
 11
-20.7050915218878
 21
11.72977580709651
 31
0.0
  0
LINE
  5
F10988
330
261
100
AcDbEntity
  8
Geo
100
AcDbLine
 10
-20.8050915218878
 20
11.57806188177072
 30
0.0
 11
-20.7050915218878
 21
11.54135121462591
 31
0.0
  0
LINE
  5
F1098A
330
261
100
AcDbEntity
  8
Geo
100
AcDbLine
 10
-20.7050915218878
 20
14.62233830211261
 30
0.0
 11
-20.6050915218878
 21
14.56604510651811
 31
0.0
  0
LINE
  5
F1098C
330
261
100
AcDbEntity
  8
Geo
100
AcDbLine
 10
-20.7050915218878
 20
14.32220303012881
 30
0.0
 11
-20.6050915218878
 21
14.26340822696421
 31
0.0
  0
LINE
  5
F1098E
330
261
100
AcDbEntity
  8
Geo
100
AcDbLine
 10
-20.7050915218878
 20
11.72977580709651
 30
0.0
 11
-20.6050915218878
 21
11.68810098913861
 31
0.0
  0
LINE
  5
F10990
330
261
100
AcDbEntity
  8
Geo
100
AcDbLine
 10
-20.7050915218878
 20
11.54135121462591
 30
0.0
 11
-20.6050915218878
 21
11.50566744243442
 31
0.0
  0
LINE
  5
F10992
330
261
100
AcDbEntity
  8
Geo
100
AcDbLine
 10
-20.6050915218878
 20
14.56604510651811
 30
0.0
 11
-20.6050915218878
 21
14.79240210989601
 31
0.0
  0
LINE
  5
F10994
330
261
100
AcDbEntity
  8
Geo
100
AcDbLine
 10
-20.6050915218878
 20
14.26340822696421
 30
0.0
 11
-20.6050915218878
 21
14.79240210989601
 31
0.0
  0
LINE
  5
F10996
330
261
100
AcDbEntity
  8
Geo
100
AcDbLine
 10
-20.6050915218878
 20
14.26340822696421
 30
0.0
 11
-20.6050915218878
 21
12.05837993394881
 31
0.0
  0
LINE
  5
F10998
330
261
100
AcDbEntity
  8
Geo
100
AcDbLine
 10
-20.6050915218878
 20
11.68810098913861
 30
0.0
 11
-20.6050915218878
 21
11.85916497213491
 31
0.0
  0
LINE
  5
F1099A
330
261
100
AcDbEntity
  8
Geo
100
AcDbLine
 10
-20.6050915218878
 20
11.50566744243442
 30
0.0
 11
-20.6050915218878
 21
11.85916497213491
 31
0.0
  0
LINE
  5
F1099C
330
261
100
AcDbEntity
  8
Geo
100
AcDbLine
 10
-20.6050915218878
 20
11.50566744243442
 30
0.0
 11
-20.6050915218878
 21
11.01298708557781
 31
0.0
  0
LINE
  5
F1099E
330
261
100
AcDbEntity
  8
Geo
100
AcDbLine
 10
-33.6050915218878
 20
13.42645246249311
 30
0.0
 11
-33.6050915218878
 21
13.42645246249311
 31
0.0
  0
LINE
  5
F109A0
330
261
100
AcDbEntity
  8
Geo
100
AcDbLine
 10
-33.6050915218878
 20
13.42645246249311
 30
0.0
 11
-33.6050915218878
 21
13.42645246249311
 31
0.0
  0
LINE
  5
F109A2
330
261
100
AcDbEntity
  8
Geo
100
AcDbLine
 10
23.39490847811221
 20
16.02645246249311
 30
0.0
 11
23.39490847811221
 21
13.42645246249311
 31
0.0
  0
LINE
  5
F109A4
330
261
100
AcDbEntity
  8
Geo
100
AcDbLine
 10
-33.6050915218878
 20
13.42645246249311
 30
0.0
 11
-33.6050915218878
 21
11.04645246249311
 31
0.0
  0
LINE
  5
F109A6
330
261
100
AcDbEntity
  8
Geo
100
AcDbLine
 10
-33.6050915218878
 20
11.04645246249311
 30
0.0
 11
-33.4850915218878
 21
10.92645246249311
 31
0.0
  0
LINE
  5
F109A8
330
261
100
AcDbEntity
  8
Geo
100
AcDbLine
 10
-33.4850915218878
 20
10.92645246249311
 30
0.0
 11
-20.6050915218878
 21
10.92645246249311
 31
0.0
  0
LINE
  5
F109AA
330
261
100
AcDbEntity
  8
Geo
100
AcDbLine
 10
-20.6050915218878
 20
10.92645246249311
 30
0.0
 11
-20.6050915218878
 21
11.02645246249311
 31
0.0
  0
LINE
  5
F109AC
330
261
100
AcDbEntity
  8
Geo
100
AcDbLine
 10
-20.6050915218878
 20
11.02645246249311
 30
0.0
 11
-13.6050915218878
 21
11.02645246249311
 31
0.0
  0
LINE
  5
F109AE
330
261
100
AcDbEntity
  8
Geo
100
AcDbLine
 10
-13.6050915218878
 20
11.02645246249311
 30
0.0
 11
-12.6050915218878
 21
10.42645246249311
 31
0.0
  0
LINE
  5
F109B0
330
261
100
AcDbEntity
  8
Geo
100
AcDbLine
 10
-12.6050915218878
 20
10.42645246249311
 30
0.0
 11
22.99490847811221
 21
10.42645246249311
 31
0.0
  0
LINE
  5
F109B2
330
261
100
AcDbEntity
  8
Geo
100
AcDbLine
 10
22.99490847811221
 20
10.42645246249311
 30
0.0
 11
23.39490847811221
 21
10.82645246249311
 31
0.0
  0
LINE
  5
F109B4
330
261
100
AcDbEntity
  8
Geo
100
AcDbLine
 10
-33.6050915218878
 20
15.80645246249311
 30
0.0
 11
-33.6050915218878
 21
11.04645246249311
 31
0.0
  0
LINE
  5
F109B6
330
261
100
AcDbEntity
  8
Geo
100
AcDbLine
 10
-33.4850915218878
 20
15.92645246249311
 30
0.0
 11
-33.4850915218878
 21
10.92645246249311
 31
0.0
  0
LINE
  5
F109B8
330
261
100
AcDbEntity
  8
Geo
100
AcDbLine
 10
-20.6050915218878
 20
15.92645246249311
 30
0.0
 11
-20.6050915218878
 21
10.92645246249311
 31
0.0
  0
LINE
  5
F109BA
330
261
100
AcDbEntity
  8
Geo
100
AcDbLine
 10
-20.6050915218878
 20
15.82645246249311
 30
0.0
 11
-20.6050915218878
 21
11.02645246249311
 31
0.0
  0
LINE
  5
F109BC
330
261
100
AcDbEntity
  8
Geo
100
AcDbLine
 10
-13.6050915218878
 20
15.82645246249311
 30
0.0
 11
-13.6050915218878
 21
11.02645246249311
 31
0.0
  0
LINE
  5
F109BE
330
261
100
AcDbEntity
  8
Geo
100
AcDbLine
 10
-12.6050915218878
 20
16.42645246249311
 30
0.0
 11
-12.6050915218878
 21
10.42645246249311
 31
0.0
  0
LINE
  5
F109C0
330
261
100
AcDbEntity
  8
Geo
100
AcDbLine
 10
22.99490847811221
 20
16.42645246249311
 30
0.0
 11
22.99490847811221
 21
10.42645246249311
 31
0.0
  0
LINE
  5
F109C2
330
261
100
AcDbEntity
  8
Geo
100
AcDbLine
 10
23.39490847811221
 20
16.02645246249311
 30
0.0
 11
23.39490847811221
 21
10.82645246249311
 31
0.0
  0
TEXT
  5
F109EE
330
261
100
AcDbEntity
  8
Text
100
AcDbText
 10
-12.7849740932643
 20
-57.6148531951641
 30
0.0
 40
2.0
  1

100
AcDbText
  0
TEXT
  5
F109FE
330
261
100
AcDbEntity
  8
Text
100
AcDbText
 10
-12.7849740932643
 20
-65.77547495682209
 30
0.0
 40
2.0
  1

100
AcDbText
  0
TEXT
  5
F10AA2
330
261
100
AcDbEntity
  8
Text
100
AcDbText
 10
91.12694300518128
 20
-64.29274611398961
 30
0.0
 40
1.5
  1

100
AcDbText
  0
TEXT
  5
F10AA6
330
261
100
AcDbEntity
  8
Text
100
AcDbText
 10
121.321243523316
 20
-64.29274611398961
 30
0.0
 40
1.5
  1

100
AcDbText
  0
TEXT
  5
F10AAA
330
261
100
AcDbEntity
  8
Text
100
AcDbText
 10
91.12694300518128
 20
-67.28497409326429
 30
0.0
 40
1.5
  1

100
AcDbText
  0
TEXT
  5
F10AAE
330
261
100
AcDbEntity
  8
Text
100
AcDbText
 10
121.321243523316
 20
-67.28497409326429
 30
0.0
 40
1.5
  1

100
AcDbText
  0
LWPOLYLINE
  5
F10AB8
330
261
100
AcDbEntity
  8
Rahmen
100
AcDbPolyline
 90
        4
 70
     1
 43
0.0
 10
-134.650259067358
 20
99.8316062176166
 10
143.354922279793
 20
99.8316062176166
 10
143.354922279793
 20
-100.103626943005
 10
-134.650259067358
 20
-100.103626943005
  0
LWPOLYLINE
  5
F10ABC
330
261
100
AcDbEntity
  8
Rahmen
100
AcDbPolyline
 90
        4
 70
     1
 43
0.0
 10
103.367875647668
 20
-97.11139896373062
 10
143.354922279793
 20
-97.11139896373062
 10
143.354922279793
 20
-100.103626943005
 10
103.367875647668
 20
-100.103626943005
  0
TEXT
  5
F10ABE
330
261
100
AcDbEntity
  8
Text
100
AcDbText
 10
104.455958549223
 20
-98.11139896373061
 30
0.0
 40
0.75
  1
Ers. durch:
100
AcDbText
  0
LWPOLYLINE
  5
F10AC2
330
261
100
AcDbEntity
  8
Rahmen
100
AcDbPolyline
 90
        4
 70
     1
 43
0.0
 10
63.380829015544
 20
-97.11139896373062
 10
103.367875647668
 20
-97.11139896373062
 10
103.367875647668
 20
-100.103626943005
 10
63.380829015544
 20
-100.103626943005
  0
TEXT
  5
F10AC4
330
261
100
AcDbEntity
  8
Text
100
AcDbText
 10
64.46891191709839
 20
-98.11139896373061
 30
0.0
 40
0.75
  1
Ers. für:
100
AcDbText
  0
TEXT
  5
F10AC6
330
261
100
AcDbEntity
  8
Text
100
AcDbText
 10
91.39896373056991
 20
-99.4715025906736
 30
0.0
 40
0.75
  1

100
AcDbText
  0
LWPOLYLINE
  5
F10AC8
330
261
100
AcDbEntity
  8
Rahmen
100
AcDbPolyline
 90
        4
 70
     1
 43
0.0
 10
130.025906735751
 20
-94.119170984456
 10
143.354922279793
 20
-94.119170984456
 10
143.354922279793
 20
-97.11139896373062
 10
130.025906735751
 20
-97.11139896373062
  0
TEXT
  5
F10ACA
330
261
100
AcDbEntity
  8
Text
100
AcDbText
 10
131.113989637306
 20
-95.119170984456
 30
0.0
 40
0.75
  1
Blätter
100
AcDbText
  0
TEXT
  5
F10ACC
330
261
100
AcDbEntity
  8
Text
100
AcDbText
 10
141.178756476684
 20
-96.479274611399
 30
0.0
 40
0.75
  1

100
AcDbText
  0
LWPOLYLINE
  5
F10ACE
330
261
100
AcDbEntity
  8
Rahmen
100
AcDbPolyline
 90
        4
 70
     1
 43
0.0
 10
130.025906735751
 20
-91.12694300518128
 10
143.354922279793
 20
-91.12694300518128
 10
143.354922279793
 20
-94.119170984456
 10
130.025906735751
 20
-94.119170984456
  0
TEXT
  5
F10AD0
330
261
100
AcDbEntity
  8
Text
100
AcDbText
 10
131.113989637306
 20
-92.12694300518128
 30
0.0
 40
0.75
  1
Blatt
100
AcDbText
  0
TEXT
  5
F10AD2
330
261
100
AcDbEntity
  8
Text
100
AcDbText
 10
141.178756476684
 20
-93.48704663212428
 30
0.0
 40
0.75
  1

100
AcDbText
  0
LWPOLYLINE
  5
F10AD4
330
261
100
AcDbEntity
  8
Rahmen
100
AcDbPolyline
 90
        4
 70
     1
 43
0.0
 10
63.380829015544
 20
-91.12694300518128
 10
130.025906735751
 20
-91.12694300518128
 10
130.025906735751
 20
-97.11139896373062
 10
63.380829015544
 20
-97.11139896373062
  0
TEXT
  5
F10AD6
330
261
100
AcDbEntity
  8
Text
100
AcDbText
 10
64.46891191709839
 20
-92.12694300518128
 30
0.0
 40
0.75
  1
Datum:
100
AcDbText
  0
TEXT
  5
F10AD8
330
261
100
AcDbEntity
  8
Text
100
AcDbText
 10
91.67098445595859
 20
-95.119170984456
 30
0.0
 40
0.75
  1
17.12.2014
100
AcDbText
  0
LWPOLYLINE
  5
F10ADA
330
261
100
AcDbEntity
  8
Rahmen
100
AcDbPolyline
 90
        4
 70
     1
 43
0.0
 10
63.380829015544
 20
-85.14248704663208
 10
143.354922279793
 20
-85.14248704663208
 10
143.354922279793
 20
-91.12694300518128
 10
63.380829015544
 20
-91.12694300518128
  0
TEXT
  5
F10ADC
330
261
100
AcDbEntity
  8
Text
100
AcDbText
 10
-208.09585492228
 20
103.0
 30
0.0
 40
1.5
  1

100
AcDbText
  0
TEXT
  5
F10ADE
330
261
100
AcDbEntity
  8
Text
100
AcDbText
 10
91.29426396661328
 20
-89.34817378381104
 30
0.0
 40
2.5
  1
6000-050
100
AcDbText
  0
LWPOLYLINE
  5
F10AE0
330
261
100
AcDbEntity
  8
Rahmen
100
AcDbPolyline
 90
        4
 70
     1
 43
0.0
 10
103.367875647668
 20
-79.1580310880829
 10
143.354922279793
 20
-79.1580310880829
 10
143.354922279793
 20
-85.14248704663208
 10
103.367875647668
 20
-85.14248704663208
  0
TEXT
  5
F10AE2
330
261
100
AcDbEntity
  8
Text
100
AcDbText
 10
104.455958549223
 20
-80.1580310880829
 30
0.0
 40
0.75
  1
Zu bearb. Material:
100
AcDbText
  0
LWPOLYLINE
  5
F10AE6
330
261
100
AcDbEntity
  8
Rahmen
100
AcDbPolyline
 90
        4
 70
     1
 43
0.0
 10
63.380829015544
 20
-79.1580310880829
 10
103.367875647668
 20
-79.1580310880829
 10
103.367875647668
 20
-85.14248704663208
 10
63.380829015544
 20
-85.14248704663208
  0
TEXT
  5
F10AE8
330
261
100
AcDbEntity
  8
Text
100
AcDbText
 10
64.46891191709839
 20
-80.1580310880829
 30
0.0
 40
0.75
  1
Werkstoff:
100
AcDbText
  0
LWPOLYLINE
  5
F10AEC
330
261
100
AcDbEntity
  8
Rahmen
100
AcDbPolyline
 90
        4
 70
     1
 43
0.0
 10
103.367875647668
 20
-76.16580310880831
 10
143.354922279793
 20
-76.16580310880831
 10
143.354922279793
 20
-79.1580310880829
 10
103.367875647668
 20
-79.1580310880829
  0
TEXT
  5
F10AEE
330
261
100
AcDbEntity
  8
Text
100
AcDbText
 10
-208.09585492228
 20
103.0
 30
0.0
 40
1.5
  1

100
AcDbText
  0
LWPOLYLINE
  5
F10AF2
330
261
100
AcDbEntity
  8
Rahmen
100
AcDbPolyline
 90
        4
 70
     1
 43
0.0
 10
63.380829015544
 20
-76.16580310880831
 10
103.367875647668
 20
-76.16580310880831
 10
103.367875647668
 20
-79.1580310880829
 10
63.380829015544
 20
-79.1580310880829
  0
TEXT
  5
F10AF4
330
261
100
AcDbEntity
  8
Text
100
AcDbText
 10
64.46891191709839
 20
-77.1658031088083
 30
0.0
 40
0.75
  1
Maßstab:
100
AcDbText
  0
TEXT
  5
F10AF6
330
261
100
AcDbEntity
  8
Text
100
AcDbText
 10
89.49481865284978
 20
-77.1658031088083
 30
0.0
 40
0.75
  1
1 : 1
100
AcDbText
  0
VIEWPORT
  5
294
102
{ACAD_XDICTIONARY
360
F10D4E
102
}
330
25D
100
AcDbEntity
 67
     1
  8
0
 60
     1
100
AcDbViewport
 10
0.0
 20
0.0
 30
0.0
 40
10.0
 41
10.0
 68
    -1
 69
     1
 12
0.0
 22
0.0
 13
0.0
 23
0.0
 14
1.0
 24
1.0
 15
0.0
 25
0.0
 16
0.0
 26
0.0
 36
1.0
 17
0.0
 27
0.0
 37
0.0
 42
0.0
 43
0.0
 44
0.0
 45
10.0
 50
0.0
 51
0.0000000000007958
 72
   100
 90
    32800
  1

281
     0
 71
     0
 74
     0
110
0.0
120
0.0
130
0.0
111
1.0
121
0.0
131
0.0
112
0.0
122
1.0
132
0.0
 79
     0
146
0.0
1001
VD_INVISIBLE_NOT_FOR_READ
1000
VD_INVISIBLE_NOT_FOR_READ
1001
GENIUS_GENSCREG_15
1000
PF
1040
1.0
1000
DF
1040
1.0
1000
MIN
1011
-5.0
1021
-5.0
1031
0.0
1000
MAX
1011
5.0
1021
5.0
1031
0.0
1000
FLAGS
1070
     4
1001
GENIUS_GENOBJ-N-SDF_13
1002
{
1000
OWNER
1000
GEN
1002
}
1001
GENIUS_GENODEF_13
1002
{
1000
HIER
1070
     0
1002
}
1002
{
1000
MANEDIT
1070
     0
1002
}
1002
{
1000
NOSEL
1070
     0
1002
}
1002
{
1000
BEHIND
1070
     0
1002
}
1002
{
1000
OTHER
1070
     0
1002
}
1002
{
1000
REACTOR
1002
}
  0
VIEWPORT
  5
295
102
{ACAD_XDICTIONARY
360
F10D50
102
}
330
25D
100
AcDbEntity
 67
     1
  8
0
 60
     1
100
AcDbViewport
 10
0.0
 20
0.0
 30
0.0
 40
10.0
 41
10.0
 68
     0
 69
     2
 12
0.0
 22
0.0
 13
0.0
 23
0.0
 14
1.0
 24
1.0
 15
0.0
 25
0.0
 16
0.0
 26
0.0
 36
1.0
 17
0.0
 27
0.0
 37
0.0
 42
0.0
 43
0.0
 44
0.0
 45
10.0
 50
0.0
 51
0.0000000000007958
 72
   100
 90
   163872
  1

281
     0
 71
     0
 74
     0
110
0.0
120
0.0
130
0.0
111
1.0
121
0.0
131
0.0
112
0.0
122
1.0
132
0.0
 79
     0
146
0.0
1001
VD_INVISIBLE_NOT_FOR_READ
1000
VD_INVISIBLE_NOT_FOR_READ
1001
GENIUS_GENSCREG_15
1000
PF
1040
1.0
1000
DF
1040
1.0
1000
MIN
1011
-5.0
1021
-5.0
1031
0.0
1000
MAX
1011
5.0
1021
5.0
1031
0.0
1000
FLAGS
1070
     4
1001
GENIUS_GENOBJ-N-SDF_13
1002
{
1000
OWNER
1000
GEN
1002
}
1001
GENIUS_GENODEF_13
1002
{
1000
HIER
1070
     0
1002
}
1002
{
1000
MANEDIT
1070
     0
1002
}
1002
{
1000
NOSEL
1070
     0
1002
}
1002
{
1000
BEHIND
1070
     0
1002
}
1002
{
1000
OTHER
1070
     0
1002
}
1002
{
1000
REACTOR
1002
}
  0
ENDSEC
  0
SECTION
  2
OBJECTS
  0
DICTIONARY
  5
13
330
0
100
AcDbDictionary
281
     1
  3
ACAD_COLOR
350
FA7
  3
ACAD_GROUP
350
14
  3
ACAD_LAYOUT
350
FCF
  3
ACAD_MATERIAL
350
F7A
  3
ACAD_MLEADERSTYLE
350
FCD
  3
ACAD_MLINESTYLE
350
16
  3
ACAD_PLOTSETTINGS
350
17
  3
ACAD_PLOTSTYLENAME
350
18
  3
ACAD_SCALELIST
350
FAB
  3
ACAD_TABLESTYLE
350
FA8
  3
ACAD_VISUALSTYLE
350
F93
  3
ACDB_RECOMPOSE_DATA
350
F10D4C
  3
AcDbVariableDictionary
350
F10D41
  3
AcmDictionary
350
F10B4D
  3
AMG
350
F10B01
  3
AMGSNAPSETTINGS
350
F10B8E
  3
DWGPROPS
350
F10D4D
  0
DICTIONARY
  5
F10D52
330
296
100
AcDbDictionary
280
     1
281
     1
  3
ACAD_XREC_ROUNDTRIP
360
F10D53
  0
DICTIONARY
  5
F10D54
330
297
100
AcDbDictionary
280
     1
281
     1
  3
ACAD_XREC_ROUNDTRIP
360
F10D55
  0
DICTIONARY
  5
F10D4A
330
F10BBB
100
AcDbDictionary
280
     1
281
     1
  3
ACAD_MTEXT_2008_RT
360
F10D4B
  3
ACAD_MTEXT_RT
360
F10D93
  0
DICTIONARY
  5
F10D4E
330
294
100
AcDbDictionary
280
     1
281
     1
  3
ACAD_XREC_ROUNDTRIP
360
F10D4F
  0
DICTIONARY
  5
F10D50
330
295
100
AcDbDictionary
280
     1
281
     1
  3
ACAD_XREC_ROUNDTRIP
360
F10D51
  0
DICTIONARY
  5
FA7
102
{ACAD_REACTORS
330
13
102
}
330
13
100
AcDbDictionary
281
     1
  0
DICTIONARY
  5
14
330
13
100
AcDbDictionary
281
     1
  0
DICTIONARY
  5
FCF
102
{ACAD_REACTORS
330
13
102
}
330
13
100
AcDbDictionary
281
     1
  3
Layout1
350
FD1
  3
Model
350
FD0
  0
DICTIONARY
  5
F7A
102
{ACAD_REACTORS
330
13
102
}
330
13
100
AcDbDictionary
281
     1
  3
ByBlock
350
F83
  3
ByLayer
350
F7B
  3
Global
350
F8B
  0
DICTIONARY
  5
FCD
102
{ACAD_REACTORS
330
13
102
}
330
13
100
AcDbDictionary
281
     1
  3
Standard
350
FCE
  0
DICTIONARY
  5
16
330
13
100
AcDbDictionary
281
     1
  3
Standard
350
FAA
  0
DICTIONARY
  5
17
102
{ACAD_REACTORS
330
13
102
}
330
13
100
AcDbDictionary
281
     1
  0
ACDBDICTIONARYWDFLT
  5
18
102
{ACAD_REACTORS
330
13
102
}
330
13
100
AcDbDictionary
281
     1
  3
Normal
350
19
100
AcDbDictionaryWithDefault
340
19
  0
DICTIONARY
  5
FAB
102
{ACAD_REACTORS
330
13
102
}
330
13
100
AcDbDictionary
281
     1
  3
A0
350
FAC
  3
A1
350
FAD
  3
A2
350
FAE
  3
A3
350
FAF
  3
A4
350
FB0
  3
A5
350
FB1
  3
A6
350
FB2
  3
A7
350
FB3
  3
A8
350
FB4
  3
A9
350
FB5
  3
B0
350
FB6
  3
B1
350
FB7
  3
B2
350
FB8
  3
B3
350
FB9
  3
B4
350
FBA
  3
B5
350
FBB
  3
B6
350
FBC
  3
B7
350
FBD
  3
B8
350
FBE
  3
B9
350
FBF
  3
C0
350
FC0
  3
C1
350
FC1
  3
C2
350
FC2
  3
C3
350
FC3
  3
C4
350
FC4
  3
C5
350
FC5
  3
C6
350
FC6
  3
C7
350
FC7
  3
C8
350
FC8
  3
C9
350
FC9
  3
D0
350
FCA
  3
D1
350
FCB
  3
D2
350
FCC
  0
DICTIONARY
  5
FA8
102
{ACAD_REACTORS
330
13
102
}
330
13
100
AcDbDictionary
281
     1
  3
Standard
350
FA9
  0
DICTIONARY
  5
F93
102
{ACAD_REACTORS
330
13
102
}
330
13
100
AcDbDictionary
281
     1
  3
2dWireframe
350
F99
  3
3D Hidden
350
F9B
  3
3dWireframe
350
F9A
  3
Basic
350
F98
  3
Brighten
350
F9F
  3
ColorChange
350
FA3
  3
Conceptual
350
F9C
  3
Dim
350
F9E
  3
EdgeColorOff
350
FA6
  3
Facepattern
350
FA2
  3
Flat
350
F94
  3
FlatWithEdges
350
F95
  3
Gouraud
350
F96
  3
GouraudWithEdges
350
F97
  3
Hidden
350
F10AF9
  3
JitterOff
350
FA4
  3
Linepattern
350
FA1
  3
OverhangOff
350
FA5
  3
Realistic
350
F9D
  3
Shaded
350
F10AFE
  3
Shaded with edges
350
F10AFD
  3
Shades of Gray
350
F10AFA
  3
Sketchy
350
F10AFB
  3
Thicken
350
FA0
  3
Wireframe
350
F10AF8
  3
X-Ray
350
F10AFC
  0
XRECORD
  5
F10D4C
102
{ACAD_REACTORS
330
13
102
}
330
13
100
AcDbXrecord
280
     1
 90
        1
330
FA9
330
F10BBB
  0
DICTIONARY
  5
F10D41
102
{ACAD_REACTORS
330
13
102
}
330
13
100
AcDbDictionary
281
     1
  3
CANNOSCALE
350
F10D44
  3
CMLEADERSTYLE
350
F10D43
  3
CTABLESTYLE
350
F10D42
  3
DIMASSOC
350
F10D47
  3
INDEXCTL
350
F10D46
  3
SORTENTS
350
F10D45
  3
XCLIPFRAME
350
F10D48
  0
DICTIONARY
  5
F10B4D
102
{ACAD_REACTORS
330
13
102
}
330
13
100
AcDbDictionary
281
     1
  3
AcmStdDictionary
350
F10B58
  0
DICTIONARY
  5
F10B01
102
{ACAD_REACTORS
330
13
102
}
330
13
100
AcDbDictionary
281
     1
  0
DICTIONARY
  5
F10B8E
102
{ACAD_REACTORS
330
13
102
}
330
13
100
AcDbDictionary
281
     1
  0
XRECORD
  5
F10D4D
102
{ACAD_REACTORS
330
13
102
}
330
13
100
AcDbXrecord
280
     1
  1
DWGPROPS COOKIE
  2

  3

  4

  6

  7

  8
Steigner
  9

300
=
301
=
302
=
303
=
304
=
305
=
306
=
307
=
308
=
309
=
 40
0.0031798263888889
 41
2457010.653308426
 42
2457010.656487118
  1

 90
        0
  0
XRECORD
  5
F10D53
102
{ACAD_REACTORS
330
F10D52
102
}
330
F10D52
100
AcDbXrecord
280
     1
102
SHADEPLOT
 70
     0
  0
XRECORD
  5
F10D55
102
{ACAD_REACTORS
330
F10D54
102
}
330
F10D54
100
AcDbXrecord
280
     1
102
SHADEPLOT
 70
     0
  0
XRECORD
  5
F10D4B
102
{ACAD_REACTORS
330
F10D4A
102
}
330
F10D4A
100
AcDbXrecord
280
     1
 40
30518.0
  1
\A1;30\U+00B0{\H1.250000;\S+5\U+00B0~.+5\U+00B0;}
  0
XRECORD
  5
F10D93
102
{ACAD_REACTORS
330
F10D4A
102
}
330
F10D4A
100
AcDbXrecord
280
     1
 40
28745.0
  1
\A1;30°{\H0.5x;\S+5°^ +5°;}
  0
XRECORD
  5
F10D4F
102
{ACAD_REACTORS
330
F10D4E
102
}
330
F10D4E
100
AcDbXrecord
280
     1
102
SHADEPLOT
 70
     0
  0
XRECORD
  5
F10D51
102
{ACAD_REACTORS
330
F10D50
102
}
330
F10D50
100
AcDbXrecord
280
     1
102
SHADEPLOT
 70
     0
  0
LAYOUT
  5
FD1
102
{ACAD_XDICTIONARY
360
F10D7F
102
}
102
{ACAD_REACTORS
330
FCF
102
}
330
FCF
100
AcDbPlotSettings
  1

  2
Microsoft XPS Document Writer
  4

  6

 40
0.0
 41
0.0
 42
0.0
 43
0.0
 44
0.0
 45
0.0
 46
0.0
 47
0.0
 48
0.0
 49
0.0
140
0.0
141
0.0
142
1.0
143
1.0
 70
   688
 72
     0
 73
     0
 74
     5
  7

 75
    16
147
1.0
148
0.0
149
0.0
100
AcDbLayout
  1
Layout1
 70
     1
 71
     1
 10
0.0
 20
0.0
 11
12.0
 21
9.0
 12
0.0
 22
0.0
 32
0.0
 14
1.000000000000000E+20
 24
1.000000000000000E+20
 34
1.000000000000000E+20
 15
-1.000000000000000E+20
 25
-1.000000000000000E+20
 35
-1.000000000000000E+20
146
0.0
 13
0.0
 23
0.0
 33
0.0
 16
1.0
 26
0.0
 36
0.0
 17
0.0
 27
1.0
 37
0.0
 76
     0
330
25D
  0
LAYOUT
  5
FD0
102
{ACAD_XDICTIONARY
360
F10D7D
102
}
102
{ACAD_REACTORS
330
FCF
102
}
330
FCF
100
AcDbPlotSettings
  1

  2
Microsoft XPS Document Writer
  4

  6

 40
0.0
 41
0.0
 42
0.0
 43
0.0
 44
0.0
 45
0.0
 46
0.0
 47
0.0
 48
0.0
 49
0.0
140
0.0
141
0.0
142
1.0
143
1.0
 70
  1712
 72
     0
 73
     0
 74
     0
  7

 75
     0
147
1.0
148
0.0
149
0.0
100
AcDbLayout
  1
Model
 70
     1
 71
     0
 10
0.0
 20
0.0
 11
12.0
 21
9.0
 12
0.0
 22
0.0
 32
0.0
 14
0.0
 24
0.0
 34
0.0
 15
0.0
 25
0.0
 35
0.0
146
0.0
 13
0.0
 23
0.0
 33
0.0
 16
1.0
 26
0.0
 36
0.0
 17
0.0
 27
1.0
 37
0.0
 76
     0
330
261
331
26B
  0
MATERIAL
  5
F83
102
{ACAD_XDICTIONARY
360
F84
102
}
102
{ACAD_REACTORS
330
F7A
102
}
330
F7A
100
AcDbMaterial
  1
ByBlock
 72
     0
 43
0.0208333333333333
 43
0.0
 43
0.0
 43
0.0
 43
0.0
 43
0.0208333333333333
 43
0.0
 43
0.0
 43
0.0
 43
0.0
 43
1.0
 43
0.0
 43
0.0
 43
0.0
 43
0.0
 43
1.0
 77
     0
 47
0.0208333333333333
 47
0.0
 47
0.0
 47
0.0
 47
0.0
 47
0.0208333333333333
 47
0.0
 47
0.0
 47
0.0
 47
0.0
 47
1.0
 47
0.0
 47
0.0
 47
0.0
 47
0.0
 47
1.0
171
     0
 49
0.0208333333333333
 49
0.0
 49
0.0
 49
0.0
 49
0.0
 49
0.0208333333333333
 49
0.0
 49
0.0
 49
0.0
 49
0.0
 49
1.0
 49
0.0
 49
0.0
 49
0.0
 49
0.0
 49
1.0
175
     0
142
0.0208333333333333
142
0.0
142
0.0
142
0.0
142
0.0
142
0.0208333333333333
142
0.0
142
0.0
142
0.0
142
0.0
142
1.0
142
0.0
142
0.0
142
0.0
142
0.0
142
1.0
179
     0
144
0.0208333333333333
144
0.0
144
0.0
144
0.0
144
0.0
144
0.0208333333333333
144
0.0
144
0.0
144
0.0
144
0.0
144
1.0
144
0.0
144
0.0
144
0.0
144
0.0
144
1.0
147
0.0208333333333333
147
0.0
147
0.0
147
0.0
147
0.0
147
0.0208333333333333
147
0.0
147
0.0
147
0.0
147
0.0
147
1.0
147
0.0
147
0.0
147
0.0
147
0.0
147
1.0
  0
MATERIAL
  5
F7B
102
{ACAD_XDICTIONARY
360
F7C
102
}
102
{ACAD_REACTORS
330
F7A
102
}
330
F7A
100
AcDbMaterial
  1
ByLayer
 72
     0
 43
0.0208333333333333
 43
0.0
 43
0.0
 43
0.0
 43
0.0
 43
0.0208333333333333
 43
0.0
 43
0.0
 43
0.0
 43
0.0
 43
1.0
 43
0.0
 43
0.0
 43
0.0
 43
0.0
 43
1.0
 77
     0
 47
0.0208333333333333
 47
0.0
 47
0.0
 47
0.0
 47
0.0
 47
0.0208333333333333
 47
0.0
 47
0.0
 47
0.0
 47
0.0
 47
1.0
 47
0.0
 47
0.0
 47
0.0
 47
0.0
 47
1.0
171
     0
 49
0.0208333333333333
 49
0.0
 49
0.0
 49
0.0
 49
0.0
 49
0.0208333333333333
 49
0.0
 49
0.0
 49
0.0
 49
0.0
 49
1.0
 49
0.0
 49
0.0
 49
0.0
 49
0.0
 49
1.0
175
     0
142
0.0208333333333333
142
0.0
142
0.0
142
0.0
142
0.0
142
0.0208333333333333
142
0.0
142
0.0
142
0.0
142
0.0
142
1.0
142
0.0
142
0.0
142
0.0
142
0.0
142
1.0
179
     0
144
0.0208333333333333
144
0.0
144
0.0
144
0.0
144
0.0
144
0.0208333333333333
144
0.0
144
0.0
144
0.0
144
0.0
144
1.0
144
0.0
144
0.0
144
0.0
144
0.0
144
1.0
147
0.0208333333333333
147
0.0
147
0.0
147
0.0
147
0.0
147
0.0208333333333333
147
0.0
147
0.0
147
0.0
147
0.0
147
1.0
147
0.0
147
0.0
147
0.0
147
0.0
147
1.0
  0
MATERIAL
  5
F8B
102
{ACAD_XDICTIONARY
360
F8C
102
}
102
{ACAD_REACTORS
330
F7A
102
}
330
F7A
100
AcDbMaterial
  1
Global
 72
     0
 43
0.0208333333333333
 43
0.0
 43
0.0
 43
0.0
 43
0.0
 43
0.0208333333333333
 43
0.0
 43
0.0
 43
0.0
 43
0.0
 43
1.0
 43
0.0
 43
0.0
 43
0.0
 43
0.0
 43
1.0
 77
     0
 47
0.0208333333333333
 47
0.0
 47
0.0
 47
0.0
 47
0.0
 47
0.0208333333333333
 47
0.0
 47
0.0
 47
0.0
 47
0.0
 47
1.0
 47
0.0
 47
0.0
 47
0.0
 47
0.0
 47
1.0
171
     0
 49
0.0208333333333333
 49
0.0
 49
0.0
 49
0.0
 49
0.0
 49
0.0208333333333333
 49
0.0
 49
0.0
 49
0.0
 49
0.0
 49
1.0
 49
0.0
 49
0.0
 49
0.0
 49
0.0
 49
1.0
175
     0
142
0.0208333333333333
142
0.0
142
0.0
142
0.0
142
0.0
142
0.0208333333333333
142
0.0
142
0.0
142
0.0
142
0.0
142
1.0
142
0.0
142
0.0
142
0.0
142
0.0
142
1.0
179
     0
144
0.0208333333333333
144
0.0
144
0.0
144
0.0
144
0.0
144
0.0208333333333333
144
0.0
144
0.0
144
0.0
144
0.0
144
1.0
144
0.0
144
0.0
144
0.0
144
0.0
144
1.0
147
0.0208333333333333
147
0.0
147
0.0
147
0.0
147
0.0
147
0.0208333333333333
147
0.0
147
0.0
147
0.0
147
0.0
147
1.0
147
0.0
147
0.0
147
0.0
147
0.0
147
1.0
  0
MLEADERSTYLE
  5
FCE
102
{ACAD_REACTORS
330
FCD
102
}
330
FCD
100
AcDbMLeaderStyle
170
     2
171
     1
172
     0
 90
        2
 40
0.0
 41
0.0
173
     1
 91
-1056964608
340
256
 92
       -2
290
     1
 42
0.09
291
     1
 43
0.36
  3
Standard
 44
0.18
300

342
253
174
     1
178
     6
175
     1
176
     0
 93
-1056964608
 45
0.18
292
     0
297
     0
 46
0.18
 94
-1056964608
 47
1.0
 49
1.0
140
1.0
293
     1
141
0.0
294
     1
177
     0
142
1.0
295
     0
296
     0
143
0.125
1001
ACAD_MLEADERVER
1070
     2
  0
MLINESTYLE
  5
FAA
102
{ACAD_REACTORS
330
16
102
}
330
16
100
AcDbMlineStyle
  2
STANDARD
 70
     0
  3

 62
   256
 51
90.0
 52
90.0
 71
     2
 49
0.5
 62
   256
  6
BYLAYER
 49
-0.5
 62
   256
  6
BYLAYER
  0
ACDBPLACEHOLDER
  5
19
102
{ACAD_REACTORS
330
18
102
}
330
18
  0
SCALE
  5
FAC
102
{ACAD_REACTORS
330
FAB
102
}
330
FAB
100
AcDbScale
 70
     0
300
1:1
140
1.0
141
1.0
290
     1
  0
SCALE
  5
FAD
102
{ACAD_REACTORS
330
FAB
102
}
330
FAB
100
AcDbScale
 70
     0
300
1:2
140
1.0
141
2.0
290
     0
  0
SCALE
  5
FAE
102
{ACAD_REACTORS
330
FAB
102
}
330
FAB
100
AcDbScale
 70
     0
300
1:4
140
1.0
141
4.0
290
     0
  0
SCALE
  5
FAF
102
{ACAD_REACTORS
330
FAB
102
}
330
FAB
100
AcDbScale
 70
     0
300
1:5
140
1.0
141
5.0
290
     0
  0
SCALE
  5
FB0
102
{ACAD_REACTORS
330
FAB
102
}
330
FAB
100
AcDbScale
 70
     0
300
1:8
140
1.0
141
8.0
290
     0
  0
SCALE
  5
FB1
102
{ACAD_REACTORS
330
FAB
102
}
330
FAB
100
AcDbScale
 70
     0
300
1:10
140
1.0
141
10.0
290
     0
  0
SCALE
  5
FB2
102
{ACAD_REACTORS
330
FAB
102
}
330
FAB
100
AcDbScale
 70
     0
300
1:16
140
1.0
141
16.0
290
     0
  0
SCALE
  5
FB3
102
{ACAD_REACTORS
330
FAB
102
}
330
FAB
100
AcDbScale
 70
     0
300
1:20
140
1.0
141
20.0
290
     0
  0
SCALE
  5
FB4
102
{ACAD_REACTORS
330
FAB
102
}
330
FAB
100
AcDbScale
 70
     0
300
1:30
140
1.0
141
30.0
290
     0
  0
SCALE
  5
FB5
102
{ACAD_REACTORS
330
FAB
102
}
330
FAB
100
AcDbScale
 70
     0
300
1:40
140
1.0
141
40.0
290
     0
  0
SCALE
  5
FB6
102
{ACAD_REACTORS
330
FAB
102
}
330
FAB
100
AcDbScale
 70
     0
300
1:50
140
1.0
141
50.0
290
     0
  0
SCALE
  5
FB7
102
{ACAD_REACTORS
330
FAB
102
}
330
FAB
100
AcDbScale
 70
     0
300
1:100
140
1.0
141
100.0
290
     0
  0
SCALE
  5
FB8
102
{ACAD_REACTORS
330
FAB
102
}
330
FAB
100
AcDbScale
 70
     0
300
2:1
140
2.0
141
1.0
290
     0
  0
SCALE
  5
FB9
102
{ACAD_REACTORS
330
FAB
102
}
330
FAB
100
AcDbScale
 70
     0
300
4:1
140
4.0
141
1.0
290
     0
  0
SCALE
  5
FBA
102
{ACAD_REACTORS
330
FAB
102
}
330
FAB
100
AcDbScale
 70
     0
300
8:1
140
8.0
141
1.0
290
     0
  0
SCALE
  5
FBB
102
{ACAD_REACTORS
330
FAB
102
}
330
FAB
100
AcDbScale
 70
     0
300
10:1
140
10.0
141
1.0
290
     0
  0
SCALE
  5
FBC
102
{ACAD_REACTORS
330
FAB
102
}
330
FAB
100
AcDbScale
 70
     0
300
100:1
140
100.0
141
1.0
290
     0
  0
SCALE
  5
FBD
102
{ACAD_REACTORS
330
FAB
102
}
330
FAB
100
AcDbScale
 70
     0
300
1/128" = 1'-0"
140
0.0078125
141
12.0
290
     0
  0
SCALE
  5
FBE
102
{ACAD_REACTORS
330
FAB
102
}
330
FAB
100
AcDbScale
 70
     0
300
1/64" = 1'-0"
140
0.015625
141
12.0
290
     0
  0
SCALE
  5
FBF
102
{ACAD_REACTORS
330
FAB
102
}
330
FAB
100
AcDbScale
 70
     0
300
1/32" = 1'-0"
140
0.03125
141
12.0
290
     0
  0
SCALE
  5
FC0
102
{ACAD_REACTORS
330
FAB
102
}
330
FAB
100
AcDbScale
 70
     0
300
1/16" = 1'-0"
140
0.0625
141
12.0
290
     0
  0
SCALE
  5
FC1
102
{ACAD_REACTORS
330
FAB
102
}
330
FAB
100
AcDbScale
 70
     0
300
3/32" = 1'-0"
140
0.09375
141
12.0
290
     0
  0
SCALE
  5
FC2
102
{ACAD_REACTORS
330
FAB
102
}
330
FAB
100
AcDbScale
 70
     0
300
1/8" = 1'-0"
140
0.125
141
12.0
290
     0
  0
SCALE
  5
FC3
102
{ACAD_REACTORS
330
FAB
102
}
330
FAB
100
AcDbScale
 70
     0
300
3/16" = 1'-0"
140
0.1875
141
12.0
290
     0
  0
SCALE
  5
FC4
102
{ACAD_REACTORS
330
FAB
102
}
330
FAB
100
AcDbScale
 70
     0
300
1/4" = 1'-0"
140
0.25
141
12.0
290
     0
  0
SCALE
  5
FC5
102
{ACAD_REACTORS
330
FAB
102
}
330
FAB
100
AcDbScale
 70
     0
300
3/8" = 1'-0"
140
0.375
141
12.0
290
     0
  0
SCALE
  5
FC6
102
{ACAD_REACTORS
330
FAB
102
}
330
FAB
100
AcDbScale
 70
     0
300
1/2" = 1'-0"
140
0.5
141
12.0
290
     0
  0
SCALE
  5
FC7
102
{ACAD_REACTORS
330
FAB
102
}
330
FAB
100
AcDbScale
 70
     0
300
3/4" = 1'-0"
140
0.75
141
12.0
290
     0
  0
SCALE
  5
FC8
102
{ACAD_REACTORS
330
FAB
102
}
330
FAB
100
AcDbScale
 70
     0
300
1" = 1'-0"
140
1.0
141
12.0
290
     0
  0
SCALE
  5
FC9
102
{ACAD_REACTORS
330
FAB
102
}
330
FAB
100
AcDbScale
 70
     0
300
1-1/2" = 1'-0"
140
1.5
141
12.0
290
     0
  0
SCALE
  5
FCA
102
{ACAD_REACTORS
330
FAB
102
}
330
FAB
100
AcDbScale
 70
     0
300
3" = 1'-0"
140
3.0
141
12.0
290
     0
  0
SCALE
  5
FCB
102
{ACAD_REACTORS
330
FAB
102
}
330
FAB
100
AcDbScale
 70
     0
300
6" = 1'-0"
140
6.0
141
12.0
290
     0
  0
SCALE
  5
FCC
102
{ACAD_REACTORS
330
FAB
102
}
330
FAB
100
AcDbScale
 70
     0
300
1'-0" = 1'-0"
140
12.0
141
12.0
290
     0
  0
TABLESTYLE
  5
FA9
102
{ACAD_XDICTIONARY
360
FF8
102
}
102
{ACAD_REACTORS
330
FA8
102
}
330
FA8
100
AcDbTableStyle
  3
Standard
 70
     0
 71
     0
 40
0.06
 41
0.06
280
     0
281
     0
  7
Standard
140
0.18
170
     2
 62
     0
 63
     7
283
     0
274
    -2
284
     1
 64
     0
275
    -2
285
     1
 65
     0
276
    -2
286
     1
 66
     0
277
    -2
287
     1
 67
     0
278
    -2
288
     1
 68
     0
279
    -2
289
     1
 69
     0
  7
Standard
140
0.25
170
     5
 62
     0
 63
     7
283
     0
274
    -2
284
     1
 64
     0
275
    -2
285
     1
 65
     0
276
    -2
286
     1
 66
     0
277
    -2
287
     1
 67
     0
278
    -2
288
     1
 68
     0
279
    -2
289
     1
 69
     0
  7
Standard
140
0.18
170
     5
 62
     0
 63
     7
283
     0
274
    -2
284
     1
 64
     0
275
    -2
285
     1
 65
     0
276
    -2
286
     1
 66
     0
277
    -2
287
     1
 67
     0
278
    -2
288
     1
 68
     0
279
    -2
289
     1
 69
     0
  0
VISUALSTYLE
  5
F99
102
{ACAD_XDICTIONARY
360
F10D60
102
}
102
{ACAD_REACTORS
330
F93
102
}
330
F93
100
AcDbVisualStyle
  2

 70
     4
 71
     0
 72
     2
 73
     0
 90
        0
 40
-0.6
 41
-30.0
 62
     5
 63
     7
 74
     1
 91
        4
 64
     7
 65
   257
 75
     1
175
     1
 42
1.0
 92
        0
 66
   257
 43
1.0
 76
     1
 77
     6
 78
     2
 67
     7
 79
     5
170
     0
171
     0
290
     0
174
     0
 93
        1
 44
0.0
173
     0
291
     0
 45
0.0
1001
ACAD
1000
AcDbSavedByObjectVersion
1070
     0
  0
VISUALSTYLE
  5
F9B
102
{ACAD_XDICTIONARY
360
F10D64
102
}
102
{ACAD_REACTORS
330
F93
102
}
330
F93
100
AcDbVisualStyle
  2

 70
     6
 71
     1
 72
     2
 73
     2
 90
        0
 40
-0.6
 41
-30.0
 62
     5
 63
     7
 74
     2
 91
        2
 64
     7
 65
   257
 75
     2
175
     1
 42
179.0
 92
        0
 66
   257
 43
1.0
 76
     1
 77
     6
 78
     2
 67
     7
 79
     3
170
     0
171
     0
290
     0
174
     0
 93
        1
 44
0.0
173
     0
291
     0
 45
0.0
1001
ACAD
1000
AcDbSavedByObjectVersion
1070
     0
  0
VISUALSTYLE
  5
F9A
102
{ACAD_XDICTIONARY
360
F10D62
102
}
102
{ACAD_REACTORS
330
F93
102
}
330
F93
100
AcDbVisualStyle
  2

 70
     5
 71
     0
 72
     2
 73
     0
 90
        0
 40
-0.6
 41
-30.0
 62
     5
 63
     7
 74
     1
 91
        4
 64
     7
 65
   257
 75
     1
175
     1
 42
1.0
 92
        0
 66
   257
 43
1.0
 76
     1
 77
     6
 78
     2
 67
     7
 79
     5
170
     0
171
     0
290
     0
174
     0
 93
        1
 44
0.0
173
     0
291
     0
 45
0.0
1001
ACAD
1000
AcDbSavedByObjectVersion
1070
     0
  0
VISUALSTYLE
  5
F98
102
{ACAD_XDICTIONARY
360
F10D5E
102
}
102
{ACAD_REACTORS
330
F93
102
}
330
F93
100
AcDbVisualStyle
  2

 70
     7
 71
     1
 72
     0
 73
     1
 90
        0
 40
-0.6
 41
-30.0
 62
     5
 63
     7
 74
     0
 91
        4
 64
     7
 65
   257
 75
     1
175
     1
 42
1.0
 92
        8
 66
     7
 43
1.0
 76
     1
 77
     6
 78
     2
 67
     7
 79
     5
170
     0
171
     0
290
     0
174
     0
 93
        1
 44
0.0
173
     0
291
     1
 45
0.0
1001
ACAD
1000
AcDbSavedByObjectVersion
1070
     0
  0
VISUALSTYLE
  5
F9F
102
{ACAD_XDICTIONARY
360
F10D6C
102
}
102
{ACAD_REACTORS
330
F93
102
}
330
F93
100
AcDbVisualStyle
  2

 70
    12
 71
     2
 72
     2
 73
     0
 90
        0
 40
-0.6
 41
-30.0
 62
     5
 63
     7
 74
     1
 91
        4
 64
     7
 65
   257
 75
     1
175
     1
 42
1.0
 92
        8
 66
     7
 43
1.0
 76
     1
 77
     6
 78
     2
 67
     7
 79
     5
170
     0
171
     0
290
     0
174
     0
 93
        1
 44
50.0
173
     0
291
     1
 45
0.0
1001
ACAD
1000
AcDbSavedByObjectVersion
1070
     0
  0
VISUALSTYLE
  5
FA3
102
{ACAD_XDICTIONARY
360
F10D74
102
}
102
{ACAD_REACTORS
330
F93
102
}
330
F93
100
AcDbVisualStyle
  2

 70
    16
 71
     2
 72
     2
 73
     3
 90
        0
 40
-0.6
 41
-30.0
 62
     5
 63
     8
 74
     1
 91
        4
 64
     7
 65
   257
 75
     1
175
     1
 42
1.0
 92
        8
 66
     8
 43
1.0
 76
     1
 77
     6
 78
     2
 67
     7
 79
     5
170
     0
171
     0
290
     0
174
     0
 93
        1
 44
0.0
173
     0
291
     1
 45
0.0
1001
ACAD
1000
AcDbSavedByObjectVersion
1070
     0
  0
VISUALSTYLE
  5
F9C
102
{ACAD_XDICTIONARY
360
F10D66
102
}
102
{ACAD_REACTORS
330
F93
102
}
330
F93
100
AcDbVisualStyle
  2

 70
     9
 71
     3
 72
     2
 73
     0
 90
        0
 40
-0.6
 41
-30.0
 62
     5
 63
     7
 74
     2
 91
        2
 64
     7
 65
   257
 75
     1
175
     1
 42
179.0
 92
        8
 66
     7
 43
1.0
 76
     1
 77
     6
 78
     2
 67
     7
 79
     3
170
     0
171
     0
290
     0
174
     0
 93
        1
 44
0.0
173
     0
291
     0
 45
0.0
1001
ACAD
1000
AcDbSavedByObjectVersion
1070
     0
  0
VISUALSTYLE
  5
F9E
102
{ACAD_XDICTIONARY
360
F10D6A
102
}
102
{ACAD_REACTORS
330
F93
102
}
330
F93
100
AcDbVisualStyle
  2

 70
    11
 71
     2
 72
     2
 73
     0
 90
        0
 40
-0.6
 41
-30.0
 62
     5
 63
     7
 74
     1
 91
        4
 64
     7
 65
   257
 75
     1
175
     1
 42
1.0
 92
        8
 66
     7
 43
1.0
 76
     1
 77
     6
 78
     2
 67
     7
 79
     5
170
     0
171
     0
290
     0
174
     0
 93
        1
 44
-50.0
173
     0
291
     1
 45
0.0
1001
ACAD
1000
AcDbSavedByObjectVersion
1070
     0
  0
VISUALSTYLE
  5
FA6
102
{ACAD_XDICTIONARY
360
F10D7A
102
}
102
{ACAD_REACTORS
330
F93
102
}
330
F93
100
AcDbVisualStyle
  2

 70
    22
 71
     2
 72
     2
 73
     0
 90
        0
 40
-0.6
 41
-30.0
 62
     5
 63
     7
 74
     1
 91
        4
 64
     7
 65
   257
 75
     1
175
     1
 42
1.0
 92
        8
 66
     7
 43
1.0
 76
     1
 77
     6
 78
     2
 67
     7
 79
     5
170
     0
171
     0
290
     0
174
     0
 93
        1
 44
0.0
173
     0
291
     1
 45
0.0
1001
ACAD
1000
AcDbSavedByObjectVersion
1070
     0
  0
VISUALSTYLE
  5
FA2
102
{ACAD_XDICTIONARY
360
F10D72
102
}
102
{ACAD_REACTORS
330
F93
102
}
330
F93
100
AcDbVisualStyle
  2

 70
    15
 71
     2
 72
     2
 73
     0
 90
        0
 40
-0.6
 41
-30.0
 62
     5
 63
     7
 74
     1
 91
        4
 64
     7
 65
   257
 75
     1
175
     1
 42
1.0
 92
        8
 66
     7
 43
1.0
 76
     1
 77
     6
 78
     2
 67
     7
 79
     5
170
     0
171
     0
290
     0
174
     0
 93
        1
 44
0.0
173
     0
291
     1
 45
0.0
1001
ACAD
1000
AcDbSavedByObjectVersion
1070
     0
  0
VISUALSTYLE
  5
F94
102
{ACAD_XDICTIONARY
360
F10D56
102
}
102
{ACAD_REACTORS
330
F93
102
}
330
F93
100
AcDbVisualStyle
  2

 70
     0
 71
     2
 72
     1
 73
     1
 90
        2
 40
-0.6
 41
30.0
 62
     5
 63
     7
 74
     0
 91
        4
 64
     7
 65
   257
 75
     1
175
     1
 42
1.0
 92
        8
 66
     7
 43
1.0
 76
     1
 77
     6
 78
     2
 67
     7
 79
     5
170
     0
171
     0
290
     0
174
     0
 93
       13
 44
0.0
173
     0
291
     1
 45
0.0
1001
ACAD
1000
AcDbSavedByObjectVersion
1070
     0
  0
VISUALSTYLE
  5
F95
102
{ACAD_XDICTIONARY
360
F10D58
102
}
102
{ACAD_REACTORS
330
F93
102
}
330
F93
100
AcDbVisualStyle
  2

 70
     1
 71
     2
 72
     1
 73
     1
 90
        2
 40
-0.6
 41
30.0
 62
     5
 63
     7
 74
     1
 91
        4
 64
     7
 65
   257
 75
     1
175
     1
 42
1.0
 92
        0
 66
   257
 43
1.0
 76
     1
 77
     6
 78
     2
 67
     7
 79
     5
170
     0
171
     0
290
     0
174
     0
 93
       13
 44
0.0
173
     0
291
     1
 45
0.0
1001
ACAD
1000
AcDbSavedByObjectVersion
1070
     0
  0
VISUALSTYLE
  5
F96
102
{ACAD_XDICTIONARY
360
F10D5A
102
}
102
{ACAD_REACTORS
330
F93
102
}
330
F93
100
AcDbVisualStyle
  2

 70
     2
 71
     2
 72
     2
 73
     1
 90
        2
 40
-0.6
 41
30.0
 62
     5
 63
     7
 74
     0
 91
        4
 64
     7
 65
   257
 75
     1
175
     1
 42
1.0
 92
        0
 66
     7
 43
1.0
 76
     1
 77
     6
 78
     2
 67
     7
 79
     5
170
     0
171
     0
290
     0
174
     0
 93
       13
 44
0.0
173
     0
291
     1
 45
0.0
1001
ACAD
1000
AcDbSavedByObjectVersion
1070
     0
  0
VISUALSTYLE
  5
F97
102
{ACAD_XDICTIONARY
360
F10D5C
102
}
102
{ACAD_REACTORS
330
F93
102
}
330
F93
100
AcDbVisualStyle
  2

 70
     3
 71
     2
 72
     2
 73
     1
 90
        2
 40
-0.6
 41
30.0
 62
     5
 63
     7
 74
     1
 91
        4
 64
     7
 65
   257
 75
     1
175
     1
 42
1.0
 92
        0
 66
   257
 43
1.0
 76
     1
 77
     6
 78
     2
 67
     7
 79
     5
170
     0
171
     0
290
     0
174
     0
 93
       13
 44
0.0
173
     0
291
     1
 45
0.0
1001
ACAD
1000
AcDbSavedByObjectVersion
1070
     0
  0
VISUALSTYLE
  5
F10AF9
102
{ACAD_XDICTIONARY
360
F10D83
102
}
102
{ACAD_REACTORS
330
F93
102
}
330
F93
100
AcDbVisualStyle
  2
Hidden
 70
     6
 71
     1
 72
     2
 73
     2
 90
        0
 40
-0.6
 41
-30.0
 62
     5
 63
     7
 74
     2
 91
        2
 64
     7
 65
   257
 75
     2
175
     1
 42
40.0
 92
        0
 66
   257
 43
1.0
 76
     1
 77
     6
 78
     2
 67
     7
 79
     3
170
     0
171
     0
290
     0
174
     0
 93
        1
 44
0.0
173
     0
291
     0
 45
0.0
1001
ACAD
1000
AcDbSavedByObjectVersion
1070
     0
  0
VISUALSTYLE
  5
FA4
102
{ACAD_XDICTIONARY
360
F10D76
102
}
102
{ACAD_REACTORS
330
F93
102
}
330
F93
100
AcDbVisualStyle
  2

 70
    20
 71
     2
 72
     2
 73
     0
 90
        0
 40
-0.6
 41
-30.0
 62
     5
 63
     7
 74
     1
 91
        4
 64
     7
 65
   257
 75
     1
175
     1
 42
1.0
 92
       10
 66
     7
 43
1.0
 76
     1
 77
     6
 78
     2
 67
     7
 79
     5
170
     0
171
     0
290
     0
174
     0
 93
        1
 44
0.0
173
     0
291
     1
 45
0.0
1001
ACAD
1000
AcDbSavedByObjectVersion
1070
     0
  0
VISUALSTYLE
  5
FA1
102
{ACAD_XDICTIONARY
360
F10D70
102
}
102
{ACAD_REACTORS
330
F93
102
}
330
F93
100
AcDbVisualStyle
  2

 70
    14
 71
     2
 72
     2
 73
     0
 90
        0
 40
-0.6
 41
-30.0
 62
     5
 63
     7
 74
     1
 91
        4
 64
     7
 65
   257
 75
     7
175
     7
 42
1.0
 92
        8
 66
     7
 43
1.0
 76
     1
 77
     6
 78
     2
 67
     7
 79
     5
170
     0
171
     0
290
     0
174
     0
 93
        1
 44
0.0
173
     0
291
     1
 45
0.0
1001
ACAD
1000
AcDbSavedByObjectVersion
1070
     0
  0
VISUALSTYLE
  5
FA5
102
{ACAD_XDICTIONARY
360
F10D78
102
}
102
{ACAD_REACTORS
330
F93
102
}
330
F93
100
AcDbVisualStyle
  2

 70
    21
 71
     2
 72
     2
 73
     0
 90
        0
 40
-0.6
 41
-30.0
 62
     5
 63
     7
 74
     1
 91
        4
 64
     7
 65
   257
 75
     1
175
     1
 42
1.0
 92
        9
 66
     7
 43
1.0
 76
     1
 77
     6
 78
     2
 67
     7
 79
     5
170
     0
171
     0
290
     0
174
     0
 93
        1
 44
0.0
173
     0
291
     1
 45
0.0
1001
ACAD
1000
AcDbSavedByObjectVersion
1070
     0
  0
VISUALSTYLE
  5
F9D
102
{ACAD_XDICTIONARY
360
F10D68
102
}
102
{ACAD_REACTORS
330
F93
102
}
330
F93
100
AcDbVisualStyle
  2

 70
     8
 71
     2
 72
     2
 73
     0
 90
        0
 40
-0.6
 41
-30.0
 62
     5
 63
     7
 74
     1
 91
        0
 64
     7
 65
   257
 75
     1
175
     1
 42
1.0
 92
        8
 66
     8
 43
1.0
 76
     1
 77
     6
 78
     2
 67
     7
 79
     5
170
     0
171
     0
290
     0
174
     0
 93
       13
 44
0.0
173
     0
291
     0
 45
0.0
1001
ACAD
1000
AcDbSavedByObjectVersion
1070
     0
  0
VISUALSTYLE
  5
F10AFE
102
{ACAD_XDICTIONARY
360
F10D8D
102
}
102
{ACAD_REACTORS
330
F93
102
}
330
F93
100
AcDbVisualStyle
  2
Shaded
 70
    27
 71
     2
 72
     2
 73
     1
 90
        2
 40
-0.6
 41
30.0
 62
     5
 63
     7
 74
     0
 91
        4
 64
     7
 65
   257
 75
     1
175
     1
 42
1.0
 92
        8
 66
   257
 43
1.0
 76
     1
 77
     6
 78
     2
 67
     8
 79
     3
170
     0
171
     0
290
     0
174
     0
 93
        5
 44
0.0
173
     0
291
     0
 45
0.0
1001
ACAD
1000
AcDbSavedByObjectVersion
1070
     0
  0
VISUALSTYLE
  5
F10AFD
102
{ACAD_XDICTIONARY
360
F10D8B
102
}
102
{ACAD_REACTORS
330
F93
102
}
330
F93
100
AcDbVisualStyle
  2
Shaded with edges
 70
    26
 71
     2
 72
     2
 73
     1
 90
        2
 40
-0.6
 41
30.0
 62
     5
 63
     7
 74
     1
 91
       10
 64
     7
 65
   257
 75
     2
175
     1
 42
1.0
 92
        8
 66
   257
 43
1.0
 76
     1
 77
     6
 78
     2
 67
     7
 79
     3
170
     0
171
     0
290
     0
174
     0
 93
        5
 44
0.0
173
     0
291
     0
 45
0.0
1001
ACAD
1000
AcDbSavedByObjectVersion
1070
     0
  0
VISUALSTYLE
  5
F10AFA
102
{ACAD_XDICTIONARY
360
F10D85
102
}
102
{ACAD_REACTORS
330
F93
102
}
330
F93
100
AcDbVisualStyle
  2
Shades of Gray
 70
    23
 71
     2
 72
     2
 73
     3
 90
        0
 40
-0.6
 41
-30.0
 62
     5
 63
     7
 74
     2
 91
        2
 64
     7
 65
     7
 75
     1
175
     1
 42
40.0
 92
        8
 66
     7
 43
1.0
 76
     1
 77
     6
 78
     2
 67
     7
 79
     3
170
     0
171
     0
290
     0
174
     0
 93
        1
 44
0.0
173
     0
291
     0
 45
0.0
1001
ACAD
1000
AcDbSavedByObjectVersion
1070
     0
  0
VISUALSTYLE
  5
F10AFB
102
{ACAD_XDICTIONARY
360
F10D87
102
}
102
{ACAD_REACTORS
330
F93
102
}
330
F93
100
AcDbVisualStyle
  2
Sketchy
 70
    24
 71
     1
 72
     2
 73
     2
 90
        0
 40
-0.6
 41
-30.0
 62
     5
 63
     7
 74
     2
 91
        2
 64
     7
 65
     7
 75
     1
175
     1
 42
40.0
 92
       11
 66
     7
 43
1.0
 76
     1
 77
     6
 78
     2
 67
     7
 79
     6
170
     0
171
     0
290
     0
174
     0
 93
        1
 44
0.0
173
     0
291
     0
 45
0.0
1001
ACAD
1000
AcDbSavedByObjectVersion
1070
     0
  0
VISUALSTYLE
  5
FA0
102
{ACAD_XDICTIONARY
360
F10D6E
102
}
102
{ACAD_REACTORS
330
F93
102
}
330
F93
100
AcDbVisualStyle
  2

 70
    13
 71
     2
 72
     2
 73
     0
 90
        0
 40
-0.6
 41
-30.0
 62
     5
 63
     7
 74
     1
 91
        4
 64
     7
 65
   257
 75
     1
175
     1
 42
1.0
 92
       12
 66
     7
 43
1.0
 76
     1
 77
     6
 78
     2
 67
     7
 79
     5
170
     0
171
     0
290
     0
174
     0
 93
        1
 44
0.0
173
     0
291
     1
 45
0.0
1001
ACAD
1000
AcDbSavedByObjectVersion
1070
     0
  0
VISUALSTYLE
  5
F10AF8
102
{ACAD_XDICTIONARY
360
F10D81
102
}
102
{ACAD_REACTORS
330
F93
102
}
330
F93
100
AcDbVisualStyle
  2
Wireframe
 70
     5
 71
     0
 72
     2
 73
     0
 90
        0
 40
-0.6
 41
-30.0
 62
     5
 63
     7
 74
     1
 91
        4
 64
     7
 65
   257
 75
     1
175
     1
 42
1.0
 92
        0
 66
   257
 43
1.0
 76
     1
 77
     6
 78
     2
 67
     7
 79
     3
170
     0
171
     0
290
     0
174
     0
 93
        1
 44
0.0
173
     0
291
     0
 45
0.0
1001
ACAD
1000
AcDbSavedByObjectVersion
1070
     0
  0
VISUALSTYLE
  5
F10AFC
102
{ACAD_XDICTIONARY
360
F10D89
102
}
102
{ACAD_REACTORS
330
F93
102
}
330
F93
100
AcDbVisualStyle
  2
X-Ray
 70
    25
 71
     2
 72
     2
 73
     1
 90
        1
 40
0.5
 41
-30.0
 62
     5
 63
     7
 74
     1
 91
        0
 64
     7
 65
   257
 75
     1
175
     1
 42
1.0
 92
        8
 66
     7
 43
1.0
 76
     1
 77
     6
 78
     2
 67
     7
 79
     3
170
     0
171
     0
290
     0
174
     0
 93
       13
 44
0.0
173
     0
291
     0
 45
0.0
1001
ACAD
1000
AcDbSavedByObjectVersion
1070
     0
  0
DICTIONARYVAR
  5
F10D44
102
{ACAD_REACTORS
330
F10D41
102
}
330
F10D41
100
DictionaryVariables
280
     0
  1
1:1
  0
DICTIONARYVAR
  5
F10D43
102
{ACAD_REACTORS
330
F10D41
102
}
330
F10D41
100
DictionaryVariables
280
     0
  1
STANDARD
  0
DICTIONARYVAR
  5
F10D42
102
{ACAD_REACTORS
330
F10D41
102
}
330
F10D41
100
DictionaryVariables
280
     0
  1
STANDARD
  0
DICTIONARYVAR
  5
F10D47
102
{ACAD_REACTORS
330
F10D41
102
}
330
F10D41
100
DictionaryVariables
280
     0
  1
1
  0
DICTIONARYVAR
  5
F10D46
102
{ACAD_REACTORS
330
F10D41
102
}
330
F10D41
100
DictionaryVariables
280
     0
  1
0
  0
DICTIONARYVAR
  5
F10D45
102
{ACAD_REACTORS
330
F10D41
102
}
330
F10D41
100
DictionaryVariables
280
     0
  1
127
  0
DICTIONARYVAR
  5
F10D48
102
{ACAD_REACTORS
330
F10D41
102
}
330
F10D41
100
DictionaryVariables
280
     0
  1
2
  0
DICTIONARY
  5
F10B58
102
{ACAD_REACTORS
330
F10B4D
102
}
330
F10B4D
100
AcDbDictionary
281
     1
  0
DICTIONARY
  5
F10D7F
330
FD1
100
AcDbDictionary
280
     1
281
     1
  3
ACAD_XREC_ROUNDTRIP
360
F10D80
  0
DICTIONARY
  5
F10D7D
330
FD0
100
AcDbDictionary
280
     1
281
     1
  3
ACAD_XREC_ROUNDTRIP
360
F10D7E
  0
DICTIONARY
  5
F84
330
F83
100
AcDbDictionary
280
     1
281
     1
  3
ACAD_XREC_ROUNDTRIP
360
FFF
  3
BUMPTILE
360
F86
  3
DIFFUSETILE
360
F85
  3
OPACITYTILE
360
F89
  3
REFLECTIONTILE
360
F88
  3
REFRACTIONTILE
360
F8A
  3
SPECULARTILE
360
F87
  0
DICTIONARY
  5
F7C
330
F7B
100
AcDbDictionary
280
     1
281
     1
  3
ACAD_XREC_ROUNDTRIP
360
FFE
  3
BUMPTILE
360
F7E
  3
DIFFUSETILE
360
F7D
  3
OPACITYTILE
360
F81
  3
REFLECTIONTILE
360
F80
  3
REFRACTIONTILE
360
F82
  3
SPECULARTILE
360
F7F
  0
DICTIONARY
  5
F8C
330
F8B
100
AcDbDictionary
280
     1
281
     1
  3
ACAD_XREC_ROUNDTRIP
360
1000
  3
BUMPTILE
360
F8E
  3
DIFFUSETILE
360
F8D
  3
OPACITYTILE
360
F91
  3
REFLECTIONTILE
360
F90
  3
REFRACTIONTILE
360
F92
  3
SPECULARTILE
360
F8F
  0
DICTIONARY
  5
FF8
330
FA9
100
AcDbDictionary
280
     1
281
     1
  3
ACAD_ROUNDTRIP_2008_TABLESTYLE_CELLSTYLEMAP
360
F10D49
  3
ACAD_XREC_ROUNDTRIP
360
F10D7C
  0
DICTIONARY
  5
F10D60
330
F99
100
AcDbDictionary
280
     1
281
     1
  3
ACAD_XREC_ROUNDTRIP
360
F10D61
  0
DICTIONARY
  5
F10D64
330
F9B
100
AcDbDictionary
280
     1
281
     1
  3
ACAD_XREC_ROUNDTRIP
360
F10D65
  0
DICTIONARY
  5
F10D62
330
F9A
100
AcDbDictionary
280
     1
281
     1
  3
ACAD_XREC_ROUNDTRIP
360
F10D63
  0
DICTIONARY
  5
F10D5E
330
F98
100
AcDbDictionary
280
     1
281
     1
  3
ACAD_XREC_ROUNDTRIP
360
F10D5F
  0
DICTIONARY
  5
F10D6C
330
F9F
100
AcDbDictionary
280
     1
281
     1
  3
ACAD_XREC_ROUNDTRIP
360
F10D6D
  0
DICTIONARY
  5
F10D74
330
FA3
100
AcDbDictionary
280
     1
281
     1
  3
ACAD_XREC_ROUNDTRIP
360
F10D75
  0
DICTIONARY
  5
F10D66
330
F9C
100
AcDbDictionary
280
     1
281
     1
  3
ACAD_XREC_ROUNDTRIP
360
F10D67
  0
DICTIONARY
  5
F10D6A
330
F9E
100
AcDbDictionary
280
     1
281
     1
  3
ACAD_XREC_ROUNDTRIP
360
F10D6B
  0
DICTIONARY
  5
F10D7A
330
FA6
100
AcDbDictionary
280
     1
281
     1
  3
ACAD_XREC_ROUNDTRIP
360
F10D7B
  0
DICTIONARY
  5
F10D72
330
FA2
100
AcDbDictionary
280
     1
281
     1
  3
ACAD_XREC_ROUNDTRIP
360
F10D73
  0
DICTIONARY
  5
F10D56
330
F94
100
AcDbDictionary
280
     1
281
     1
  3
ACAD_XREC_ROUNDTRIP
360
F10D57
  0
DICTIONARY
  5
F10D58
330
F95
100
AcDbDictionary
280
     1
281
     1
  3
ACAD_XREC_ROUNDTRIP
360
F10D59
  0
DICTIONARY
  5
F10D5A
330
F96
100
AcDbDictionary
280
     1
281
     1
  3
ACAD_XREC_ROUNDTRIP
360
F10D5B
  0
DICTIONARY
  5
F10D5C
330
F97
100
AcDbDictionary
280
     1
281
     1
  3
ACAD_XREC_ROUNDTRIP
360
F10D5D
  0
DICTIONARY
  5
F10D83
330
F10AF9
100
AcDbDictionary
280
     1
281
     1
  3
ACAD_XREC_ROUNDTRIP
360
F10D84
  0
DICTIONARY
  5
F10D76
330
FA4
100
AcDbDictionary
280
     1
281
     1
  3
ACAD_XREC_ROUNDTRIP
360
F10D77
  0
DICTIONARY
  5
F10D70
330
FA1
100
AcDbDictionary
280
     1
281
     1
  3
ACAD_XREC_ROUNDTRIP
360
F10D71
  0
DICTIONARY
  5
F10D78
330
FA5
100
AcDbDictionary
280
     1
281
     1
  3
ACAD_XREC_ROUNDTRIP
360
F10D79
  0
DICTIONARY
  5
F10D68
330
F9D
100
AcDbDictionary
280
     1
281
     1
  3
ACAD_XREC_ROUNDTRIP
360
F10D69
  0
DICTIONARY
  5
F10D8D
330
F10AFE
100
AcDbDictionary
280
     1
281
     1
  3
ACAD_XREC_ROUNDTRIP
360
F10D8E
  0
DICTIONARY
  5
F10D8B
330
F10AFD
100
AcDbDictionary
280
     1
281
     1
  3
ACAD_XREC_ROUNDTRIP
360
F10D8C
  0
DICTIONARY
  5
F10D85
330
F10AFA
100
AcDbDictionary
280
     1
281
     1
  3
ACAD_XREC_ROUNDTRIP
360
F10D86
  0
DICTIONARY
  5
F10D87
330
F10AFB
100
AcDbDictionary
280
     1
281
     1
  3
ACAD_XREC_ROUNDTRIP
360
F10D88
  0
DICTIONARY
  5
F10D6E
330
FA0
100
AcDbDictionary
280
     1
281
     1
  3
ACAD_XREC_ROUNDTRIP
360
F10D6F
  0
DICTIONARY
  5
F10D81
330
F10AF8
100
AcDbDictionary
280
     1
281
     1
  3
ACAD_XREC_ROUNDTRIP
360
F10D82
  0
DICTIONARY
  5
F10D89
330
F10AFC
100
AcDbDictionary
280
     1
281
     1
  3
ACAD_XREC_ROUNDTRIP
360
F10D8A
  0
XRECORD
  5
F10D80
102
{ACAD_REACTORS
330
F10D7F
102
}
330
F10D7F
100
AcDbXrecord
280
     1
102
SHADEPLOT
 70
     0
102
SHADEPLOTRESLEVEL
 70
     2
102
SHADEPLOTCUSTOMDPI
 70
   300
  0
XRECORD
  5
F10D7E
102
{ACAD_REACTORS
330
F10D7D
102
}
330
F10D7D
100
AcDbXrecord
280
     1
102
SHADEPLOT
 70
     0
102
SHADEPLOTRESLEVEL
 70
     2
102
SHADEPLOTCUSTOMDPI
 70
   300
  0
XRECORD
  5
FFF
102
{ACAD_REACTORS
330
F84
102
}
330
F84
100
AcDbXrecord
280
     1
102
MATERIAL
148
0.0
149
0.0
149
0.0
 93
        0
 94
      127
282
     0
 72
     0
 77
     0
171
     0
175
     0
179
     0
273
     0
  0
XRECORD
  5
F86
102
{ACAD_REACTORS
330
F84
102
}
330
F84
100
AcDbXrecord
280
     1
270
     1
271
     1
  0
XRECORD
  5
F85
102
{ACAD_REACTORS
330
F84
102
}
330
F84
100
AcDbXrecord
280
     1
270
     1
271
     1
  0
XRECORD
  5
F89
102
{ACAD_REACTORS
330
F84
102
}
330
F84
100
AcDbXrecord
280
     1
270
     1
271
     1
  0
XRECORD
  5
F88
102
{ACAD_REACTORS
330
F84
102
}
330
F84
100
AcDbXrecord
280
     1
270
     1
271
     1
  0
XRECORD
  5
F8A
102
{ACAD_REACTORS
330
F84
102
}
330
F84
100
AcDbXrecord
280
     1
270
     1
271
     1
  0
XRECORD
  5
F87
102
{ACAD_REACTORS
330
F84
102
}
330
F84
100
AcDbXrecord
280
     1
270
     1
271
     1
  0
XRECORD
  5
FFE
102
{ACAD_REACTORS
330
F7C
102
}
330
F7C
100
AcDbXrecord
280
     1
102
MATERIAL
148
0.0
149
0.0
149
0.0
 93
        0
 94
      127
282
     0
 72
     0
 77
     0
171
     0
175
     0
179
     0
273
     0
  0
XRECORD
  5
F7E
102
{ACAD_REACTORS
330
F7C
102
}
330
F7C
100
AcDbXrecord
280
     1
270
     1
271
     1
  0
XRECORD
  5
F7D
102
{ACAD_REACTORS
330
F7C
102
}
330
F7C
100
AcDbXrecord
280
     1
270
     1
271
     1
  0
XRECORD
  5
F81
102
{ACAD_REACTORS
330
F7C
102
}
330
F7C
100
AcDbXrecord
280
     1
270
     1
271
     1
  0
XRECORD
  5
F80
102
{ACAD_REACTORS
330
F7C
102
}
330
F7C
100
AcDbXrecord
280
     1
270
     1
271
     1
  0
XRECORD
  5
F82
102
{ACAD_REACTORS
330
F7C
102
}
330
F7C
100
AcDbXrecord
280
     1
270
     1
271
     1
  0
XRECORD
  5
F7F
102
{ACAD_REACTORS
330
F7C
102
}
330
F7C
100
AcDbXrecord
280
     1
270
     1
271
     1
  0
XRECORD
  5
1000
102
{ACAD_REACTORS
330
F8C
102
}
330
F8C
100
AcDbXrecord
280
     1
102
MATERIAL
148
0.0
149
0.0
149
0.0
 93
        0
 94
      127
282
     0
 72
     0
 77
     0
171
     0
175
     0
179
     0
273
     0
  0
XRECORD
  5
F8E
102
{ACAD_REACTORS
330
F8C
102
}
330
F8C
100
AcDbXrecord
280
     1
270
     1
271
     1
  0
XRECORD
  5
F8D
102
{ACAD_REACTORS
330
F8C
102
}
330
F8C
100
AcDbXrecord
280
     1
270
     1
271
     1
  0
XRECORD
  5
F91
102
{ACAD_REACTORS
330
F8C
102
}
330
F8C
100
AcDbXrecord
280
     1
270
     1
271
     1
  0
XRECORD
  5
F90
102
{ACAD_REACTORS
330
F8C
102
}
330
F8C
100
AcDbXrecord
280
     1
270
     1
271
     1
  0
XRECORD
  5
F92
102
{ACAD_REACTORS
330
F8C
102
}
330
F8C
100
AcDbXrecord
280
     1
270
     1
271
     1
  0
XRECORD
  5
F8F
102
{ACAD_REACTORS
330
F8C
102
}
330
F8C
100
AcDbXrecord
280
     1
270
     1
271
     1
  0
CELLSTYLEMAP
  5
F10D49
102
{ACAD_REACTORS
330
FF8
102
}
330
FF8
100
AcDbCellStyleMap
 90
        3
300
CELLSTYLE
  1
TABLEFORMAT_BEGIN
 90
        5
170
     1
 91
        0
 92
    32768
 62
   257
 93
        1
300
CONTENTFORMAT
  1
CONTENTFORMAT_BEGIN
 90
        0
 91
        0
 92
      512
 93
        0
300

 40
0.0
140
1.0
 94
        5
 62
     0
340
253
144
0.25
309
CONTENTFORMAT_END
171
     1
301
MARGIN
  1
CELLMARGIN_BEGIN
 40
0.06
 40
0.06
 40
0.06
 40
0.06
 40
0.18
 40
0.18
309
CELLMARGIN_END
 94
        6
 95
        1
302
GRIDFORMAT
  1
GRIDFORMAT_BEGIN
 90
        0
 91
        1
 62
     0
 92
       -2
340
0
 93
        0
 40
0.045
309
GRIDFORMAT_END
 95
        2
302
GRIDFORMAT
  1
GRIDFORMAT_BEGIN
 90
        0
 91
        1
 62
     0
 92
       -2
340
0
 93
        0
 40
0.045
309
GRIDFORMAT_END
 95
        4
302
GRIDFORMAT
  1
GRIDFORMAT_BEGIN
 90
        0
 91
        1
 62
     0
 92
       -2
340
0
 93
        0
 40
0.045
309
GRIDFORMAT_END
 95
        8
302
GRIDFORMAT
  1
GRIDFORMAT_BEGIN
 90
        0
 91
        1
 62
     0
 92
       -2
340
0
 93
        0
 40
0.045
309
GRIDFORMAT_END
 95
       16
302
GRIDFORMAT
  1
GRIDFORMAT_BEGIN
 90
        0
 91
        1
 62
     0
 92
       -2
340
0
 93
        0
 40
0.045
309
GRIDFORMAT_END
 95
       32
302
GRIDFORMAT
  1
GRIDFORMAT_BEGIN
 90
        0
 91
        1
 62
     0
 92
       -2
340
0
 93
        0
 40
0.045
309
GRIDFORMAT_END
309
TABLEFORMAT_END
  1
CELLSTYLE_BEGIN
 90
        1
 91
        1
300
_TITLE
309
CELLSTYLE_END
300
CELLSTYLE
  1
TABLEFORMAT_BEGIN
 90
        5
170
     1
 91
        0
 92
        0
 62
   257
 93
        1
300
CONTENTFORMAT
  1
CONTENTFORMAT_BEGIN
 90
        0
 91
        0
 92
      512
 93
        0
300

 40
0.0
140
1.0
 94
        5
 62
     0
340
253
144
0.18
309
CONTENTFORMAT_END
171
     1
301
MARGIN
  1
CELLMARGIN_BEGIN
 40
0.06
 40
0.06
 40
0.06
 40
0.06
 40
0.18
 40
0.18
309
CELLMARGIN_END
 94
        6
 95
        1
302
GRIDFORMAT
  1
GRIDFORMAT_BEGIN
 90
        0
 91
        1
 62
     0
 92
       -2
340
0
 93
        0
 40
0.045
309
GRIDFORMAT_END
 95
        2
302
GRIDFORMAT
  1
GRIDFORMAT_BEGIN
 90
        0
 91
        1
 62
     0
 92
       -2
340
0
 93
        0
 40
0.045
309
GRIDFORMAT_END
 95
        4
302
GRIDFORMAT
  1
GRIDFORMAT_BEGIN
 90
        0
 91
        1
 62
     0
 92
       -2
340
0
 93
        0
 40
0.045
309
GRIDFORMAT_END
 95
        8
302
GRIDFORMAT
  1
GRIDFORMAT_BEGIN
 90
        0
 91
        1
 62
     0
 92
       -2
340
0
 93
        0
 40
0.045
309
GRIDFORMAT_END
 95
       16
302
GRIDFORMAT
  1
GRIDFORMAT_BEGIN
 90
        0
 91
        1
 62
     0
 92
       -2
340
0
 93
        0
 40
0.045
309
GRIDFORMAT_END
 95
       32
302
GRIDFORMAT
  1
GRIDFORMAT_BEGIN
 90
        0
 91
        1
 62
     0
 92
       -2
340
0
 93
        0
 40
0.045
309
GRIDFORMAT_END
309
TABLEFORMAT_END
  1
CELLSTYLE_BEGIN
 90
        2
 91
        1
300
_HEADER
309
CELLSTYLE_END
300
CELLSTYLE
  1
TABLEFORMAT_BEGIN
 90
        5
170
     1
 91
        0
 92
        0
 62
   257
 93
        1
300
CONTENTFORMAT
  1
CONTENTFORMAT_BEGIN
 90
        0
 91
        0
 92
      512
 93
        0
300

 40
0.0
140
1.0
 94
        2
 62
     0
340
253
144
0.18
309
CONTENTFORMAT_END
171
     1
301
MARGIN
  1
CELLMARGIN_BEGIN
 40
0.06
 40
0.06
 40
0.06
 40
0.06
 40
0.18
 40
0.18
309
CELLMARGIN_END
 94
        6
 95
        1
302
GRIDFORMAT
  1
GRIDFORMAT_BEGIN
 90
        0
 91
        1
 62
     0
 92
       -2
340
0
 93
        0
 40
0.045
309
GRIDFORMAT_END
 95
        2
302
GRIDFORMAT
  1
GRIDFORMAT_BEGIN
 90
        0
 91
        1
 62
     0
 92
       -2
340
0
 93
        0
 40
0.045
309
GRIDFORMAT_END
 95
        4
302
GRIDFORMAT
  1
GRIDFORMAT_BEGIN
 90
        0
 91
        1
 62
     0
 92
       -2
340
0
 93
        0
 40
0.045
309
GRIDFORMAT_END
 95
        8
302
GRIDFORMAT
  1
GRIDFORMAT_BEGIN
 90
        0
 91
        1
 62
     0
 92
       -2
340
0
 93
        0
 40
0.045
309
GRIDFORMAT_END
 95
       16
302
GRIDFORMAT
  1
GRIDFORMAT_BEGIN
 90
        0
 91
        1
 62
     0
 92
       -2
340
0
 93
        0
 40
0.045
309
GRIDFORMAT_END
 95
       32
302
GRIDFORMAT
  1
GRIDFORMAT_BEGIN
 90
        0
 91
        1
 62
     0
 92
       -2
340
0
 93
        0
 40
0.045
309
GRIDFORMAT_END
309
TABLEFORMAT_END
  1
CELLSTYLE_BEGIN
 90
        3
 91
        2
300
_DATA
309
CELLSTYLE_END
  0
XRECORD
  5
F10D7C
102
{ACAD_REACTORS
330
FF8
102
}
330
FF8
100
AcDbXrecord
280
     1
102
ACAD_ROUNDTRIP_PRE2007_TABLESTYLE
 90
      512
 91
        0
  1

 92
      512
 93
        0
  2

 94
      512
 95
        0
  3

  0
XRECORD
  5
F10D61
102
{ACAD_REACTORS
330
F10D60
102
}
330
F10D60
100
AcDbXrecord
280
     1
102
RTVSPropertyOp0
 70
     1
102
RTVSPropertyOp1
 70
     1
102
RTVSPropertyOp2
 70
     1
102
RTVSPropertyOp3
 70
     1
102
RTVSPropertyOp4
 70
     1
102
RTVSPropertyOp5
 70
     1
102
RTVSPropertyOp6
 70
     1
102
RTVSPropertyOp7
 70
     1
102
RTVSPropertyOp8
 70
     1
102
RTVSPropertyOp9
 70
     1
102
RTVSPropertyOp10
 70
     1
102
RTVSPropertyOp11
 70
     1
102
RTVSPropertyOp12
 70
     1
102
RTVSPropertyOp13
 70
     1
102
RTVSPropertyOp14
 70
     1
102
RTVSPropertyOp15
 70
     1
102
RTVSPropertyOp16
 70
     1
102
RTVSPropertyOp17
 70
     1
102
RTVSPropertyOp18
 70
     1
102
RTVSPropertyOp19
 70
     1
102
RTVSPropertyOp20
 70
     1
102
RTVSPropertyOp21
 70
     1
102
RTVSPropertyOp22
 70
     1
102
RTVSPropertyOp23
 70
     1
102
RTVSPropertyOp24
 70
     1
102
RTVSPropertyOp25
 70
     1
102
RTVSPropertyOp26
 70
     1
102
RTVSPropertyOp27
 70
     1
102
RTVSPropertyOp28
 70
     1
102
RTVSPropertyOp29
 70
     1
102
RTVSPropertyOp30
 70
     1
102
RTVSPropertyOp31
 70
     1
102
RTVSPropertyOp32
 70
     1
  0
XRECORD
  5
F10D65
102
{ACAD_REACTORS
330
F10D64
102
}
330
F10D64
100
AcDbXrecord
280
     1
102
RTVSPropertyOp0
 70
     1
102
RTVSPropertyOp1
 70
     1
102
RTVSPropertyOp2
 70
     1
102
RTVSPropertyOp3
 70
     1
102
RTVSPropertyOp4
 70
     1
102
RTVSPropertyOp5
 70
     1
102
RTVSPropertyOp6
 70
     1
102
RTVSPropertyOp7
 70
     1
102
RTVSPropertyOp8
 70
     1
102
RTVSPropertyOp9
 70
     1
102
RTVSPropertyOp10
 70
     1
102
RTVSPropertyOp11
 70
     1
102
RTVSPropertyOp12
 70
     1
102
RTVSPropertyOp13
 70
     1
102
RTVSPropertyOp14
 70
     1
102
RTVSPropertyOp15
 70
     1
102
RTVSPropertyOp16
 70
     1
102
RTVSPropertyOp17
 70
     1
102
RTVSPropertyOp18
 70
     1
102
RTVSPropertyOp19
 70
     1
102
RTVSPropertyOp20
 70
     1
102
RTVSPropertyOp21
 70
     1
102
RTVSPropertyOp22
 70
     1
102
RTVSPropertyOp23
 70
     1
102
RTVSPropertyOp24
 70
     1
102
RTVSPropertyOp25
 70
     1
102
RTVSPropertyOp26
 70
     1
102
RTVSPropertyOp27
 70
     1
102
RTVSPropertyOp28
 70
     1
102
RTVSPropertyOp29
 70
     1
102
RTVSPropertyOp30
 70
     1
102
RTVSPropertyOp31
 70
     1
102
RTVSPropertyOp32
 70
     1
  0
XRECORD
  5
F10D63
102
{ACAD_REACTORS
330
F10D62
102
}
330
F10D62
100
AcDbXrecord
280
     1
102
RTVSPropertyOp0
 70
     1
102
RTVSPropertyOp1
 70
     1
102
RTVSPropertyOp2
 70
     1
102
RTVSPropertyOp3
 70
     1
102
RTVSPropertyOp4
 70
     1
102
RTVSPropertyOp5
 70
     1
102
RTVSPropertyOp6
 70
     1
102
RTVSPropertyOp7
 70
     1
102
RTVSPropertyOp8
 70
     1
102
RTVSPropertyOp9
 70
     1
102
RTVSPropertyOp10
 70
     1
102
RTVSPropertyOp11
 70
     1
102
RTVSPropertyOp12
 70
     1
102
RTVSPropertyOp13
 70
     1
102
RTVSPropertyOp14
 70
     1
102
RTVSPropertyOp15
 70
     1
102
RTVSPropertyOp16
 70
     1
102
RTVSPropertyOp17
 70
     1
102
RTVSPropertyOp18
 70
     1
102
RTVSPropertyOp19
 70
     1
102
RTVSPropertyOp20
 70
     1
102
RTVSPropertyOp21
 70
     1
102
RTVSPropertyOp22
 70
     1
102
RTVSPropertyOp23
 70
     1
102
RTVSPropertyOp24
 70
     1
102
RTVSPropertyOp25
 70
     1
102
RTVSPropertyOp26
 70
     1
102
RTVSPropertyOp27
 70
     1
102
RTVSPropertyOp28
 70
     1
102
RTVSPropertyOp29
 70
     1
102
RTVSPropertyOp30
 70
     1
102
RTVSPropertyOp31
 70
     1
102
RTVSPropertyOp32
 70
     1
  0
XRECORD
  5
F10D5F
102
{ACAD_REACTORS
330
F10D5E
102
}
330
F10D5E
100
AcDbXrecord
280
     1
102
RTVSPropertyOp0
 70
     1
102
RTVSPropertyOp1
 70
     1
102
RTVSPropertyOp2
 70
     1
102
RTVSPropertyOp3
 70
     1
102
RTVSPropertyOp4
 70
     1
102
RTVSPropertyOp5
 70
     1
102
RTVSPropertyOp6
 70
     1
102
RTVSPropertyOp7
 70
     1
102
RTVSPropertyOp8
 70
     1
102
RTVSPropertyOp9
 70
     1
102
RTVSPropertyOp10
 70
     1
102
RTVSPropertyOp11
 70
     1
102
RTVSPropertyOp12
 70
     1
102
RTVSPropertyOp13
 70
     1
102
RTVSPropertyOp14
 70
     1
102
RTVSPropertyOp15
 70
     1
102
RTVSPropertyOp16
 70
     1
102
RTVSPropertyOp17
 70
     1
102
RTVSPropertyOp18
 70
     1
102
RTVSPropertyOp19
 70
     1
102
RTVSPropertyOp20
 70
     1
102
RTVSPropertyOp21
 70
     1
102
RTVSPropertyOp22
 70
     1
102
RTVSPropertyOp23
 70
     1
102
RTVSPropertyOp24
 70
     1
102
RTVSPropertyOp25
 70
     1
102
RTVSPropertyOp26
 70
     1
102
RTVSPropertyOp27
 70
     1
102
RTVSPropertyOp28
 70
     1
102
RTVSPropertyOp29
 70
     1
102
RTVSPropertyOp30
 70
     1
102
RTVSPropertyOp31
 70
     1
102
RTVSPropertyOp32
 70
     1
  0
XRECORD
  5
F10D6D
102
{ACAD_REACTORS
330
F10D6C
102
}
330
F10D6C
100
AcDbXrecord
280
     1
102
RTVSPropertyOp0
 70
     1
102
RTVSPropertyOp1
 70
     1
102
RTVSPropertyOp2
 70
     1
102
RTVSPropertyOp3
 70
     1
102
RTVSPropertyOp4
 70
     1
102
RTVSPropertyOp5
 70
     1
102
RTVSPropertyOp6
 70
     1
102
RTVSPropertyOp7
 70
     1
102
RTVSPropertyOp8
 70
     1
102
RTVSPropertyOp9
 70
     1
102
RTVSPropertyOp10
 70
     1
102
RTVSPropertyOp11
 70
     1
102
RTVSPropertyOp12
 70
     1
102
RTVSPropertyOp13
 70
     1
102
RTVSPropertyOp14
 70
     1
102
RTVSPropertyOp15
 70
     1
102
RTVSPropertyOp16
 70
     1
102
RTVSPropertyOp17
 70
     1
102
RTVSPropertyOp18
 70
     1
102
RTVSPropertyOp19
 70
     1
102
RTVSPropertyOp20
 70
     1
102
RTVSPropertyOp21
 70
     1
102
RTVSPropertyOp22
 70
     1
102
RTVSPropertyOp23
 70
     1
102
RTVSPropertyOp24
 70
     1
102
RTVSPropertyOp25
 70
     1
102
RTVSPropertyOp26
 70
     1
102
RTVSPropertyOp27
 70
     1
102
RTVSPropertyOp28
 70
     1
102
RTVSPropertyOp29
 70
     1
102
RTVSPropertyOp30
 70
     1
102
RTVSPropertyOp31
 70
     1
102
RTVSPropertyOp32
 70
     1
  0
XRECORD
  5
F10D75
102
{ACAD_REACTORS
330
F10D74
102
}
330
F10D74
100
AcDbXrecord
280
     1
102
RTVSPropertyOp0
 70
     1
102
RTVSPropertyOp1
 70
     1
102
RTVSPropertyOp2
 70
     1
102
RTVSPropertyOp3
 70
     1
102
RTVSPropertyOp4
 70
     1
102
RTVSPropertyOp5
 70
     1
102
RTVSPropertyOp6
 70
     1
102
RTVSPropertyOp7
 70
     1
102
RTVSPropertyOp8
 70
     1
102
RTVSPropertyOp9
 70
     1
102
RTVSPropertyOp10
 70
     1
102
RTVSPropertyOp11
 70
     1
102
RTVSPropertyOp12
 70
     1
102
RTVSPropertyOp13
 70
     1
102
RTVSPropertyOp14
 70
     1
102
RTVSPropertyOp15
 70
     1
102
RTVSPropertyOp16
 70
     1
102
RTVSPropertyOp17
 70
     1
102
RTVSPropertyOp18
 70
     1
102
RTVSPropertyOp19
 70
     1
102
RTVSPropertyOp20
 70
     1
102
RTVSPropertyOp21
 70
     1
102
RTVSPropertyOp22
 70
     1
102
RTVSPropertyOp23
 70
     1
102
RTVSPropertyOp24
 70
     1
102
RTVSPropertyOp25
 70
     1
102
RTVSPropertyOp26
 70
     1
102
RTVSPropertyOp27
 70
     1
102
RTVSPropertyOp28
 70
     1
102
RTVSPropertyOp29
 70
     1
102
RTVSPropertyOp30
 70
     1
102
RTVSPropertyOp31
 70
     1
102
RTVSPropertyOp32
 70
     1
  0
XRECORD
  5
F10D67
102
{ACAD_REACTORS
330
F10D66
102
}
330
F10D66
100
AcDbXrecord
280
     1
102
RTVSPropertyOp0
 70
     1
102
RTVSPropertyOp1
 70
     1
102
RTVSPropertyOp2
 70
     1
102
RTVSPropertyOp3
 70
     1
102
RTVSPropertyOp4
 70
     1
102
RTVSPropertyOp5
 70
     1
102
RTVSPropertyOp6
 70
     1
102
RTVSPropertyOp7
 70
     1
102
RTVSPropertyOp8
 70
     1
102
RTVSPropertyOp9
 70
     1
102
RTVSPropertyOp10
 70
     1
102
RTVSPropertyOp11
 70
     1
102
RTVSPropertyOp12
 70
     1
102
RTVSPropertyOp13
 70
     1
102
RTVSPropertyOp14
 70
     1
102
RTVSPropertyOp15
 70
     1
102
RTVSPropertyOp16
 70
     1
102
RTVSPropertyOp17
 70
     1
102
RTVSPropertyOp18
 70
     1
102
RTVSPropertyOp19
 70
     1
102
RTVSPropertyOp20
 70
     1
102
RTVSPropertyOp21
 70
     1
102
RTVSPropertyOp22
 70
     1
102
RTVSPropertyOp23
 70
     1
102
RTVSPropertyOp24
 70
     1
102
RTVSPropertyOp25
 70
     1
102
RTVSPropertyOp26
 70
     1
102
RTVSPropertyOp27
 70
     1
102
RTVSPropertyOp28
 70
     1
102
RTVSPropertyOp29
 70
     1
102
RTVSPropertyOp30
 70
     1
102
RTVSPropertyOp31
 70
     1
102
RTVSPropertyOp32
 70
     1
  0
XRECORD
  5
F10D6B
102
{ACAD_REACTORS
330
F10D6A
102
}
330
F10D6A
100
AcDbXrecord
280
     1
102
RTVSPropertyOp0
 70
     1
102
RTVSPropertyOp1
 70
     1
102
RTVSPropertyOp2
 70
     1
102
RTVSPropertyOp3
 70
     1
102
RTVSPropertyOp4
 70
     1
102
RTVSPropertyOp5
 70
     1
102
RTVSPropertyOp6
 70
     1
102
RTVSPropertyOp7
 70
     1
102
RTVSPropertyOp8
 70
     1
102
RTVSPropertyOp9
 70
     1
102
RTVSPropertyOp10
 70
     1
102
RTVSPropertyOp11
 70
     1
102
RTVSPropertyOp12
 70
     1
102
RTVSPropertyOp13
 70
     1
102
RTVSPropertyOp14
 70
     1
102
RTVSPropertyOp15
 70
     1
102
RTVSPropertyOp16
 70
     1
102
RTVSPropertyOp17
 70
     1
102
RTVSPropertyOp18
 70
     1
102
RTVSPropertyOp19
 70
     1
102
RTVSPropertyOp20
 70
     1
102
RTVSPropertyOp21
 70
     1
102
RTVSPropertyOp22
 70
     1
102
RTVSPropertyOp23
 70
     1
102
RTVSPropertyOp24
 70
     1
102
RTVSPropertyOp25
 70
     1
102
RTVSPropertyOp26
 70
     1
102
RTVSPropertyOp27
 70
     1
102
RTVSPropertyOp28
 70
     1
102
RTVSPropertyOp29
 70
     1
102
RTVSPropertyOp30
 70
     1
102
RTVSPropertyOp31
 70
     1
102
RTVSPropertyOp32
 70
     1
  0
XRECORD
  5
F10D7B
102
{ACAD_REACTORS
330
F10D7A
102
}
330
F10D7A
100
AcDbXrecord
280
     1
102
RTVSPropertyOp0
 70
     0
102
RTVSPropertyOp1
 70
     0
102
RTVSPropertyOp2
 70
     0
102
RTVSPropertyOp3
 70
     0
102
RTVSPropertyOp4
 70
     0
102
RTVSPropertyOp5
 70
     0
102
RTVSPropertyOp6
 70
     0
102
RTVSPropertyOp7
 70
     0
102
RTVSPropertyOp8
 70
     0
102
RTVSPropertyOp9
 70
     0
102
RTVSPropertyOp10
 70
     0
102
RTVSPropertyOp11
 70
     0
102
RTVSPropertyOp12
 70
     0
102
RTVSPropertyOp13
 70
     0
102
RTVSPropertyOp14
 70
     2
102
RTVSPropertyOp15
 70
     0
102
RTVSPropertyOp16
 70
     0
102
RTVSPropertyOp17
 70
     0
102
RTVSPropertyOp18
 70
     0
102
RTVSPropertyOp19
 70
     0
102
RTVSPropertyOp20
 70
     0
102
RTVSPropertyOp21
 70
     0
102
RTVSPropertyOp22
 70
     0
102
RTVSPropertyOp23
 70
     0
102
RTVSPropertyOp24
 70
     0
102
RTVSPropertyOp25
 70
     0
102
RTVSPropertyOp26
 70
     0
102
RTVSPropertyOp27
 70
     0
102
RTVSPropertyOp28
 70
     1
102
RTVSPropertyOp29
 70
     1
102
RTVSPropertyOp30
 70
     1
102
RTVSPropertyOp31
 70
     1
102
RTVSPropertyOp32
 70
     1
  0
XRECORD
  5
F10D73
102
{ACAD_REACTORS
330
F10D72
102
}
330
F10D72
100
AcDbXrecord
280
     1
102
RTVSPropertyOp0
 70
     1
102
RTVSPropertyOp1
 70
     1
102
RTVSPropertyOp2
 70
     1
102
RTVSPropertyOp3
 70
     1
102
RTVSPropertyOp4
 70
     1
102
RTVSPropertyOp5
 70
     1
102
RTVSPropertyOp6
 70
     1
102
RTVSPropertyOp7
 70
     1
102
RTVSPropertyOp8
 70
     1
102
RTVSPropertyOp9
 70
     1
102
RTVSPropertyOp10
 70
     1
102
RTVSPropertyOp11
 70
     1
102
RTVSPropertyOp12
 70
     1
102
RTVSPropertyOp13
 70
     1
102
RTVSPropertyOp14
 70
     1
102
RTVSPropertyOp15
 70
     1
102
RTVSPropertyOp16
 70
     1
102
RTVSPropertyOp17
 70
     1
102
RTVSPropertyOp18
 70
     1
102
RTVSPropertyOp19
 70
     1
102
RTVSPropertyOp20
 70
     1
102
RTVSPropertyOp21
 70
     1
102
RTVSPropertyOp22
 70
     1
102
RTVSPropertyOp23
 70
     1
102
RTVSPropertyOp24
 70
     1
102
RTVSPropertyOp25
 70
     1
102
RTVSPropertyOp26
 70
     1
102
RTVSPropertyOp27
 70
     1
102
RTVSPropertyOp28
 70
     1
102
RTVSPropertyOp29
 70
     1
102
RTVSPropertyOp30
 70
     1
102
RTVSPropertyOp31
 70
     1
102
RTVSPropertyOp32
 70
     1
  0
XRECORD
  5
F10D57
102
{ACAD_REACTORS
330
F10D56
102
}
330
F10D56
100
AcDbXrecord
280
     1
102
RTVSPropertyOp0
 70
     1
102
RTVSPropertyOp1
 70
     1
102
RTVSPropertyOp2
 70
     1
102
RTVSPropertyOp3
 70
     1
102
RTVSPropertyOp4
 70
     1
102
RTVSPropertyOp5
 70
     1
102
RTVSPropertyOp6
 70
     1
102
RTVSPropertyOp7
 70
     1
102
RTVSPropertyOp8
 70
     1
102
RTVSPropertyOp9
 70
     1
102
RTVSPropertyOp10
 70
     1
102
RTVSPropertyOp11
 70
     1
102
RTVSPropertyOp12
 70
     1
102
RTVSPropertyOp13
 70
     1
102
RTVSPropertyOp14
 70
     1
102
RTVSPropertyOp15
 70
     1
102
RTVSPropertyOp16
 70
     1
102
RTVSPropertyOp17
 70
     1
102
RTVSPropertyOp18
 70
     1
102
RTVSPropertyOp19
 70
     1
102
RTVSPropertyOp20
 70
     1
102
RTVSPropertyOp21
 70
     1
102
RTVSPropertyOp22
 70
     1
102
RTVSPropertyOp23
 70
     1
102
RTVSPropertyOp24
 70
     1
102
RTVSPropertyOp25
 70
     1
102
RTVSPropertyOp26
 70
     1
102
RTVSPropertyOp27
 70
     1
102
RTVSPropertyOp28
 70
     1
102
RTVSPropertyOp29
 70
     1
102
RTVSPropertyOp30
 70
     1
102
RTVSPropertyOp31
 70
     1
102
RTVSPropertyOp32
 70
     1
  0
XRECORD
  5
F10D59
102
{ACAD_REACTORS
330
F10D58
102
}
330
F10D58
100
AcDbXrecord
280
     1
102
RTVSPropertyOp0
 70
     1
102
RTVSPropertyOp1
 70
     1
102
RTVSPropertyOp2
 70
     1
102
RTVSPropertyOp3
 70
     1
102
RTVSPropertyOp4
 70
     1
102
RTVSPropertyOp5
 70
     1
102
RTVSPropertyOp6
 70
     1
102
RTVSPropertyOp7
 70
     1
102
RTVSPropertyOp8
 70
     1
102
RTVSPropertyOp9
 70
     1
102
RTVSPropertyOp10
 70
     1
102
RTVSPropertyOp11
 70
     1
102
RTVSPropertyOp12
 70
     1
102
RTVSPropertyOp13
 70
     1
102
RTVSPropertyOp14
 70
     1
102
RTVSPropertyOp15
 70
     1
102
RTVSPropertyOp16
 70
     1
102
RTVSPropertyOp17
 70
     1
102
RTVSPropertyOp18
 70
     1
102
RTVSPropertyOp19
 70
     1
102
RTVSPropertyOp20
 70
     1
102
RTVSPropertyOp21
 70
     1
102
RTVSPropertyOp22
 70
     1
102
RTVSPropertyOp23
 70
     1
102
RTVSPropertyOp24
 70
     1
102
RTVSPropertyOp25
 70
     1
102
RTVSPropertyOp26
 70
     1
102
RTVSPropertyOp27
 70
     1
102
RTVSPropertyOp28
 70
     1
102
RTVSPropertyOp29
 70
     1
102
RTVSPropertyOp30
 70
     1
102
RTVSPropertyOp31
 70
     1
102
RTVSPropertyOp32
 70
     1
  0
XRECORD
  5
F10D5B
102
{ACAD_REACTORS
330
F10D5A
102
}
330
F10D5A
100
AcDbXrecord
280
     1
102
RTVSPropertyOp0
 70
     1
102
RTVSPropertyOp1
 70
     1
102
RTVSPropertyOp2
 70
     1
102
RTVSPropertyOp3
 70
     1
102
RTVSPropertyOp4
 70
     1
102
RTVSPropertyOp5
 70
     1
102
RTVSPropertyOp6
 70
     1
102
RTVSPropertyOp7
 70
     1
102
RTVSPropertyOp8
 70
     1
102
RTVSPropertyOp9
 70
     1
102
RTVSPropertyOp10
 70
     1
102
RTVSPropertyOp11
 70
     1
102
RTVSPropertyOp12
 70
     1
102
RTVSPropertyOp13
 70
     1
102
RTVSPropertyOp14
 70
     1
102
RTVSPropertyOp15
 70
     1
102
RTVSPropertyOp16
 70
     1
102
RTVSPropertyOp17
 70
     1
102
RTVSPropertyOp18
 70
     1
102
RTVSPropertyOp19
 70
     1
102
RTVSPropertyOp20
 70
     1
102
RTVSPropertyOp21
 70
     1
102
RTVSPropertyOp22
 70
     1
102
RTVSPropertyOp23
 70
     1
102
RTVSPropertyOp24
 70
     1
102
RTVSPropertyOp25
 70
     1
102
RTVSPropertyOp26
 70
     1
102
RTVSPropertyOp27
 70
     1
102
RTVSPropertyOp28
 70
     1
102
RTVSPropertyOp29
 70
     1
102
RTVSPropertyOp30
 70
     1
102
RTVSPropertyOp31
 70
     1
102
RTVSPropertyOp32
 70
     1
  0
XRECORD
  5
F10D5D
102
{ACAD_REACTORS
330
F10D5C
102
}
330
F10D5C
100
AcDbXrecord
280
     1
102
RTVSPropertyOp0
 70
     1
102
RTVSPropertyOp1
 70
     1
102
RTVSPropertyOp2
 70
     1
102
RTVSPropertyOp3
 70
     1
102
RTVSPropertyOp4
 70
     1
102
RTVSPropertyOp5
 70
     1
102
RTVSPropertyOp6
 70
     1
102
RTVSPropertyOp7
 70
     1
102
RTVSPropertyOp8
 70
     1
102
RTVSPropertyOp9
 70
     1
102
RTVSPropertyOp10
 70
     1
102
RTVSPropertyOp11
 70
     1
102
RTVSPropertyOp12
 70
     1
102
RTVSPropertyOp13
 70
     1
102
RTVSPropertyOp14
 70
     1
102
RTVSPropertyOp15
 70
     1
102
RTVSPropertyOp16
 70
     1
102
RTVSPropertyOp17
 70
     1
102
RTVSPropertyOp18
 70
     1
102
RTVSPropertyOp19
 70
     1
102
RTVSPropertyOp20
 70
     1
102
RTVSPropertyOp21
 70
     1
102
RTVSPropertyOp22
 70
     1
102
RTVSPropertyOp23
 70
     1
102
RTVSPropertyOp24
 70
     1
102
RTVSPropertyOp25
 70
     1
102
RTVSPropertyOp26
 70
     1
102
RTVSPropertyOp27
 70
     1
102
RTVSPropertyOp28
 70
     1
102
RTVSPropertyOp29
 70
     1
102
RTVSPropertyOp30
 70
     1
102
RTVSPropertyOp31
 70
     1
102
RTVSPropertyOp32
 70
     1
  0
XRECORD
  5
F10D84
102
{ACAD_REACTORS
330
F10D83
102
}
330
F10D83
100
AcDbXrecord
280
     1
102
RTVSPropertyOp0
 70
     1
102
RTVSPropertyOp1
 70
     1
102
RTVSPropertyOp2
 70
     1
102
RTVSPropertyOp3
 70
     1
102
RTVSPropertyOp4
 70
     1
102
RTVSPropertyOp5
 70
     1
102
RTVSPropertyOp6
 70
     1
102
RTVSPropertyOp7
 70
     1
102
RTVSPropertyOp8
 70
     1
102
RTVSPropertyOp9
 70
     1
102
RTVSPropertyOp10
 70
     1
102
RTVSPropertyOp11
 70
     1
102
RTVSPropertyOp12
 70
     1
102
RTVSPropertyOp13
 70
     1
102
RTVSPropertyOp14
 70
     1
102
RTVSPropertyOp15
 70
     1
102
RTVSPropertyOp16
 70
     1
102
RTVSPropertyOp17
 70
     1
102
RTVSPropertyOp18
 70
     1
102
RTVSPropertyOp19
 70
     1
102
RTVSPropertyOp20
 70
     1
102
RTVSPropertyOp21
 70
     1
102
RTVSPropertyOp22
 70
     1
102
RTVSPropertyOp23
 70
     1
102
RTVSPropertyOp24
 70
     1
102
RTVSPropertyOp25
 70
     1
102
RTVSPropertyOp26
 70
     1
102
RTVSPropertyOp27
 70
     1
102
RTVSPropertyOp28
 70
     1
102
RTVSPropertyOp29
 70
     1
102
RTVSPropertyOp30
 70
     1
102
RTVSPropertyOp31
 70
     1
102
RTVSPropertyOp32
 70
     1
  0
XRECORD
  5
F10D77
102
{ACAD_REACTORS
330
F10D76
102
}
330
F10D76
100
AcDbXrecord
280
     1
102
RTVSPropertyOp0
 70
     0
102
RTVSPropertyOp1
 70
     0
102
RTVSPropertyOp2
 70
     0
102
RTVSPropertyOp3
 70
     0
102
RTVSPropertyOp4
 70
     0
102
RTVSPropertyOp5
 70
     0
102
RTVSPropertyOp6
 70
     0
102
RTVSPropertyOp7
 70
     0
102
RTVSPropertyOp8
 70
     0
102
RTVSPropertyOp9
 70
     0
102
RTVSPropertyOp10
 70
     0
102
RTVSPropertyOp11
 70
     0
102
RTVSPropertyOp12
 70
     0
102
RTVSPropertyOp13
 70
     0
102
RTVSPropertyOp14
 70
     2
102
RTVSPropertyOp15
 70
     0
102
RTVSPropertyOp16
 70
     0
102
RTVSPropertyOp17
 70
     0
102
RTVSPropertyOp18
 70
     0
102
RTVSPropertyOp19
 70
     0
102
RTVSPropertyOp20
 70
     0
102
RTVSPropertyOp21
 70
     0
102
RTVSPropertyOp22
 70
     0
102
RTVSPropertyOp23
 70
     0
102
RTVSPropertyOp24
 70
     0
102
RTVSPropertyOp25
 70
     0
102
RTVSPropertyOp26
 70
     0
102
RTVSPropertyOp27
 70
     0
102
RTVSPropertyOp28
 70
     1
102
RTVSPropertyOp29
 70
     1
102
RTVSPropertyOp30
 70
     1
102
RTVSPropertyOp31
 70
     1
102
RTVSPropertyOp32
 70
     1
  0
XRECORD
  5
F10D71
102
{ACAD_REACTORS
330
F10D70
102
}
330
F10D70
100
AcDbXrecord
280
     1
102
RTVSPropertyOp0
 70
     1
102
RTVSPropertyOp1
 70
     1
102
RTVSPropertyOp2
 70
     1
102
RTVSPropertyOp3
 70
     1
102
RTVSPropertyOp4
 70
     1
102
RTVSPropertyOp5
 70
     1
102
RTVSPropertyOp6
 70
     1
102
RTVSPropertyOp7
 70
     1
102
RTVSPropertyOp8
 70
     1
102
RTVSPropertyOp9
 70
     1
102
RTVSPropertyOp10
 70
     1
102
RTVSPropertyOp11
 70
     1
102
RTVSPropertyOp12
 70
     1
102
RTVSPropertyOp13
 70
     1
102
RTVSPropertyOp14
 70
     1
102
RTVSPropertyOp15
 70
     1
102
RTVSPropertyOp16
 70
     1
102
RTVSPropertyOp17
 70
     1
102
RTVSPropertyOp18
 70
     1
102
RTVSPropertyOp19
 70
     1
102
RTVSPropertyOp20
 70
     1
102
RTVSPropertyOp21
 70
     1
102
RTVSPropertyOp22
 70
     1
102
RTVSPropertyOp23
 70
     1
102
RTVSPropertyOp24
 70
     1
102
RTVSPropertyOp25
 70
     1
102
RTVSPropertyOp26
 70
     1
102
RTVSPropertyOp27
 70
     1
102
RTVSPropertyOp28
 70
     1
102
RTVSPropertyOp29
 70
     1
102
RTVSPropertyOp30
 70
     1
102
RTVSPropertyOp31
 70
     1
102
RTVSPropertyOp32
 70
     1
  0
XRECORD
  5
F10D79
102
{ACAD_REACTORS
330
F10D78
102
}
330
F10D78
100
AcDbXrecord
280
     1
102
RTVSPropertyOp0
 70
     0
102
RTVSPropertyOp1
 70
     0
102
RTVSPropertyOp2
 70
     0
102
RTVSPropertyOp3
 70
     0
102
RTVSPropertyOp4
 70
     0
102
RTVSPropertyOp5
 70
     0
102
RTVSPropertyOp6
 70
     0
102
RTVSPropertyOp7
 70
     0
102
RTVSPropertyOp8
 70
     0
102
RTVSPropertyOp9
 70
     0
102
RTVSPropertyOp10
 70
     0
102
RTVSPropertyOp11
 70
     0
102
RTVSPropertyOp12
 70
     0
102
RTVSPropertyOp13
 70
     0
102
RTVSPropertyOp14
 70
     2
102
RTVSPropertyOp15
 70
     0
102
RTVSPropertyOp16
 70
     0
102
RTVSPropertyOp17
 70
     0
102
RTVSPropertyOp18
 70
     0
102
RTVSPropertyOp19
 70
     0
102
RTVSPropertyOp20
 70
     0
102
RTVSPropertyOp21
 70
     0
102
RTVSPropertyOp22
 70
     0
102
RTVSPropertyOp23
 70
     0
102
RTVSPropertyOp24
 70
     0
102
RTVSPropertyOp25
 70
     0
102
RTVSPropertyOp26
 70
     0
102
RTVSPropertyOp27
 70
     0
102
RTVSPropertyOp28
 70
     1
102
RTVSPropertyOp29
 70
     1
102
RTVSPropertyOp30
 70
     1
102
RTVSPropertyOp31
 70
     1
102
RTVSPropertyOp32
 70
     1
  0
XRECORD
  5
F10D69
102
{ACAD_REACTORS
330
F10D68
102
}
330
F10D68
100
AcDbXrecord
280
     1
102
RTVSPropertyOp0
 70
     1
102
RTVSPropertyOp1
 70
     1
102
RTVSPropertyOp2
 70
     1
102
RTVSPropertyOp3
 70
     1
102
RTVSPropertyOp4
 70
     1
102
RTVSPropertyOp5
 70
     1
102
RTVSPropertyOp6
 70
     1
102
RTVSPropertyOp7
 70
     1
102
RTVSPropertyOp8
 70
     1
102
RTVSPropertyOp9
 70
     1
102
RTVSPropertyOp10
 70
     1
102
RTVSPropertyOp11
 70
     1
102
RTVSPropertyOp12
 70
     1
102
RTVSPropertyOp13
 70
     1
102
RTVSPropertyOp14
 70
     1
102
RTVSPropertyOp15
 70
     1
102
RTVSPropertyOp16
 70
     1
102
RTVSPropertyOp17
 70
     1
102
RTVSPropertyOp18
 70
     1
102
RTVSPropertyOp19
 70
     1
102
RTVSPropertyOp20
 70
     1
102
RTVSPropertyOp21
 70
     1
102
RTVSPropertyOp22
 70
     1
102
RTVSPropertyOp23
 70
     1
102
RTVSPropertyOp24
 70
     1
102
RTVSPropertyOp25
 70
     1
102
RTVSPropertyOp26
 70
     1
102
RTVSPropertyOp27
 70
     1
102
RTVSPropertyOp28
 70
     1
102
RTVSPropertyOp29
 70
     1
102
RTVSPropertyOp30
 70
     1
102
RTVSPropertyOp31
 70
     1
102
RTVSPropertyOp32
 70
     1
  0
XRECORD
  5
F10D8E
102
{ACAD_REACTORS
330
F10D8D
102
}
330
F10D8D
100
AcDbXrecord
280
     1
102
RTVSPropertyOp0
 70
     1
102
RTVSPropertyOp1
 70
     1
102
RTVSPropertyOp2
 70
     1
102
RTVSPropertyOp3
 70
     1
102
RTVSPropertyOp4
 70
     1
102
RTVSPropertyOp5
 70
     1
102
RTVSPropertyOp6
 70
     1
102
RTVSPropertyOp7
 70
     1
102
RTVSPropertyOp8
 70
     1
102
RTVSPropertyOp9
 70
     1
102
RTVSPropertyOp10
 70
     1
102
RTVSPropertyOp11
 70
     1
102
RTVSPropertyOp12
 70
     1
102
RTVSPropertyOp13
 70
     1
102
RTVSPropertyOp14
 70
     1
102
RTVSPropertyOp15
 70
     1
102
RTVSPropertyOp16
 70
     1
102
RTVSPropertyOp17
 70
     1
102
RTVSPropertyOp18
 70
     1
102
RTVSPropertyOp19
 70
     1
102
RTVSPropertyOp20
 70
     1
102
RTVSPropertyOp21
 70
     1
102
RTVSPropertyOp22
 70
     1
102
RTVSPropertyOp23
 70
     1
102
RTVSPropertyOp24
 70
     1
102
RTVSPropertyOp25
 70
     1
102
RTVSPropertyOp26
 70
     1
102
RTVSPropertyOp27
 70
     1
102
RTVSPropertyOp28
 70
     1
102
RTVSPropertyOp29
 70
     1
102
RTVSPropertyOp30
 70
     1
102
RTVSPropertyOp31
 70
     1
102
RTVSPropertyOp32
 70
     1
  0
XRECORD
  5
F10D8C
102
{ACAD_REACTORS
330
F10D8B
102
}
330
F10D8B
100
AcDbXrecord
280
     1
102
RTVSPropertyOp0
 70
     1
102
RTVSPropertyOp1
 70
     1
102
RTVSPropertyOp2
 70
     1
102
RTVSPropertyOp3
 70
     1
102
RTVSPropertyOp4
 70
     1
102
RTVSPropertyOp5
 70
     1
102
RTVSPropertyOp6
 70
     1
102
RTVSPropertyOp7
 70
     1
102
RTVSPropertyOp8
 70
     1
102
RTVSPropertyOp9
 70
     1
102
RTVSPropertyOp10
 70
     1
102
RTVSPropertyOp11
 70
     1
102
RTVSPropertyOp12
 70
     1
102
RTVSPropertyOp13
 70
     1
102
RTVSPropertyOp14
 70
     1
102
RTVSPropertyOp15
 70
     1
102
RTVSPropertyOp16
 70
     1
102
RTVSPropertyOp17
 70
     1
102
RTVSPropertyOp18
 70
     1
102
RTVSPropertyOp19
 70
     1
102
RTVSPropertyOp20
 70
     1
102
RTVSPropertyOp21
 70
     1
102
RTVSPropertyOp22
 70
     1
102
RTVSPropertyOp23
 70
     1
102
RTVSPropertyOp24
 70
     1
102
RTVSPropertyOp25
 70
     1
102
RTVSPropertyOp26
 70
     1
102
RTVSPropertyOp27
 70
     1
102
RTVSPropertyOp28
 70
     1
102
RTVSPropertyOp29
 70
     1
102
RTVSPropertyOp30
 70
     1
102
RTVSPropertyOp31
 70
     1
102
RTVSPropertyOp32
 70
     1
  0
XRECORD
  5
F10D86
102
{ACAD_REACTORS
330
F10D85
102
}
330
F10D85
100
AcDbXrecord
280
     1
102
RTVSPropertyOp0
 70
     1
102
RTVSPropertyOp1
 70
     1
102
RTVSPropertyOp2
 70
     1
102
RTVSPropertyOp3
 70
     1
102
RTVSPropertyOp4
 70
     1
102
RTVSPropertyOp5
 70
     1
102
RTVSPropertyOp6
 70
     1
102
RTVSPropertyOp7
 70
     1
102
RTVSPropertyOp8
 70
     1
102
RTVSPropertyOp9
 70
     1
102
RTVSPropertyOp10
 70
     1
102
RTVSPropertyOp11
 70
     1
102
RTVSPropertyOp12
 70
     1
102
RTVSPropertyOp13
 70
     1
102
RTVSPropertyOp14
 70
     1
102
RTVSPropertyOp15
 70
     1
102
RTVSPropertyOp16
 70
     1
102
RTVSPropertyOp17
 70
     1
102
RTVSPropertyOp18
 70
     1
102
RTVSPropertyOp19
 70
     1
102
RTVSPropertyOp20
 70
     1
102
RTVSPropertyOp21
 70
     1
102
RTVSPropertyOp22
 70
     1
102
RTVSPropertyOp23
 70
     1
102
RTVSPropertyOp24
 70
     1
102
RTVSPropertyOp25
 70
     1
102
RTVSPropertyOp26
 70
     1
102
RTVSPropertyOp27
 70
     1
102
RTVSPropertyOp28
 70
     1
102
RTVSPropertyOp29
 70
     1
102
RTVSPropertyOp30
 70
     1
102
RTVSPropertyOp31
 70
     1
102
RTVSPropertyOp32
 70
     1
  0
XRECORD
  5
F10D88
102
{ACAD_REACTORS
330
F10D87
102
}
330
F10D87
100
AcDbXrecord
280
     1
102
RTVSPropertyOp0
 70
     1
102
RTVSPropertyOp1
 70
     1
102
RTVSPropertyOp2
 70
     1
102
RTVSPropertyOp3
 70
     1
102
RTVSPropertyOp4
 70
     1
102
RTVSPropertyOp5
 70
     1
102
RTVSPropertyOp6
 70
     1
102
RTVSPropertyOp7
 70
     1
102
RTVSPropertyOp8
 70
     1
102
RTVSPropertyOp9
 70
     1
102
RTVSPropertyOp10
 70
     1
102
RTVSPropertyOp11
 70
     1
102
RTVSPropertyOp12
 70
     1
102
RTVSPropertyOp13
 70
     1
102
RTVSPropertyOp14
 70
     1
102
RTVSPropertyOp15
 70
     1
102
RTVSPropertyOp16
 70
     1
102
RTVSPropertyOp17
 70
     1
102
RTVSPropertyOp18
 70
     1
102
RTVSPropertyOp19
 70
     1
102
RTVSPropertyOp20
 70
     1
102
RTVSPropertyOp21
 70
     1
102
RTVSPropertyOp22
 70
     1
102
RTVSPropertyOp23
 70
     1
102
RTVSPropertyOp24
 70
     1
102
RTVSPropertyOp25
 70
     1
102
RTVSPropertyOp26
 70
     1
102
RTVSPropertyOp27
 70
     1
102
RTVSPropertyOp28
 70
     1
102
RTVSPropertyOp29
 70
     1
102
RTVSPropertyOp30
 70
     1
102
RTVSPropertyOp31
 70
     1
102
RTVSPropertyOp32
 70
     1
  0
XRECORD
  5
F10D6F
102
{ACAD_REACTORS
330
F10D6E
102
}
330
F10D6E
100
AcDbXrecord
280
     1
102
RTVSPropertyOp0
 70
     1
102
RTVSPropertyOp1
 70
     1
102
RTVSPropertyOp2
 70
     1
102
RTVSPropertyOp3
 70
     1
102
RTVSPropertyOp4
 70
     1
102
RTVSPropertyOp5
 70
     1
102
RTVSPropertyOp6
 70
     1
102
RTVSPropertyOp7
 70
     1
102
RTVSPropertyOp8
 70
     1
102
RTVSPropertyOp9
 70
     1
102
RTVSPropertyOp10
 70
     1
102
RTVSPropertyOp11
 70
     1
102
RTVSPropertyOp12
 70
     1
102
RTVSPropertyOp13
 70
     1
102
RTVSPropertyOp14
 70
     1
102
RTVSPropertyOp15
 70
     1
102
RTVSPropertyOp16
 70
     1
102
RTVSPropertyOp17
 70
     1
102
RTVSPropertyOp18
 70
     1
102
RTVSPropertyOp19
 70
     1
102
RTVSPropertyOp20
 70
     1
102
RTVSPropertyOp21
 70
     1
102
RTVSPropertyOp22
 70
     1
102
RTVSPropertyOp23
 70
     1
102
RTVSPropertyOp24
 70
     1
102
RTVSPropertyOp25
 70
     1
102
RTVSPropertyOp26
 70
     1
102
RTVSPropertyOp27
 70
     1
102
RTVSPropertyOp28
 70
     1
102
RTVSPropertyOp29
 70
     1
102
RTVSPropertyOp30
 70
     1
102
RTVSPropertyOp31
 70
     1
102
RTVSPropertyOp32
 70
     1
  0
XRECORD
  5
F10D82
102
{ACAD_REACTORS
330
F10D81
102
}
330
F10D81
100
AcDbXrecord
280
     1
102
RTVSPropertyOp0
 70
     1
102
RTVSPropertyOp1
 70
     1
102
RTVSPropertyOp2
 70
     1
102
RTVSPropertyOp3
 70
     1
102
RTVSPropertyOp4
 70
     1
102
RTVSPropertyOp5
 70
     1
102
RTVSPropertyOp6
 70
     1
102
RTVSPropertyOp7
 70
     1
102
RTVSPropertyOp8
 70
     1
102
RTVSPropertyOp9
 70
     1
102
RTVSPropertyOp10
 70
     1
102
RTVSPropertyOp11
 70
     1
102
RTVSPropertyOp12
 70
     1
102
RTVSPropertyOp13
 70
     1
102
RTVSPropertyOp14
 70
     1
102
RTVSPropertyOp15
 70
     1
102
RTVSPropertyOp16
 70
     1
102
RTVSPropertyOp17
 70
     1
102
RTVSPropertyOp18
 70
     1
102
RTVSPropertyOp19
 70
     1
102
RTVSPropertyOp20
 70
     1
102
RTVSPropertyOp21
 70
     1
102
RTVSPropertyOp22
 70
     1
102
RTVSPropertyOp23
 70
     1
102
RTVSPropertyOp24
 70
     1
102
RTVSPropertyOp25
 70
     1
102
RTVSPropertyOp26
 70
     1
102
RTVSPropertyOp27
 70
     1
102
RTVSPropertyOp28
 70
     1
102
RTVSPropertyOp29
 70
     1
102
RTVSPropertyOp30
 70
     1
102
RTVSPropertyOp31
 70
     1
102
RTVSPropertyOp32
 70
     1
  0
XRECORD
  5
F10D8A
102
{ACAD_REACTORS
330
F10D89
102
}
330
F10D89
100
AcDbXrecord
280
     1
102
RTVSPropertyOp0
 70
     1
102
RTVSPropertyOp1
 70
     1
102
RTVSPropertyOp2
 70
     1
102
RTVSPropertyOp3
 70
     1
102
RTVSPropertyOp4
 70
     1
102
RTVSPropertyOp5
 70
     1
102
RTVSPropertyOp6
 70
     1
102
RTVSPropertyOp7
 70
     1
102
RTVSPropertyOp8
 70
     1
102
RTVSPropertyOp9
 70
     1
102
RTVSPropertyOp10
 70
     1
102
RTVSPropertyOp11
 70
     1
102
RTVSPropertyOp12
 70
     1
102
RTVSPropertyOp13
 70
     1
102
RTVSPropertyOp14
 70
     1
102
RTVSPropertyOp15
 70
     1
102
RTVSPropertyOp16
 70
     1
102
RTVSPropertyOp17
 70
     1
102
RTVSPropertyOp18
 70
     1
102
RTVSPropertyOp19
 70
     1
102
RTVSPropertyOp20
 70
     1
102
RTVSPropertyOp21
 70
     1
102
RTVSPropertyOp22
 70
     1
102
RTVSPropertyOp23
 70
     1
102
RTVSPropertyOp24
 70
     1
102
RTVSPropertyOp25
 70
     1
102
RTVSPropertyOp26
 70
     1
102
RTVSPropertyOp27
 70
     1
102
RTVSPropertyOp28
 70
     1
102
RTVSPropertyOp29
 70
     1
102
RTVSPropertyOp30
 70
     1
102
RTVSPropertyOp31
 70
     1
102
RTVSPropertyOp32
 70
     1
  0
ENDSEC
  0
EOF
