  0
SECTION
  2
HEADER
  9
$ACADVER
  1
AC1015
  9
$ACADMAINTVER
 70
    20
  9
$DWGCODEPAGE
  3
ANSI_1252
  9
$INSBASE
 10
0.0
 20
0.0
 30
0.0
  9
$EXTMIN
 10
-208.09585492228
 20
-100.103626943005
 30
0.0
  9
$EXTMAX
 10
143.354922279793
 20
106.7646657571623
 30
0.0
  9
$LIMMIN
 10
0.0
 20
0.0
  9
$LIMMAX
 10
12.0
 20
9.0
  9
$ORTHOMODE
 70
     0
  9
$REGENMODE
 70
     1
  9
$FILLMODE
 70
     1
  9
$QTEXTMODE
 70
     0
  9
$MIRRTEXT
 70
     1
  9
$LTSCALE
 40
1.0
  9
$ATTMODE
 70
     1
  9
$TEXTSIZE
 40
0.2
  9
$TRACEWID
 40
0.05
  9
$TEXTSTYLE
  7
Standard
  9
$CLAYER
  8
0
  9
$CELTYPE
  6
ByLayer
  9
$CECOLOR
 62
   256
  9
$CELTSCALE
 40
1.0
  9
$DISPSILH
 70
     0
  9
$DIMSCALE
 40
1.0
  9
$DIMASZ
 40
2.5
  9
$DIMEXO
 40
0.625
  9
$DIMDLI
 40
0.38
  9
$DIMRND
 40
0.0
  9
$DIMDLE
 40
0.0
  9
$DIMEXE
 40
1.25
  9
$DIMTP
 40
0.0
  9
$DIMTM
 40
0.000000001
  9
$DIMTXT
 40
2.5
  9
$DIMCEN
 40
0.09
  9
$DIMTSZ
 40
0.0
  9
$DIMTOL
 70
     1
  9
$DIMLIM
 70
     0
  9
$DIMTIH
 70
     0
  9
$DIMTOH
 70
     0
  9
$DIMSE1
 70
     0
  9
$DIMSE2
 70
     0
  9
$DIMTAD
 70
     1
  9
$DIMZIN
 70
     0
  9
$DIMBLK
  1
VDDIM_DEFAULT
  9
$DIMASO
 70
     1
  9
$DIMSHO
 70
     1
  9
$DIMPOST
  1

  9
$DIMAPOST
  1

  9
$DIMALT
 70
     0
  9
$DIMALTD
 70
     2
  9
$DIMALTF
 40
25.4
  9
$DIMLFAC
 40
1.0
  9
$DIMTOFL
 70
     0
  9
$DIMTVP
 40
0.0
  9
$DIMTIX
 70
     0
  9
$DIMSOXD
 70
     0
  9
$DIMSAH
 70
     0
  9
$DIMBLK1
  1

  9
$DIMBLK2
  1

  9
$DIMSTYLE
  2
BEM-ISBE
  9
$DIMCLRD
 70
     0
  9
$DIMCLRE
 70
     0
  9
$DIMCLRT
 70
     0
  9
$DIMTFAC
 40
0.5
  9
$DIMGAP
 40
0.625
  9
$DIMJUST
 70
     0
  9
$DIMSD1
 70
     0
  9
$DIMSD2
 70
     0
  9
$DIMTOLJ
 70
     1
  9
$DIMTZIN
 70
     0
  9
$DIMALTZ
 70
     0
  9
$DIMALTTZ
 70
     0
  9
$DIMUPT
 70
     0
  9
$DIMDEC
 70
     3
  9
$DIMTDEC
 70
     3
  9
$DIMALTU
 70
     2
  9
$DIMALTTD
 70
     2
  9
$DIMTXSTY
  7
Standard
  9
$DIMAUNIT
 70
     0
  9
$DIMADEC
 70
     3
  9
$DIMALTRND
 40
0.0
  9
$DIMAZIN
 70
     0
  9
$DIMDSEP
 70
    46
  9
$DIMATFIT
 70
     3
  9
$DIMFRAC
 70
     0
  9
$DIMLDRBLK
  1

  9
$DIMLUNIT
 70
     2
  9
$DIMLWD
 70
    -2
  9
$DIMLWE
 70
    -2
  9
$DIMTMOVE
 70
     0
  9
$LUNITS
 70
     2
  9
$LUPREC
 70
     4
  9
$SKETCHINC
 40
0.1
  9
$FILLETRAD
 40
0.0
  9
$AUNITS
 70
     0
  9
$AUPREC
 70
     0
  9
$MENU
  1
.
  9
$ELEVATION
 40
0.0
  9
$PELEVATION
 40
0.0
  9
$THICKNESS
 40
0.0
  9
$LIMCHECK
 70
     0
  9
$CHAMFERA
 40
0.5
  9
$CHAMFERB
 40
0.5
  9
$CHAMFERC
 40
1.0
  9
$CHAMFERD
 40
0.0
  9
$SKPOLY
 70
     0
  9
$TDCREATE
 40
2457010.656764757
  9
$TDUCREATE
 40
2457010.615098091
  9
$TDUPDATE
 40
2457010.658777396
  9
$TDUUPDATE
 40
2457010.617110729
  9
$TDINDWG
 40
0.0020138310
  9
$TDUSRTIMER
 40
0.0020138079
  9
$USRTIMER
 70
     1
  9
$ANGBASE
 50
0.0
  9
$ANGDIR
 70
     0
  9
$PDMODE
 70
     0
  9
$PDSIZE
 40
0.0
  9
$PLINEWID
 40
0.0
  9
$SPLFRAME
 70
     0
  9
$SPLINETYPE
 70
     6
  9
$SPLINESEGS
 70
     8
  9
$HANDSEED
  5
F10CD0
  9
$SURFTAB1
 70
     6
  9
$SURFTAB2
 70
     6
  9
$SURFTYPE
 70
     6
  9
$SURFU
 70
     6
  9
$SURFV
 70
     6
  9
$UCSBASE
  2

  9
$UCSNAME
  2

  9
$UCSORG
 10
-8.237823784564
 20
9.699259622860154
 30
0.0
  9
$UCSXDIR
 10
1.0
 20
0.0
 30
0.0
  9
$UCSYDIR
 10
0.0
 20
1.0
 30
0.0
  9
$UCSORTHOREF
  2

  9
$UCSORTHOVIEW
 70
     0
  9
$UCSORGTOP
 10
0.0
 20
0.0
 30
0.0
  9
$UCSORGBOTTOM
 10
0.0
 20
0.0
 30
0.0
  9
$UCSORGLEFT
 10
0.0
 20
0.0
 30
0.0
  9
$UCSORGRIGHT
 10
0.0
 20
0.0
 30
0.0
  9
$UCSORGFRONT
 10
0.0
 20
0.0
 30
0.0
  9
$UCSORGBACK
 10
0.0
 20
0.0
 30
0.0
  9
$PUCSBASE
  2

  9
$PUCSNAME
  2

  9
$PUCSORG
 10
0.0
 20
0.0
 30
0.0
  9
$PUCSXDIR
 10
1.0
 20
0.0
 30
0.0
  9
$PUCSYDIR
 10
0.0
 20
1.0
 30
0.0
  9
$PUCSORTHOREF
  2

  9
$PUCSORTHOVIEW
 70
     0
  9
$PUCSORGTOP
 10
0.0
 20
0.0
 30
0.0
  9
$PUCSORGBOTTOM
 10
0.0
 20
0.0
 30
0.0
  9
$PUCSORGLEFT
 10
0.0
 20
0.0
 30
0.0
  9
$PUCSORGRIGHT
 10
0.0
 20
0.0
 30
0.0
  9
$PUCSORGFRONT
 10
0.0
 20
0.0
 30
0.0
  9
$PUCSORGBACK
 10
0.0
 20
0.0
 30
0.0
  9
$USERI1
 70
     0
  9
$USERI2
 70
     0
  9
$USERI3
 70
     0
  9
$USERI4
 70
     0
  9
$USERI5
 70
     0
  9
$USERR1
 40
0.0
  9
$USERR2
 40
0.0
  9
$USERR3
 40
0.0
  9
$USERR4
 40
0.0
  9
$USERR5
 40
0.0
  9
$WORLDVIEW
 70
     1
  9
$SHADEDGE
 70
     3
  9
$SHADEDIF
 70
    70
  9
$TILEMODE
 70
     1
  9
$MAXACTVP
 70
    64
  9
$PINSBASE
 10
0.0
 20
0.0
 30
0.0
  9
$PLIMCHECK
 70
     0
  9
$PEXTMIN
 10
1.000000000000000E+20
 20
1.000000000000000E+20
 30
1.000000000000000E+20
  9
$PEXTMAX
 10
-1.000000000000000E+20
 20
-1.000000000000000E+20
 30
-1.000000000000000E+20
  9
$PLIMMIN
 10
0.0
 20
0.0
  9
$PLIMMAX
 10
12.0
 20
9.0
  9
$UNITMODE
 70
     0
  9
$VISRETAIN
 70
     1
  9
$PLINEGEN
 70
     0
  9
$PSLTSCALE
 70
     1
  9
$TREEDEPTH
 70
  3020
  9
$CMLSTYLE
  2
Standard
  9
$CMLJUST
 70
     0
  9
$CMLSCALE
 40
1.0
  9
$PROXYGRAPHICS
 70
     1
  9
$MEASUREMENT
 70
     0
  9
$CELWEIGHT
370
    -1
  9
$ENDCAPS
280
     0
  9
$JOINSTYLE
280
     0
  9
$LWDISPLAY
290
     0
  9
$INSUNITS
 70
     4
  9
$HYPERLINKBASE
  1

  9
$STYLESHEET
  1

  9
$XEDIT
290
     1
  9
$CEPSNTYPE
380
     0
  9
$PSTYLEMODE
290
     0
  9
$FINGERPRINTGUID
  2
{FAEB1C30-E019-11D5-929B-00C0DF256EC4}
  9
$VERSIONGUID
  2
{93A5C8DD-B12F-4812-9ECE-777AD6E24273}
  9
$EXTNAMES
290
     1
  9
$PSVPSCALE
 40
0.0
  9
$OLESTARTUP
290
     0
  0
ENDSEC
  0
SECTION
  2
CLASSES
  0
CLASS
  1
ACDBDICTIONARYWDFLT
  2
AcDbDictionaryWithDefault
  3
ObjectDBX Classes
 90
        0
280
     0
281
     0
  0
CLASS
  1
MATERIAL
  2
AcDbMaterial
  3
ObjectDBX Classes
 90
     1153
280
     0
281
     0
  0
CLASS
  1
MLEADERSTYLE
  2
AcDbMLeaderStyle
  3
ACDB_MLEADERSTYLE_CLASS
 90
     4095
280
     0
281
     0
  0
CLASS
  1
SCALE
  2
AcDbScale
  3
ObjectDBX Classes
 90
     1153
280
     0
281
     0
  0
CLASS
  1
TABLESTYLE
  2
AcDbTableStyle
  3
ObjectDBX Classes
 90
     4095
280
     0
281
     0
  0
CLASS
  1
VISUALSTYLE
  2
AcDbVisualStyle
  3
ObjectDBX Classes
 90
     4095
280
     0
281
     0
  0
CLASS
  1
DICTIONARYVAR
  2
AcDbDictionaryVar
  3
ObjectDBX Classes
 90
        0
280
     0
281
     0
  0
CLASS
  1
CELLSTYLEMAP
  2
AcDbCellStyleMap
  3
ObjectDBX Classes
 90
     1152
280
     0
281
     0
  0
CLASS
  1
AMGSETTINGSOBJ
  2
AmgSettingsObj
  3
"AcadM|Product Description: AutoCAD Mechanical|Company: Autodesk, Inc."
 90
     1024
280
     0
281
     0
  0
CLASS
  1
ACME_DOCUMENT
  2
AcMeDbDoc
  3
AcMeServices
 90
     1024
280
     0
281
     0
  0
CLASS
  1
ACMESCOPE
  2
AcMeScope
  3
AcMeServices
 90
     1024
280
     0
281
     0
  0
CLASS
  1
ACMECOMMANDHISTORY
  2
AcMeCommandHistory
  3
AcMeServices
 90
     1024
280
     0
281
     0
  0
CLASS
  1
ACIMSYSVARMAN
  2
AcImSysVarManager
  3
AcMeServices
 90
     1024
280
     0
281
     0
  0
CLASS
  1
ACIMINTSYSVAR
  2
AcImIntSysVar
  3
AcMeServices
 90
     1024
280
     0
281
     0
  0
CLASS
  1
ACMESTATEMGR
  2
AcMeStateMgr
  3
AcMeServices
 90
     1024
280
     0
281
     0
  0
CLASS
  1
ACDBENTITYCACHE
  2
AcMeEntityCache
  3
AcMeServices
 90
     1024
280
     0
281
     0
  0
CLASS
  1
ACGREFMASTER
  2
AcGrefMaster
  3
AcAttribServices
 90
     1024
280
     0
281
     0
  0
CLASS
  1
AM_DRAWING_MGR
  2
AcDmDwgMgr
  3
AcMechDwgViewMgmt
 90
     1024
280
     0
281
     0
  0
CLASS
  1
AM_DWG_DOCUMENT
  2
AcDmDwgDocument
  3
AcMechDwgViewMgmt
 90
     1024
280
     0
281
     0
  0
CLASS
  1
AM_DWG_SHEET
  2
AcDmSheet
  3
AcMechDwgViewMgmt
 90
     1024
280
     0
281
     0
  0
CLASS
  1
AM_VIEWDIMPARMAP
  2
AcDmViewDimParMap
  3
AcMechDwgViewMgmt
 90
     1024
280
     0
281
     0
  0
CLASS
  1
AMDTINTERNALREACTOR
  2
AmdtInternalReactor
  3
AcMeServices
 90
     1024
280
     0
281
     0
  0
CLASS
  1
ACIMREALSYSVAR
  2
AcImRealSysVar
  3
AcMeServices
 90
     1024
280
     0
281
     0
  0
CLASS
  1
AM_DWGMGR_NAME
  2
AcDmDwgMgrName
  3
AcMechDwgViewMgmt
 90
     1024
280
     0
281
     0
  0
CLASS
  1
ACME_DATABASE
  2
AcMeDbDatabase
  3
AcMeServices
 90
     1024
280
     0
281
     0
  0
CLASS
  1
ACRFINSADJUSTERMGR
  2
AcRfInsAdjusterMgr
  3
AcMeServices
 90
     1024
280
     0
281
     0
  0
CLASS
  1
ACGREFACADMASTER
  2
AcGrefacadMaster
  3
AcGrefServices
 90
     1024
280
     0
281
     0
  0
CLASS
  1
AMDTMENUSTATEMGR
  2
AmdtMenuStateMgr
  3
McadcomServices
 90
     1024
280
     0
281
     0
  0
CLASS
  1
AMDTMCOMMENUSTATE
  2
AmdtMcomMenuState
  3
McadcomServices
 90
     1024
280
     0
281
     0
  0
CLASS
  1
AMIMASTER
  2
AmiMaster
  3
AmiServices
 90
     1024
280
     0
281
     0
  0
CLASS
  1
MAPIAMMOUDLE
  2
MApiAmModule
  3
MApiAmServices
 90
     1024
280
     0
281
     0
  0
CLASS
  1
ACIMSTRSYSVAR
  2
AcImStrSysVar
  3
AcMeServices
 90
     1024
280
     0
281
     0
  0
CLASS
  1
AMDTDMMENUSTATE
  2
AmdtDmMenuState
  3
AcMechDwgViewMgmt
 90
     1024
280
     0
281
     0
  0
CLASS
  1
AMDTAMMENUSTATE
  2
AmdtAmMenuState
  3
DesignerAssemblies
 90
     1024
280
     0
281
     0
  0
CLASS
  1
ACAMPROJECT
  2
AcAmProject
  3
DesignerAssemblies
 90
     1024
280
     0
281
     0
  0
CLASS
  1
ACAMGRCOMPDEF
  2
AcAmGrCompDef
  3
DesignerAssemblies
 90
     1024
280
     0
281
     0
  0
CLASS
  1
ACAMCOMPDEF
  2
AcAmCompDef
  3
DesignerAssemblies
 90
     1024
280
     0
281
     0
  0
CLASS
  1
ACAMCOMPDEFMGR
  2
AcAmCompDefMgr
  3
DesignerAssemblies
 90
     1024
280
     0
281
     0
  0
CLASS
  1
AMCONTEXTMGR
  2
AcAmContextMgr
  3
DesignerAssemblies
 90
     1024
280
     0
281
     0
  0
CLASS
  1
ACAMCONTEXTMODELER
  2
AcAmContextModeler
  3
DesignerAssemblies
 90
     1024
280
     0
281
     0
  0
CLASS
  1
ACMDATADICTIONARY
  2
AcmDataDictionary
  3
"AcmSymBB|Product Description: AutoCAD Mechanical|Company: Autodesk, Inc."
 90
     1024
280
     0
281
     0
  0
CLASS
  1
ACAMGRCOMPDEFSET
  2
AcAmGrCompDefSet
  3
DesignerAssemblies
 90
     1024
280
     0
281
     0
  0
CLASS
  1
AMDTBROWSERDBTAB
  2
AmdtBrowserDbTab
  3
McadcomServices
 90
     1024
280
     0
281
     0
  0
CLASS
  1
CBROWSERAPPOBJECT
  2
CBrowserAppObject
  3
McadcomServices
 90
     1024
280
     0
281
     0
  0
CLASS
  1
DM_PLACEHOLDER
  2
AcDmSelsetPlaceholder
  3
AcMechDwgViewMgmt
 90
     1024
280
     0
281
     0
  0
CLASS
  1
EXACXREFPANELOBJECT
  2
ExAcXREFPanelObject
  3
EXAC_ESW
 90
     1025
280
     0
281
     0
  0
CLASS
  1
NPOCOLLECTION
  2
AcDbImpNonPersistentObjectsCollection
  3
ObjectDBX Classes
 90
     1153
280
     0
281
     0
  0
CLASS
  1
ACMSTANDARDANSI
  2
AcmStandardANSI
  3
"Amdt_StdImp|Product Description: AutoCAD Mechanical|Company: Autodesk, Inc."
 90
     1024
280
     0
281
     0
  0
CLASS
  1
ACMSURFSTANDARDANSI
  2
AcmSurfTextStdANSI
  3
"Amdt_StdImp|Product Description: AutoCAD Mechanical|Company: Autodesk, Inc."
 90
     1024
280
     0
281
     0
  0
CLASS
  1
ACMFCFSTANDARDANSI
  2
AcmFCFStdANSI
  3
"Amdt_StdImp|Product Description: AutoCAD Mechanical|Company: Autodesk, Inc."
 90
     1024
280
     0
281
     0
  0
CLASS
  1
ACMWELDSTANDARDANSI
  2
AcmWeldingStdANSI
  3
"Amdt_StdImp|Product Description: AutoCAD Mechanical|Company: Autodesk, Inc."
 90
     1024
280
     0
281
     0
  0
CLASS
  1
ACMIDSTANDARDANSI
  2
AcmIdStdANSI
  3
"Amdt_StdImp|Product Description: AutoCAD Mechanical|Company: Autodesk, Inc."
 90
     1024
280
     0
281
     0
  0
CLASS
  1
ACMDATUMSTANDARDANSI
  2
AcmDatumStdANSI
  3
"Amdt_StdImp|Product Description: AutoCAD Mechanical|Company: Autodesk, Inc."
 90
     1024
280
     0
281
     0
  0
CLASS
  1
ACMBOMSTANDARDANSI
  2
AcmBOMStdANSI
  3
"Amdt_StdImp|Product Description: AutoCAD Mechanical|Company: Autodesk, Inc."
 90
     1024
280
     0
281
     0
  0
CLASS
  1
ACMDETAILSTANDARDANSI
  2
AmdtDetailSymStdANSI
  3
"Amdt_StdImp|Product Description: AutoCAD Mechanical|Company: Autodesk, Inc."
 90
     1024
280
     0
281
     0
  0
CLASS
  1
ACMSECTIONSTANDARDANSI
  2
AmdtSectionSymStdANSI
  3
"Amdt_StdImp|Product Description: AutoCAD Mechanical|Company: Autodesk, Inc."
 90
     1024
280
     0
281
     0
  0
CLASS
  1
ACMCENTERLINESTANDARDANSI
  2
AmdtCenterLineStdANSI
  3
"Amdt_StdImp|Product Description: AutoCAD Mechanical|Company: Autodesk, Inc."
 90
     1024
280
     0
281
     0
  0
CLASS
  1
ACMTHREADLINESTANDARDANSI
  2
AmdtThreadLineStdANSI
  3
"Amdt_StdImp|Product Description: AutoCAD Mechanical|Company: Autodesk, Inc."
 90
     1024
280
     0
281
     0
  0
CLASS
  1
ACMNOTESTANDARDANSI
  2
AmdtNoteStdANSI
  3
"Amdt_StdImp|Product Description: AutoCAD Mechanical|Company: Autodesk, Inc."
 90
     1024
280
     0
281
     0
  0
CLASS
  1
ACMTAPERSTANDARDANSI
  2
AcmTaperStdANSI
  3
"Amdt_StdImp|Product Description: AutoCAD Mechanical|Company: Autodesk, Inc."
 90
     1024
280
     0
281
     0
  0
CLASS
  1
ACMANOOTATIONVIEWSTANDARDANSI
  2
AmdtAnViewStdANSI
  3
"Amdt_StdImp|Product Description: AutoCAD Mechanical|Company: Autodesk, Inc."
 90
     1024
280
     0
281
     0
  0
CLASS
  1
ACAMGLAYSTD
  2
AcAmgLayStd
  3
"AmgLay|Product Description: AutoCAD Mechanical|Company: Autodesk, Inc."
 90
     1024
280
     0
281
     0
  0
CLASS
  1
ACAMGDIMSTD
  2
AcAmgDimStd
  3
"AmgDim|Product Description: AutoCAD Mechanical|Company: Autodesk, Inc."
 90
     1024
280
     0
281
     0
  0
CLASS
  1
AMGOBJPROPCFG
  2
AmgObjPropCfg
  3
"AmgLay|Product Description: AutoCAD Mechanical|Company: Autodesk, Inc."
 90
     1025
280
     0
281
     0
  0
CLASS
  1
ACAMGHOLECHARTSTDANSI
  2
AcAmgHoleChartStdANSI
  3
AmgDim|Product Description: AutoCAD Mechanical|Company: Autodesk, Inc.
 90
     1024
280
     0
281
     0
  0
CLASS
  1
ACAMGTITLESTD
  2
AcAmgTitleStd
  3
"AmgTitle|Product Description: AutoCAD Mechanical|Company: Autodesk, Inc."
 90
     4095
280
     0
281
     0
  0
CLASS
  1
AMDTNOTETEMPLATEDB
  2
AmdtNoteTemplateDB
  3
AcmSymBB|Product Description: AutoCAD Mechanical|Company: Autodesk, Inc.
 90
     1024
280
     0
281
     0
  0
CLASS
  1
ACAMGFILTERDAT
  2
AcAmgFilterDat
  3
"AcadM|Product Description: AutoCAD Mechanical|Company: Autodesk, Inc."
 90
     1024
280
     0
281
     0
  0
CLASS
  1
ACDBPLACEHOLDER
  2
AcDbPlaceHolder
  3
ObjectDBX Classes
 90
        0
280
     0
281
     0
  0
CLASS
  1
LAYOUT
  2
AcDbLayout
  3
ObjectDBX Classes
 90
        0
280
     0
281
     0
  0
ENDSEC
  0
SECTION
  2
TABLES
  0
TABLE
  2
VPORT
  5
24A
330
0
100
AcDbSymbolTable
 70
     1
  0
VPORT
  5
26B
330
24A
100
AcDbSymbolTableRecord
100
AcDbViewportTableRecord
  2
*Active
 70
     0
 10
0.0
 20
0.0
 11
1.0
 21
1.0
 12
3.736739256075225
 22
-16.22479005365187
 13
0.0
 23
0.0
 14
10.0
 24
10.0
 15
10.0
 25
10.0
 16
0.0
 26
0.0
 36
1.0
 17
0.0
 27
0.0
 37
0.0
 40
219.9652138584952
 41
1.492489270386266
 42
1.0
 43
0.0
 44
0.0
 50
0.0
 51
0.0000000000007958
 71
     0
 72
   100
 73
     1
 74
     3
 75
     0
 76
     0
 77
     0
 78
     1
281
     0
 65
     0
110
0.0
120
0.0
130
0.0
111
1.0
121
0.0
131
0.0
112
0.0
122
1.0
132
0.0
 79
     0
146
0.0
  0
ENDTAB
  0
TABLE
  2
LTYPE
  5
247
330
0
100
AcDbSymbolTable
 70
    36
  0
LTYPE
  5
256
330
247
100
AcDbSymbolTableRecord
100
AcDbLinetypeTableRecord
  2
ByBlock
 70
     0
  3

 72
    65
 73
     0
 40
0.0
  0
LTYPE
  5
257
330
247
100
AcDbSymbolTableRecord
100
AcDbLinetypeTableRecord
  2
ByLayer
 70
     0
  3

 72
    65
 73
     0
 40
0.0
  0
LTYPE
  5
258
330
247
100
AcDbSymbolTableRecord
100
AcDbLinetypeTableRecord
  2
Continuous
 70
     0
  3
Solid line
 72
    65
 73
     0
 40
0.0
  0
LTYPE
  5
273
330
247
100
AcDbSymbolTableRecord
100
AcDbLinetypeTableRecord
  2
CENTER
 70
     0
  3
Center ____ _ ____ _ ____ _ ____ _ ____ _ ____
 72
    65
 73
     4
 40
2.0
 49
1.25
 74
     0
 49
-0.25
 74
     0
 49
0.25
 74
     0
 49
-0.25
 74
     0
  0
LTYPE
  5
274
330
247
100
AcDbSymbolTableRecord
100
AcDbLinetypeTableRecord
  2
DASHDOT
 70
     0
  3
Dashdot __ . __ . __ . __ . __ . __ . __ . __
 72
    65
 73
     4
 40
1.0
 49
0.5
 74
     0
 49
-0.25
 74
     0
 49
0.0
 74
     0
 49
-0.25
 74
     0
  0
LTYPE
  5
275
330
247
100
AcDbSymbolTableRecord
100
AcDbLinetypeTableRecord
  2
DASHED
 70
     0
  3
Dashed __ __ __ __ __ __ __ __ __ __ __ __ __ _
 72
    65
 73
     2
 40
0.75
 49
0.5
 74
     0
 49
-0.25
 74
     0
  0
LTYPE
  5
276
330
247
100
AcDbSymbolTableRecord
100
AcDbLinetypeTableRecord
  2
HIDDEN
 70
     0
  3
Hidden __ __ __ __ __ __ __ __ __ __ __ __ __ __
 72
    65
 73
     2
 40
0.375
 49
0.25
 74
     0
 49
-0.125
 74
     0
  0
LTYPE
  5
277
330
247
100
AcDbSymbolTableRecord
100
AcDbLinetypeTableRecord
  2
HIDDEN2
 70
     0
  3
Hidden2 _ _ _ _ _ _ _ _ _ _ _ _ _ _ _ _ _
 72
    65
 73
     2
 40
0.1875
 49
0.125
 74
     0
 49
-0.0625
 74
     0
  0
LTYPE
  5
278
330
247
100
AcDbSymbolTableRecord
100
AcDbLinetypeTableRecord
  2
BORDER
 70
     0
  3
Border __ __ . __ __ . __ __ . __ __ . __ __ .
 72
    65
 73
     6
 40
1.75
 49
0.5
 74
     0
 49
-0.25
 74
     0
 49
0.5
 74
     0
 49
-0.25
 74
     0
 49
0.0
 74
     0
 49
-0.25
 74
     0
  0
LTYPE
  5
279
330
247
100
AcDbSymbolTableRecord
100
AcDbLinetypeTableRecord
  2
BORDER2
 70
     0
  3
Border2 __.__.__.__.__.__.__.__.__.__.__.
 72
    65
 73
     6
 40
0.875
 49
0.25
 74
     0
 49
-0.125
 74
     0
 49
0.25
 74
     0
 49
-0.125
 74
     0
 49
0.0
 74
     0
 49
-0.125
 74
     0
  0
LTYPE
  5
27A
330
247
100
AcDbSymbolTableRecord
100
AcDbLinetypeTableRecord
  2
BORDERX2
 70
     0
  3
Borderx2  ____  ____  .  ____  ____  .  ___
 72
    65
 73
     6
 40
3.5
 49
1.0
 74
     0
 49
-0.5
 74
     0
 49
1.0
 74
     0
 49
-0.5
 74
     0
 49
0.0
 74
     0
 49
-0.5
 74
     0
  0
LTYPE
  5
27B
330
247
100
AcDbSymbolTableRecord
100
AcDbLinetypeTableRecord
  2
CENTER2
 70
     0
  3
Center2  ___ _ ___ _ ___ _ ___ _ ___ _ ___
 72
    65
 73
     4
 40
1.125
 49
0.75
 74
     0
 49
-0.125
 74
     0
 49
0.125
 74
     0
 49
-0.125
 74
     0
  0
LTYPE
  5
27C
330
247
100
AcDbSymbolTableRecord
100
AcDbLinetypeTableRecord
  2
CENTERX2
 70
     0
  3
Centerx2  ________  __  ________  __  _____
 72
    65
 73
     4
 40
4.0
 49
2.5
 74
     0
 49
-0.5
 74
     0
 49
0.5
 74
     0
 49
-0.5
 74
     0
  0
LTYPE
  5
27D
330
247
100
AcDbSymbolTableRecord
100
AcDbLinetypeTableRecord
  2
DASHDOT2
 70
     0
  3
Dashdot2  _._._._._._._._._._._._._._._.
 72
    65
 73
     4
 40
0.5
 49
0.25
 74
     0
 49
-0.125
 74
     0
 49
0.0
 74
     0
 49
-0.125
 74
     0
  0
LTYPE
  5
27E
330
247
100
AcDbSymbolTableRecord
100
AcDbLinetypeTableRecord
  2
DASHDOTX2
 70
     0
  3
Dashdotx2 ____  .  ____  .  ____  .  ___
 72
    65
 73
     4
 40
2.0
 49
1.0
 74
     0
 49
-0.5
 74
     0
 49
0.0
 74
     0
 49
-0.5
 74
     0
  0
LTYPE
  5
27F
330
247
100
AcDbSymbolTableRecord
100
AcDbLinetypeTableRecord
  2
DASHED2
 70
     0
  3
Dashed2 _ _ _ _ _ _ _ _ _ _ _ _ _ _ _ _ _
 72
    65
 73
     2
 40
0.375
 49
0.25
 74
     0
 49
-0.125
 74
     0
  0
LTYPE
  5
280
330
247
100
AcDbSymbolTableRecord
100
AcDbLinetypeTableRecord
  2
DASHEDX2
 70
     0
  3
Dashedx2 ____  ____  ____  ____  ____  ___
 72
    65
 73
     2
 40
1.5
 49
1.0
 74
     0
 49
-0.5
 74
     0
  0
LTYPE
  5
281
330
247
100
AcDbSymbolTableRecord
100
AcDbLinetypeTableRecord
  2
DIVIDE
 70
     0
  3
Divide ____ . . ____ . . ____ . . ____ . . ____
 72
    65
 73
     6
 40
1.25
 49
0.5
 74
     0
 49
-0.25
 74
     0
 49
0.0
 74
     0
 49
-0.25
 74
     0
 49
0.0
 74
     0
 49
-0.25
 74
     0
  0
LTYPE
  5
282
330
247
100
AcDbSymbolTableRecord
100
AcDbLinetypeTableRecord
  2
DIVIDE2
 70
     0
  3
Divide2 __..__..__..__..__..__..__..__.._
 72
    65
 73
     6
 40
0.625
 49
0.25
 74
     0
 49
-0.125
 74
     0
 49
0.0
 74
     0
 49
-0.125
 74
     0
 49
0.0
 74
     0
 49
-0.125
 74
     0
  0
LTYPE
  5
283
330
247
100
AcDbSymbolTableRecord
100
AcDbLinetypeTableRecord
  2
DIVIDEX2
 70
     0
  3
Dividex2 ________  .  .  ________  .  .  _
 72
    65
 73
     6
 40
2.5
 49
1.0
 74
     0
 49
-0.5
 74
     0
 49
0.0
 74
     0
 49
-0.5
 74
     0
 49
0.0
 74
     0
 49
-0.5
 74
     0
  0
LTYPE
  5
284
330
247
100
AcDbSymbolTableRecord
100
AcDbLinetypeTableRecord
  2
DOT
 70
     0
  3
Dot . . . . . . . . . . . . . . . . . . . . . . . .
 72
    65
 73
     2
 40
0.25
 49
0.0
 74
     0
 49
-0.25
 74
     0
  0
LTYPE
  5
285
330
247
100
AcDbSymbolTableRecord
100
AcDbLinetypeTableRecord
  2
DOT2
 70
     0
  3
Dot2 ........................................
 72
    65
 73
     2
 40
0.125
 49
0.0
 74
     0
 49
-0.125
 74
     0
  0
LTYPE
  5
286
330
247
100
AcDbSymbolTableRecord
100
AcDbLinetypeTableRecord
  2
DOTX2
 70
     0
  3
Dotx2 .  .  .  .  .  .  .  .  .  .  .  .  .  .
 72
    65
 73
     2
 40
0.5
 49
0.0
 74
     0
 49
-0.5
 74
     0
  0
LTYPE
  5
287
330
247
100
AcDbSymbolTableRecord
100
AcDbLinetypeTableRecord
  2
HIDDENX2
 70
     0
  3
Hiddenx2 ____ ____ ____ ____ ____ ____ ____
 72
    65
 73
     2
 40
0.75
 49
0.5
 74
     0
 49
-0.25
 74
     0
  0
LTYPE
  5
288
330
247
100
AcDbSymbolTableRecord
100
AcDbLinetypeTableRecord
  2
PHANTOM
 70
     0
  3
Phantom ______  __  __  ______  __  __  ______
 72
    65
 73
     6
 40
2.5
 49
1.25
 74
     0
 49
-0.25
 74
     0
 49
0.25
 74
     0
 49
-0.25
 74
     0
 49
0.25
 74
     0
 49
-0.25
 74
     0
  0
LTYPE
  5
289
330
247
100
AcDbSymbolTableRecord
100
AcDbLinetypeTableRecord
  2
PHANTOM2
 70
     0
  3
Phantom2 ___ _ _ ___ _ _ ___ _ _ ___ _ _
 72
    65
 73
     6
 40
1.25
 49
0.625
 74
     0
 49
-0.125
 74
     0
 49
0.125
 74
     0
 49
-0.125
 74
     0
 49
0.125
 74
     0
 49
-0.125
 74
     0
  0
LTYPE
  5
28A
330
247
100
AcDbSymbolTableRecord
100
AcDbLinetypeTableRecord
  2
PHANTOMX2
 70
     0
  3
Phantomx2 ____________    ____    ____   _
 72
    65
 73
     6
 40
5.0
 49
2.5
 74
     0
 49
-0.5
 74
     0
 49
0.5
 74
     0
 49
-0.5
 74
     0
 49
0.5
 74
     0
 49
-0.5
 74
     0
  0
LTYPE
  5
F10B57
330
247
100
AcDbSymbolTableRecord
100
AcDbLinetypeTableRecord
  2
AM_ISO02W050
 70
     0
  3
__ __ __ __ __ __ __ __ __ __ __ __ __ __ __
 72
    65
 73
     2
 40
7.5
 49
6.0
 74
     0
 49
-1.5
 74
     0
  0
LTYPE
  5
F10B58
330
247
100
AcDbSymbolTableRecord
100
AcDbLinetypeTableRecord
  2
AM_ISO08W050
 70
     0
  3
____ . ____ . ____ . ____ . ____ . ____ . ____
 72
    65
 73
     4
 40
18.0
 49
12.0
 74
     0
 49
-1.5
 74
     0
 49
3.0
 74
     0
 49
-1.5
 74
     0
  0
LTYPE
  5
F10B59
330
247
100
AcDbSymbolTableRecord
100
AcDbLinetypeTableRecord
  2
AM_ISO09W050
 70
     0
  3
_____ . . _____ . . _____ . . ____ .. ____
 72
    65
 73
     6
 40
22.5
 49
12.0
 74
     0
 49
-1.5
 74
     0
 49
3.0
 74
     0
 49
-1.5
 74
     0
 49
3.0
 74
     0
 49
-1.5
 74
     0
  0
LTYPE
  5
F10B5A
330
247
100
AcDbSymbolTableRecord
100
AcDbLinetypeTableRecord
  2
Amconstr
 70
     0
  3
_______________________
 72
    65
 73
     2
 40
9999.0
 49
9999.0
 74
     0
 49
0.0
 74
     0
  0
LTYPE
  5
F10B5B
330
247
100
AcDbSymbolTableRecord
100
AcDbLinetypeTableRecord
  2
AM_ISO08W050x2
 70
     0
  3
__ . __ . __ . __ . __ . __
 72
    65
 73
     4
 40
9.0
 49
6.0
 74
     0
 49
-0.75
 74
     0
 49
1.5
 74
     0
 49
-0.75
 74
     0
  0
LTYPE
  5
F10B5C
330
247
100
AcDbSymbolTableRecord
100
AcDbLinetypeTableRecord
  2
AM_ISO02W050x2
 70
     0
  3
 _ _ _ _ _ _ _ _ _ _ _ _
 72
    65
 73
     2
 40
3.75
 49
3.0
 74
     0
 49
-0.75
 74
     0
  0
LTYPE
  5
F10B5F
330
247
100
AcDbSymbolTableRecord
100
AcDbLinetypeTableRecord
  2
Amzigzag
 70
     0
  3
/\/-/\/-/\/-/\/-/\/-/\/
 72
    65
 73
     2
 40
11.0001
 49
0.0001
 74
     4
 75
   136
340
F10B5E
 46
0.04
 50
0.0
 44
0.0
 45
0.0
 49
-11.0
 74
     0
  0
LTYPE
  5
F10B60
330
247
100
AcDbSymbolTableRecord
100
AcDbLinetypeTableRecord
  2
Amzigzag2
 70
     0
  3
/\/-/\/-/\/-/\/-/\/-/\/
 72
    65
 73
     2
 40
0.4401
 49
0.0001
 74
     4
 75
   136
340
F10B5E
 46
0.0016
 50
0.0
 44
0.0
 45
0.0
 49
-0.4400000000000001
 74
     0
  0
LTYPE
  5
F10B6E
330
247
100
AcDbSymbolTableRecord
100
AcDbLinetypeTableRecord
  2
ACANSTGB
 70
     0
  3
__ . . __ . .
 72
    65
 73
     6
 40
0.35433070866
 49
0.15748031496
 74
     0
 49
-0.03937007874
 74
     0
 49
0.03937007874
 74
     0
 49
-0.03937007874
 74
     0
 49
0.03937007874
 74
     0
 49
-0.03937007874
 74
     0
  0
LTYPE
  5
F10B6F
330
247
100
AcDbSymbolTableRecord
100
AcDbLinetypeTableRecord
  2
ACANSTGL
 70
     0
  3
_ _ _ _ _
 72
    65
 73
     2
 40
0.11811023622
 49
0.07874015748
 74
     0
 49
-0.03937007874
 74
     0
  0
ENDTAB
  0
TABLE
  2
LAYER
  5
244
330
0
100
AcDbSymbolTable
 70
     6
  0
LAYER
  5
252
330
244
100
AcDbSymbolTableRecord
100
AcDbLayerTableRecord
  2
0
 70
     0
 62
     7
  6
Continuous
370
     0
390
19
  0
LAYER
  5
23F
330
244
100
AcDbSymbolTableRecord
100
AcDbLayerTableRecord
  2
Bemassung
 70
     0
 62
     7
  6
Continuous
370
     0
390
19
  0
LAYER
  5
240
330
244
100
AcDbSymbolTableRecord
100
AcDbLayerTableRecord
  2
Rahmen
 70
     0
 62
     7
  6
Continuous
370
     0
390
19
  0
LAYER
  5
241
330
244
100
AcDbSymbolTableRecord
100
AcDbLayerTableRecord
  2
Geo
 70
     0
 62
     7
  6
Continuous
370
     0
390
19
  0
LAYER
  5
33A
330
244
100
AcDbSymbolTableRecord
100
AcDbLayerTableRecord
  2
Defpoints
 70
     0
 62
     7
  6
Continuous
290
     0
370
    -3
390
19
  0
LAYER
  5
57E
330
244
100
AcDbSymbolTableRecord
100
AcDbLayerTableRecord
  2
Text
 70
     0
 62
     7
  6
Continuous
370
     0
390
19
1001
AcAecLayerStandard
1000

1000

  0
ENDTAB
  0
TABLE
  2
STYLE
  5
245
330
0
100
AcDbSymbolTable
 70
     5
  0
STYLE
  5
253
330
245
100
AcDbSymbolTableRecord
100
AcDbTextStyleTableRecord
  2
Standard
 70
     0
 40
0.0
 41
1.0
 50
0.0
 71
     0
 42
0.2
  3
Arial
  4

1001
ACAD
1000
Arial
1071
        0
  0
STYLE
  5
132
330
245
100
AcDbSymbolTableRecord
100
AcDbTextStyleTableRecord
  2
Beschriftung
 70
     0
 40
0.0
 41
1.0
 50
0.0
 71
     0
 42
0.2
  3
Arial
  4

1001
ACAD
1000
Arial
1071
        0
1001
AcadAnnotative
1000
AnnotativeData
1070
     1
1070
     1
  0
STYLE
  5
F10B5E
330
245
100
AcDbSymbolTableRecord
100
AcDbTextStyleTableRecord
  2

 70
     1
 40
0.0
 41
1.0
 50
0.0
 71
     0
 42
0.2
  3
genltshp.shx
  4

  0
STYLE
  5
F10B6C
330
245
100
AcDbSymbolTableRecord
100
AcDbTextStyleTableRecord
  2
ACANSTS
 70
     0
 40
1.0
 41
1.0
 50
0.0
 71
     0
 42
0.2
  3
romans.shx
  4

  0
STYLE
  5
F10B6D
330
245
100
AcDbSymbolTableRecord
100
AcDbTextStyleTableRecord
  2
ACANSGDT
 70
     0
 40
0.0
 41
1.0
 50
0.0
 71
     0
 42
0.2
  3
amgdt.shx
  4

  0
ENDTAB
  0
TABLE
  2
VIEW
  5
248
330
0
100
AcDbSymbolTable
 70
     0
  0
ENDTAB
  0
TABLE
  2
UCS
  5
249
330
0
100
AcDbSymbolTable
 70
     0
  0
ENDTAB
  0
TABLE
  2
APPID
  5
24B
330
0
100
AcDbSymbolTable
 70
    28
  0
APPID
  5
254
330
24B
100
AcDbSymbolTableRecord
100
AcDbRegAppTableRecord
  2
ACAD
 70
     0
  0
APPID
  5
26C
330
24B
100
AcDbSymbolTableRecord
100
AcDbRegAppTableRecord
  2
VD_INVISIBLE_NOT_FOR_READ
 70
     0
  0
APPID
  5
26D
330
24B
100
AcDbSymbolTableRecord
100
AcDbRegAppTableRecord
  2
VD_TEMPHATCH
 70
     0
  0
APPID
  5
26E
330
24B
100
AcDbSymbolTableRecord
100
AcDbRegAppTableRecord
  2
VDEXTRAPARAM
 70
     0
  0
APPID
  5
26F
330
24B
100
AcDbSymbolTableRecord
100
AcDbRegAppTableRecord
  2
PE_URL
 70
     0
  0
APPID
  5
270
330
24B
100
AcDbSymbolTableRecord
100
AcDbRegAppTableRecord
  2
VD_UNKNOWN
 70
     0
  0
APPID
  5
28F
330
24B
100
AcDbSymbolTableRecord
100
AcDbRegAppTableRecord
  2
AcadAnnotative
 70
     0
  0
APPID
  5
290
330
24B
100
AcDbSymbolTableRecord
100
AcDbRegAppTableRecord
  2
ACAD_DSTYLE_DIMJAG
 70
     0
  0
APPID
  5
291
330
24B
100
AcDbSymbolTableRecord
100
AcDbRegAppTableRecord
  2
ACAD_DSTYLE_DIMTALN
 70
     0
  0
APPID
  5
293
330
24B
100
AcDbSymbolTableRecord
100
AcDbRegAppTableRecord
  2
ACAD_PSEXT
 70
     0
  0
APPID
  5
42A
330
24B
100
AcDbSymbolTableRecord
100
AcDbRegAppTableRecord
  2
ACAD_MLEADERVER
 70
     0
  0
APPID
  5
532
330
24B
100
AcDbSymbolTableRecord
100
AcDbRegAppTableRecord
  2
ACAD_EXEMPT_FROM_CAD_STANDARDS
 70
     0
  0
APPID
  5
57F
330
24B
100
AcDbSymbolTableRecord
100
AcDbRegAppTableRecord
  2
AcAecLayerStandard
 70
     0
  0
APPID
  5
F10AF1
330
24B
100
AcDbSymbolTableRecord
100
AcDbRegAppTableRecord
  2
MCAD_NO_VIS
 70
     0
  0
APPID
  5
F10AF2
330
24B
100
AcDbSymbolTableRecord
100
AcDbRegAppTableRecord
  2
ACAD_TEMP_GRAPHIC
 70
     0
  0
APPID
  5
F10B1B
330
24B
100
AcDbSymbolTableRecord
100
AcDbRegAppTableRecord
  2
AD_DRAW
 70
     0
  0
APPID
  5
F10B1E
330
24B
100
AcDbSymbolTableRecord
100
AcDbRegAppTableRecord
  2
ACATTRIBSERVICES
 70
     0
  0
APPID
  5
F10B37
330
24B
100
AcDbSymbolTableRecord
100
AcDbRegAppTableRecord
  2
DESIGNERASSEMBLIES
 70
     0
  0
APPID
  5
F10B3C
330
24B
100
AcDbSymbolTableRecord
100
AcDbRegAppTableRecord
  2
ACADM_DIM_EDIT
 70
     0
  0
APPID
  5
F10B3D
330
24B
100
AcDbSymbolTableRecord
100
AcDbRegAppTableRecord
  2
AMDT_DM_ADJ
 70
     0
  0
APPID
  5
F10B55
330
24B
100
AcDbSymbolTableRecord
100
AcDbRegAppTableRecord
  2
ACAD_DSTYLE_DIMBREAK
 70
     0
  0
APPID
  5
F10B76
330
24B
100
AcDbSymbolTableRecord
100
AcDbRegAppTableRecord
  2
GENIUS_GENSCREG_15
 70
     0
  0
APPID
  5
F10B77
330
24B
100
AcDbSymbolTableRecord
100
AcDbRegAppTableRecord
  2
GENIUS_GENODEF_13
 70
     0
  0
APPID
  5
F10B78
330
24B
100
AcDbSymbolTableRecord
100
AcDbRegAppTableRecord
  2
GENIUS_GENOBJ-N-SDF_13
 70
     0
  0
APPID
  5
F10CCC
330
24B
100
AcDbSymbolTableRecord
100
AcDbRegAppTableRecord
  2
ACAD_DSTYLE_DIMARC_LENGTH_SYMBOL
 70
     0
  0
APPID
  5
F10CCD
330
24B
100
AcDbSymbolTableRecord
100
AcDbRegAppTableRecord
  2
ACAD_DSTYLE_DIM_LINETYPE
 70
     0
  0
APPID
  5
F10CCE
330
24B
100
AcDbSymbolTableRecord
100
AcDbRegAppTableRecord
  2
ACAD_DSTYLE_DIM_EXT1_LINETYPE
 70
     0
  0
APPID
  5
F10CCF
330
24B
100
AcDbSymbolTableRecord
100
AcDbRegAppTableRecord
  2
ACAD_DSTYLE_DIM_EXT2_LINETYPE
 70
     0
  0
ENDTAB
  0
TABLE
  2
DIMSTYLE
  5
24C
330
0
100
AcDbSymbolTable
 70
     9
100
AcDbDimStyleTable
 71
     2
340
27
340
269
  0
DIMSTYLE
105
269
330
24C
100
AcDbSymbolTableRecord
100
AcDbDimStyleTableRecord
  2
Standard
 70
     0
172
     1
174
     1
288
     1
340
253
342
23C
  0
DIMSTYLE
105
137
330
24C
100
AcDbSymbolTableRecord
100
AcDbDimStyleTableRecord
  2
Beschriftung
 70
     0
 41
2.5
 42
0.625
 44
1.25
 73
     0
 74
     0
 77
     1
140
2.5
147
0.625
172
     1
174
     1
271
     2
288
     1
340
253
342
23C
1001
AcadAnnotative
1000
AnnotativeData
1070
     1
1070
     1
1001
ACAD_DSTYLE_DIMJAG
1070
   388
1040
1.5
1001
ACAD_DSTYLE_DIMTALN
1070
   392
1070
     0
  0
DIMSTYLE
105
27
102
{ACAD_REACTORS
330
F10012
330
F1001C
330
F10026
330
F1002B
330
F10008
330
F1000D
330
F10017
102
}
330
24C
100
AcDbSymbolTableRecord
100
AcDbDimStyleTableRecord
  2
BEM-ISBE
 70
     0
 41
2.5
 42
0.625
 44
1.25
 48
0.000000001
 71
     1
 73
     0
 74
     0
 77
     1
140
2.5
146
0.5
147
0.625
171
     3
172
     1
179
     3
271
     3
272
     3
274
     3
340
253
342
23C
1001
ACAD_DSTYLE_DIMJAG
1070
   388
1040
1.5
1001
ACAD_DSTYLE_DIMTALN
1070
   392
1070
     1
  0
DIMSTYLE
105
F10B54
102
{ACAD_REACTORS
330
F10B44
102
}
330
24C
100
AcDbSymbolTableRecord
100
AcDbDimStyleTableRecord
  2
AM_ANSI
 70
     0
  4
mm
 41
0.12
 42
0.05
 43
0.5
 44
0.1
 47
0.1
 48
0.1
 78
     7
 79
     2
140
0.12
141
0.0
146
0.71
147
0.06
176
   256
177
   256
178
     2
274
     4
284
     7
340
253
371
    -1
372
    -1
1001
ACAD_DSTYLE_DIMJAG
1070
   388
1040
1.5
1001
ACAD_DSTYLE_DIMBREAK
1070
   391
1040
0.125
1001
ACAD_DSTYLE_DIMARC_LENGTH_SYMBOL
1070
   379
1070
     1
1001
ACAD_DSTYLE_DIM_LINETYPE
1070
   380
1005
256
1001
ACAD_DSTYLE_DIM_EXT1_LINETYPE
1070
   381
1005
256
1001
ACAD_DSTYLE_DIM_EXT2_LINETYPE
1070
   382
1005
256
  0
DIMSTYLE
105
F10B61
330
24C
100
AcDbSymbolTableRecord
100
AcDbDimStyleTableRecord
  2
AM_ANSI$3
 70
     0
  4
mm
 41
0.12
 42
0.05
 43
0.5
 44
0.1
 47
0.1
 48
0.1
 78
     7
 79
     2
140
0.12
141
0.0
146
0.71
147
0.06
176
   256
177
   256
178
     2
274
     4
284
     7
288
     1
289
     0
340
253
371
    -1
372
    -1
1001
ACAD_DSTYLE_DIMBREAK
1070
   391
1040
0.125
1001
ACAD_DSTYLE_DIMJAG
1070
   388
1040
1.5
1001
ACAD_DSTYLE_DIMARC_LENGTH_SYMBOL
1070
   379
1070
     1
1001
ACAD_DSTYLE_DIM_LINETYPE
1070
   380
1005
256
1001
ACAD_DSTYLE_DIM_EXT1_LINETYPE
1070
   381
1005
256
1001
ACAD_DSTYLE_DIM_EXT2_LINETYPE
1070
   382
1005
256
  0
DIMSTYLE
105
F10B62
330
24C
100
AcDbSymbolTableRecord
100
AcDbDimStyleTableRecord
  2
AM_ANSI$4
 70
     0
  4
mm
 41
0.12
 42
0.05
 43
0.5
 44
0.1
 47
0.1
 48
0.1
 78
     7
 79
     2
140
0.12
141
0.0
146
0.71
147
0.06
176
   256
177
   256
178
     2
274
     4
284
     7
288
     1
289
     0
340
253
371
    -1
372
    -1
1001
ACAD_DSTYLE_DIMBREAK
1070
   391
1040
0.125
1001
ACAD_DSTYLE_DIMJAG
1070
   388
1040
1.5
1001
ACAD_DSTYLE_DIMARC_LENGTH_SYMBOL
1070
   379
1070
     1
1001
ACAD_DSTYLE_DIM_LINETYPE
1070
   380
1005
256
1001
ACAD_DSTYLE_DIM_EXT1_LINETYPE
1070
   381
1005
256
1001
ACAD_DSTYLE_DIM_EXT2_LINETYPE
1070
   382
1005
256
  0
DIMSTYLE
105
F10B63
330
24C
100
AcDbSymbolTableRecord
100
AcDbDimStyleTableRecord
  2
AM_ANSI$7
 70
     0
  4
mm
 41
0.12
 42
0.05
 43
0.5
 44
0.1
 47
0.1
 48
0.1
 78
     7
 79
     2
140
0.12
141
0.0
146
0.71
147
0.06
176
   256
177
   256
178
     2
274
     4
284
     7
340
253
371
    -1
372
    -1
1001
ACAD_DSTYLE_DIMBREAK
1070
   391
1040
0.125
1001
ACAD_DSTYLE_DIMJAG
1070
   388
1040
1.5
1001
ACAD_DSTYLE_DIMARC_LENGTH_SYMBOL
1070
   379
1070
     1
1001
ACAD_DSTYLE_DIM_LINETYPE
1070
   380
1005
256
1001
ACAD_DSTYLE_DIM_EXT1_LINETYPE
1070
   381
1005
256
1001
ACAD_DSTYLE_DIM_EXT2_LINETYPE
1070
   382
1005
256
  0
DIMSTYLE
105
F10B64
330
24C
100
AcDbSymbolTableRecord
100
AcDbDimStyleTableRecord
  2
AM_ANSI$SF
 70
     0
  4
mm
 41
0.12
 42
0.05
 43
0.5
 44
0.1
 47
0.1
 48
0.1
 75
     1
 76
     1
 78
     7
 79
     2
140
0.12
141
0.0
146
0.71
147
0.06
176
   256
177
   256
178
     2
274
     4
284
     7
340
253
371
    -1
372
    -1
1001
ACAD_DSTYLE_DIMBREAK
1070
   391
1040
0.125
1001
ACAD_DSTYLE_DIMJAG
1070
   388
1040
1.5
1001
ACAD_DSTYLE_DIMARC_LENGTH_SYMBOL
1070
   379
1070
     1
1001
ACAD_DSTYLE_DIM_LINETYPE
1070
   380
1005
256
1001
ACAD_DSTYLE_DIM_EXT1_LINETYPE
1070
   381
1005
256
1001
ACAD_DSTYLE_DIM_EXT2_LINETYPE
1070
   382
1005
256
  0
DIMSTYLE
105
F10B69
330
24C
100
AcDbSymbolTableRecord
100
AcDbDimStyleTableRecord
  2
AM_ANSI$SH
 70
     0
  4
mm
 41
0.12
 42
0.05
 43
0.5
 44
0.1
 47
0.1
 48
0.1
 75
     1
 76
     1
 78
     7
 79
     2
140
0.12
141
0.0
146
0.71
147
0.06
173
     1
176
   256
177
   256
178
     2
274
     4
284
     7
340
253
343
F10B65
371
    -1
372
    -1
1001
ACAD_DSTYLE_DIMBREAK
1070
   391
1040
0.125
1001
ACAD_DSTYLE_DIMJAG
1070
   388
1040
1.5
1001
ACAD_DSTYLE_DIMARC_LENGTH_SYMBOL
1070
   379
1070
     1
1001
ACAD_DSTYLE_DIM_LINETYPE
1070
   380
1005
256
1001
ACAD_DSTYLE_DIM_EXT1_LINETYPE
1070
   381
1005
256
1001
ACAD_DSTYLE_DIM_EXT2_LINETYPE
1070
   382
1005
256
  0
ENDTAB
  0
TABLE
  2
BLOCK_RECORD
  5
243
330
0
100
AcDbSymbolTable
 70
    14
  0
BLOCK_RECORD
  5
261
330
243
100
AcDbSymbolTableRecord
100
AcDbBlockTableRecord
  2
*Model_Space
340
FD0
  0
BLOCK_RECORD
  5
25D
330
243
100
AcDbSymbolTableRecord
100
AcDbBlockTableRecord
  2
*Paper_Space
340
FD1
  0
BLOCK_RECORD
  5
265
330
243
100
AcDbSymbolTableRecord
100
AcDbBlockTableRecord
  2
*Paper_Space0
340
0
  0
BLOCK_RECORD
  5
23C
330
243
100
AcDbSymbolTableRecord
100
AcDbBlockTableRecord
  2
VDDIM_DEFAULT
340
0
102
{BLKREFS
331
F10B86
331
F10B87
331
F10BC2
331
F10BC3
331
F10C40
331
F10C41
331
F10C4B
331
F10C4C
331
F10C54
331
F10C55
331
F10C5F
331
F10C60
331
F10C68
331
F10C69
331
F10C71
331
F10C72
331
F10C7A
331
F10C7B
102
}
  0
BLOCK_RECORD
  5
23E
330
243
100
AcDbSymbolTableRecord
100
AcDbBlockTableRecord
  2
VDDIM_NONE
340
0
  0
BLOCK_RECORD
  5
F10002
330
243
100
AcDbSymbolTableRecord
100
AcDbBlockTableRecord
  2
*D3
340
0
  0
BLOCK_RECORD
  5
F10011
330
243
100
AcDbSymbolTableRecord
100
AcDbBlockTableRecord
  2
*D4
340
0
  0
BLOCK_RECORD
  5
F1001B
330
243
100
AcDbSymbolTableRecord
100
AcDbBlockTableRecord
  2
*D5
340
0
  0
BLOCK_RECORD
  5
F10020
330
243
100
AcDbSymbolTableRecord
100
AcDbBlockTableRecord
  2
*D6
340
0
  0
BLOCK_RECORD
  5
F10025
330
243
100
AcDbSymbolTableRecord
100
AcDbBlockTableRecord
  2
*D7
340
0
  0
BLOCK_RECORD
  5
F1002A
330
243
100
AcDbSymbolTableRecord
100
AcDbBlockTableRecord
  2
*D8
340
0
  0
BLOCK_RECORD
  5
F10007
330
243
100
AcDbSymbolTableRecord
100
AcDbBlockTableRecord
  2
*D9
340
0
  0
BLOCK_RECORD
  5
F1000C
330
243
100
AcDbSymbolTableRecord
100
AcDbBlockTableRecord
  2
*D10
340
0
  0
BLOCK_RECORD
  5
F10016
330
243
100
AcDbSymbolTableRecord
100
AcDbBlockTableRecord
  2
*D11
340
0
  0
BLOCK_RECORD
  5
F10B65
330
243
100
AcDbSymbolTableRecord
100
AcDbBlockTableRecord
  2
GENAXEH
340
0
  0
ENDTAB
  0
ENDSEC
  0
SECTION
  2
BLOCKS
  0
BLOCK
  5
262
330
261
100
AcDbEntity
  8
0
100
AcDbBlockBegin
  2
*Model_Space
 70
     0
 10
0.0
 20
0.0
 30
0.0
  3
*Model_Space
  1

  0
ENDBLK
  5
263
330
261
100
AcDbEntity
  8
0
100
AcDbBlockEnd
  0
BLOCK
  5
25E
330
25D
100
AcDbEntity
 67
     1
  8
0
100
AcDbBlockBegin
  2
*Paper_Space
 70
     0
 10
0.0
 20
0.0
 30
0.0
  3
*Paper_Space
  1

  0
ENDBLK
  5
25F
330
25D
100
AcDbEntity
 67
     1
  8
0
100
AcDbBlockEnd
  0
BLOCK
  5
266
330
265
100
AcDbEntity
  8
0
100
AcDbBlockBegin
  2
*Paper_Space0
 70
     0
 10
0.0
 20
0.0
 30
0.0
  3
*Paper_Space0
  1

  0
VIEWPORT
  5
296
102
{ACAD_XDICTIONARY
360
F10C8F
102
}
330
265
100
AcDbEntity
  8
0
 60
     1
100
AcDbViewport
 10
0.0
 20
0.0
 30
0.0
 40
10.0
 41
10.0
 69
     0
 12
0.0
 22
0.0
 13
0.0
 23
0.0
 14
1.0
 24
1.0
 15
0.0
 25
0.0
 16
0.0
 26
0.0
 36
1.0
 17
0.0
 27
0.0
 37
0.0
 42
0.0
 43
0.0
 44
0.0
 45
10.0
 50
0.0
 51
0.0000000000007958
 72
   100
 90
   163872
  1

281
     0
 71
     0
 74
     0
110
0.0
120
0.0
130
0.0
111
1.0
121
0.0
131
0.0
112
0.0
122
1.0
132
0.0
 79
     0
146
0.0
1001
VD_INVISIBLE_NOT_FOR_READ
1000
VD_INVISIBLE_NOT_FOR_READ
  0
VIEWPORT
  5
297
102
{ACAD_XDICTIONARY
360
F10C91
102
}
330
265
100
AcDbEntity
  8
0
 60
     1
100
AcDbViewport
 10
0.0
 20
0.0
 30
0.0
 40
10.0
 41
10.0
 69
     0
 12
0.0
 22
0.0
 13
0.0
 23
0.0
 14
1.0
 24
1.0
 15
0.0
 25
0.0
 16
0.0
 26
0.0
 36
1.0
 17
0.0
 27
0.0
 37
0.0
 42
0.0
 43
0.0
 44
0.0
 45
10.0
 50
0.0
 51
0.0000000000007958
 72
   100
 90
   163872
  1

281
     0
 71
     0
 74
     0
110
0.0
120
0.0
130
0.0
111
1.0
121
0.0
131
0.0
112
0.0
122
1.0
132
0.0
 79
     0
146
0.0
1001
VD_INVISIBLE_NOT_FOR_READ
1000
VD_INVISIBLE_NOT_FOR_READ
  0
ENDBLK
  5
267
330
265
100
AcDbEntity
  8
0
100
AcDbBlockEnd
  0
BLOCK
  5
28B
330
23C
100
AcDbEntity
  8
0
100
AcDbBlockBegin
  2
VDDIM_DEFAULT
 70
     0
 10
0.0
 20
0.0
 30
0.0
  3
VDDIM_DEFAULT
  1

  0
LWPOLYLINE
  5
23D
330
23C
100
AcDbEntity
  8
0
  6
Continuous
 62
     0
100
AcDbPolyline
 90
        4
 70
     0
 43
0.0
 10
0.0
 20
0.0
 10
-1.0
 20
-0.1665
 10
-1.0
 20
0.1665
 10
0.0
 20
0.0
1001
VDEXTRAPARAM
1071
        1
1071
        0
1071
        0
1040
1.0
1000

1000

1040
0.0
1040
0.0
  0
HATCH
  5
292
330
23C
100
AcDbEntity
  8
0
  6
Continuous
 62
     0
100
AcDbHatch
 10
0.0
 20
0.0
 30
0.0
210
0.0
220
0.0
230
1.0
  2
SOLID
 70
     1
 71
     0
 91
        1
 92
        2
 72
     0
 73
     1
 93
        3
 10
0.0
 20
0.0
 10
-1.0
 20
-0.1665
 10
-1.0
 20
0.1665
 97
        0
 75
     0
 76
     1
 98
        1
 10
0.0
 20
0.0
1001
VDEXTRAPARAM
1071
        1
1071
        0
1071
        0
1040
1.0
1000

1000

1040
0.0
1040
0.0
1001
VD_TEMPHATCH
1000
VD_TEMPHATCH
  0
ENDBLK
  5
28C
330
23C
100
AcDbEntity
  8
0
100
AcDbBlockEnd
  0
BLOCK
  5
28D
330
23E
100
AcDbEntity
  8
0
100
AcDbBlockBegin
  2
VDDIM_NONE
 70
     0
 10
0.0
 20
0.0
 30
0.0
  3
VDDIM_NONE
  1

  0
ENDBLK
  5
28E
330
23E
100
AcDbEntity
  8
0
100
AcDbBlockEnd
  0
BLOCK
  5
F1002F
330
F10002
100
AcDbEntity
  8
0
100
AcDbBlockBegin
  2
*D3
 70
     1
 10
0.0
 20
0.0
 30
0.0
  3
*D3
  1

  0
LINE
  5
F10B81
330
F10002
100
AcDbEntity
  8
Bemassung
 62
     0
370
    -2
100
AcDbLine
 10
-90.11588683351471
 20
6.72946137105549
 30
0.0
 11
-90.11588683351471
 21
50.3544613710555
 31
0.0
  0
LINE
  5
F10B82
330
F10002
100
AcDbEntity
  8
Bemassung
 62
     0
370
    -2
100
AcDbLine
 10
-89.96588683351472
 20
39.7294613710555
 30
0.0
 11
-89.96588683351472
 21
50.3544613710555
 31
0.0
  0
LINE
  5
F10B83
330
F10002
100
AcDbEntity
  8
Bemassung
 62
     0
370
    -2
100
AcDbLine
 10
-92.61588683351471
 20
49.1044613710555
 30
0.0
 11
-95.11588683351471
 21
49.1044613710555
 31
0.0
  0
LINE
  5
F10B84
330
F10002
100
AcDbEntity
  8
Bemassung
 62
     0
370
    -2
100
AcDbLine
 10
-87.46588683351472
 20
49.1044613710555
 30
0.0
 11
-77.20326746107271
 21
49.1044613710555
 31
0.0
  0
LINE
  5
F10B85
330
F10002
100
AcDbEntity
  8
Bemassung
 62
     0
370
    -2
100
AcDbLine
 10
-90.11588683351471
 20
49.1044613710555
 30
0.0
 11
-89.96588683351472
 21
49.1044613710555
 31
0.0
  0
INSERT
  5
F10B86
330
F10002
100
AcDbEntity
  8
Bemassung
 62
     0
370
    -2
100
AcDbBlockReference
  2
VDDIM_DEFAULT
 10
-90.11588683351471
 20
49.1044613710555
 30
0.0
 41
2.5
 42
2.5
 43
2.5
  0
INSERT
  5
F10B87
330
F10002
100
AcDbEntity
  8
Bemassung
 62
     0
370
    -2
100
AcDbBlockReference
  2
VDDIM_DEFAULT
 10
-89.96588683351472
 20
49.1044613710555
 30
0.0
 41
2.5
 42
2.5
 43
2.5
 50
180.0
  0
MTEXT
  5
F10B88
330
F10002
100
AcDbEntity
  8
Bemassung
 62
     0
100
AcDbMText
 10
-81.08457714729372
 20
49.7294613710555
 30
0.0
 40
2.5
 41
0.0
 71
     8
 72
     1
  1
\A1;0.15
 73
     1
 44
1.0
1001
ACAD
1000
MTEXTBEGIN
1070
    73
1070
     1
1070
    44
1040
1.0
1070
    74
1070
     0
1000
MTEXTEND
  0
POINT
  5
F10B89
330
F10002
100
AcDbEntity
  8
Defpoints
 62
     0
100
AcDbPoint
 10
-90.11588683351471
 20
6.10446137105549
 30
0.0
  0
POINT
  5
F10B8A
330
F10002
100
AcDbEntity
  8
Defpoints
 62
     0
100
AcDbPoint
 10
-89.96588683351472
 20
39.1044613710555
 30
0.0
  0
POINT
  5
F10B8B
330
F10002
100
AcDbEntity
  8
Defpoints
 62
     0
100
AcDbPoint
 10
-89.96588683351472
 20
49.1044613710555
 30
0.0
  0
ENDBLK
  5
F10038
330
F10002
100
AcDbEntity
  8
0
100
AcDbBlockEnd
  0
BLOCK
  5
F10039
330
F10011
100
AcDbEntity
  8
0
100
AcDbBlockBegin
  2
*D4
 70
     1
 10
0.0
 20
0.0
 30
0.0
  3
*D4
  1

  0
LINE
  5
F10C51
330
F10011
100
AcDbEntity
  8
Bemassung
 62
     0
370
    -2
100
AcDbLine
 10
-8.237823784564
 20
13.32425962286015
 30
0.0
 11
-8.237823784563998
 21
33.94925962286015
 31
0.0
  0
LINE
  5
F10C52
330
F10011
100
AcDbEntity
  8
Bemassung
 62
     0
370
    -2
100
AcDbLine
 10
27.762176215436
 20
13.02425962286015
 30
0.0
 11
27.762176215436
 21
33.94925962286015
 31
0.0
  0
LINE
  5
F10C53
330
F10011
100
AcDbEntity
  8
Bemassung
 62
     0
370
    -2
100
AcDbLine
 10
-5.737823784563998
 20
32.69925962286015
 30
0.0
 11
25.262176215436
 21
32.69925962286015
 31
0.0
  0
INSERT
  5
F10C54
330
F10011
100
AcDbEntity
  8
Bemassung
 62
     0
370
    -2
100
AcDbBlockReference
  2
VDDIM_DEFAULT
 10
-8.237823784563998
 20
32.69925962286015
 30
0.0
 41
2.5
 42
2.5
 43
2.5
 50
180.0
  0
INSERT
  5
F10C55
330
F10011
100
AcDbEntity
  8
Bemassung
 62
     0
370
    -2
100
AcDbBlockReference
  2
VDDIM_DEFAULT
 10
27.762176215436
 20
32.69925962286015
 30
0.0
 41
2.5
 42
2.5
 43
2.5
  0
MTEXT
  5
F10C56
330
F10011
100
AcDbEntity
  8
Bemassung
 62
     0
100
AcDbMText
 10
9.762176215435996
 20
33.32425962286015
 30
0.0
 40
2.5
 41
0.0
 71
     8
 72
     1
  1
\A1;36
 73
     1
 44
1.0
1001
ACAD
1000
MTEXTBEGIN
1070
    73
1070
     1
1070
    44
1040
1.0
1070
    74
1070
     0
1000
MTEXTEND
  0
POINT
  5
F10C57
330
F10011
100
AcDbEntity
  8
Defpoints
 62
     0
100
AcDbPoint
 10
-8.237823784564
 20
12.69925962286015
 30
0.0
  0
POINT
  5
F10C58
330
F10011
100
AcDbEntity
  8
Defpoints
 62
     0
100
AcDbPoint
 10
27.762176215436
 20
12.39925962286015
 30
0.0
  0
POINT
  5
F10C59
330
F10011
100
AcDbEntity
  8
Defpoints
 62
     0
100
AcDbPoint
 10
27.762176215436
 20
32.69925962286015
 30
0.0
  0
ENDBLK
  5
F10042
330
F10011
100
AcDbEntity
  8
0
100
AcDbBlockEnd
  0
BLOCK
  5
F10043
330
F1001B
100
AcDbEntity
  8
0
100
AcDbBlockBegin
  2
*D5
 70
     1
 10
0.0
 20
0.0
 30
0.0
  3
*D5
  1

  0
LINE
  5
F10C65
330
F1001B
100
AcDbEntity
  8
Bemassung
 62
     0
370
    -2
100
AcDbLine
 10
-16.237823784564
 20
6.274259622860149
 30
0.0
 11
-16.237823784564
 21
-9.550740377139845
 31
0.0
  0
LINE
  5
F10C66
330
F1001B
100
AcDbEntity
  8
Bemassung
 62
     0
370
    -2
100
AcDbLine
 10
-29.23782378456401
 20
9.074259622860154
 30
0.0
 11
-29.23782378456401
 21
-9.550740377139845
 31
0.0
  0
LINE
  5
F10C67
330
F1001B
100
AcDbEntity
  8
Bemassung
 62
     0
370
    -2
100
AcDbLine
 10
-18.737823784564
 20
-8.300740377139845
 30
0.0
 11
-26.73782378456401
 21
-8.300740377139845
 31
0.0
  0
INSERT
  5
F10C68
330
F1001B
100
AcDbEntity
  8
Bemassung
 62
     0
370
    -2
100
AcDbBlockReference
  2
VDDIM_DEFAULT
 10
-16.237823784564
 20
-8.300740377139845
 30
0.0
 41
2.5
 42
2.5
 43
2.5
  0
INSERT
  5
F10C69
330
F1001B
100
AcDbEntity
  8
Bemassung
 62
     0
370
    -2
100
AcDbBlockReference
  2
VDDIM_DEFAULT
 10
-29.23782378456401
 20
-8.300740377139845
 30
0.0
 41
2.5
 42
2.5
 43
2.5
 50
180.0
  0
MTEXT
  5
F10C6A
330
F1001B
100
AcDbEntity
  8
Bemassung
 62
     0
100
AcDbMText
 10
-22.73782378456401
 20
-7.675740377139845
 30
0.0
 40
2.5
 41
0.0
 71
     8
 72
     1
  1
\A1;13
 73
     1
 44
1.0
1001
ACAD
1000
MTEXTBEGIN
1070
    73
1070
     1
1070
    44
1040
1.0
1070
    74
1070
     0
1000
MTEXTEND
  0
POINT
  5
F10C6B
330
F1001B
100
AcDbEntity
  8
Defpoints
 62
     0
100
AcDbPoint
 10
-16.237823784564
 20
6.899259622860149
 30
0.0
  0
POINT
  5
F10C6C
330
F1001B
100
AcDbEntity
  8
Defpoints
 62
     0
100
AcDbPoint
 10
-29.23782378456401
 20
9.699259622860154
 30
0.0
  0
POINT
  5
F10C6D
330
F1001B
100
AcDbEntity
  8
Defpoints
 62
     0
100
AcDbPoint
 10
-29.23782378456401
 20
-8.300740377139845
 30
0.0
  0
ENDBLK
  5
F1004C
330
F1001B
100
AcDbEntity
  8
0
100
AcDbBlockEnd
  0
BLOCK
  5
F1004D
330
F10020
100
AcDbEntity
  8
0
100
AcDbBlockBegin
  2
*D6
 70
     1
 10
0.0
 20
0.0
 30
0.0
  3
*D6
  1

  0
LINE
  5
F10BBF
330
F10020
100
AcDbEntity
  8
Bemassung
 62
     0
370
    -2
100
AcDbLine
 10
-75.11588683351469
 20
32.6794613710555
 30
0.0
 11
-75.11588683351469
 21
6.854461371055489
 31
0.0
  0
LINE
  5
F10BC0
330
F10020
100
AcDbEntity
  8
Bemassung
 62
     0
370
    -2
100
AcDbLine
 10
-90.11588683351471
 20
6.72946137105549
 30
0.0
 11
-90.11588683351471
 21
9.354461371055489
 31
0.0
  0
LINE
  5
F10BC1
330
F10020
100
AcDbEntity
  8
Bemassung
 62
     0
370
    -2
100
AcDbLine
 10
-77.61588683351469
 20
8.104461371055489
 30
0.0
 11
-87.61588683351471
 21
8.104461371055489
 31
0.0
  0
INSERT
  5
F10BC2
330
F10020
100
AcDbEntity
  8
Bemassung
 62
     0
370
    -2
100
AcDbBlockReference
  2
VDDIM_DEFAULT
 10
-75.11588683351469
 20
8.104461371055489
 30
0.0
 41
2.5
 42
2.5
 43
2.5
  0
INSERT
  5
F10BC3
330
F10020
100
AcDbEntity
  8
Bemassung
 62
     0
370
    -2
100
AcDbBlockReference
  2
VDDIM_DEFAULT
 10
-90.11588683351471
 20
8.104461371055489
 30
0.0
 41
2.5
 42
2.5
 43
2.5
 50
180.0
  0
MTEXT
  5
F10BC4
330
F10020
100
AcDbEntity
  8
Bemassung
 62
     0
100
AcDbMText
 10
-82.61588683351471
 20
8.729461371055489
 30
0.0
 40
2.5
 41
0.0
 71
     8
 72
     1
  1
\A1;15
 73
     1
 44
1.0
1001
ACAD
1000
MTEXTBEGIN
1070
    73
1070
     1
1070
    44
1040
1.0
1070
    74
1070
     0
1000
MTEXTEND
  0
POINT
  5
F10BC5
330
F10020
100
AcDbEntity
  8
Defpoints
 62
     0
100
AcDbPoint
 10
-75.11588683351469
 20
33.3044613710555
 30
0.0
  0
POINT
  5
F10BC6
330
F10020
100
AcDbEntity
  8
Defpoints
 62
     0
100
AcDbPoint
 10
-90.11588683351471
 20
6.10446137105549
 30
0.0
  0
POINT
  5
F10BC7
330
F10020
100
AcDbEntity
  8
Defpoints
 62
     0
100
AcDbPoint
 10
-90.11588683351471
 20
8.104461371055489
 30
0.0
  0
ENDBLK
  5
F10056
330
F10020
100
AcDbEntity
  8
0
100
AcDbBlockEnd
  0
BLOCK
  5
F10057
330
F10025
100
AcDbEntity
  8
0
100
AcDbBlockBegin
  2
*D7
 70
     1
 10
0.0
 20
0.0
 30
0.0
  3
*D7
  1

  0
LINE
  5
F10C6E
330
F10025
100
AcDbEntity
  8
Bemassung
 62
     0
370
    -2
100
AcDbLine
 10
27.762176215436
 20
13.02425962286015
 30
0.0
 11
27.762176215436
 21
48.94925962286015
 31
0.0
  0
LINE
  5
F10C6F
330
F10025
100
AcDbEntity
  8
Bemassung
 62
     0
370
    -2
100
AcDbLine
 10
-29.23782378456401
 20
10.32425962286015
 30
0.0
 11
-29.23782378456401
 21
48.94925962286015
 31
0.0
  0
LINE
  5
F10C70
330
F10025
100
AcDbEntity
  8
Bemassung
 62
     0
370
    -2
100
AcDbLine
 10
25.262176215436
 20
47.69925962286015
 30
0.0
 11
-26.73782378456401
 21
47.69925962286015
 31
0.0
  0
INSERT
  5
F10C71
330
F10025
100
AcDbEntity
  8
Bemassung
 62
     0
370
    -2
100
AcDbBlockReference
  2
VDDIM_DEFAULT
 10
27.762176215436
 20
47.69925962286015
 30
0.0
 41
2.5
 42
2.5
 43
2.5
  0
INSERT
  5
F10C72
330
F10025
100
AcDbEntity
  8
Bemassung
 62
     0
370
    -2
100
AcDbBlockReference
  2
VDDIM_DEFAULT
 10
-29.23782378456401
 20
47.69925962286015
 30
0.0
 41
2.5
 42
2.5
 43
2.5
 50
180.0
  0
MTEXT
  5
F10C73
330
F10025
100
AcDbEntity
  8
Bemassung
 62
     0
100
AcDbMText
 10
-0.7378237845640072
 20
48.32425962286015
 30
0.0
 40
2.5
 41
0.0
 71
     8
 72
     1
  1
\A1;57
 73
     1
 44
1.0
1001
ACAD
1000
MTEXTBEGIN
1070
    73
1070
     1
1070
    44
1040
1.0
1070
    74
1070
     0
1000
MTEXTEND
  0
POINT
  5
F10C74
330
F10025
100
AcDbEntity
  8
Defpoints
 62
     0
100
AcDbPoint
 10
27.762176215436
 20
12.39925962286015
 30
0.0
  0
POINT
  5
F10C75
330
F10025
100
AcDbEntity
  8
Defpoints
 62
     0
100
AcDbPoint
 10
-29.23782378456401
 20
9.699259622860154
 30
0.0
  0
POINT
  5
F10C76
330
F10025
100
AcDbEntity
  8
Defpoints
 62
     0
100
AcDbPoint
 10
-29.23782378456401
 20
47.69925962286015
 30
0.0
  0
ENDBLK
  5
F10060
330
F10025
100
AcDbEntity
  8
0
100
AcDbBlockEnd
  0
BLOCK
  5
F10061
330
F1002A
100
AcDbEntity
  8
0
100
AcDbBlockBegin
  2
*D8
 70
     1
 10
0.0
 20
0.0
 30
0.0
  3
*D8
  1

  0
LINE
  5
F10C77
330
F1002A
100
AcDbEntity
  8
Bemassung
 62
     0
370
    -2
100
AcDbLine
 10
-29.23782378456401
 20
10.32425962286015
 30
0.0
 11
-29.23782378456401
 21
33.77448086179825
 31
0.0
  0
LINE
  5
F10C78
330
F1002A
100
AcDbEntity
  8
Bemassung
 62
     0
370
    -2
100
AcDbLine
 10
-9.237823784564
 20
13.32425962286015
 30
0.0
 11
-9.237823784563998
 21
33.77448086179825
 31
0.0
  0
LINE
  5
F10C79
330
F1002A
100
AcDbEntity
  8
Bemassung
 62
     0
370
    -2
100
AcDbLine
 10
-26.73782378456401
 20
32.52448086179825
 30
0.0
 11
-11.737823784564
 21
32.52448086179825
 31
0.0
  0
INSERT
  5
F10C7A
330
F1002A
100
AcDbEntity
  8
Bemassung
 62
     0
370
    -2
100
AcDbBlockReference
  2
VDDIM_DEFAULT
 10
-29.23782378456401
 20
32.52448086179825
 30
0.0
 41
2.5
 42
2.5
 43
2.5
 50
180.0
  0
INSERT
  5
F10C7B
330
F1002A
100
AcDbEntity
  8
Bemassung
 62
     0
370
    -2
100
AcDbBlockReference
  2
VDDIM_DEFAULT
 10
-9.237823784563998
 20
32.52448086179825
 30
0.0
 41
2.5
 42
2.5
 43
2.5
  0
MTEXT
  5
F10C7C
330
F1002A
100
AcDbEntity
  8
Bemassung
 62
     0
100
AcDbMText
 10
-19.23782378456401
 20
33.14948086179825
 30
0.0
 40
2.5
 41
0.0
 71
     8
 72
     1
  1
\A1;20
 73
     1
 44
1.0
1001
ACAD
1000
MTEXTBEGIN
1070
    73
1070
     1
1070
    44
1040
1.0
1070
    74
1070
     0
1000
MTEXTEND
  0
POINT
  5
F10C7D
330
F1002A
100
AcDbEntity
  8
Defpoints
 62
     0
100
AcDbPoint
 10
-29.23782378456401
 20
9.699259622860154
 30
0.0
  0
POINT
  5
F10C7E
330
F1002A
100
AcDbEntity
  8
Defpoints
 62
     0
100
AcDbPoint
 10
-9.237823784564
 20
12.69925962286015
 30
0.0
  0
POINT
  5
F10C7F
330
F1002A
100
AcDbEntity
  8
Defpoints
 62
     0
100
AcDbPoint
 10
-9.237823784563998
 20
32.52448086179825
 30
0.0
  0
ENDBLK
  5
F1006A
330
F1002A
100
AcDbEntity
  8
0
100
AcDbBlockEnd
  0
BLOCK
  5
F1006B
330
F10007
100
AcDbEntity
  8
0
100
AcDbBlockBegin
  2
*D9
 70
     1
 10
0.0
 20
0.0
 30
0.0
  3
*D9
  1

  0
LINE
  5
F10C3B
330
F10007
100
AcDbEntity
  8
Bemassung
 62
     0
370
    -2
100
AcDbLine
 10
-29.71282378456402
 20
6.699259622860154
 30
0.0
 11
-40.48782378456429
 21
6.699259622860157
 31
0.0
  0
LINE
  5
F10C3C
330
F10007
100
AcDbEntity
  8
Bemassung
 62
     0
370
    -2
100
AcDbLine
 10
-29.71282378456402
 20
12.69925962286015
 30
0.0
 11
-40.48782378456429
 21
12.69925962286015
 31
0.0
  0
LINE
  5
F10C3D
330
F10007
100
AcDbEntity
  8
Bemassung
 62
     0
370
    -2
100
AcDbLine
 10
-39.2378237845643
 20
4.199259622860157
 30
0.0
 11
-39.2378237845643
 21
1.699259622860157
 31
0.0
  0
LINE
  5
F10C3E
330
F10007
100
AcDbEntity
  8
Bemassung
 62
     0
370
    -2
100
AcDbLine
 10
-39.2378237845643
 20
15.19925962286015
 30
0.0
 11
-39.23782378456429
 21
17.69925962286015
 31
0.0
  0
LINE
  5
F10C3F
330
F10007
100
AcDbEntity
  8
Bemassung
 62
     0
370
    -2
100
AcDbLine
 10
-39.2378237845643
 20
6.699259622860157
 30
0.0
 11
-39.2378237845643
 21
12.69925962286015
 31
0.0
  0
INSERT
  5
F10C40
330
F10007
100
AcDbEntity
  8
Bemassung
 62
     0
370
    -2
100
AcDbBlockReference
  2
VDDIM_DEFAULT
 10
-39.2378237845643
 20
6.699259622860157
 30
0.0
 41
2.5
 42
2.5
 43
2.5
 50
90.0
  0
INSERT
  5
F10C41
330
F10007
100
AcDbEntity
  8
Bemassung
 62
     0
370
    -2
100
AcDbBlockReference
  2
VDDIM_DEFAULT
 10
-39.2378237845643
 20
12.69925962286015
 30
0.0
 41
2.5
 42
2.5
 43
2.5
 50
270.0
  0
MTEXT
  5
F10C42
330
F10007
100
AcDbEntity
  8
Bemassung
 62
     0
100
AcDbMText
 10
-39.8628237845643
 20
9.699259622860148
 30
0.0
 40
2.5
 41
0.0
 71
     8
 72
     1
  1
\A1;%%c6
 11
0.0000000000000001
 21
1.0
 31
0.0
 73
     1
 44
1.0
1001
ACAD
1000
MTEXTBEGIN
1070
    73
1070
     1
1070
    44
1040
1.0
1070
    74
1070
     0
1000
MTEXTEND
  0
POINT
  5
F10C43
330
F10007
100
AcDbEntity
  8
Defpoints
 62
     0
100
AcDbPoint
 10
-29.08782378456402
 20
6.699259622860154
 30
0.0
  0
POINT
  5
F10C44
330
F10007
100
AcDbEntity
  8
Defpoints
 62
     0
100
AcDbPoint
 10
-29.08782378456402
 20
12.69925962286015
 30
0.0
  0
POINT
  5
F10C45
330
F10007
100
AcDbEntity
  8
Defpoints
 62
     0
100
AcDbPoint
 10
-39.2378237845643
 20
12.69925962286015
 30
0.0
  0
ENDBLK
  5
F10074
330
F10007
100
AcDbEntity
  8
0
100
AcDbBlockEnd
  0
BLOCK
  5
F10075
330
F1000C
100
AcDbEntity
  8
0
100
AcDbBlockBegin
  2
*D10
 70
     1
 10
0.0
 20
0.0
 30
0.0
  3
*D10
  1

  0
LINE
  5
F10C46
330
F1000C
100
AcDbEntity
  8
Bemassung
 62
     0
370
    -2
100
AcDbLine
 10
-12.72609580935109
 20
6.899259622860149
 30
0.0
 11
-13.91045521564087
 21
6.899259622860149
 31
0.0
  0
LINE
  5
F10C47
330
F1000C
100
AcDbEntity
  8
Bemassung
 62
     0
370
    -2
100
AcDbLine
 10
-12.72609580935109
 20
12.49925962286015
 30
0.0
 11
-13.91045521564086
 21
12.49925962286015
 31
0.0
  0
LINE
  5
F10C48
330
F1000C
100
AcDbEntity
  8
Bemassung
 62
     0
370
    -2
100
AcDbLine
 10
-12.66045521564087
 20
4.399259622860149
 30
0.0
 11
-12.66045521564087
 21
1.89925962286015
 31
0.0
  0
LINE
  5
F10C49
330
F1000C
100
AcDbEntity
  8
Bemassung
 62
     0
370
    -2
100
AcDbLine
 10
-12.66045521564086
 20
14.99925962286015
 30
0.0
 11
-12.66045521564086
 21
26.01904134182332
 31
0.0
  0
LINE
  5
F10C4A
330
F1000C
100
AcDbEntity
  8
Bemassung
 62
     0
370
    -2
100
AcDbLine
 10
-12.66045521564087
 20
6.899259622860149
 30
0.0
 11
-12.66045521564086
 21
12.49925962286015
 31
0.0
  0
INSERT
  5
F10C4B
330
F1000C
100
AcDbEntity
  8
Bemassung
 62
     0
370
    -2
100
AcDbBlockReference
  2
VDDIM_DEFAULT
 10
-12.66045521564087
 20
6.899259622860149
 30
0.0
 41
2.5
 42
2.5
 43
2.5
 50
90.0
  0
INSERT
  5
F10C4C
330
F1000C
100
AcDbEntity
  8
Bemassung
 62
     0
370
    -2
100
AcDbBlockReference
  2
VDDIM_DEFAULT
 10
-12.66045521564086
 20
12.49925962286015
 30
0.0
 41
2.5
 42
2.5
 43
2.5
 50
270.0
  0
MTEXT
  5
F10C4D
330
F1000C
100
AcDbEntity
  8
Bemassung
 62
     0
100
AcDbMText
 10
-13.28545521564087
 20
21.75915048234173
 30
0.0
 40
2.5
 41
0.0
 71
     8
 72
     1
  1
\A1;%%c5.6
 11
0.0000000000000001
 21
1.0
 31
0.0
 73
     1
 44
1.0
1001
ACAD
1000
MTEXTBEGIN
1070
    73
1070
     1
1070
    44
1040
1.0
1070
    74
1070
     0
1000
MTEXTEND
  0
POINT
  5
F10C4E
330
F1000C
100
AcDbEntity
  8
Defpoints
 62
     0
100
AcDbPoint
 10
-12.10109580935109
 20
6.899259622860149
 30
0.0
  0
POINT
  5
F10C4F
330
F1000C
100
AcDbEntity
  8
Defpoints
 62
     0
100
AcDbPoint
 10
-12.10109580935109
 20
12.49925962286015
 30
0.0
  0
POINT
  5
F10C50
330
F1000C
100
AcDbEntity
  8
Defpoints
 62
     0
100
AcDbPoint
 10
-12.66045521564086
 20
12.49925962286015
 30
0.0
  0
ENDBLK
  5
F1007E
330
F1000C
100
AcDbEntity
  8
0
100
AcDbBlockEnd
  0
BLOCK
  5
F1007F
330
F10016
100
AcDbEntity
  8
0
100
AcDbBlockBegin
  2
*D11
 70
     1
 10
0.0
 20
0.0
 30
0.0
  3
*D11
  1

  0
LINE
  5
F10C5A
330
F10016
100
AcDbEntity
  8
Bemassung
 62
     0
370
    -2
100
AcDbLine
 10
28.087176215436
 20
6.699259622860154
 30
0.0
 11
39.01217621543599
 21
6.69925962286015
 31
0.0
  0
LINE
  5
F10C5B
330
F10016
100
AcDbEntity
  8
Bemassung
 62
     0
370
    -2
100
AcDbLine
 10
28.087176215436
 20
12.69925962286015
 30
0.0
 11
39.01217621543599
 21
12.69925962286015
 31
0.0
  0
LINE
  5
F10C5C
330
F10016
100
AcDbEntity
  8
Bemassung
 62
     0
370
    -2
100
AcDbLine
 10
37.762176215436
 20
4.199259622860151
 30
0.0
 11
37.762176215436
 21
1.699259622860151
 31
0.0
  0
LINE
  5
F10C5D
330
F10016
100
AcDbEntity
  8
Bemassung
 62
     0
370
    -2
100
AcDbLine
 10
37.762176215436
 20
15.19925962286015
 30
0.0
 11
37.762176215436
 21
28.1614015055341
 31
0.0
  0
LINE
  5
F10C5E
330
F10016
100
AcDbEntity
  8
Bemassung
 62
     0
370
    -2
100
AcDbLine
 10
37.762176215436
 20
6.699259622860151
 30
0.0
 11
37.762176215436
 21
12.69925962286015
 31
0.0
  0
INSERT
  5
F10C5F
330
F10016
100
AcDbEntity
  8
Bemassung
 62
     0
370
    -2
100
AcDbBlockReference
  2
VDDIM_DEFAULT
 10
37.762176215436
 20
6.699259622860151
 30
0.0
 41
2.5
 42
2.5
 43
2.5
 50
90.0
  0
INSERT
  5
F10C60
330
F10016
100
AcDbEntity
  8
Bemassung
 62
     0
370
    -2
100
AcDbBlockReference
  2
VDDIM_DEFAULT
 10
37.762176215436
 20
12.69925962286015
 30
0.0
 41
2.5
 42
2.5
 43
2.5
 50
270.0
  0
MTEXT
  5
F10C61
330
F10016
100
AcDbEntity
  8
Bemassung
 62
     0
100
AcDbMText
 10
37.137176215436
 20
22.93033056419713
 30
0.0
 40
2.5
 41
0.0
 71
     8
 72
     1
  1
\A1;%%c6 h6
 11
0.0000000000000001
 21
1.0
 31
0.0
 73
     1
 44
1.0
1001
ACAD
1000
MTEXTBEGIN
1070
    73
1070
     1
1070
    44
1040
1.0
1070
    74
1070
     0
1000
MTEXTEND
  0
POINT
  5
F10C62
330
F10016
100
AcDbEntity
  8
Defpoints
 62
     0
100
AcDbPoint
 10
27.462176215436
 20
6.699259622860154
 30
0.0
  0
POINT
  5
F10C63
330
F10016
100
AcDbEntity
  8
Defpoints
 62
     0
100
AcDbPoint
 10
27.462176215436
 20
12.69925962286015
 30
0.0
  0
POINT
  5
F10C64
330
F10016
100
AcDbEntity
  8
Defpoints
 62
     0
100
AcDbPoint
 10
37.762176215436
 20
12.69925962286015
 30
0.0
  0
ENDBLK
  5
F10088
330
F10016
100
AcDbEntity
  8
0
100
AcDbBlockEnd
  0
BLOCK
  5
F10B67
330
F10B65
100
AcDbEntity
  8
0
100
AcDbBlockBegin
  2
GENAXEH
 70
     0
 10
0.0
 20
0.0
 30
0.0
  3
GENAXEH
  1

  0
LINE
  5
F10B66
330
F10B65
100
AcDbEntity
  8
0
100
AcDbLine
 10
-1.0
 20
0.0
 30
0.0
 11
1.0
 21
0.0
 31
0.0
  0
ENDBLK
  5
F10B68
330
F10B65
100
AcDbEntity
  8
0
100
AcDbBlockEnd
  0
ENDSEC
  0
SECTION
  2
ENTITIES
  0
DIMENSION
  5
F10012
330
261
100
AcDbEntity
  8
Bemassung
100
AcDbDimension
  2
*D4
 10
27.762176215436
 20
32.69925962286015
 30
0.0
 11
9.762176215435996
 21
34.60154475246452
 31
0.0
 70
    32
  1
<>
 71
     8
 42
36.0
  3
BEM-ISBE
100
AcDbAlignedDimension
 13
-8.237823784564
 23
12.69925962286015
 33
0.0
 14
27.762176215436
 24
12.39925962286015
 34
0.0
100
AcDbRotatedDimension
1001
ACAD
1000
DSTYLE
1002
{
1070
   147
1040
0.625
1070
    72
1070
     0
1070
    71
1070
     0
1070
   284
1070
     8
1070
    78
1070
     8
1070
   144
1040
1.0
1070
    47
1040
2.0
1070
    48
1040
0.0
1002
}
  0
DIMENSION
  5
F1001C
330
261
100
AcDbEntity
  8
Bemassung
100
AcDbDimension
  2
*D5
 10
-29.23782378456401
 20
-8.300740377139845
 30
0.0
 11
-22.73782378456401
 21
-6.39845524753548
 31
0.0
 70
    32
  1
<>
 71
     8
 42
13.00000000000001
  3
BEM-ISBE
100
AcDbAlignedDimension
 13
-16.237823784564
 23
6.899259622860149
 33
0.0
 14
-29.23782378456401
 24
9.699259622860154
 34
0.0
100
AcDbRotatedDimension
1001
ACAD
1000
DSTYLE
1002
{
1070
   147
1040
0.625
1070
    72
1070
     0
1070
    71
1070
     0
1070
   284
1070
     8
1070
    78
1070
     8
1070
   144
1040
1.0
1070
    47
1040
1.5
1070
    48
1040
0.0
1002
}
  0
DIMENSION
  5
F10026
330
261
100
AcDbEntity
  8
Bemassung
100
AcDbDimension
  2
*D7
 10
-29.23782378456401
 20
47.69925962286015
 30
0.0
 11
-0.7378237845640072
 21
49.59557613036356
 31
0.0
 70
    32
  1
<>
 71
     8
 42
57.00000000000001
  3
BEM-ISBE
100
AcDbAlignedDimension
 13
27.762176215436
 23
12.39925962286015
 33
0.0
 14
-29.23782378456401
 24
9.699259622860154
 34
0.0
100
AcDbRotatedDimension
1001
ACAD
1000
DSTYLE
1002
{
1070
   147
1040
0.625
1070
    72
1070
     0
1070
    71
1070
     0
1070
   284
1070
     8
1070
    78
1070
     8
1070
   144
1040
1.0
1070
    47
1040
2.0
1070
    48
1040
0.0
1002
}
  0
DIMENSION
  5
F1002B
330
261
100
AcDbEntity
  8
Bemassung
100
AcDbDimension
  2
*D8
 10
-9.237823784563998
 20
32.52448086179825
 30
0.0
 11
-19.23782378456401
 21
34.42591333110249
 31
0.0
 70
    32
  1
<>
 71
     8
 42
20.00000000000001
  3
BEM-ISBE
100
AcDbAlignedDimension
 13
-29.23782378456401
 23
9.699259622860154
 33
0.0
 14
-9.237823784564
 24
12.69925962286015
 34
0.0
100
AcDbRotatedDimension
1001
ACAD
1000
DSTYLE
1002
{
1070
   284
1070
     8
1070
    78
1070
     8
1070
   144
1040
1.0
1070
   147
1040
0.625
1070
    72
1070
     0
1070
    71
1070
     0
1002
}
  0
DIMENSION
  5
F10008
330
261
100
AcDbEntity
  8
Bemassung
100
AcDbDimension
  2
*D9
 10
-39.2378237845643
 20
12.69925962286015
 30
0.0
 11
-41.20917439847971
 21
9.699259622860148
 31
0.0
 70
    32
  1
%%c<>
 71
     8
 42
5.999999999999999
  3
BEM-ISBE
100
AcDbAlignedDimension
 13
-29.08782378456402
 23
6.699259622860154
 33
0.0
 14
-29.08782378456402
 24
12.69925962286015
 34
0.0
 50
90.0
100
AcDbRotatedDimension
1001
ACAD
1000
DSTYLE
1002
{
1070
   147
1040
0.625
1070
    72
1070
     0
1070
    71
1070
     0
1070
   284
1070
     8
1070
    78
1070
     8
1070
   144
1040
1.0
1070
    47
1040
0.0
1070
    48
1040
-0.048
1002
}
  0
DIMENSION
  5
F1000D
330
261
100
AcDbEntity
  8
Bemassung
100
AcDbDimension
  2
*D10
 10
-12.66045521564086
 20
12.49925962286015
 30
0.0
 11
-14.63180582955628
 21
21.75915048234173
 31
0.0
 70
    32
  1
%%c<>
 71
     8
 42
5.6
  3
BEM-ISBE
100
AcDbAlignedDimension
 13
-12.10109580935109
 23
6.899259622860149
 33
0.0
 14
-12.10109580935109
 24
12.49925962286015
 34
0.0
 50
90.0
100
AcDbRotatedDimension
1001
ACAD
1000
DSTYLE
1002
{
1070
   147
1040
0.625
1070
    72
1070
     0
1070
    71
1070
     0
1070
   284
1070
     8
1070
    78
1070
     8
1070
   144
1040
1.0
1070
    47
1040
0.0
1070
    48
1040
-0.1
1002
}
  0
DIMENSION
  5
F10017
330
261
100
AcDbEntity
  8
Bemassung
100
AcDbDimension
  2
*D11
 10
37.762176215436
 20
12.69925962286015
 30
0.0
 11
35.79082560152058
 21
22.93033056419713
 31
0.0
 70
    32
  1
%%c<> h6
 71
     8
 42
5.999999999999999
  3
BEM-ISBE
100
AcDbAlignedDimension
 13
27.462176215436
 23
6.699259622860154
 33
0.0
 14
27.462176215436
 24
12.69925962286015
 34
0.0
 50
90.0
100
AcDbRotatedDimension
1001
ACAD
1000
DSTYLE
1002
{
1070
   284
1070
     8
1070
    78
1070
     8
1070
   144
1040
1.0
1070
   147
1040
0.625
1070
    72
1070
     0
1070
    71
1070
     0
1002
}
  0
LINE
  5
F10089
330
261
100
AcDbEntity
  8
Geo
100
AcDbLine
 10
-29.23782378456401
 20
9.699259622860154
 30
0.0
 11
-29.23782378456401
 21
12.54925962286015
 31
0.0
  0
LINE
  5
F1008B
330
261
100
AcDbEntity
  8
Geo
100
AcDbLine
 10
-29.23782378456401
 20
12.54925962286015
 30
0.0
 11
-29.08782378456402
 21
12.69925962286015
 31
0.0
  0
LINE
  5
F1008D
330
261
100
AcDbEntity
  8
Geo
100
AcDbLine
 10
-29.08782378456402
 20
12.69925962286015
 30
0.0
 11
-16.237823784564
 21
12.69925962286015
 31
0.0
  0
LINE
  5
F1008F
330
261
100
AcDbEntity
  8
Geo
100
AcDbLine
 10
-16.237823784564
 20
12.69925962286015
 30
0.0
 11
-16.237823784564
 21
12.49925962286015
 31
0.0
  0
LINE
  5
F10091
330
261
100
AcDbEntity
  8
Geo
100
AcDbLine
 10
-16.237823784564
 20
12.49925962286015
 30
0.0
 11
-9.237823784564
 21
12.49925962286015
 31
0.0
  0
LINE
  5
F10093
330
261
100
AcDbEntity
  8
Geo
100
AcDbLine
 10
-8.237823784564
 20
12.49925962286015
 30
0.0
 11
-8.237823784564
 21
12.69925962286015
 31
0.0
  0
LINE
  5
F10095
330
261
100
AcDbEntity
  8
Geo
100
AcDbLine
 10
-9.237823784564
 20
12.69925962286015
 30
0.0
 11
6.762176215435992
 21
12.69925962286015
 31
0.0
  0
LINE
  5
F10097
330
261
100
AcDbEntity
  8
Geo
100
AcDbLine
 10
6.762176215435992
 20
12.69925962286015
 30
0.0
 11
7.662176215435991
 21
11.79925962286015
 31
0.0
  0
LINE
  5
F10099
330
261
100
AcDbEntity
  8
Geo
100
AcDbLine
 10
7.662176215435991
 20
11.79925962286015
 30
0.0
 11
11.86217621543599
 21
11.79925962286015
 31
0.0
  0
LINE
  5
F1009B
330
261
100
AcDbEntity
  8
Geo
100
AcDbLine
 10
11.86217621543599
 20
11.79925962286015
 30
0.0
 11
12.76217621543599
 21
12.69925962286015
 31
0.0
  0
LINE
  5
F1009D
330
261
100
AcDbEntity
  8
Geo
100
AcDbLine
 10
12.76217621543599
 20
12.69925962286015
 30
0.0
 11
27.462176215436
 21
12.69925962286015
 31
0.0
  0
LINE
  5
F1009F
330
261
100
AcDbEntity
  8
Geo
100
AcDbLine
 10
27.462176215436
 20
12.69925962286015
 30
0.0
 11
27.762176215436
 21
12.39925962286015
 31
0.0
  0
LINE
  5
F100A1
330
261
100
AcDbEntity
  8
Geo
100
AcDbLine
 10
-27.43782378456402
 20
12.69925878935255
 30
0.0
 11
-27.33782378456402
 21
12.69832085933355
 31
0.0
  0
LINE
  5
F100A3
330
261
100
AcDbEntity
  8
Geo
100
AcDbLine
 10
-27.33782378456402
 20
12.69832085933355
 30
0.0
 11
-27.23782378456402
 21
12.69539247716476
 31
0.0
  0
LINE
  5
F100A5
330
261
100
AcDbEntity
  8
Geo
100
AcDbLine
 10
-27.23782378456402
 20
12.69539247716476
 30
0.0
 11
-27.13782378456402
 21
12.69047558638936
 31
0.0
  0
LINE
  5
F100A7
330
261
100
AcDbEntity
  8
Geo
100
AcDbLine
 10
-27.13782378456402
 20
12.69047558638936
 30
0.0
 11
-27.03782378456401
 21
12.68357345030695
 31
0.0
  0
LINE
  5
F100A9
330
261
100
AcDbEntity
  8
Geo
100
AcDbLine
 10
-27.03782378456401
 20
12.68357345030695
 30
0.0
 11
-26.93782378456402
 21
12.67469064980845
 31
0.0
  0
LINE
  5
F100AB
330
261
100
AcDbEntity
  8
Geo
100
AcDbLine
 10
-26.93782378456402
 20
12.67469064980845
 30
0.0
 11
-26.83782378456402
 21
12.66383308033485
 31
0.0
  0
LINE
  5
F100AD
330
261
100
AcDbEntity
  8
Geo
100
AcDbLine
 10
-26.83782378456402
 20
12.66383308033485
 30
0.0
 11
-26.73782378456401
 21
12.65100794796535
 31
0.0
  0
LINE
  5
F100AF
330
261
100
AcDbEntity
  8
Geo
100
AcDbLine
 10
-26.73782378456401
 20
12.65100794796535
 30
0.0
 11
-26.63782378456402
 21
12.63622376463425
 31
0.0
  0
LINE
  5
F100B1
330
261
100
AcDbEntity
  8
Geo
100
AcDbLine
 10
-26.63782378456402
 20
12.63622376463425
 30
0.0
 11
-26.53782378456401
 21
12.61949034248186
 31
0.0
  0
LINE
  5
F100B3
330
261
100
AcDbEntity
  8
Geo
100
AcDbLine
 10
-26.53782378456401
 20
12.61949034248186
 30
0.0
 11
-26.43782378456402
 21
12.60081878734215
 31
0.0
  0
LINE
  5
F100B5
330
261
100
AcDbEntity
  8
Geo
100
AcDbLine
 10
-26.43782378456402
 20
12.60081878734215
 30
0.0
 11
-26.33782378456402
 21
12.58022149137186
 31
0.0
  0
LINE
  5
F100B7
330
261
100
AcDbEntity
  8
Geo
100
AcDbLine
 10
-26.33782378456402
 20
12.58022149137186
 30
0.0
 11
-26.23782378456402
 21
12.55771212482605
 31
0.0
  0
LINE
  5
F100B9
330
261
100
AcDbEntity
  8
Geo
100
AcDbLine
 10
-26.23782378456402
 20
12.55771212482605
 30
0.0
 11
-26.13782378456402
 21
12.53330562698515
 31
0.0
  0
LINE
  5
F100BB
330
261
100
AcDbEntity
  8
Geo
100
AcDbLine
 10
-26.13782378456402
 20
12.53330562698515
 30
0.0
 11
-26.03782378456401
 21
12.50701819624025
 31
0.0
  0
LINE
  5
F100BD
330
261
100
AcDbEntity
  8
Geo
100
AcDbLine
 10
-26.03782378456401
 20
12.50701819624025
 30
0.0
 11
-25.93782378456402
 21
12.47886727934155
 31
0.0
  0
LINE
  5
F100BF
330
261
100
AcDbEntity
  8
Geo
100
AcDbLine
 10
-25.93782378456402
 20
12.47886727934155
 30
0.0
 11
-25.83782378456402
 21
12.44887155981995
 31
0.0
  0
LINE
  5
F100C1
330
261
100
AcDbEntity
  8
Geo
100
AcDbLine
 10
-25.83782378456402
 20
12.44887155981995
 30
0.0
 11
-25.73782378456402
 21
12.41705094558655
 31
0.0
  0
LINE
  5
F100C3
330
261
100
AcDbEntity
  8
Geo
100
AcDbLine
 10
-25.73782378456402
 20
12.41705094558655
 30
0.0
 11
-25.63782378456402
 21
12.38342655572006
 31
0.0
  0
LINE
  5
F100C5
330
261
100
AcDbEntity
  8
Geo
100
AcDbLine
 10
-25.63782378456402
 20
12.38342655572006
 30
0.0
 11
-25.53782378456401
 21
12.34802070644986
 31
0.0
  0
LINE
  5
F100C7
330
261
100
AcDbEntity
  8
Geo
100
AcDbLine
 10
-25.53782378456401
 20
12.34802070644986
 30
0.0
 11
-25.43782378456402
 21
12.31085689634555
 31
0.0
  0
LINE
  5
F100C9
330
261
100
AcDbEntity
  8
Geo
100
AcDbLine
 10
-25.43782378456402
 20
12.31085689634555
 30
0.0
 11
-25.33782378456403
 21
12.27195979072066
 31
0.0
  0
LINE
  5
F100CB
330
261
100
AcDbEntity
  8
Geo
100
AcDbLine
 10
-25.33782378456403
 20
12.27195979072066
 30
0.0
 11
-25.23782378456401
 21
12.23135520526255
 31
0.0
  0
LINE
  5
F100CD
330
261
100
AcDbEntity
  8
Geo
100
AcDbLine
 10
-25.23782378456401
 20
12.23135520526255
 30
0.0
 11
-25.13782378456402
 21
12.18907008889905
 31
0.0
  0
LINE
  5
F100CF
330
261
100
AcDbEntity
  8
Geo
100
AcDbLine
 10
-25.13782378456402
 20
12.18907008889905
 30
0.0
 11
-25.03782378456401
 21
12.14513250591225
 31
0.0
  0
LINE
  5
F100D1
330
261
100
AcDbEntity
  8
Geo
100
AcDbLine
 10
-25.03782378456401
 20
12.14513250591225
 30
0.0
 11
-24.937823784564
 21
12.09957161731275
 31
0.0
  0
LINE
  5
F100D3
330
261
100
AcDbEntity
  8
Geo
100
AcDbLine
 10
-24.937823784564
 20
12.09957161731275
 30
0.0
 11
-24.83782378456401
 21
12.05241766148565
 31
0.0
  0
LINE
  5
F100D5
330
261
100
AcDbEntity
  8
Geo
100
AcDbLine
 10
-24.83782378456401
 20
12.05241766148565
 30
0.0
 11
-24.737823784564
 21
12.00370193412165
 31
0.0
  0
LINE
  5
F100D7
330
261
100
AcDbEntity
  8
Geo
100
AcDbLine
 10
-24.737823784564
 20
12.00370193412165
 30
0.0
 11
-24.63782378456401
 21
11.95345676744615
 31
0.0
  0
LINE
  5
F100D9
330
261
100
AcDbEntity
  8
Geo
100
AcDbLine
 10
-24.63782378456401
 20
11.95345676744615
 30
0.0
 11
-24.53782378456401
 21
11.90171550876115
 31
0.0
  0
LINE
  5
F100DB
330
261
100
AcDbEntity
  8
Geo
100
AcDbLine
 10
-24.53782378456401
 20
11.90171550876115
 30
0.0
 11
-24.43782378456401
 21
11.84851249831205
 31
0.0
  0
LINE
  5
F100DD
330
261
100
AcDbEntity
  8
Geo
100
AcDbLine
 10
-24.43782378456401
 20
11.84851249831205
 30
0.0
 11
-24.33782378456401
 21
11.79388304649725
 31
0.0
  0
LINE
  5
F100DF
330
261
100
AcDbEntity
  8
Geo
100
AcDbLine
 10
-24.33782378456401
 20
11.79388304649725
 30
0.0
 11
-24.237823784564
 21
11.73786341043215
 31
0.0
  0
LINE
  5
F100E1
330
261
100
AcDbEntity
  8
Geo
100
AcDbLine
 10
-24.237823784564
 20
11.73786341043215
 30
0.0
 11
-24.13782378456401
 21
11.68049076988625
 31
0.0
  0
LINE
  5
F100E3
330
261
100
AcDbEntity
  8
Geo
100
AcDbLine
 10
-24.13782378456401
 20
11.68049076988625
 30
0.0
 11
-24.03782378456401
 21
11.62180320260665
 31
0.0
  0
LINE
  5
F100E5
330
261
100
AcDbEntity
  8
Geo
100
AcDbLine
 10
-24.03782378456401
 20
11.62180320260665
 30
0.0
 11
-23.937823784564
 21
11.56183965904665
 31
0.0
  0
LINE
  5
F100E7
330
261
100
AcDbEntity
  8
Geo
100
AcDbLine
 10
-23.937823784564
 20
11.56183965904665
 30
0.0
 11
-23.83782378456401
 21
11.50063993651445
 31
0.0
  0
LINE
  5
F100E9
330
261
100
AcDbEntity
  8
Geo
100
AcDbLine
 10
-23.83782378456401
 20
11.50063993651445
 30
0.0
 11
-23.737823784564
 21
11.43824465275985
 31
0.0
  0
LINE
  5
F100EB
330
261
100
AcDbEntity
  8
Geo
100
AcDbLine
 10
-23.737823784564
 20
11.43824465275985
 30
0.0
 11
-23.637823784564
 21
11.37469521901695
 31
0.0
  0
LINE
  5
F100ED
330
261
100
AcDbEntity
  8
Geo
100
AcDbLine
 10
-23.637823784564
 20
11.37469521901695
 30
0.0
 11
-23.53782378456401
 21
11.31003381251945
 31
0.0
  0
LINE
  5
F100EF
330
261
100
AcDbEntity
  8
Geo
100
AcDbLine
 10
-23.53782378456401
 20
11.31003381251945
 30
0.0
 11
-23.437823784564
 21
11.24430334850845
 31
0.0
  0
LINE
  5
F100F1
330
261
100
AcDbEntity
  8
Geo
100
AcDbLine
 10
-23.437823784564
 20
11.24430334850845
 30
0.0
 11
-23.33782378456401
 21
11.17754745174945
 31
0.0
  0
LINE
  5
F100F3
330
261
100
AcDbEntity
  8
Geo
100
AcDbLine
 10
-23.33782378456401
 20
11.17754745174945
 30
0.0
 11
-23.237823784564
 21
11.10981042757925
 31
0.0
  0
LINE
  5
F100F5
330
261
100
AcDbEntity
  8
Geo
100
AcDbLine
 10
-23.237823784564
 20
11.10981042757925
 30
0.0
 11
-23.13782378456401
 21
11.04113723250095
 31
0.0
  0
LINE
  5
F100F7
330
261
100
AcDbEntity
  8
Geo
100
AcDbLine
 10
-23.13782378456401
 20
11.04113723250095
 30
0.0
 11
-23.03782378456401
 21
10.97157344434615
 31
0.0
  0
LINE
  5
F100F9
330
261
100
AcDbEntity
  8
Geo
100
AcDbLine
 10
-23.03782378456401
 20
10.97157344434615
 30
0.0
 11
-22.937823784564
 21
10.90116523202615
 31
0.0
  0
LINE
  5
F100FB
330
261
100
AcDbEntity
  8
Geo
100
AcDbLine
 10
-22.937823784564
 20
10.90116523202615
 30
0.0
 11
-22.83782378456401
 21
10.82995932488945
 31
0.0
  0
LINE
  5
F100FD
330
261
100
AcDbEntity
  8
Geo
100
AcDbLine
 10
-22.83782378456401
 20
10.82995932488945
 30
0.0
 11
-22.737823784564
 21
10.75800298170785
 31
0.0
  0
LINE
  5
F100FF
330
261
100
AcDbEntity
  8
Geo
100
AcDbLine
 10
-22.737823784564
 20
10.75800298170785
 30
0.0
 11
-22.63782378456401
 21
10.68534395931144
 31
0.0
  0
LINE
  5
F10101
330
261
100
AcDbEntity
  8
Geo
100
AcDbLine
 10
-22.63782378456401
 20
10.68534395931144
 30
0.0
 11
-22.53782378456401
 21
10.61203048089295
 31
0.0
  0
LINE
  5
F10103
330
261
100
AcDbEntity
  8
Geo
100
AcDbLine
 10
-22.53782378456401
 20
10.61203048089295
 30
0.0
 11
-22.437823784564
 21
10.53811120400165
 31
0.0
  0
LINE
  5
F10105
330
261
100
AcDbEntity
  8
Geo
100
AcDbLine
 10
-22.437823784564
 20
10.53811120400165
 30
0.0
 11
-22.33782378456401
 21
10.46363518825065
 31
0.0
  0
LINE
  5
F10107
330
261
100
AcDbEntity
  8
Geo
100
AcDbLine
 10
-22.33782378456401
 20
10.46363518825065
 30
0.0
 11
-22.237823784564
 21
10.38865186275595
 31
0.0
  0
LINE
  5
F10109
330
261
100
AcDbEntity
  8
Geo
100
AcDbLine
 10
-22.237823784564
 20
10.38865186275595
 30
0.0
 11
-22.13782378456401
 21
10.31321099333075
 31
0.0
  0
LINE
  5
F1010B
330
261
100
AcDbEntity
  8
Geo
100
AcDbLine
 10
-22.13782378456401
 20
10.31321099333075
 30
0.0
 11
-22.03782378456401
 21
10.23736264945645
 31
0.0
  0
LINE
  5
F1010D
330
261
100
AcDbEntity
  8
Geo
100
AcDbLine
 10
-22.03782378456401
 20
10.23736264945645
 30
0.0
 11
-21.93782378456401
 21
10.16115717105175
 31
0.0
  0
LINE
  5
F1010F
330
261
100
AcDbEntity
  8
Geo
100
AcDbLine
 10
-21.93782378456401
 20
10.16115717105175
 30
0.0
 11
-21.83782378456401
 21
10.08464513506295
 31
0.0
  0
LINE
  5
F10111
330
261
100
AcDbEntity
  8
Geo
100
AcDbLine
 10
-21.83782378456401
 20
10.08464513506295
 30
0.0
 11
-21.737823784564
 21
10.00787732189555
 31
0.0
  0
LINE
  5
F10113
330
261
100
AcDbEntity
  8
Geo
100
AcDbLine
 10
-21.737823784564
 20
10.00787732189555
 30
0.0
 11
-21.63782378456401
 21
9.930904681712554
 31
0.0
  0
LINE
  5
F10115
330
261
100
AcDbEntity
  8
Geo
100
AcDbLine
 10
-21.63782378456401
 20
9.930904681712554
 30
0.0
 11
-21.53782378456401
 21
9.853778300619048
 31
0.0
  0
LINE
  5
F10117
330
261
100
AcDbEntity
  8
Geo
100
AcDbLine
 10
-21.53782378456401
 20
9.853778300619048
 30
0.0
 11
-21.437823784564
 21
9.776549366756547
 31
0.0
  0
LINE
  5
F10119
330
261
100
AcDbEntity
  8
Geo
100
AcDbLine
 10
-21.437823784564
 20
9.776549366756547
 30
0.0
 11
-21.33782378456401
 21
9.69926913632986
 31
0.0
  0
LINE
  5
F1011B
330
261
100
AcDbEntity
  8
Geo
100
AcDbLine
 10
-21.33782378456401
 20
9.69926913632986
 30
0.0
 11
-21.237823784564
 21
9.621988899589254
 31
0.0
  0
LINE
  5
F1011D
330
261
100
AcDbEntity
  8
Geo
100
AcDbLine
 10
-21.237823784564
 20
9.621988899589254
 30
0.0
 11
-21.137823784564
 21
9.544759946788857
 31
0.0
  0
LINE
  5
F1011F
330
261
100
AcDbEntity
  8
Geo
100
AcDbLine
 10
-21.137823784564
 20
9.544759946788857
 30
0.0
 11
-21.03782378456401
 21
9.467633534146251
 31
0.0
  0
LINE
  5
F10121
330
261
100
AcDbEntity
  8
Geo
100
AcDbLine
 10
-21.03782378456401
 20
9.467633534146251
 30
0.0
 11
-20.937823784564
 21
9.390660849823859
 31
0.0
  0
LINE
  5
F10123
330
261
100
AcDbEntity
  8
Geo
100
AcDbLine
 10
-20.937823784564
 20
9.390660849823859
 30
0.0
 11
-20.83782378456401
 21
9.313892979956051
 31
0.0
  0
LINE
  5
F10125
330
261
100
AcDbEntity
  8
Geo
100
AcDbLine
 10
-20.83782378456401
 20
9.313892979956051
 30
0.0
 11
-20.737823784564
 21
9.237380874743251
 31
0.0
  0
LINE
  5
F10127
330
261
100
AcDbEntity
  8
Geo
100
AcDbLine
 10
-20.737823784564
 20
9.237380874743251
 30
0.0
 11
-20.63782378456401
 21
9.161175314637354
 31
0.0
  0
LINE
  5
F10129
330
261
100
AcDbEntity
  8
Geo
100
AcDbLine
 10
-20.63782378456401
 20
9.161175314637354
 30
0.0
 11
-20.53782378456401
 21
9.085326876638454
 31
0.0
  0
LINE
  5
F1012B
330
261
100
AcDbEntity
  8
Geo
100
AcDbLine
 10
-20.53782378456401
 20
9.085326876638454
 30
0.0
 11
-20.437823784564
 21
9.009885900727951
 31
0.0
  0
LINE
  5
F1012D
330
261
100
AcDbEntity
  8
Geo
100
AcDbLine
 10
-20.437823784564
 20
9.009885900727951
 30
0.0
 11
-20.33782378456401
 21
8.934902456457855
 31
0.0
  0
LINE
  5
F1012F
330
261
100
AcDbEntity
  8
Geo
100
AcDbLine
 10
-20.33782378456401
 20
8.934902456457855
 30
0.0
 11
-20.237823784564
 21
8.860426309720253
 31
0.0
  0
LINE
  5
F10131
330
261
100
AcDbEntity
  8
Geo
100
AcDbLine
 10
-20.237823784564
 20
8.860426309720253
 30
0.0
 11
-20.13782378456401
 21
8.786506889717955
 31
0.0
  0
LINE
  5
F10133
330
261
100
AcDbEntity
  8
Geo
100
AcDbLine
 10
-20.13782378456401
 20
8.786506889717955
 30
0.0
 11
-20.03782378456401
 21
8.713193256159051
 31
0.0
  0
LINE
  5
F10135
330
261
100
AcDbEntity
  8
Geo
100
AcDbLine
 10
-20.03782378456401
 20
8.713193256159051
 30
0.0
 11
-19.937823784564
 21
8.640534066696055
 31
0.0
  0
LINE
  5
F10137
330
261
100
AcDbEntity
  8
Geo
100
AcDbLine
 10
-19.937823784564
 20
8.640534066696055
 30
0.0
 11
-19.83782378456401
 21
8.568577544632354
 31
0.0
  0
LINE
  5
F10139
330
261
100
AcDbEntity
  8
Geo
100
AcDbLine
 10
-19.83782378456401
 20
8.568577544632354
 30
0.0
 11
-19.737823784564
 21
8.497371446916652
 31
0.0
  0
LINE
  5
F1013B
330
261
100
AcDbEntity
  8
Geo
100
AcDbLine
 10
-19.737823784564
 20
8.497371446916652
 30
0.0
 11
-19.637823784564
 21
8.426963032447453
 31
0.0
  0
LINE
  5
F1013D
330
261
100
AcDbEntity
  8
Geo
100
AcDbLine
 10
-19.637823784564
 20
8.426963032447453
 30
0.0
 11
-19.53782378456401
 21
8.357399030707348
 31
0.0
  0
LINE
  5
F1013F
330
261
100
AcDbEntity
  8
Geo
100
AcDbLine
 10
-19.53782378456401
 20
8.357399030707348
 30
0.0
 11
-19.437823784564
 21
8.288725610749153
 31
0.0
  0
LINE
  5
F10141
330
261
100
AcDbEntity
  8
Geo
100
AcDbLine
 10
-19.437823784564
 20
8.288725610749153
 30
0.0
 11
-19.33782378456401
 21
8.220988350554151
 31
0.0
  0
LINE
  5
F10143
330
261
100
AcDbEntity
  8
Geo
100
AcDbLine
 10
-19.33782378456401
 20
8.220988350554151
 30
0.0
 11
-19.237823784564
 21
8.154232206781848
 31
0.0
  0
LINE
  5
F10145
330
261
100
AcDbEntity
  8
Geo
100
AcDbLine
 10
-19.237823784564
 20
8.154232206781848
 30
0.0
 11
-19.137823784564
 21
8.088501484933054
 31
0.0
  0
LINE
  5
F10147
330
261
100
AcDbEntity
  8
Geo
100
AcDbLine
 10
-19.137823784564
 20
8.088501484933054
 30
0.0
 11
-19.03782378456401
 21
8.023839809944355
 31
0.0
  0
LINE
  5
F10149
330
261
100
AcDbEntity
  8
Geo
100
AcDbLine
 10
-19.03782378456401
 20
8.023839809944355
 30
0.0
 11
-18.937823784564
 21
7.960290097235052
 31
0.0
  0
LINE
  5
F1014B
330
261
100
AcDbEntity
  8
Geo
100
AcDbLine
 10
-18.937823784564
 20
7.960290097235052
 30
0.0
 11
-18.83782378456401
 21
7.897894524223957
 31
0.0
  0
LINE
  5
F1014D
330
261
100
AcDbEntity
  8
Geo
100
AcDbLine
 10
-18.83782378456401
 20
7.897894524223957
 30
0.0
 11
-18.737823784564
 21
7.836694502337152
 31
0.0
  0
LINE
  5
F1014F
330
261
100
AcDbEntity
  8
Geo
100
AcDbLine
 10
-18.737823784564
 20
7.836694502337152
 30
0.0
 11
-18.637823784564
 21
7.776730649523152
 31
0.0
  0
LINE
  5
F10151
330
261
100
AcDbEntity
  8
Geo
100
AcDbLine
 10
-18.637823784564
 20
7.776730649523152
 30
0.0
 11
-18.53782378456401
 21
7.718042763295457
 31
0.0
  0
LINE
  5
F10153
330
261
100
AcDbEntity
  8
Geo
100
AcDbLine
 10
-18.53782378456401
 20
7.718042763295457
 30
0.0
 11
-18.437823784564
 21
7.660669794318856
 31
0.0
  0
LINE
  5
F10155
330
261
100
AcDbEntity
  8
Geo
100
AcDbLine
 10
-18.437823784564
 20
7.660669794318856
 30
0.0
 11
-18.33782378456401
 21
7.604649820558755
 31
0.0
  0
LINE
  5
F10157
330
261
100
AcDbEntity
  8
Geo
100
AcDbLine
 10
-18.33782378456401
 20
7.604649820558755
 30
0.0
 11
-18.237823784564
 21
7.550020022008453
 31
0.0
  0
LINE
  5
F10159
330
261
100
AcDbEntity
  8
Geo
100
AcDbLine
 10
-18.237823784564
 20
7.550020022008453
 30
0.0
 11
-18.137823784564
 21
7.496816656013649
 31
0.0
  0
LINE
  5
F1015B
330
261
100
AcDbEntity
  8
Geo
100
AcDbLine
 10
-18.137823784564
 20
7.496816656013649
 30
0.0
 11
-18.03782378456401
 21
7.445075033208652
 31
0.0
  0
LINE
  5
F1015D
330
261
100
AcDbEntity
  8
Geo
100
AcDbLine
 10
-18.03782378456401
 20
7.445075033208652
 30
0.0
 11
-17.937823784564
 21
7.394829494080653
 31
0.0
  0
LINE
  5
F1015F
330
261
100
AcDbEntity
  8
Geo
100
AcDbLine
 10
-17.937823784564
 20
7.394829494080653
 30
0.0
 11
-17.83782378456401
 21
7.34611338617865
 31
0.0
  0
LINE
  5
F10161
330
261
100
AcDbEntity
  8
Geo
100
AcDbLine
 10
-17.83782378456401
 20
7.34611338617865
 30
0.0
 11
-17.737823784564
 21
7.298959041980651
 31
0.0
  0
LINE
  5
F10163
330
261
100
AcDbEntity
  8
Geo
100
AcDbLine
 10
-17.737823784564
 20
7.298959041980651
 30
0.0
 11
-17.637823784564
 21
7.253397757435259
 31
0.0
  0
LINE
  5
F10165
330
261
100
AcDbEntity
  8
Geo
100
AcDbLine
 10
-17.637823784564
 20
7.253397757435259
 30
0.0
 11
-17.53782378456401
 21
7.209459771190154
 31
0.0
  0
LINE
  5
F10167
330
261
100
AcDbEntity
  8
Geo
100
AcDbLine
 10
-17.53782378456401
 20
7.209459771190154
 30
0.0
 11
-17.437823784564
 21
7.167174244523756
 31
0.0
  0
LINE
  5
F10169
330
261
100
AcDbEntity
  8
Geo
100
AcDbLine
 10
-17.437823784564
 20
7.167174244523756
 30
0.0
 11
-17.33782378456401
 21
7.126569241990353
 31
0.0
  0
LINE
  5
F1016B
330
261
100
AcDbEntity
  8
Geo
100
AcDbLine
 10
-17.33782378456401
 20
7.126569241990353
 30
0.0
 11
-17.237823784564
 21
7.087671712794652
 31
0.0
  0
LINE
  5
F1016D
330
261
100
AcDbEntity
  8
Geo
100
AcDbLine
 10
-17.237823784564
 20
7.087671712794652
 30
0.0
 11
-17.137823784564
 21
7.050507472905152
 31
0.0
  0
LINE
  5
F1016F
330
261
100
AcDbEntity
  8
Geo
100
AcDbLine
 10
-17.137823784564
 20
7.050507472905152
 30
0.0
 11
-17.03782378456401
 21
7.015101187920556
 31
0.0
  0
LINE
  5
F10171
330
261
100
AcDbEntity
  8
Geo
100
AcDbLine
 10
-17.03782378456401
 20
7.015101187920556
 30
0.0
 11
-16.937823784564
 21
6.981476356699552
 31
0.0
  0
LINE
  5
F10173
330
261
100
AcDbEntity
  8
Geo
100
AcDbLine
 10
-16.937823784564
 20
6.981476356699552
 30
0.0
 11
-16.83782378456401
 21
6.949655295764756
 31
0.0
  0
LINE
  5
F10175
330
261
100
AcDbEntity
  8
Geo
100
AcDbLine
 10
-16.83782378456401
 20
6.949655295764756
 30
0.0
 11
-16.737823784564
 21
6.919659124491055
 31
0.0
  0
LINE
  5
F10177
330
261
100
AcDbEntity
  8
Geo
100
AcDbLine
 10
-16.737823784564
 20
6.919659124491055
 30
0.0
 11
-16.637823784564
 21
6.891507751089456
 31
0.0
  0
LINE
  5
F10179
330
261
100
AcDbEntity
  8
Geo
100
AcDbLine
 10
-16.637823784564
 20
6.891507751089456
 30
0.0
 11
-16.53782378456401
 21
6.865219859393754
 31
0.0
  0
LINE
  5
F1017B
330
261
100
AcDbEntity
  8
Geo
100
AcDbLine
 10
-16.53782378456401
 20
6.865219859393754
 30
0.0
 11
-16.437823784564
 21
6.840812896460356
 31
0.0
  0
LINE
  5
F1017D
330
261
100
AcDbEntity
  8
Geo
100
AcDbLine
 10
-16.437823784564
 20
6.840812896460356
 30
0.0
 11
-16.33782378456401
 21
6.81830306098876
 31
0.0
  0
LINE
  5
F1017F
330
261
100
AcDbEntity
  8
Geo
100
AcDbLine
 10
-16.33782378456401
 20
6.81830306098876
 30
0.0
 11
-16.237823784564
 21
6.797705292570753
 31
0.0
  0
LINE
  5
F10181
330
261
100
AcDbEntity
  8
Geo
100
AcDbLine
 10
-16.237823784564
 20
6.797705292570753
 30
0.0
 11
-16.237823784564
 21
6.797705292570753
 31
0.0
  0
LINE
  5
F10183
330
261
100
AcDbEntity
  8
Geo
100
AcDbLine
 10
-16.237823784564
 20
6.797705292570753
 30
0.0
 11
-16.237823784564
 21
6.991142247923349
 31
0.0
  0
LINE
  5
F10185
330
261
100
AcDbEntity
  8
Geo
100
AcDbLine
 10
-16.237823784564
 20
6.991142247923349
 30
0.0
 11
-16.237823784564
 21
6.797705292570753
 31
0.0
  0
LINE
  5
F10187
330
261
100
AcDbEntity
  8
Geo
100
AcDbLine
 10
-16.237823784564
 20
6.797705292570753
 30
0.0
 11
-16.237823784564
 21
6.797705292570753
 31
0.0
  0
LINE
  5
F10189
330
261
100
AcDbEntity
  8
Geo
100
AcDbLine
 10
-16.237823784564
 20
6.797705292570753
 30
0.0
 11
-16.137823784564
 21
6.970702329658259
 31
0.0
  0
LINE
  5
F1018B
330
261
100
AcDbEntity
  8
Geo
100
AcDbLine
 10
-16.137823784564
 20
6.970702329658259
 30
0.0
 11
-16.03782378456401
 21
6.951318281270452
 31
0.0
  0
LINE
  5
F1018D
330
261
100
AcDbEntity
  8
Geo
100
AcDbLine
 10
-16.03782378456401
 20
6.951318281270452
 30
0.0
 11
-15.937823784564
 21
6.933760233852254
 31
0.0
  0
LINE
  5
F1018F
330
261
100
AcDbEntity
  8
Geo
100
AcDbLine
 10
-15.937823784564
 20
6.933760233852254
 30
0.0
 11
-15.83782378456401
 21
6.918866745336153
 31
0.0
  0
LINE
  5
F10191
330
261
100
AcDbEntity
  8
Geo
100
AcDbLine
 10
-15.83782378456401
 20
6.918866745336153
 30
0.0
 11
-15.737823784564
 21
6.907543184425257
 31
0.0
  0
LINE
  5
F10193
330
261
100
AcDbEntity
  8
Geo
100
AcDbLine
 10
-15.737823784564
 20
6.907543184425257
 30
0.0
 11
-15.637823784564
 21
6.900758913867157
 31
0.0
  0
LINE
  5
F10195
330
261
100
AcDbEntity
  8
Geo
100
AcDbLine
 10
-29.23782378456401
 20
11.70084333465615
 30
0.0
 11
-29.13782378456402
 21
11.71629014164445
 31
0.0
  0
LINE
  5
F10197
330
261
100
AcDbEntity
  8
Geo
100
AcDbLine
 10
-29.13782378456402
 20
11.71629014164445
 30
0.0
 11
-29.03782378456401
 21
11.69340297729445
 31
0.0
  0
LINE
  5
F10199
330
261
100
AcDbEntity
  8
Geo
100
AcDbLine
 10
-29.03782378456401
 20
11.69340297729445
 30
0.0
 11
-28.93782378456402
 21
11.63500535854005
 31
0.0
  0
LINE
  5
F1019B
330
261
100
AcDbEntity
  8
Geo
100
AcDbLine
 10
-28.93782378456402
 20
11.63500535854005
 30
0.0
 11
-28.83782378456402
 21
11.57532300134345
 31
0.0
  0
LINE
  5
F1019D
330
261
100
AcDbEntity
  8
Geo
100
AcDbLine
 10
-28.83782378456402
 20
11.57532300134345
 30
0.0
 11
-28.73782378456402
 21
11.51439551639185
 31
0.0
  0
LINE
  5
F1019F
330
261
100
AcDbEntity
  8
Geo
100
AcDbLine
 10
-28.73782378456402
 20
11.51439551639185
 30
0.0
 11
-28.63782378456402
 21
11.45226334075315
 31
0.0
  0
LINE
  5
F101A1
330
261
100
AcDbEntity
  8
Geo
100
AcDbLine
 10
-28.63782378456402
 20
11.45226334075315
 30
0.0
 11
-28.53782378456401
 21
11.38896771103886
 31
0.0
  0
LINE
  5
F101A3
330
261
100
AcDbEntity
  8
Geo
100
AcDbLine
 10
-28.53782378456401
 20
11.38896771103886
 30
0.0
 11
-28.43782378456402
 21
11.32455063603505
 31
0.0
  0
LINE
  5
F101A5
330
261
100
AcDbEntity
  8
Geo
100
AcDbLine
 10
-28.43782378456402
 20
11.32455063603505
 30
0.0
 11
-28.33782378456402
 21
11.25905486882195
 31
0.0
  0
LINE
  5
F101A7
330
261
100
AcDbEntity
  8
Geo
100
AcDbLine
 10
-28.33782378456402
 20
11.25905486882195
 30
0.0
 11
-28.23782378456402
 21
11.19252387839875
 31
0.0
  0
LINE
  5
F101A9
330
261
100
AcDbEntity
  8
Geo
100
AcDbLine
 10
-28.23782378456402
 20
11.19252387839875
 30
0.0
 11
-28.13782378456402
 21
11.12500182083386
 31
0.0
  0
LINE
  5
F101AB
330
261
100
AcDbEntity
  8
Geo
100
AcDbLine
 10
-28.13782378456402
 20
11.12500182083386
 30
0.0
 11
-28.03782378456401
 21
11.05653350995855
 31
0.0
  0
LINE
  5
F101AD
330
261
100
AcDbEntity
  8
Geo
100
AcDbLine
 10
-28.03782378456401
 20
11.05653350995855
 30
0.0
 11
-27.93782378456402
 21
10.98716438762495
 31
0.0
  0
LINE
  5
F101AF
330
261
100
AcDbEntity
  8
Geo
100
AcDbLine
 10
-27.93782378456402
 20
10.98716438762495
 30
0.0
 11
-27.83782378456403
 21
10.91694049354586
 31
0.0
  0
LINE
  5
F101B1
330
261
100
AcDbEntity
  8
Geo
100
AcDbLine
 10
-27.83782378456403
 20
10.91694049354586
 30
0.0
 11
-27.73782378456401
 21
10.84590843473935
 31
0.0
  0
LINE
  5
F101B3
330
261
100
AcDbEntity
  8
Geo
100
AcDbLine
 10
-27.73782378456401
 20
10.84590843473935
 30
0.0
 11
-27.63782378456402
 21
10.77411535459565
 31
0.0
  0
LINE
  5
F101B5
330
261
100
AcDbEntity
  8
Geo
100
AcDbLine
 10
-27.63782378456402
 20
10.77411535459565
 30
0.0
 11
-27.53782378456401
 21
10.70160890158845
 31
0.0
  0
LINE
  5
F101B7
330
261
100
AcDbEntity
  8
Geo
100
AcDbLine
 10
-27.53782378456401
 20
10.70160890158845
 30
0.0
 11
-27.43782378456402
 21
10.62843719765136
 31
0.0
  0
LINE
  5
F101B9
330
261
100
AcDbEntity
  8
Geo
100
AcDbLine
 10
-27.43782378456402
 20
10.62843719765136
 30
0.0
 11
-27.33782378456402
 21
10.55464880623925
 31
0.0
  0
LINE
  5
F101BB
330
261
100
AcDbEntity
  8
Geo
100
AcDbLine
 10
-27.33782378456402
 20
10.55464880623925
 30
0.0
 11
-27.23782378456402
 21
10.48029270009755
 31
0.0
  0
LINE
  5
F101BD
330
261
100
AcDbEntity
  8
Geo
100
AcDbLine
 10
-27.23782378456402
 20
10.48029270009755
 30
0.0
 11
-27.13782378456402
 21
10.40541822875926
 31
0.0
  0
LINE
  5
F101BF
330
261
100
AcDbEntity
  8
Geo
100
AcDbLine
 10
-27.13782378456402
 20
10.40541822875926
 30
0.0
 11
-27.03782378456401
 21
10.33007508579195
 31
0.0
  0
LINE
  5
F101C1
330
261
100
AcDbEntity
  8
Geo
100
AcDbLine
 10
-27.03782378456401
 20
10.33007508579195
 30
0.0
 11
-26.93782378456402
 21
10.25431327581675
 31
0.0
  0
LINE
  5
F101C3
330
261
100
AcDbEntity
  8
Geo
100
AcDbLine
 10
-26.93782378456402
 20
10.25431327581675
 30
0.0
 11
-26.83782378456402
 21
10.17818308132065
 31
0.0
  0
LINE
  5
F101C5
330
261
100
AcDbEntity
  8
Geo
100
AcDbLine
 10
-26.83782378456402
 20
10.17818308132065
 30
0.0
 11
-26.73782378456401
 21
10.10173502928445
 31
0.0
  0
LINE
  5
F101C7
330
261
100
AcDbEntity
  8
Geo
100
AcDbLine
 10
-26.73782378456401
 20
10.10173502928445
 30
0.0
 11
-26.63782378456402
 21
10.02501985764815
 31
0.0
  0
LINE
  5
F101C9
330
261
100
AcDbEntity
  8
Geo
100
AcDbLine
 10
-26.63782378456402
 20
10.02501985764815
 30
0.0
 11
-26.53782378456401
 21
9.94808848163705
 31
0.0
  0
LINE
  5
F101CB
330
261
100
AcDbEntity
  8
Geo
100
AcDbLine
 10
-26.53782378456401
 20
9.94808848163705
 30
0.0
 11
-26.43782378456402
 21
9.870991959969451
 31
0.0
  0
LINE
  5
F101CD
330
261
100
AcDbEntity
  8
Geo
100
AcDbLine
 10
-26.43782378456402
 20
9.870991959969451
 30
0.0
 11
-26.33782378456402
 21
9.793781460969448
 31
0.0
  0
LINE
  5
F101CF
330
261
100
AcDbEntity
  8
Geo
100
AcDbLine
 10
-26.33782378456402
 20
9.793781460969448
 30
0.0
 11
-26.23782378456402
 21
9.716508228606855
 31
0.0
  0
LINE
  5
F101D1
330
261
100
AcDbEntity
  8
Geo
100
AcDbLine
 10
-26.23782378456402
 20
9.716508228606855
 30
0.0
 11
-26.13782378456402
 21
9.639223548487258
 31
0.0
  0
LINE
  5
F101D3
330
261
100
AcDbEntity
  8
Geo
100
AcDbLine
 10
-26.13782378456402
 20
9.639223548487258
 30
0.0
 11
-26.03782378456401
 21
9.561978713813857
 31
0.0
  0
LINE
  5
F101D5
330
261
100
AcDbEntity
  8
Geo
100
AcDbLine
 10
-26.03782378456401
 20
9.561978713813857
 30
0.0
 11
-25.93782378456402
 21
9.484824991344858
 31
0.0
  0
LINE
  5
F101D7
330
261
100
AcDbEntity
  8
Geo
100
AcDbLine
 10
-25.93782378456402
 20
9.484824991344858
 30
0.0
 11
-25.83782378456402
 21
9.407813587368153
 31
0.0
  0
LINE
  5
F101D9
330
261
100
AcDbEntity
  8
Geo
100
AcDbLine
 10
-25.83782378456402
 20
9.407813587368153
 30
0.0
 11
-25.73782378456402
 21
9.330995613715856
 31
0.0
  0
LINE
  5
F101DB
330
261
100
AcDbEntity
  8
Geo
100
AcDbLine
 10
-25.73782378456402
 20
9.330995613715856
 30
0.0
 11
-25.63782378456402
 21
9.254422053842048
 31
0.0
  0
LINE
  5
F101DD
330
261
100
AcDbEntity
  8
Geo
100
AcDbLine
 10
-25.63782378456402
 20
9.254422053842048
 30
0.0
 11
-25.53782378456401
 21
9.178143728985361
 31
0.0
  0
LINE
  5
F101DF
330
261
100
AcDbEntity
  8
Geo
100
AcDbLine
 10
-25.53782378456401
 20
9.178143728985361
 30
0.0
 11
-25.43782378456402
 21
9.102211264439354
 31
0.0
  0
LINE
  5
F101E1
330
261
100
AcDbEntity
  8
Geo
100
AcDbLine
 10
-25.43782378456402
 20
9.102211264439354
 30
0.0
 11
-25.33782378456403
 21
9.026675055953155
 31
0.0
  0
LINE
  5
F101E3
330
261
100
AcDbEntity
  8
Geo
100
AcDbLine
 10
-25.33782378456403
 20
9.026675055953155
 30
0.0
 11
-25.23782378456401
 21
8.951585236283854
 31
0.0
  0
LINE
  5
F101E5
330
261
100
AcDbEntity
  8
Geo
100
AcDbLine
 10
-25.23782378456401
 20
8.951585236283854
 30
0.0
 11
-25.13782378456402
 21
8.876991641923858
 31
0.0
  0
LINE
  5
F101E7
330
261
100
AcDbEntity
  8
Geo
100
AcDbLine
 10
-25.13782378456402
 20
8.876991641923858
 30
0.0
 11
-25.03782378456401
 21
8.802943780025252
 31
0.0
  0
LINE
  5
F101E9
330
261
100
AcDbEntity
  8
Geo
100
AcDbLine
 10
-25.03782378456401
 20
8.802943780025252
 30
0.0
 11
-24.937823784564
 21
8.729490795541849
 31
0.0
  0
LINE
  5
F101EB
330
261
100
AcDbEntity
  8
Geo
100
AcDbLine
 10
-24.937823784564
 20
8.729490795541849
 30
0.0
 11
-24.83782378456401
 21
8.656681438612153
 31
0.0
  0
LINE
  5
F101ED
330
261
100
AcDbEntity
  8
Geo
100
AcDbLine
 10
-24.83782378456401
 20
8.656681438612153
 30
0.0
 11
-24.737823784564
 21
8.584564032204355
 31
0.0
  0
LINE
  5
F101EF
330
261
100
AcDbEntity
  8
Geo
100
AcDbLine
 10
-24.737823784564
 20
8.584564032204355
 30
0.0
 11
-24.63782378456401
 21
8.513186440045053
 31
0.0
  0
LINE
  5
F101F1
330
261
100
AcDbEntity
  8
Geo
100
AcDbLine
 10
-24.63782378456401
 20
8.513186440045053
 30
0.0
 11
-24.53782378456401
 21
8.442596034852051
 31
0.0
  0
LINE
  5
F101F3
330
261
100
AcDbEntity
  8
Geo
100
AcDbLine
 10
-24.53782378456401
 20
8.442596034852051
 30
0.0
 11
-24.43782378456401
 21
8.372839666893753
 31
0.0
  0
LINE
  5
F101F5
330
261
100
AcDbEntity
  8
Geo
100
AcDbLine
 10
-24.43782378456401
 20
8.372839666893753
 30
0.0
 11
-24.33782378456401
 21
8.303963632894756
 31
0.0
  0
LINE
  5
F101F7
330
261
100
AcDbEntity
  8
Geo
100
AcDbLine
 10
-24.33782378456401
 20
8.303963632894756
 30
0.0
 11
-24.237823784564
 21
8.236013645309547
 31
0.0
  0
LINE
  5
F101F9
330
261
100
AcDbEntity
  8
Geo
100
AcDbLine
 10
-24.237823784564
 20
8.236013645309547
 30
0.0
 11
-24.13782378456401
 21
8.169034801983151
 31
0.0
  0
LINE
  5
F101FB
330
261
100
AcDbEntity
  8
Geo
100
AcDbLine
 10
-24.13782378456401
 20
8.169034801983151
 30
0.0
 11
-24.03782378456401
 21
8.10307155622015
 31
0.0
  0
LINE
  5
F101FD
330
261
100
AcDbEntity
  8
Geo
100
AcDbLine
 10
-24.03782378456401
 20
8.10307155622015
 30
0.0
 11
-23.937823784564
 21
8.03816768728155
 31
0.0
  0
LINE
  5
F101FF
330
261
100
AcDbEntity
  8
Geo
100
AcDbLine
 10
-23.937823784564
 20
8.03816768728155
 30
0.0
 11
-23.83782378456401
 21
7.974366271328349
 31
0.0
  0
LINE
  5
F10201
330
261
100
AcDbEntity
  8
Geo
100
AcDbLine
 10
-23.83782378456401
 20
7.974366271328349
 30
0.0
 11
-23.737823784564
 21
7.911709652833152
 31
0.0
  0
LINE
  5
F10203
330
261
100
AcDbEntity
  8
Geo
100
AcDbLine
 10
-23.737823784564
 20
7.911709652833152
 30
0.0
 11
-23.637823784564
 21
7.850239416475552
 31
0.0
  0
LINE
  5
F10205
330
261
100
AcDbEntity
  8
Geo
100
AcDbLine
 10
-23.637823784564
 20
7.850239416475552
 30
0.0
 11
-23.53782378456401
 21
7.789996359543252
 31
0.0
  0
LINE
  5
F10207
330
261
100
AcDbEntity
  8
Geo
100
AcDbLine
 10
-23.53782378456401
 20
7.789996359543252
 30
0.0
 11
-23.437823784564
 21
7.731020464855156
 31
0.0
  0
LINE
  5
F10209
330
261
100
AcDbEntity
  8
Geo
100
AcDbLine
 10
-23.437823784564
 20
7.731020464855156
 30
0.0
 11
-23.33782378456401
 21
7.673350874224958
 31
0.0
  0
LINE
  5
F1020B
330
261
100
AcDbEntity
  8
Geo
100
AcDbLine
 10
-23.33782378456401
 20
7.673350874224958
 30
0.0
 11
-23.237823784564
 21
7.617025862483252
 31
0.0
  0
LINE
  5
F1020D
330
261
100
AcDbEntity
  8
Geo
100
AcDbLine
 10
-23.237823784564
 20
7.617025862483252
 30
0.0
 11
-23.13782378456401
 21
7.562082812074656
 31
0.0
  0
LINE
  5
F1020F
330
261
100
AcDbEntity
  8
Geo
100
AcDbLine
 10
-23.13782378456401
 20
7.562082812074656
 30
0.0
 11
-23.03782378456401
 21
7.508558188247654
 31
0.0
  0
LINE
  5
F10211
330
261
100
AcDbEntity
  8
Geo
100
AcDbLine
 10
-23.03782378456401
 20
7.508558188247654
 30
0.0
 11
-22.937823784564
 21
7.456487514852355
 31
0.0
  0
LINE
  5
F10213
330
261
100
AcDbEntity
  8
Geo
100
AcDbLine
 10
-22.937823784564
 20
7.456487514852355
 30
0.0
 11
-22.83782378456401
 21
7.405905350764456
 31
0.0
  0
LINE
  5
F10215
330
261
100
AcDbEntity
  8
Geo
100
AcDbLine
 10
-22.83782378456401
 20
7.405905350764456
 30
0.0
 11
-22.737823784564
 21
7.356845266948056
 31
0.0
  0
LINE
  5
F10217
330
261
100
AcDbEntity
  8
Geo
100
AcDbLine
 10
-22.737823784564
 20
7.356845266948056
 30
0.0
 11
-22.63782378456401
 21
7.309339824175154
 31
0.0
  0
LINE
  5
F10219
330
261
100
AcDbEntity
  8
Geo
100
AcDbLine
 10
-22.63782378456401
 20
7.309339824175154
 30
0.0
 11
-22.53782378456401
 21
7.263420551415357
 31
0.0
  0
LINE
  5
F1021B
330
261
100
AcDbEntity
  8
Geo
100
AcDbLine
 10
-22.53782378456401
 20
7.263420551415357
 30
0.0
 11
-22.437823784564
 21
7.219117924910548
 31
0.0
  0
LINE
  5
F1021D
330
261
100
AcDbEntity
  8
Geo
100
AcDbLine
 10
-22.437823784564
 20
7.219117924910548
 30
0.0
 11
-22.33782378456401
 21
7.176461347947459
 31
0.0
  0
LINE
  5
F1021F
330
261
100
AcDbEntity
  8
Geo
100
AcDbLine
 10
-22.33782378456401
 20
7.176461347947459
 30
0.0
 11
-22.237823784564
 21
7.135479131343757
 31
0.0
  0
LINE
  5
F10221
330
261
100
AcDbEntity
  8
Geo
100
AcDbLine
 10
-22.237823784564
 20
7.135479131343757
 30
0.0
 11
-22.13782378456401
 21
7.096198474657853
 31
0.0
  0
LINE
  5
F10223
330
261
100
AcDbEntity
  8
Geo
100
AcDbLine
 10
-22.13782378456401
 20
7.096198474657853
 30
0.0
 11
-22.03782378456401
 21
7.058645448136658
 31
0.0
  0
LINE
  5
F10225
330
261
100
AcDbEntity
  8
Geo
100
AcDbLine
 10
-22.03782378456401
 20
7.058645448136658
 30
0.0
 11
-21.93782378456401
 21
7.022844975413555
 31
0.0
  0
LINE
  5
F10227
330
261
100
AcDbEntity
  8
Geo
100
AcDbLine
 10
-21.93782378456401
 20
7.022844975413555
 30
0.0
 11
-21.83782378456401
 21
6.988820816966352
 31
0.0
  0
LINE
  5
F10229
330
261
100
AcDbEntity
  8
Geo
100
AcDbLine
 10
-21.83782378456401
 20
6.988820816966352
 30
0.0
 11
-21.737823784564
 21
6.956595554347657
 31
0.0
  0
LINE
  5
F1022B
330
261
100
AcDbEntity
  8
Geo
100
AcDbLine
 10
-21.737823784564
 20
6.956595554347657
 30
0.0
 11
-21.63782378456401
 21
6.926190575197956
 31
0.0
  0
LINE
  5
F1022D
330
261
100
AcDbEntity
  8
Geo
100
AcDbLine
 10
-21.63782378456401
 20
6.926190575197956
 30
0.0
 11
-21.53782378456401
 21
6.897626059050459
 31
0.0
  0
LINE
  5
F1022F
330
261
100
AcDbEntity
  8
Geo
100
AcDbLine
 10
-21.53782378456401
 20
6.897626059050459
 30
0.0
 11
-21.437823784564
 21
6.870920963938552
 31
0.0
  0
LINE
  5
F10231
330
261
100
AcDbEntity
  8
Geo
100
AcDbLine
 10
-21.437823784564
 20
6.870920963938552
 30
0.0
 11
-21.33782378456401
 21
6.846093013812854
 31
0.0
  0
LINE
  5
F10233
330
261
100
AcDbEntity
  8
Geo
100
AcDbLine
 10
-21.33782378456401
 20
6.846093013812854
 30
0.0
 11
-21.237823784564
 21
6.823158686778754
 31
0.0
  0
LINE
  5
F10235
330
261
100
AcDbEntity
  8
Geo
100
AcDbLine
 10
-21.237823784564
 20
6.823158686778754
 30
0.0
 11
-21.137823784564
 21
6.802133204159552
 31
0.0
  0
LINE
  5
F10237
330
261
100
AcDbEntity
  8
Geo
100
AcDbLine
 10
-21.137823784564
 20
6.802133204159552
 30
0.0
 11
-21.03782378456401
 21
6.783030520394156
 31
0.0
  0
LINE
  5
F10239
330
261
100
AcDbEntity
  8
Geo
100
AcDbLine
 10
-21.03782378456401
 20
6.783030520394156
 30
0.0
 11
-20.937823784564
 21
6.765863313775959
 31
0.0
  0
LINE
  5
F1023B
330
261
100
AcDbEntity
  8
Geo
100
AcDbLine
 10
-20.937823784564
 20
6.765863313775959
 30
0.0
 11
-20.83782378456401
 21
6.750642978037959
 31
0.0
  0
LINE
  5
F1023D
330
261
100
AcDbEntity
  8
Geo
100
AcDbLine
 10
-20.83782378456401
 20
6.750642978037959
 30
0.0
 11
-20.737823784564
 21
6.737379614791151
 31
0.0
  0
LINE
  5
F1023F
330
261
100
AcDbEntity
  8
Geo
100
AcDbLine
 10
-20.737823784564
 20
6.737379614791151
 30
0.0
 11
-20.63782378456401
 21
6.726082026820257
 31
0.0
  0
LINE
  5
F10241
330
261
100
AcDbEntity
  8
Geo
100
AcDbLine
 10
-20.63782378456401
 20
6.726082026820257
 30
0.0
 11
-20.53782378456401
 21
6.716757712240855
 31
0.0
  0
LINE
  5
F10243
330
261
100
AcDbEntity
  8
Geo
100
AcDbLine
 10
-20.53782378456401
 20
6.716757712240855
 30
0.0
 11
-20.437823784564
 21
6.709412859523453
 31
0.0
  0
LINE
  5
F10245
330
261
100
AcDbEntity
  8
Geo
100
AcDbLine
 10
-20.437823784564
 20
6.709412859523453
 30
0.0
 11
-20.33782378456401
 21
6.704052343386159
 31
0.0
  0
LINE
  5
F10247
330
261
100
AcDbEntity
  8
Geo
100
AcDbLine
 10
-20.33782378456401
 20
6.704052343386159
 30
0.0
 11
-20.237823784564
 21
6.700679721559154
 31
0.0
  0
LINE
  5
F10249
330
261
100
AcDbEntity
  8
Geo
100
AcDbLine
 10
-20.237823784564
 20
6.700679721559154
 30
0.0
 11
-20.13782378456401
 21
6.699297232423653
 31
0.0
  0
LINE
  5
F1024B
330
261
100
AcDbEntity
  8
Geo
100
AcDbLine
 10
-29.23782378456401
 20
7.151201558543547
 30
0.0
 11
-29.13782378456402
 21
7.028630047000255
 31
0.0
  0
LINE
  5
F1024D
330
261
100
AcDbEntity
  8
Geo
100
AcDbLine
 10
-29.13782378456402
 20
7.028630047000255
 30
0.0
 11
-29.03782378456401
 21
6.951439555217554
 31
0.0
  0
LINE
  5
F1024F
330
261
100
AcDbEntity
  8
Geo
100
AcDbLine
 10
-29.03782378456401
 20
6.951439555217554
 30
0.0
 11
-28.93782378456402
 21
6.921337676963354
 31
0.0
  0
LINE
  5
F10251
330
261
100
AcDbEntity
  8
Geo
100
AcDbLine
 10
-28.93782378456402
 20
6.921337676963354
 30
0.0
 11
-28.83782378456402
 21
6.893079482539754
 31
0.0
  0
LINE
  5
F10253
330
261
100
AcDbEntity
  8
Geo
100
AcDbLine
 10
-28.83782378456402
 20
6.893079482539754
 30
0.0
 11
-28.73782378456402
 21
6.866683726676853
 31
0.0
  0
LINE
  5
F10255
330
261
100
AcDbEntity
  8
Geo
100
AcDbLine
 10
-28.73782378456402
 20
6.866683726676853
 30
0.0
 11
-28.63782378456402
 21
6.842167928019755
 31
0.0
  0
LINE
  5
F10257
330
261
100
AcDbEntity
  8
Geo
100
AcDbLine
 10
-28.63782378456402
 20
6.842167928019755
 30
0.0
 11
-28.53782378456401
 21
6.819548357501155
 31
0.0
  0
LINE
  5
F10259
330
261
100
AcDbEntity
  8
Geo
100
AcDbLine
 10
-28.53782378456401
 20
6.819548357501155
 30
0.0
 11
-28.43782378456402
 21
6.79884002754305
 31
0.0
  0
LINE
  5
F1025B
330
261
100
AcDbEntity
  8
Geo
100
AcDbLine
 10
-28.43782378456402
 20
6.79884002754305
 30
0.0
 11
-28.33782378456402
 21
6.780056682092954
 31
0.0
  0
LINE
  5
F1025D
330
261
100
AcDbEntity
  8
Geo
100
AcDbLine
 10
-28.33782378456402
 20
6.780056682092954
 30
0.0
 11
-28.23782378456402
 21
6.763210787501854
 31
0.0
  0
LINE
  5
F1025F
330
261
100
AcDbEntity
  8
Geo
100
AcDbLine
 10
-28.23782378456402
 20
6.763210787501854
 30
0.0
 11
-28.13782378456402
 21
6.748313524250754
 31
0.0
  0
LINE
  5
F10261
330
261
100
AcDbEntity
  8
Geo
100
AcDbLine
 10
-28.13782378456402
 20
6.748313524250754
 30
0.0
 11
-28.03782378456401
 21
6.735374779530154
 31
0.0
  0
LINE
  5
F10263
330
261
100
AcDbEntity
  8
Geo
100
AcDbLine
 10
-28.03782378456401
 20
6.735374779530154
 30
0.0
 11
-27.93782378456402
 21
6.724403140677956
 31
0.0
  0
LINE
  5
F10265
330
261
100
AcDbEntity
  8
Geo
100
AcDbLine
 10
-27.93782378456402
 20
6.724403140677956
 30
0.0
 11
-27.83782378456403
 21
6.715405889480152
 31
0.0
  0
LINE
  5
F10267
330
261
100
AcDbEntity
  8
Geo
100
AcDbLine
 10
-27.83782378456403
 20
6.715405889480152
 30
0.0
 11
-27.73782378456401
 21
6.708388997337955
 31
0.0
  0
LINE
  5
F10269
330
261
100
AcDbEntity
  8
Geo
100
AcDbLine
 10
-27.73782378456401
 20
6.708388997337955
 30
0.0
 11
-27.63782378456402
 21
6.703357121304655
 31
0.0
  0
LINE
  5
F1026B
330
261
100
AcDbEntity
  8
Geo
100
AcDbLine
 10
-27.63782378456402
 20
6.703357121304655
 30
0.0
 11
-27.53782378456401
 21
6.700313600994853
 31
0.0
  0
LINE
  5
F1026D
330
261
100
AcDbEntity
  8
Geo
100
AcDbLine
 10
-27.53782378456401
 20
6.700313600994853
 30
0.0
 11
-27.43782378456402
 21
6.69926045636776
 31
0.0
  0
LINE
  5
F1026F
330
261
100
AcDbEntity
  8
Geo
100
AcDbLine
 10
-15.637823784564
 20
12.49776033185315
 30
0.0
 11
-15.53782378456401
 21
12.49897620764575
 31
0.0
  0
LINE
  5
F10271
330
261
100
AcDbEntity
  8
Geo
100
AcDbLine
 10
-15.53782378456401
 20
12.49897620764575
 30
0.0
 11
-15.437823784564
 21
12.49354077489285
 31
0.0
  0
LINE
  5
F10273
330
261
100
AcDbEntity
  8
Geo
100
AcDbLine
 10
-15.437823784564
 20
12.49354077489285
 30
0.0
 11
-15.33782378456401
 21
12.48032517155315
 31
0.0
  0
LINE
  5
F10275
330
261
100
AcDbEntity
  8
Geo
100
AcDbLine
 10
-15.33782378456401
 20
12.48032517155315
 30
0.0
 11
-15.237823784564
 21
12.45816462480386
 31
0.0
  0
LINE
  5
F10277
330
261
100
AcDbEntity
  8
Geo
100
AcDbLine
 10
-15.237823784564
 20
12.45816462480386
 30
0.0
 11
-15.137823784564
 21
12.42587090376455
 31
0.0
  0
LINE
  5
F10279
330
261
100
AcDbEntity
  8
Geo
100
AcDbLine
 10
-15.137823784564
 20
12.42587090376455
 30
0.0
 11
-15.03782378456401
 21
12.38224740869995
 31
0.0
  0
LINE
  5
F1027B
330
261
100
AcDbEntity
  8
Geo
100
AcDbLine
 10
-15.03782378456401
 20
12.38224740869995
 30
0.0
 11
-14.937823784564
 21
12.32610708973636
 31
0.0
  0
LINE
  5
F1027D
330
261
100
AcDbEntity
  8
Geo
100
AcDbLine
 10
-14.937823784564
 20
12.32610708973636
 30
0.0
 11
-14.83782378456401
 21
12.25629334767065
 31
0.0
  0
LINE
  5
F1027F
330
261
100
AcDbEntity
  8
Geo
100
AcDbLine
 10
-14.83782378456401
 20
12.25629334767065
 30
0.0
 11
-14.737823784564
 21
12.17170401510206
 31
0.0
  0
LINE
  5
F10281
330
261
100
AcDbEntity
  8
Geo
100
AcDbLine
 10
-14.737823784564
 20
12.17170401510206
 30
0.0
 11
-14.637823784564
 21
12.07131844630336
 31
0.0
  0
LINE
  5
F10283
330
261
100
AcDbEntity
  8
Geo
100
AcDbLine
 10
-14.637823784564
 20
12.07131844630336
 30
0.0
 11
-14.53782378456401
 21
11.95422765763445
 31
0.0
  0
LINE
  5
F10285
330
261
100
AcDbEntity
  8
Geo
100
AcDbLine
 10
-14.53782378456401
 20
11.95422765763445
 30
0.0
 11
-14.437823784564
 21
11.81966735583265
 31
0.0
  0
LINE
  5
F10287
330
261
100
AcDbEntity
  8
Geo
100
AcDbLine
 10
-14.437823784564
 20
11.81966735583265
 30
0.0
 11
-14.33782378456401
 21
11.66705356860295
 31
0.0
  0
LINE
  5
F10289
330
261
100
AcDbEntity
  8
Geo
100
AcDbLine
 10
-14.33782378456401
 20
11.66705356860295
 30
0.0
 11
-14.237823784564
 21
11.49602045057936
 31
0.0
  0
LINE
  5
F1028B
330
261
100
AcDbEntity
  8
Geo
100
AcDbLine
 10
-14.237823784564
 20
11.49602045057936
 30
0.0
 11
-14.237823784564
 21
11.49602045057936
 31
0.0
  0
LINE
  5
F1028D
330
261
100
AcDbEntity
  8
Geo
100
AcDbLine
 10
-20.13782378456401
 20
12.69922201329665
 30
0.0
 11
-20.03782378456401
 21
12.69861345219394
 31
0.0
  0
LINE
  5
F1028F
330
261
100
AcDbEntity
  8
Geo
100
AcDbLine
 10
-20.03782378456401
 20
12.69861345219394
 30
0.0
 11
-19.937823784564
 21
12.69601424475005
 31
0.0
  0
LINE
  5
F10291
330
261
100
AcDbEntity
  8
Geo
100
AcDbLine
 10
-19.937823784564
 20
12.69601424475005
 30
0.0
 11
-19.83782378456401
 21
12.69142611603755
 31
0.0
  0
LINE
  5
F10293
330
261
100
AcDbEntity
  8
Geo
100
AcDbLine
 10
-19.83782378456401
 20
12.69142611603755
 30
0.0
 11
-19.737823784564
 21
12.68485211115945
 31
0.0
  0
LINE
  5
F10295
330
261
100
AcDbEntity
  8
Geo
100
AcDbLine
 10
-19.737823784564
 20
12.68485211115945
 30
0.0
 11
-19.637823784564
 21
12.67629659322835
 31
0.0
  0
LINE
  5
F10297
330
261
100
AcDbEntity
  8
Geo
100
AcDbLine
 10
-19.637823784564
 20
12.67629659322835
 30
0.0
 11
-19.53782378456401
 21
12.66576524047095
 31
0.0
  0
LINE
  5
F10299
330
261
100
AcDbEntity
  8
Geo
100
AcDbLine
 10
-19.53782378456401
 20
12.66576524047095
 30
0.0
 11
-19.437823784564
 21
12.65326504245895
 31
0.0
  0
LINE
  5
F1029B
330
261
100
AcDbEntity
  8
Geo
100
AcDbLine
 10
-19.437823784564
 20
12.65326504245895
 30
0.0
 11
-19.33782378456401
 21
12.63880429547045
 31
0.0
  0
LINE
  5
F1029D
330
261
100
AcDbEntity
  8
Geo
100
AcDbLine
 10
-19.33782378456401
 20
12.63880429547045
 30
0.0
 11
-19.237823784564
 21
12.62239259698365
 31
0.0
  0
LINE
  5
F1029F
330
261
100
AcDbEntity
  8
Geo
100
AcDbLine
 10
-19.237823784564
 20
12.62239259698365
 30
0.0
 11
-19.137823784564
 21
12.60404083930715
 31
0.0
  0
LINE
  5
F102A1
330
261
100
AcDbEntity
  8
Geo
100
AcDbLine
 10
-19.137823784564
 20
12.60404083930715
 30
0.0
 11
-19.03782378456401
 21
12.58376120235086
 31
0.0
  0
LINE
  5
F102A3
330
261
100
AcDbEntity
  8
Geo
100
AcDbLine
 10
-19.03782378456401
 20
12.58376120235086
 30
0.0
 11
-18.937823784564
 21
12.56156714554205
 31
0.0
  0
LINE
  5
F102A5
330
261
100
AcDbEntity
  8
Geo
100
AcDbLine
 10
-18.937823784564
 20
12.56156714554205
 30
0.0
 11
-18.83782378456401
 21
12.53747339889295
 31
0.0
  0
LINE
  5
F102A7
330
261
100
AcDbEntity
  8
Geo
100
AcDbLine
 10
-18.83782378456401
 20
12.53747339889295
 30
0.0
 11
-18.737823784564
 21
12.51149595322386
 31
0.0
  0
LINE
  5
F102A9
330
261
100
AcDbEntity
  8
Geo
100
AcDbLine
 10
-18.737823784564
 20
12.51149595322386
 30
0.0
 11
-18.637823784564
 21
12.48365204955075
 31
0.0
  0
LINE
  5
F102AB
330
261
100
AcDbEntity
  8
Geo
100
AcDbLine
 10
-18.637823784564
 20
12.48365204955075
 30
0.0
 11
-18.53782378456401
 21
12.45396016764245
 31
0.0
  0
LINE
  5
F102AD
330
261
100
AcDbEntity
  8
Geo
100
AcDbLine
 10
-18.53782378456401
 20
12.45396016764245
 30
0.0
 11
-18.437823784564
 21
12.42244001375526
 31
0.0
  0
LINE
  5
F102AF
330
261
100
AcDbEntity
  8
Geo
100
AcDbLine
 10
-18.437823784564
 20
12.42244001375526
 30
0.0
 11
-18.33782378456401
 21
12.38911250755495
 31
0.0
  0
LINE
  5
F102B1
330
261
100
AcDbEntity
  8
Geo
100
AcDbLine
 10
-18.33782378456401
 20
12.38911250755495
 30
0.0
 11
-18.237823784564
 21
12.35399976823186
 31
0.0
  0
LINE
  5
F102B3
330
261
100
AcDbEntity
  8
Geo
100
AcDbLine
 10
-18.237823784564
 20
12.35399976823186
 30
0.0
 11
-18.137823784564
 21
12.31712509982076
 31
0.0
  0
LINE
  5
F102B5
330
261
100
AcDbEntity
  8
Geo
100
AcDbLine
 10
-18.137823784564
 20
12.31712509982076
 30
0.0
 11
-18.03782378456401
 21
12.27851297573415
 31
0.0
  0
LINE
  5
F102B7
330
261
100
AcDbEntity
  8
Geo
100
AcDbLine
 10
-18.03782378456401
 20
12.27851297573415
 30
0.0
 11
-17.937823784564
 21
12.23818902251965
 31
0.0
  0
LINE
  5
F102B9
330
261
100
AcDbEntity
  8
Geo
100
AcDbLine
 10
-17.937823784564
 20
12.23818902251965
 30
0.0
 11
-17.83782378456401
 21
12.19618000285175
 31
0.0
  0
LINE
  5
F102BB
330
261
100
AcDbEntity
  8
Geo
100
AcDbLine
 10
-17.83782378456401
 20
12.19618000285175
 30
0.0
 11
-17.737823784564
 21
12.15251379776945
 31
0.0
  0
LINE
  5
F102BD
330
261
100
AcDbEntity
  8
Geo
100
AcDbLine
 10
-17.737823784564
 20
12.15251379776945
 30
0.0
 11
-17.637823784564
 21
12.10721938817195
 31
0.0
  0
LINE
  5
F102BF
330
261
100
AcDbEntity
  8
Geo
100
AcDbLine
 10
-17.637823784564
 20
12.10721938817195
 30
0.0
 11
-17.53782378456401
 21
12.06032683558465
 31
0.0
  0
LINE
  5
F102C1
330
261
100
AcDbEntity
  8
Geo
100
AcDbLine
 10
-17.53782378456401
 20
12.06032683558465
 30
0.0
 11
-17.437823784564
 21
12.01186726220695
 31
0.0
  0
LINE
  5
F102C3
330
261
100
AcDbEntity
  8
Geo
100
AcDbLine
 10
-17.437823784564
 20
12.01186726220695
 30
0.0
 11
-17.33782378456401
 21
11.96187283025715
 31
0.0
  0
LINE
  5
F102C5
330
261
100
AcDbEntity
  8
Geo
100
AcDbLine
 10
-17.33782378456401
 20
11.96187283025715
 30
0.0
 11
-17.237823784564
 21
11.91037672062636
 31
0.0
  0
LINE
  5
F102C7
330
261
100
AcDbEntity
  8
Geo
100
AcDbLine
 10
-17.237823784564
 20
11.91037672062636
 30
0.0
 11
-17.137823784564
 21
11.85741311085686
 31
0.0
  0
LINE
  5
F102C9
330
261
100
AcDbEntity
  8
Geo
100
AcDbLine
 10
-17.137823784564
 20
11.85741311085686
 30
0.0
 11
-17.03782378456401
 21
11.80301715245866
 31
0.0
  0
LINE
  5
F102CB
330
261
100
AcDbEntity
  8
Geo
100
AcDbLine
 10
-17.03782378456401
 20
11.80301715245866
 30
0.0
 11
-16.937823784564
 21
11.74722494757955
 31
0.0
  0
LINE
  5
F102CD
330
261
100
AcDbEntity
  8
Geo
100
AcDbLine
 10
-16.937823784564
 20
11.74722494757955
 30
0.0
 11
-16.83782378456401
 21
11.69007352504476
 31
0.0
  0
LINE
  5
F102CF
330
261
100
AcDbEntity
  8
Geo
100
AcDbLine
 10
-16.83782378456401
 20
11.69007352504476
 30
0.0
 11
-16.737823784564
 21
11.63160081578095
 31
0.0
  0
LINE
  5
F102D1
330
261
100
AcDbEntity
  8
Geo
100
AcDbLine
 10
-16.737823784564
 20
11.63160081578095
 30
0.0
 11
-16.637823784564
 21
11.57184562764185
 31
0.0
  0
LINE
  5
F102D3
330
261
100
AcDbEntity
  8
Geo
100
AcDbLine
 10
-16.637823784564
 20
11.57184562764185
 30
0.0
 11
-16.53782378456401
 21
11.51084761965194
 31
0.0
  0
LINE
  5
F102D5
330
261
100
AcDbEntity
  8
Geo
100
AcDbLine
 10
-16.53782378456401
 20
11.51084761965194
 30
0.0
 11
-16.437823784564
 21
11.44864727568466
 31
0.0
  0
LINE
  5
F102D7
330
261
100
AcDbEntity
  8
Geo
100
AcDbLine
 10
-16.437823784564
 20
11.44864727568466
 30
0.0
 11
-16.33782378456401
 21
11.38528587759426
 31
0.0
  0
LINE
  5
F102D9
330
261
100
AcDbEntity
  8
Geo
100
AcDbLine
 10
-16.33782378456401
 20
11.38528587759426
 30
0.0
 11
-16.237823784564
 21
11.32080547781685
 31
0.0
  0
LINE
  5
F102DB
330
261
100
AcDbEntity
  8
Geo
100
AcDbLine
 10
-16.237823784564
 20
11.32080547781685
 30
0.0
 11
-16.237823784564
 21
11.32080547781685
 31
0.0
  0
LINE
  5
F102DD
330
261
100
AcDbEntity
  8
Geo
100
AcDbLine
 10
-16.237823784564
 20
11.32080547781685
 30
0.0
 11
-16.237823784564
 21
11.21270242081976
 31
0.0
  0
LINE
  5
F102DF
330
261
100
AcDbEntity
  8
Geo
100
AcDbLine
 10
-16.237823784564
 20
11.21270242081976
 30
0.0
 11
-16.237823784564
 21
11.32080547781685
 31
0.0
  0
LINE
  5
F102E1
330
261
100
AcDbEntity
  8
Geo
100
AcDbLine
 10
-16.237823784564
 20
11.32080547781685
 30
0.0
 11
-16.237823784564
 21
11.32080547781685
 31
0.0
  0
LINE
  5
F102E3
330
261
100
AcDbEntity
  8
Geo
100
AcDbLine
 10
-16.237823784564
 20
11.32080547781685
 30
0.0
 11
-16.137823784564
 21
11.22067906807195
 31
0.0
  0
LINE
  5
F102E5
330
261
100
AcDbEntity
  8
Geo
100
AcDbLine
 10
-16.137823784564
 20
11.22067906807195
 30
0.0
 11
-16.03782378456401
 21
11.22935251239155
 31
0.0
  0
LINE
  5
F102E7
330
261
100
AcDbEntity
  8
Geo
100
AcDbLine
 10
-16.03782378456401
 20
11.22935251239155
 30
0.0
 11
-15.937823784564
 21
11.23871748392886
 31
0.0
  0
LINE
  5
F102E9
330
261
100
AcDbEntity
  8
Geo
100
AcDbLine
 10
-15.937823784564
 20
11.23871748392886
 30
0.0
 11
-15.83782378456401
 21
11.24876822380045
 31
0.0
  0
LINE
  5
F102EB
330
261
100
AcDbEntity
  8
Geo
100
AcDbLine
 10
-15.83782378456401
 20
11.24876822380045
 30
0.0
 11
-15.737823784564
 21
11.25949847136275
 31
0.0
  0
LINE
  5
F102ED
330
261
100
AcDbEntity
  8
Geo
100
AcDbLine
 10
-15.737823784564
 20
11.25949847136275
 30
0.0
 11
-15.637823784564
 21
11.27090145061005
 31
0.0
  0
LINE
  5
F102EF
330
261
100
AcDbEntity
  8
Geo
100
AcDbLine
 10
-15.637823784564
 20
11.27090145061005
 30
0.0
 11
-15.53782378456401
 21
11.28296985571555
 31
0.0
  0
LINE
  5
F102F1
330
261
100
AcDbEntity
  8
Geo
100
AcDbLine
 10
-15.53782378456401
 20
11.28296985571555
 30
0.0
 11
-15.437823784564
 21
11.29569583574236
 31
0.0
  0
LINE
  5
F102F3
330
261
100
AcDbEntity
  8
Geo
100
AcDbLine
 10
-15.437823784564
 20
11.29569583574236
 30
0.0
 11
-15.33782378456401
 21
11.30907097854666
 31
0.0
  0
LINE
  5
F102F5
330
261
100
AcDbEntity
  8
Geo
100
AcDbLine
 10
-15.33782378456401
 20
11.30907097854666
 30
0.0
 11
-15.237823784564
 21
11.32308629390315
 31
0.0
  0
LINE
  5
F102F7
330
261
100
AcDbEntity
  8
Geo
100
AcDbLine
 10
-15.237823784564
 20
11.32308629390315
 30
0.0
 11
-15.137823784564
 21
11.33773219588125
 31
0.0
  0
LINE
  5
F102F9
330
261
100
AcDbEntity
  8
Geo
100
AcDbLine
 10
-15.137823784564
 20
11.33773219588125
 30
0.0
 11
-15.03782378456401
 21
11.35299848450465
 31
0.0
  0
LINE
  5
F102FB
330
261
100
AcDbEntity
  8
Geo
100
AcDbLine
 10
-15.03782378456401
 20
11.35299848450465
 30
0.0
 11
-14.937823784564
 21
11.36887432672795
 31
0.0
  0
LINE
  5
F102FD
330
261
100
AcDbEntity
  8
Geo
100
AcDbLine
 10
-14.937823784564
 20
11.36887432672795
 30
0.0
 11
-14.83782378456401
 21
11.38534823676875
 31
0.0
  0
LINE
  5
F102FF
330
261
100
AcDbEntity
  8
Geo
100
AcDbLine
 10
-14.83782378456401
 20
11.38534823676875
 30
0.0
 11
-14.737823784564
 21
11.40240805583315
 31
0.0
  0
LINE
  5
F10301
330
261
100
AcDbEntity
  8
Geo
100
AcDbLine
 10
-14.737823784564
 20
11.40240805583315
 30
0.0
 11
-14.637823784564
 21
11.42004093127855
 31
0.0
  0
LINE
  5
F10303
330
261
100
AcDbEntity
  8
Geo
100
AcDbLine
 10
-14.637823784564
 20
11.42004093127855
 30
0.0
 11
-14.53782378456401
 21
11.43823329525666
 31
0.0
  0
LINE
  5
F10305
330
261
100
AcDbEntity
  8
Geo
100
AcDbLine
 10
-14.53782378456401
 20
11.43823329525666
 30
0.0
 11
-14.437823784564
 21
11.45697084288726
 31
0.0
  0
LINE
  5
F10307
330
261
100
AcDbEntity
  8
Geo
100
AcDbLine
 10
-14.437823784564
 20
11.45697084288726
 30
0.0
 11
-14.33782378456401
 21
11.47623851001135
 31
0.0
  0
LINE
  5
F10309
330
261
100
AcDbEntity
  8
Geo
100
AcDbLine
 10
-14.33782378456401
 20
11.47623851001135
 30
0.0
 11
-14.237823784564
 21
11.49602045057925
 31
0.0
  0
LINE
  5
F1030B
330
261
100
AcDbEntity
  8
Geo
100
AcDbLine
 10
-14.237823784564
 20
11.49602045057925
 30
0.0
 11
-14.237823784564
 21
11.49602045057936
 31
0.0
  0
LINE
  5
F1030D
330
261
100
AcDbEntity
  8
Geo
100
AcDbLine
 10
-29.23782378456401
 20
10.95867548130595
 30
0.0
 11
-29.13782378456402
 21
10.94074983027885
 31
0.0
  0
LINE
  5
F1030F
330
261
100
AcDbEntity
  8
Geo
100
AcDbLine
 10
-29.13782378456402
 20
10.94074983027885
 30
0.0
 11
-29.03782378456401
 21
10.89793579269245
 31
0.0
  0
LINE
  5
F10311
330
261
100
AcDbEntity
  8
Geo
100
AcDbLine
 10
-29.03782378456401
 20
10.89793579269245
 30
0.0
 11
-28.93782378456402
 21
10.83342657822845
 31
0.0
  0
LINE
  5
F10313
330
261
100
AcDbEntity
  8
Geo
100
AcDbLine
 10
-28.93782378456402
 20
10.83342657822845
 30
0.0
 11
-28.83782378456402
 21
10.76829953470955
 31
0.0
  0
LINE
  5
F10315
330
261
100
AcDbEntity
  8
Geo
100
AcDbLine
 10
-28.83782378456402
 20
10.76829953470955
 30
0.0
 11
-28.73782378456402
 21
10.70259013961055
 31
0.0
  0
LINE
  5
F10317
330
261
100
AcDbEntity
  8
Geo
100
AcDbLine
 10
-28.73782378456402
 20
10.70259013961055
 30
0.0
 11
-28.63782378456402
 21
10.63633418763825
 31
0.0
  0
LINE
  5
F10319
330
261
100
AcDbEntity
  8
Geo
100
AcDbLine
 10
-28.63782378456402
 20
10.63633418763825
 30
0.0
 11
-28.53782378456401
 21
10.56956777123205
 31
0.0
  0
LINE
  5
F1031B
330
261
100
AcDbEntity
  8
Geo
100
AcDbLine
 10
-28.53782378456401
 20
10.56956777123205
 30
0.0
 11
-28.43782378456402
 21
10.50232726090316
 31
0.0
  0
LINE
  5
F1031D
330
261
100
AcDbEntity
  8
Geo
100
AcDbLine
 10
-28.43782378456402
 20
10.50232726090316
 30
0.0
 11
-28.33782378456402
 21
10.43464928542185
 31
0.0
  0
LINE
  5
F1031F
330
261
100
AcDbEntity
  8
Geo
100
AcDbLine
 10
-28.33782378456402
 20
10.43464928542185
 30
0.0
 11
-28.23782378456402
 21
10.36657071186455
 31
0.0
  0
LINE
  5
F10321
330
261
100
AcDbEntity
  8
Geo
100
AcDbLine
 10
-28.23782378456402
 20
10.36657071186455
 30
0.0
 11
-28.13782378456402
 21
10.29812862553036
 31
0.0
  0
LINE
  5
F10323
330
261
100
AcDbEntity
  8
Geo
100
AcDbLine
 10
-28.13782378456402
 20
10.29812862553036
 30
0.0
 11
-28.03782378456401
 21
10.22936030973905
 31
0.0
  0
LINE
  5
F10325
330
261
100
AcDbEntity
  8
Geo
100
AcDbLine
 10
-28.03782378456401
 20
10.22936030973905
 30
0.0
 11
-27.93782378456402
 21
10.16030322552186
 31
0.0
  0
LINE
  5
F10327
330
261
100
AcDbEntity
  8
Geo
100
AcDbLine
 10
-27.93782378456402
 20
10.16030322552186
 30
0.0
 11
-27.83782378456403
 21
10.09099499121436
 31
0.0
  0
LINE
  5
F10329
330
261
100
AcDbEntity
  8
Geo
100
AcDbLine
 10
-27.83782378456403
 20
10.09099499121436
 30
0.0
 11
-27.73782378456401
 21
10.02147336196415
 31
0.0
  0
LINE
  5
F1032B
330
261
100
AcDbEntity
  8
Geo
100
AcDbLine
 10
-27.73782378456401
 20
10.02147336196415
 30
0.0
 11
-27.63782378456402
 21
9.95177620916425
 31
0.0
  0
LINE
  5
F1032D
330
261
100
AcDbEntity
  8
Geo
100
AcDbLine
 10
-27.63782378456402
 20
9.95177620916425
 30
0.0
 11
-27.53782378456401
 21
9.881941499822858
 31
0.0
  0
LINE
  5
F1032F
330
261
100
AcDbEntity
  8
Geo
100
AcDbLine
 10
-27.53782378456401
 20
9.881941499822858
 30
0.0
 11
-27.43782378456402
 21
9.812007275880951
 31
0.0
  0
LINE
  5
F10331
330
261
100
AcDbEntity
  8
Geo
100
AcDbLine
 10
-27.43782378456402
 20
9.812007275880951
 30
0.0
 11
-27.33782378456402
 21
9.742011633489553
 31
0.0
  0
LINE
  5
F10333
330
261
100
AcDbEntity
  8
Geo
100
AcDbLine
 10
-27.33782378456402
 20
9.742011633489553
 30
0.0
 11
-27.23782378456402
 21
9.671992702256758
 31
0.0
  0
LINE
  5
F10335
330
261
100
AcDbEntity
  8
Geo
100
AcDbLine
 10
-27.23782378456402
 20
9.671992702256758
 30
0.0
 11
-27.13782378456402
 21
9.601988624477158
 31
0.0
  0
LINE
  5
F10337
330
261
100
AcDbEntity
  8
Geo
100
AcDbLine
 10
-27.13782378456402
 20
9.601988624477158
 30
0.0
 11
-27.03782378456401
 21
9.532037534354053
 31
0.0
  0
LINE
  5
F10339
330
261
100
AcDbEntity
  8
Geo
100
AcDbLine
 10
-27.03782378456401
 20
9.532037534354053
 30
0.0
 11
-26.93782378456402
 21
9.462177537226054
 31
0.0
  0
LINE
  5
F1033B
330
261
100
AcDbEntity
  8
Geo
100
AcDbLine
 10
-26.93782378456402
 20
9.462177537226054
 30
0.0
 11
-26.83782378456402
 21
9.392446688809449
 31
0.0
  0
LINE
  5
F1033D
330
261
100
AcDbEntity
  8
Geo
100
AcDbLine
 10
-26.83782378456402
 20
9.392446688809449
 30
0.0
 11
-26.73782378456401
 21
9.322882974468051
 31
0.0
  0
LINE
  5
F1033F
330
261
100
AcDbEntity
  8
Geo
100
AcDbLine
 10
-26.73782378456401
 20
9.322882974468051
 30
0.0
 11
-26.63782378456402
 21
9.25352428852036
 31
0.0
  0
LINE
  5
F10341
330
261
100
AcDbEntity
  8
Geo
100
AcDbLine
 10
-26.63782378456402
 20
9.25352428852036
 30
0.0
 11
-26.53782378456401
 21
9.184408413597054
 31
0.0
  0
LINE
  5
F10343
330
261
100
AcDbEntity
  8
Geo
100
AcDbLine
 10
-26.53782378456401
 20
9.184408413597054
 30
0.0
 11
-26.43782378456402
 21
9.115573000059654
 31
0.0
  0
LINE
  5
F10345
330
261
100
AcDbEntity
  8
Geo
100
AcDbLine
 10
-26.43782378456402
 20
9.115573000059654
 30
0.0
 11
-26.33782378456402
 21
9.047055545490152
 31
0.0
  0
LINE
  5
F10347
330
261
100
AcDbEntity
  8
Geo
100
AcDbLine
 10
-26.33782378456402
 20
9.047055545490152
 30
0.0
 11
-26.23782378456402
 21
8.978893374264856
 31
0.0
  0
LINE
  5
F10349
330
261
100
AcDbEntity
  8
Geo
100
AcDbLine
 10
-26.23782378456402
 20
8.978893374264856
 30
0.0
 11
-26.13782378456402
 21
8.911123617222052
 31
0.0
  0
LINE
  5
F1034B
330
261
100
AcDbEntity
  8
Geo
100
AcDbLine
 10
-26.13782378456402
 20
8.911123617222052
 30
0.0
 11
-26.03782378456401
 21
8.843783191435356
 31
0.0
  0
LINE
  5
F1034D
330
261
100
AcDbEntity
  8
Geo
100
AcDbLine
 10
-26.03782378456401
 20
8.843783191435356
 30
0.0
 11
-25.93782378456402
 21
8.776908780103255
 31
0.0
  0
LINE
  5
F1034F
330
261
100
AcDbEntity
  8
Geo
100
AcDbLine
 10
-25.93782378456402
 20
8.776908780103255
 30
0.0
 11
-25.83782378456402
 21
8.710536812566452
 31
0.0
  0
LINE
  5
F10351
330
261
100
AcDbEntity
  8
Geo
100
AcDbLine
 10
-25.83782378456402
 20
8.710536812566452
 30
0.0
 11
-25.73782378456402
 21
8.644703444463054
 31
0.0
  0
LINE
  5
F10353
330
261
100
AcDbEntity
  8
Geo
100
AcDbLine
 10
-25.73782378456402
 20
8.644703444463054
 30
0.0
 11
-25.63782378456402
 21
8.579444538033051
 31
0.0
  0
LINE
  5
F10355
330
261
100
AcDbEntity
  8
Geo
100
AcDbLine
 10
-25.63782378456402
 20
8.579444538033051
 30
0.0
 11
-25.53782378456401
 21
8.514795642582853
 31
0.0
  0
LINE
  5
F10357
330
261
100
AcDbEntity
  8
Geo
100
AcDbLine
 10
-25.53782378456401
 20
8.514795642582853
 30
0.0
 11
-25.43782378456402
 21
8.450791975119656
 31
0.0
  0
LINE
  5
F10359
330
261
100
AcDbEntity
  8
Geo
100
AcDbLine
 10
-25.43782378456402
 20
8.450791975119656
 30
0.0
 11
-25.33782378456403
 21
8.387468401167652
 31
0.0
  0
LINE
  5
F1035B
330
261
100
AcDbEntity
  8
Geo
100
AcDbLine
 10
-25.33782378456403
 20
8.387468401167652
 30
0.0
 11
-25.23782378456401
 21
8.324859415775151
 31
0.0
  0
LINE
  5
F1035D
330
261
100
AcDbEntity
  8
Geo
100
AcDbLine
 10
-25.23782378456401
 20
8.324859415775151
 30
0.0
 11
-25.13782378456402
 21
8.262999124723457
 31
0.0
  0
LINE
  5
F1035F
330
261
100
AcDbEntity
  8
Geo
100
AcDbLine
 10
-25.13782378456402
 20
8.262999124723457
 30
0.0
 11
-25.03782378456401
 21
8.201921225948453
 31
0.0
  0
LINE
  5
F10361
330
261
100
AcDbEntity
  8
Geo
100
AcDbLine
 10
-25.03782378456401
 20
8.201921225948453
 30
0.0
 11
-24.937823784564
 21
8.141658991183355
 31
0.0
  0
LINE
  5
F10363
330
261
100
AcDbEntity
  8
Geo
100
AcDbLine
 10
-24.937823784564
 20
8.141658991183355
 30
0.0
 11
-24.83782378456401
 21
8.082245247834656
 31
0.0
  0
LINE
  5
F10365
330
261
100
AcDbEntity
  8
Geo
100
AcDbLine
 10
-24.83782378456401
 20
8.082245247834656
 30
0.0
 11
-24.737823784564
 21
8.023712361099157
 31
0.0
  0
LINE
  5
F10367
330
261
100
AcDbEntity
  8
Geo
100
AcDbLine
 10
-24.737823784564
 20
8.023712361099157
 30
0.0
 11
-24.63782378456401
 21
7.966092216333855
 31
0.0
  0
LINE
  5
F10369
330
261
100
AcDbEntity
  8
Geo
100
AcDbLine
 10
-24.63782378456401
 20
7.966092216333855
 30
0.0
 11
-24.53782378456401
 21
7.909416201686049
 31
0.0
  0
LINE
  5
F1036B
330
261
100
AcDbEntity
  8
Geo
100
AcDbLine
 10
-24.53782378456401
 20
7.909416201686049
 30
0.0
 11
-24.43782378456401
 21
7.853715190995352
 31
0.0
  0
LINE
  5
F1036D
330
261
100
AcDbEntity
  8
Geo
100
AcDbLine
 10
-24.43782378456401
 20
7.853715190995352
 30
0.0
 11
-24.33782378456401
 21
7.79901952697515
 31
0.0
  0
LINE
  5
F1036F
330
261
100
AcDbEntity
  8
Geo
100
AcDbLine
 10
-24.33782378456401
 20
7.79901952697515
 30
0.0
 11
-24.237823784564
 21
7.74535900468345
 31
0.0
  0
LINE
  5
F10371
330
261
100
AcDbEntity
  8
Geo
100
AcDbLine
 10
-24.237823784564
 20
7.74535900468345
 30
0.0
 11
-24.13782378456401
 21
7.692762855292656
 31
0.0
  0
LINE
  5
F10373
330
261
100
AcDbEntity
  8
Geo
100
AcDbLine
 10
-24.13782378456401
 20
7.692762855292656
 30
0.0
 11
-24.03782378456401
 21
7.641259730166048
 31
0.0
  0
LINE
  5
F10375
330
261
100
AcDbEntity
  8
Geo
100
AcDbLine
 10
-24.03782378456401
 20
7.641259730166048
 30
0.0
 11
-23.937823784564
 21
7.590877685249651
 31
0.0
  0
LINE
  5
F10377
330
261
100
AcDbEntity
  8
Geo
100
AcDbLine
 10
-23.937823784564
 20
7.590877685249651
 30
0.0
 11
-23.83782378456401
 21
7.541644165789755
 31
0.0
  0
LINE
  5
F10379
330
261
100
AcDbEntity
  8
Geo
100
AcDbLine
 10
-23.83782378456401
 20
7.541644165789755
 30
0.0
 11
-23.737823784564
 21
7.49358599138155
 31
0.0
  0
LINE
  5
F1037B
330
261
100
AcDbEntity
  8
Geo
100
AcDbLine
 10
-23.737823784564
 20
7.49358599138155
 30
0.0
 11
-23.637823784564
 21
7.446729341359954
 31
0.0
  0
LINE
  5
F1037D
330
261
100
AcDbEntity
  8
Geo
100
AcDbLine
 10
-23.637823784564
 20
7.446729341359954
 30
0.0
 11
-23.53782378456401
 21
7.401099740538157
 31
0.0
  0
LINE
  5
F1037F
330
261
100
AcDbEntity
  8
Geo
100
AcDbLine
 10
-23.53782378456401
 20
7.401099740538157
 30
0.0
 11
-23.437823784564
 21
7.356722045303754
 31
0.0
  0
LINE
  5
F10381
330
261
100
AcDbEntity
  8
Geo
100
AcDbLine
 10
-23.437823784564
 20
7.356722045303754
 30
0.0
 11
-23.33782378456401
 21
7.313620430077556
 31
0.0
  0
LINE
  5
F10383
330
261
100
AcDbEntity
  8
Geo
100
AcDbLine
 10
-23.33782378456401
 20
7.313620430077556
 30
0.0
 11
-23.237823784564
 21
7.271818374145553
 31
0.0
  0
LINE
  5
F10385
330
261
100
AcDbEntity
  8
Geo
100
AcDbLine
 10
-23.237823784564
 20
7.271818374145553
 30
0.0
 11
-23.13782378456401
 21
7.231338648868351
 31
0.0
  0
LINE
  5
F10387
330
261
100
AcDbEntity
  8
Geo
100
AcDbLine
 10
-23.13782378456401
 20
7.231338648868351
 30
0.0
 11
-23.03782378456401
 21
7.192203305276656
 31
0.0
  0
LINE
  5
F10389
330
261
100
AcDbEntity
  8
Geo
100
AcDbLine
 10
-23.03782378456401
 20
7.192203305276656
 30
0.0
 11
-22.937823784564
 21
7.154433662059254
 31
0.0
  0
LINE
  5
F1038B
330
261
100
AcDbEntity
  8
Geo
100
AcDbLine
 10
-22.937823784564
 20
7.154433662059254
 30
0.0
 11
-22.83782378456401
 21
7.118050293949856
 31
0.0
  0
LINE
  5
F1038D
330
261
100
AcDbEntity
  8
Geo
100
AcDbLine
 10
-22.83782378456401
 20
7.118050293949856
 30
0.0
 11
-22.737823784564
 21
7.08307302051876
 31
0.0
  0
LINE
  5
F1038F
330
261
100
AcDbEntity
  8
Geo
100
AcDbLine
 10
-22.737823784564
 20
7.08307302051876
 30
0.0
 11
-22.63782378456401
 21
7.04952089537705
 31
0.0
  0
LINE
  5
F10391
330
261
100
AcDbEntity
  8
Geo
100
AcDbLine
 10
-22.63782378456401
 20
7.04952089537705
 30
0.0
 11
-22.53782378456401
 21
7.017412195796353
 31
0.0
  0
LINE
  5
F10393
330
261
100
AcDbEntity
  8
Geo
100
AcDbLine
 10
-22.53782378456401
 20
7.017412195796353
 30
0.0
 11
-22.437823784564
 21
6.986764412753252
 31
0.0
  0
LINE
  5
F10395
330
261
100
AcDbEntity
  8
Geo
100
AcDbLine
 10
-22.437823784564
 20
6.986764412753252
 30
0.0
 11
-22.33782378456401
 21
6.957594241400755
 31
0.0
  0
LINE
  5
F10397
330
261
100
AcDbEntity
  8
Geo
100
AcDbLine
 10
-22.33782378456401
 20
6.957594241400755
 30
0.0
 11
-22.237823784564
 21
6.929917571973753
 31
0.0
  0
LINE
  5
F10399
330
261
100
AcDbEntity
  8
Geo
100
AcDbLine
 10
-22.237823784564
 20
6.929917571973753
 30
0.0
 11
-22.13782378456401
 21
6.903749481133154
 31
0.0
  0
LINE
  5
F1039B
330
261
100
AcDbEntity
  8
Geo
100
AcDbLine
 10
-22.13782378456401
 20
6.903749481133154
 30
0.0
 11
-22.03782378456401
 21
6.879104223752655
 31
0.0
  0
LINE
  5
F1039D
330
261
100
AcDbEntity
  8
Geo
100
AcDbLine
 10
-22.03782378456401
 20
6.879104223752655
 30
0.0
 11
-21.93782378456401
 21
6.855995225153954
 31
0.0
  0
LINE
  5
F1039F
330
261
100
AcDbEntity
  8
Geo
100
AcDbLine
 10
-21.93782378456401
 20
6.855995225153954
 30
0.0
 11
-21.83782378456401
 21
6.834435073792953
 31
0.0
  0
LINE
  5
F103A1
330
261
100
AcDbEntity
  8
Geo
100
AcDbLine
 10
-21.83782378456401
 20
6.834435073792953
 30
0.0
 11
-21.737823784564
 21
6.814435514402454
 31
0.0
  0
LINE
  5
F103A3
330
261
100
AcDbEntity
  8
Geo
100
AcDbLine
 10
-21.737823784564
 20
6.814435514402454
 30
0.0
 11
-21.63782378456401
 21
6.796007441594454
 31
0.0
  0
LINE
  5
F103A5
330
261
100
AcDbEntity
  8
Geo
100
AcDbLine
 10
-21.63782378456401
 20
6.796007441594454
 30
0.0
 11
-21.53782378456401
 21
6.779160893925357
 31
0.0
  0
LINE
  5
F103A7
330
261
100
AcDbEntity
  8
Geo
100
AcDbLine
 10
-21.53782378456401
 20
6.779160893925357
 30
0.0
 11
-21.437823784564
 21
6.763905048427254
 31
0.0
  0
LINE
  5
F103A9
330
261
100
AcDbEntity
  8
Geo
100
AcDbLine
 10
-21.437823784564
 20
6.763905048427254
 30
0.0
 11
-21.33782378456401
 21
6.750248215608955
 31
0.0
  0
LINE
  5
F103AB
330
261
100
AcDbEntity
  8
Geo
100
AcDbLine
 10
-21.33782378456401
 20
6.750248215608955
 30
0.0
 11
-21.237823784564
 21
6.738197834929252
 31
0.0
  0
LINE
  5
F103AD
330
261
100
AcDbEntity
  8
Geo
100
AcDbLine
 10
-21.237823784564
 20
6.738197834929252
 30
0.0
 11
-21.137823784564
 21
6.727760470743653
 31
0.0
  0
LINE
  5
F103AF
330
261
100
AcDbEntity
  8
Geo
100
AcDbLine
 10
-21.137823784564
 20
6.727760470743653
 30
0.0
 11
-21.03782378456401
 21
6.718941808729255
 31
0.0
  0
LINE
  5
F103B1
330
261
100
AcDbEntity
  8
Geo
100
AcDbLine
 10
-21.03782378456401
 20
6.718941808729255
 30
0.0
 11
-20.937823784564
 21
6.711746652786757
 31
0.0
  0
LINE
  5
F103B3
330
261
100
AcDbEntity
  8
Geo
100
AcDbLine
 10
-20.937823784564
 20
6.711746652786757
 30
0.0
 11
-20.83782378456401
 21
6.706178922424051
 31
0.0
  0
LINE
  5
F103B5
330
261
100
AcDbEntity
  8
Geo
100
AcDbLine
 10
-20.83782378456401
 20
6.706178922424051
 30
0.0
 11
-20.737823784564
 21
6.702241650621353
 31
0.0
  0
LINE
  5
F103B7
330
261
100
AcDbEntity
  8
Geo
100
AcDbLine
 10
-20.737823784564
 20
6.702241650621353
 30
0.0
 11
-20.63782378456401
 21
6.699936982177952
 31
0.0
  0
LINE
  5
F103B9
330
261
100
AcDbEntity
  8
Geo
100
AcDbLine
 10
-29.23782378456401
 20
7.656938163500754
 30
0.0
 11
-29.13782378456402
 21
7.537833786025657
 31
0.0
  0
LINE
  5
F103BB
330
261
100
AcDbEntity
  8
Geo
100
AcDbLine
 10
-29.13782378456402
 20
7.537833786025657
 30
0.0
 11
-29.03782378456401
 21
7.454148716251154
 31
0.0
  0
LINE
  5
F103BD
330
261
100
AcDbEntity
  8
Geo
100
AcDbLine
 10
-29.03782378456401
 20
7.454148716251154
 30
0.0
 11
-28.93782378456402
 21
7.408320990244455
 31
0.0
  0
LINE
  5
F103BF
330
261
100
AcDbEntity
  8
Geo
100
AcDbLine
 10
-28.93782378456402
 20
7.408320990244455
 30
0.0
 11
-28.83782378456402
 21
7.363741236102754
 31
0.0
  0
LINE
  5
F103C1
330
261
100
AcDbEntity
  8
Geo
100
AcDbLine
 10
-28.83782378456402
 20
7.363741236102754
 30
0.0
 11
-28.73782378456402
 21
7.32043373831695
 31
0.0
  0
LINE
  5
F103C3
330
261
100
AcDbEntity
  8
Geo
100
AcDbLine
 10
-28.73782378456402
 20
7.32043373831695
 30
0.0
 11
-28.63782378456402
 21
7.278422088326259
 31
0.0
  0
LINE
  5
F103C5
330
261
100
AcDbEntity
  8
Geo
100
AcDbLine
 10
-28.63782378456402
 20
7.278422088326259
 30
0.0
 11
-28.53782378456401
 21
7.237729171665854
 31
0.0
  0
LINE
  5
F103C7
330
261
100
AcDbEntity
  8
Geo
100
AcDbLine
 10
-28.53782378456401
 20
7.237729171665854
 30
0.0
 11
-28.43782378456402
 21
7.198377155500949
 31
0.0
  0
LINE
  5
F103C9
330
261
100
AcDbEntity
  8
Geo
100
AcDbLine
 10
-28.43782378456402
 20
7.198377155500949
 30
0.0
 11
-28.33782378456402
 21
7.16038747655115
 31
0.0
  0
LINE
  5
F103CB
330
261
100
AcDbEntity
  8
Geo
100
AcDbLine
 10
-28.33782378456402
 20
7.16038747655115
 30
0.0
 11
-28.23782378456402
 21
7.123780829412851
 31
0.0
  0
LINE
  5
F103CD
330
261
100
AcDbEntity
  8
Geo
100
AcDbLine
 10
-28.23782378456402
 20
7.123780829412851
 30
0.0
 11
-28.13782378456402
 21
7.088577155286259
 31
0.0
  0
LINE
  5
F103CF
330
261
100
AcDbEntity
  8
Geo
100
AcDbLine
 10
-28.13782378456402
 20
7.088577155286259
 30
0.0
 11
-28.03782378456401
 21
7.054795631112256
 31
0.0
  0
LINE
  5
F103D1
330
261
100
AcDbEntity
  8
Geo
100
AcDbLine
 10
-28.03782378456401
 20
7.054795631112256
 30
0.0
 11
-27.93782378456402
 21
7.022454659126154
 31
0.0
  0
LINE
  5
F103D3
330
261
100
AcDbEntity
  8
Geo
100
AcDbLine
 10
-27.93782378456402
 20
7.022454659126154
 30
0.0
 11
-27.83782378456403
 21
6.991571856832955
 31
0.0
  0
LINE
  5
F103D5
330
261
100
AcDbEntity
  8
Geo
100
AcDbLine
 10
-27.83782378456403
 20
6.991571856832955
 30
0.0
 11
-27.73782378456401
 21
6.962164047410759
 31
0.0
  0
LINE
  5
F103D7
330
261
100
AcDbEntity
  8
Geo
100
AcDbLine
 10
-27.73782378456401
 20
6.962164047410759
 30
0.0
 11
-27.63782378456402
 21
6.93424725054615
 31
0.0
  0
LINE
  5
F103D9
330
261
100
AcDbEntity
  8
Geo
100
AcDbLine
 10
-27.63782378456402
 20
6.93424725054615
 30
0.0
 11
-27.53782378456401
 21
6.907836673707457
 31
0.0
  0
LINE
  5
F103DB
330
261
100
AcDbEntity
  8
Geo
100
AcDbLine
 10
-27.53782378456401
 20
6.907836673707457
 30
0.0
 11
-27.43782378456402
 21
6.882946703861051
 31
0.0
  0
LINE
  5
F103DD
330
261
100
AcDbEntity
  8
Geo
100
AcDbLine
 10
-27.43782378456402
 20
6.882946703861051
 30
0.0
 11
-27.33782378456402
 21
6.859590899633758
 31
0.0
  0
LINE
  5
F103DF
330
261
100
AcDbEntity
  8
Geo
100
AcDbLine
 10
-27.33782378456402
 20
6.859590899633758
 30
0.0
 11
-27.23782378456402
 21
6.837781983927158
 31
0.0
  0
LINE
  5
F103E1
330
261
100
AcDbEntity
  8
Geo
100
AcDbLine
 10
-27.23782378456402
 20
6.837781983927158
 30
0.0
 11
-27.13782378456402
 21
6.817531836986553
 31
0.0
  0
LINE
  5
F103E3
330
261
100
AcDbEntity
  8
Geo
100
AcDbLine
 10
-27.13782378456402
 20
6.817531836986553
 30
0.0
 11
-27.03782378456401
 21
6.798851489929653
 31
0.0
  0
LINE
  5
F103E5
330
261
100
AcDbEntity
  8
Geo
100
AcDbLine
 10
-27.03782378456401
 20
6.798851489929653
 30
0.0
 11
-26.93782378456402
 21
6.781751118737354
 31
0.0
  0
LINE
  5
F103E7
330
261
100
AcDbEntity
  8
Geo
100
AcDbLine
 10
-26.93782378456402
 20
6.781751118737354
 30
0.0
 11
-26.83782378456402
 21
6.766240038710151
 31
0.0
  0
LINE
  5
F103E9
330
261
100
AcDbEntity
  8
Geo
100
AcDbLine
 10
-26.83782378456402
 20
6.766240038710151
 30
0.0
 11
-26.73782378456401
 21
6.752326699394259
 31
0.0
  0
LINE
  5
F103EB
330
261
100
AcDbEntity
  8
Geo
100
AcDbLine
 10
-26.73782378456401
 20
6.752326699394259
 30
0.0
 11
-26.63782378456402
 21
6.740018679978156
 31
0.0
  0
LINE
  5
F103ED
330
261
100
AcDbEntity
  8
Geo
100
AcDbLine
 10
-26.63782378456402
 20
6.740018679978156
 30
0.0
 11
-26.53782378456401
 21
6.729322685164355
 31
0.0
  0
LINE
  5
F103EF
330
261
100
AcDbEntity
  8
Geo
100
AcDbLine
 10
-26.53782378456401
 20
6.729322685164355
 30
0.0
 11
-26.43782378456402
 21
6.720244541516954
 31
0.0
  0
LINE
  5
F103F1
330
261
100
AcDbEntity
  8
Geo
100
AcDbLine
 10
-26.43782378456402
 20
6.720244541516954
 30
0.0
 11
-26.33782378456402
 21
6.712789194287452
 31
0.0
  0
LINE
  5
F103F3
330
261
100
AcDbEntity
  8
Geo
100
AcDbLine
 10
-26.33782378456402
 20
6.712789194287452
 30
0.0
 11
-26.23782378456402
 21
6.706960704721055
 31
0.0
  0
LINE
  5
F103F5
330
261
100
AcDbEntity
  8
Geo
100
AcDbLine
 10
-26.23782378456402
 20
6.706960704721055
 30
0.0
 11
-26.13782378456402
 21
6.702762247844454
 31
0.0
  0
LINE
  5
F103F7
330
261
100
AcDbEntity
  8
Geo
100
AcDbLine
 10
-26.13782378456402
 20
6.702762247844454
 30
0.0
 11
-26.03782378456401
 21
6.70019611073576
 31
0.0
  0
LINE
  5
F103F9
330
261
100
AcDbEntity
  8
Geo
100
AcDbLine
 10
-26.03782378456401
 20
6.70019611073576
 30
0.0
 11
-25.93782378456402
 21
6.699263691279256
 31
0.0
  0
LINE
  5
F103FB
330
261
100
AcDbEntity
  8
Geo
100
AcDbLine
 10
-20.63782378456401
 20
12.69858226354225
 30
0.0
 11
-20.53782378456401
 21
12.69925307317505
 31
0.0
  0
LINE
  5
F103FD
330
261
100
AcDbEntity
  8
Geo
100
AcDbLine
 10
-20.53782378456401
 20
12.69925307317505
 30
0.0
 11
-20.437823784564
 21
12.69828965857865
 31
0.0
  0
LINE
  5
F103FF
330
261
100
AcDbEntity
  8
Geo
100
AcDbLine
 10
-20.437823784564
 20
12.69828965857865
 30
0.0
 11
-20.33782378456401
 21
12.69569254456605
 31
0.0
  0
LINE
  5
F10401
330
261
100
AcDbEntity
  8
Geo
100
AcDbLine
 10
-20.33782378456401
 20
12.69569254456605
 30
0.0
 11
-20.237823784564
 21
12.69146314589595
 31
0.0
  0
LINE
  5
F10403
330
261
100
AcDbEntity
  8
Geo
100
AcDbLine
 10
-20.237823784564
 20
12.69146314589595
 30
0.0
 11
-20.13782378456401
 21
12.68560376650195
 31
0.0
  0
LINE
  5
F10405
330
261
100
AcDbEntity
  8
Geo
100
AcDbLine
 10
-20.13782378456401
 20
12.68560376650195
 30
0.0
 11
-20.03782378456401
 21
12.67811759823755
 31
0.0
  0
LINE
  5
F10407
330
261
100
AcDbEntity
  8
Geo
100
AcDbLine
 10
-20.03782378456401
 20
12.67811759823755
 30
0.0
 11
-19.937823784564
 21
12.66900871913755
 31
0.0
  0
LINE
  5
F10409
330
261
100
AcDbEntity
  8
Geo
100
AcDbLine
 10
-19.937823784564
 20
12.66900871913755
 30
0.0
 11
-19.83782378456401
 21
12.65828209119645
 31
0.0
  0
LINE
  5
F1040B
330
261
100
AcDbEntity
  8
Geo
100
AcDbLine
 10
-19.83782378456401
 20
12.65828209119645
 30
0.0
 11
-19.737823784564
 21
12.64594355766545
 31
0.0
  0
LINE
  5
F1040D
330
261
100
AcDbEntity
  8
Geo
100
AcDbLine
 10
-19.737823784564
 20
12.64594355766545
 30
0.0
 11
-19.637823784564
 21
12.63199983986926
 31
0.0
  0
LINE
  5
F1040F
330
261
100
AcDbEntity
  8
Geo
100
AcDbLine
 10
-19.637823784564
 20
12.63199983986926
 30
0.0
 11
-19.53782378456401
 21
12.61645853354505
 31
0.0
  0
LINE
  5
F10411
330
261
100
AcDbEntity
  8
Geo
100
AcDbLine
 10
-19.53782378456401
 20
12.61645853354505
 30
0.0
 11
-19.437823784564
 21
12.59932810470435
 31
0.0
  0
LINE
  5
F10413
330
261
100
AcDbEntity
  8
Geo
100
AcDbLine
 10
-19.437823784564
 20
12.59932810470435
 30
0.0
 11
-19.33782378456401
 21
12.58061788502165
 31
0.0
  0
LINE
  5
F10415
330
261
100
AcDbEntity
  8
Geo
100
AcDbLine
 10
-19.33782378456401
 20
12.58061788502165
 30
0.0
 11
-19.237823784564
 21
12.56033806675045
 31
0.0
  0
LINE
  5
F10417
330
261
100
AcDbEntity
  8
Geo
100
AcDbLine
 10
-19.237823784564
 20
12.56033806675045
 30
0.0
 11
-19.137823784564
 21
12.53849969717176
 31
0.0
  0
LINE
  5
F10419
330
261
100
AcDbEntity
  8
Geo
100
AcDbLine
 10
-19.137823784564
 20
12.53849969717176
 30
0.0
 11
-19.03782378456401
 21
12.51511467257575
 31
0.0
  0
LINE
  5
F1041B
330
261
100
AcDbEntity
  8
Geo
100
AcDbLine
 10
-19.03782378456401
 20
12.51511467257575
 30
0.0
 11
-18.937823784564
 21
12.49019573178155
 31
0.0
  0
LINE
  5
F1041D
330
261
100
AcDbEntity
  8
Geo
100
AcDbLine
 10
-18.937823784564
 20
12.49019573178155
 30
0.0
 11
-18.83782378456401
 21
12.46375644919776
 31
0.0
  0
LINE
  5
F1041F
330
261
100
AcDbEntity
  8
Geo
100
AcDbLine
 10
-18.83782378456401
 20
12.46375644919776
 30
0.0
 11
-18.737823784564
 21
12.43581122742775
 31
0.0
  0
LINE
  5
F10421
330
261
100
AcDbEntity
  8
Geo
100
AcDbLine
 10
-18.737823784564
 20
12.43581122742775
 30
0.0
 11
-18.637823784564
 21
12.40637528942425
 31
0.0
  0
LINE
  5
F10423
330
261
100
AcDbEntity
  8
Geo
100
AcDbLine
 10
-18.637823784564
 20
12.40637528942425
 30
0.0
 11
-18.53782378456401
 21
12.37546467019686
 31
0.0
  0
LINE
  5
F10425
330
261
100
AcDbEntity
  8
Geo
100
AcDbLine
 10
-18.53782378456401
 20
12.37546467019686
 30
0.0
 11
-18.437823784564
 21
12.34309620807645
 31
0.0
  0
LINE
  5
F10427
330
261
100
AcDbEntity
  8
Geo
100
AcDbLine
 10
-18.437823784564
 20
12.34309620807645
 30
0.0
 11
-18.33782378456401
 21
12.30928753554325
 31
0.0
  0
LINE
  5
F10429
330
261
100
AcDbEntity
  8
Geo
100
AcDbLine
 10
-18.33782378456401
 20
12.30928753554325
 30
0.0
 11
-18.237823784564
 21
12.27405706962136
 31
0.0
  0
LINE
  5
F1042B
330
261
100
AcDbEntity
  8
Geo
100
AcDbLine
 10
-18.237823784564
 20
12.27405706962136
 30
0.0
 11
-18.137823784564
 21
12.23742400184645
 31
0.0
  0
LINE
  5
F1042D
330
261
100
AcDbEntity
  8
Geo
100
AcDbLine
 10
-18.137823784564
 20
12.23742400184645
 30
0.0
 11
-18.03782378456401
 21
12.19940828781095
 31
0.0
  0
LINE
  5
F1042F
330
261
100
AcDbEntity
  8
Geo
100
AcDbLine
 10
-18.03782378456401
 20
12.19940828781095
 30
0.0
 11
-17.937823784564
 21
12.16003063629375
 31
0.0
  0
LINE
  5
F10431
330
261
100
AcDbEntity
  8
Geo
100
AcDbLine
 10
-17.937823784564
 20
12.16003063629375
 30
0.0
 11
-17.83782378456401
 21
12.11931249797926
 31
0.0
  0
LINE
  5
F10433
330
261
100
AcDbEntity
  8
Geo
100
AcDbLine
 10
-17.83782378456401
 20
12.11931249797926
 30
0.0
 11
-17.737823784564
 21
12.07727605377165
 31
0.0
  0
LINE
  5
F10435
330
261
100
AcDbEntity
  8
Geo
100
AcDbLine
 10
-17.737823784564
 20
12.07727605377165
 30
0.0
 11
-17.637823784564
 21
12.03394420271315
 31
0.0
  0
LINE
  5
F10437
330
261
100
AcDbEntity
  8
Geo
100
AcDbLine
 10
-17.637823784564
 20
12.03394420271315
 30
0.0
 11
-17.53782378456401
 21
11.98934054950865
 31
0.0
  0
LINE
  5
F10439
330
261
100
AcDbEntity
  8
Geo
100
AcDbLine
 10
-17.53782378456401
 20
11.98934054950865
 30
0.0
 11
-17.437823784564
 21
11.94348939166815
 31
0.0
  0
LINE
  5
F1043B
330
261
100
AcDbEntity
  8
Geo
100
AcDbLine
 10
-17.437823784564
 20
11.94348939166815
 30
0.0
 11
-17.33782378456401
 21
11.89641570627075
 31
0.0
  0
LINE
  5
F1043D
330
261
100
AcDbEntity
  8
Geo
100
AcDbLine
 10
-17.33782378456401
 20
11.89641570627075
 30
0.0
 11
-17.237823784564
 21
11.84814513635795
 31
0.0
  0
LINE
  5
F1043F
330
261
100
AcDbEntity
  8
Geo
100
AcDbLine
 10
-17.237823784564
 20
11.84814513635795
 30
0.0
 11
-17.137823784564
 21
11.79870397696555
 31
0.0
  0
LINE
  5
F10441
330
261
100
AcDbEntity
  8
Geo
100
AcDbLine
 10
-17.137823784564
 20
11.79870397696555
 30
0.0
 11
-17.03782378456401
 21
11.74811916079925
 31
0.0
  0
LINE
  5
F10443
330
261
100
AcDbEntity
  8
Geo
100
AcDbLine
 10
-17.03782378456401
 20
11.74811916079925
 30
0.0
 11
-16.937823784564
 21
11.69641824356315
 31
0.0
  0
LINE
  5
F10445
330
261
100
AcDbEntity
  8
Geo
100
AcDbLine
 10
-16.937823784564
 20
11.69641824356315
 30
0.0
 11
-16.83782378456401
 21
11.64362938894945
 31
0.0
  0
LINE
  5
F10447
330
261
100
AcDbEntity
  8
Geo
100
AcDbLine
 10
-16.83782378456401
 20
11.64362938894945
 30
0.0
 11
-16.737823784564
 21
11.58978135329595
 31
0.0
  0
LINE
  5
F10449
330
261
100
AcDbEntity
  8
Geo
100
AcDbLine
 10
-16.737823784564
 20
11.58978135329595
 30
0.0
 11
-16.637823784564
 21
11.53490346992145
 31
0.0
  0
LINE
  5
F1044B
330
261
100
AcDbEntity
  8
Geo
100
AcDbLine
 10
-16.637823784564
 20
11.53490346992145
 30
0.0
 11
-16.53782378456401
 21
11.47902563314685
 31
0.0
  0
LINE
  5
F1044D
330
261
100
AcDbEntity
  8
Geo
100
AcDbLine
 10
-16.53782378456401
 20
11.47902563314685
 30
0.0
 11
-16.437823784564
 21
11.42217828201026
 31
0.0
  0
LINE
  5
F1044F
330
261
100
AcDbEntity
  8
Geo
100
AcDbLine
 10
-16.437823784564
 20
11.42217828201026
 30
0.0
 11
-16.33782378456401
 21
11.36439238368535
 31
0.0
  0
LINE
  5
F10451
330
261
100
AcDbEntity
  8
Geo
100
AcDbLine
 10
-16.33782378456401
 20
11.36439238368535
 30
0.0
 11
-16.237823784564
 21
11.30569941661255
 31
0.0
  0
LINE
  5
F10453
330
261
100
AcDbEntity
  8
Geo
100
AcDbLine
 10
-16.237823784564
 20
11.30569941661255
 30
0.0
 11
-16.237823784564
 21
11.30569941661255
 31
0.0
  0
LINE
  5
F10455
330
261
100
AcDbEntity
  8
Geo
100
AcDbLine
 10
-16.237823784564
 20
11.30569941661255
 30
0.0
 11
-16.237823784564
 21
11.19860343036235
 31
0.0
  0
LINE
  5
F10457
330
261
100
AcDbEntity
  8
Geo
100
AcDbLine
 10
-16.237823784564
 20
11.19860343036235
 30
0.0
 11
-16.237823784564
 21
11.30569941661255
 31
0.0
  0
LINE
  5
F10459
330
261
100
AcDbEntity
  8
Geo
100
AcDbLine
 10
-16.237823784564
 20
11.30569941661255
 30
0.0
 11
-16.237823784564
 21
11.30569941661255
 31
0.0
  0
LINE
  5
F1045B
330
261
100
AcDbEntity
  8
Geo
100
AcDbLine
 10
-16.237823784564
 20
11.30569941661255
 30
0.0
 11
-16.137823784564
 21
11.13204090085345
 31
0.0
  0
LINE
  5
F1045D
330
261
100
AcDbEntity
  8
Geo
100
AcDbLine
 10
-16.137823784564
 20
11.13204090085345
 30
0.0
 11
-16.03782378456401
 21
11.05698548778286
 31
0.0
  0
LINE
  5
F1045F
330
261
100
AcDbEntity
  8
Geo
100
AcDbLine
 10
-16.03782378456401
 20
11.05698548778286
 30
0.0
 11
-15.937823784564
 21
10.97311982806215
 31
0.0
  0
LINE
  5
F10461
330
261
100
AcDbEntity
  8
Geo
100
AcDbLine
 10
-15.937823784564
 20
10.97311982806215
 30
0.0
 11
-15.83782378456401
 21
10.88013785858776
 31
0.0
  0
LINE
  5
F10463
330
261
100
AcDbEntity
  8
Geo
100
AcDbLine
 10
-15.83782378456401
 20
10.88013785858776
 30
0.0
 11
-15.737823784564
 21
10.77775769816315
 31
0.0
  0
LINE
  5
F10465
330
261
100
AcDbEntity
  8
Geo
100
AcDbLine
 10
-15.737823784564
 20
10.77775769816315
 30
0.0
 11
-15.637823784564
 21
10.66573602167415
 31
0.0
  0
LINE
  5
F10467
330
261
100
AcDbEntity
  8
Geo
100
AcDbLine
 10
-15.637823784564
 20
10.66573602167415
 30
0.0
 11
-15.53782378456401
 21
10.54388392831836
 31
0.0
  0
LINE
  5
F10469
330
261
100
AcDbEntity
  8
Geo
100
AcDbLine
 10
-15.53782378456401
 20
10.54388392831836
 30
0.0
 11
-15.437823784564
 21
10.41208426821985
 31
0.0
  0
LINE
  5
F1046B
330
261
100
AcDbEntity
  8
Geo
100
AcDbLine
 10
-15.437823784564
 20
10.41208426821985
 30
0.0
 11
-15.33782378456401
 21
10.27031034477255
 31
0.0
  0
LINE
  5
F1046D
330
261
100
AcDbEntity
  8
Geo
100
AcDbLine
 10
-15.33782378456401
 20
10.27031034477255
 30
0.0
 11
-15.237823784564
 21
10.11864585292336
 31
0.0
  0
LINE
  5
F1046F
330
261
100
AcDbEntity
  8
Geo
100
AcDbLine
 10
-15.237823784564
 20
10.11864585292336
 30
0.0
 11
-15.137823784564
 21
9.957305845944155
 31
0.0
  0
LINE
  5
F10471
330
261
100
AcDbEntity
  8
Geo
100
AcDbLine
 10
-15.137823784564
 20
9.957305845944155
 30
0.0
 11
-15.03782378456401
 21
9.786658444912362
 31
0.0
  0
LINE
  5
F10473
330
261
100
AcDbEntity
  8
Geo
100
AcDbLine
 10
-15.03782378456401
 20
9.786658444912362
 30
0.0
 11
-14.937823784564
 21
9.607246916414055
 31
0.0
  0
LINE
  5
F10475
330
261
100
AcDbEntity
  8
Geo
100
AcDbLine
 10
-14.937823784564
 20
9.607246916414055
 30
0.0
 11
-14.83782378456401
 21
9.419811645644159
 31
0.0
  0
LINE
  5
F10477
330
261
100
AcDbEntity
  8
Geo
100
AcDbLine
 10
-14.83782378456401
 20
9.419811645644159
 30
0.0
 11
-14.737823784564
 21
9.225311425470756
 31
0.0
  0
LINE
  5
F10479
330
261
100
AcDbEntity
  8
Geo
100
AcDbLine
 10
-14.737823784564
 20
9.225311425470756
 30
0.0
 11
-14.637823784564
 21
9.024943369221048
 31
0.0
  0
LINE
  5
F1047B
330
261
100
AcDbEntity
  8
Geo
100
AcDbLine
 10
-14.637823784564
 20
9.024943369221048
 30
0.0
 11
-14.53782378456401
 21
8.820160638837251
 31
0.0
  0
LINE
  5
F1047D
330
261
100
AcDbEntity
  8
Geo
100
AcDbLine
 10
-14.53782378456401
 20
8.820160638837251
 30
0.0
 11
-14.437823784564
 21
8.612687064476553
 31
0.0
  0
LINE
  5
F1047F
330
261
100
AcDbEntity
  8
Geo
100
AcDbLine
 10
-14.437823784564
 20
8.612687064476553
 30
0.0
 11
-14.33782378456401
 21
8.404527621454455
 31
0.0
  0
LINE
  5
F10481
330
261
100
AcDbEntity
  8
Geo
100
AcDbLine
 10
-14.33782378456401
 20
8.404527621454455
 30
0.0
 11
-14.237823784564
 21
8.197973631622353
 31
0.0
  0
LINE
  5
F10483
330
261
100
AcDbEntity
  8
Geo
100
AcDbLine
 10
-14.237823784564
 20
8.197973631622353
 30
0.0
 11
-14.237823784564
 21
8.197973631622254
 31
0.0
  0
LINE
  5
F10485
330
261
100
AcDbEntity
  8
Geo
100
AcDbLine
 10
-25.93782378456402
 20
12.69925555444105
 30
0.0
 11
-25.83782378456402
 21
12.69855374831675
 31
0.0
  0
LINE
  5
F10487
330
261
100
AcDbEntity
  8
Geo
100
AcDbLine
 10
-25.83782378456402
 20
12.69855374831675
 30
0.0
 11
-25.73782378456402
 21
12.69621809891525
 31
0.0
  0
LINE
  5
F10489
330
261
100
AcDbEntity
  8
Geo
100
AcDbLine
 10
-25.73782378456402
 20
12.69621809891525
 30
0.0
 11
-25.63782378456402
 21
12.69224987856445
 31
0.0
  0
LINE
  5
F1048B
330
261
100
AcDbEntity
  8
Geo
100
AcDbLine
 10
-25.63782378456402
 20
12.69224987856445
 30
0.0
 11
-25.53782378456401
 21
12.68665124892295
 31
0.0
  0
LINE
  5
F1048D
330
261
100
AcDbEntity
  8
Geo
100
AcDbLine
 10
-25.53782378456401
 20
12.68665124892295
 30
0.0
 11
-25.43782378456402
 21
12.67942525980286
 31
0.0
  0
LINE
  5
F1048F
330
261
100
AcDbEntity
  8
Geo
100
AcDbLine
 10
-25.43782378456402
 20
12.67942525980286
 30
0.0
 11
-25.33782378456403
 21
12.67057584750805
 31
0.0
  0
LINE
  5
F10491
330
261
100
AcDbEntity
  8
Geo
100
AcDbLine
 10
-25.33782378456403
 20
12.67057584750805
 30
0.0
 11
-25.23782378456401
 21
12.66010783269065
 31
0.0
  0
LINE
  5
F10493
330
261
100
AcDbEntity
  8
Geo
100
AcDbLine
 10
-25.23782378456401
 20
12.66010783269065
 30
0.0
 11
-25.13782378456402
 21
12.64802691772415
 31
0.0
  0
LINE
  5
F10495
330
261
100
AcDbEntity
  8
Geo
100
AcDbLine
 10
-25.13782378456402
 20
12.64802691772415
 30
0.0
 11
-25.03782378456401
 21
12.63433968359745
 31
0.0
  0
LINE
  5
F10497
330
261
100
AcDbEntity
  8
Geo
100
AcDbLine
 10
-25.03782378456401
 20
12.63433968359745
 30
0.0
 11
-24.937823784564
 21
12.61905358633025
 31
0.0
  0
LINE
  5
F10499
330
261
100
AcDbEntity
  8
Geo
100
AcDbLine
 10
-24.937823784564
 20
12.61905358633025
 30
0.0
 11
-24.83782378456401
 21
12.60217695291086
 31
0.0
  0
LINE
  5
F1049B
330
261
100
AcDbEntity
  8
Geo
100
AcDbLine
 10
-24.83782378456401
 20
12.60217695291086
 30
0.0
 11
-24.737823784564
 21
12.58371897676026
 31
0.0
  0
LINE
  5
F1049D
330
261
100
AcDbEntity
  8
Geo
100
AcDbLine
 10
-24.737823784564
 20
12.58371897676026
 30
0.0
 11
-24.63782378456401
 21
12.56368971272445
 31
0.0
  0
LINE
  5
F1049F
330
261
100
AcDbEntity
  8
Geo
100
AcDbLine
 10
-24.63782378456401
 20
12.56368971272445
 30
0.0
 11
-24.53782378456401
 21
12.54210007159695
 31
0.0
  0
LINE
  5
F104A1
330
261
100
AcDbEntity
  8
Geo
100
AcDbLine
 10
-24.53782378456401
 20
12.54210007159695
 30
0.0
 11
-24.43782378456401
 21
12.51896181417475
 31
0.0
  0
LINE
  5
F104A3
330
261
100
AcDbEntity
  8
Geo
100
AcDbLine
 10
-24.43782378456401
 20
12.51896181417475
 30
0.0
 11
-24.33782378456401
 21
12.49428754485236
 31
0.0
  0
LINE
  5
F104A5
330
261
100
AcDbEntity
  8
Geo
100
AcDbLine
 10
-24.33782378456401
 20
12.49428754485236
 30
0.0
 11
-24.237823784564
 21
12.46809070475545
 31
0.0
  0
LINE
  5
F104A7
330
261
100
AcDbEntity
  8
Geo
100
AcDbLine
 10
-24.237823784564
 20
12.46809070475545
 30
0.0
 11
-24.13782378456401
 21
12.44038556441875
 31
0.0
  0
LINE
  5
F104A9
330
261
100
AcDbEntity
  8
Geo
100
AcDbLine
 10
-24.13782378456401
 20
12.44038556441875
 30
0.0
 11
-24.03782378456401
 21
12.41118721601245
 31
0.0
  0
LINE
  5
F104AB
330
261
100
AcDbEntity
  8
Geo
100
AcDbLine
 10
-24.03782378456401
 20
12.41118721601245
 30
0.0
 11
-23.937823784564
 21
12.38051156512075
 31
0.0
  0
LINE
  5
F104AD
330
261
100
AcDbEntity
  8
Geo
100
AcDbLine
 10
-23.937823784564
 20
12.38051156512075
 30
0.0
 11
-23.83782378456401
 21
12.34837532207736
 31
0.0
  0
LINE
  5
F104AF
330
261
100
AcDbEntity
  8
Geo
100
AcDbLine
 10
-23.83782378456401
 20
12.34837532207736
 30
0.0
 11
-23.737823784564
 21
12.31479599286295
 31
0.0
  0
LINE
  5
F104B1
330
261
100
AcDbEntity
  8
Geo
100
AcDbLine
 10
-23.737823784564
 20
12.31479599286295
 30
0.0
 11
-23.637823784564
 21
12.27979186956855
 31
0.0
  0
LINE
  5
F104B3
330
261
100
AcDbEntity
  8
Geo
100
AcDbLine
 10
-23.637823784564
 20
12.27979186956855
 30
0.0
 11
-23.53782378456401
 21
12.24338202043115
 31
0.0
  0
LINE
  5
F104B5
330
261
100
AcDbEntity
  8
Geo
100
AcDbLine
 10
-23.53782378456401
 20
12.24338202043115
 30
0.0
 11
-23.437823784564
 21
12.20558627944675
 31
0.0
  0
LINE
  5
F104B7
330
261
100
AcDbEntity
  8
Geo
100
AcDbLine
 10
-23.437823784564
 20
12.20558627944675
 30
0.0
 11
-23.33782378456401
 21
12.16642523556545
 31
0.0
  0
LINE
  5
F104B9
330
261
100
AcDbEntity
  8
Geo
100
AcDbLine
 10
-23.33782378456401
 20
12.16642523556545
 30
0.0
 11
-23.237823784564
 21
12.12592022147605
 31
0.0
  0
LINE
  5
F104BB
330
261
100
AcDbEntity
  8
Geo
100
AcDbLine
 10
-23.237823784564
 20
12.12592022147605
 30
0.0
 11
-23.13782378456401
 21
12.08409330198535
 31
0.0
  0
LINE
  5
F104BD
330
261
100
AcDbEntity
  8
Geo
100
AcDbLine
 10
-23.13782378456401
 20
12.08409330198535
 30
0.0
 11
-23.03782378456401
 21
12.04096726199795
 31
0.0
  0
LINE
  5
F104BF
330
261
100
AcDbEntity
  8
Geo
100
AcDbLine
 10
-23.03782378456401
 20
12.04096726199795
 30
0.0
 11
-22.937823784564
 21
11.99656559410515
 31
0.0
  0
LINE
  5
F104C1
330
261
100
AcDbEntity
  8
Geo
100
AcDbLine
 10
-22.937823784564
 20
11.99656559410515
 30
0.0
 11
-22.83782378456401
 21
11.95091248578675
 31
0.0
  0
LINE
  5
F104C3
330
261
100
AcDbEntity
  8
Geo
100
AcDbLine
 10
-22.83782378456401
 20
11.95091248578675
 30
0.0
 11
-22.737823784564
 21
11.90403280623586
 31
0.0
  0
LINE
  5
F104C5
330
261
100
AcDbEntity
  8
Geo
100
AcDbLine
 10
-22.737823784564
 20
11.90403280623586
 30
0.0
 11
-22.63782378456401
 21
11.85595209281076
 31
0.0
  0
LINE
  5
F104C7
330
261
100
AcDbEntity
  8
Geo
100
AcDbLine
 10
-22.63782378456401
 20
11.85595209281076
 30
0.0
 11
-22.53782378456401
 21
11.80669653712425
 31
0.0
  0
LINE
  5
F104C9
330
261
100
AcDbEntity
  8
Geo
100
AcDbLine
 10
-22.53782378456401
 20
11.80669653712425
 30
0.0
 11
-22.437823784564
 21
11.75629297077595
 31
0.0
  0
LINE
  5
F104CB
330
261
100
AcDbEntity
  8
Geo
100
AcDbLine
 10
-22.437823784564
 20
11.75629297077595
 30
0.0
 11
-22.33782378456401
 21
11.70476885073535
 31
0.0
  0
LINE
  5
F104CD
330
261
100
AcDbEntity
  8
Geo
100
AcDbLine
 10
-22.33782378456401
 20
11.70476885073535
 30
0.0
 11
-22.237823784564
 21
11.65215224438555
 31
0.0
  0
LINE
  5
F104CF
330
261
100
AcDbEntity
  8
Geo
100
AcDbLine
 10
-22.237823784564
 20
11.65215224438555
 30
0.0
 11
-22.13782378456401
 21
11.59847181423365
 31
0.0
  0
LINE
  5
F104D1
330
261
100
AcDbEntity
  8
Geo
100
AcDbLine
 10
-22.13782378456401
 20
11.59847181423365
 30
0.0
 11
-22.03782378456401
 21
11.54375680229645
 31
0.0
  0
LINE
  5
F104D3
330
261
100
AcDbEntity
  8
Geo
100
AcDbLine
 10
-22.03782378456401
 20
11.54375680229645
 30
0.0
 11
-21.93782378456401
 21
11.48803701417186
 31
0.0
  0
LINE
  5
F104D5
330
261
100
AcDbEntity
  8
Geo
100
AcDbLine
 10
-21.93782378456401
 20
11.48803701417186
 30
0.0
 11
-21.83782378456401
 21
11.43134280280215
 31
0.0
  0
LINE
  5
F104D7
330
261
100
AcDbEntity
  8
Geo
100
AcDbLine
 10
-21.83782378456401
 20
11.43134280280215
 30
0.0
 11
-21.737823784564
 21
11.37370505193925
 31
0.0
  0
LINE
  5
F104D9
330
261
100
AcDbEntity
  8
Geo
100
AcDbLine
 10
-21.737823784564
 20
11.37370505193925
 30
0.0
 11
-21.63782378456401
 21
11.31515515932135
 31
0.0
  0
LINE
  5
F104DB
330
261
100
AcDbEntity
  8
Geo
100
AcDbLine
 10
-21.63782378456401
 20
11.31515515932135
 30
0.0
 11
-21.53782378456401
 21
11.25572501956925
 31
0.0
  0
LINE
  5
F104DD
330
261
100
AcDbEntity
  8
Geo
100
AcDbLine
 10
-21.53782378456401
 20
11.25572501956925
 30
0.0
 11
-21.437823784564
 21
11.19544700681165
 31
0.0
  0
LINE
  5
F104DF
330
261
100
AcDbEntity
  8
Geo
100
AcDbLine
 10
-21.437823784564
 20
11.19544700681165
 30
0.0
 11
-21.33782378456401
 21
11.13435395704986
 31
0.0
  0
LINE
  5
F104E1
330
261
100
AcDbEntity
  8
Geo
100
AcDbLine
 10
-21.33782378456401
 20
11.13435395704986
 30
0.0
 11
-21.237823784564
 21
11.07247915027065
 31
0.0
  0
LINE
  5
F104E3
330
261
100
AcDbEntity
  8
Geo
100
AcDbLine
 10
-21.237823784564
 20
11.07247915027065
 30
0.0
 11
-21.137823784564
 21
11.00985629231715
 31
0.0
  0
LINE
  5
F104E5
330
261
100
AcDbEntity
  8
Geo
100
AcDbLine
 10
-21.137823784564
 20
11.00985629231715
 30
0.0
 11
-21.03782378456401
 21
10.94651949652766
 31
0.0
  0
LINE
  5
F104E7
330
261
100
AcDbEntity
  8
Geo
100
AcDbLine
 10
-21.03782378456401
 20
10.94651949652766
 30
0.0
 11
-20.937823784564
 21
10.88250326515285
 31
0.0
  0
LINE
  5
F104E9
330
261
100
AcDbEntity
  8
Geo
100
AcDbLine
 10
-20.937823784564
 20
10.88250326515285
 30
0.0
 11
-20.83782378456401
 21
10.81784247056115
 31
0.0
  0
LINE
  5
F104EB
330
261
100
AcDbEntity
  8
Geo
100
AcDbLine
 10
-20.83782378456401
 20
10.81784247056115
 30
0.0
 11
-20.737823784564
 21
10.75257233624175
 31
0.0
  0
LINE
  5
F104ED
330
261
100
AcDbEntity
  8
Geo
100
AcDbLine
 10
-20.737823784564
 20
10.75257233624175
 30
0.0
 11
-20.63782378456401
 21
10.68672841761725
 31
0.0
  0
LINE
  5
F104EF
330
261
100
AcDbEntity
  8
Geo
100
AcDbLine
 10
-20.63782378456401
 20
10.68672841761725
 30
0.0
 11
-20.53782378456401
 21
10.62034658267515
 31
0.0
  0
LINE
  5
F104F1
330
261
100
AcDbEntity
  8
Geo
100
AcDbLine
 10
-20.53782378456401
 20
10.62034658267515
 30
0.0
 11
-20.437823784564
 21
10.55346299242855
 31
0.0
  0
LINE
  5
F104F3
330
261
100
AcDbEntity
  8
Geo
100
AcDbLine
 10
-20.437823784564
 20
10.55346299242855
 30
0.0
 11
-20.33782378456401
 21
10.48611408121836
 31
0.0
  0
LINE
  5
F104F5
330
261
100
AcDbEntity
  8
Geo
100
AcDbLine
 10
-20.33782378456401
 20
10.48611408121836
 30
0.0
 11
-20.237823784564
 21
10.41833653686545
 31
0.0
  0
LINE
  5
F104F7
330
261
100
AcDbEntity
  8
Geo
100
AcDbLine
 10
-20.237823784564
 20
10.41833653686545
 30
0.0
 11
-20.13782378456401
 21
10.35016728068555
 31
0.0
  0
LINE
  5
F104F9
330
261
100
AcDbEntity
  8
Geo
100
AcDbLine
 10
-20.13782378456401
 20
10.35016728068555
 30
0.0
 11
-20.03782378456401
 21
10.28164344737644
 31
0.0
  0
LINE
  5
F104FB
330
261
100
AcDbEntity
  8
Geo
100
AcDbLine
 10
-20.03782378456401
 20
10.28164344737644
 30
0.0
 11
-19.937823784564
 21
10.21280236478905
 31
0.0
  0
LINE
  5
F104FD
330
261
100
AcDbEntity
  8
Geo
100
AcDbLine
 10
-19.937823784564
 20
10.21280236478905
 30
0.0
 11
-19.83782378456401
 21
10.14368153359385
 31
0.0
  0
LINE
  5
F104FF
330
261
100
AcDbEntity
  8
Geo
100
AcDbLine
 10
-19.83782378456401
 20
10.14368153359385
 30
0.0
 11
-19.737823784564
 21
10.07431860685185
 31
0.0
  0
LINE
  5
F10501
330
261
100
AcDbEntity
  8
Geo
100
AcDbLine
 10
-19.737823784564
 20
10.07431860685185
 30
0.0
 11
-19.637823784564
 21
10.00475136950415
 31
0.0
  0
LINE
  5
F10503
330
261
100
AcDbEntity
  8
Geo
100
AcDbLine
 10
-19.637823784564
 20
10.00475136950415
 30
0.0
 11
-19.53782378456401
 21
9.935017717788355
 31
0.0
  0
LINE
  5
F10505
330
261
100
AcDbEntity
  8
Geo
100
AcDbLine
 10
-19.53782378456401
 20
9.935017717788355
 30
0.0
 11
-19.437823784564
 21
9.865155638595254
 31
0.0
  0
LINE
  5
F10507
330
261
100
AcDbEntity
  8
Geo
100
AcDbLine
 10
-19.437823784564
 20
9.865155638595254
 30
0.0
 11
-19.33782378456401
 21
9.795203188775353
 31
0.0
  0
LINE
  5
F10509
330
261
100
AcDbEntity
  8
Geo
100
AcDbLine
 10
-19.33782378456401
 20
9.795203188775353
 30
0.0
 11
-19.237823784564
 21
9.725198474407953
 31
0.0
  0
LINE
  5
F1050B
330
261
100
AcDbEntity
  8
Geo
100
AcDbLine
 10
-19.237823784564
 20
9.725198474407953
 30
0.0
 11
-19.137823784564
 21
9.655179630043157
 31
0.0
  0
LINE
  5
F1050D
330
261
100
AcDbEntity
  8
Geo
100
AcDbLine
 10
-19.137823784564
 20
9.655179630043157
 30
0.0
 11
-19.03782378456401
 21
9.585184797928256
 31
0.0
  0
LINE
  5
F1050F
330
261
100
AcDbEntity
  8
Geo
100
AcDbLine
 10
-19.03782378456401
 20
9.585184797928256
 30
0.0
 11
-18.937823784564
 21
9.515252107229947
 31
0.0
  0
LINE
  5
F10511
330
261
100
AcDbEntity
  8
Geo
100
AcDbLine
 10
-18.937823784564
 20
9.515252107229947
 30
0.0
 11
-18.83782378456401
 21
9.445419653263954
 31
0.0
  0
LINE
  5
F10513
330
261
100
AcDbEntity
  8
Geo
100
AcDbLine
 10
-18.83782378456401
 20
9.445419653263954
 30
0.0
 11
-18.737823784564
 21
9.375725476742758
 31
0.0
  0
LINE
  5
F10515
330
261
100
AcDbEntity
  8
Geo
100
AcDbLine
 10
-18.737823784564
 20
9.375725476742758
 30
0.0
 11
-18.637823784564
 21
9.306207543053155
 31
0.0
  0
LINE
  5
F10517
330
261
100
AcDbEntity
  8
Geo
100
AcDbLine
 10
-18.637823784564
 20
9.306207543053155
 30
0.0
 11
-18.53782378456401
 21
9.236903721575053
 31
0.0
  0
LINE
  5
F10519
330
261
100
AcDbEntity
  8
Geo
100
AcDbLine
 10
-18.53782378456401
 20
9.236903721575053
 30
0.0
 11
-18.437823784564
 21
9.167851765052255
 31
0.0
  0
LINE
  5
F1051B
330
261
100
AcDbEntity
  8
Geo
100
AcDbLine
 10
-18.437823784564
 20
9.167851765052255
 30
0.0
 11
-18.33782378456401
 21
9.099089289027155
 31
0.0
  0
LINE
  5
F1051D
330
261
100
AcDbEntity
  8
Geo
100
AcDbLine
 10
-18.33782378456401
 20
9.099089289027155
 30
0.0
 11
-18.237823784564
 21
9.030653751349454
 31
0.0
  0
LINE
  5
F1051F
330
261
100
AcDbEntity
  8
Geo
100
AcDbLine
 10
-18.237823784564
 20
9.030653751349454
 30
0.0
 11
-18.137823784564
 21
8.962582431771956
 31
0.0
  0
LINE
  5
F10521
330
261
100
AcDbEntity
  8
Geo
100
AcDbLine
 10
-18.137823784564
 20
8.962582431771956
 30
0.0
 11
-18.03782378456401
 21
8.894912411642152
 31
0.0
  0
LINE
  5
F10523
330
261
100
AcDbEntity
  8
Geo
100
AcDbLine
 10
-18.03782378456401
 20
8.894912411642152
 30
0.0
 11
-17.937823784564
 21
8.827680553702755
 31
0.0
  0
LINE
  5
F10525
330
261
100
AcDbEntity
  8
Geo
100
AcDbLine
 10
-17.937823784564
 20
8.827680553702755
 30
0.0
 11
-17.83782378456401
 21
8.760923482010653
 31
0.0
  0
LINE
  5
F10527
330
261
100
AcDbEntity
  8
Geo
100
AcDbLine
 10
-17.83782378456401
 20
8.760923482010653
 30
0.0
 11
-17.737823784564
 21
8.69467756198675
 31
0.0
  0
LINE
  5
F10529
330
261
100
AcDbEntity
  8
Geo
100
AcDbLine
 10
-17.737823784564
 20
8.69467756198675
 30
0.0
 11
-17.637823784564
 21
8.628978880605551
 31
0.0
  0
LINE
  5
F1052B
330
261
100
AcDbEntity
  8
Geo
100
AcDbLine
 10
-17.637823784564
 20
8.628978880605551
 30
0.0
 11
-17.53782378456401
 21
8.563863226737552
 31
0.0
  0
LINE
  5
F1052D
330
261
100
AcDbEntity
  8
Geo
100
AcDbLine
 10
-17.53782378456401
 20
8.563863226737552
 30
0.0
 11
-17.437823784564
 21
8.499366071653255
 31
0.0
  0
LINE
  5
F1052F
330
261
100
AcDbEntity
  8
Geo
100
AcDbLine
 10
-17.437823784564
 20
8.499366071653255
 30
0.0
 11
-17.33782378456401
 21
8.43552254970065
 31
0.0
  0
LINE
  5
F10531
330
261
100
AcDbEntity
  8
Geo
100
AcDbLine
 10
-17.33782378456401
 20
8.43552254970065
 30
0.0
 11
-17.237823784564
 21
8.372367439165756
 31
0.0
  0
LINE
  5
F10533
330
261
100
AcDbEntity
  8
Geo
100
AcDbLine
 10
-17.237823784564
 20
8.372367439165756
 30
0.0
 11
-17.137823784564
 21
8.30993514332755
 31
0.0
  0
LINE
  5
F10535
330
261
100
AcDbEntity
  8
Geo
100
AcDbLine
 10
-17.137823784564
 20
8.30993514332755
 30
0.0
 11
-17.03782378456401
 21
8.248259671717256
 31
0.0
  0
LINE
  5
F10537
330
261
100
AcDbEntity
  8
Geo
100
AcDbLine
 10
-17.03782378456401
 20
8.248259671717256
 30
0.0
 11
-16.937823784564
 21
8.187374621591452
 31
0.0
  0
LINE
  5
F10539
330
261
100
AcDbEntity
  8
Geo
100
AcDbLine
 10
-16.937823784564
 20
8.187374621591452
 30
0.0
 11
-16.83782378456401
 21
8.127313159630752
 31
0.0
  0
LINE
  5
F1053B
330
261
100
AcDbEntity
  8
Geo
100
AcDbLine
 10
-16.83782378456401
 20
8.127313159630752
 30
0.0
 11
-16.737823784564
 21
8.068108003871856
 31
0.0
  0
LINE
  5
F1053D
330
261
100
AcDbEntity
  8
Geo
100
AcDbLine
 10
-16.737823784564
 20
8.068108003871856
 30
0.0
 11
-16.637823784564
 21
8.009791405885252
 31
0.0
  0
LINE
  5
F1053F
330
261
100
AcDbEntity
  8
Geo
100
AcDbLine
 10
-16.637823784564
 20
8.009791405885252
 30
0.0
 11
-16.53782378456401
 21
7.952395133206152
 31
0.0
  0
LINE
  5
F10541
330
261
100
AcDbEntity
  8
Geo
100
AcDbLine
 10
-16.53782378456401
 20
7.952395133206152
 30
0.0
 11
-16.437823784564
 21
7.895950452029353
 31
0.0
  0
LINE
  5
F10543
330
261
100
AcDbEntity
  8
Geo
100
AcDbLine
 10
-16.437823784564
 20
7.895950452029353
 30
0.0
 11
-16.33782378456401
 21
7.840488110176956
 31
0.0
  0
LINE
  5
F10545
330
261
100
AcDbEntity
  8
Geo
100
AcDbLine
 10
-16.33782378456401
 20
7.840488110176956
 30
0.0
 11
-16.237823784564
 21
7.786038320349454
 31
0.0
  0
LINE
  5
F10547
330
261
100
AcDbEntity
  8
Geo
100
AcDbLine
 10
-16.237823784564
 20
7.786038320349454
 30
0.0
 11
-16.237823784564
 21
7.786038320349454
 31
0.0
  0
LINE
  5
F10549
330
261
100
AcDbEntity
  8
Geo
100
AcDbLine
 10
-16.237823784564
 20
7.786038320349454
 30
0.0
 11
-16.237823784564
 21
7.913586407183451
 31
0.0
  0
LINE
  5
F1054B
330
261
100
AcDbEntity
  8
Geo
100
AcDbLine
 10
-16.237823784564
 20
7.913586407183451
 30
0.0
 11
-16.237823784564
 21
7.786038320349454
 31
0.0
  0
LINE
  5
F1054D
330
261
100
AcDbEntity
  8
Geo
100
AcDbLine
 10
-16.237823784564
 20
7.786038320349454
 30
0.0
 11
-16.237823784564
 21
7.786038320349454
 31
0.0
  0
LINE
  5
F1054F
330
261
100
AcDbEntity
  8
Geo
100
AcDbLine
 10
-16.237823784564
 20
7.786038320349454
 30
0.0
 11
-16.137823784564
 21
7.920281905645751
 31
0.0
  0
LINE
  5
F10551
330
261
100
AcDbEntity
  8
Geo
100
AcDbLine
 10
-16.137823784564
 20
7.920281905645751
 30
0.0
 11
-16.03782378456401
 21
7.92772083199005
 31
0.0
  0
LINE
  5
F10553
330
261
100
AcDbEntity
  8
Geo
100
AcDbLine
 10
-16.03782378456401
 20
7.92772083199005
 30
0.0
 11
-15.937823784564
 21
7.935909226920351
 31
0.0
  0
LINE
  5
F10555
330
261
100
AcDbEntity
  8
Geo
100
AcDbLine
 10
-15.937823784564
 20
7.935909226920351
 30
0.0
 11
-15.83782378456401
 21
7.944853670527052
 31
0.0
  0
LINE
  5
F10557
330
261
100
AcDbEntity
  8
Geo
100
AcDbLine
 10
-15.83782378456401
 20
7.944853670527052
 30
0.0
 11
-15.737823784564
 21
7.954561268181052
 31
0.0
  0
LINE
  5
F10559
330
261
100
AcDbEntity
  8
Geo
100
AcDbLine
 10
-15.737823784564
 20
7.954561268181052
 30
0.0
 11
-15.637823784564
 21
7.965039635065352
 31
0.0
  0
LINE
  5
F1055B
330
261
100
AcDbEntity
  8
Geo
100
AcDbLine
 10
-15.637823784564
 20
7.965039635065352
 30
0.0
 11
-15.53782378456401
 21
7.976296879316954
 31
0.0
  0
LINE
  5
F1055D
330
261
100
AcDbEntity
  8
Geo
100
AcDbLine
 10
-15.53782378456401
 20
7.976296879316954
 30
0.0
 11
-15.437823784564
 21
7.988341583750958
 31
0.0
  0
LINE
  5
F1055F
330
261
100
AcDbEntity
  8
Geo
100
AcDbLine
 10
-15.437823784564
 20
7.988341583750958
 30
0.0
 11
-15.33782378456401
 21
8.001182786137555
 31
0.0
  0
LINE
  5
F10561
330
261
100
AcDbEntity
  8
Geo
100
AcDbLine
 10
-15.33782378456401
 20
8.001182786137555
 30
0.0
 11
-15.237823784564
 21
8.014829957999658
 31
0.0
  0
LINE
  5
F10563
330
261
100
AcDbEntity
  8
Geo
100
AcDbLine
 10
-15.237823784564
 20
8.014829957999658
 30
0.0
 11
-15.137823784564
 21
8.029292981899054
 31
0.0
  0
LINE
  5
F10565
330
261
100
AcDbEntity
  8
Geo
100
AcDbLine
 10
-15.137823784564
 20
8.029292981899054
 30
0.0
 11
-15.03782378456401
 21
8.044582127177356
 31
0.0
  0
LINE
  5
F10567
330
261
100
AcDbEntity
  8
Geo
100
AcDbLine
 10
-15.03782378456401
 20
8.044582127177356
 30
0.0
 11
-14.937823784564
 21
8.060708024117154
 31
0.0
  0
LINE
  5
F10569
330
261
100
AcDbEntity
  8
Geo
100
AcDbLine
 10
-14.937823784564
 20
8.060708024117154
 30
0.0
 11
-14.83782378456401
 21
8.077681636487355
 31
0.0
  0
LINE
  5
F1056B
330
261
100
AcDbEntity
  8
Geo
100
AcDbLine
 10
-14.83782378456401
 20
8.077681636487355
 30
0.0
 11
-14.737823784564
 21
8.095514232437352
 31
0.0
  0
LINE
  5
F1056D
330
261
100
AcDbEntity
  8
Geo
100
AcDbLine
 10
-14.737823784564
 20
8.095514232437352
 30
0.0
 11
-14.637823784564
 21
8.114217353703857
 31
0.0
  0
LINE
  5
F1056F
330
261
100
AcDbEntity
  8
Geo
100
AcDbLine
 10
-14.637823784564
 20
8.114217353703857
 30
0.0
 11
-14.53782378456401
 21
8.133802783092555
 31
0.0
  0
LINE
  5
F10571
330
261
100
AcDbEntity
  8
Geo
100
AcDbLine
 10
-14.53782378456401
 20
8.133802783092555
 30
0.0
 11
-14.437823784564
 21
8.154282510199955
 31
0.0
  0
LINE
  5
F10573
330
261
100
AcDbEntity
  8
Geo
100
AcDbLine
 10
-14.437823784564
 20
8.154282510199955
 30
0.0
 11
-14.33782378456401
 21
8.175668695337151
 31
0.0
  0
LINE
  5
F10575
330
261
100
AcDbEntity
  8
Geo
100
AcDbLine
 10
-14.33782378456401
 20
8.175668695337151
 30
0.0
 11
-14.237823784564
 21
8.197973631622254
 31
0.0
  0
LINE
  5
F10577
330
261
100
AcDbEntity
  8
Geo
100
AcDbLine
 10
-14.237823784564
 20
8.197973631622254
 30
0.0
 11
-14.237823784564
 21
8.197973631622254
 31
0.0
  0
LINE
  5
F10579
330
261
100
AcDbEntity
  8
Geo
100
AcDbLine
 10
-29.23782378456401
 20
11.43395025382455
 30
0.0
 11
-29.13782378456402
 21
11.43483650991145
 31
0.0
  0
LINE
  5
F1057B
330
261
100
AcDbEntity
  8
Geo
100
AcDbLine
 10
-29.23782378456401
 20
11.05865767478195
 30
0.0
 11
-29.13782378456402
 21
11.04104594290586
 31
0.0
  0
LINE
  5
F1057D
330
261
100
AcDbEntity
  8
Geo
100
AcDbLine
 10
-29.23782378456401
 20
7.460443830190357
 30
0.0
 11
-29.13782378456402
 21
7.340979898058854
 31
0.0
  0
LINE
  5
F1057F
330
261
100
AcDbEntity
  8
Geo
100
AcDbLine
 10
-29.23782378456401
 20
7.258262751612953
 30
0.0
 11
-29.13782378456402
 21
7.140860930195259
 31
0.0
  0
LINE
  5
F10581
330
261
100
AcDbEntity
  8
Geo
100
AcDbLine
 10
-29.13782378456402
 20
11.43483650991145
 30
0.0
 11
-29.03782378456401
 21
11.40208496236265
 31
0.0
  0
LINE
  5
F10583
330
261
100
AcDbEntity
  8
Geo
100
AcDbLine
 10
-29.13782378456402
 20
11.04104594290586
 30
0.0
 11
-29.03782378456401
 21
10.99646560091525
 31
0.0
  0
LINE
  5
F10585
330
261
100
AcDbEntity
  8
Geo
100
AcDbLine
 10
-29.13782378456402
 20
7.340979898058854
 30
0.0
 11
-29.03782378456401
 21
7.260713119728549
 31
0.0
  0
LINE
  5
F10587
330
261
100
AcDbEntity
  8
Geo
100
AcDbLine
 10
-29.13782378456402
 20
7.140860930195259
 30
0.0
 11
-29.03782378456401
 21
7.066624539161956
 31
0.0
  0
LINE
  5
F10589
330
261
100
AcDbEntity
  8
Geo
100
AcDbLine
 10
-29.03782378456401
 20
11.40208496236265
 30
0.0
 11
-28.93782378456402
 21
11.33878670630545
 31
0.0
  0
LINE
  5
F1058B
330
261
100
AcDbEntity
  8
Geo
100
AcDbLine
 10
-29.03782378456401
 20
10.99646560091525
 30
0.0
 11
-28.93782378456402
 21
10.92828217302325
 31
0.0
  0
LINE
  5
F1058D
330
261
100
AcDbEntity
  8
Geo
100
AcDbLine
 10
-29.03782378456401
 20
7.260713119728549
 30
0.0
 11
-28.93782378456402
 21
7.221745564351458
 31
0.0
  0
LINE
  5
F1058F
330
261
100
AcDbEntity
  8
Geo
100
AcDbLine
 10
-29.03782378456401
 20
7.066624539161956
 30
0.0
 11
-28.93782378456402
 21
7.037184946312557
 31
0.0
  0
LINE
  5
F10591
330
261
100
AcDbEntity
  8
Geo
100
AcDbLine
 10
-28.93782378456402
 20
11.33878670630545
 30
0.0
 11
-28.83782378456402
 21
11.27440030967675
 31
0.0
  0
LINE
  5
F10593
330
261
100
AcDbEntity
  8
Geo
100
AcDbLine
 10
-28.93782378456402
 20
10.92828217302325
 30
0.0
 11
-28.83782378456402
 21
10.85928305302495
 31
0.0
  0
LINE
  5
F10595
330
261
100
AcDbEntity
  8
Geo
100
AcDbLine
 10
-28.93782378456402
 20
7.221745564351458
 30
0.0
 11
-28.83782378456402
 21
7.184127616421655
 31
0.0
  0
LINE
  5
F10597
330
261
100
AcDbEntity
  8
Geo
100
AcDbLine
 10
-28.93782378456402
 20
7.037184946312557
 30
0.0
 11
-28.83782378456402
 21
7.009195498941259
 31
0.0
  0
LINE
  5
F10599
330
261
100
AcDbEntity
  8
Geo
100
AcDbLine
 10
-28.83782378456402
 20
11.27440030967675
 30
0.0
 11
-28.73782378456402
 21
11.20896850519575
 31
0.0
  0
LINE
  5
F1059B
330
261
100
AcDbEntity
  8
Geo
100
AcDbLine
 10
-28.83782378456402
 20
10.85928305302495
 30
0.0
 11
-28.73782378456402
 21
10.78951403506585
 31
0.0
  0
LINE
  5
F1059D
330
261
100
AcDbEntity
  8
Geo
100
AcDbLine
 10
-28.83782378456402
 20
7.184127616421655
 30
0.0
 11
-28.73782378456402
 21
7.147879768037952
 31
0.0
  0
LINE
  5
F1059F
330
261
100
AcDbEntity
  8
Geo
100
AcDbLine
 10
-28.83782378456402
 20
7.009195498941259
 30
0.0
 11
-28.73782378456402
 21
6.982671444092254
 31
0.0
  0
LINE
  5
F105A1
330
261
100
AcDbEntity
  8
Geo
100
AcDbLine
 10
-28.73782378456402
 20
11.20896850519575
 30
0.0
 11
-28.63782378456402
 21
11.14253471941015
 31
0.0
  0
LINE
  5
F105A3
330
261
100
AcDbEntity
  8
Geo
100
AcDbLine
 10
-28.73782378456402
 20
10.78951403506585
 30
0.0
 11
-28.63782378456402
 21
10.71902142426636
 31
0.0
  0
LINE
  5
F105A5
330
261
100
AcDbEntity
  8
Geo
100
AcDbLine
 10
-28.73782378456402
 20
7.147879768037952
 30
0.0
 11
-28.63782378456402
 21
7.113021764947454
 31
0.0
  0
LINE
  5
F105A7
330
261
100
AcDbEntity
  8
Geo
100
AcDbLine
 10
-28.73782378456402
 20
6.982671444092254
 30
0.0
 11
-28.63782378456402
 21
6.957627230548254
 31
0.0
  0
LINE
  5
F105A9
330
261
100
AcDbEntity
  8
Geo
100
AcDbLine
 10
-28.63782378456402
 20
11.14253471941015
 30
0.0
 11
-28.53782378456401
 21
11.07514304387445
 31
0.0
  0
LINE
  5
F105AB
330
261
100
AcDbEntity
  8
Geo
100
AcDbLine
 10
-28.63782378456402
 20
10.71902142426636
 30
0.0
 11
-28.53782378456401
 21
10.64785200598945
 31
0.0
  0
LINE
  5
F105AD
330
261
100
AcDbEntity
  8
Geo
100
AcDbLine
 10
-28.63782378456402
 20
7.113021764947454
 30
0.0
 11
-28.53782378456401
 21
7.079572595789258
 31
0.0
  0
LINE
  5
F105AF
330
261
100
AcDbEntity
  8
Geo
100
AcDbLine
 10
-28.63782378456402
 20
6.957627230548254
 30
0.0
 11
-28.53782378456401
 21
6.934076500959257
 31
0.0
  0
LINE
  5
F105B1
330
261
100
AcDbEntity
  8
Geo
100
AcDbLine
 10
-28.53782378456401
 20
11.07514304387445
 30
0.0
 11
-28.43782378456402
 21
11.00683820588645
 31
0.0
  0
LINE
  5
F105B3
330
261
100
AcDbEntity
  8
Geo
100
AcDbLine
 10
-28.53782378456401
 20
10.64785200598945
 30
0.0
 11
-28.43782378456402
 21
10.57605301478985
 31
0.0
  0
LINE
  5
F105B5
330
261
100
AcDbEntity
  8
Geo
100
AcDbLine
 10
-28.53782378456401
 20
7.079572595789258
 30
0.0
 11
-28.43782378456402
 21
7.047550481750853
 31
0.0
  0
LINE
  5
F105B7
330
261
100
AcDbEntity
  8
Geo
100
AcDbLine
 10
-28.53782378456401
 20
6.934076500959257
 30
0.0
 11
-28.43782378456402
 21
6.912032084410753
 31
0.0
  0
LINE
  5
F105B9
330
261
100
AcDbEntity
  8
Geo
100
AcDbLine
 10
-28.43782378456402
 20
11.00683820588645
 30
0.0
 11
-28.33782378456402
 21
10.93766553880255
 31
0.0
  0
LINE
  5
F105BB
330
261
100
AcDbEntity
  8
Geo
100
AcDbLine
 10
-28.43782378456402
 20
10.57605301478985
 30
0.0
 11
-28.33782378456402
 21
10.50367210306445
 31
0.0
  0
LINE
  5
F105BD
330
261
100
AcDbEntity
  8
Geo
100
AcDbLine
 10
-28.43782378456402
 20
7.047550481750853
 30
0.0
 11
-28.33782378456402
 21
7.016972866641758
 31
0.0
  0
LINE
  5
F105BF
330
261
100
AcDbEntity
  8
Geo
100
AcDbLine
 10
-28.43782378456402
 20
6.912032084410753
 30
0.0
 11
-28.33782378456402
 21
6.89150598943555
 31
0.0
  0
LINE
  5
F105C1
330
261
100
AcDbEntity
  8
Geo
100
AcDbLine
 10
-28.33782378456402
 20
10.93766553880255
 30
0.0
 11
-28.23782378456402
 21
10.86767095194995
 31
0.0
  0
LINE
  5
F105C3
330
261
100
AcDbEntity
  8
Geo
100
AcDbLine
 10
-28.33782378456402
 20
10.50367210306445
 30
0.0
 11
-28.23782378456402
 21
10.43075730942585
 31
0.0
  0
LINE
  5
F105C5
330
261
100
AcDbEntity
  8
Geo
100
AcDbLine
 10
-28.33782378456402
 20
7.016972866641758
 30
0.0
 11
-28.23782378456402
 21
6.987856407391554
 31
0.0
  0
LINE
  5
F105C7
330
261
100
AcDbEntity
  8
Geo
100
AcDbLine
 10
-28.33782378456402
 20
6.89150598943555
 30
0.0
 11
-28.23782378456402
 21
6.872509397472057
 31
0.0
  0
LINE
  5
F105C9
330
261
100
AcDbEntity
  8
Geo
100
AcDbLine
 10
-28.23782378456402
 20
10.86767095194995
 30
0.0
 11
-28.13782378456402
 21
10.79690090015744
 31
0.0
  0
LINE
  5
F105CB
330
261
100
AcDbEntity
  8
Geo
100
AcDbLine
 10
-28.23782378456402
 20
10.43075730942585
 30
0.0
 11
-28.13782378456402
 21
10.35735702681995
 31
0.0
  0
LINE
  5
F105CD
330
261
100
AcDbEntity
  8
Geo
100
AcDbLine
 10
-28.23782378456402
 20
6.987856407391554
 30
0.0
 11
-28.13782378456402
 21
6.960216964975955
 31
0.0
  0
LINE
  5
F105CF
330
261
100
AcDbEntity
  8
Geo
100
AcDbLine
 10
-28.23782378456402
 20
6.872509397472057
 30
0.0
 11
-28.13782378456402
 21
6.855052656773054
 31
0.0
  0
LINE
  5
F105D1
330
261
100
AcDbEntity
  8
Geo
100
AcDbLine
 10
-28.13782378456402
 20
10.79690090015744
 30
0.0
 11
-28.03782378456401
 21
10.72540235292325
 31
0.0
  0
LINE
  5
F105D3
330
261
100
AcDbEntity
  8
Geo
100
AcDbLine
 10
-28.13782378456402
 20
10.35735702681995
 30
0.0
 11
-28.03782378456401
 21
10.28351997040736
 31
0.0
  0
LINE
  5
F105D5
330
261
100
AcDbEntity
  8
Geo
100
AcDbLine
 10
-28.13782378456402
 20
6.960216964975955
 30
0.0
 11
-28.03782378456401
 21
6.934069595776549
 31
0.0
  0
LINE
  5
F105D7
330
261
100
AcDbEntity
  8
Geo
100
AcDbLine
 10
-28.13782378456402
 20
6.855052656773054
 30
0.0
 11
-28.03782378456401
 21
6.839145276768952
 31
0.0
  0
LINE
  5
F105D9
330
261
100
AcDbEntity
  8
Geo
100
AcDbLine
 10
-28.03782378456401
 20
10.72540235292325
 30
0.0
 11
-27.93782378456402
 21
10.65322276324215
 31
0.0
  0
LINE
  5
F105DB
330
261
100
AcDbEntity
  8
Geo
100
AcDbLine
 10
-28.03782378456401
 20
10.28351997040736
 30
0.0
 11
-27.93782378456402
 21
10.20929514523225
 31
0.0
  0
LINE
  5
F105DD
330
261
100
AcDbEntity
  8
Geo
100
AcDbLine
 10
-28.03782378456401
 20
6.934069595776549
 30
0.0
 11
-27.93782378456402
 21
6.909428543379348
 31
0.0
  0
LINE
  5
F105DF
330
261
100
AcDbEntity
  8
Geo
100
AcDbLine
 10
-28.03782378456401
 20
6.839145276768952
 30
0.0
 11
-27.93782378456402
 21
6.824795922887254
 31
0.0
  0
LINE
  5
F105E1
330
261
100
AcDbEntity
  8
Geo
100
AcDbLine
 10
-27.93782378456402
 20
10.65322276324215
 30
0.0
 11
-27.83782378456403
 21
10.58041003611105
 31
0.0
  0
LINE
  5
F105E3
330
261
100
AcDbEntity
  8
Geo
100
AcDbLine
 10
-27.93782378456402
 20
10.20929514523225
 30
0.0
 11
-27.83782378456403
 21
10.13473181369725
 31
0.0
  0
LINE
  5
F105E5
330
261
100
AcDbEntity
  8
Geo
100
AcDbLine
 10
-27.93782378456402
 20
6.909428543379348
 30
0.0
 11
-27.83782378456403
 21
6.886307230815155
 31
0.0
  0
LINE
  5
F105E7
330
261
100
AcDbEntity
  8
Geo
100
AcDbLine
 10
-27.93782378456402
 20
6.824795922887254
 30
0.0
 11
-27.83782378456403
 21
6.812012411832156
 31
0.0
  0
LINE
  5
F105E9
330
261
100
AcDbEntity
  8
Geo
100
AcDbLine
 10
-27.83782378456403
 20
10.58041003611105
 30
0.0
 11
-27.73782378456401
 21
10.50701249673505
 31
0.0
  0
LINE
  5
F105EB
330
261
100
AcDbEntity
  8
Geo
100
AcDbLine
 10
-27.83782378456403
 20
10.13473181369725
 30
0.0
 11
-27.73782378456401
 21
10.05987946286925
 31
0.0
  0
LINE
  5
F105ED
330
261
100
AcDbEntity
  8
Geo
100
AcDbLine
 10
-27.83782378456403
 20
6.886307230815155
 30
0.0
 11
-27.73782378456401
 21
6.864718253247851
 31
0.0
  0
LINE
  5
F105EF
330
261
100
AcDbEntity
  8
Geo
100
AcDbLine
 10
-27.83782378456403
 20
6.812012411832156
 30
0.0
 11
-27.73782378456401
 21
6.800801707326755
 31
0.0
  0
LINE
  5
F105F1
330
261
100
AcDbEntity
  8
Geo
100
AcDbLine
 10
-27.73782378456401
 20
10.50701249673505
 30
0.0
 11
-27.63782378456402
 21
10.43307885845436
 31
0.0
  0
LINE
  5
F105F3
330
261
100
AcDbEntity
  8
Geo
100
AcDbLine
 10
-27.73782378456401
 20
10.05987946286925
 30
0.0
 11
-27.63782378456402
 21
9.98478777163465
 31
0.0
  0
LINE
  5
F105F5
330
261
100
AcDbEntity
  8
Geo
100
AcDbLine
 10
-27.73782378456401
 20
6.864718253247851
 30
0.0
 11
-27.63782378456402
 21
6.844673371113351
 31
0.0
  0
LINE
  5
F105F7
330
261
100
AcDbEntity
  8
Geo
100
AcDbLine
 10
-27.73782378456401
 20
6.800801707326755
 30
0.0
 11
-27.63782378456402
 21
6.791169916319454
 31
0.0
  0
LINE
  5
F105F9
330
261
100
AcDbEntity
  8
Geo
100
AcDbLine
 10
-27.63782378456402
 20
10.43307885845436
 30
0.0
 11
-27.53782378456401
 21
10.35865819041336
 31
0.0
  0
LINE
  5
F105FB
330
261
100
AcDbEntity
  8
Geo
100
AcDbLine
 10
-27.63782378456402
 20
9.98478777163465
 30
0.0
 11
-27.53782378456401
 21
9.909506577728151
 31
0.0
  0
LINE
  5
F105FD
330
261
100
AcDbEntity
  8
Geo
100
AcDbLine
 10
-27.63782378456402
 20
6.844673371113351
 30
0.0
 11
-27.53782378456401
 21
6.826183503712655
 31
0.0
  0
LINE
  5
F105FF
330
261
100
AcDbEntity
  8
Geo
100
AcDbLine
 10
-27.63782378456402
 20
6.791169916319454
 30
0.0
 11
-27.53782378456401
 21
6.783122285657057
 31
0.0
  0
LINE
  5
F10601
330
261
100
AcDbEntity
  8
Geo
100
AcDbLine
 10
-27.53782378456401
 20
10.35865819041336
 30
0.0
 11
-27.43782378456402
 21
10.28379988499426
 31
0.0
  0
LINE
  5
F10603
330
261
100
AcDbEntity
  8
Geo
100
AcDbLine
 10
-27.53782378456401
 20
9.909506577728151
 30
0.0
 11
-27.43782378456402
 21
9.834085844655753
 31
0.0
  0
LINE
  5
F10605
330
261
100
AcDbEntity
  8
Geo
100
AcDbLine
 10
-27.53782378456401
 20
6.826183503712655
 30
0.0
 11
-27.43782378456402
 21
6.809258723264257
 31
0.0
  0
LINE
  5
F10607
330
261
100
AcDbEntity
  8
Geo
100
AcDbLine
 10
-27.53782378456401
 20
6.783122285657057
 30
0.0
 11
-27.43782378456402
 21
6.776663199226852
 31
0.0
  0
LINE
  5
F10609
330
261
100
AcDbEntity
  8
Geo
100
AcDbLine
 10
-27.43782378456402
 20
10.28379988499426
 30
0.0
 11
-27.33782378456402
 21
10.20855362503545
 31
0.0
  0
LINE
  5
F1060B
330
261
100
AcDbEntity
  8
Geo
100
AcDbLine
 10
-27.43782378456402
 20
9.834085844655753
 30
0.0
 11
-27.33782378456402
 21
9.75857562853465
 31
0.0
  0
LINE
  5
F1060D
330
261
100
AcDbEntity
  8
Geo
100
AcDbLine
 10
-27.43782378456402
 20
6.809258723264257
 30
0.0
 11
-27.33782378456402
 21
6.793908249417057
 31
0.0
  0
LINE
  5
F1060F
330
261
100
AcDbEntity
  8
Geo
100
AcDbLine
 10
-27.43782378456402
 20
6.776663199226852
 30
0.0
 11
-27.33782378456402
 21
6.771796175568255
 31
0.0
  0
LINE
  5
F10611
330
261
100
AcDbEntity
  8
Geo
100
AcDbLine
 10
-27.33782378456402
 20
10.20855362503545
 30
0.0
 11
-27.23782378456402
 21
10.13296935085775
 31
0.0
  0
LINE
  5
F10613
330
261
100
AcDbEntity
  8
Geo
100
AcDbLine
 10
-27.33782378456402
 20
9.75857562853465
 30
0.0
 11
-27.23782378456402
 21
9.683026044870857
 31
0.0
  0
LINE
  5
F10615
330
261
100
AcDbEntity
  8
Geo
100
AcDbLine
 10
-27.33782378456402
 20
6.793908249417057
 30
0.0
 11
-27.23782378456402
 21
6.780140444228152
 31
0.0
  0
LINE
  5
F10617
330
261
100
AcDbEntity
  8
Geo
100
AcDbLine
 10
-27.33782378456402
 20
6.771796175568255
 30
0.0
 11
-27.23782378456402
 21
6.768523865956453
 31
0.0
  0
LINE
  5
F10619
330
261
100
AcDbEntity
  8
Geo
100
AcDbLine
 10
-27.23782378456402
 20
10.13296935085775
 30
0.0
 11
-27.13782378456402
 21
10.05709722711905
 31
0.0
  0
LINE
  5
F1061B
330
261
100
AcDbEntity
  8
Geo
100
AcDbLine
 10
-27.23782378456402
 20
9.683026044870857
 30
0.0
 11
-27.13782378456402
 21
9.607487235298556
 31
0.0
  0
LINE
  5
F1061D
330
261
100
AcDbEntity
  8
Geo
100
AcDbLine
 10
-27.23782378456402
 20
6.780140444228152
 30
0.0
 11
-27.13782378456402
 21
6.767962807607354
 31
0.0
  0
LINE
  5
F1061F
330
261
100
AcDbEntity
  8
Geo
100
AcDbLine
 10
-27.23782378456402
 20
6.768523865956453
 30
0.0
 11
-27.13782378456402
 21
6.766848052957953
 31
0.0
  0
LINE
  5
F10621
330
261
100
AcDbEntity
  8
Geo
100
AcDbLine
 10
-27.13782378456402
 20
10.05709722711905
 30
0.0
 11
-27.03782378456401
 21
9.980987609520553
 31
0.0
  0
LINE
  5
F10623
330
261
100
AcDbEntity
  8
Geo
100
AcDbLine
 10
-27.13782378456402
 20
9.607487235298556
 30
0.0
 11
-27.03782378456401
 21
9.532009334301257
 31
0.0
  0
LINE
  5
F10625
330
261
100
AcDbEntity
  8
Geo
100
AcDbLine
 10
-27.13782378456402
 20
6.767962807607354
 30
0.0
 11
-27.03782378456401
 21
6.757381973232149
 31
0.0
  0
LINE
  5
F10627
330
261
100
AcDbEntity
  8
Geo
100
AcDbLine
 10
-27.03782378456401
 20
9.980987609520553
 30
0.0
 11
-26.93782378456402
 21
9.904691011386361
 31
0.0
  0
LINE
  5
F10629
330
261
100
AcDbEntity
  8
Geo
100
AcDbLine
 10
-27.03782378456401
 20
9.532009334301257
 30
0.0
 11
-26.93782378456402
 21
9.456642435937752
 31
0.0
  0
LINE
  5
F1062B
330
261
100
AcDbEntity
  8
Geo
100
AcDbLine
 10
-27.03782378456401
 20
6.757381973232149
 30
0.0
 11
-26.93782378456402
 21
6.748403704933856
 31
0.0
  0
LINE
  5
F1062D
330
261
100
AcDbEntity
  8
Geo
100
AcDbLine
 10
-27.03782378456401
 20
12.63174959626095
 30
0.0
 11
-26.93782378456402
 21
12.63023054754986
 31
0.0
  0
LINE
  5
F1062F
330
261
100
AcDbEntity
  8
Geo
100
AcDbLine
 10
-26.93782378456402
 20
9.904691011386361
 30
0.0
 11
-26.83782378456402
 21
9.828258070137856
 31
0.0
  0
LINE
  5
F10631
330
261
100
AcDbEntity
  8
Geo
100
AcDbLine
 10
-26.93782378456402
 20
9.456642435937752
 30
0.0
 11
-26.83782378456402
 21
9.381436560595552
 31
0.0
  0
LINE
  5
F10633
330
261
100
AcDbEntity
  8
Geo
100
AcDbLine
 10
-26.93782378456402
 20
6.748403704933856
 30
0.0
 11
-26.83782378456402
 21
6.741032893557552
 31
0.0
  0
LINE
  5
F10635
330
261
100
AcDbEntity
  8
Geo
100
AcDbLine
 10
-26.93782378456402
 20
12.63023054754986
 30
0.0
 11
-26.83782378456402
 21
12.62711487411965
 31
0.0
  0
LINE
  5
F10637
330
261
100
AcDbEntity
  8
Geo
100
AcDbLine
 10
-26.83782378456402
 20
9.828258070137856
 30
0.0
 11
-26.73782378456401
 21
9.751739513686253
 31
0.0
  0
LINE
  5
F10639
330
261
100
AcDbEntity
  8
Geo
100
AcDbLine
 10
-26.83782378456402
 20
9.381436560595552
 30
0.0
 11
-26.73782378456401
 21
9.306441621792359
 31
0.0
  0
LINE
  5
F1063B
330
261
100
AcDbEntity
  8
Geo
100
AcDbLine
 10
-26.83782378456402
 20
6.741032893557552
 30
0.0
 11
-26.73782378456401
 21
6.735273554298352
 31
0.0
  0
LINE
  5
F1063D
330
261
100
AcDbEntity
  8
Geo
100
AcDbLine
 10
-26.83782378456402
 20
12.62711487411965
 30
0.0
 11
-26.73782378456401
 21
12.62240427321026
 31
0.0
  0
LINE
  5
F1063F
330
261
100
AcDbEntity
  8
Geo
100
AcDbLine
 10
-26.73782378456401
 20
9.751739513686253
 30
0.0
 11
-26.63782378456402
 21
9.675186126765055
 31
0.0
  0
LINE
  5
F10641
330
261
100
AcDbEntity
  8
Geo
100
AcDbLine
 10
-26.73782378456401
 20
9.306441621792359
 30
0.0
 11
-26.63782378456402
 21
9.231707393049155
 31
0.0
  0
LINE
  5
F10643
330
261
100
AcDbEntity
  8
Geo
100
AcDbLine
 10
-26.73782378456401
 20
6.735273554298352
 30
0.0
 11
-26.63782378456402
 21
6.731128824513454
 31
0.0
  0
LINE
  5
F10645
330
261
100
AcDbEntity
  8
Geo
100
AcDbLine
 10
-26.73782378456401
 20
12.62240427321026
 30
0.0
 11
-26.63782378456402
 21
12.61610131088675
 31
0.0
  0
LINE
  5
F10647
330
261
100
AcDbEntity
  8
Geo
100
AcDbLine
 10
-26.63782378456402
 20
9.675186126765055
 30
0.0
 11
-26.53782378456401
 21
9.598648717224158
 31
0.0
  0
LINE
  5
F10649
330
261
100
AcDbEntity
  8
Geo
100
AcDbLine
 10
-26.63782378456402
 20
9.231707393049155
 30
0.0
 11
-26.53782378456401
 21
9.157283474855653
 31
0.0
  0
LINE
  5
F1064B
330
261
100
AcDbEntity
  8
Geo
100
AcDbLine
 10
-26.63782378456402
 20
6.731128824513454
 30
0.0
 11
-26.53782378456401
 21
6.728600962013956
 31
0.0
  0
LINE
  5
F1064D
330
261
100
AcDbEntity
  8
Geo
100
AcDbLine
 10
-26.63782378456402
 20
12.61610131088675
 30
0.0
 11
-26.53782378456401
 21
12.60820942064126
 31
0.0
  0
LINE
  5
F1064F
330
261
100
AcDbEntity
  8
Geo
100
AcDbLine
 10
-26.53782378456401
 20
9.598648717224158
 30
0.0
 11
-26.43782378456402
 21
9.522178082309551
 31
0.0
  0
LINE
  5
F10651
330
261
100
AcDbEntity
  8
Geo
100
AcDbLine
 10
-26.53782378456401
 20
9.157283474855653
 30
0.0
 11
-26.43782378456402
 21
9.083219261751054
 31
0.0
  0
LINE
  5
F10653
330
261
100
AcDbEntity
  8
Geo
100
AcDbLine
 10
-26.53782378456401
 20
6.728600962013956
 30
0.0
 11
-26.43782378456402
 21
6.727691343834052
 31
0.0
  0
LINE
  5
F10655
330
261
100
AcDbEntity
  8
Geo
100
AcDbLine
 10
-26.53782378456401
 20
12.60820942064126
 30
0.0
 11
-26.43782378456402
 21
12.59873290152245
 31
0.0
  0
LINE
  5
F10657
330
261
100
AcDbEntity
  8
Geo
100
AcDbLine
 10
-26.43782378456402
 20
9.522178082309551
 30
0.0
 11
-26.33782378456402
 21
9.445824974949552
 31
0.0
  0
LINE
  5
F10659
330
261
100
AcDbEntity
  8
Geo
100
AcDbLine
 10
-26.43782378456402
 20
9.083219261751054
 30
0.0
 11
-26.33782378456402
 21
9.009563909541448
 31
0.0
  0
LINE
  5
F1065B
330
261
100
AcDbEntity
  8
Geo
100
AcDbLine
 10
-26.43782378456402
 20
12.59873290152245
 30
0.0
 11
-26.33782378456402
 21
12.58767691579415
 31
0.0
  0
LINE
  5
F1065D
330
261
100
AcDbEntity
  8
Geo
100
AcDbLine
 10
-26.33782378456402
 20
9.445824974949552
 30
0.0
 11
-26.23782378456402
 21
9.369640070070254
 31
0.0
  0
LINE
  5
F1065F
330
261
100
AcDbEntity
  8
Geo
100
AcDbLine
 10
-26.33782378456402
 20
9.009563909541448
 30
0.0
 11
-26.23782378456402
 21
8.936366302675054
 31
0.0
  0
LINE
  5
F10661
330
261
100
AcDbEntity
  8
Geo
100
AcDbLine
 10
-26.33782378456402
 20
12.67011878023865
 30
0.0
 11
-26.23782378456402
 21
12.66779130505236
 31
0.0
  0
LINE
  5
F10663
330
261
100
AcDbEntity
  8
Geo
100
AcDbLine
 10
-26.33782378456402
 20
12.58767691579415
 30
0.0
 11
-26.23782378456402
 21
12.57504748612265
 31
0.0
  0
LINE
  5
F10665
330
261
100
AcDbEntity
  8
Geo
100
AcDbLine
 10
-26.23782378456402
 20
9.369640070070254
 30
0.0
 11
-26.13782378456402
 21
9.293673930963159
 31
0.0
  0
LINE
  5
F10667
330
261
100
AcDbEntity
  8
Geo
100
AcDbLine
 10
-26.23782378456402
 20
8.936366302675054
 30
0.0
 11
-26.13782378456402
 21
8.863675021798549
 31
0.0
  0
LINE
  5
F10669
330
261
100
AcDbEntity
  8
Geo
100
AcDbLine
 10
-26.23782378456402
 20
12.66779130505236
 30
0.0
 11
-26.13782378456402
 21
12.66384674420225
 31
0.0
  0
LINE
  5
F1066B
330
261
100
AcDbEntity
  8
Geo
100
AcDbLine
 10
-26.23782378456402
 20
12.57504748612265
 30
0.0
 11
-26.13782378456402
 21
12.56085149229625
 31
0.0
  0
LINE
  5
F1066D
330
261
100
AcDbEntity
  8
Geo
100
AcDbLine
 10
-26.13782378456402
 20
9.293673930963159
 30
0.0
 11
-26.03782378456401
 21
9.217976975726855
 31
0.0
  0
LINE
  5
F1066F
330
261
100
AcDbEntity
  8
Geo
100
AcDbLine
 10
-26.13782378456402
 20
8.863675021798549
 30
0.0
 11
-26.03782378456401
 21
8.791538311514052
 31
0.0
  0
LINE
  5
F10671
330
261
100
AcDbEntity
  8
Geo
100
AcDbLine
 10
-26.13782378456402
 20
12.66384674420225
 30
0.0
 11
-26.03782378456401
 21
12.65828724645865
 31
0.0
  0
LINE
  5
F10673
330
261
100
AcDbEntity
  8
Geo
100
AcDbLine
 10
-26.13782378456402
 20
12.56085149229625
 30
0.0
 11
-26.03782378456401
 21
12.54509666747755
 31
0.0
  0
LINE
  5
F10675
330
261
100
AcDbEntity
  8
Geo
100
AcDbLine
 10
-26.03782378456401
 20
9.217976975726855
 30
0.0
 11
-25.93782378456402
 21
9.142599443804854
 31
0.0
  0
LINE
  5
F10677
330
261
100
AcDbEntity
  8
Geo
100
AcDbLine
 10
-26.03782378456401
 20
8.791538311514052
 30
0.0
 11
-25.93782378456402
 21
8.720004048359953
 31
0.0
  0
LINE
  5
F10679
330
261
100
AcDbEntity
  8
Geo
100
AcDbLine
 10
-26.03782378456401
 20
12.65828724645865
 30
0.0
 11
-25.93782378456402
 21
12.65111584031685
 31
0.0
  0
LINE
  5
F1067B
330
261
100
AcDbEntity
  8
Geo
100
AcDbLine
 10
-26.03782378456401
 20
12.54509666747755
 30
0.0
 11
-25.93782378456402
 21
12.52779159399085
 31
0.0
  0
LINE
  5
F1067D
330
261
100
AcDbEntity
  8
Geo
100
AcDbLine
 10
-25.93782378456402
 20
9.142599443804854
 30
0.0
 11
-25.83782378456402
 21
9.067591362641657
 31
0.0
  0
LINE
  5
F1067F
330
261
100
AcDbEntity
  8
Geo
100
AcDbLine
 10
-25.93782378456402
 20
8.720004048359953
 30
0.0
 11
-25.83782378456402
 21
8.649119709035154
 31
0.0
  0
LINE
  5
F10681
330
261
100
AcDbEntity
  8
Geo
100
AcDbLine
 10
-25.93782378456402
 20
12.65111584031685
 30
0.0
 11
-25.83782378456402
 21
12.64233643234726
 31
0.0
  0
LINE
  5
F10683
330
261
100
AcDbEntity
  8
Geo
100
AcDbLine
 10
-25.93782378456402
 20
12.52779159399085
 30
0.0
 11
-25.83782378456402
 21
12.50894569864685
 31
0.0
  0
LINE
  5
F10685
330
261
100
AcDbEntity
  8
Geo
100
AcDbLine
 10
-25.83782378456402
 20
9.067591362641657
 30
0.0
 11
-25.73782378456402
 21
8.993002514480949
 31
0.0
  0
LINE
  5
F10687
330
261
100
AcDbEntity
  8
Geo
100
AcDbLine
 10
-25.83782378456402
 20
8.649119709035154
 30
0.0
 11
-25.73782378456402
 21
8.578932338889757
 31
0.0
  0
LINE
  5
F10689
330
261
100
AcDbEntity
  8
Geo
100
AcDbLine
 10
-25.83782378456402
 20
12.64233643234726
 30
0.0
 11
-25.73782378456402
 21
12.63195380506735
 31
0.0
  0
LINE
  5
F1068B
330
261
100
AcDbEntity
  8
Geo
100
AcDbLine
 10
-25.83782378456402
 20
12.50894569864685
 30
0.0
 11
-25.73782378456402
 21
12.48856924760745
 31
0.0
  0
LINE
  5
F1068D
330
261
100
AcDbEntity
  8
Geo
100
AcDbLine
 10
-25.73782378456402
 20
8.993002514480949
 30
0.0
 11
-25.63782378456402
 21
8.918882403324452
 31
0.0
  0
LINE
  5
F1068F
330
261
100
AcDbEntity
  8
Geo
100
AcDbLine
 10
-25.73782378456402
 20
8.578932338889757
 30
0.0
 11
-25.63782378456402
 21
8.509488520701154
 31
0.0
  0
LINE
  5
F10691
330
261
100
AcDbEntity
  8
Geo
100
AcDbLine
 10
-25.73782378456402
 20
12.63195380506735
 30
0.0
 11
-25.63782378456402
 21
12.61997361433655
 31
0.0
  0
LINE
  5
F10693
330
261
100
AcDbEntity
  8
Geo
100
AcDbLine
 10
-25.73782378456402
 20
12.48856924760745
 30
0.0
 11
-25.63782378456402
 21
12.46667334079365
 31
0.0
  0
LINE
  5
F10695
330
261
100
AcDbEntity
  8
Geo
100
AcDbLine
 10
-25.63782378456402
 20
8.918882403324452
 30
0.0
 11
-25.53782378456401
 21
8.845280222077356
 31
0.0
  0
LINE
  5
F10697
330
261
100
AcDbEntity
  8
Geo
100
AcDbLine
 10
-25.63782378456402
 20
8.509488520701154
 30
0.0
 11
-25.53782378456401
 21
8.440834343757252
 31
0.0
  0
LINE
  5
F10699
330
261
100
AcDbEntity
  8
Geo
100
AcDbLine
 10
-25.63782378456402
 20
12.61997361433655
 30
0.0
 11
-25.53782378456401
 21
12.60640238627495
 31
0.0
  0
LINE
  5
F1069B
330
261
100
AcDbEntity
  8
Geo
100
AcDbLine
 10
-25.63782378456402
 20
12.46667334079365
 30
0.0
 11
-25.53782378456401
 21
12.44326990583855
 31
0.0
  0
LINE
  5
F1069D
330
261
100
AcDbEntity
  8
Geo
100
AcDbLine
 10
-25.53782378456401
 20
8.845280222077356
 30
0.0
 11
-25.43782378456402
 21
8.772244819898752
 31
0.0
  0
LINE
  5
F1069F
330
261
100
AcDbEntity
  8
Geo
100
AcDbLine
 10
-25.53782378456401
 20
8.440834343757252
 30
0.0
 11
-25.43782378456402
 21
8.373015373267854
 31
0.0
  0
LINE
  5
F106A1
330
261
100
AcDbEntity
  8
Geo
100
AcDbLine
 10
-25.53782378456401
 20
12.60640238627495
 30
0.0
 11
-25.43782378456402
 21
12.59124751370886
 31
0.0
  0
LINE
  5
F106A3
330
261
100
AcDbEntity
  8
Geo
100
AcDbLine
 10
-25.53782378456401
 20
12.44326990583855
 30
0.0
 11
-25.43782378456402
 21
12.41837169159025
 31
0.0
  0
LINE
  5
F106A5
330
261
100
AcDbEntity
  8
Geo
100
AcDbLine
 10
-25.43782378456402
 20
8.772244819898752
 30
0.0
 11
-25.33782378456403
 21
8.699824669781257
 31
0.0
  0
LINE
  5
F106A7
330
261
100
AcDbEntity
  8
Geo
100
AcDbLine
 10
-25.43782378456402
 20
8.373015373267854
 30
0.0
 11
-25.33782378456403
 21
8.306076620123057
 31
0.0
  0
LINE
  5
F106A9
330
261
100
AcDbEntity
  8
Geo
100
AcDbLine
 10
-25.43782378456402
 20
12.59124751370886
 30
0.0
 11
-25.33782378456403
 21
12.57451725214265
 31
0.0
  0
LINE
  5
F106AB
330
261
100
AcDbEntity
  8
Geo
100
AcDbLine
 10
-25.43782378456402
 20
12.41837169159025
 30
0.0
 11
-25.33782378456403
 21
12.39199226116655
 31
0.0
  0
LINE
  5
F106AD
330
261
100
AcDbEntity
  8
Geo
100
AcDbLine
 10
-25.33782378456403
 20
8.699824669781257
 30
0.0
 11
-25.23782378456401
 21
8.628067836379955
 31
0.0
  0
LINE
  5
F106AF
330
261
100
AcDbEntity
  8
Geo
100
AcDbLine
 10
-25.33782378456403
 20
8.306076620123057
 30
0.0
 11
-25.23782378456401
 21
8.240062511019758
 31
0.0
  0
LINE
  5
F106B1
330
261
100
AcDbEntity
  8
Geo
100
AcDbLine
 10
-25.33782378456403
 20
12.57451725214265
 30
0.0
 11
-25.23782378456401
 21
12.55622071526265
 31
0.0
  0
LINE
  5
F106B3
330
261
100
AcDbEntity
  8
Geo
100
AcDbLine
 10
-25.33782378456403
 20
12.39199226116655
 30
0.0
 11
-25.23782378456401
 21
12.36414598456705
 31
0.0
  0
LINE
  5
F106B5
330
261
100
AcDbEntity
  8
Geo
100
AcDbLine
 10
-25.23782378456401
 20
8.628067836379955
 30
0.0
 11
-25.13782378456402
 21
8.557021944111951
 31
0.0
  0
LINE
  5
F106B7
330
261
100
AcDbEntity
  8
Geo
100
AcDbLine
 10
-25.23782378456401
 20
8.240062511019758
 30
0.0
 11
-25.13782378456402
 21
8.175016858976654
 31
0.0
  0
LINE
  5
F106B9
330
261
100
AcDbEntity
  8
Geo
100
AcDbLine
 10
-25.23782378456401
 20
12.55622071526265
 30
0.0
 11
-25.13782378456402
 21
12.53636786997194
 31
0.0
  0
LINE
  5
F106BB
330
261
100
AcDbEntity
  8
Geo
100
AcDbLine
 10
-25.23782378456401
 20
12.36414598456705
 30
0.0
 11
-25.13782378456402
 21
12.33484803084476
 31
0.0
  0
LINE
  5
F106BD
330
261
100
AcDbEntity
  8
Geo
100
AcDbLine
 10
-25.13782378456402
 20
8.557021944111951
 30
0.0
 11
-25.03782378456401
 21
8.486734145548552
 31
0.0
  0
LINE
  5
F106BF
330
261
100
AcDbEntity
  8
Geo
100
AcDbLine
 10
-25.13782378456402
 20
8.175016858976654
 30
0.0
 11
-25.03782378456401
 21
8.110982834255153
 31
0.0
  0
LINE
  5
F106C1
330
261
100
AcDbEntity
  8
Geo
100
AcDbLine
 10
-25.13782378456402
 20
12.53636786997194
 30
0.0
 11
-25.03782378456401
 21
12.51496953096105
 31
0.0
  0
LINE
  5
F106C3
330
261
100
AcDbEntity
  8
Geo
100
AcDbLine
 10
-25.13782378456402
 20
12.33484803084476
 30
0.0
 11
-25.03782378456401
 21
12.30411435984325
 31
0.0
  0
LINE
  5
F106C5
330
261
100
AcDbEntity
  8
Geo
100
AcDbLine
 10
-25.03782378456401
 20
8.486734145548552
 30
0.0
 11
-24.937823784564
 21
8.417251090120551
 31
0.0
  0
LINE
  5
F106C7
330
261
100
AcDbEntity
  8
Geo
100
AcDbLine
 10
-25.03782378456401
 20
8.110982834255153
 30
0.0
 11
-24.937823784564
 21
8.048002935708055
 31
0.0
  0
LINE
  5
F106C9
330
261
100
AcDbEntity
  8
Geo
100
AcDbLine
 10
-25.03782378456401
 20
12.51496953096105
 30
0.0
 11
-24.937823784564
 21
12.49203735481675
 31
0.0
  0
LINE
  5
F106CB
330
261
100
AcDbEntity
  8
Geo
100
AcDbLine
 10
-25.03782378456401
 20
12.30411435984325
 30
0.0
 11
-24.937823784564
 21
12.27196171350225
 31
0.0
  0
LINE
  5
F106CD
330
261
100
AcDbEntity
  8
Geo
100
AcDbLine
 10
-24.937823784564
 20
8.417251090120551
 30
0.0
 11
-24.83782378456401
 21
8.348618893157549
 31
0.0
  0
LINE
  5
F106CF
330
261
100
AcDbEntity
  8
Geo
100
AcDbLine
 10
-24.937823784564
 20
8.048002935708055
 30
0.0
 11
-24.83782378456401
 21
7.986118962573456
 31
0.0
  0
LINE
  5
F106D1
330
261
100
AcDbEntity
  8
Geo
100
AcDbLine
 10
-24.937823784564
 20
12.49203735481675
 30
0.0
 11
-24.83782378456401
 21
12.46758383367225
 31
0.0
  0
LINE
  5
F106D3
330
261
100
AcDbEntity
  8
Geo
100
AcDbLine
 10
-24.937823784564
 20
12.27196171350225
 30
0.0
 11
-24.83782378456401
 21
12.23840760673786
 31
0.0
  0
LINE
  5
F106D5
330
261
100
AcDbEntity
  8
Geo
100
AcDbLine
 10
-24.83782378456401
 20
8.348618893157549
 30
0.0
 11
-24.737823784564
 21
8.280883105281255
 31
0.0
  0
LINE
  5
F106D7
330
261
100
AcDbEntity
  8
Geo
100
AcDbLine
 10
-24.83782378456401
 20
7.986118962573456
 30
0.0
 11
-24.737823784564
 21
7.925371986732855
 31
0.0
  0
LINE
  5
F106D9
330
261
100
AcDbEntity
  8
Geo
100
AcDbLine
 10
-24.83782378456401
 20
12.46758383367225
 30
0.0
 11
-24.737823784564
 21
12.44162228840226
 31
0.0
  0
LINE
  5
F106DB
330
261
100
AcDbEntity
  8
Geo
100
AcDbLine
 10
-24.83782378456401
 20
12.23840760673786
 30
0.0
 11
-24.737823784564
 21
12.20347031790145
 31
0.0
  0
LINE
  5
F106DD
330
261
100
AcDbEntity
  8
Geo
100
AcDbLine
 10
-24.737823784564
 20
8.280883105281255
 30
0.0
 11
-24.63782378456401
 21
8.21408868217405
 31
0.0
  0
LINE
  5
F106DF
330
261
100
AcDbEntity
  8
Geo
100
AcDbLine
 10
-24.737823784564
 20
7.925371986732855
 30
0.0
 11
-24.63782378456401
 21
7.865802325451653
 31
0.0
  0
LINE
  5
F106E1
330
261
100
AcDbEntity
  8
Geo
100
AcDbLine
 10
-24.737823784564
 20
12.44162228840226
 30
0.0
 11
-24.63782378456401
 21
12.41416686136635
 31
0.0
  0
LINE
  5
F106E3
330
261
100
AcDbEntity
  8
Geo
100
AcDbLine
 10
-24.737823784564
 20
12.20347031790145
 30
0.0
 11
-24.63782378456401
 21
12.16716887882255
 31
0.0
  0
LINE
  5
F106E5
330
261
100
AcDbEntity
  8
Geo
100
AcDbLine
 10
-24.63782378456401
 20
8.21408868217405
 30
0.0
 11
-24.53782378456401
 21
8.148279954742456
 31
0.0
  0
LINE
  5
F106E7
330
261
100
AcDbEntity
  8
Geo
100
AcDbLine
 10
-24.63782378456401
 20
7.865802325451653
 30
0.0
 11
-24.53782378456401
 21
7.80744951462185
 31
0.0
  0
LINE
  5
F106E9
330
261
100
AcDbEntity
  8
Geo
100
AcDbLine
 10
-24.63782378456401
 20
12.41416686136635
 30
0.0
 11
-24.53782378456401
 21
12.38523250870535
 31
0.0
  0
LINE
  5
F106EB
330
261
100
AcDbEntity
  8
Geo
100
AcDbLine
 10
-24.63782378456401
 20
12.16716887882255
 30
0.0
 11
-24.53782378456401
 21
12.12952306444156
 31
0.0
  0
LINE
  5
F106ED
330
261
100
AcDbEntity
  8
Geo
100
AcDbLine
 10
-24.53782378456401
 20
8.148279954742456
 30
0.0
 11
-24.43782378456401
 21
8.083500599694751
 31
0.0
  0
LINE
  5
F106EF
330
261
100
AcDbEntity
  8
Geo
100
AcDbLine
 10
-24.53782378456401
 20
7.80744951462185
 30
0.0
 11
-24.43782378456401
 21
7.750352282521454
 31
0.0
  0
LINE
  5
F106F1
330
261
100
AcDbEntity
  8
Geo
100
AcDbLine
 10
-24.53782378456401
 20
12.38523250870535
 30
0.0
 11
-24.43782378456401
 21
12.35483499219355
 31
0.0
  0
LINE
  5
F106F3
330
261
100
AcDbEntity
  8
Geo
100
AcDbLine
 10
-24.53782378456401
 20
12.12952306444156
 30
0.0
 11
-24.43782378456401
 21
12.09055338203695
 31
0.0
  0
LINE
  5
F106F5
330
261
100
AcDbEntity
  8
Geo
100
AcDbLine
 10
-24.43782378456401
 20
8.083500599694751
 30
0.0
 11
-24.33782378456401
 21
8.019793610553456
 31
0.0
  0
LINE
  5
F106F7
330
261
100
AcDbEntity
  8
Geo
100
AcDbLine
 10
-24.43782378456401
 20
7.750352282521454
 30
0.0
 11
-24.33782378456401
 21
7.694548524111354
 31
0.0
  0
LINE
  5
F106F9
330
261
100
AcDbEntity
  8
Geo
100
AcDbLine
 10
-24.43782378456401
 20
12.35483499219355
 30
0.0
 11
-24.33782378456401
 21
12.32299087065326
 31
0.0
  0
LINE
  5
F106FB
330
261
100
AcDbEntity
  8
Geo
100
AcDbLine
 10
-24.43782378456401
 20
12.09055338203695
 30
0.0
 11
-24.33782378456401
 21
12.05028106005505
 31
0.0
  0
LINE
  5
F106FD
330
261
100
AcDbEntity
  8
Geo
100
AcDbLine
 10
-24.33782378456401
 20
8.019793610553456
 30
0.0
 11
-24.237823784564
 21
7.957201269120552
 31
0.0
  0
LINE
  5
F106FF
330
261
100
AcDbEntity
  8
Geo
100
AcDbLine
 10
-24.33782378456401
 20
7.694548524111354
 30
0.0
 11
-24.237823784564
 21
7.640075275884854
 31
0.0
  0
LINE
  5
F10701
330
261
100
AcDbEntity
  8
Geo
100
AcDbLine
 10
-24.33782378456401
 20
12.32299087065326
 30
0.0
 11
-24.237823784564
 21
12.28971749093386
 31
0.0
  0
LINE
  5
F10703
330
261
100
AcDbEntity
  8
Geo
100
AcDbLine
 10
-24.33782378456401
 20
12.05028106005505
 30
0.0
 11
-24.237823784564
 21
12.00872803654506
 31
0.0
  0
LINE
  5
F10705
330
261
100
AcDbEntity
  8
Geo
100
AcDbLine
 10
-24.237823784564
 20
7.957201269120552
 30
0.0
 11
-24.13782378456401
 21
7.895765117415656
 31
0.0
  0
LINE
  5
F10707
330
261
100
AcDbEntity
  8
Geo
100
AcDbLine
 10
-24.237823784564
 20
7.640075275884854
 30
0.0
 11
-24.13782378456401
 21
7.586968691286259
 31
0.0
  0
LINE
  5
F10709
330
261
100
AcDbEntity
  8
Geo
100
AcDbLine
 10
-24.237823784564
 20
12.28971749093386
 30
0.0
 11
-24.13782378456401
 21
12.25503297846276
 31
0.0
  0
LINE
  5
F1070B
330
261
100
AcDbEntity
  8
Geo
100
AcDbLine
 10
-24.237823784564
 20
12.00872803654506
 30
0.0
 11
-24.13782378456401
 21
11.96591694720915
 31
0.0
  0
LINE
  5
F1070D
330
261
100
AcDbEntity
  8
Geo
100
AcDbLine
 10
-24.13782378456401
 20
7.895765117415656
 30
0.0
 11
-24.03782378456401
 21
7.835525930104651
 31
0.0
  0
LINE
  5
F1070F
330
261
100
AcDbEntity
  8
Geo
100
AcDbLine
 10
-24.13782378456401
 20
7.586968691286259
 30
0.0
 11
-24.03782378456401
 21
7.535264016716951
 31
0.0
  0
LINE
  5
F10711
330
261
100
AcDbEntity
  8
Geo
100
AcDbLine
 10
-24.13782378456401
 20
12.25503297846276
 30
0.0
 11
-24.03782378456401
 21
12.21895622737155
 31
0.0
  0
LINE
  5
F10713
330
261
100
AcDbEntity
  8
Geo
100
AcDbLine
 10
-24.13782378456401
 20
11.96591694720915
 30
0.0
 11
-24.03782378456401
 21
11.92187111307115
 31
0.0
  0
LINE
  5
F10715
330
261
100
AcDbEntity
  8
Geo
100
AcDbLine
 10
-24.03782378456401
 20
7.835525930104651
 30
0.0
 11
-23.937823784564
 21
7.776523687438256
 31
0.0
  0
LINE
  5
F10717
330
261
100
AcDbEntity
  8
Geo
100
AcDbLine
 10
-24.03782378456401
 20
7.535264016716951
 30
0.0
 11
-23.937823784564
 21
7.484995568141854
 31
0.0
  0
LINE
  5
F10719
330
261
100
AcDbEntity
  8
Geo
100
AcDbLine
 10
-24.03782378456401
 20
12.21895622737155
 30
0.0
 11
-23.937823784564
 21
12.18150689020315
 31
0.0
  0
LINE
  5
F1071B
330
261
100
AcDbEntity
  8
Geo
100
AcDbLine
 10
-24.03782378456401
 20
11.92187111307115
 30
0.0
 11
-23.937823784564
 21
11.87661452777355
 31
0.0
  0
LINE
  5
F1071D
330
261
100
AcDbEntity
  8
Geo
100
AcDbLine
 10
-23.937823784564
 20
7.776523687438256
 30
0.0
 11
-23.83782378456401
 21
7.718797548717056
 31
0.0
  0
LINE
  5
F1071F
330
261
100
AcDbEntity
  8
Geo
100
AcDbLine
 10
-23.937823784564
 20
7.484995568141854
 30
0.0
 11
-23.83782378456401
 21
7.436196708314753
 31
0.0
  0
LINE
  5
F10721
330
261
100
AcDbEntity
  8
Geo
100
AcDbLine
 10
-23.937823784564
 20
12.18150689020315
 30
0.0
 11
-23.83782378456401
 21
12.14270536720705
 31
0.0
  0
LINE
  5
F10723
330
261
100
AcDbEntity
  8
Geo
100
AcDbLine
 10
-23.937823784564
 20
11.87661452777355
 30
0.0
 11
-23.83782378456401
 21
11.83017184450594
 31
0.0
  0
LINE
  5
F10725
330
261
100
AcDbEntity
  8
Geo
100
AcDbLine
 10
-23.83782378456401
 20
7.718797548717056
 30
0.0
 11
-23.737823784564
 21
7.662385826302255
 31
0.0
  0
LINE
  5
F10727
330
261
100
AcDbEntity
  8
Geo
100
AcDbLine
 10
-23.83782378456401
 20
7.436196708314753
 30
0.0
 11
-23.737823784564
 21
7.388899824635551
 31
0.0
  0
LINE
  5
F10729
330
261
100
AcDbEntity
  8
Geo
100
AcDbLine
 10
-23.83782378456401
 20
12.14270536720705
 30
0.0
 11
-23.737823784564
 21
12.10257279522555
 31
0.0
  0
LINE
  5
F1072B
330
261
100
AcDbEntity
  8
Geo
100
AcDbLine
 10
-23.83782378456401
 20
11.83017184450594
 30
0.0
 11
-23.737823784564
 21
11.78256836257655
 31
0.0
  0
LINE
  5
F1072D
330
261
100
AcDbEntity
  8
Geo
100
AcDbLine
 10
-23.737823784564
 20
7.662385826302255
 30
0.0
 11
-23.637823784564
 21
7.607325960187658
 31
0.0
  0
LINE
  5
F1072F
330
261
100
AcDbEntity
  8
Geo
100
AcDbLine
 10
-23.737823784564
 20
7.388899824635551
 30
0.0
 11
-23.637823784564
 21
7.343136307654958
 31
0.0
  0
LINE
  5
F10731
330
261
100
AcDbEntity
  8
Geo
100
AcDbLine
 10
-23.737823784564
 20
12.10257279522555
 30
0.0
 11
-23.637823784564
 21
12.06113103618035
 31
0.0
  0
LINE
  5
F10733
330
261
100
AcDbEntity
  8
Geo
100
AcDbLine
 10
-23.737823784564
 20
11.78256836257655
 30
0.0
 11
-23.637823784564
 21
11.73383001362966
 31
0.0
  0
LINE
  5
F10735
330
261
100
AcDbEntity
  8
Geo
100
AcDbLine
 10
-23.637823784564
 20
7.607325960187658
 30
0.0
 11
-23.53782378456401
 21
7.55365449315105
 31
0.0
  0
LINE
  5
F10737
330
261
100
AcDbEntity
  8
Geo
100
AcDbLine
 10
-23.637823784564
 20
7.343136307654958
 30
0.0
 11
-23.53782378456401
 21
7.298936530240851
 31
0.0
  0
LINE
  5
F10739
330
261
100
AcDbEntity
  8
Geo
100
AcDbLine
 10
-23.637823784564
 20
12.06113103618035
 30
0.0
 11
-23.53782378456401
 21
12.01840266516295
 31
0.0
  0
LINE
  5
F1073B
330
261
100
AcDbEntity
  8
Geo
100
AcDbLine
 10
-23.637823784564
 20
11.73383001362966
 30
0.0
 11
-23.53782378456401
 21
11.68398334752026
 31
0.0
  0
LINE
  5
F1073D
330
261
100
AcDbEntity
  8
Geo
100
AcDbLine
 10
-23.53782378456401
 20
7.55365449315105
 30
0.0
 11
-23.437823784564
 21
7.501407046501554
 31
0.0
  0
LINE
  5
F1073F
330
261
100
AcDbEntity
  8
Geo
100
AcDbLine
 10
-23.53782378456401
 20
7.298936530240851
 30
0.0
 11
-23.437823784564
 21
7.256329827420053
 31
0.0
  0
LINE
  5
F10741
330
261
100
AcDbEntity
  8
Geo
100
AcDbLine
 10
-23.53782378456401
 20
12.01840266516295
 30
0.0
 11
-23.437823784564
 21
11.97441095813715
 31
0.0
  0
LINE
  5
F10743
330
261
100
AcDbEntity
  8
Geo
100
AcDbLine
 10
-23.53782378456401
 20
11.68398334752026
 30
0.0
 11
-23.437823784564
 21
11.63305551785075
 31
0.0
  0
LINE
  5
F10745
330
261
100
AcDbEntity
  8
Geo
100
AcDbLine
 10
-23.437823784564
 20
7.501407046501554
 30
0.0
 11
-23.33782378456401
 21
7.450618296437653
 31
0.0
  0
LINE
  5
F10747
330
261
100
AcDbEntity
  8
Geo
100
AcDbLine
 10
-23.437823784564
 20
7.256329827420053
 30
0.0
 11
-23.33782378456401
 21
7.215344476909052
 31
0.0
  0
LINE
  5
F10749
330
261
100
AcDbEntity
  8
Geo
100
AcDbLine
 10
-23.437823784564
 20
11.97441095813715
 30
0.0
 11
-23.33782378456401
 21
11.92917987925975
 31
0.0
  0
LINE
  5
F1074B
330
261
100
AcDbEntity
  8
Geo
100
AcDbLine
 10
-23.437823784564
 20
11.63305551785075
 30
0.0
 11
-23.33782378456401
 21
11.58107426717945
 31
0.0
  0
LINE
  5
F1074D
330
261
100
AcDbEntity
  8
Geo
100
AcDbLine
 10
-23.33782378456401
 20
7.450618296437653
 30
0.0
 11
-23.237823784564
 21
7.401321951032755
 31
0.0
  0
LINE
  5
F1074F
330
261
100
AcDbEntity
  8
Geo
100
AcDbLine
 10
-23.33782378456401
 20
7.215344476909052
 30
0.0
 11
-23.237823784564
 21
7.176007680346053
 31
0.0
  0
LINE
  5
F10751
330
261
100
AcDbEntity
  8
Geo
100
AcDbLine
 10
-23.33782378456401
 20
11.92917987925975
 30
0.0
 11
-23.237823784564
 21
11.88273406782636
 31
0.0
  0
LINE
  5
F10753
330
261
100
AcDbEntity
  8
Geo
100
AcDbLine
 10
-23.33782378456401
 20
11.58107426717945
 30
0.0
 11
-23.237823784564
 21
11.52806791190795
 31
0.0
  0
LINE
  5
F10755
330
261
100
AcDbEntity
  8
Geo
100
AcDbLine
 10
-23.237823784564
 20
7.401321951032755
 30
0.0
 11
-23.13782378456401
 21
7.353550727863854
 31
0.0
  0
LINE
  5
F10757
330
261
100
AcDbEntity
  8
Geo
100
AcDbLine
 10
-23.237823784564
 20
7.176007680346053
 30
0.0
 11
-23.13782378456401
 21
7.138345545237953
 31
0.0
  0
LINE
  5
F10759
330
261
100
AcDbEntity
  8
Geo
100
AcDbLine
 10
-23.237823784564
 20
11.88273406782636
 30
0.0
 11
-23.13782378456401
 21
11.83509882484895
 31
0.0
  0
LINE
  5
F1075B
330
261
100
AcDbEntity
  8
Geo
100
AcDbLine
 10
-23.237823784564
 20
11.52806791190795
 30
0.0
 11
-23.13782378456401
 21
11.47406532685595
 31
0.0
  0
LINE
  5
F1075D
330
261
100
AcDbEntity
  8
Geo
100
AcDbLine
 10
-23.13782378456401
 20
7.353550727863854
 30
0.0
 11
-23.03782378456401
 21
7.307336332296756
 31
0.0
  0
LINE
  5
F1075F
330
261
100
AcDbEntity
  8
Geo
100
AcDbLine
 10
-23.13782378456401
 20
7.138345545237953
 30
0.0
 11
-23.03782378456401
 21
7.10238306763226
 31
0.0
  0
LINE
  5
F10761
330
261
100
AcDbEntity
  8
Geo
100
AcDbLine
 10
-23.13782378456401
 20
11.83509882484895
 30
0.0
 11
-23.03782378456401
 21
11.78630009927365
 31
0.0
  0
LINE
  5
F10763
330
261
100
AcDbEntity
  8
Geo
100
AcDbLine
 10
-23.13782378456401
 20
11.47406532685595
 30
0.0
 11
-23.03782378456401
 21
11.41909592953205
 31
0.0
  0
LINE
  5
F10765
330
261
100
AcDbEntity
  8
Geo
100
AcDbLine
 10
-23.03782378456401
 20
7.307336332296756
 30
0.0
 11
-22.937823784564
 21
7.262709436443856
 31
0.0
  0
LINE
  5
F10767
330
261
100
AcDbEntity
  8
Geo
100
AcDbLine
 10
-23.03782378456401
 20
7.10238306763226
 30
0.0
 11
-22.937823784564
 21
7.068144115528255
 31
0.0
  0
LINE
  5
F10769
330
261
100
AcDbEntity
  8
Geo
100
AcDbLine
 10
-23.03782378456401
 20
11.78630009927365
 30
0.0
 11
-22.937823784564
 21
11.73636447384486
 31
0.0
  0
LINE
  5
F1076B
330
261
100
AcDbEntity
  8
Geo
100
AcDbLine
 10
-23.03782378456401
 20
11.41909592953205
 30
0.0
 11
-22.937823784564
 21
11.36318966410855
 31
0.0
  0
LINE
  5
F1076D
330
261
100
AcDbEntity
  8
Geo
100
AcDbLine
 10
-22.937823784564
 20
7.262709436443856
 30
0.0
 11
-22.83782378456401
 21
7.219699658807051
 31
0.0
  0
LINE
  5
F1076F
330
261
100
AcDbEntity
  8
Geo
100
AcDbLine
 10
-22.937823784564
 20
7.068144115528255
 30
0.0
 11
-22.83782378456401
 21
7.035651413035253
 31
0.0
  0
LINE
  5
F10771
330
261
100
AcDbEntity
  8
Geo
100
AcDbLine
 10
-22.937823784564
 20
11.73636447384486
 30
0.0
 11
-22.83782378456401
 21
11.68531915062515
 31
0.0
  0
LINE
  5
F10773
330
261
100
AcDbEntity
  8
Geo
100
AcDbLine
 10
-22.937823784564
 20
11.36318966410855
 30
0.0
 11
-22.83782378456401
 21
11.30637698510986
 31
0.0
  0
LINE
  5
F10775
330
261
100
AcDbEntity
  8
Geo
100
AcDbLine
 10
-22.83782378456401
 20
7.219699658807051
 30
0.0
 11
-22.737823784564
 21
7.178335544619955
 31
0.0
  0
LINE
  5
F10777
330
261
100
AcDbEntity
  8
Geo
100
AcDbLine
 10
-22.83782378456401
 20
7.035651413035253
 30
0.0
 11
-22.737823784564
 21
7.004926525291253
 31
0.0
  0
LINE
  5
F10779
330
261
100
AcDbEntity
  8
Geo
100
AcDbLine
 10
-22.83782378456401
 20
11.68531915062515
 30
0.0
 11
-22.737823784564
 21
11.63319193617645
 31
0.0
  0
LINE
  5
F1077B
330
261
100
AcDbEntity
  8
Geo
100
AcDbLine
 10
-22.83782378456401
 20
11.30637698510986
 30
0.0
 11
-22.737823784564
 21
11.24868884082225
 31
0.0
  0
LINE
  5
F1077D
330
261
100
AcDbEntity
  8
Geo
100
AcDbLine
 10
-22.737823784564
 20
7.178335544619955
 30
0.0
 11
-22.63782378456401
 21
7.138644546903456
 31
0.0
  0
LINE
  5
F1077F
330
261
100
AcDbEntity
  8
Geo
100
AcDbLine
 10
-22.737823784564
 20
7.004926525291253
 30
0.0
 11
-22.63782378456401
 21
6.975989844150454
 31
0.0
  0
LINE
  5
F10781
330
261
100
AcDbEntity
  8
Geo
100
AcDbLine
 10
-22.737823784564
 20
11.63319193617645
 30
0.0
 11
-22.63782378456401
 21
11.58001122641305
 31
0.0
  0
LINE
  5
F10783
330
261
100
AcDbEntity
  8
Geo
100
AcDbLine
 10
-22.737823784564
 20
11.24868884082225
 30
0.0
 11
-22.63782378456401
 21
11.19015665643555
 31
0.0
  0
LINE
  5
F10785
330
261
100
AcDbEntity
  8
Geo
100
AcDbLine
 10
-22.63782378456401
 20
7.138644546903456
 30
0.0
 11
-22.53782378456401
 21
7.100653008244556
 31
0.0
  0
LINE
  5
F10787
330
261
100
AcDbEntity
  8
Geo
100
AcDbLine
 10
-22.63782378456401
 20
6.975989844150454
 30
0.0
 11
-22.53782378456401
 21
6.948860574648755
 31
0.0
  0
LINE
  5
F10789
330
261
100
AcDbEntity
  8
Geo
100
AcDbLine
 10
-22.63782378456401
 20
11.58001122641305
 30
0.0
 11
-22.53782378456401
 21
11.52580599113315
 31
0.0
  0
LINE
  5
F1078B
330
261
100
AcDbEntity
  8
Geo
100
AcDbLine
 10
-22.63782378456401
 20
11.19015665643555
 30
0.0
 11
-22.53782378456401
 21
11.13081231692386
 31
0.0
  0
LINE
  5
F1078D
330
261
100
AcDbEntity
  8
Geo
100
AcDbLine
 10
-22.53782378456401
 20
7.100653008244556
 30
0.0
 11
-22.437823784564
 21
7.064386143313349
 31
0.0
  0
LINE
  5
F1078F
330
261
100
AcDbEntity
  8
Geo
100
AcDbLine
 10
-22.53782378456401
 20
6.948860574648755
 30
0.0
 11
-22.437823784564
 21
6.923556722258055
 31
0.0
  0
LINE
  5
F10791
330
261
100
AcDbEntity
  8
Geo
100
AcDbLine
 10
-22.53782378456401
 20
11.52580599113315
 30
0.0
 11
-22.437823784564
 21
11.47060575823725
 31
0.0
  0
LINE
  5
F10793
330
261
100
AcDbEntity
  8
Geo
100
AcDbLine
 10
-22.53782378456401
 20
11.13081231692386
 30
0.0
 11
-22.437823784564
 21
11.07068814967705
 31
0.0
  0
LINE
  5
F10795
330
261
100
AcDbEntity
  8
Geo
100
AcDbLine
 10
-22.437823784564
 20
7.064386143313349
 30
0.0
 11
-22.33782378456401
 21
7.029868022128255
 31
0.0
  0
LINE
  5
F10797
330
261
100
AcDbEntity
  8
Geo
100
AcDbLine
 10
-22.437823784564
 20
6.923556722258055
 30
0.0
 11
-22.33782378456401
 21
6.900095080936054
 31
0.0
  0
LINE
  5
F10799
330
261
100
AcDbEntity
  8
Geo
100
AcDbLine
 10
-22.437823784564
 20
11.47060575823725
 30
0.0
 11
-22.33782378456401
 21
11.41444059764395
 31
0.0
  0
LINE
  5
F1079B
330
261
100
AcDbEntity
  8
Geo
100
AcDbLine
 10
-22.437823784564
 20
11.07068814967705
 30
0.0
 11
-22.33782378456401
 21
11.00981690689016
 31
0.0
  0
LINE
  5
F1079D
330
261
100
AcDbEntity
  8
Geo
100
AcDbLine
 10
-22.33782378456401
 20
7.029868022128255
 30
0.0
 11
-22.237823784564
 21
6.997121554080955
 31
0.0
  0
LINE
  5
F1079F
330
261
100
AcDbEntity
  8
Geo
100
AcDbLine
 10
-22.33782378456401
 20
6.900095080936054
 30
0.0
 11
-22.237823784564
 21
6.878491221980056
 31
0.0
  0
LINE
  5
F107A1
330
261
100
AcDbEntity
  8
Geo
100
AcDbLine
 10
-22.33782378456401
 20
11.41444059764395
 30
0.0
 11
-22.237823784564
 21
11.35734110490855
 31
0.0
  0
LINE
  5
F107A3
330
261
100
AcDbEntity
  8
Geo
100
AcDbLine
 10
-22.33782378456401
 20
11.00981690689016
 30
0.0
 11
-22.237823784564
 21
10.94823174772215
 31
0.0
  0
LINE
  5
F107A5
330
261
100
AcDbEntity
  8
Geo
100
AcDbLine
 10
-22.237823784564
 20
6.997121554080955
 30
0.0
 11
-22.13782378456401
 21
6.966168472731652
 31
0.0
  0
LINE
  5
F107A7
330
261
100
AcDbEntity
  8
Geo
100
AcDbLine
 10
-22.237823784564
 20
6.878491221980056
 30
0.0
 11
-22.13782378456401
 21
6.85875948369285
 31
0.0
  0
LINE
  5
F107A9
330
261
100
AcDbEntity
  8
Geo
100
AcDbLine
 10
-22.237823784564
 20
11.35734110490855
 30
0.0
 11
-22.13782378456401
 21
11.29933838455725
 31
0.0
  0
LINE
  5
F107AB
330
261
100
AcDbEntity
  8
Geo
100
AcDbLine
 10
-22.237823784564
 20
10.94823174772215
 30
0.0
 11
-22.13782378456401
 21
10.88596622023275
 31
0.0
  0
LINE
  5
F107AD
330
261
100
AcDbEntity
  8
Geo
100
AcDbLine
 10
-22.13782378456401
 20
6.966168472731652
 30
0.0
 11
-22.03782378456401
 21
6.937029321384457
 31
0.0
  0
LINE
  5
F107AF
330
261
100
AcDbEntity
  8
Geo
100
AcDbLine
 10
-22.13782378456401
 20
6.85875948369285
 30
0.0
 11
-22.03782378456401
 21
6.840912961865754
 31
0.0
  0
LINE
  5
F107B1
330
261
100
AcDbEntity
  8
Geo
100
AcDbLine
 10
-22.13782378456401
 20
11.29933838455725
 30
0.0
 11
-22.03782378456401
 21
11.24046403314276
 31
0.0
  0
LINE
  5
F107B3
330
261
100
AcDbEntity
  8
Geo
100
AcDbLine
 10
-22.13782378456401
 20
10.88596622023275
 30
0.0
 11
-22.03782378456401
 21
10.82305424310725
 31
0.0
  0
LINE
  5
F107B5
330
261
100
AcDbEntity
  8
Geo
100
AcDbLine
 10
-22.03782378456401
 20
6.937029321384457
 30
0.0
 11
-21.93782378456401
 21
6.909723439453259
 31
0.0
  0
LINE
  5
F107B7
330
261
100
AcDbEntity
  8
Geo
100
AcDbLine
 10
-22.03782378456401
 20
6.840912961865754
 30
0.0
 11
-21.93782378456401
 21
6.824963501087957
 31
0.0
  0
LINE
  5
F107B9
330
261
100
AcDbEntity
  8
Geo
100
AcDbLine
 10
-22.03782378456401
 20
11.24046403314276
 30
0.0
 11
-21.93782378456401
 21
11.18075012203215
 31
0.0
  0
LINE
  5
F107BB
330
261
100
AcDbEntity
  8
Geo
100
AcDbLine
 10
-22.03782378456401
 20
10.82305424310725
 30
0.0
 11
-21.93782378456401
 21
10.75953008717965
 31
0.0
  0
LINE
  5
F107BD
330
261
100
AcDbEntity
  8
Geo
100
AcDbLine
 10
-21.93782378456401
 20
6.909723439453259
 30
0.0
 11
-21.83782378456401
 21
6.884268949626253
 31
0.0
  0
LINE
  5
F107BF
330
261
100
AcDbEntity
  8
Geo
100
AcDbLine
 10
-21.93782378456401
 20
6.824963501087957
 30
0.0
 11
-21.83782378456401
 21
6.810921686884654
 31
0.0
  0
LINE
  5
F107C1
330
261
100
AcDbEntity
  8
Geo
100
AcDbLine
 10
-21.93782378456401
 20
11.18075012203215
 30
0.0
 11
-21.83782378456401
 21
11.12022917993655
 31
0.0
  0
LINE
  5
F107C3
330
261
100
AcDbEntity
  8
Geo
100
AcDbLine
 10
-21.93782378456401
 20
10.75953008717965
 30
0.0
 11
-21.83782378456401
 21
10.69542835676355
 31
0.0
  0
LINE
  5
F107C5
330
261
100
AcDbEntity
  8
Geo
100
AcDbLine
 10
-21.83782378456401
 20
6.884268949626253
 30
0.0
 11
-21.737823784564
 21
6.860682745837756
 31
0.0
  0
LINE
  5
F107C7
330
261
100
AcDbEntity
  8
Geo
100
AcDbLine
 10
-21.83782378456401
 20
6.810921686884654
 30
0.0
 11
-21.737823784564
 21
6.798796838691849
 31
0.0
  0
LINE
  5
F107C9
330
261
100
AcDbEntity
  8
Geo
100
AcDbLine
 10
-21.83782378456401
 20
11.12022917993655
 30
0.0
 11
-21.737823784564
 21
11.05893417519145
 31
0.0
  0
LINE
  5
F107CB
330
261
100
AcDbEntity
  8
Geo
100
AcDbLine
 10
-21.83782378456401
 20
10.69542835676355
 30
0.0
 11
-21.737823784564
 21
10.63078397080235
 31
0.0
  0
LINE
  5
F107CD
330
261
100
AcDbEntity
  8
Geo
100
AcDbLine
 10
-21.737823784564
 20
6.860682745837756
 30
0.0
 11
-21.63782378456401
 21
6.838980482056349
 31
0.0
  0
LINE
  5
F107CF
330
261
100
AcDbEntity
  8
Geo
100
AcDbLine
 10
-21.737823784564
 20
6.798796838691849
 30
0.0
 11
-21.63782378456401
 21
6.788597003671149
 31
0.0
  0
LINE
  5
F107D1
330
261
100
AcDbEntity
  8
Geo
100
AcDbLine
 10
-21.737823784564
 20
11.05893417519145
 30
0.0
 11
-21.63782378456401
 21
10.99689849779675
 31
0.0
  0
LINE
  5
F107D3
330
261
100
AcDbEntity
  8
Geo
100
AcDbLine
 10
-21.737823784564
 20
10.63078397080235
 30
0.0
 11
-21.63782378456401
 21
10.56563214384675
 31
0.0
  0
LINE
  5
F107D5
330
261
100
AcDbEntity
  8
Geo
100
AcDbLine
 10
-21.63782378456401
 20
6.838980482056349
 30
0.0
 11
-21.53782378456401
 21
6.819176561895055
 31
0.0
  0
LINE
  5
F107D7
330
261
100
AcDbEntity
  8
Geo
100
AcDbLine
 10
-21.63782378456401
 20
6.788597003671149
 30
0.0
 11
-21.53782378456401
 21
6.780328951368552
 31
0.0
  0
LINE
  5
F107D9
330
261
100
AcDbEntity
  8
Geo
100
AcDbLine
 10
-21.63782378456401
 20
10.99689849779675
 30
0.0
 11
-21.53782378456401
 21
10.93415594122886
 31
0.0
  0
LINE
  5
F107DB
330
261
100
AcDbEntity
  8
Geo
100
AcDbLine
 10
-21.63782378456401
 20
10.56563214384675
 30
0.0
 11
-21.53782378456401
 21
10.50000836687235
 31
0.0
  0
LINE
  5
F107DD
330
261
100
AcDbEntity
  8
Geo
100
AcDbLine
 10
-21.53782378456401
 20
6.819176561895055
 30
0.0
 11
-21.437823784564
 21
6.801284129051957
 31
0.0
  0
LINE
  5
F107DF
330
261
100
AcDbEntity
  8
Geo
100
AcDbLine
 10
-21.53782378456401
 20
6.780328951368552
 30
0.0
 11
-21.437823784564
 21
6.773998169222153
 31
0.0
  0
LINE
  5
F107E1
330
261
100
AcDbEntity
  8
Geo
100
AcDbLine
 10
-21.53782378456401
 20
10.93415594122886
 30
0.0
 11
-21.437823784564
 21
10.87074068403095
 31
0.0
  0
LINE
  5
F107E3
330
261
100
AcDbEntity
  8
Geo
100
AcDbLine
 10
-21.53782378456401
 20
10.50000836687235
 30
0.0
 11
-21.437823784564
 21
10.43394838794605
 31
0.0
  0
LINE
  5
F107E5
330
261
100
AcDbEntity
  8
Geo
100
AcDbLine
 10
-21.437823784564
 20
6.801284129051957
 30
0.0
 11
-21.33782378456401
 21
6.785315058586853
 31
0.0
  0
LINE
  5
F107E7
330
261
100
AcDbEntity
  8
Geo
100
AcDbLine
 10
-21.437823784564
 20
6.773998169222153
 30
0.0
 11
-21.33782378456401
 21
6.769608858919653
 31
0.0
  0
LINE
  5
F107E9
330
261
100
AcDbEntity
  8
Geo
100
AcDbLine
 10
-21.437823784564
 20
10.87074068403095
 30
0.0
 11
-21.33782378456401
 21
10.80668727119505
 31
0.0
  0
LINE
  5
F107EB
330
261
100
AcDbEntity
  8
Geo
100
AcDbLine
 10
-21.437823784564
 20
10.43394838794605
 30
0.0
 11
-21.33782378456401
 21
10.36748819275236
 31
0.0
  0
LINE
  5
F107ED
330
261
100
AcDbEntity
  8
Geo
100
AcDbLine
 10
-21.33782378456401
 20
6.785315058586853
 30
0.0
 11
-21.237823784564
 21
6.771279949039758
 31
0.0
  0
LINE
  5
F107EF
330
261
100
AcDbEntity
  8
Geo
100
AcDbLine
 10
-21.33782378456401
 20
6.769608858919653
 30
0.0
 11
-21.237823784564
 21
6.767163933610156
 31
0.0
  0
LINE
  5
F107F1
330
261
100
AcDbEntity
  8
Geo
100
AcDbLine
 10
-21.33782378456401
 20
10.80668727119505
 30
0.0
 11
-21.237823784564
 21
10.74203059534385
 31
0.0
  0
LINE
  5
F107F3
330
261
100
AcDbEntity
  8
Geo
100
AcDbLine
 10
-21.33782378456401
 20
10.36748819275236
 30
0.0
 11
-21.237823784564
 21
10.30066398499075
 31
0.0
  0
LINE
  5
F107F5
330
261
100
AcDbEntity
  8
Geo
100
AcDbLine
 10
-21.237823784564
 20
6.771279949039758
 30
0.0
 11
-21.137823784564
 21
6.759188115396852
 31
0.0
  0
LINE
  5
F107F7
330
261
100
AcDbEntity
  8
Geo
100
AcDbLine
 10
-21.237823784564
 20
10.74203059534385
 30
0.0
 11
-21.137823784564
 21
10.67680587772285
 31
0.0
  0
LINE
  5
F107F9
330
261
100
AcDbEntity
  8
Geo
100
AcDbLine
 10
-21.237823784564
 20
10.30066398499075
 30
0.0
 11
-21.137823784564
 21
10.23351216665386
 31
0.0
  0
LINE
  5
F107FB
330
261
100
AcDbEntity
  8
Geo
100
AcDbLine
 10
-21.137823784564
 20
6.759188115396852
 30
0.0
 11
-21.03782378456401
 21
6.749047582908254
 31
0.0
  0
LINE
  5
F107FD
330
261
100
AcDbEntity
  8
Geo
100
AcDbLine
 10
-21.137823784564
 20
12.63185422975015
 30
0.0
 11
-21.03782378456401
 21
12.63040680859295
 31
0.0
  0
LINE
  5
F107FF
330
261
100
AcDbEntity
  8
Geo
100
AcDbLine
 10
-21.137823784564
 20
10.67680587772285
 30
0.0
 11
-21.03782378456401
 21
10.61104864901436
 31
0.0
  0
LINE
  5
F10801
330
261
100
AcDbEntity
  8
Geo
100
AcDbLine
 10
-21.137823784564
 20
10.23351216665386
 30
0.0
 11
-21.03782378456401
 21
10.16606931819775
 31
0.0
  0
LINE
  5
F10803
330
261
100
AcDbEntity
  8
Geo
100
AcDbLine
 10
-21.03782378456401
 20
6.749047582908254
 30
0.0
 11
-20.937823784564
 21
6.740865081761356
 31
0.0
  0
LINE
  5
F10805
330
261
100
AcDbEntity
  8
Geo
100
AcDbLine
 10
-21.03782378456401
 20
12.63040680859295
 30
0.0
 11
-20.937823784564
 21
12.62701400928005
 31
0.0
  0
LINE
  5
F10807
330
261
100
AcDbEntity
  8
Geo
100
AcDbLine
 10
-21.03782378456401
 20
10.61104864901436
 30
0.0
 11
-20.937823784564
 21
10.54479472998195
 31
0.0
  0
LINE
  5
F10809
330
261
100
AcDbEntity
  8
Geo
100
AcDbLine
 10
-21.03782378456401
 20
10.16606931819775
 30
0.0
 11
-20.937823784564
 21
10.09837217861495
 31
0.0
  0
LINE
  5
F1080B
330
261
100
AcDbEntity
  8
Geo
100
AcDbLine
 10
-20.937823784564
 20
6.740865081761356
 30
0.0
 11
-20.83782378456401
 21
6.734646042614755
 31
0.0
  0
LINE
  5
F1080D
330
261
100
AcDbEntity
  8
Geo
100
AcDbLine
 10
-20.937823784564
 20
12.62701400928005
 30
0.0
 11
-20.83782378456401
 21
12.62167808358436
 31
0.0
  0
LINE
  5
F1080F
330
261
100
AcDbEntity
  8
Geo
100
AcDbLine
 10
-20.937823784564
 20
10.54479472998195
 30
0.0
 11
-20.83782378456401
 21
10.47808021195786
 31
0.0
  0
LINE
  5
F10811
330
261
100
AcDbEntity
  8
Geo
100
AcDbLine
 10
-20.937823784564
 20
10.09837217861495
 30
0.0
 11
-20.83782378456401
 21
10.03045762542125
 31
0.0
  0
LINE
  5
F10813
330
261
100
AcDbEntity
  8
Geo
100
AcDbLine
 10
-20.83782378456401
 20
6.734646042614755
 30
0.0
 11
-20.737823784564
 21
6.730394592993157
 31
0.0
  0
LINE
  5
F10815
330
261
100
AcDbEntity
  8
Geo
100
AcDbLine
 10
-20.83782378456401
 20
12.62167808358436
 30
0.0
 11
-20.737823784564
 21
12.61440257291566
 31
0.0
  0
LINE
  5
F10817
330
261
100
AcDbEntity
  8
Geo
100
AcDbLine
 10
-20.83782378456401
 20
10.47808021195786
 30
0.0
 11
-20.737823784564
 21
10.41094143718175
 31
0.0
  0
LINE
  5
F10819
330
261
100
AcDbEntity
  8
Geo
100
AcDbLine
 10
-20.83782378456401
 20
10.03045762542125
 30
0.0
 11
-20.737823784564
 21
9.962362654566859
 31
0.0
  0
LINE
  5
F1081B
330
261
100
AcDbEntity
  8
Geo
100
AcDbLine
 10
-20.737823784564
 20
6.730394592993157
 30
0.0
 11
-20.63782378456401
 21
6.728113554548549
 31
0.0
  0
LINE
  5
F1081D
330
261
100
AcDbEntity
  8
Geo
100
AcDbLine
 10
-20.737823784564
 20
12.61440257291566
 30
0.0
 11
-20.63782378456401
 21
12.60519230597015
 31
0.0
  0
LINE
  5
F1081F
330
261
100
AcDbEntity
  8
Geo
100
AcDbLine
 10
-20.737823784564
 20
10.41094143718175
 30
0.0
 11
-20.63782378456401
 21
10.34341497900455
 31
0.0
  0
LINE
  5
F10821
330
261
100
AcDbEntity
  8
Geo
100
AcDbLine
 10
-20.737823784564
 20
9.962362654566859
 30
0.0
 11
-20.63782378456401
 21
9.89412436028315
 31
0.0
  0
LINE
  5
F10823
330
261
100
AcDbEntity
  8
Geo
100
AcDbLine
 10
-20.63782378456401
 20
12.60519230597015
 30
0.0
 11
-20.53782378456401
 21
12.59405339552595
 31
0.0
  0
LINE
  5
F10825
330
261
100
AcDbEntity
  8
Geo
100
AcDbLine
 10
-20.63782378456401
 20
10.34341497900455
 30
0.0
 11
-20.53782378456401
 21
10.27553762196435
 31
0.0
  0
LINE
  5
F10827
330
261
100
AcDbEntity
  8
Geo
100
AcDbLine
 10
-20.63782378456401
 20
9.89412436028315
 30
0.0
 11
-20.53782378456401
 21
9.825779914875859
 31
0.0
  0
LINE
  5
F10829
330
261
100
AcDbEntity
  8
Geo
100
AcDbLine
 10
-20.53782378456401
 20
12.67071480453305
 30
0.0
 11
-20.437823784564
 21
12.66905178765486
 31
0.0
  0
LINE
  5
F1082B
330
261
100
AcDbEntity
  8
Geo
100
AcDbLine
 10
-20.53782378456401
 20
12.59405339552595
 30
0.0
 11
-20.437823784564
 21
12.58099323438576
 31
0.0
  0
LINE
  5
F1082D
330
261
100
AcDbEntity
  8
Geo
100
AcDbLine
 10
-20.53782378456401
 20
10.27553762196435
 30
0.0
 11
-20.437823784564
 21
10.20734634174925
 31
0.0
  0
LINE
  5
F1082F
330
261
100
AcDbEntity
  8
Geo
100
AcDbLine
 10
-20.53782378456401
 20
9.825779914875859
 30
0.0
 11
-20.437823784564
 21
9.75736654847595
 31
0.0
  0
LINE
  5
F10831
330
261
100
AcDbEntity
  8
Geo
100
AcDbLine
 10
-20.437823784564
 20
12.66905178765486
 30
0.0
 11
-20.33782378456401
 21
12.66541774426795
 31
0.0
  0
LINE
  5
F10833
330
261
100
AcDbEntity
  8
Geo
100
AcDbLine
 10
-20.437823784564
 20
12.58099323438576
 30
0.0
 11
-20.33782378456401
 21
12.56602049047065
 31
0.0
  0
LINE
  5
F10835
330
261
100
AcDbEntity
  8
Geo
100
AcDbLine
 10
-20.437823784564
 20
10.20734634174925
 30
0.0
 11
-20.33782378456401
 21
10.13887828505445
 31
0.0
  0
LINE
  5
F10837
330
261
100
AcDbEntity
  8
Geo
100
AcDbLine
 10
-20.437823784564
 20
9.75736654847595
 30
0.0
 11
-20.33782378456401
 21
9.688921528758356
 31
0.0
  0
LINE
  5
F10839
330
261
100
AcDbEntity
  8
Geo
100
AcDbLine
 10
-20.33782378456401
 20
12.66541774426795
 30
0.0
 11
-20.237823784564
 21
12.65981508625676
 31
0.0
  0
LINE
  5
F1083B
330
261
100
AcDbEntity
  8
Geo
100
AcDbLine
 10
-20.33782378456401
 20
12.56602049047065
 30
0.0
 11
-20.237823784564
 21
12.54914510106685
 31
0.0
  0
LINE
  5
F1083D
330
261
100
AcDbEntity
  8
Geo
100
AcDbLine
 10
-20.33782378456401
 20
10.13887828505445
 30
0.0
 11
-20.237823784564
 21
10.07017074934695
 31
0.0
  0
LINE
  5
F1083F
330
261
100
AcDbEntity
  8
Geo
100
AcDbLine
 10
-20.33782378456401
 20
9.688921528758356
 30
0.0
 11
-20.237823784564
 21
9.620482140640952
 31
0.0
  0
LINE
  5
F10841
330
261
100
AcDbEntity
  8
Geo
100
AcDbLine
 10
-20.237823784564
 20
12.65981508625676
 30
0.0
 11
-20.13782378456401
 21
12.65224753205915
 31
0.0
  0
LINE
  5
F10843
330
261
100
AcDbEntity
  8
Geo
100
AcDbLine
 10
-20.237823784564
 20
12.54914510106685
 30
0.0
 11
-20.13782378456401
 21
12.53037826623095
 31
0.0
  0
LINE
  5
F10845
330
261
100
AcDbEntity
  8
Geo
100
AcDbLine
 10
-20.237823784564
 20
10.07017074934695
 30
0.0
 11
-20.13782378456401
 21
10.00126116254836
 31
0.0
  0
LINE
  5
F10847
330
261
100
AcDbEntity
  8
Geo
100
AcDbLine
 10
-20.237823784564
 20
9.620482140640952
 30
0.0
 11
-20.13782378456401
 21
9.552085665973955
 31
0.0
  0
LINE
  5
F10849
330
261
100
AcDbEntity
  8
Geo
100
AcDbLine
 10
-20.13782378456401
 20
12.65224753205915
 30
0.0
 11
-20.03782378456401
 21
12.64272010419825
 31
0.0
  0
LINE
  5
F1084B
330
261
100
AcDbEntity
  8
Geo
100
AcDbLine
 10
-20.13782378456401
 20
12.53037826623095
 30
0.0
 11
-20.03782378456401
 21
12.50973244135595
 31
0.0
  0
LINE
  5
F1084D
330
261
100
AcDbEntity
  8
Geo
100
AcDbLine
 10
-20.13782378456401
 20
10.00126116254836
 30
0.0
 11
-20.03782378456401
 21
9.932187062646256
 31
0.0
  0
LINE
  5
F1084F
330
261
100
AcDbEntity
  8
Geo
100
AcDbLine
 10
-20.13782378456401
 20
9.552085665973955
 30
0.0
 11
-20.03782378456401
 21
9.483769363230855
 31
0.0
  0
LINE
  5
F10851
330
261
100
AcDbEntity
  8
Geo
100
AcDbLine
 10
-20.03782378456401
 20
12.64272010419825
 30
0.0
 11
-19.937823784564
 21
12.63123912594916
 31
0.0
  0
LINE
  5
F10853
330
261
100
AcDbEntity
  8
Geo
100
AcDbLine
 10
-20.03782378456401
 20
12.50973244135595
 30
0.0
 11
-19.937823784564
 21
12.48722132890526
 31
0.0
  0
LINE
  5
F10855
330
261
100
AcDbEntity
  8
Geo
100
AcDbLine
 10
-20.03782378456401
 20
9.932187062646256
 30
0.0
 11
-19.937823784564
 21
9.862986077245153
 31
0.0
  0
LINE
  5
F10857
330
261
100
AcDbEntity
  8
Geo
100
AcDbLine
 10
-20.03782378456401
 20
9.483769363230855
 30
0.0
 11
-19.937823784564
 21
9.415570447211756
 31
0.0
  0
LINE
  5
F10859
330
261
100
AcDbEntity
  8
Geo
100
AcDbLine
 10
-19.937823784564
 20
12.63123912594916
 30
0.0
 11
-19.83782378456401
 21
12.61781221714226
 31
0.0
  0
LINE
  5
F1085B
330
261
100
AcDbEntity
  8
Geo
100
AcDbLine
 10
-19.937823784564
 20
12.48722132890526
 30
0.0
 11
-19.83782378456401
 21
12.46285986931805
 31
0.0
  0
LINE
  5
F1085D
330
261
100
AcDbEntity
  8
Geo
100
AcDbLine
 10
-19.937823784564
 20
9.862986077245153
 30
0.0
 11
-19.83782378456401
 21
9.793695903069753
 31
0.0
  0
LINE
  5
F1085F
330
261
100
AcDbEntity
  8
Geo
100
AcDbLine
 10
-19.937823784564
 20
9.415570447211756
 30
0.0
 11
-19.83782378456401
 21
9.34752606877145
 31
0.0
  0
LINE
  5
F10861
330
261
100
AcDbEntity
  8
Geo
100
AcDbLine
 10
-19.83782378456401
 20
12.61781221714226
 30
0.0
 11
-19.737823784564
 21
12.60244828910586
 31
0.0
  0
LINE
  5
F10863
330
261
100
AcDbEntity
  8
Geo
100
AcDbLine
 10
-19.83782378456401
 20
12.46285986931805
 30
0.0
 11
-19.737823784564
 21
12.43666423109376
 31
0.0
  0
LINE
  5
F10865
330
261
100
AcDbEntity
  8
Geo
100
AcDbLine
 10
-19.83782378456401
 20
9.793695903069753
 30
0.0
 11
-19.737823784564
 21
9.724354285429548
 31
0.0
  0
LINE
  5
F10867
330
261
100
AcDbEntity
  8
Geo
100
AcDbLine
 10
-19.83782378456401
 20
9.34752606877145
 30
0.0
 11
-19.737823784564
 21
9.279673294581655
 31
0.0
  0
LINE
  5
F10869
330
261
100
AcDbEntity
  8
Geo
100
AcDbLine
 10
-19.737823784564
 20
12.60244828910586
 30
0.0
 11
-19.637823784564
 21
12.58515753875205
 31
0.0
  0
LINE
  5
F1086B
330
261
100
AcDbEntity
  8
Geo
100
AcDbLine
 10
-19.737823784564
 20
12.43666423109376
 30
0.0
 11
-19.637823784564
 21
12.40865180006065
 31
0.0
  0
LINE
  5
F1086D
330
261
100
AcDbEntity
  8
Geo
100
AcDbLine
 10
-19.737823784564
 20
9.724354285429548
 30
0.0
 11
-19.637823784564
 21
9.654998997657756
 31
0.0
  0
LINE
  5
F1086F
330
261
100
AcDbEntity
  8
Geo
100
AcDbLine
 10
-19.737823784564
 20
9.279673294581655
 30
0.0
 11
-19.637823784564
 21
9.212049086938854
 31
0.0
  0
LINE
  5
F10871
330
261
100
AcDbEntity
  8
Geo
100
AcDbLine
 10
-19.637823784564
 20
12.58515753875205
 30
0.0
 11
-19.53782378456401
 21
12.56595144180895
 31
0.0
  0
LINE
  5
F10873
330
261
100
AcDbEntity
  8
Geo
100
AcDbLine
 10
-19.637823784564
 20
12.40865180006065
 30
0.0
 11
-19.53782378456401
 21
12.37884116783795
 31
0.0
  0
LINE
  5
F10875
330
261
100
AcDbEntity
  8
Geo
100
AcDbLine
 10
-19.637823784564
 20
9.654998997657756
 30
0.0
 11
-19.53782378456401
 21
9.585667820533949
 31
0.0
  0
LINE
  5
F10877
330
261
100
AcDbEntity
  8
Geo
100
AcDbLine
 10
-19.637823784564
 20
9.212049086938854
 30
0.0
 11
-19.53782378456401
 21
9.14469028362955
 31
0.0
  0
LINE
  5
F10879
330
261
100
AcDbEntity
  8
Geo
100
AcDbLine
 10
-19.53782378456401
 20
12.56595144180895
 30
0.0
 11
-19.437823784564
 21
12.54484274520425
 31
0.0
  0
LINE
  5
F1087B
330
261
100
AcDbEntity
  8
Geo
100
AcDbLine
 10
-19.53782378456401
 20
12.37884116783795
 30
0.0
 11
-19.437823784564
 21
12.34725211949565
 31
0.0
  0
LINE
  5
F1087D
330
261
100
AcDbEntity
  8
Geo
100
AcDbLine
 10
-19.53782378456401
 20
9.585667820533949
 30
0.0
 11
-19.437823784564
 21
9.516398521703756
 31
0.0
  0
LINE
  5
F1087F
330
261
100
AcDbEntity
  8
Geo
100
AcDbLine
 10
-19.53782378456401
 20
9.14469028362955
 30
0.0
 11
-19.437823784564
 21
9.077633577863551
 31
0.0
  0
LINE
  5
F10881
330
261
100
AcDbEntity
  8
Geo
100
AcDbLine
 10
-19.437823784564
 20
12.54484274520425
 30
0.0
 11
-19.33782378456401
 21
12.52184545860535
 31
0.0
  0
LINE
  5
F10883
330
261
100
AcDbEntity
  8
Geo
100
AcDbLine
 10
-19.437823784564
 20
12.34725211949565
 30
0.0
 11
-19.33782378456401
 21
12.31390562042395
 31
0.0
  0
LINE
  5
F10885
330
261
100
AcDbEntity
  8
Geo
100
AcDbLine
 10
-19.437823784564
 20
9.516398521703756
 30
0.0
 11
-19.33782378456401
 21
9.44722883510505
 31
0.0
  0
LINE
  5
F10887
330
261
100
AcDbEntity
  8
Geo
100
AcDbLine
 10
-19.437823784564
 20
9.077633577863551
 30
0.0
 11
-19.33782378456401
 21
9.010915498284859
 31
0.0
  0
LINE
  5
F10889
330
261
100
AcDbEntity
  8
Geo
100
AcDbLine
 10
-19.33782378456401
 20
12.52184545860535
 30
0.0
 11
-19.237823784564
 21
12.49697484512136
 31
0.0
  0
LINE
  5
F1088B
330
261
100
AcDbEntity
  8
Geo
100
AcDbLine
 10
-19.33782378456401
 20
12.31390562042395
 30
0.0
 11
-19.237823784564
 21
12.27882380241875
 31
0.0
  0
LINE
  5
F1088D
330
261
100
AcDbEntity
  8
Geo
100
AcDbLine
 10
-19.33782378456401
 20
9.44722883510505
 30
0.0
 11
-19.237823784564
 21
9.378196440412757
 31
0.0
  0
LINE
  5
F1088F
330
261
100
AcDbEntity
  8
Geo
100
AcDbLine
 10
-19.33782378456401
 20
9.010915498284859
 30
0.0
 11
-19.237823784564
 21
8.944572389073549
 31
0.0
  0
LINE
  5
F10891
330
261
100
AcDbEntity
  8
Geo
100
AcDbLine
 10
-19.237823784564
 20
12.49697484512136
 30
0.0
 11
-19.137823784564
 21
12.47024741117275
 31
0.0
  0
LINE
  5
F10893
330
261
100
AcDbEntity
  8
Geo
100
AcDbLine
 10
-19.237823784564
 20
12.27882380241875
 30
0.0
 11
-19.137823784564
 21
12.24202994899255
 31
0.0
  0
LINE
  5
F10895
330
261
100
AcDbEntity
  8
Geo
100
AcDbLine
 10
-19.237823784564
 20
9.378196440412757
 30
0.0
 11
-19.137823784564
 21
9.309338942512859
 31
0.0
  0
LINE
  5
F10897
330
261
100
AcDbEntity
  8
Geo
100
AcDbLine
 10
-19.237823784564
 20
8.944572389073549
 30
0.0
 11
-19.137823784564
 21
8.878640390147552
 31
0.0
  0
LINE
  5
F10899
330
261
100
AcDbEntity
  8
Geo
100
AcDbLine
 10
-19.137823784564
 20
12.47024741117275
 30
0.0
 11
-19.03782378456401
 21
12.44168089553645
 31
0.0
  0
LINE
  5
F1089B
330
261
100
AcDbEntity
  8
Geo
100
AcDbLine
 10
-19.137823784564
 20
12.24202994899255
 30
0.0
 11
-19.03782378456401
 21
12.20354847992165
 31
0.0
  0
LINE
  5
F1089D
330
261
100
AcDbEntity
  8
Geo
100
AcDbLine
 10
-19.137823784564
 20
9.309338942512859
 30
0.0
 11
-19.03782378456401
 21
9.240693851017752
 31
0.0
  0
LINE
  5
F1089F
330
261
100
AcDbEntity
  8
Geo
100
AcDbLine
 10
-19.137823784564
 20
8.878640390147552
 30
0.0
 11
-19.03782378456401
 21
8.813155417475051
 31
0.0
  0
LINE
  5
F108A1
330
261
100
AcDbEntity
  8
Geo
100
AcDbLine
 10
-19.03782378456401
 20
12.44168089553645
 30
0.0
 11
-18.937823784564
 21
12.41129425757285
 31
0.0
  0
LINE
  5
F108A3
330
261
100
AcDbEntity
  8
Geo
100
AcDbLine
 10
-19.03782378456401
 20
12.20354847992165
 30
0.0
 11
-18.937823784564
 21
12.16340493503915
 31
0.0
  0
LINE
  5
F108A5
330
261
100
AcDbEntity
  8
Geo
100
AcDbLine
 10
-19.03782378456401
 20
9.240693851017752
 30
0.0
 11
-18.937823784564
 21
9.172298559833052
 31
0.0
  0
LINE
  5
F108A7
330
261
100
AcDbEntity
  8
Geo
100
AcDbLine
 10
-19.03782378456401
 20
8.813155417475051
 30
0.0
 11
-18.937823784564
 21
8.74815314351045
 31
0.0
  0
LINE
  5
F108A9
330
261
100
AcDbEntity
  8
Geo
100
AcDbLine
 10
-18.937823784564
 20
12.41129425757285
 30
0.0
 11
-18.83782378456401
 21
12.37910766464235
 31
0.0
  0
LINE
  5
F108AB
330
261
100
AcDbEntity
  8
Geo
100
AcDbLine
 10
-18.937823784564
 20
12.16340493503915
 30
0.0
 11
-18.83782378456401
 21
12.12162595728365
 31
0.0
  0
LINE
  5
F108AD
330
261
100
AcDbEntity
  8
Geo
100
AcDbLine
 10
-18.937823784564
 20
9.172298559833052
 30
0.0
 11
-18.83782378456401
 21
9.104190326787453
 31
0.0
  0
LINE
  5
F108AF
330
261
100
AcDbEntity
  8
Geo
100
AcDbLine
 10
-18.937823784564
 20
8.74815314351045
 30
0.0
 11
-18.83782378456401
 21
8.68366897776135
 31
0.0
  0
LINE
  5
F108B1
330
261
100
AcDbEntity
  8
Geo
100
AcDbLine
 10
-18.83782378456401
 20
12.37910766464235
 30
0.0
 11
-18.737823784564
 21
12.34514247872045
 31
0.0
  0
LINE
  5
F108B3
330
261
100
AcDbEntity
  8
Geo
100
AcDbLine
 10
-18.83782378456401
 20
12.12162595728365
 30
0.0
 11
-18.737823784564
 21
12.07823927501755
 31
0.0
  0
LINE
  5
F108B5
330
261
100
AcDbEntity
  8
Geo
100
AcDbLine
 10
-18.83782378456401
 20
9.104190326787453
 30
0.0
 11
-18.737823784564
 21
9.036406253336757
 31
0.0
  0
LINE
  5
F108B7
330
261
100
AcDbEntity
  8
Geo
100
AcDbLine
 10
-18.83782378456401
 20
8.68366897776135
 30
0.0
 11
-18.737823784564
 21
8.619738047499751
 31
0.0
  0
LINE
  5
F108B9
330
261
100
AcDbEntity
  8
Geo
100
AcDbLine
 10
-18.737823784564
 20
12.34514247872045
 30
0.0
 11
-18.637823784564
 21
12.30942124222045
 31
0.0
  0
LINE
  5
F108BB
330
261
100
AcDbEntity
  8
Geo
100
AcDbLine
 10
-18.737823784564
 20
12.07823927501755
 30
0.0
 11
-18.637823784564
 21
12.03327368362315
 31
0.0
  0
LINE
  5
F108BD
330
261
100
AcDbEntity
  8
Geo
100
AcDbLine
 10
-18.737823784564
 20
9.036406253336757
 30
0.0
 11
-18.637823784564
 21
8.968983264353255
 31
0.0
  0
LINE
  5
F108BF
330
261
100
AcDbEntity
  8
Geo
100
AcDbLine
 10
-18.737823784564
 20
8.619738047499751
 30
0.0
 11
-18.637823784564
 21
8.556395178626857
 31
0.0
  0
LINE
  5
F108C1
330
261
100
AcDbEntity
  8
Geo
100
AcDbLine
 10
-18.637823784564
 20
12.30942124222045
 30
0.0
 11
-18.53782378456401
 21
12.27196766303155
 31
0.0
  0
LINE
  5
F108C3
330
261
100
AcDbEntity
  8
Geo
100
AcDbLine
 10
-18.637823784564
 20
12.03327368362315
 30
0.0
 11
-18.53782378456401
 21
11.98675902639155
 31
0.0
  0
LINE
  5
F108C5
330
261
100
AcDbEntity
  8
Geo
100
AcDbLine
 10
-18.637823784564
 20
8.968983264353255
 30
0.0
 11
-18.53782378456401
 21
8.901958088011355
 31
0.0
  0
LINE
  5
F108C7
330
261
100
AcDbEntity
  8
Geo
100
AcDbLine
 10
-18.637823784564
 20
8.556395178626857
 30
0.0
 11
-18.53782378456401
 21
8.493674876701653
 31
0.0
  0
LINE
  5
F108C9
330
261
100
AcDbEntity
  8
Geo
100
AcDbLine
 10
-18.53782378456401
 20
12.27196766303155
 30
0.0
 11
-18.437823784564
 21
12.23280659878475
 31
0.0
  0
LINE
  5
F108CB
330
261
100
AcDbEntity
  8
Geo
100
AcDbLine
 10
-18.53782378456401
 20
11.98675902639155
 30
0.0
 11
-18.437823784564
 21
11.93872617471645
 31
0.0
  0
LINE
  5
F108CD
330
261
100
AcDbEntity
  8
Geo
100
AcDbLine
 10
-18.53782378456401
 20
8.901958088011355
 30
0.0
 11
-18.437823784564
 21
8.835367235779756
 31
0.0
  0
LINE
  5
F108CF
330
261
100
AcDbEntity
  8
Geo
100
AcDbLine
 10
-18.53782378456401
 20
8.493674876701653
 30
0.0
 11
-18.437823784564
 21
8.431611308144354
 31
0.0
  0
LINE
  5
F108D1
330
261
100
AcDbEntity
  8
Geo
100
AcDbLine
 10
-18.437823784564
 20
12.23280659878475
 30
0.0
 11
-18.33782378456401
 21
12.19196404035465
 31
0.0
  0
LINE
  5
F108D3
330
261
100
AcDbEntity
  8
Geo
100
AcDbLine
 10
-18.437823784564
 20
11.93872617471645
 30
0.0
 11
-18.33782378456401
 21
11.88920700760425
 31
0.0
  0
LINE
  5
F108D5
330
261
100
AcDbEntity
  8
Geo
100
AcDbLine
 10
-18.437823784564
 20
8.835367235779756
 30
0.0
 11
-18.33782378456401
 21
8.769246982532358
 31
0.0
  0
LINE
  5
F108D7
330
261
100
AcDbEntity
  8
Geo
100
AcDbLine
 10
-18.437823784564
 20
8.431611308144354
 30
0.0
 11
-18.33782378456401
 21
8.370238281624651
 31
0.0
  0
LINE
  5
F108D9
330
261
100
AcDbEntity
  8
Geo
100
AcDbLine
 10
-18.33782378456401
 20
12.19196404035465
 30
0.0
 11
-18.237823784564
 21
12.14946709460955
 31
0.0
  0
LINE
  5
F108DB
330
261
100
AcDbEntity
  8
Geo
100
AcDbLine
 10
-18.33782378456401
 20
11.88920700760425
 30
0.0
 11
-18.237823784564
 21
11.83823439051685
 31
0.0
  0
LINE
  5
F108DD
330
261
100
AcDbEntity
  8
Geo
100
AcDbLine
 10
-18.33782378456401
 20
8.769246982532358
 30
0.0
 11
-18.237823784564
 21
8.703633346787754
 31
0.0
  0
LINE
  5
F108DF
330
261
100
AcDbEntity
  8
Geo
100
AcDbLine
 10
-18.33782378456401
 20
8.370238281624651
 30
0.0
 11
-18.237823784564
 21
8.309589229644451
 31
0.0
  0
LINE
  5
F108E1
330
261
100
AcDbEntity
  8
Geo
100
AcDbLine
 10
-18.237823784564
 20
12.14946709460955
 30
0.0
 11
-18.137823784564
 21
12.10534396642105
 31
0.0
  0
LINE
  5
F108E3
330
261
100
AcDbEntity
  8
Geo
100
AcDbLine
 10
-18.237823784564
 20
11.83823439051685
 30
0.0
 11
-18.137823784564
 21
11.78584215355895
 31
0.0
  0
LINE
  5
F108E5
330
261
100
AcDbEntity
  8
Geo
100
AcDbLine
 10
-18.237823784564
 20
8.703633346787754
 30
0.0
 11
-18.137823784564
 21
8.63856207108845
 31
0.0
  0
LINE
  5
F108E7
330
261
100
AcDbEntity
  8
Geo
100
AcDbLine
 10
-18.237823784564
 20
8.309589229644451
 30
0.0
 11
-18.137823784564
 21
8.249697190326152
 31
0.0
  0
LINE
  5
F108E9
330
261
100
AcDbEntity
  8
Geo
100
AcDbLine
 10
-18.137823784564
 20
12.10534396642105
 30
0.0
 11
-18.03782378456401
 21
12.05962393994455
 31
0.0
  0
LINE
  5
F108EB
330
261
100
AcDbEntity
  8
Geo
100
AcDbLine
 10
-18.137823784564
 20
11.78584215355895
 30
0.0
 11
-18.03782378456401
 21
11.73206506902495
 31
0.0
  0
LINE
  5
F108ED
330
261
100
AcDbEntity
  8
Geo
100
AcDbLine
 10
-18.137823784564
 20
8.63856207108845
 30
0.0
 11
-18.03782378456401
 21
8.57406860253026
 31
0.0
  0
LINE
  5
F108EF
330
261
100
AcDbEntity
  8
Geo
100
AcDbLine
 10
-18.137823784564
 20
8.249697190326152
 30
0.0
 11
-18.03782378456401
 21
8.190594789414753
 31
0.0
  0
LINE
  5
F108F1
330
261
100
AcDbEntity
  8
Geo
100
AcDbLine
 10
-18.03782378456401
 20
12.05962393994455
 30
0.0
 11
-17.937823784564
 21
12.01233735918376
 31
0.0
  0
LINE
  5
F108F3
330
261
100
AcDbEntity
  8
Geo
100
AcDbLine
 10
-18.03782378456401
 20
11.73206506902495
 30
0.0
 11
-17.937823784564
 21
11.67693882832125
 31
0.0
  0
LINE
  5
F108F5
330
261
100
AcDbEntity
  8
Geo
100
AcDbLine
 10
-18.03782378456401
 20
8.57406860253026
 30
0.0
 11
-17.937823784564
 21
8.510188073452852
 31
0.0
  0
LINE
  5
F108F7
330
261
100
AcDbEntity
  8
Geo
100
AcDbLine
 10
-18.03782378456401
 20
8.190594789414753
 30
0.0
 11
-17.937823784564
 21
8.132314222505655
 31
0.0
  0
LINE
  5
F108F9
330
261
100
AcDbEntity
  8
Geo
100
AcDbLine
 10
-17.937823784564
 20
12.01233735918376
 30
0.0
 11
-17.83782378456401
 21
11.96351560785136
 31
0.0
  0
LINE
  5
F108FB
330
261
100
AcDbEntity
  8
Geo
100
AcDbLine
 10
-17.937823784564
 20
11.67693882832125
 30
0.0
 11
-17.83782378456401
 21
11.62050001827825
 31
0.0
  0
LINE
  5
F108FD
330
261
100
AcDbEntity
  8
Geo
100
AcDbLine
 10
-17.937823784564
 20
8.510188073452852
 30
0.0
 11
-17.83782378456401
 21
8.446955282301757
 31
0.0
  0
LINE
  5
F108FF
330
261
100
AcDbEntity
  8
Geo
100
AcDbLine
 10
-17.937823784564
 20
8.132314222505655
 30
0.0
 11
-17.83782378456401
 21
8.074887237506551
 31
0.0
  0
LINE
  5
F10901
330
261
100
AcDbEntity
  8
Geo
100
AcDbLine
 10
-17.83782378456401
 20
11.96351560785136
 30
0.0
 11
-17.737823784564
 21
11.91319108854005
 31
0.0
  0
LINE
  5
F10903
330
261
100
AcDbEntity
  8
Geo
100
AcDbLine
 10
-17.83782378456401
 20
11.62050001827825
 30
0.0
 11
-17.737823784564
 21
11.56278609686745
 31
0.0
  0
LINE
  5
F10905
330
261
100
AcDbEntity
  8
Geo
100
AcDbLine
 10
-17.83782378456401
 20
8.446955282301757
 30
0.0
 11
-17.737823784564
 21
8.384404674671756
 31
0.0
  0
LINE
  5
F10907
330
261
100
AcDbEntity
  8
Geo
100
AcDbLine
 10
-17.83782378456401
 20
8.074887237506551
 30
0.0
 11
-17.737823784564
 21
8.018345117342455
 31
0.0
  0
LINE
  5
F10909
330
261
100
AcDbEntity
  8
Geo
100
AcDbLine
 10
-17.737823784564
 20
11.91319108854005
 30
0.0
 11
-17.637823784564
 21
11.86139720121736
 31
0.0
  0
LINE
  5
F1090B
330
261
100
AcDbEntity
  8
Geo
100
AcDbLine
 10
-17.737823784564
 20
11.56278609686745
 30
0.0
 11
-17.637823784564
 21
11.50383536834155
 31
0.0
  0
LINE
  5
F1090D
330
261
100
AcDbEntity
  8
Geo
100
AcDbLine
 10
-17.737823784564
 20
8.384404674671756
 30
0.0
 11
-17.637823784564
 21
8.322570324543654
 31
0.0
  0
LINE
  5
F1090F
330
261
100
AcDbEntity
  8
Geo
100
AcDbLine
 10
-17.737823784564
 20
8.018345117342455
 30
0.0
 11
-17.637823784564
 21
7.962718662914753
 31
0.0
  0
LINE
  5
F10911
330
261
100
AcDbEntity
  8
Geo
100
AcDbLine
 10
-17.637823784564
 20
11.86139720121736
 30
0.0
 11
-17.53782378456401
 21
11.80816832105805
 31
0.0
  0
LINE
  5
F10913
330
261
100
AcDbEntity
  8
Geo
100
AcDbLine
 10
-17.637823784564
 20
11.50383536834155
 30
0.0
 11
-17.53782378456401
 21
11.44368695781145
 31
0.0
  0
LINE
  5
F10915
330
261
100
AcDbEntity
  8
Geo
100
AcDbLine
 10
-17.637823784564
 20
8.322570324543654
 30
0.0
 11
-17.53782378456401
 21
8.261485915721955
 31
0.0
  0
LINE
  5
F10917
330
261
100
AcDbEntity
  8
Geo
100
AcDbLine
 10
-17.637823784564
 20
7.962718662914753
 30
0.0
 11
-17.53782378456401
 21
7.908038176322854
 31
0.0
  0
LINE
  5
F10919
330
261
100
AcDbEntity
  8
Geo
100
AcDbLine
 10
-17.53782378456401
 20
11.80816832105805
 30
0.0
 11
-17.437823784564
 21
11.75353977562985
 31
0.0
  0
LINE
  5
F1091B
330
261
100
AcDbEntity
  8
Geo
100
AcDbLine
 10
-17.53782378456401
 20
11.44368695781145
 30
0.0
 11
-17.437823784564
 21
11.38238078528025
 31
0.0
  0
LINE
  5
F1091D
330
261
100
AcDbEntity
  8
Geo
100
AcDbLine
 10
-17.53782378456401
 20
8.261485915721955
 30
0.0
 11
-17.437823784564
 21
8.201184723486257
 31
0.0
  0
LINE
  5
F1091F
330
261
100
AcDbEntity
  8
Geo
100
AcDbLine
 10
-17.53782378456401
 20
7.908038176322854
 30
0.0
 11
-17.437823784564
 21
7.854333444357152
 31
0.0
  0
LINE
  5
F10921
330
261
100
AcDbEntity
  8
Geo
100
AcDbLine
 10
-17.437823784564
 20
11.75353977562985
 30
0.0
 11
-17.33782378456401
 21
11.69754782144686
 31
0.0
  0
LINE
  5
F10923
330
261
100
AcDbEntity
  8
Geo
100
AcDbLine
 10
-17.437823784564
 20
11.38238078528025
 30
0.0
 11
-17.33782378456401
 21
11.31995753914776
 31
0.0
  0
LINE
  5
F10925
330
261
100
AcDbEntity
  8
Geo
100
AcDbLine
 10
-17.437823784564
 20
8.201184723486257
 30
0.0
 11
-17.33782378456401
 21
8.141699596464654
 31
0.0
  0
LINE
  5
F10927
330
261
100
AcDbEntity
  8
Geo
100
AcDbLine
 10
-17.437823784564
 20
7.854333444357152
 30
0.0
 11
-17.33782378456401
 21
7.801633722272853
 31
0.0
  0
LINE
  5
F10929
330
261
100
AcDbEntity
  8
Geo
100
AcDbLine
 10
-17.33782378456401
 20
11.69754782144686
 30
0.0
 11
-17.237823784564
 21
11.64022961990605
 31
0.0
  0
LINE
  5
F1092B
330
261
100
AcDbEntity
  8
Geo
100
AcDbLine
 10
-17.33782378456401
 20
11.31995753914776
 30
0.0
 11
-17.237823784564
 21
11.25645864920636
 31
0.0
  0
LINE
  5
F1092D
330
261
100
AcDbEntity
  8
Geo
100
AcDbLine
 10
-17.33782378456401
 20
8.141699596464654
 30
0.0
 11
-17.237823784564
 21
8.083062938740049
 31
0.0
  0
LINE
  5
F1092F
330
261
100
AcDbEntity
  8
Geo
100
AcDbLine
 10
-17.33782378456401
 20
7.801633722272853
 30
0.0
 11
-17.237823784564
 21
7.749967717853756
 31
0.0
  0
LINE
  5
F10931
330
261
100
AcDbEntity
  8
Geo
100
AcDbLine
 10
-17.237823784564
 20
11.64022961990605
 30
0.0
 11
-17.137823784564
 21
11.58162321262405
 31
0.0
  0
LINE
  5
F10933
330
261
100
AcDbEntity
  8
Geo
100
AcDbLine
 10
-17.237823784564
 20
11.25645864920636
 30
0.0
 11
-17.137823784564
 21
11.19192625914435
 31
0.0
  0
LINE
  5
F10935
330
261
100
AcDbEntity
  8
Geo
100
AcDbLine
 10
-17.237823784564
 20
8.083062938740049
 30
0.0
 11
-17.137823784564
 21
8.025306692197652
 31
0.0
  0
LINE
  5
F10937
330
261
100
AcDbEntity
  8
Geo
100
AcDbLine
 10
-17.237823784564
 20
7.749967717853756
 30
0.0
 11
-17.137823784564
 21
7.699363575773048
 31
0.0
  0
LINE
  5
F10939
330
261
100
AcDbEntity
  8
Geo
100
AcDbLine
 10
-17.137823784564
 20
11.58162321262405
 30
0.0
 11
-17.03782378456401
 21
11.52176749618876
 31
0.0
  0
LINE
  5
F1093B
330
261
100
AcDbEntity
  8
Geo
100
AcDbLine
 10
-17.137823784564
 20
11.19192625914435
 30
0.0
 11
-17.03782378456401
 21
11.12640319857555
 31
0.0
  0
LINE
  5
F1093D
330
261
100
AcDbEntity
  8
Geo
100
AcDbLine
 10
-17.137823784564
 20
8.025306692197652
 30
0.0
 11
-17.03782378456401
 21
7.96846231912535
 31
0.0
  0
LINE
  5
F1093F
330
261
100
AcDbEntity
  8
Geo
100
AcDbLine
 10
-17.137823784564
 20
7.699363575773048
 30
0.0
 11
-17.03782378456401
 21
7.649848862262956
 31
0.0
  0
LINE
  5
F10941
330
261
100
AcDbEntity
  8
Geo
100
AcDbLine
 10
-17.03782378456401
 20
11.52176749618876
 30
0.0
 11
-16.937823784564
 21
11.46070219634455
 31
0.0
  0
LINE
  5
F10943
330
261
100
AcDbEntity
  8
Geo
100
AcDbLine
 10
-17.03782378456401
 20
11.12640319857555
 30
0.0
 11
-16.937823784564
 21
11.05993295461366
 31
0.0
  0
LINE
  5
F10945
330
261
100
AcDbEntity
  8
Geo
100
AcDbLine
 10
-17.03782378456401
 20
7.96846231912535
 30
0.0
 11
-16.937823784564
 21
7.912560785074653
 31
0.0
  0
LINE
  5
F10947
330
261
100
AcDbEntity
  8
Geo
100
AcDbLine
 10
-17.03782378456401
 20
7.649848862262956
 30
0.0
 11
-16.937823784564
 21
7.601450550096956
 31
0.0
  0
LINE
  5
F10949
330
261
100
AcDbEntity
  8
Geo
100
AcDbLine
 10
-16.937823784564
 20
11.46070219634455
 30
0.0
 11
-16.83782378456401
 21
11.39846784162586
 31
0.0
  0
LINE
  5
F1094B
330
261
100
AcDbEntity
  8
Geo
100
AcDbLine
 10
-16.937823784564
 20
11.05993295461366
 30
0.0
 11
-16.83782378456401
 21
10.99255964300994
 31
0.0
  0
LINE
  5
F1094D
330
261
100
AcDbEntity
  8
Geo
100
AcDbLine
 10
-16.937823784564
 20
7.912560785074653
 30
0.0
 11
-16.83782378456401
 21
7.857632541992458
 31
0.0
  0
LINE
  5
F1094F
330
261
100
AcDbEntity
  8
Geo
100
AcDbLine
 10
-16.937823784564
 20
7.601450550096956
 30
0.0
 11
-16.83782378456401
 21
7.554195003897454
 31
0.0
  0
LINE
  5
F10951
330
261
100
AcDbEntity
  8
Geo
100
AcDbLine
 10
-16.83782378456401
 20
11.39846784162586
 30
0.0
 11
-16.737823784564
 21
11.33510573645965
 31
0.0
  0
LINE
  5
F10953
330
261
100
AcDbEntity
  8
Geo
100
AcDbLine
 10
-16.83782378456401
 20
10.99255964300994
 30
0.0
 11
-16.737823784564
 21
10.92432797887455
 31
0.0
  0
LINE
  5
F10955
330
261
100
AcDbEntity
  8
Geo
100
AcDbLine
 10
-16.83782378456401
 20
7.857632541992458
 30
0.0
 11
-16.737823784564
 21
7.803707511632751
 31
0.0
  0
LINE
  5
F10957
330
261
100
AcDbEntity
  8
Geo
100
AcDbLine
 10
-16.83782378456401
 20
7.554195003897454
 30
0.0
 11
-16.737823784564
 21
7.508107965773554
 31
0.0
  0
LINE
  5
F10959
330
261
100
AcDbEntity
  8
Geo
100
AcDbLine
 10
-16.737823784564
 20
11.33510573645965
 30
0.0
 11
-16.637823784564
 21
11.27065793375115
 31
0.0
  0
LINE
  5
F1095B
330
261
100
AcDbEntity
  8
Geo
100
AcDbLine
 10
-16.737823784564
 20
10.92432797887455
 30
0.0
 11
-16.637823784564
 21
10.85528324699865
 31
0.0
  0
LINE
  5
F1095D
330
261
100
AcDbEntity
  8
Geo
100
AcDbLine
 10
-16.737823784564
 20
7.803707511632751
 30
0.0
 11
-16.637823784564
 21
7.750815069256653
 31
0.0
  0
LINE
  5
F1095F
330
261
100
AcDbEntity
  8
Geo
100
AcDbLine
 10
-16.737823784564
 20
7.508107965773554
 30
0.0
 11
-16.637823784564
 21
7.46321454129815
 31
0.0
  0
LINE
  5
F10961
330
261
100
AcDbEntity
  8
Geo
100
AcDbLine
 10
-16.637823784564
 20
11.27065793375115
 30
0.0
 11
-16.53782378456401
 21
11.20516720697436
 31
0.0
  0
LINE
  5
F10963
330
261
100
AcDbEntity
  8
Geo
100
AcDbLine
 10
-16.637823784564
 20
10.85528324699865
 30
0.0
 11
-16.53782378456401
 21
10.78547127180025
 31
0.0
  0
LINE
  5
F10965
330
261
100
AcDbEntity
  8
Geo
100
AcDbLine
 10
-16.637823784564
 20
7.750815069256653
 30
0.0
 11
-16.53782378456401
 21
7.698984027630757
 31
0.0
  0
LINE
  5
F10967
330
261
100
AcDbEntity
  8
Geo
100
AcDbLine
 10
-16.637823784564
 20
7.46321454129815
 30
0.0
 11
-16.53782378456401
 21
7.419539185832057
 31
0.0
  0
LINE
  5
F10969
330
261
100
AcDbEntity
  8
Geo
100
AcDbLine
 10
-16.53782378456401
 20
11.20516720697436
 30
0.0
 11
-16.437823784564
 21
11.13867702178315
 31
0.0
  0
LINE
  5
F1096B
330
261
100
AcDbEntity
  8
Geo
100
AcDbLine
 10
-16.53782378456401
 20
10.78547127180025
 30
0.0
 11
-16.437823784564
 21
10.71493838691005
 31
0.0
  0
LINE
  5
F1096D
330
261
100
AcDbEntity
  8
Geo
100
AcDbLine
 10
-16.53782378456401
 20
7.698984027630757
 30
0.0
 11
-16.437823784564
 21
7.648242621331256
 31
0.0
  0
LINE
  5
F1096F
330
261
100
AcDbEntity
  8
Geo
100
AcDbLine
 10
-16.53782378456401
 20
7.419539185832057
 30
0.0
 11
-16.437823784564
 21
7.377105691201855
 31
0.0
  0
LINE
  5
F10971
330
261
100
AcDbEntity
  8
Geo
100
AcDbLine
 10
-16.437823784564
 20
11.13867702178315
 30
0.0
 11
-16.33782378456401
 21
11.07123150716376
 31
0.0
  0
LINE
  5
F10973
330
261
100
AcDbEntity
  8
Geo
100
AcDbLine
 10
-16.437823784564
 20
10.71493838691005
 30
0.0
 11
-16.33782378456401
 21
10.64373140442055
 31
0.0
  0
LINE
  5
F10975
330
261
100
AcDbEntity
  8
Geo
100
AcDbLine
 10
-16.437823784564
 20
7.648242621331256
 30
0.0
 11
-16.33782378456401
 21
7.598618491363851
 31
0.0
  0
LINE
  5
F10977
330
261
100
AcDbEntity
  8
Geo
100
AcDbLine
 10
-16.437823784564
 20
7.377105691201855
 30
0.0
 11
-16.33782378456401
 21
7.335937172739548
 31
0.0
  0
LINE
  5
F10979
330
261
100
AcDbEntity
  8
Geo
100
AcDbLine
 10
-16.33782378456401
 20
11.07123150716376
 30
0.0
 11
-16.237823784564
 21
11.00287542614676
 31
0.0
  0
LINE
  5
F1097B
330
261
100
AcDbEntity
  8
Geo
100
AcDbLine
 10
-16.33782378456401
 20
10.64373140442055
 30
0.0
 11
-16.237823784564
 21
10.57189758381755
 31
0.0
  0
LINE
  5
F1097D
330
261
100
AcDbEntity
  8
Geo
100
AcDbLine
 10
-16.33782378456401
 20
7.598618491363851
 30
0.0
 11
-16.237823784564
 21
7.550138670106051
 31
0.0
  0
LINE
  5
F1097F
330
261
100
AcDbEntity
  8
Geo
100
AcDbLine
 10
-16.33782378456401
 20
7.335937172739548
 30
0.0
 11
-16.237823784564
 21
7.296056056691149
 31
0.0
  0
LINE
  5
F10981
330
261
100
AcDbEntity
  8
Geo
100
AcDbLine
 10
-16.237823784564
 20
11.00287542614676
 30
0.0
 11
-16.237823784564
 21
11.32080547781685
 31
0.0
  0
LINE
  5
F10983
330
261
100
AcDbEntity
  8
Geo
100
AcDbLine
 10
-16.237823784564
 20
10.57189758381755
 30
0.0
 11
-16.237823784564
 21
11.32080547781685
 31
0.0
  0
LINE
  5
F10985
330
261
100
AcDbEntity
  8
Geo
100
AcDbLine
 10
-16.237823784564
 20
10.57189758381755
 30
0.0
 11
-16.237823784564
 21
8.092819829107753
 31
0.0
  0
LINE
  5
F10987
330
261
100
AcDbEntity
  8
Geo
100
AcDbLine
 10
-16.237823784564
 20
7.550138670106051
 30
0.0
 11
-16.237823784564
 21
7.786038320349454
 31
0.0
  0
LINE
  5
F10989
330
261
100
AcDbEntity
  8
Geo
100
AcDbLine
 10
-16.237823784564
 20
7.296056056691149
 30
0.0
 11
-16.237823784564
 21
7.786038320349454
 31
0.0
  0
LINE
  5
F1098B
330
261
100
AcDbEntity
  8
Geo
100
AcDbLine
 10
-16.237823784564
 20
7.296056056691149
 30
0.0
 11
-16.237823784564
 21
6.797705292570753
 31
0.0
  0
LINE
  5
F1098D
330
261
100
AcDbEntity
  8
Geo
100
AcDbLine
 10
-29.23782378456401
 20
9.699259622860154
 30
0.0
 11
-29.23782378456401
 21
9.699259622860154
 31
0.0
  0
LINE
  5
F1098F
330
261
100
AcDbEntity
  8
Geo
100
AcDbLine
 10
-29.23782378456401
 20
9.699259622860154
 30
0.0
 11
-29.23782378456401
 21
9.699259622860154
 31
0.0
  0
LINE
  5
F10991
330
261
100
AcDbEntity
  8
Geo
100
AcDbLine
 10
27.762176215436
 20
12.39925962286015
 30
0.0
 11
27.762176215436
 21
9.699259622860154
 31
0.0
  0
LINE
  5
F10993
330
261
100
AcDbEntity
  8
Geo
100
AcDbLine
 10
-29.23782378456401
 20
9.699259622860154
 30
0.0
 11
-29.23782378456401
 21
6.849259622860152
 31
0.0
  0
LINE
  5
F10995
330
261
100
AcDbEntity
  8
Geo
100
AcDbLine
 10
-29.23782378456401
 20
6.849259622860152
 30
0.0
 11
-29.08782378456402
 21
6.699259622860154
 31
0.0
  0
LINE
  5
F10997
330
261
100
AcDbEntity
  8
Geo
100
AcDbLine
 10
-29.08782378456402
 20
6.699259622860154
 30
0.0
 11
-16.237823784564
 21
6.699259622860154
 31
0.0
  0
LINE
  5
F10999
330
261
100
AcDbEntity
  8
Geo
100
AcDbLine
 10
-16.237823784564
 20
6.699259622860154
 30
0.0
 11
-16.237823784564
 21
6.899259622860149
 31
0.0
  0
LINE
  5
F1099B
330
261
100
AcDbEntity
  8
Geo
100
AcDbLine
 10
-16.237823784564
 20
6.899259622860149
 30
0.0
 11
-9.237823784564
 21
6.899259622860149
 31
0.0
  0
LINE
  5
F1099D
330
261
100
AcDbEntity
  8
Geo
100
AcDbLine
 10
-8.237823784564
 20
6.899259622860149
 30
0.0
 11
-8.237823784564
 21
6.699259622860154
 31
0.0
  0
LINE
  5
F1099F
330
261
100
AcDbEntity
  8
Geo
100
AcDbLine
 10
-9.237823784564
 20
6.699259622860154
 30
0.0
 11
27.462176215436
 21
6.699259622860154
 31
0.0
  0
LINE
  5
F109A1
330
261
100
AcDbEntity
  8
Geo
100
AcDbLine
 10
27.462176215436
 20
6.699259622860154
 30
0.0
 11
27.762176215436
 21
6.999259622860151
 31
0.0
  0
LINE
  5
F109A3
330
261
100
AcDbEntity
  8
Geo
100
AcDbLine
 10
-29.23782378456401
 20
12.54925962286015
 30
0.0
 11
-29.23782378456401
 21
6.849259622860152
 31
0.0
  0
LINE
  5
F109A5
330
261
100
AcDbEntity
  8
Geo
100
AcDbLine
 10
-29.08782378456402
 20
12.69925962286015
 30
0.0
 11
-29.08782378456402
 21
6.699259622860154
 31
0.0
  0
LINE
  5
F109A7
330
261
100
AcDbEntity
  8
Geo
100
AcDbLine
 10
-16.237823784564
 20
12.69925962286015
 30
0.0
 11
-16.237823784564
 21
6.699259622860154
 31
0.0
  0
LINE
  5
F109A9
330
261
100
AcDbEntity
  8
Geo
100
AcDbLine
 10
-16.237823784564
 20
12.49925962286015
 30
0.0
 11
-16.237823784564
 21
6.899259622860149
 31
0.0
  0
LINE
  5
F109AB
330
261
100
AcDbEntity
  8
Geo
100
AcDbLine
 10
-8.237823784564
 20
12.49925962286015
 30
0.0
 11
-8.237823784564
 21
6.899259622860149
 31
0.0
  0
LINE
  5
F109AD
330
261
100
AcDbEntity
  8
Geo
100
AcDbLine
 10
-8.237823784564
 20
12.69925962286015
 30
0.0
 11
-8.237823784564
 21
6.699259622860154
 31
0.0
  0
LINE
  5
F109AF
330
261
100
AcDbEntity
  8
Geo
100
AcDbLine
 10
27.462176215436
 20
12.69925962286015
 30
0.0
 11
27.462176215436
 21
6.699259622860154
 31
0.0
  0
LINE
  5
F109B1
330
261
100
AcDbEntity
  8
Geo
100
AcDbLine
 10
27.762176215436
 20
12.39925962286015
 30
0.0
 11
27.762176215436
 21
6.999259622860151
 31
0.0
  0
TEXT
  5
F109DD
330
261
100
AcDbEntity
  8
Text
100
AcDbText
 10
-9.79274611398964
 20
-60.0630397236615
 30
0.0
 40
2.0
  1

100
AcDbText
  0
TEXT
  5
F109ED
330
261
100
AcDbEntity
  8
Text
100
AcDbText
 10
-9.79274611398964
 20
-68.2236614853195
 30
0.0
 40
2.0
  1

100
AcDbText
  0
TEXT
  5
F10A91
330
261
100
AcDbEntity
  8
Text
100
AcDbText
 10
85.1424870466322
 20
-55.04404145077721
 30
0.0
 40
1.5
  1

100
AcDbText
  0
TEXT
  5
F10A95
330
261
100
AcDbEntity
  8
Text
100
AcDbText
 10
115.064766839378
 20
-55.04404145077721
 30
0.0
 40
1.5
  1

100
AcDbText
  0
TEXT
  5
F10A99
330
261
100
AcDbEntity
  8
Text
100
AcDbText
 10
85.1424870466322
 20
-58.0362694300518
 30
0.0
 40
1.5
  1

100
AcDbText
  0
TEXT
  5
F10A9D
330
261
100
AcDbEntity
  8
Text
100
AcDbText
 10
115.064766839378
 20
-58.0362694300518
 30
0.0
 40
1.5
  1

100
AcDbText
  0
LWPOLYLINE
  5
F10AA3
330
261
100
AcDbEntity
  8
Rahmen
100
AcDbPolyline
 90
        4
 70
     1
 43
0.0
 10
-134.650259067358
 20
99.8316062176166
 10
143.354922279793
 20
99.8316062176166
 10
143.354922279793
 20
-100.103626943005
 10
-134.650259067358
 20
-100.103626943005
  0
LWPOLYLINE
  5
F10AA7
330
261
100
AcDbEntity
  8
Rahmen
100
AcDbPolyline
 90
        4
 70
     1
 43
0.0
 10
103.367875647668
 20
-97.11139896373062
 10
143.354922279793
 20
-97.11139896373062
 10
143.354922279793
 20
-100.103626943005
 10
103.367875647668
 20
-100.103626943005
  0
TEXT
  5
F10AA9
330
261
100
AcDbEntity
  8
Text
100
AcDbText
 10
104.455958549223
 20
-98.11139896373061
 30
0.0
 40
0.75
  1
Ers. durch:
100
AcDbText
  0
LWPOLYLINE
  5
F10AAD
330
261
100
AcDbEntity
  8
Rahmen
100
AcDbPolyline
 90
        4
 70
     1
 43
0.0
 10
63.380829015544
 20
-97.11139896373062
 10
103.367875647668
 20
-97.11139896373062
 10
103.367875647668
 20
-100.103626943005
 10
63.380829015544
 20
-100.103626943005
  0
TEXT
  5
F10AAF
330
261
100
AcDbEntity
  8
Text
100
AcDbText
 10
64.46891191709839
 20
-98.11139896373061
 30
0.0
 40
0.75
  1
Ers. für:
100
AcDbText
  0
TEXT
  5
F10AB1
330
261
100
AcDbEntity
  8
Text
100
AcDbText
 10
91.39896373056991
 20
-99.4715025906736
 30
0.0
 40
0.75
  1

100
AcDbText
  0
LWPOLYLINE
  5
F10AB3
330
261
100
AcDbEntity
  8
Rahmen
100
AcDbPolyline
 90
        4
 70
     1
 43
0.0
 10
130.025906735751
 20
-94.119170984456
 10
143.354922279793
 20
-94.119170984456
 10
143.354922279793
 20
-97.11139896373062
 10
130.025906735751
 20
-97.11139896373062
  0
TEXT
  5
F10AB5
330
261
100
AcDbEntity
  8
Text
100
AcDbText
 10
131.113989637306
 20
-95.119170984456
 30
0.0
 40
0.75
  1
Blätter
100
AcDbText
  0
TEXT
  5
F10AB7
330
261
100
AcDbEntity
  8
Text
100
AcDbText
 10
141.178756476684
 20
-96.479274611399
 30
0.0
 40
0.75
  1

100
AcDbText
  0
LWPOLYLINE
  5
F10AB9
330
261
100
AcDbEntity
  8
Rahmen
100
AcDbPolyline
 90
        4
 70
     1
 43
0.0
 10
130.025906735751
 20
-91.12694300518128
 10
143.354922279793
 20
-91.12694300518128
 10
143.354922279793
 20
-94.119170984456
 10
130.025906735751
 20
-94.119170984456
  0
TEXT
  5
F10ABB
330
261
100
AcDbEntity
  8
Text
100
AcDbText
 10
131.113989637306
 20
-92.12694300518128
 30
0.0
 40
0.75
  1
Blatt
100
AcDbText
  0
TEXT
  5
F10ABD
330
261
100
AcDbEntity
  8
Text
100
AcDbText
 10
141.178756476684
 20
-93.48704663212428
 30
0.0
 40
0.75
  1

100
AcDbText
  0
LWPOLYLINE
  5
F10ABF
330
261
100
AcDbEntity
  8
Rahmen
100
AcDbPolyline
 90
        4
 70
     1
 43
0.0
 10
63.380829015544
 20
-91.12694300518128
 10
130.025906735751
 20
-91.12694300518128
 10
130.025906735751
 20
-97.11139896373062
 10
63.380829015544
 20
-97.11139896373062
  0
TEXT
  5
F10AC1
330
261
100
AcDbEntity
  8
Text
100
AcDbText
 10
64.46891191709839
 20
-92.12694300518128
 30
0.0
 40
0.75
  1
Datum:
100
AcDbText
  0
TEXT
  5
F10AC3
330
261
100
AcDbEntity
  8
Text
100
AcDbText
 10
91.67098445595859
 20
-95.119170984456
 30
0.0
 40
0.75
  1
17.12.2014
100
AcDbText
  0
LWPOLYLINE
  5
F10AC5
330
261
100
AcDbEntity
  8
Rahmen
100
AcDbPolyline
 90
        4
 70
     1
 43
0.0
 10
63.380829015544
 20
-85.14248704663208
 10
143.354922279793
 20
-85.14248704663208
 10
143.354922279793
 20
-91.12694300518128
 10
63.380829015544
 20
-91.12694300518128
  0
TEXT
  5
F10AC7
330
261
100
AcDbEntity
  8
Text
100
AcDbText
 10
-208.09585492228
 20
103.0
 30
0.0
 40
1.5
  1

100
AcDbText
  0
TEXT
  5
F10AC9
330
261
100
AcDbEntity
  8
Text
100
AcDbText
 10
96.17506349210955
 20
-89.77629981481138
 30
0.0
 40
2.5
  1
7000-060
100
AcDbText
  0
LWPOLYLINE
  5
F10ACB
330
261
100
AcDbEntity
  8
Rahmen
100
AcDbPolyline
 90
        4
 70
     1
 43
0.0
 10
103.367875647668
 20
-79.1580310880829
 10
143.354922279793
 20
-79.1580310880829
 10
143.354922279793
 20
-85.14248704663208
 10
103.367875647668
 20
-85.14248704663208
  0
TEXT
  5
F10ACD
330
261
100
AcDbEntity
  8
Text
100
AcDbText
 10
104.455958549223
 20
-80.1580310880829
 30
0.0
 40
0.75
  1
Zu bearb. Material:
100
AcDbText
  0
LWPOLYLINE
  5
F10AD1
330
261
100
AcDbEntity
  8
Rahmen
100
AcDbPolyline
 90
        4
 70
     1
 43
0.0
 10
63.380829015544
 20
-79.1580310880829
 10
103.367875647668
 20
-79.1580310880829
 10
103.367875647668
 20
-85.14248704663208
 10
63.380829015544
 20
-85.14248704663208
  0
TEXT
  5
F10AD3
330
261
100
AcDbEntity
  8
Text
100
AcDbText
 10
64.46891191709839
 20
-80.1580310880829
 30
0.0
 40
0.75
  1
Werkstoff:
100
AcDbText
  0
LWPOLYLINE
  5
F10AD7
330
261
100
AcDbEntity
  8
Rahmen
100
AcDbPolyline
 90
        4
 70
     1
 43
0.0
 10
103.367875647668
 20
-76.16580310880831
 10
143.354922279793
 20
-76.16580310880831
 10
143.354922279793
 20
-79.1580310880829
 10
103.367875647668
 20
-79.1580310880829
  0
TEXT
  5
F10AD9
330
261
100
AcDbEntity
  8
Text
100
AcDbText
 10
-208.09585492228
 20
103.0
 30
0.0
 40
1.5
  1

100
AcDbText
  0
LWPOLYLINE
  5
F10ADD
330
261
100
AcDbEntity
  8
Rahmen
100
AcDbPolyline
 90
        4
 70
     1
 43
0.0
 10
63.380829015544
 20
-76.16580310880831
 10
103.367875647668
 20
-76.16580310880831
 10
103.367875647668
 20
-79.1580310880829
 10
63.380829015544
 20
-79.1580310880829
  0
TEXT
  5
F10ADF
330
261
100
AcDbEntity
  8
Text
100
AcDbText
 10
64.46891191709839
 20
-77.1658031088083
 30
0.0
 40
0.75
  1
Maßstab:
100
AcDbText
  0
TEXT
  5
F10AE1
330
261
100
AcDbEntity
  8
Text
100
AcDbText
 10
89.49481865284978
 20
-77.1658031088083
 30
0.0
 40
0.75
  1
1 : 1
100
AcDbText
  0
LINE
  5
F10C26
330
261
100
AcDbEntity
  8
0
100
AcDbLine
 10
-9.237823784564
 20
6.699259622860154
 30
0.0
 11
-9.237823784564
 21
12.69925962286015
 31
0.0
  0
VIEWPORT
  5
294
102
{ACAD_XDICTIONARY
360
F10C8B
102
}
330
25D
100
AcDbEntity
 67
     1
  8
0
 60
     1
100
AcDbViewport
 10
0.0
 20
0.0
 30
0.0
 40
10.0
 41
10.0
 68
    -1
 69
     1
 12
0.0
 22
0.0
 13
0.0
 23
0.0
 14
1.0
 24
1.0
 15
0.0
 25
0.0
 16
0.0
 26
0.0
 36
1.0
 17
0.0
 27
0.0
 37
0.0
 42
0.0
 43
0.0
 44
0.0
 45
10.0
 50
0.0
 51
0.0000000000007958
 72
   100
 90
    32800
  1

281
     0
 71
     0
 74
     0
110
0.0
120
0.0
130
0.0
111
1.0
121
0.0
131
0.0
112
0.0
122
1.0
132
0.0
 79
     0
146
0.0
1001
VD_INVISIBLE_NOT_FOR_READ
1000
VD_INVISIBLE_NOT_FOR_READ
1001
GENIUS_GENSCREG_15
1000
PF
1040
1.0
1000
DF
1040
1.0
1000
MIN
1011
-5.0
1021
-5.0
1031
0.0
1000
MAX
1011
5.0
1021
5.0
1031
0.0
1000
FLAGS
1070
     4
1001
GENIUS_GENODEF_13
1002
{
1000
HIER
1070
     0
1002
}
1002
{
1000
MANEDIT
1070
     0
1002
}
1002
{
1000
NOSEL
1070
     0
1002
}
1002
{
1000
BEHIND
1070
     0
1002
}
1002
{
1000
OTHER
1070
     0
1002
}
1002
{
1000
REACTOR
1002
}
1001
GENIUS_GENOBJ-N-SDF_13
1002
{
1000
OWNER
1000
GEN
1002
}
  0
VIEWPORT
  5
295
102
{ACAD_XDICTIONARY
360
F10C8D
102
}
330
25D
100
AcDbEntity
 67
     1
  8
0
 60
     1
100
AcDbViewport
 10
0.0
 20
0.0
 30
0.0
 40
10.0
 41
10.0
 68
     0
 69
     2
 12
0.0
 22
0.0
 13
0.0
 23
0.0
 14
1.0
 24
1.0
 15
0.0
 25
0.0
 16
0.0
 26
0.0
 36
1.0
 17
0.0
 27
0.0
 37
0.0
 42
0.0
 43
0.0
 44
0.0
 45
10.0
 50
0.0
 51
0.0000000000007958
 72
   100
 90
   163872
  1

281
     0
 71
     0
 74
     0
110
0.0
120
0.0
130
0.0
111
1.0
121
0.0
131
0.0
112
0.0
122
1.0
132
0.0
 79
     0
146
0.0
1001
VD_INVISIBLE_NOT_FOR_READ
1000
VD_INVISIBLE_NOT_FOR_READ
1001
GENIUS_GENSCREG_15
1000
PF
1040
1.0
1000
DF
1040
1.0
1000
MIN
1011
-5.0
1021
-5.0
1031
0.0
1000
MAX
1011
5.0
1021
5.0
1031
0.0
1000
FLAGS
1070
     4
1001
GENIUS_GENOBJ-N-SDF_13
1002
{
1000
OWNER
1000
GEN
1002
}
1001
GENIUS_GENODEF_13
1002
{
1000
HIER
1070
     0
1002
}
1002
{
1000
MANEDIT
1070
     0
1002
}
1002
{
1000
NOSEL
1070
     0
1002
}
1002
{
1000
BEHIND
1070
     0
1002
}
1002
{
1000
OTHER
1070
     0
1002
}
1002
{
1000
REACTOR
1002
}
  0
ENDSEC
  0
SECTION
  2
OBJECTS
  0
DICTIONARY
  5
13
330
0
100
AcDbDictionary
281
     1
  3
ACAD_COLOR
350
FA7
  3
ACAD_GROUP
350
14
  3
ACAD_LAYOUT
350
FCF
  3
ACAD_MATERIAL
350
F7A
  3
ACAD_MLEADERSTYLE
350
FCD
  3
ACAD_MLINESTYLE
350
16
  3
ACAD_PLOTSETTINGS
350
17
  3
ACAD_PLOTSTYLENAME
350
18
  3
ACAD_SCALELIST
350
FAB
  3
ACAD_TABLESTYLE
350
FA8
  3
ACAD_VISUALSTYLE
350
F93
  3
ACDB_RECOMPOSE_DATA
350
F10C89
  3
AcDbVariableDictionary
350
F10C80
  3
AcmDictionary
350
F10B38
  3
AMG
350
F10AEC
  3
AMGSNAPSETTINGS
350
F10B79
  3
DWGPROPS
350
F10C8A
  0
DICTIONARY
  5
F10C8F
330
296
100
AcDbDictionary
280
     1
281
     1
  3
ACAD_XREC_ROUNDTRIP
360
F10C90
  0
DICTIONARY
  5
F10C91
330
297
100
AcDbDictionary
280
     1
281
     1
  3
ACAD_XREC_ROUNDTRIP
360
F10C92
  0
DICTIONARY
  5
F10C8B
330
294
100
AcDbDictionary
280
     1
281
     1
  3
ACAD_XREC_ROUNDTRIP
360
F10C8C
  0
DICTIONARY
  5
F10C8D
330
295
100
AcDbDictionary
280
     1
281
     1
  3
ACAD_XREC_ROUNDTRIP
360
F10C8E
  0
DICTIONARY
  5
FA7
102
{ACAD_REACTORS
330
13
102
}
330
13
100
AcDbDictionary
281
     1
  0
DICTIONARY
  5
14
330
13
100
AcDbDictionary
281
     1
  0
DICTIONARY
  5
FCF
102
{ACAD_REACTORS
330
13
102
}
330
13
100
AcDbDictionary
281
     1
  3
Layout1
350
FD1
  3
Model
350
FD0
  0
DICTIONARY
  5
F7A
102
{ACAD_REACTORS
330
13
102
}
330
13
100
AcDbDictionary
281
     1
  3
ByBlock
350
F83
  3
ByLayer
350
F7B
  3
Global
350
F8B
  0
DICTIONARY
  5
FCD
102
{ACAD_REACTORS
330
13
102
}
330
13
100
AcDbDictionary
281
     1
  3
Standard
350
FCE
  0
DICTIONARY
  5
16
330
13
100
AcDbDictionary
281
     1
  3
Standard
350
FAA
  0
DICTIONARY
  5
17
102
{ACAD_REACTORS
330
13
102
}
330
13
100
AcDbDictionary
281
     1
  0
ACDBDICTIONARYWDFLT
  5
18
102
{ACAD_REACTORS
330
13
102
}
330
13
100
AcDbDictionary
281
     1
  3
Normal
350
19
100
AcDbDictionaryWithDefault
340
19
  0
DICTIONARY
  5
FAB
102
{ACAD_REACTORS
330
13
102
}
330
13
100
AcDbDictionary
281
     1
  3
A0
350
FAC
  3
A1
350
FAD
  3
A2
350
FAE
  3
A3
350
FAF
  3
A4
350
FB0
  3
A5
350
FB1
  3
A6
350
FB2
  3
A7
350
FB3
  3
A8
350
FB4
  3
A9
350
FB5
  3
B0
350
FB6
  3
B1
350
FB7
  3
B2
350
FB8
  3
B3
350
FB9
  3
B4
350
FBA
  3
B5
350
FBB
  3
B6
350
FBC
  3
B7
350
FBD
  3
B8
350
FBE
  3
B9
350
FBF
  3
C0
350
FC0
  3
C1
350
FC1
  3
C2
350
FC2
  3
C3
350
FC3
  3
C4
350
FC4
  3
C5
350
FC5
  3
C6
350
FC6
  3
C7
350
FC7
  3
C8
350
FC8
  3
C9
350
FC9
  3
D0
350
FCA
  3
D1
350
FCB
  3
D2
350
FCC
  0
DICTIONARY
  5
FA8
102
{ACAD_REACTORS
330
13
102
}
330
13
100
AcDbDictionary
281
     1
  3
Standard
350
FA9
  0
DICTIONARY
  5
F93
102
{ACAD_REACTORS
330
13
102
}
330
13
100
AcDbDictionary
281
     1
  3
2dWireframe
350
F99
  3
3D Hidden
350
F9B
  3
3dWireframe
350
F9A
  3
Basic
350
F98
  3
Brighten
350
F9F
  3
ColorChange
350
FA3
  3
Conceptual
350
F9C
  3
Dim
350
F9E
  3
EdgeColorOff
350
FA6
  3
Facepattern
350
FA2
  3
Flat
350
F94
  3
FlatWithEdges
350
F95
  3
Gouraud
350
F96
  3
GouraudWithEdges
350
F97
  3
Hidden
350
F10AE4
  3
JitterOff
350
FA4
  3
Linepattern
350
FA1
  3
OverhangOff
350
FA5
  3
Realistic
350
F9D
  3
Shaded
350
F10AE9
  3
Shaded with edges
350
F10AE8
  3
Shades of Gray
350
F10AE5
  3
Sketchy
350
F10AE6
  3
Thicken
350
FA0
  3
Wireframe
350
F10AE3
  3
X-Ray
350
F10AE7
  0
XRECORD
  5
F10C89
102
{ACAD_REACTORS
330
13
102
}
330
13
100
AcDbXrecord
280
     1
 90
        1
330
FA9
  0
DICTIONARY
  5
F10C80
102
{ACAD_REACTORS
330
13
102
}
330
13
100
AcDbDictionary
281
     1
  3
CANNOSCALE
350
F10C83
  3
CMLEADERSTYLE
350
F10C82
  3
CTABLESTYLE
350
F10C81
  3
DIMASSOC
350
F10C86
  3
INDEXCTL
350
F10C85
  3
SORTENTS
350
F10C84
  3
XCLIPFRAME
350
F10C87
  0
DICTIONARY
  5
F10B38
102
{ACAD_REACTORS
330
13
102
}
330
13
100
AcDbDictionary
281
     1
  3
AcmStdDictionary
350
F10B43
  0
DICTIONARY
  5
F10AEC
102
{ACAD_REACTORS
330
13
102
}
330
13
100
AcDbDictionary
281
     1
  0
DICTIONARY
  5
F10B79
102
{ACAD_REACTORS
330
13
102
}
330
13
100
AcDbDictionary
281
     1
  0
XRECORD
  5
F10C8A
102
{ACAD_REACTORS
330
13
102
}
330
13
100
AcDbXrecord
280
     1
  1
DWGPROPS COOKIE
  2

  3

  4

  6

  7

  8
Steigner
  9

300
=
301
=
302
=
303
=
304
=
305
=
306
=
307
=
308
=
309
=
 40
0.0020135532407407
 41
2457010.656764757
 42
2457010.658777396
  1

 90
        0
  0
XRECORD
  5
F10C90
102
{ACAD_REACTORS
330
F10C8F
102
}
330
F10C8F
100
AcDbXrecord
280
     1
102
SHADEPLOT
 70
     0
  0
XRECORD
  5
F10C92
102
{ACAD_REACTORS
330
F10C91
102
}
330
F10C91
100
AcDbXrecord
280
     1
102
SHADEPLOT
 70
     0
  0
XRECORD
  5
F10C8C
102
{ACAD_REACTORS
330
F10C8B
102
}
330
F10C8B
100
AcDbXrecord
280
     1
102
SHADEPLOT
 70
     0
  0
XRECORD
  5
F10C8E
102
{ACAD_REACTORS
330
F10C8D
102
}
330
F10C8D
100
AcDbXrecord
280
     1
102
SHADEPLOT
 70
     0
  0
LAYOUT
  5
FD1
102
{ACAD_XDICTIONARY
360
F10CBC
102
}
102
{ACAD_REACTORS
330
FCF
102
}
330
FCF
100
AcDbPlotSettings
  1

  2
Microsoft XPS Document Writer
  4

  6

 40
0.0
 41
0.0
 42
0.0
 43
0.0
 44
0.0
 45
0.0
 46
0.0
 47
0.0
 48
0.0
 49
0.0
140
0.0
141
0.0
142
1.0
143
1.0
 70
   688
 72
     0
 73
     0
 74
     5
  7

 75
    16
147
1.0
148
0.0
149
0.0
100
AcDbLayout
  1
Layout1
 70
     1
 71
     1
 10
0.0
 20
0.0
 11
12.0
 21
9.0
 12
0.0
 22
0.0
 32
0.0
 14
1.000000000000000E+20
 24
1.000000000000000E+20
 34
1.000000000000000E+20
 15
-1.000000000000000E+20
 25
-1.000000000000000E+20
 35
-1.000000000000000E+20
146
0.0
 13
0.0
 23
0.0
 33
0.0
 16
1.0
 26
0.0
 36
0.0
 17
0.0
 27
1.0
 37
0.0
 76
     0
330
25D
  0
LAYOUT
  5
FD0
102
{ACAD_XDICTIONARY
360
F10CBA
102
}
102
{ACAD_REACTORS
330
FCF
102
}
330
FCF
100
AcDbPlotSettings
  1

  2
Microsoft XPS Document Writer
  4

  6

 40
0.0
 41
0.0
 42
0.0
 43
0.0
 44
0.0
 45
0.0
 46
0.0
 47
0.0
 48
0.0
 49
0.0
140
0.0
141
0.0
142
1.0
143
1.0
 70
  1712
 72
     0
 73
     0
 74
     0
  7

 75
     0
147
1.0
148
0.0
149
0.0
100
AcDbLayout
  1
Model
 70
     1
 71
     0
 10
0.0
 20
0.0
 11
12.0
 21
9.0
 12
0.0
 22
0.0
 32
0.0
 14
0.0
 24
0.0
 34
0.0
 15
0.0
 25
0.0
 35
0.0
146
0.0
 13
0.0
 23
0.0
 33
0.0
 16
1.0
 26
0.0
 36
0.0
 17
0.0
 27
1.0
 37
0.0
 76
     0
330
261
331
26B
  0
MATERIAL
  5
F83
102
{ACAD_XDICTIONARY
360
F84
102
}
102
{ACAD_REACTORS
330
F7A
102
}
330
F7A
100
AcDbMaterial
  1
ByBlock
 72
     0
 43
0.0208333333333333
 43
0.0
 43
0.0
 43
0.0
 43
0.0
 43
0.0208333333333333
 43
0.0
 43
0.0
 43
0.0
 43
0.0
 43
1.0
 43
0.0
 43
0.0
 43
0.0
 43
0.0
 43
1.0
 77
     0
 47
0.0208333333333333
 47
0.0
 47
0.0
 47
0.0
 47
0.0
 47
0.0208333333333333
 47
0.0
 47
0.0
 47
0.0
 47
0.0
 47
1.0
 47
0.0
 47
0.0
 47
0.0
 47
0.0
 47
1.0
171
     0
 49
0.0208333333333333
 49
0.0
 49
0.0
 49
0.0
 49
0.0
 49
0.0208333333333333
 49
0.0
 49
0.0
 49
0.0
 49
0.0
 49
1.0
 49
0.0
 49
0.0
 49
0.0
 49
0.0
 49
1.0
175
     0
142
0.0208333333333333
142
0.0
142
0.0
142
0.0
142
0.0
142
0.0208333333333333
142
0.0
142
0.0
142
0.0
142
0.0
142
1.0
142
0.0
142
0.0
142
0.0
142
0.0
142
1.0
179
     0
144
0.0208333333333333
144
0.0
144
0.0
144
0.0
144
0.0
144
0.0208333333333333
144
0.0
144
0.0
144
0.0
144
0.0
144
1.0
144
0.0
144
0.0
144
0.0
144
0.0
144
1.0
147
0.0208333333333333
147
0.0
147
0.0
147
0.0
147
0.0
147
0.0208333333333333
147
0.0
147
0.0
147
0.0
147
0.0
147
1.0
147
0.0
147
0.0
147
0.0
147
0.0
147
1.0
  0
MATERIAL
  5
F7B
102
{ACAD_XDICTIONARY
360
F7C
102
}
102
{ACAD_REACTORS
330
F7A
102
}
330
F7A
100
AcDbMaterial
  1
ByLayer
 72
     0
 43
0.0208333333333333
 43
0.0
 43
0.0
 43
0.0
 43
0.0
 43
0.0208333333333333
 43
0.0
 43
0.0
 43
0.0
 43
0.0
 43
1.0
 43
0.0
 43
0.0
 43
0.0
 43
0.0
 43
1.0
 77
     0
 47
0.0208333333333333
 47
0.0
 47
0.0
 47
0.0
 47
0.0
 47
0.0208333333333333
 47
0.0
 47
0.0
 47
0.0
 47
0.0
 47
1.0
 47
0.0
 47
0.0
 47
0.0
 47
0.0
 47
1.0
171
     0
 49
0.0208333333333333
 49
0.0
 49
0.0
 49
0.0
 49
0.0
 49
0.0208333333333333
 49
0.0
 49
0.0
 49
0.0
 49
0.0
 49
1.0
 49
0.0
 49
0.0
 49
0.0
 49
0.0
 49
1.0
175
     0
142
0.0208333333333333
142
0.0
142
0.0
142
0.0
142
0.0
142
0.0208333333333333
142
0.0
142
0.0
142
0.0
142
0.0
142
1.0
142
0.0
142
0.0
142
0.0
142
0.0
142
1.0
179
     0
144
0.0208333333333333
144
0.0
144
0.0
144
0.0
144
0.0
144
0.0208333333333333
144
0.0
144
0.0
144
0.0
144
0.0
144
1.0
144
0.0
144
0.0
144
0.0
144
0.0
144
1.0
147
0.0208333333333333
147
0.0
147
0.0
147
0.0
147
0.0
147
0.0208333333333333
147
0.0
147
0.0
147
0.0
147
0.0
147
1.0
147
0.0
147
0.0
147
0.0
147
0.0
147
1.0
  0
MATERIAL
  5
F8B
102
{ACAD_XDICTIONARY
360
F8C
102
}
102
{ACAD_REACTORS
330
F7A
102
}
330
F7A
100
AcDbMaterial
  1
Global
 72
     0
 43
0.0208333333333333
 43
0.0
 43
0.0
 43
0.0
 43
0.0
 43
0.0208333333333333
 43
0.0
 43
0.0
 43
0.0
 43
0.0
 43
1.0
 43
0.0
 43
0.0
 43
0.0
 43
0.0
 43
1.0
 77
     0
 47
0.0208333333333333
 47
0.0
 47
0.0
 47
0.0
 47
0.0
 47
0.0208333333333333
 47
0.0
 47
0.0
 47
0.0
 47
0.0
 47
1.0
 47
0.0
 47
0.0
 47
0.0
 47
0.0
 47
1.0
171
     0
 49
0.0208333333333333
 49
0.0
 49
0.0
 49
0.0
 49
0.0
 49
0.0208333333333333
 49
0.0
 49
0.0
 49
0.0
 49
0.0
 49
1.0
 49
0.0
 49
0.0
 49
0.0
 49
0.0
 49
1.0
175
     0
142
0.0208333333333333
142
0.0
142
0.0
142
0.0
142
0.0
142
0.0208333333333333
142
0.0
142
0.0
142
0.0
142
0.0
142
1.0
142
0.0
142
0.0
142
0.0
142
0.0
142
1.0
179
     0
144
0.0208333333333333
144
0.0
144
0.0
144
0.0
144
0.0
144
0.0208333333333333
144
0.0
144
0.0
144
0.0
144
0.0
144
1.0
144
0.0
144
0.0
144
0.0
144
0.0
144
1.0
147
0.0208333333333333
147
0.0
147
0.0
147
0.0
147
0.0
147
0.0208333333333333
147
0.0
147
0.0
147
0.0
147
0.0
147
1.0
147
0.0
147
0.0
147
0.0
147
0.0
147
1.0
  0
MLEADERSTYLE
  5
FCE
102
{ACAD_REACTORS
330
FCD
102
}
330
FCD
100
AcDbMLeaderStyle
170
     2
171
     1
172
     0
 90
        2
 40
0.0
 41
0.0
173
     1
 91
-1056964608
340
256
 92
       -2
290
     1
 42
0.09
291
     1
 43
0.36
  3
Standard
 44
0.18
300

342
253
174
     1
178
     6
175
     1
176
     0
 93
-1056964608
 45
0.18
292
     0
297
     0
 46
0.18
 94
-1056964608
 47
1.0
 49
1.0
140
1.0
293
     1
141
0.0
294
     1
177
     0
142
1.0
295
     0
296
     0
143
0.125
1001
ACAD_MLEADERVER
1070
     2
  0
MLINESTYLE
  5
FAA
102
{ACAD_REACTORS
330
16
102
}
330
16
100
AcDbMlineStyle
  2
STANDARD
 70
     0
  3

 62
   256
 51
90.0
 52
90.0
 71
     2
 49
0.5
 62
   256
  6
BYLAYER
 49
-0.5
 62
   256
  6
BYLAYER
  0
ACDBPLACEHOLDER
  5
19
102
{ACAD_REACTORS
330
18
102
}
330
18
  0
SCALE
  5
FAC
102
{ACAD_REACTORS
330
FAB
102
}
330
FAB
100
AcDbScale
 70
     0
300
1:1
140
1.0
141
1.0
290
     1
  0
SCALE
  5
FAD
102
{ACAD_REACTORS
330
FAB
102
}
330
FAB
100
AcDbScale
 70
     0
300
1:2
140
1.0
141
2.0
290
     0
  0
SCALE
  5
FAE
102
{ACAD_REACTORS
330
FAB
102
}
330
FAB
100
AcDbScale
 70
     0
300
1:4
140
1.0
141
4.0
290
     0
  0
SCALE
  5
FAF
102
{ACAD_REACTORS
330
FAB
102
}
330
FAB
100
AcDbScale
 70
     0
300
1:5
140
1.0
141
5.0
290
     0
  0
SCALE
  5
FB0
102
{ACAD_REACTORS
330
FAB
102
}
330
FAB
100
AcDbScale
 70
     0
300
1:8
140
1.0
141
8.0
290
     0
  0
SCALE
  5
FB1
102
{ACAD_REACTORS
330
FAB
102
}
330
FAB
100
AcDbScale
 70
     0
300
1:10
140
1.0
141
10.0
290
     0
  0
SCALE
  5
FB2
102
{ACAD_REACTORS
330
FAB
102
}
330
FAB
100
AcDbScale
 70
     0
300
1:16
140
1.0
141
16.0
290
     0
  0
SCALE
  5
FB3
102
{ACAD_REACTORS
330
FAB
102
}
330
FAB
100
AcDbScale
 70
     0
300
1:20
140
1.0
141
20.0
290
     0
  0
SCALE
  5
FB4
102
{ACAD_REACTORS
330
FAB
102
}
330
FAB
100
AcDbScale
 70
     0
300
1:30
140
1.0
141
30.0
290
     0
  0
SCALE
  5
FB5
102
{ACAD_REACTORS
330
FAB
102
}
330
FAB
100
AcDbScale
 70
     0
300
1:40
140
1.0
141
40.0
290
     0
  0
SCALE
  5
FB6
102
{ACAD_REACTORS
330
FAB
102
}
330
FAB
100
AcDbScale
 70
     0
300
1:50
140
1.0
141
50.0
290
     0
  0
SCALE
  5
FB7
102
{ACAD_REACTORS
330
FAB
102
}
330
FAB
100
AcDbScale
 70
     0
300
1:100
140
1.0
141
100.0
290
     0
  0
SCALE
  5
FB8
102
{ACAD_REACTORS
330
FAB
102
}
330
FAB
100
AcDbScale
 70
     0
300
2:1
140
2.0
141
1.0
290
     0
  0
SCALE
  5
FB9
102
{ACAD_REACTORS
330
FAB
102
}
330
FAB
100
AcDbScale
 70
     0
300
4:1
140
4.0
141
1.0
290
     0
  0
SCALE
  5
FBA
102
{ACAD_REACTORS
330
FAB
102
}
330
FAB
100
AcDbScale
 70
     0
300
8:1
140
8.0
141
1.0
290
     0
  0
SCALE
  5
FBB
102
{ACAD_REACTORS
330
FAB
102
}
330
FAB
100
AcDbScale
 70
     0
300
10:1
140
10.0
141
1.0
290
     0
  0
SCALE
  5
FBC
102
{ACAD_REACTORS
330
FAB
102
}
330
FAB
100
AcDbScale
 70
     0
300
100:1
140
100.0
141
1.0
290
     0
  0
SCALE
  5
FBD
102
{ACAD_REACTORS
330
FAB
102
}
330
FAB
100
AcDbScale
 70
     0
300
1/128" = 1'-0"
140
0.0078125
141
12.0
290
     0
  0
SCALE
  5
FBE
102
{ACAD_REACTORS
330
FAB
102
}
330
FAB
100
AcDbScale
 70
     0
300
1/64" = 1'-0"
140
0.015625
141
12.0
290
     0
  0
SCALE
  5
FBF
102
{ACAD_REACTORS
330
FAB
102
}
330
FAB
100
AcDbScale
 70
     0
300
1/32" = 1'-0"
140
0.03125
141
12.0
290
     0
  0
SCALE
  5
FC0
102
{ACAD_REACTORS
330
FAB
102
}
330
FAB
100
AcDbScale
 70
     0
300
1/16" = 1'-0"
140
0.0625
141
12.0
290
     0
  0
SCALE
  5
FC1
102
{ACAD_REACTORS
330
FAB
102
}
330
FAB
100
AcDbScale
 70
     0
300
3/32" = 1'-0"
140
0.09375
141
12.0
290
     0
  0
SCALE
  5
FC2
102
{ACAD_REACTORS
330
FAB
102
}
330
FAB
100
AcDbScale
 70
     0
300
1/8" = 1'-0"
140
0.125
141
12.0
290
     0
  0
SCALE
  5
FC3
102
{ACAD_REACTORS
330
FAB
102
}
330
FAB
100
AcDbScale
 70
     0
300
3/16" = 1'-0"
140
0.1875
141
12.0
290
     0
  0
SCALE
  5
FC4
102
{ACAD_REACTORS
330
FAB
102
}
330
FAB
100
AcDbScale
 70
     0
300
1/4" = 1'-0"
140
0.25
141
12.0
290
     0
  0
SCALE
  5
FC5
102
{ACAD_REACTORS
330
FAB
102
}
330
FAB
100
AcDbScale
 70
     0
300
3/8" = 1'-0"
140
0.375
141
12.0
290
     0
  0
SCALE
  5
FC6
102
{ACAD_REACTORS
330
FAB
102
}
330
FAB
100
AcDbScale
 70
     0
300
1/2" = 1'-0"
140
0.5
141
12.0
290
     0
  0
SCALE
  5
FC7
102
{ACAD_REACTORS
330
FAB
102
}
330
FAB
100
AcDbScale
 70
     0
300
3/4" = 1'-0"
140
0.75
141
12.0
290
     0
  0
SCALE
  5
FC8
102
{ACAD_REACTORS
330
FAB
102
}
330
FAB
100
AcDbScale
 70
     0
300
1" = 1'-0"
140
1.0
141
12.0
290
     0
  0
SCALE
  5
FC9
102
{ACAD_REACTORS
330
FAB
102
}
330
FAB
100
AcDbScale
 70
     0
300
1-1/2" = 1'-0"
140
1.5
141
12.0
290
     0
  0
SCALE
  5
FCA
102
{ACAD_REACTORS
330
FAB
102
}
330
FAB
100
AcDbScale
 70
     0
300
3" = 1'-0"
140
3.0
141
12.0
290
     0
  0
SCALE
  5
FCB
102
{ACAD_REACTORS
330
FAB
102
}
330
FAB
100
AcDbScale
 70
     0
300
6" = 1'-0"
140
6.0
141
12.0
290
     0
  0
SCALE
  5
FCC
102
{ACAD_REACTORS
330
FAB
102
}
330
FAB
100
AcDbScale
 70
     0
300
1'-0" = 1'-0"
140
12.0
141
12.0
290
     0
  0
TABLESTYLE
  5
FA9
102
{ACAD_XDICTIONARY
360
FF8
102
}
102
{ACAD_REACTORS
330
FA8
102
}
330
FA8
100
AcDbTableStyle
  3
Standard
 70
     0
 71
     0
 40
0.06
 41
0.06
280
     0
281
     0
  7
Standard
140
0.18
170
     2
 62
     0
 63
     7
283
     0
274
    -2
284
     1
 64
     0
275
    -2
285
     1
 65
     0
276
    -2
286
     1
 66
     0
277
    -2
287
     1
 67
     0
278
    -2
288
     1
 68
     0
279
    -2
289
     1
 69
     0
  7
Standard
140
0.25
170
     5
 62
     0
 63
     7
283
     0
274
    -2
284
     1
 64
     0
275
    -2
285
     1
 65
     0
276
    -2
286
     1
 66
     0
277
    -2
287
     1
 67
     0
278
    -2
288
     1
 68
     0
279
    -2
289
     1
 69
     0
  7
Standard
140
0.18
170
     5
 62
     0
 63
     7
283
     0
274
    -2
284
     1
 64
     0
275
    -2
285
     1
 65
     0
276
    -2
286
     1
 66
     0
277
    -2
287
     1
 67
     0
278
    -2
288
     1
 68
     0
279
    -2
289
     1
 69
     0
  0
VISUALSTYLE
  5
F99
102
{ACAD_XDICTIONARY
360
F10C9D
102
}
102
{ACAD_REACTORS
330
F93
102
}
330
F93
100
AcDbVisualStyle
  2

 70
     4
 71
     0
 72
     2
 73
     0
 90
        0
 40
-0.6
 41
-30.0
 62
     5
 63
     7
 74
     1
 91
        4
 64
     7
 65
   257
 75
     1
175
     1
 42
1.0
 92
        0
 66
   257
 43
1.0
 76
     1
 77
     6
 78
     2
 67
     7
 79
     5
170
     0
171
     0
290
     0
174
     0
 93
        1
 44
0.0
173
     0
291
     0
 45
0.0
1001
ACAD
1000
AcDbSavedByObjectVersion
1070
     0
  0
VISUALSTYLE
  5
F9B
102
{ACAD_XDICTIONARY
360
F10CA1
102
}
102
{ACAD_REACTORS
330
F93
102
}
330
F93
100
AcDbVisualStyle
  2

 70
     6
 71
     1
 72
     2
 73
     2
 90
        0
 40
-0.6
 41
-30.0
 62
     5
 63
     7
 74
     2
 91
        2
 64
     7
 65
   257
 75
     2
175
     1
 42
179.0
 92
        0
 66
   257
 43
1.0
 76
     1
 77
     6
 78
     2
 67
     7
 79
     3
170
     0
171
     0
290
     0
174
     0
 93
        1
 44
0.0
173
     0
291
     0
 45
0.0
1001
ACAD
1000
AcDbSavedByObjectVersion
1070
     0
  0
VISUALSTYLE
  5
F9A
102
{ACAD_XDICTIONARY
360
F10C9F
102
}
102
{ACAD_REACTORS
330
F93
102
}
330
F93
100
AcDbVisualStyle
  2

 70
     5
 71
     0
 72
     2
 73
     0
 90
        0
 40
-0.6
 41
-30.0
 62
     5
 63
     7
 74
     1
 91
        4
 64
     7
 65
   257
 75
     1
175
     1
 42
1.0
 92
        0
 66
   257
 43
1.0
 76
     1
 77
     6
 78
     2
 67
     7
 79
     5
170
     0
171
     0
290
     0
174
     0
 93
        1
 44
0.0
173
     0
291
     0
 45
0.0
1001
ACAD
1000
AcDbSavedByObjectVersion
1070
     0
  0
VISUALSTYLE
  5
F98
102
{ACAD_XDICTIONARY
360
F10C9B
102
}
102
{ACAD_REACTORS
330
F93
102
}
330
F93
100
AcDbVisualStyle
  2

 70
     7
 71
     1
 72
     0
 73
     1
 90
        0
 40
-0.6
 41
-30.0
 62
     5
 63
     7
 74
     0
 91
        4
 64
     7
 65
   257
 75
     1
175
     1
 42
1.0
 92
        8
 66
     7
 43
1.0
 76
     1
 77
     6
 78
     2
 67
     7
 79
     5
170
     0
171
     0
290
     0
174
     0
 93
        1
 44
0.0
173
     0
291
     1
 45
0.0
1001
ACAD
1000
AcDbSavedByObjectVersion
1070
     0
  0
VISUALSTYLE
  5
F9F
102
{ACAD_XDICTIONARY
360
F10CA9
102
}
102
{ACAD_REACTORS
330
F93
102
}
330
F93
100
AcDbVisualStyle
  2

 70
    12
 71
     2
 72
     2
 73
     0
 90
        0
 40
-0.6
 41
-30.0
 62
     5
 63
     7
 74
     1
 91
        4
 64
     7
 65
   257
 75
     1
175
     1
 42
1.0
 92
        8
 66
     7
 43
1.0
 76
     1
 77
     6
 78
     2
 67
     7
 79
     5
170
     0
171
     0
290
     0
174
     0
 93
        1
 44
50.0
173
     0
291
     1
 45
0.0
1001
ACAD
1000
AcDbSavedByObjectVersion
1070
     0
  0
VISUALSTYLE
  5
FA3
102
{ACAD_XDICTIONARY
360
F10CB1
102
}
102
{ACAD_REACTORS
330
F93
102
}
330
F93
100
AcDbVisualStyle
  2

 70
    16
 71
     2
 72
     2
 73
     3
 90
        0
 40
-0.6
 41
-30.0
 62
     5
 63
     8
 74
     1
 91
        4
 64
     7
 65
   257
 75
     1
175
     1
 42
1.0
 92
        8
 66
     8
 43
1.0
 76
     1
 77
     6
 78
     2
 67
     7
 79
     5
170
     0
171
     0
290
     0
174
     0
 93
        1
 44
0.0
173
     0
291
     1
 45
0.0
1001
ACAD
1000
AcDbSavedByObjectVersion
1070
     0
  0
VISUALSTYLE
  5
F9C
102
{ACAD_XDICTIONARY
360
F10CA3
102
}
102
{ACAD_REACTORS
330
F93
102
}
330
F93
100
AcDbVisualStyle
  2

 70
     9
 71
     3
 72
     2
 73
     0
 90
        0
 40
-0.6
 41
-30.0
 62
     5
 63
     7
 74
     2
 91
        2
 64
     7
 65
   257
 75
     1
175
     1
 42
179.0
 92
        8
 66
     7
 43
1.0
 76
     1
 77
     6
 78
     2
 67
     7
 79
     3
170
     0
171
     0
290
     0
174
     0
 93
        1
 44
0.0
173
     0
291
     0
 45
0.0
1001
ACAD
1000
AcDbSavedByObjectVersion
1070
     0
  0
VISUALSTYLE
  5
F9E
102
{ACAD_XDICTIONARY
360
F10CA7
102
}
102
{ACAD_REACTORS
330
F93
102
}
330
F93
100
AcDbVisualStyle
  2

 70
    11
 71
     2
 72
     2
 73
     0
 90
        0
 40
-0.6
 41
-30.0
 62
     5
 63
     7
 74
     1
 91
        4
 64
     7
 65
   257
 75
     1
175
     1
 42
1.0
 92
        8
 66
     7
 43
1.0
 76
     1
 77
     6
 78
     2
 67
     7
 79
     5
170
     0
171
     0
290
     0
174
     0
 93
        1
 44
-50.0
173
     0
291
     1
 45
0.0
1001
ACAD
1000
AcDbSavedByObjectVersion
1070
     0
  0
VISUALSTYLE
  5
FA6
102
{ACAD_XDICTIONARY
360
F10CB7
102
}
102
{ACAD_REACTORS
330
F93
102
}
330
F93
100
AcDbVisualStyle
  2

 70
    22
 71
     2
 72
     2
 73
     0
 90
        0
 40
-0.6
 41
-30.0
 62
     5
 63
     7
 74
     1
 91
        4
 64
     7
 65
   257
 75
     1
175
     1
 42
1.0
 92
        8
 66
     7
 43
1.0
 76
     1
 77
     6
 78
     2
 67
     7
 79
     5
170
     0
171
     0
290
     0
174
     0
 93
        1
 44
0.0
173
     0
291
     1
 45
0.0
1001
ACAD
1000
AcDbSavedByObjectVersion
1070
     0
  0
VISUALSTYLE
  5
FA2
102
{ACAD_XDICTIONARY
360
F10CAF
102
}
102
{ACAD_REACTORS
330
F93
102
}
330
F93
100
AcDbVisualStyle
  2

 70
    15
 71
     2
 72
     2
 73
     0
 90
        0
 40
-0.6
 41
-30.0
 62
     5
 63
     7
 74
     1
 91
        4
 64
     7
 65
   257
 75
     1
175
     1
 42
1.0
 92
        8
 66
     7
 43
1.0
 76
     1
 77
     6
 78
     2
 67
     7
 79
     5
170
     0
171
     0
290
     0
174
     0
 93
        1
 44
0.0
173
     0
291
     1
 45
0.0
1001
ACAD
1000
AcDbSavedByObjectVersion
1070
     0
  0
VISUALSTYLE
  5
F94
102
{ACAD_XDICTIONARY
360
F10C93
102
}
102
{ACAD_REACTORS
330
F93
102
}
330
F93
100
AcDbVisualStyle
  2

 70
     0
 71
     2
 72
     1
 73
     1
 90
        2
 40
-0.6
 41
30.0
 62
     5
 63
     7
 74
     0
 91
        4
 64
     7
 65
   257
 75
     1
175
     1
 42
1.0
 92
        8
 66
     7
 43
1.0
 76
     1
 77
     6
 78
     2
 67
     7
 79
     5
170
     0
171
     0
290
     0
174
     0
 93
       13
 44
0.0
173
     0
291
     1
 45
0.0
1001
ACAD
1000
AcDbSavedByObjectVersion
1070
     0
  0
VISUALSTYLE
  5
F95
102
{ACAD_XDICTIONARY
360
F10C95
102
}
102
{ACAD_REACTORS
330
F93
102
}
330
F93
100
AcDbVisualStyle
  2

 70
     1
 71
     2
 72
     1
 73
     1
 90
        2
 40
-0.6
 41
30.0
 62
     5
 63
     7
 74
     1
 91
        4
 64
     7
 65
   257
 75
     1
175
     1
 42
1.0
 92
        0
 66
   257
 43
1.0
 76
     1
 77
     6
 78
     2
 67
     7
 79
     5
170
     0
171
     0
290
     0
174
     0
 93
       13
 44
0.0
173
     0
291
     1
 45
0.0
1001
ACAD
1000
AcDbSavedByObjectVersion
1070
     0
  0
VISUALSTYLE
  5
F96
102
{ACAD_XDICTIONARY
360
F10C97
102
}
102
{ACAD_REACTORS
330
F93
102
}
330
F93
100
AcDbVisualStyle
  2

 70
     2
 71
     2
 72
     2
 73
     1
 90
        2
 40
-0.6
 41
30.0
 62
     5
 63
     7
 74
     0
 91
        4
 64
     7
 65
   257
 75
     1
175
     1
 42
1.0
 92
        0
 66
     7
 43
1.0
 76
     1
 77
     6
 78
     2
 67
     7
 79
     5
170
     0
171
     0
290
     0
174
     0
 93
       13
 44
0.0
173
     0
291
     1
 45
0.0
1001
ACAD
1000
AcDbSavedByObjectVersion
1070
     0
  0
VISUALSTYLE
  5
F97
102
{ACAD_XDICTIONARY
360
F10C99
102
}
102
{ACAD_REACTORS
330
F93
102
}
330
F93
100
AcDbVisualStyle
  2

 70
     3
 71
     2
 72
     2
 73
     1
 90
        2
 40
-0.6
 41
30.0
 62
     5
 63
     7
 74
     1
 91
        4
 64
     7
 65
   257
 75
     1
175
     1
 42
1.0
 92
        0
 66
   257
 43
1.0
 76
     1
 77
     6
 78
     2
 67
     7
 79
     5
170
     0
171
     0
290
     0
174
     0
 93
       13
 44
0.0
173
     0
291
     1
 45
0.0
1001
ACAD
1000
AcDbSavedByObjectVersion
1070
     0
  0
VISUALSTYLE
  5
F10AE4
102
{ACAD_XDICTIONARY
360
F10CC0
102
}
102
{ACAD_REACTORS
330
F93
102
}
330
F93
100
AcDbVisualStyle
  2
Hidden
 70
     6
 71
     1
 72
     2
 73
     2
 90
        0
 40
-0.6
 41
-30.0
 62
     5
 63
     7
 74
     2
 91
        2
 64
     7
 65
   257
 75
     2
175
     1
 42
40.0
 92
        0
 66
   257
 43
1.0
 76
     1
 77
     6
 78
     2
 67
     7
 79
     3
170
     0
171
     0
290
     0
174
     0
 93
        1
 44
0.0
173
     0
291
     0
 45
0.0
1001
ACAD
1000
AcDbSavedByObjectVersion
1070
     0
  0
VISUALSTYLE
  5
FA4
102
{ACAD_XDICTIONARY
360
F10CB3
102
}
102
{ACAD_REACTORS
330
F93
102
}
330
F93
100
AcDbVisualStyle
  2

 70
    20
 71
     2
 72
     2
 73
     0
 90
        0
 40
-0.6
 41
-30.0
 62
     5
 63
     7
 74
     1
 91
        4
 64
     7
 65
   257
 75
     1
175
     1
 42
1.0
 92
       10
 66
     7
 43
1.0
 76
     1
 77
     6
 78
     2
 67
     7
 79
     5
170
     0
171
     0
290
     0
174
     0
 93
        1
 44
0.0
173
     0
291
     1
 45
0.0
1001
ACAD
1000
AcDbSavedByObjectVersion
1070
     0
  0
VISUALSTYLE
  5
FA1
102
{ACAD_XDICTIONARY
360
F10CAD
102
}
102
{ACAD_REACTORS
330
F93
102
}
330
F93
100
AcDbVisualStyle
  2

 70
    14
 71
     2
 72
     2
 73
     0
 90
        0
 40
-0.6
 41
-30.0
 62
     5
 63
     7
 74
     1
 91
        4
 64
     7
 65
   257
 75
     7
175
     7
 42
1.0
 92
        8
 66
     7
 43
1.0
 76
     1
 77
     6
 78
     2
 67
     7
 79
     5
170
     0
171
     0
290
     0
174
     0
 93
        1
 44
0.0
173
     0
291
     1
 45
0.0
1001
ACAD
1000
AcDbSavedByObjectVersion
1070
     0
  0
VISUALSTYLE
  5
FA5
102
{ACAD_XDICTIONARY
360
F10CB5
102
}
102
{ACAD_REACTORS
330
F93
102
}
330
F93
100
AcDbVisualStyle
  2

 70
    21
 71
     2
 72
     2
 73
     0
 90
        0
 40
-0.6
 41
-30.0
 62
     5
 63
     7
 74
     1
 91
        4
 64
     7
 65
   257
 75
     1
175
     1
 42
1.0
 92
        9
 66
     7
 43
1.0
 76
     1
 77
     6
 78
     2
 67
     7
 79
     5
170
     0
171
     0
290
     0
174
     0
 93
        1
 44
0.0
173
     0
291
     1
 45
0.0
1001
ACAD
1000
AcDbSavedByObjectVersion
1070
     0
  0
VISUALSTYLE
  5
F9D
102
{ACAD_XDICTIONARY
360
F10CA5
102
}
102
{ACAD_REACTORS
330
F93
102
}
330
F93
100
AcDbVisualStyle
  2

 70
     8
 71
     2
 72
     2
 73
     0
 90
        0
 40
-0.6
 41
-30.0
 62
     5
 63
     7
 74
     1
 91
        0
 64
     7
 65
   257
 75
     1
175
     1
 42
1.0
 92
        8
 66
     8
 43
1.0
 76
     1
 77
     6
 78
     2
 67
     7
 79
     5
170
     0
171
     0
290
     0
174
     0
 93
       13
 44
0.0
173
     0
291
     0
 45
0.0
1001
ACAD
1000
AcDbSavedByObjectVersion
1070
     0
  0
VISUALSTYLE
  5
F10AE9
102
{ACAD_XDICTIONARY
360
F10CCA
102
}
102
{ACAD_REACTORS
330
F93
102
}
330
F93
100
AcDbVisualStyle
  2
Shaded
 70
    27
 71
     2
 72
     2
 73
     1
 90
        2
 40
-0.6
 41
30.0
 62
     5
 63
     7
 74
     0
 91
        4
 64
     7
 65
   257
 75
     1
175
     1
 42
1.0
 92
        8
 66
   257
 43
1.0
 76
     1
 77
     6
 78
     2
 67
     8
 79
     3
170
     0
171
     0
290
     0
174
     0
 93
        5
 44
0.0
173
     0
291
     0
 45
0.0
1001
ACAD
1000
AcDbSavedByObjectVersion
1070
     0
  0
VISUALSTYLE
  5
F10AE8
102
{ACAD_XDICTIONARY
360
F10CC8
102
}
102
{ACAD_REACTORS
330
F93
102
}
330
F93
100
AcDbVisualStyle
  2
Shaded with edges
 70
    26
 71
     2
 72
     2
 73
     1
 90
        2
 40
-0.6
 41
30.0
 62
     5
 63
     7
 74
     1
 91
       10
 64
     7
 65
   257
 75
     2
175
     1
 42
1.0
 92
        8
 66
   257
 43
1.0
 76
     1
 77
     6
 78
     2
 67
     7
 79
     3
170
     0
171
     0
290
     0
174
     0
 93
        5
 44
0.0
173
     0
291
     0
 45
0.0
1001
ACAD
1000
AcDbSavedByObjectVersion
1070
     0
  0
VISUALSTYLE
  5
F10AE5
102
{ACAD_XDICTIONARY
360
F10CC2
102
}
102
{ACAD_REACTORS
330
F93
102
}
330
F93
100
AcDbVisualStyle
  2
Shades of Gray
 70
    23
 71
     2
 72
     2
 73
     3
 90
        0
 40
-0.6
 41
-30.0
 62
     5
 63
     7
 74
     2
 91
        2
 64
     7
 65
     7
 75
     1
175
     1
 42
40.0
 92
        8
 66
     7
 43
1.0
 76
     1
 77
     6
 78
     2
 67
     7
 79
     3
170
     0
171
     0
290
     0
174
     0
 93
        1
 44
0.0
173
     0
291
     0
 45
0.0
1001
ACAD
1000
AcDbSavedByObjectVersion
1070
     0
  0
VISUALSTYLE
  5
F10AE6
102
{ACAD_XDICTIONARY
360
F10CC4
102
}
102
{ACAD_REACTORS
330
F93
102
}
330
F93
100
AcDbVisualStyle
  2
Sketchy
 70
    24
 71
     1
 72
     2
 73
     2
 90
        0
 40
-0.6
 41
-30.0
 62
     5
 63
     7
 74
     2
 91
        2
 64
     7
 65
     7
 75
     1
175
     1
 42
40.0
 92
       11
 66
     7
 43
1.0
 76
     1
 77
     6
 78
     2
 67
     7
 79
     6
170
     0
171
     0
290
     0
174
     0
 93
        1
 44
0.0
173
     0
291
     0
 45
0.0
1001
ACAD
1000
AcDbSavedByObjectVersion
1070
     0
  0
VISUALSTYLE
  5
FA0
102
{ACAD_XDICTIONARY
360
F10CAB
102
}
102
{ACAD_REACTORS
330
F93
102
}
330
F93
100
AcDbVisualStyle
  2

 70
    13
 71
     2
 72
     2
 73
     0
 90
        0
 40
-0.6
 41
-30.0
 62
     5
 63
     7
 74
     1
 91
        4
 64
     7
 65
   257
 75
     1
175
     1
 42
1.0
 92
       12
 66
     7
 43
1.0
 76
     1
 77
     6
 78
     2
 67
     7
 79
     5
170
     0
171
     0
290
     0
174
     0
 93
        1
 44
0.0
173
     0
291
     1
 45
0.0
1001
ACAD
1000
AcDbSavedByObjectVersion
1070
     0
  0
VISUALSTYLE
  5
F10AE3
102
{ACAD_XDICTIONARY
360
F10CBE
102
}
102
{ACAD_REACTORS
330
F93
102
}
330
F93
100
AcDbVisualStyle
  2
Wireframe
 70
     5
 71
     0
 72
     2
 73
     0
 90
        0
 40
-0.6
 41
-30.0
 62
     5
 63
     7
 74
     1
 91
        4
 64
     7
 65
   257
 75
     1
175
     1
 42
1.0
 92
        0
 66
   257
 43
1.0
 76
     1
 77
     6
 78
     2
 67
     7
 79
     3
170
     0
171
     0
290
     0
174
     0
 93
        1
 44
0.0
173
     0
291
     0
 45
0.0
1001
ACAD
1000
AcDbSavedByObjectVersion
1070
     0
  0
VISUALSTYLE
  5
F10AE7
102
{ACAD_XDICTIONARY
360
F10CC6
102
}
102
{ACAD_REACTORS
330
F93
102
}
330
F93
100
AcDbVisualStyle
  2
X-Ray
 70
    25
 71
     2
 72
     2
 73
     1
 90
        1
 40
0.5
 41
-30.0
 62
     5
 63
     7
 74
     1
 91
        0
 64
     7
 65
   257
 75
     1
175
     1
 42
1.0
 92
        8
 66
     7
 43
1.0
 76
     1
 77
     6
 78
     2
 67
     7
 79
     3
170
     0
171
     0
290
     0
174
     0
 93
       13
 44
0.0
173
     0
291
     0
 45
0.0
1001
ACAD
1000
AcDbSavedByObjectVersion
1070
     0
  0
DICTIONARYVAR
  5
F10C83
102
{ACAD_REACTORS
330
F10C80
102
}
330
F10C80
100
DictionaryVariables
280
     0
  1
1:1
  0
DICTIONARYVAR
  5
F10C82
102
{ACAD_REACTORS
330
F10C80
102
}
330
F10C80
100
DictionaryVariables
280
     0
  1
STANDARD
  0
DICTIONARYVAR
  5
F10C81
102
{ACAD_REACTORS
330
F10C80
102
}
330
F10C80
100
DictionaryVariables
280
     0
  1
STANDARD
  0
DICTIONARYVAR
  5
F10C86
102
{ACAD_REACTORS
330
F10C80
102
}
330
F10C80
100
DictionaryVariables
280
     0
  1
1
  0
DICTIONARYVAR
  5
F10C85
102
{ACAD_REACTORS
330
F10C80
102
}
330
F10C80
100
DictionaryVariables
280
     0
  1
0
  0
DICTIONARYVAR
  5
F10C84
102
{ACAD_REACTORS
330
F10C80
102
}
330
F10C80
100
DictionaryVariables
280
     0
  1
127
  0
DICTIONARYVAR
  5
F10C87
102
{ACAD_REACTORS
330
F10C80
102
}
330
F10C80
100
DictionaryVariables
280
     0
  1
2
  0
DICTIONARY
  5
F10B43
102
{ACAD_REACTORS
330
F10B38
102
}
330
F10B38
100
AcDbDictionary
281
     1
  0
DICTIONARY
  5
F10CBC
330
FD1
100
AcDbDictionary
280
     1
281
     1
  3
ACAD_XREC_ROUNDTRIP
360
F10CBD
  0
DICTIONARY
  5
F10CBA
330
FD0
100
AcDbDictionary
280
     1
281
     1
  3
ACAD_XREC_ROUNDTRIP
360
F10CBB
  0
DICTIONARY
  5
F84
330
F83
100
AcDbDictionary
280
     1
281
     1
  3
ACAD_XREC_ROUNDTRIP
360
FFF
  3
BUMPTILE
360
F86
  3
DIFFUSETILE
360
F85
  3
OPACITYTILE
360
F89
  3
REFLECTIONTILE
360
F88
  3
REFRACTIONTILE
360
F8A
  3
SPECULARTILE
360
F87
  0
DICTIONARY
  5
F7C
330
F7B
100
AcDbDictionary
280
     1
281
     1
  3
ACAD_XREC_ROUNDTRIP
360
FFE
  3
BUMPTILE
360
F7E
  3
DIFFUSETILE
360
F7D
  3
OPACITYTILE
360
F81
  3
REFLECTIONTILE
360
F80
  3
REFRACTIONTILE
360
F82
  3
SPECULARTILE
360
F7F
  0
DICTIONARY
  5
F8C
330
F8B
100
AcDbDictionary
280
     1
281
     1
  3
ACAD_XREC_ROUNDTRIP
360
1000
  3
BUMPTILE
360
F8E
  3
DIFFUSETILE
360
F8D
  3
OPACITYTILE
360
F91
  3
REFLECTIONTILE
360
F90
  3
REFRACTIONTILE
360
F92
  3
SPECULARTILE
360
F8F
  0
DICTIONARY
  5
FF8
330
FA9
100
AcDbDictionary
280
     1
281
     1
  3
ACAD_ROUNDTRIP_2008_TABLESTYLE_CELLSTYLEMAP
360
F10C88
  3
ACAD_XREC_ROUNDTRIP
360
F10CB9
  0
DICTIONARY
  5
F10C9D
330
F99
100
AcDbDictionary
280
     1
281
     1
  3
ACAD_XREC_ROUNDTRIP
360
F10C9E
  0
DICTIONARY
  5
F10CA1
330
F9B
100
AcDbDictionary
280
     1
281
     1
  3
ACAD_XREC_ROUNDTRIP
360
F10CA2
  0
DICTIONARY
  5
F10C9F
330
F9A
100
AcDbDictionary
280
     1
281
     1
  3
ACAD_XREC_ROUNDTRIP
360
F10CA0
  0
DICTIONARY
  5
F10C9B
330
F98
100
AcDbDictionary
280
     1
281
     1
  3
ACAD_XREC_ROUNDTRIP
360
F10C9C
  0
DICTIONARY
  5
F10CA9
330
F9F
100
AcDbDictionary
280
     1
281
     1
  3
ACAD_XREC_ROUNDTRIP
360
F10CAA
  0
DICTIONARY
  5
F10CB1
330
FA3
100
AcDbDictionary
280
     1
281
     1
  3
ACAD_XREC_ROUNDTRIP
360
F10CB2
  0
DICTIONARY
  5
F10CA3
330
F9C
100
AcDbDictionary
280
     1
281
     1
  3
ACAD_XREC_ROUNDTRIP
360
F10CA4
  0
DICTIONARY
  5
F10CA7
330
F9E
100
AcDbDictionary
280
     1
281
     1
  3
ACAD_XREC_ROUNDTRIP
360
F10CA8
  0
DICTIONARY
  5
F10CB7
330
FA6
100
AcDbDictionary
280
     1
281
     1
  3
ACAD_XREC_ROUNDTRIP
360
F10CB8
  0
DICTIONARY
  5
F10CAF
330
FA2
100
AcDbDictionary
280
     1
281
     1
  3
ACAD_XREC_ROUNDTRIP
360
F10CB0
  0
DICTIONARY
  5
F10C93
330
F94
100
AcDbDictionary
280
     1
281
     1
  3
ACAD_XREC_ROUNDTRIP
360
F10C94
  0
DICTIONARY
  5
F10C95
330
F95
100
AcDbDictionary
280
     1
281
     1
  3
ACAD_XREC_ROUNDTRIP
360
F10C96
  0
DICTIONARY
  5
F10C97
330
F96
100
AcDbDictionary
280
     1
281
     1
  3
ACAD_XREC_ROUNDTRIP
360
F10C98
  0
DICTIONARY
  5
F10C99
330
F97
100
AcDbDictionary
280
     1
281
     1
  3
ACAD_XREC_ROUNDTRIP
360
F10C9A
  0
DICTIONARY
  5
F10CC0
330
F10AE4
100
AcDbDictionary
280
     1
281
     1
  3
ACAD_XREC_ROUNDTRIP
360
F10CC1
  0
DICTIONARY
  5
F10CB3
330
FA4
100
AcDbDictionary
280
     1
281
     1
  3
ACAD_XREC_ROUNDTRIP
360
F10CB4
  0
DICTIONARY
  5
F10CAD
330
FA1
100
AcDbDictionary
280
     1
281
     1
  3
ACAD_XREC_ROUNDTRIP
360
F10CAE
  0
DICTIONARY
  5
F10CB5
330
FA5
100
AcDbDictionary
280
     1
281
     1
  3
ACAD_XREC_ROUNDTRIP
360
F10CB6
  0
DICTIONARY
  5
F10CA5
330
F9D
100
AcDbDictionary
280
     1
281
     1
  3
ACAD_XREC_ROUNDTRIP
360
F10CA6
  0
DICTIONARY
  5
F10CCA
330
F10AE9
100
AcDbDictionary
280
     1
281
     1
  3
ACAD_XREC_ROUNDTRIP
360
F10CCB
  0
DICTIONARY
  5
F10CC8
330
F10AE8
100
AcDbDictionary
280
     1
281
     1
  3
ACAD_XREC_ROUNDTRIP
360
F10CC9
  0
DICTIONARY
  5
F10CC2
330
F10AE5
100
AcDbDictionary
280
     1
281
     1
  3
ACAD_XREC_ROUNDTRIP
360
F10CC3
  0
DICTIONARY
  5
F10CC4
330
F10AE6
100
AcDbDictionary
280
     1
281
     1
  3
ACAD_XREC_ROUNDTRIP
360
F10CC5
  0
DICTIONARY
  5
F10CAB
330
FA0
100
AcDbDictionary
280
     1
281
     1
  3
ACAD_XREC_ROUNDTRIP
360
F10CAC
  0
DICTIONARY
  5
F10CBE
330
F10AE3
100
AcDbDictionary
280
     1
281
     1
  3
ACAD_XREC_ROUNDTRIP
360
F10CBF
  0
DICTIONARY
  5
F10CC6
330
F10AE7
100
AcDbDictionary
280
     1
281
     1
  3
ACAD_XREC_ROUNDTRIP
360
F10CC7
  0
XRECORD
  5
F10CBD
102
{ACAD_REACTORS
330
F10CBC
102
}
330
F10CBC
100
AcDbXrecord
280
     1
102
SHADEPLOT
 70
     0
102
SHADEPLOTRESLEVEL
 70
     2
102
SHADEPLOTCUSTOMDPI
 70
   300
  0
XRECORD
  5
F10CBB
102
{ACAD_REACTORS
330
F10CBA
102
}
330
F10CBA
100
AcDbXrecord
280
     1
102
SHADEPLOT
 70
     0
102
SHADEPLOTRESLEVEL
 70
     2
102
SHADEPLOTCUSTOMDPI
 70
   300
  0
XRECORD
  5
FFF
102
{ACAD_REACTORS
330
F84
102
}
330
F84
100
AcDbXrecord
280
     1
102
MATERIAL
148
0.0
149
0.0
149
0.0
 93
        0
 94
      127
282
     0
 72
     0
 77
     0
171
     0
175
     0
179
     0
273
     0
  0
XRECORD
  5
F86
102
{ACAD_REACTORS
330
F84
102
}
330
F84
100
AcDbXrecord
280
     1
270
     1
271
     1
  0
XRECORD
  5
F85
102
{ACAD_REACTORS
330
F84
102
}
330
F84
100
AcDbXrecord
280
     1
270
     1
271
     1
  0
XRECORD
  5
F89
102
{ACAD_REACTORS
330
F84
102
}
330
F84
100
AcDbXrecord
280
     1
270
     1
271
     1
  0
XRECORD
  5
F88
102
{ACAD_REACTORS
330
F84
102
}
330
F84
100
AcDbXrecord
280
     1
270
     1
271
     1
  0
XRECORD
  5
F8A
102
{ACAD_REACTORS
330
F84
102
}
330
F84
100
AcDbXrecord
280
     1
270
     1
271
     1
  0
XRECORD
  5
F87
102
{ACAD_REACTORS
330
F84
102
}
330
F84
100
AcDbXrecord
280
     1
270
     1
271
     1
  0
XRECORD
  5
FFE
102
{ACAD_REACTORS
330
F7C
102
}
330
F7C
100
AcDbXrecord
280
     1
102
MATERIAL
148
0.0
149
0.0
149
0.0
 93
        0
 94
      127
282
     0
 72
     0
 77
     0
171
     0
175
     0
179
     0
273
     0
  0
XRECORD
  5
F7E
102
{ACAD_REACTORS
330
F7C
102
}
330
F7C
100
AcDbXrecord
280
     1
270
     1
271
     1
  0
XRECORD
  5
F7D
102
{ACAD_REACTORS
330
F7C
102
}
330
F7C
100
AcDbXrecord
280
     1
270
     1
271
     1
  0
XRECORD
  5
F81
102
{ACAD_REACTORS
330
F7C
102
}
330
F7C
100
AcDbXrecord
280
     1
270
     1
271
     1
  0
XRECORD
  5
F80
102
{ACAD_REACTORS
330
F7C
102
}
330
F7C
100
AcDbXrecord
280
     1
270
     1
271
     1
  0
XRECORD
  5
F82
102
{ACAD_REACTORS
330
F7C
102
}
330
F7C
100
AcDbXrecord
280
     1
270
     1
271
     1
  0
XRECORD
  5
F7F
102
{ACAD_REACTORS
330
F7C
102
}
330
F7C
100
AcDbXrecord
280
     1
270
     1
271
     1
  0
XRECORD
  5
1000
102
{ACAD_REACTORS
330
F8C
102
}
330
F8C
100
AcDbXrecord
280
     1
102
MATERIAL
148
0.0
149
0.0
149
0.0
 93
        0
 94
      127
282
     0
 72
     0
 77
     0
171
     0
175
     0
179
     0
273
     0
  0
XRECORD
  5
F8E
102
{ACAD_REACTORS
330
F8C
102
}
330
F8C
100
AcDbXrecord
280
     1
270
     1
271
     1
  0
XRECORD
  5
F8D
102
{ACAD_REACTORS
330
F8C
102
}
330
F8C
100
AcDbXrecord
280
     1
270
     1
271
     1
  0
XRECORD
  5
F91
102
{ACAD_REACTORS
330
F8C
102
}
330
F8C
100
AcDbXrecord
280
     1
270
     1
271
     1
  0
XRECORD
  5
F90
102
{ACAD_REACTORS
330
F8C
102
}
330
F8C
100
AcDbXrecord
280
     1
270
     1
271
     1
  0
XRECORD
  5
F92
102
{ACAD_REACTORS
330
F8C
102
}
330
F8C
100
AcDbXrecord
280
     1
270
     1
271
     1
  0
XRECORD
  5
F8F
102
{ACAD_REACTORS
330
F8C
102
}
330
F8C
100
AcDbXrecord
280
     1
270
     1
271
     1
  0
CELLSTYLEMAP
  5
F10C88
102
{ACAD_REACTORS
330
FF8
102
}
330
FF8
100
AcDbCellStyleMap
 90
        3
300
CELLSTYLE
  1
TABLEFORMAT_BEGIN
 90
        5
170
     1
 91
        0
 92
    32768
 62
   257
 93
        1
300
CONTENTFORMAT
  1
CONTENTFORMAT_BEGIN
 90
        0
 91
        0
 92
      512
 93
        0
300

 40
0.0
140
1.0
 94
        5
 62
     0
340
253
144
0.25
309
CONTENTFORMAT_END
171
     1
301
MARGIN
  1
CELLMARGIN_BEGIN
 40
0.06
 40
0.06
 40
0.06
 40
0.06
 40
0.18
 40
0.18
309
CELLMARGIN_END
 94
        6
 95
        1
302
GRIDFORMAT
  1
GRIDFORMAT_BEGIN
 90
        0
 91
        1
 62
     0
 92
       -2
340
0
 93
        0
 40
0.045
309
GRIDFORMAT_END
 95
        2
302
GRIDFORMAT
  1
GRIDFORMAT_BEGIN
 90
        0
 91
        1
 62
     0
 92
       -2
340
0
 93
        0
 40
0.045
309
GRIDFORMAT_END
 95
        4
302
GRIDFORMAT
  1
GRIDFORMAT_BEGIN
 90
        0
 91
        1
 62
     0
 92
       -2
340
0
 93
        0
 40
0.045
309
GRIDFORMAT_END
 95
        8
302
GRIDFORMAT
  1
GRIDFORMAT_BEGIN
 90
        0
 91
        1
 62
     0
 92
       -2
340
0
 93
        0
 40
0.045
309
GRIDFORMAT_END
 95
       16
302
GRIDFORMAT
  1
GRIDFORMAT_BEGIN
 90
        0
 91
        1
 62
     0
 92
       -2
340
0
 93
        0
 40
0.045
309
GRIDFORMAT_END
 95
       32
302
GRIDFORMAT
  1
GRIDFORMAT_BEGIN
 90
        0
 91
        1
 62
     0
 92
       -2
340
0
 93
        0
 40
0.045
309
GRIDFORMAT_END
309
TABLEFORMAT_END
  1
CELLSTYLE_BEGIN
 90
        1
 91
        1
300
_TITLE
309
CELLSTYLE_END
300
CELLSTYLE
  1
TABLEFORMAT_BEGIN
 90
        5
170
     1
 91
        0
 92
        0
 62
   257
 93
        1
300
CONTENTFORMAT
  1
CONTENTFORMAT_BEGIN
 90
        0
 91
        0
 92
      512
 93
        0
300

 40
0.0
140
1.0
 94
        5
 62
     0
340
253
144
0.18
309
CONTENTFORMAT_END
171
     1
301
MARGIN
  1
CELLMARGIN_BEGIN
 40
0.06
 40
0.06
 40
0.06
 40
0.06
 40
0.18
 40
0.18
309
CELLMARGIN_END
 94
        6
 95
        1
302
GRIDFORMAT
  1
GRIDFORMAT_BEGIN
 90
        0
 91
        1
 62
     0
 92
       -2
340
0
 93
        0
 40
0.045
309
GRIDFORMAT_END
 95
        2
302
GRIDFORMAT
  1
GRIDFORMAT_BEGIN
 90
        0
 91
        1
 62
     0
 92
       -2
340
0
 93
        0
 40
0.045
309
GRIDFORMAT_END
 95
        4
302
GRIDFORMAT
  1
GRIDFORMAT_BEGIN
 90
        0
 91
        1
 62
     0
 92
       -2
340
0
 93
        0
 40
0.045
309
GRIDFORMAT_END
 95
        8
302
GRIDFORMAT
  1
GRIDFORMAT_BEGIN
 90
        0
 91
        1
 62
     0
 92
       -2
340
0
 93
        0
 40
0.045
309
GRIDFORMAT_END
 95
       16
302
GRIDFORMAT
  1
GRIDFORMAT_BEGIN
 90
        0
 91
        1
 62
     0
 92
       -2
340
0
 93
        0
 40
0.045
309
GRIDFORMAT_END
 95
       32
302
GRIDFORMAT
  1
GRIDFORMAT_BEGIN
 90
        0
 91
        1
 62
     0
 92
       -2
340
0
 93
        0
 40
0.045
309
GRIDFORMAT_END
309
TABLEFORMAT_END
  1
CELLSTYLE_BEGIN
 90
        2
 91
        1
300
_HEADER
309
CELLSTYLE_END
300
CELLSTYLE
  1
TABLEFORMAT_BEGIN
 90
        5
170
     1
 91
        0
 92
        0
 62
   257
 93
        1
300
CONTENTFORMAT
  1
CONTENTFORMAT_BEGIN
 90
        0
 91
        0
 92
      512
 93
        0
300

 40
0.0
140
1.0
 94
        2
 62
     0
340
253
144
0.18
309
CONTENTFORMAT_END
171
     1
301
MARGIN
  1
CELLMARGIN_BEGIN
 40
0.06
 40
0.06
 40
0.06
 40
0.06
 40
0.18
 40
0.18
309
CELLMARGIN_END
 94
        6
 95
        1
302
GRIDFORMAT
  1
GRIDFORMAT_BEGIN
 90
        0
 91
        1
 62
     0
 92
       -2
340
0
 93
        0
 40
0.045
309
GRIDFORMAT_END
 95
        2
302
GRIDFORMAT
  1
GRIDFORMAT_BEGIN
 90
        0
 91
        1
 62
     0
 92
       -2
340
0
 93
        0
 40
0.045
309
GRIDFORMAT_END
 95
        4
302
GRIDFORMAT
  1
GRIDFORMAT_BEGIN
 90
        0
 91
        1
 62
     0
 92
       -2
340
0
 93
        0
 40
0.045
309
GRIDFORMAT_END
 95
        8
302
GRIDFORMAT
  1
GRIDFORMAT_BEGIN
 90
        0
 91
        1
 62
     0
 92
       -2
340
0
 93
        0
 40
0.045
309
GRIDFORMAT_END
 95
       16
302
GRIDFORMAT
  1
GRIDFORMAT_BEGIN
 90
        0
 91
        1
 62
     0
 92
       -2
340
0
 93
        0
 40
0.045
309
GRIDFORMAT_END
 95
       32
302
GRIDFORMAT
  1
GRIDFORMAT_BEGIN
 90
        0
 91
        1
 62
     0
 92
       -2
340
0
 93
        0
 40
0.045
309
GRIDFORMAT_END
309
TABLEFORMAT_END
  1
CELLSTYLE_BEGIN
 90
        3
 91
        2
300
_DATA
309
CELLSTYLE_END
  0
XRECORD
  5
F10CB9
102
{ACAD_REACTORS
330
FF8
102
}
330
FF8
100
AcDbXrecord
280
     1
102
ACAD_ROUNDTRIP_PRE2007_TABLESTYLE
 90
      512
 91
        0
  1

 92
      512
 93
        0
  2

 94
      512
 95
        0
  3

  0
XRECORD
  5
F10C9E
102
{ACAD_REACTORS
330
F10C9D
102
}
330
F10C9D
100
AcDbXrecord
280
     1
102
RTVSPropertyOp0
 70
     1
102
RTVSPropertyOp1
 70
     1
102
RTVSPropertyOp2
 70
     1
102
RTVSPropertyOp3
 70
     1
102
RTVSPropertyOp4
 70
     1
102
RTVSPropertyOp5
 70
     1
102
RTVSPropertyOp6
 70
     1
102
RTVSPropertyOp7
 70
     1
102
RTVSPropertyOp8
 70
     1
102
RTVSPropertyOp9
 70
     1
102
RTVSPropertyOp10
 70
     1
102
RTVSPropertyOp11
 70
     1
102
RTVSPropertyOp12
 70
     1
102
RTVSPropertyOp13
 70
     1
102
RTVSPropertyOp14
 70
     1
102
RTVSPropertyOp15
 70
     1
102
RTVSPropertyOp16
 70
     1
102
RTVSPropertyOp17
 70
     1
102
RTVSPropertyOp18
 70
     1
102
RTVSPropertyOp19
 70
     1
102
RTVSPropertyOp20
 70
     1
102
RTVSPropertyOp21
 70
     1
102
RTVSPropertyOp22
 70
     1
102
RTVSPropertyOp23
 70
     1
102
RTVSPropertyOp24
 70
     1
102
RTVSPropertyOp25
 70
     1
102
RTVSPropertyOp26
 70
     1
102
RTVSPropertyOp27
 70
     1
102
RTVSPropertyOp28
 70
     1
102
RTVSPropertyOp29
 70
     1
102
RTVSPropertyOp30
 70
     1
102
RTVSPropertyOp31
 70
     1
102
RTVSPropertyOp32
 70
     1
  0
XRECORD
  5
F10CA2
102
{ACAD_REACTORS
330
F10CA1
102
}
330
F10CA1
100
AcDbXrecord
280
     1
102
RTVSPropertyOp0
 70
     1
102
RTVSPropertyOp1
 70
     1
102
RTVSPropertyOp2
 70
     1
102
RTVSPropertyOp3
 70
     1
102
RTVSPropertyOp4
 70
     1
102
RTVSPropertyOp5
 70
     1
102
RTVSPropertyOp6
 70
     1
102
RTVSPropertyOp7
 70
     1
102
RTVSPropertyOp8
 70
     1
102
RTVSPropertyOp9
 70
     1
102
RTVSPropertyOp10
 70
     1
102
RTVSPropertyOp11
 70
     1
102
RTVSPropertyOp12
 70
     1
102
RTVSPropertyOp13
 70
     1
102
RTVSPropertyOp14
 70
     1
102
RTVSPropertyOp15
 70
     1
102
RTVSPropertyOp16
 70
     1
102
RTVSPropertyOp17
 70
     1
102
RTVSPropertyOp18
 70
     1
102
RTVSPropertyOp19
 70
     1
102
RTVSPropertyOp20
 70
     1
102
RTVSPropertyOp21
 70
     1
102
RTVSPropertyOp22
 70
     1
102
RTVSPropertyOp23
 70
     1
102
RTVSPropertyOp24
 70
     1
102
RTVSPropertyOp25
 70
     1
102
RTVSPropertyOp26
 70
     1
102
RTVSPropertyOp27
 70
     1
102
RTVSPropertyOp28
 70
     1
102
RTVSPropertyOp29
 70
     1
102
RTVSPropertyOp30
 70
     1
102
RTVSPropertyOp31
 70
     1
102
RTVSPropertyOp32
 70
     1
  0
XRECORD
  5
F10CA0
102
{ACAD_REACTORS
330
F10C9F
102
}
330
F10C9F
100
AcDbXrecord
280
     1
102
RTVSPropertyOp0
 70
     1
102
RTVSPropertyOp1
 70
     1
102
RTVSPropertyOp2
 70
     1
102
RTVSPropertyOp3
 70
     1
102
RTVSPropertyOp4
 70
     1
102
RTVSPropertyOp5
 70
     1
102
RTVSPropertyOp6
 70
     1
102
RTVSPropertyOp7
 70
     1
102
RTVSPropertyOp8
 70
     1
102
RTVSPropertyOp9
 70
     1
102
RTVSPropertyOp10
 70
     1
102
RTVSPropertyOp11
 70
     1
102
RTVSPropertyOp12
 70
     1
102
RTVSPropertyOp13
 70
     1
102
RTVSPropertyOp14
 70
     1
102
RTVSPropertyOp15
 70
     1
102
RTVSPropertyOp16
 70
     1
102
RTVSPropertyOp17
 70
     1
102
RTVSPropertyOp18
 70
     1
102
RTVSPropertyOp19
 70
     1
102
RTVSPropertyOp20
 70
     1
102
RTVSPropertyOp21
 70
     1
102
RTVSPropertyOp22
 70
     1
102
RTVSPropertyOp23
 70
     1
102
RTVSPropertyOp24
 70
     1
102
RTVSPropertyOp25
 70
     1
102
RTVSPropertyOp26
 70
     1
102
RTVSPropertyOp27
 70
     1
102
RTVSPropertyOp28
 70
     1
102
RTVSPropertyOp29
 70
     1
102
RTVSPropertyOp30
 70
     1
102
RTVSPropertyOp31
 70
     1
102
RTVSPropertyOp32
 70
     1
  0
XRECORD
  5
F10C9C
102
{ACAD_REACTORS
330
F10C9B
102
}
330
F10C9B
100
AcDbXrecord
280
     1
102
RTVSPropertyOp0
 70
     1
102
RTVSPropertyOp1
 70
     1
102
RTVSPropertyOp2
 70
     1
102
RTVSPropertyOp3
 70
     1
102
RTVSPropertyOp4
 70
     1
102
RTVSPropertyOp5
 70
     1
102
RTVSPropertyOp6
 70
     1
102
RTVSPropertyOp7
 70
     1
102
RTVSPropertyOp8
 70
     1
102
RTVSPropertyOp9
 70
     1
102
RTVSPropertyOp10
 70
     1
102
RTVSPropertyOp11
 70
     1
102
RTVSPropertyOp12
 70
     1
102
RTVSPropertyOp13
 70
     1
102
RTVSPropertyOp14
 70
     1
102
RTVSPropertyOp15
 70
     1
102
RTVSPropertyOp16
 70
     1
102
RTVSPropertyOp17
 70
     1
102
RTVSPropertyOp18
 70
     1
102
RTVSPropertyOp19
 70
     1
102
RTVSPropertyOp20
 70
     1
102
RTVSPropertyOp21
 70
     1
102
RTVSPropertyOp22
 70
     1
102
RTVSPropertyOp23
 70
     1
102
RTVSPropertyOp24
 70
     1
102
RTVSPropertyOp25
 70
     1
102
RTVSPropertyOp26
 70
     1
102
RTVSPropertyOp27
 70
     1
102
RTVSPropertyOp28
 70
     1
102
RTVSPropertyOp29
 70
     1
102
RTVSPropertyOp30
 70
     1
102
RTVSPropertyOp31
 70
     1
102
RTVSPropertyOp32
 70
     1
  0
XRECORD
  5
F10CAA
102
{ACAD_REACTORS
330
F10CA9
102
}
330
F10CA9
100
AcDbXrecord
280
     1
102
RTVSPropertyOp0
 70
     1
102
RTVSPropertyOp1
 70
     1
102
RTVSPropertyOp2
 70
     1
102
RTVSPropertyOp3
 70
     1
102
RTVSPropertyOp4
 70
     1
102
RTVSPropertyOp5
 70
     1
102
RTVSPropertyOp6
 70
     1
102
RTVSPropertyOp7
 70
     1
102
RTVSPropertyOp8
 70
     1
102
RTVSPropertyOp9
 70
     1
102
RTVSPropertyOp10
 70
     1
102
RTVSPropertyOp11
 70
     1
102
RTVSPropertyOp12
 70
     1
102
RTVSPropertyOp13
 70
     1
102
RTVSPropertyOp14
 70
     1
102
RTVSPropertyOp15
 70
     1
102
RTVSPropertyOp16
 70
     1
102
RTVSPropertyOp17
 70
     1
102
RTVSPropertyOp18
 70
     1
102
RTVSPropertyOp19
 70
     1
102
RTVSPropertyOp20
 70
     1
102
RTVSPropertyOp21
 70
     1
102
RTVSPropertyOp22
 70
     1
102
RTVSPropertyOp23
 70
     1
102
RTVSPropertyOp24
 70
     1
102
RTVSPropertyOp25
 70
     1
102
RTVSPropertyOp26
 70
     1
102
RTVSPropertyOp27
 70
     1
102
RTVSPropertyOp28
 70
     1
102
RTVSPropertyOp29
 70
     1
102
RTVSPropertyOp30
 70
     1
102
RTVSPropertyOp31
 70
     1
102
RTVSPropertyOp32
 70
     1
  0
XRECORD
  5
F10CB2
102
{ACAD_REACTORS
330
F10CB1
102
}
330
F10CB1
100
AcDbXrecord
280
     1
102
RTVSPropertyOp0
 70
     1
102
RTVSPropertyOp1
 70
     1
102
RTVSPropertyOp2
 70
     1
102
RTVSPropertyOp3
 70
     1
102
RTVSPropertyOp4
 70
     1
102
RTVSPropertyOp5
 70
     1
102
RTVSPropertyOp6
 70
     1
102
RTVSPropertyOp7
 70
     1
102
RTVSPropertyOp8
 70
     1
102
RTVSPropertyOp9
 70
     1
102
RTVSPropertyOp10
 70
     1
102
RTVSPropertyOp11
 70
     1
102
RTVSPropertyOp12
 70
     1
102
RTVSPropertyOp13
 70
     1
102
RTVSPropertyOp14
 70
     1
102
RTVSPropertyOp15
 70
     1
102
RTVSPropertyOp16
 70
     1
102
RTVSPropertyOp17
 70
     1
102
RTVSPropertyOp18
 70
     1
102
RTVSPropertyOp19
 70
     1
102
RTVSPropertyOp20
 70
     1
102
RTVSPropertyOp21
 70
     1
102
RTVSPropertyOp22
 70
     1
102
RTVSPropertyOp23
 70
     1
102
RTVSPropertyOp24
 70
     1
102
RTVSPropertyOp25
 70
     1
102
RTVSPropertyOp26
 70
     1
102
RTVSPropertyOp27
 70
     1
102
RTVSPropertyOp28
 70
     1
102
RTVSPropertyOp29
 70
     1
102
RTVSPropertyOp30
 70
     1
102
RTVSPropertyOp31
 70
     1
102
RTVSPropertyOp32
 70
     1
  0
XRECORD
  5
F10CA4
102
{ACAD_REACTORS
330
F10CA3
102
}
330
F10CA3
100
AcDbXrecord
280
     1
102
RTVSPropertyOp0
 70
     1
102
RTVSPropertyOp1
 70
     1
102
RTVSPropertyOp2
 70
     1
102
RTVSPropertyOp3
 70
     1
102
RTVSPropertyOp4
 70
     1
102
RTVSPropertyOp5
 70
     1
102
RTVSPropertyOp6
 70
     1
102
RTVSPropertyOp7
 70
     1
102
RTVSPropertyOp8
 70
     1
102
RTVSPropertyOp9
 70
     1
102
RTVSPropertyOp10
 70
     1
102
RTVSPropertyOp11
 70
     1
102
RTVSPropertyOp12
 70
     1
102
RTVSPropertyOp13
 70
     1
102
RTVSPropertyOp14
 70
     1
102
RTVSPropertyOp15
 70
     1
102
RTVSPropertyOp16
 70
     1
102
RTVSPropertyOp17
 70
     1
102
RTVSPropertyOp18
 70
     1
102
RTVSPropertyOp19
 70
     1
102
RTVSPropertyOp20
 70
     1
102
RTVSPropertyOp21
 70
     1
102
RTVSPropertyOp22
 70
     1
102
RTVSPropertyOp23
 70
     1
102
RTVSPropertyOp24
 70
     1
102
RTVSPropertyOp25
 70
     1
102
RTVSPropertyOp26
 70
     1
102
RTVSPropertyOp27
 70
     1
102
RTVSPropertyOp28
 70
     1
102
RTVSPropertyOp29
 70
     1
102
RTVSPropertyOp30
 70
     1
102
RTVSPropertyOp31
 70
     1
102
RTVSPropertyOp32
 70
     1
  0
XRECORD
  5
F10CA8
102
{ACAD_REACTORS
330
F10CA7
102
}
330
F10CA7
100
AcDbXrecord
280
     1
102
RTVSPropertyOp0
 70
     1
102
RTVSPropertyOp1
 70
     1
102
RTVSPropertyOp2
 70
     1
102
RTVSPropertyOp3
 70
     1
102
RTVSPropertyOp4
 70
     1
102
RTVSPropertyOp5
 70
     1
102
RTVSPropertyOp6
 70
     1
102
RTVSPropertyOp7
 70
     1
102
RTVSPropertyOp8
 70
     1
102
RTVSPropertyOp9
 70
     1
102
RTVSPropertyOp10
 70
     1
102
RTVSPropertyOp11
 70
     1
102
RTVSPropertyOp12
 70
     1
102
RTVSPropertyOp13
 70
     1
102
RTVSPropertyOp14
 70
     1
102
RTVSPropertyOp15
 70
     1
102
RTVSPropertyOp16
 70
     1
102
RTVSPropertyOp17
 70
     1
102
RTVSPropertyOp18
 70
     1
102
RTVSPropertyOp19
 70
     1
102
RTVSPropertyOp20
 70
     1
102
RTVSPropertyOp21
 70
     1
102
RTVSPropertyOp22
 70
     1
102
RTVSPropertyOp23
 70
     1
102
RTVSPropertyOp24
 70
     1
102
RTVSPropertyOp25
 70
     1
102
RTVSPropertyOp26
 70
     1
102
RTVSPropertyOp27
 70
     1
102
RTVSPropertyOp28
 70
     1
102
RTVSPropertyOp29
 70
     1
102
RTVSPropertyOp30
 70
     1
102
RTVSPropertyOp31
 70
     1
102
RTVSPropertyOp32
 70
     1
  0
XRECORD
  5
F10CB8
102
{ACAD_REACTORS
330
F10CB7
102
}
330
F10CB7
100
AcDbXrecord
280
     1
102
RTVSPropertyOp0
 70
     0
102
RTVSPropertyOp1
 70
     0
102
RTVSPropertyOp2
 70
     0
102
RTVSPropertyOp3
 70
     0
102
RTVSPropertyOp4
 70
     0
102
RTVSPropertyOp5
 70
     0
102
RTVSPropertyOp6
 70
     0
102
RTVSPropertyOp7
 70
     0
102
RTVSPropertyOp8
 70
     0
102
RTVSPropertyOp9
 70
     0
102
RTVSPropertyOp10
 70
     0
102
RTVSPropertyOp11
 70
     0
102
RTVSPropertyOp12
 70
     0
102
RTVSPropertyOp13
 70
     0
102
RTVSPropertyOp14
 70
     2
102
RTVSPropertyOp15
 70
     0
102
RTVSPropertyOp16
 70
     0
102
RTVSPropertyOp17
 70
     0
102
RTVSPropertyOp18
 70
     0
102
RTVSPropertyOp19
 70
     0
102
RTVSPropertyOp20
 70
     0
102
RTVSPropertyOp21
 70
     0
102
RTVSPropertyOp22
 70
     0
102
RTVSPropertyOp23
 70
     0
102
RTVSPropertyOp24
 70
     0
102
RTVSPropertyOp25
 70
     0
102
RTVSPropertyOp26
 70
     0
102
RTVSPropertyOp27
 70
     0
102
RTVSPropertyOp28
 70
     1
102
RTVSPropertyOp29
 70
     1
102
RTVSPropertyOp30
 70
     1
102
RTVSPropertyOp31
 70
     1
102
RTVSPropertyOp32
 70
     1
  0
XRECORD
  5
F10CB0
102
{ACAD_REACTORS
330
F10CAF
102
}
330
F10CAF
100
AcDbXrecord
280
     1
102
RTVSPropertyOp0
 70
     1
102
RTVSPropertyOp1
 70
     1
102
RTVSPropertyOp2
 70
     1
102
RTVSPropertyOp3
 70
     1
102
RTVSPropertyOp4
 70
     1
102
RTVSPropertyOp5
 70
     1
102
RTVSPropertyOp6
 70
     1
102
RTVSPropertyOp7
 70
     1
102
RTVSPropertyOp8
 70
     1
102
RTVSPropertyOp9
 70
     1
102
RTVSPropertyOp10
 70
     1
102
RTVSPropertyOp11
 70
     1
102
RTVSPropertyOp12
 70
     1
102
RTVSPropertyOp13
 70
     1
102
RTVSPropertyOp14
 70
     1
102
RTVSPropertyOp15
 70
     1
102
RTVSPropertyOp16
 70
     1
102
RTVSPropertyOp17
 70
     1
102
RTVSPropertyOp18
 70
     1
102
RTVSPropertyOp19
 70
     1
102
RTVSPropertyOp20
 70
     1
102
RTVSPropertyOp21
 70
     1
102
RTVSPropertyOp22
 70
     1
102
RTVSPropertyOp23
 70
     1
102
RTVSPropertyOp24
 70
     1
102
RTVSPropertyOp25
 70
     1
102
RTVSPropertyOp26
 70
     1
102
RTVSPropertyOp27
 70
     1
102
RTVSPropertyOp28
 70
     1
102
RTVSPropertyOp29
 70
     1
102
RTVSPropertyOp30
 70
     1
102
RTVSPropertyOp31
 70
     1
102
RTVSPropertyOp32
 70
     1
  0
XRECORD
  5
F10C94
102
{ACAD_REACTORS
330
F10C93
102
}
330
F10C93
100
AcDbXrecord
280
     1
102
RTVSPropertyOp0
 70
     1
102
RTVSPropertyOp1
 70
     1
102
RTVSPropertyOp2
 70
     1
102
RTVSPropertyOp3
 70
     1
102
RTVSPropertyOp4
 70
     1
102
RTVSPropertyOp5
 70
     1
102
RTVSPropertyOp6
 70
     1
102
RTVSPropertyOp7
 70
     1
102
RTVSPropertyOp8
 70
     1
102
RTVSPropertyOp9
 70
     1
102
RTVSPropertyOp10
 70
     1
102
RTVSPropertyOp11
 70
     1
102
RTVSPropertyOp12
 70
     1
102
RTVSPropertyOp13
 70
     1
102
RTVSPropertyOp14
 70
     1
102
RTVSPropertyOp15
 70
     1
102
RTVSPropertyOp16
 70
     1
102
RTVSPropertyOp17
 70
     1
102
RTVSPropertyOp18
 70
     1
102
RTVSPropertyOp19
 70
     1
102
RTVSPropertyOp20
 70
     1
102
RTVSPropertyOp21
 70
     1
102
RTVSPropertyOp22
 70
     1
102
RTVSPropertyOp23
 70
     1
102
RTVSPropertyOp24
 70
     1
102
RTVSPropertyOp25
 70
     1
102
RTVSPropertyOp26
 70
     1
102
RTVSPropertyOp27
 70
     1
102
RTVSPropertyOp28
 70
     1
102
RTVSPropertyOp29
 70
     1
102
RTVSPropertyOp30
 70
     1
102
RTVSPropertyOp31
 70
     1
102
RTVSPropertyOp32
 70
     1
  0
XRECORD
  5
F10C96
102
{ACAD_REACTORS
330
F10C95
102
}
330
F10C95
100
AcDbXrecord
280
     1
102
RTVSPropertyOp0
 70
     1
102
RTVSPropertyOp1
 70
     1
102
RTVSPropertyOp2
 70
     1
102
RTVSPropertyOp3
 70
     1
102
RTVSPropertyOp4
 70
     1
102
RTVSPropertyOp5
 70
     1
102
RTVSPropertyOp6
 70
     1
102
RTVSPropertyOp7
 70
     1
102
RTVSPropertyOp8
 70
     1
102
RTVSPropertyOp9
 70
     1
102
RTVSPropertyOp10
 70
     1
102
RTVSPropertyOp11
 70
     1
102
RTVSPropertyOp12
 70
     1
102
RTVSPropertyOp13
 70
     1
102
RTVSPropertyOp14
 70
     1
102
RTVSPropertyOp15
 70
     1
102
RTVSPropertyOp16
 70
     1
102
RTVSPropertyOp17
 70
     1
102
RTVSPropertyOp18
 70
     1
102
RTVSPropertyOp19
 70
     1
102
RTVSPropertyOp20
 70
     1
102
RTVSPropertyOp21
 70
     1
102
RTVSPropertyOp22
 70
     1
102
RTVSPropertyOp23
 70
     1
102
RTVSPropertyOp24
 70
     1
102
RTVSPropertyOp25
 70
     1
102
RTVSPropertyOp26
 70
     1
102
RTVSPropertyOp27
 70
     1
102
RTVSPropertyOp28
 70
     1
102
RTVSPropertyOp29
 70
     1
102
RTVSPropertyOp30
 70
     1
102
RTVSPropertyOp31
 70
     1
102
RTVSPropertyOp32
 70
     1
  0
XRECORD
  5
F10C98
102
{ACAD_REACTORS
330
F10C97
102
}
330
F10C97
100
AcDbXrecord
280
     1
102
RTVSPropertyOp0
 70
     1
102
RTVSPropertyOp1
 70
     1
102
RTVSPropertyOp2
 70
     1
102
RTVSPropertyOp3
 70
     1
102
RTVSPropertyOp4
 70
     1
102
RTVSPropertyOp5
 70
     1
102
RTVSPropertyOp6
 70
     1
102
RTVSPropertyOp7
 70
     1
102
RTVSPropertyOp8
 70
     1
102
RTVSPropertyOp9
 70
     1
102
RTVSPropertyOp10
 70
     1
102
RTVSPropertyOp11
 70
     1
102
RTVSPropertyOp12
 70
     1
102
RTVSPropertyOp13
 70
     1
102
RTVSPropertyOp14
 70
     1
102
RTVSPropertyOp15
 70
     1
102
RTVSPropertyOp16
 70
     1
102
RTVSPropertyOp17
 70
     1
102
RTVSPropertyOp18
 70
     1
102
RTVSPropertyOp19
 70
     1
102
RTVSPropertyOp20
 70
     1
102
RTVSPropertyOp21
 70
     1
102
RTVSPropertyOp22
 70
     1
102
RTVSPropertyOp23
 70
     1
102
RTVSPropertyOp24
 70
     1
102
RTVSPropertyOp25
 70
     1
102
RTVSPropertyOp26
 70
     1
102
RTVSPropertyOp27
 70
     1
102
RTVSPropertyOp28
 70
     1
102
RTVSPropertyOp29
 70
     1
102
RTVSPropertyOp30
 70
     1
102
RTVSPropertyOp31
 70
     1
102
RTVSPropertyOp32
 70
     1
  0
XRECORD
  5
F10C9A
102
{ACAD_REACTORS
330
F10C99
102
}
330
F10C99
100
AcDbXrecord
280
     1
102
RTVSPropertyOp0
 70
     1
102
RTVSPropertyOp1
 70
     1
102
RTVSPropertyOp2
 70
     1
102
RTVSPropertyOp3
 70
     1
102
RTVSPropertyOp4
 70
     1
102
RTVSPropertyOp5
 70
     1
102
RTVSPropertyOp6
 70
     1
102
RTVSPropertyOp7
 70
     1
102
RTVSPropertyOp8
 70
     1
102
RTVSPropertyOp9
 70
     1
102
RTVSPropertyOp10
 70
     1
102
RTVSPropertyOp11
 70
     1
102
RTVSPropertyOp12
 70
     1
102
RTVSPropertyOp13
 70
     1
102
RTVSPropertyOp14
 70
     1
102
RTVSPropertyOp15
 70
     1
102
RTVSPropertyOp16
 70
     1
102
RTVSPropertyOp17
 70
     1
102
RTVSPropertyOp18
 70
     1
102
RTVSPropertyOp19
 70
     1
102
RTVSPropertyOp20
 70
     1
102
RTVSPropertyOp21
 70
     1
102
RTVSPropertyOp22
 70
     1
102
RTVSPropertyOp23
 70
     1
102
RTVSPropertyOp24
 70
     1
102
RTVSPropertyOp25
 70
     1
102
RTVSPropertyOp26
 70
     1
102
RTVSPropertyOp27
 70
     1
102
RTVSPropertyOp28
 70
     1
102
RTVSPropertyOp29
 70
     1
102
RTVSPropertyOp30
 70
     1
102
RTVSPropertyOp31
 70
     1
102
RTVSPropertyOp32
 70
     1
  0
XRECORD
  5
F10CC1
102
{ACAD_REACTORS
330
F10CC0
102
}
330
F10CC0
100
AcDbXrecord
280
     1
102
RTVSPropertyOp0
 70
     1
102
RTVSPropertyOp1
 70
     1
102
RTVSPropertyOp2
 70
     1
102
RTVSPropertyOp3
 70
     1
102
RTVSPropertyOp4
 70
     1
102
RTVSPropertyOp5
 70
     1
102
RTVSPropertyOp6
 70
     1
102
RTVSPropertyOp7
 70
     1
102
RTVSPropertyOp8
 70
     1
102
RTVSPropertyOp9
 70
     1
102
RTVSPropertyOp10
 70
     1
102
RTVSPropertyOp11
 70
     1
102
RTVSPropertyOp12
 70
     1
102
RTVSPropertyOp13
 70
     1
102
RTVSPropertyOp14
 70
     1
102
RTVSPropertyOp15
 70
     1
102
RTVSPropertyOp16
 70
     1
102
RTVSPropertyOp17
 70
     1
102
RTVSPropertyOp18
 70
     1
102
RTVSPropertyOp19
 70
     1
102
RTVSPropertyOp20
 70
     1
102
RTVSPropertyOp21
 70
     1
102
RTVSPropertyOp22
 70
     1
102
RTVSPropertyOp23
 70
     1
102
RTVSPropertyOp24
 70
     1
102
RTVSPropertyOp25
 70
     1
102
RTVSPropertyOp26
 70
     1
102
RTVSPropertyOp27
 70
     1
102
RTVSPropertyOp28
 70
     1
102
RTVSPropertyOp29
 70
     1
102
RTVSPropertyOp30
 70
     1
102
RTVSPropertyOp31
 70
     1
102
RTVSPropertyOp32
 70
     1
  0
XRECORD
  5
F10CB4
102
{ACAD_REACTORS
330
F10CB3
102
}
330
F10CB3
100
AcDbXrecord
280
     1
102
RTVSPropertyOp0
 70
     0
102
RTVSPropertyOp1
 70
     0
102
RTVSPropertyOp2
 70
     0
102
RTVSPropertyOp3
 70
     0
102
RTVSPropertyOp4
 70
     0
102
RTVSPropertyOp5
 70
     0
102
RTVSPropertyOp6
 70
     0
102
RTVSPropertyOp7
 70
     0
102
RTVSPropertyOp8
 70
     0
102
RTVSPropertyOp9
 70
     0
102
RTVSPropertyOp10
 70
     0
102
RTVSPropertyOp11
 70
     0
102
RTVSPropertyOp12
 70
     0
102
RTVSPropertyOp13
 70
     0
102
RTVSPropertyOp14
 70
     2
102
RTVSPropertyOp15
 70
     0
102
RTVSPropertyOp16
 70
     0
102
RTVSPropertyOp17
 70
     0
102
RTVSPropertyOp18
 70
     0
102
RTVSPropertyOp19
 70
     0
102
RTVSPropertyOp20
 70
     0
102
RTVSPropertyOp21
 70
     0
102
RTVSPropertyOp22
 70
     0
102
RTVSPropertyOp23
 70
     0
102
RTVSPropertyOp24
 70
     0
102
RTVSPropertyOp25
 70
     0
102
RTVSPropertyOp26
 70
     0
102
RTVSPropertyOp27
 70
     0
102
RTVSPropertyOp28
 70
     1
102
RTVSPropertyOp29
 70
     1
102
RTVSPropertyOp30
 70
     1
102
RTVSPropertyOp31
 70
     1
102
RTVSPropertyOp32
 70
     1
  0
XRECORD
  5
F10CAE
102
{ACAD_REACTORS
330
F10CAD
102
}
330
F10CAD
100
AcDbXrecord
280
     1
102
RTVSPropertyOp0
 70
     1
102
RTVSPropertyOp1
 70
     1
102
RTVSPropertyOp2
 70
     1
102
RTVSPropertyOp3
 70
     1
102
RTVSPropertyOp4
 70
     1
102
RTVSPropertyOp5
 70
     1
102
RTVSPropertyOp6
 70
     1
102
RTVSPropertyOp7
 70
     1
102
RTVSPropertyOp8
 70
     1
102
RTVSPropertyOp9
 70
     1
102
RTVSPropertyOp10
 70
     1
102
RTVSPropertyOp11
 70
     1
102
RTVSPropertyOp12
 70
     1
102
RTVSPropertyOp13
 70
     1
102
RTVSPropertyOp14
 70
     1
102
RTVSPropertyOp15
 70
     1
102
RTVSPropertyOp16
 70
     1
102
RTVSPropertyOp17
 70
     1
102
RTVSPropertyOp18
 70
     1
102
RTVSPropertyOp19
 70
     1
102
RTVSPropertyOp20
 70
     1
102
RTVSPropertyOp21
 70
     1
102
RTVSPropertyOp22
 70
     1
102
RTVSPropertyOp23
 70
     1
102
RTVSPropertyOp24
 70
     1
102
RTVSPropertyOp25
 70
     1
102
RTVSPropertyOp26
 70
     1
102
RTVSPropertyOp27
 70
     1
102
RTVSPropertyOp28
 70
     1
102
RTVSPropertyOp29
 70
     1
102
RTVSPropertyOp30
 70
     1
102
RTVSPropertyOp31
 70
     1
102
RTVSPropertyOp32
 70
     1
  0
XRECORD
  5
F10CB6
102
{ACAD_REACTORS
330
F10CB5
102
}
330
F10CB5
100
AcDbXrecord
280
     1
102
RTVSPropertyOp0
 70
     0
102
RTVSPropertyOp1
 70
     0
102
RTVSPropertyOp2
 70
     0
102
RTVSPropertyOp3
 70
     0
102
RTVSPropertyOp4
 70
     0
102
RTVSPropertyOp5
 70
     0
102
RTVSPropertyOp6
 70
     0
102
RTVSPropertyOp7
 70
     0
102
RTVSPropertyOp8
 70
     0
102
RTVSPropertyOp9
 70
     0
102
RTVSPropertyOp10
 70
     0
102
RTVSPropertyOp11
 70
     0
102
RTVSPropertyOp12
 70
     0
102
RTVSPropertyOp13
 70
     0
102
RTVSPropertyOp14
 70
     2
102
RTVSPropertyOp15
 70
     0
102
RTVSPropertyOp16
 70
     0
102
RTVSPropertyOp17
 70
     0
102
RTVSPropertyOp18
 70
     0
102
RTVSPropertyOp19
 70
     0
102
RTVSPropertyOp20
 70
     0
102
RTVSPropertyOp21
 70
     0
102
RTVSPropertyOp22
 70
     0
102
RTVSPropertyOp23
 70
     0
102
RTVSPropertyOp24
 70
     0
102
RTVSPropertyOp25
 70
     0
102
RTVSPropertyOp26
 70
     0
102
RTVSPropertyOp27
 70
     0
102
RTVSPropertyOp28
 70
     1
102
RTVSPropertyOp29
 70
     1
102
RTVSPropertyOp30
 70
     1
102
RTVSPropertyOp31
 70
     1
102
RTVSPropertyOp32
 70
     1
  0
XRECORD
  5
F10CA6
102
{ACAD_REACTORS
330
F10CA5
102
}
330
F10CA5
100
AcDbXrecord
280
     1
102
RTVSPropertyOp0
 70
     1
102
RTVSPropertyOp1
 70
     1
102
RTVSPropertyOp2
 70
     1
102
RTVSPropertyOp3
 70
     1
102
RTVSPropertyOp4
 70
     1
102
RTVSPropertyOp5
 70
     1
102
RTVSPropertyOp6
 70
     1
102
RTVSPropertyOp7
 70
     1
102
RTVSPropertyOp8
 70
     1
102
RTVSPropertyOp9
 70
     1
102
RTVSPropertyOp10
 70
     1
102
RTVSPropertyOp11
 70
     1
102
RTVSPropertyOp12
 70
     1
102
RTVSPropertyOp13
 70
     1
102
RTVSPropertyOp14
 70
     1
102
RTVSPropertyOp15
 70
     1
102
RTVSPropertyOp16
 70
     1
102
RTVSPropertyOp17
 70
     1
102
RTVSPropertyOp18
 70
     1
102
RTVSPropertyOp19
 70
     1
102
RTVSPropertyOp20
 70
     1
102
RTVSPropertyOp21
 70
     1
102
RTVSPropertyOp22
 70
     1
102
RTVSPropertyOp23
 70
     1
102
RTVSPropertyOp24
 70
     1
102
RTVSPropertyOp25
 70
     1
102
RTVSPropertyOp26
 70
     1
102
RTVSPropertyOp27
 70
     1
102
RTVSPropertyOp28
 70
     1
102
RTVSPropertyOp29
 70
     1
102
RTVSPropertyOp30
 70
     1
102
RTVSPropertyOp31
 70
     1
102
RTVSPropertyOp32
 70
     1
  0
XRECORD
  5
F10CCB
102
{ACAD_REACTORS
330
F10CCA
102
}
330
F10CCA
100
AcDbXrecord
280
     1
102
RTVSPropertyOp0
 70
     1
102
RTVSPropertyOp1
 70
     1
102
RTVSPropertyOp2
 70
     1
102
RTVSPropertyOp3
 70
     1
102
RTVSPropertyOp4
 70
     1
102
RTVSPropertyOp5
 70
     1
102
RTVSPropertyOp6
 70
     1
102
RTVSPropertyOp7
 70
     1
102
RTVSPropertyOp8
 70
     1
102
RTVSPropertyOp9
 70
     1
102
RTVSPropertyOp10
 70
     1
102
RTVSPropertyOp11
 70
     1
102
RTVSPropertyOp12
 70
     1
102
RTVSPropertyOp13
 70
     1
102
RTVSPropertyOp14
 70
     1
102
RTVSPropertyOp15
 70
     1
102
RTVSPropertyOp16
 70
     1
102
RTVSPropertyOp17
 70
     1
102
RTVSPropertyOp18
 70
     1
102
RTVSPropertyOp19
 70
     1
102
RTVSPropertyOp20
 70
     1
102
RTVSPropertyOp21
 70
     1
102
RTVSPropertyOp22
 70
     1
102
RTVSPropertyOp23
 70
     1
102
RTVSPropertyOp24
 70
     1
102
RTVSPropertyOp25
 70
     1
102
RTVSPropertyOp26
 70
     1
102
RTVSPropertyOp27
 70
     1
102
RTVSPropertyOp28
 70
     1
102
RTVSPropertyOp29
 70
     1
102
RTVSPropertyOp30
 70
     1
102
RTVSPropertyOp31
 70
     1
102
RTVSPropertyOp32
 70
     1
  0
XRECORD
  5
F10CC9
102
{ACAD_REACTORS
330
F10CC8
102
}
330
F10CC8
100
AcDbXrecord
280
     1
102
RTVSPropertyOp0
 70
     1
102
RTVSPropertyOp1
 70
     1
102
RTVSPropertyOp2
 70
     1
102
RTVSPropertyOp3
 70
     1
102
RTVSPropertyOp4
 70
     1
102
RTVSPropertyOp5
 70
     1
102
RTVSPropertyOp6
 70
     1
102
RTVSPropertyOp7
 70
     1
102
RTVSPropertyOp8
 70
     1
102
RTVSPropertyOp9
 70
     1
102
RTVSPropertyOp10
 70
     1
102
RTVSPropertyOp11
 70
     1
102
RTVSPropertyOp12
 70
     1
102
RTVSPropertyOp13
 70
     1
102
RTVSPropertyOp14
 70
     1
102
RTVSPropertyOp15
 70
     1
102
RTVSPropertyOp16
 70
     1
102
RTVSPropertyOp17
 70
     1
102
RTVSPropertyOp18
 70
     1
102
RTVSPropertyOp19
 70
     1
102
RTVSPropertyOp20
 70
     1
102
RTVSPropertyOp21
 70
     1
102
RTVSPropertyOp22
 70
     1
102
RTVSPropertyOp23
 70
     1
102
RTVSPropertyOp24
 70
     1
102
RTVSPropertyOp25
 70
     1
102
RTVSPropertyOp26
 70
     1
102
RTVSPropertyOp27
 70
     1
102
RTVSPropertyOp28
 70
     1
102
RTVSPropertyOp29
 70
     1
102
RTVSPropertyOp30
 70
     1
102
RTVSPropertyOp31
 70
     1
102
RTVSPropertyOp32
 70
     1
  0
XRECORD
  5
F10CC3
102
{ACAD_REACTORS
330
F10CC2
102
}
330
F10CC2
100
AcDbXrecord
280
     1
102
RTVSPropertyOp0
 70
     1
102
RTVSPropertyOp1
 70
     1
102
RTVSPropertyOp2
 70
     1
102
RTVSPropertyOp3
 70
     1
102
RTVSPropertyOp4
 70
     1
102
RTVSPropertyOp5
 70
     1
102
RTVSPropertyOp6
 70
     1
102
RTVSPropertyOp7
 70
     1
102
RTVSPropertyOp8
 70
     1
102
RTVSPropertyOp9
 70
     1
102
RTVSPropertyOp10
 70
     1
102
RTVSPropertyOp11
 70
     1
102
RTVSPropertyOp12
 70
     1
102
RTVSPropertyOp13
 70
     1
102
RTVSPropertyOp14
 70
     1
102
RTVSPropertyOp15
 70
     1
102
RTVSPropertyOp16
 70
     1
102
RTVSPropertyOp17
 70
     1
102
RTVSPropertyOp18
 70
     1
102
RTVSPropertyOp19
 70
     1
102
RTVSPropertyOp20
 70
     1
102
RTVSPropertyOp21
 70
     1
102
RTVSPropertyOp22
 70
     1
102
RTVSPropertyOp23
 70
     1
102
RTVSPropertyOp24
 70
     1
102
RTVSPropertyOp25
 70
     1
102
RTVSPropertyOp26
 70
     1
102
RTVSPropertyOp27
 70
     1
102
RTVSPropertyOp28
 70
     1
102
RTVSPropertyOp29
 70
     1
102
RTVSPropertyOp30
 70
     1
102
RTVSPropertyOp31
 70
     1
102
RTVSPropertyOp32
 70
     1
  0
XRECORD
  5
F10CC5
102
{ACAD_REACTORS
330
F10CC4
102
}
330
F10CC4
100
AcDbXrecord
280
     1
102
RTVSPropertyOp0
 70
     1
102
RTVSPropertyOp1
 70
     1
102
RTVSPropertyOp2
 70
     1
102
RTVSPropertyOp3
 70
     1
102
RTVSPropertyOp4
 70
     1
102
RTVSPropertyOp5
 70
     1
102
RTVSPropertyOp6
 70
     1
102
RTVSPropertyOp7
 70
     1
102
RTVSPropertyOp8
 70
     1
102
RTVSPropertyOp9
 70
     1
102
RTVSPropertyOp10
 70
     1
102
RTVSPropertyOp11
 70
     1
102
RTVSPropertyOp12
 70
     1
102
RTVSPropertyOp13
 70
     1
102
RTVSPropertyOp14
 70
     1
102
RTVSPropertyOp15
 70
     1
102
RTVSPropertyOp16
 70
     1
102
RTVSPropertyOp17
 70
     1
102
RTVSPropertyOp18
 70
     1
102
RTVSPropertyOp19
 70
     1
102
RTVSPropertyOp20
 70
     1
102
RTVSPropertyOp21
 70
     1
102
RTVSPropertyOp22
 70
     1
102
RTVSPropertyOp23
 70
     1
102
RTVSPropertyOp24
 70
     1
102
RTVSPropertyOp25
 70
     1
102
RTVSPropertyOp26
 70
     1
102
RTVSPropertyOp27
 70
     1
102
RTVSPropertyOp28
 70
     1
102
RTVSPropertyOp29
 70
     1
102
RTVSPropertyOp30
 70
     1
102
RTVSPropertyOp31
 70
     1
102
RTVSPropertyOp32
 70
     1
  0
XRECORD
  5
F10CAC
102
{ACAD_REACTORS
330
F10CAB
102
}
330
F10CAB
100
AcDbXrecord
280
     1
102
RTVSPropertyOp0
 70
     1
102
RTVSPropertyOp1
 70
     1
102
RTVSPropertyOp2
 70
     1
102
RTVSPropertyOp3
 70
     1
102
RTVSPropertyOp4
 70
     1
102
RTVSPropertyOp5
 70
     1
102
RTVSPropertyOp6
 70
     1
102
RTVSPropertyOp7
 70
     1
102
RTVSPropertyOp8
 70
     1
102
RTVSPropertyOp9
 70
     1
102
RTVSPropertyOp10
 70
     1
102
RTVSPropertyOp11
 70
     1
102
RTVSPropertyOp12
 70
     1
102
RTVSPropertyOp13
 70
     1
102
RTVSPropertyOp14
 70
     1
102
RTVSPropertyOp15
 70
     1
102
RTVSPropertyOp16
 70
     1
102
RTVSPropertyOp17
 70
     1
102
RTVSPropertyOp18
 70
     1
102
RTVSPropertyOp19
 70
     1
102
RTVSPropertyOp20
 70
     1
102
RTVSPropertyOp21
 70
     1
102
RTVSPropertyOp22
 70
     1
102
RTVSPropertyOp23
 70
     1
102
RTVSPropertyOp24
 70
     1
102
RTVSPropertyOp25
 70
     1
102
RTVSPropertyOp26
 70
     1
102
RTVSPropertyOp27
 70
     1
102
RTVSPropertyOp28
 70
     1
102
RTVSPropertyOp29
 70
     1
102
RTVSPropertyOp30
 70
     1
102
RTVSPropertyOp31
 70
     1
102
RTVSPropertyOp32
 70
     1
  0
XRECORD
  5
F10CBF
102
{ACAD_REACTORS
330
F10CBE
102
}
330
F10CBE
100
AcDbXrecord
280
     1
102
RTVSPropertyOp0
 70
     1
102
RTVSPropertyOp1
 70
     1
102
RTVSPropertyOp2
 70
     1
102
RTVSPropertyOp3
 70
     1
102
RTVSPropertyOp4
 70
     1
102
RTVSPropertyOp5
 70
     1
102
RTVSPropertyOp6
 70
     1
102
RTVSPropertyOp7
 70
     1
102
RTVSPropertyOp8
 70
     1
102
RTVSPropertyOp9
 70
     1
102
RTVSPropertyOp10
 70
     1
102
RTVSPropertyOp11
 70
     1
102
RTVSPropertyOp12
 70
     1
102
RTVSPropertyOp13
 70
     1
102
RTVSPropertyOp14
 70
     1
102
RTVSPropertyOp15
 70
     1
102
RTVSPropertyOp16
 70
     1
102
RTVSPropertyOp17
 70
     1
102
RTVSPropertyOp18
 70
     1
102
RTVSPropertyOp19
 70
     1
102
RTVSPropertyOp20
 70
     1
102
RTVSPropertyOp21
 70
     1
102
RTVSPropertyOp22
 70
     1
102
RTVSPropertyOp23
 70
     1
102
RTVSPropertyOp24
 70
     1
102
RTVSPropertyOp25
 70
     1
102
RTVSPropertyOp26
 70
     1
102
RTVSPropertyOp27
 70
     1
102
RTVSPropertyOp28
 70
     1
102
RTVSPropertyOp29
 70
     1
102
RTVSPropertyOp30
 70
     1
102
RTVSPropertyOp31
 70
     1
102
RTVSPropertyOp32
 70
     1
  0
XRECORD
  5
F10CC7
102
{ACAD_REACTORS
330
F10CC6
102
}
330
F10CC6
100
AcDbXrecord
280
     1
102
RTVSPropertyOp0
 70
     1
102
RTVSPropertyOp1
 70
     1
102
RTVSPropertyOp2
 70
     1
102
RTVSPropertyOp3
 70
     1
102
RTVSPropertyOp4
 70
     1
102
RTVSPropertyOp5
 70
     1
102
RTVSPropertyOp6
 70
     1
102
RTVSPropertyOp7
 70
     1
102
RTVSPropertyOp8
 70
     1
102
RTVSPropertyOp9
 70
     1
102
RTVSPropertyOp10
 70
     1
102
RTVSPropertyOp11
 70
     1
102
RTVSPropertyOp12
 70
     1
102
RTVSPropertyOp13
 70
     1
102
RTVSPropertyOp14
 70
     1
102
RTVSPropertyOp15
 70
     1
102
RTVSPropertyOp16
 70
     1
102
RTVSPropertyOp17
 70
     1
102
RTVSPropertyOp18
 70
     1
102
RTVSPropertyOp19
 70
     1
102
RTVSPropertyOp20
 70
     1
102
RTVSPropertyOp21
 70
     1
102
RTVSPropertyOp22
 70
     1
102
RTVSPropertyOp23
 70
     1
102
RTVSPropertyOp24
 70
     1
102
RTVSPropertyOp25
 70
     1
102
RTVSPropertyOp26
 70
     1
102
RTVSPropertyOp27
 70
     1
102
RTVSPropertyOp28
 70
     1
102
RTVSPropertyOp29
 70
     1
102
RTVSPropertyOp30
 70
     1
102
RTVSPropertyOp31
 70
     1
102
RTVSPropertyOp32
 70
     1
  0
ENDSEC
  0
EOF
