  0
SECTION
  2
HEADER
  9
$ACADVER
  1
AC1015
  9
$ACADMAINTVER
 70
    20
  9
$DWGCODEPAGE
  3
ANSI_1252
  9
$INSBASE
 10
0.0
 20
0.0
 30
0.0
  9
$EXTMIN
 10
-208.09585492228
 20
-100.103626943005
 30
0.0
  9
$EXTMAX
 10
143.354922279793
 20
106.7646657571623
 30
0.0
  9
$LIMMIN
 10
0.0
 20
0.0
  9
$LIMMAX
 10
12.0
 20
9.0
  9
$ORTHOMODE
 70
     0
  9
$REGENMODE
 70
     1
  9
$FILLMODE
 70
     1
  9
$QTEXTMODE
 70
     0
  9
$MIRRTEXT
 70
     1
  9
$LTSCALE
 40
1.0
  9
$ATTMODE
 70
     1
  9
$TEXTSIZE
 40
0.2
  9
$TRACEWID
 40
0.05
  9
$TEXTSTYLE
  7
Standard
  9
$CLAYER
  8
0
  9
$CELTYPE
  6
ByLayer
  9
$CECOLOR
 62
   256
  9
$CELTSCALE
 40
1.0
  9
$DISPSILH
 70
     0
  9
$DIMSCALE
 40
1.0
  9
$DIMASZ
 40
2.5
  9
$DIMEXO
 40
0.625
  9
$DIMDLI
 40
0.38
  9
$DIMRND
 40
0.0
  9
$DIMDLE
 40
0.0
  9
$DIMEXE
 40
1.25
  9
$DIMTP
 40
0.0
  9
$DIMTM
 40
0.000000001
  9
$DIMTXT
 40
2.5
  9
$DIMCEN
 40
0.09
  9
$DIMTSZ
 40
0.0
  9
$DIMTOL
 70
     1
  9
$DIMLIM
 70
     0
  9
$DIMTIH
 70
     0
  9
$DIMTOH
 70
     0
  9
$DIMSE1
 70
     0
  9
$DIMSE2
 70
     0
  9
$DIMTAD
 70
     1
  9
$DIMZIN
 70
     0
  9
$DIMBLK
  1
VDDIM_DEFAULT
  9
$DIMASO
 70
     1
  9
$DIMSHO
 70
     1
  9
$DIMPOST
  1

  9
$DIMAPOST
  1

  9
$DIMALT
 70
     0
  9
$DIMALTD
 70
     2
  9
$DIMALTF
 40
25.4
  9
$DIMLFAC
 40
1.0
  9
$DIMTOFL
 70
     0
  9
$DIMTVP
 40
0.0
  9
$DIMTIX
 70
     0
  9
$DIMSOXD
 70
     0
  9
$DIMSAH
 70
     0
  9
$DIMBLK1
  1

  9
$DIMBLK2
  1

  9
$DIMSTYLE
  2
BEM-ISBE
  9
$DIMCLRD
 70
     0
  9
$DIMCLRE
 70
     0
  9
$DIMCLRT
 70
     0
  9
$DIMTFAC
 40
0.5
  9
$DIMGAP
 40
0.625
  9
$DIMJUST
 70
     0
  9
$DIMSD1
 70
     0
  9
$DIMSD2
 70
     0
  9
$DIMTOLJ
 70
     1
  9
$DIMTZIN
 70
     0
  9
$DIMALTZ
 70
     0
  9
$DIMALTTZ
 70
     0
  9
$DIMUPT
 70
     0
  9
$DIMDEC
 70
     3
  9
$DIMTDEC
 70
     3
  9
$DIMALTU
 70
     2
  9
$DIMALTTD
 70
     2
  9
$DIMTXSTY
  7
Standard
  9
$DIMAUNIT
 70
     0
  9
$DIMADEC
 70
     3
  9
$DIMALTRND
 40
0.0
  9
$DIMAZIN
 70
     0
  9
$DIMDSEP
 70
    46
  9
$DIMATFIT
 70
     3
  9
$DIMFRAC
 70
     0
  9
$DIMLDRBLK
  1

  9
$DIMLUNIT
 70
     2
  9
$DIMLWD
 70
    -2
  9
$DIMLWE
 70
    -2
  9
$DIMTMOVE
 70
     0
  9
$LUNITS
 70
     2
  9
$LUPREC
 70
     4
  9
$SKETCHINC
 40
0.1
  9
$FILLETRAD
 40
0.0
  9
$AUNITS
 70
     0
  9
$AUPREC
 70
     0
  9
$MENU
  1
.
  9
$ELEVATION
 40
0.0
  9
$PELEVATION
 40
0.0
  9
$THICKNESS
 40
0.0
  9
$LIMCHECK
 70
     0
  9
$CHAMFERA
 40
0.5
  9
$CHAMFERB
 40
0.5
  9
$CHAMFERC
 40
1.0
  9
$CHAMFERD
 40
0.0
  9
$SKPOLY
 70
     0
  9
$TDCREATE
 40
2457011.416048091
  9
$TDUCREATE
 40
2457011.374381424
  9
$TDUPDATE
 40
2457011.416815313
  9
$TDUUPDATE
 40
2457011.375148645
  9
$TDINDWG
 40
0.0007691782
  9
$TDUSRTIMER
 40
0.0007691319
  9
$USRTIMER
 70
     1
  9
$ANGBASE
 50
0.0
  9
$ANGDIR
 70
     0
  9
$PDMODE
 70
     0
  9
$PDSIZE
 40
0.0
  9
$PLINEWID
 40
0.0
  9
$SPLFRAME
 70
     0
  9
$SPLINETYPE
 70
     6
  9
$SPLINESEGS
 70
     8
  9
$HANDSEED
  5
F10B27
  9
$SURFTAB1
 70
     6
  9
$SURFTAB2
 70
     6
  9
$SURFTYPE
 70
     6
  9
$SURFU
 70
     6
  9
$SURFV
 70
     6
  9
$UCSBASE
  2

  9
$UCSNAME
  2

  9
$UCSORG
 10
5.011402882710648
 20
1.703289541047626
 30
0.0
  9
$UCSXDIR
 10
1.0
 20
0.0
 30
0.0
  9
$UCSYDIR
 10
0.0
 20
1.0
 30
0.0
  9
$UCSORTHOREF
  2

  9
$UCSORTHOVIEW
 70
     0
  9
$UCSORGTOP
 10
0.0
 20
0.0
 30
0.0
  9
$UCSORGBOTTOM
 10
0.0
 20
0.0
 30
0.0
  9
$UCSORGLEFT
 10
0.0
 20
0.0
 30
0.0
  9
$UCSORGRIGHT
 10
0.0
 20
0.0
 30
0.0
  9
$UCSORGFRONT
 10
0.0
 20
0.0
 30
0.0
  9
$UCSORGBACK
 10
0.0
 20
0.0
 30
0.0
  9
$PUCSBASE
  2

  9
$PUCSNAME
  2

  9
$PUCSORG
 10
0.0
 20
0.0
 30
0.0
  9
$PUCSXDIR
 10
1.0
 20
0.0
 30
0.0
  9
$PUCSYDIR
 10
0.0
 20
1.0
 30
0.0
  9
$PUCSORTHOREF
  2

  9
$PUCSORTHOVIEW
 70
     0
  9
$PUCSORGTOP
 10
0.0
 20
0.0
 30
0.0
  9
$PUCSORGBOTTOM
 10
0.0
 20
0.0
 30
0.0
  9
$PUCSORGLEFT
 10
0.0
 20
0.0
 30
0.0
  9
$PUCSORGRIGHT
 10
0.0
 20
0.0
 30
0.0
  9
$PUCSORGFRONT
 10
0.0
 20
0.0
 30
0.0
  9
$PUCSORGBACK
 10
0.0
 20
0.0
 30
0.0
  9
$USERI1
 70
     0
  9
$USERI2
 70
     0
  9
$USERI3
 70
     0
  9
$USERI4
 70
     0
  9
$USERI5
 70
     0
  9
$USERR1
 40
0.0
  9
$USERR2
 40
0.0
  9
$USERR3
 40
0.0
  9
$USERR4
 40
0.0
  9
$USERR5
 40
0.0
  9
$WORLDVIEW
 70
     1
  9
$SHADEDGE
 70
     3
  9
$SHADEDIF
 70
    70
  9
$TILEMODE
 70
     1
  9
$MAXACTVP
 70
    64
  9
$PINSBASE
 10
0.0
 20
0.0
 30
0.0
  9
$PLIMCHECK
 70
     0
  9
$PEXTMIN
 10
1.000000000000000E+20
 20
1.000000000000000E+20
 30
1.000000000000000E+20
  9
$PEXTMAX
 10
-1.000000000000000E+20
 20
-1.000000000000000E+20
 30
-1.000000000000000E+20
  9
$PLIMMIN
 10
0.0
 20
0.0
  9
$PLIMMAX
 10
12.0
 20
9.0
  9
$UNITMODE
 70
     0
  9
$VISRETAIN
 70
     1
  9
$PLINEGEN
 70
     0
  9
$PSLTSCALE
 70
     1
  9
$TREEDEPTH
 70
  3020
  9
$CMLSTYLE
  2
Standard
  9
$CMLJUST
 70
     0
  9
$CMLSCALE
 40
1.0
  9
$PROXYGRAPHICS
 70
     1
  9
$MEASUREMENT
 70
     0
  9
$CELWEIGHT
370
    -1
  9
$ENDCAPS
280
     0
  9
$JOINSTYLE
280
     0
  9
$LWDISPLAY
290
     0
  9
$INSUNITS
 70
     4
  9
$HYPERLINKBASE
  1

  9
$STYLESHEET
  1

  9
$XEDIT
290
     1
  9
$CEPSNTYPE
380
     0
  9
$PSTYLEMODE
290
     0
  9
$FINGERPRINTGUID
  2
{FAEB1C30-E019-11D5-929B-00C0DF256EC4}
  9
$VERSIONGUID
  2
{E6FA2F38-B945-44B7-9E06-8A22EA70C0BA}
  9
$EXTNAMES
290
     1
  9
$PSVPSCALE
 40
0.0
  9
$OLESTARTUP
290
     0
  0
ENDSEC
  0
SECTION
  2
CLASSES
  0
CLASS
  1
ACDBDICTIONARYWDFLT
  2
AcDbDictionaryWithDefault
  3
ObjectDBX Classes
 90
        0
280
     0
281
     0
  0
CLASS
  1
MATERIAL
  2
AcDbMaterial
  3
ObjectDBX Classes
 90
     1153
280
     0
281
     0
  0
CLASS
  1
MLEADERSTYLE
  2
AcDbMLeaderStyle
  3
ACDB_MLEADERSTYLE_CLASS
 90
     4095
280
     0
281
     0
  0
CLASS
  1
SCALE
  2
AcDbScale
  3
ObjectDBX Classes
 90
     1153
280
     0
281
     0
  0
CLASS
  1
TABLESTYLE
  2
AcDbTableStyle
  3
ObjectDBX Classes
 90
     4095
280
     0
281
     0
  0
CLASS
  1
VISUALSTYLE
  2
AcDbVisualStyle
  3
ObjectDBX Classes
 90
     4095
280
     0
281
     0
  0
CLASS
  1
DICTIONARYVAR
  2
AcDbDictionaryVar
  3
ObjectDBX Classes
 90
        0
280
     0
281
     0
  0
CLASS
  1
CELLSTYLEMAP
  2
AcDbCellStyleMap
  3
ObjectDBX Classes
 90
     1152
280
     0
281
     0
  0
CLASS
  1
AMGSETTINGSOBJ
  2
AmgSettingsObj
  3
"AcadM|Product Description: AutoCAD Mechanical|Company: Autodesk, Inc."
 90
     1024
280
     0
281
     0
  0
CLASS
  1
ACME_DOCUMENT
  2
AcMeDbDoc
  3
AcMeServices
 90
     1024
280
     0
281
     0
  0
CLASS
  1
ACMESCOPE
  2
AcMeScope
  3
AcMeServices
 90
     1024
280
     0
281
     0
  0
CLASS
  1
ACMECOMMANDHISTORY
  2
AcMeCommandHistory
  3
AcMeServices
 90
     1024
280
     0
281
     0
  0
CLASS
  1
ACIMSYSVARMAN
  2
AcImSysVarManager
  3
AcMeServices
 90
     1024
280
     0
281
     0
  0
CLASS
  1
ACIMINTSYSVAR
  2
AcImIntSysVar
  3
AcMeServices
 90
     1024
280
     0
281
     0
  0
CLASS
  1
ACMESTATEMGR
  2
AcMeStateMgr
  3
AcMeServices
 90
     1024
280
     0
281
     0
  0
CLASS
  1
ACDBENTITYCACHE
  2
AcMeEntityCache
  3
AcMeServices
 90
     1024
280
     0
281
     0
  0
CLASS
  1
ACGREFMASTER
  2
AcGrefMaster
  3
AcAttribServices
 90
     1024
280
     0
281
     0
  0
CLASS
  1
AM_DRAWING_MGR
  2
AcDmDwgMgr
  3
AcMechDwgViewMgmt
 90
     1024
280
     0
281
     0
  0
CLASS
  1
AM_DWG_DOCUMENT
  2
AcDmDwgDocument
  3
AcMechDwgViewMgmt
 90
     1024
280
     0
281
     0
  0
CLASS
  1
AM_DWG_SHEET
  2
AcDmSheet
  3
AcMechDwgViewMgmt
 90
     1024
280
     0
281
     0
  0
CLASS
  1
AM_VIEWDIMPARMAP
  2
AcDmViewDimParMap
  3
AcMechDwgViewMgmt
 90
     1024
280
     0
281
     0
  0
CLASS
  1
AMDTINTERNALREACTOR
  2
AmdtInternalReactor
  3
AcMeServices
 90
     1024
280
     0
281
     0
  0
CLASS
  1
ACIMREALSYSVAR
  2
AcImRealSysVar
  3
AcMeServices
 90
     1024
280
     0
281
     0
  0
CLASS
  1
AM_DWGMGR_NAME
  2
AcDmDwgMgrName
  3
AcMechDwgViewMgmt
 90
     1024
280
     0
281
     0
  0
CLASS
  1
ACME_DATABASE
  2
AcMeDbDatabase
  3
AcMeServices
 90
     1024
280
     0
281
     0
  0
CLASS
  1
ACRFINSADJUSTERMGR
  2
AcRfInsAdjusterMgr
  3
AcMeServices
 90
     1024
280
     0
281
     0
  0
CLASS
  1
ACGREFACADMASTER
  2
AcGrefacadMaster
  3
AcGrefServices
 90
     1024
280
     0
281
     0
  0
CLASS
  1
AMDTMENUSTATEMGR
  2
AmdtMenuStateMgr
  3
McadcomServices
 90
     1024
280
     0
281
     0
  0
CLASS
  1
AMDTMCOMMENUSTATE
  2
AmdtMcomMenuState
  3
McadcomServices
 90
     1024
280
     0
281
     0
  0
CLASS
  1
AMIMASTER
  2
AmiMaster
  3
AmiServices
 90
     1024
280
     0
281
     0
  0
CLASS
  1
MAPIAMMOUDLE
  2
MApiAmModule
  3
MApiAmServices
 90
     1024
280
     0
281
     0
  0
CLASS
  1
ACIMSTRSYSVAR
  2
AcImStrSysVar
  3
AcMeServices
 90
     1024
280
     0
281
     0
  0
CLASS
  1
AMDTDMMENUSTATE
  2
AmdtDmMenuState
  3
AcMechDwgViewMgmt
 90
     1024
280
     0
281
     0
  0
CLASS
  1
AMDTAMMENUSTATE
  2
AmdtAmMenuState
  3
DesignerAssemblies
 90
     1024
280
     0
281
     0
  0
CLASS
  1
ACAMPROJECT
  2
AcAmProject
  3
DesignerAssemblies
 90
     1024
280
     0
281
     0
  0
CLASS
  1
ACAMGRCOMPDEF
  2
AcAmGrCompDef
  3
DesignerAssemblies
 90
     1024
280
     0
281
     0
  0
CLASS
  1
ACAMCOMPDEF
  2
AcAmCompDef
  3
DesignerAssemblies
 90
     1024
280
     0
281
     0
  0
CLASS
  1
ACAMCOMPDEFMGR
  2
AcAmCompDefMgr
  3
DesignerAssemblies
 90
     1024
280
     0
281
     0
  0
CLASS
  1
AMCONTEXTMGR
  2
AcAmContextMgr
  3
DesignerAssemblies
 90
     1024
280
     0
281
     0
  0
CLASS
  1
ACAMCONTEXTMODELER
  2
AcAmContextModeler
  3
DesignerAssemblies
 90
     1024
280
     0
281
     0
  0
CLASS
  1
ACMDATADICTIONARY
  2
AcmDataDictionary
  3
"AcmSymBB|Product Description: AutoCAD Mechanical|Company: Autodesk, Inc."
 90
     1024
280
     0
281
     0
  0
CLASS
  1
ACAMGRCOMPDEFSET
  2
AcAmGrCompDefSet
  3
DesignerAssemblies
 90
     1024
280
     0
281
     0
  0
CLASS
  1
AMDTBROWSERDBTAB
  2
AmdtBrowserDbTab
  3
McadcomServices
 90
     1024
280
     0
281
     0
  0
CLASS
  1
CBROWSERAPPOBJECT
  2
CBrowserAppObject
  3
McadcomServices
 90
     1024
280
     0
281
     0
  0
CLASS
  1
DM_PLACEHOLDER
  2
AcDmSelsetPlaceholder
  3
AcMechDwgViewMgmt
 90
     1024
280
     0
281
     0
  0
CLASS
  1
EXACXREFPANELOBJECT
  2
ExAcXREFPanelObject
  3
EXAC_ESW
 90
     1025
280
     0
281
     0
  0
CLASS
  1
NPOCOLLECTION
  2
AcDbImpNonPersistentObjectsCollection
  3
ObjectDBX Classes
 90
     1153
280
     0
281
     0
  0
CLASS
  1
ACMSTANDARDANSI
  2
AcmStandardANSI
  3
"Amdt_StdImp|Product Description: AutoCAD Mechanical|Company: Autodesk, Inc."
 90
     1024
280
     0
281
     0
  0
CLASS
  1
ACMSURFSTANDARDANSI
  2
AcmSurfTextStdANSI
  3
"Amdt_StdImp|Product Description: AutoCAD Mechanical|Company: Autodesk, Inc."
 90
     1024
280
     0
281
     0
  0
CLASS
  1
ACMFCFSTANDARDANSI
  2
AcmFCFStdANSI
  3
"Amdt_StdImp|Product Description: AutoCAD Mechanical|Company: Autodesk, Inc."
 90
     1024
280
     0
281
     0
  0
CLASS
  1
ACMWELDSTANDARDANSI
  2
AcmWeldingStdANSI
  3
"Amdt_StdImp|Product Description: AutoCAD Mechanical|Company: Autodesk, Inc."
 90
     1024
280
     0
281
     0
  0
CLASS
  1
ACMIDSTANDARDANSI
  2
AcmIdStdANSI
  3
"Amdt_StdImp|Product Description: AutoCAD Mechanical|Company: Autodesk, Inc."
 90
     1024
280
     0
281
     0
  0
CLASS
  1
ACMDATUMSTANDARDANSI
  2
AcmDatumStdANSI
  3
"Amdt_StdImp|Product Description: AutoCAD Mechanical|Company: Autodesk, Inc."
 90
     1024
280
     0
281
     0
  0
CLASS
  1
ACMBOMSTANDARDANSI
  2
AcmBOMStdANSI
  3
"Amdt_StdImp|Product Description: AutoCAD Mechanical|Company: Autodesk, Inc."
 90
     1024
280
     0
281
     0
  0
CLASS
  1
ACMDETAILSTANDARDANSI
  2
AmdtDetailSymStdANSI
  3
"Amdt_StdImp|Product Description: AutoCAD Mechanical|Company: Autodesk, Inc."
 90
     1024
280
     0
281
     0
  0
CLASS
  1
ACMSECTIONSTANDARDANSI
  2
AmdtSectionSymStdANSI
  3
"Amdt_StdImp|Product Description: AutoCAD Mechanical|Company: Autodesk, Inc."
 90
     1024
280
     0
281
     0
  0
CLASS
  1
ACMCENTERLINESTANDARDANSI
  2
AmdtCenterLineStdANSI
  3
"Amdt_StdImp|Product Description: AutoCAD Mechanical|Company: Autodesk, Inc."
 90
     1024
280
     0
281
     0
  0
CLASS
  1
ACMTHREADLINESTANDARDANSI
  2
AmdtThreadLineStdANSI
  3
"Amdt_StdImp|Product Description: AutoCAD Mechanical|Company: Autodesk, Inc."
 90
     1024
280
     0
281
     0
  0
CLASS
  1
ACMNOTESTANDARDANSI
  2
AmdtNoteStdANSI
  3
"Amdt_StdImp|Product Description: AutoCAD Mechanical|Company: Autodesk, Inc."
 90
     1024
280
     0
281
     0
  0
CLASS
  1
ACMTAPERSTANDARDANSI
  2
AcmTaperStdANSI
  3
"Amdt_StdImp|Product Description: AutoCAD Mechanical|Company: Autodesk, Inc."
 90
     1024
280
     0
281
     0
  0
CLASS
  1
ACMANOOTATIONVIEWSTANDARDANSI
  2
AmdtAnViewStdANSI
  3
"Amdt_StdImp|Product Description: AutoCAD Mechanical|Company: Autodesk, Inc."
 90
     1024
280
     0
281
     0
  0
CLASS
  1
ACAMGLAYSTD
  2
AcAmgLayStd
  3
"AmgLay|Product Description: AutoCAD Mechanical|Company: Autodesk, Inc."
 90
     1024
280
     0
281
     0
  0
CLASS
  1
ACAMGDIMSTD
  2
AcAmgDimStd
  3
"AmgDim|Product Description: AutoCAD Mechanical|Company: Autodesk, Inc."
 90
     1024
280
     0
281
     0
  0
CLASS
  1
AMGOBJPROPCFG
  2
AmgObjPropCfg
  3
"AmgLay|Product Description: AutoCAD Mechanical|Company: Autodesk, Inc."
 90
     1025
280
     0
281
     0
  0
CLASS
  1
ACAMGHOLECHARTSTDANSI
  2
AcAmgHoleChartStdANSI
  3
AmgDim|Product Description: AutoCAD Mechanical|Company: Autodesk, Inc.
 90
     1024
280
     0
281
     0
  0
CLASS
  1
ACAMGTITLESTD
  2
AcAmgTitleStd
  3
"AmgTitle|Product Description: AutoCAD Mechanical|Company: Autodesk, Inc."
 90
     4095
280
     0
281
     0
  0
CLASS
  1
AMDTNOTETEMPLATEDB
  2
AmdtNoteTemplateDB
  3
AcmSymBB|Product Description: AutoCAD Mechanical|Company: Autodesk, Inc.
 90
     1024
280
     0
281
     0
  0
CLASS
  1
ACAMGFILTERDAT
  2
AcAmgFilterDat
  3
"AcadM|Product Description: AutoCAD Mechanical|Company: Autodesk, Inc."
 90
     1024
280
     0
281
     0
  0
CLASS
  1
ACDBPLACEHOLDER
  2
AcDbPlaceHolder
  3
ObjectDBX Classes
 90
        0
280
     0
281
     0
  0
CLASS
  1
LAYOUT
  2
AcDbLayout
  3
ObjectDBX Classes
 90
        0
280
     0
281
     0
  0
ENDSEC
  0
SECTION
  2
TABLES
  0
TABLE
  2
VPORT
  5
24A
330
0
100
AcDbSymbolTable
 70
     1
  0
VPORT
  5
26B
330
24A
100
AcDbSymbolTableRecord
100
AcDbViewportTableRecord
  2
*Active
 70
     0
 10
0.0
 20
0.0
 11
1.0
 21
1.0
 12
-5.288790890978702
 22
-28.34080102931847
 13
0.0
 23
0.0
 14
10.0
 24
10.0
 15
10.0
 25
10.0
 16
0.0
 26
0.0
 36
1.0
 17
0.0
 27
0.0
 37
0.0
 40
256.5504148663551
 41
1.492489270386266
 42
1.0
 43
0.0
 44
0.0
 50
0.0
 51
0.0000000000007958
 71
     0
 72
   100
 73
     1
 74
     3
 75
     0
 76
     0
 77
     0
 78
     1
281
     0
 65
     0
110
0.0
120
0.0
130
0.0
111
1.0
121
0.0
131
0.0
112
0.0
122
1.0
132
0.0
 79
     0
146
0.0
  0
ENDTAB
  0
TABLE
  2
LTYPE
  5
247
330
0
100
AcDbSymbolTable
 70
    36
  0
LTYPE
  5
256
330
247
100
AcDbSymbolTableRecord
100
AcDbLinetypeTableRecord
  2
ByBlock
 70
     0
  3

 72
    65
 73
     0
 40
0.0
  0
LTYPE
  5
257
330
247
100
AcDbSymbolTableRecord
100
AcDbLinetypeTableRecord
  2
ByLayer
 70
     0
  3

 72
    65
 73
     0
 40
0.0
  0
LTYPE
  5
258
330
247
100
AcDbSymbolTableRecord
100
AcDbLinetypeTableRecord
  2
Continuous
 70
     0
  3
Solid line
 72
    65
 73
     0
 40
0.0
  0
LTYPE
  5
273
330
247
100
AcDbSymbolTableRecord
100
AcDbLinetypeTableRecord
  2
CENTER
 70
     0
  3
Center ____ _ ____ _ ____ _ ____ _ ____ _ ____
 72
    65
 73
     4
 40
2.0
 49
1.25
 74
     0
 49
-0.25
 74
     0
 49
0.25
 74
     0
 49
-0.25
 74
     0
  0
LTYPE
  5
274
330
247
100
AcDbSymbolTableRecord
100
AcDbLinetypeTableRecord
  2
DASHDOT
 70
     0
  3
Dashdot __ . __ . __ . __ . __ . __ . __ . __
 72
    65
 73
     4
 40
1.0
 49
0.5
 74
     0
 49
-0.25
 74
     0
 49
0.0
 74
     0
 49
-0.25
 74
     0
  0
LTYPE
  5
275
330
247
100
AcDbSymbolTableRecord
100
AcDbLinetypeTableRecord
  2
DASHED
 70
     0
  3
Dashed __ __ __ __ __ __ __ __ __ __ __ __ __ _
 72
    65
 73
     2
 40
0.75
 49
0.5
 74
     0
 49
-0.25
 74
     0
  0
LTYPE
  5
276
330
247
100
AcDbSymbolTableRecord
100
AcDbLinetypeTableRecord
  2
HIDDEN
 70
     0
  3
Hidden __ __ __ __ __ __ __ __ __ __ __ __ __ __
 72
    65
 73
     2
 40
0.375
 49
0.25
 74
     0
 49
-0.125
 74
     0
  0
LTYPE
  5
277
330
247
100
AcDbSymbolTableRecord
100
AcDbLinetypeTableRecord
  2
HIDDEN2
 70
     0
  3
Hidden2 _ _ _ _ _ _ _ _ _ _ _ _ _ _ _ _ _
 72
    65
 73
     2
 40
0.1875
 49
0.125
 74
     0
 49
-0.0625
 74
     0
  0
LTYPE
  5
278
330
247
100
AcDbSymbolTableRecord
100
AcDbLinetypeTableRecord
  2
BORDER
 70
     0
  3
Border __ __ . __ __ . __ __ . __ __ . __ __ .
 72
    65
 73
     6
 40
1.75
 49
0.5
 74
     0
 49
-0.25
 74
     0
 49
0.5
 74
     0
 49
-0.25
 74
     0
 49
0.0
 74
     0
 49
-0.25
 74
     0
  0
LTYPE
  5
279
330
247
100
AcDbSymbolTableRecord
100
AcDbLinetypeTableRecord
  2
BORDER2
 70
     0
  3
Border2 __.__.__.__.__.__.__.__.__.__.__.
 72
    65
 73
     6
 40
0.875
 49
0.25
 74
     0
 49
-0.125
 74
     0
 49
0.25
 74
     0
 49
-0.125
 74
     0
 49
0.0
 74
     0
 49
-0.125
 74
     0
  0
LTYPE
  5
27A
330
247
100
AcDbSymbolTableRecord
100
AcDbLinetypeTableRecord
  2
BORDERX2
 70
     0
  3
Borderx2  ____  ____  .  ____  ____  .  ___
 72
    65
 73
     6
 40
3.5
 49
1.0
 74
     0
 49
-0.5
 74
     0
 49
1.0
 74
     0
 49
-0.5
 74
     0
 49
0.0
 74
     0
 49
-0.5
 74
     0
  0
LTYPE
  5
27B
330
247
100
AcDbSymbolTableRecord
100
AcDbLinetypeTableRecord
  2
CENTER2
 70
     0
  3
Center2  ___ _ ___ _ ___ _ ___ _ ___ _ ___
 72
    65
 73
     4
 40
1.125
 49
0.75
 74
     0
 49
-0.125
 74
     0
 49
0.125
 74
     0
 49
-0.125
 74
     0
  0
LTYPE
  5
27C
330
247
100
AcDbSymbolTableRecord
100
AcDbLinetypeTableRecord
  2
CENTERX2
 70
     0
  3
Centerx2  ________  __  ________  __  _____
 72
    65
 73
     4
 40
4.0
 49
2.5
 74
     0
 49
-0.5
 74
     0
 49
0.5
 74
     0
 49
-0.5
 74
     0
  0
LTYPE
  5
27D
330
247
100
AcDbSymbolTableRecord
100
AcDbLinetypeTableRecord
  2
DASHDOT2
 70
     0
  3
Dashdot2  _._._._._._._._._._._._._._._.
 72
    65
 73
     4
 40
0.5
 49
0.25
 74
     0
 49
-0.125
 74
     0
 49
0.0
 74
     0
 49
-0.125
 74
     0
  0
LTYPE
  5
27E
330
247
100
AcDbSymbolTableRecord
100
AcDbLinetypeTableRecord
  2
DASHDOTX2
 70
     0
  3
Dashdotx2 ____  .  ____  .  ____  .  ___
 72
    65
 73
     4
 40
2.0
 49
1.0
 74
     0
 49
-0.5
 74
     0
 49
0.0
 74
     0
 49
-0.5
 74
     0
  0
LTYPE
  5
27F
330
247
100
AcDbSymbolTableRecord
100
AcDbLinetypeTableRecord
  2
DASHED2
 70
     0
  3
Dashed2 _ _ _ _ _ _ _ _ _ _ _ _ _ _ _ _ _
 72
    65
 73
     2
 40
0.375
 49
0.25
 74
     0
 49
-0.125
 74
     0
  0
LTYPE
  5
280
330
247
100
AcDbSymbolTableRecord
100
AcDbLinetypeTableRecord
  2
DASHEDX2
 70
     0
  3
Dashedx2 ____  ____  ____  ____  ____  ___
 72
    65
 73
     2
 40
1.5
 49
1.0
 74
     0
 49
-0.5
 74
     0
  0
LTYPE
  5
281
330
247
100
AcDbSymbolTableRecord
100
AcDbLinetypeTableRecord
  2
DIVIDE
 70
     0
  3
Divide ____ . . ____ . . ____ . . ____ . . ____
 72
    65
 73
     6
 40
1.25
 49
0.5
 74
     0
 49
-0.25
 74
     0
 49
0.0
 74
     0
 49
-0.25
 74
     0
 49
0.0
 74
     0
 49
-0.25
 74
     0
  0
LTYPE
  5
282
330
247
100
AcDbSymbolTableRecord
100
AcDbLinetypeTableRecord
  2
DIVIDE2
 70
     0
  3
Divide2 __..__..__..__..__..__..__..__.._
 72
    65
 73
     6
 40
0.625
 49
0.25
 74
     0
 49
-0.125
 74
     0
 49
0.0
 74
     0
 49
-0.125
 74
     0
 49
0.0
 74
     0
 49
-0.125
 74
     0
  0
LTYPE
  5
283
330
247
100
AcDbSymbolTableRecord
100
AcDbLinetypeTableRecord
  2
DIVIDEX2
 70
     0
  3
Dividex2 ________  .  .  ________  .  .  _
 72
    65
 73
     6
 40
2.5
 49
1.0
 74
     0
 49
-0.5
 74
     0
 49
0.0
 74
     0
 49
-0.5
 74
     0
 49
0.0
 74
     0
 49
-0.5
 74
     0
  0
LTYPE
  5
284
330
247
100
AcDbSymbolTableRecord
100
AcDbLinetypeTableRecord
  2
DOT
 70
     0
  3
Dot . . . . . . . . . . . . . . . . . . . . . . . .
 72
    65
 73
     2
 40
0.25
 49
0.0
 74
     0
 49
-0.25
 74
     0
  0
LTYPE
  5
285
330
247
100
AcDbSymbolTableRecord
100
AcDbLinetypeTableRecord
  2
DOT2
 70
     0
  3
Dot2 ........................................
 72
    65
 73
     2
 40
0.125
 49
0.0
 74
     0
 49
-0.125
 74
     0
  0
LTYPE
  5
286
330
247
100
AcDbSymbolTableRecord
100
AcDbLinetypeTableRecord
  2
DOTX2
 70
     0
  3
Dotx2 .  .  .  .  .  .  .  .  .  .  .  .  .  .
 72
    65
 73
     2
 40
0.5
 49
0.0
 74
     0
 49
-0.5
 74
     0
  0
LTYPE
  5
287
330
247
100
AcDbSymbolTableRecord
100
AcDbLinetypeTableRecord
  2
HIDDENX2
 70
     0
  3
Hiddenx2 ____ ____ ____ ____ ____ ____ ____
 72
    65
 73
     2
 40
0.75
 49
0.5
 74
     0
 49
-0.25
 74
     0
  0
LTYPE
  5
288
330
247
100
AcDbSymbolTableRecord
100
AcDbLinetypeTableRecord
  2
PHANTOM
 70
     0
  3
Phantom ______  __  __  ______  __  __  ______
 72
    65
 73
     6
 40
2.5
 49
1.25
 74
     0
 49
-0.25
 74
     0
 49
0.25
 74
     0
 49
-0.25
 74
     0
 49
0.25
 74
     0
 49
-0.25
 74
     0
  0
LTYPE
  5
289
330
247
100
AcDbSymbolTableRecord
100
AcDbLinetypeTableRecord
  2
PHANTOM2
 70
     0
  3
Phantom2 ___ _ _ ___ _ _ ___ _ _ ___ _ _
 72
    65
 73
     6
 40
1.25
 49
0.625
 74
     0
 49
-0.125
 74
     0
 49
0.125
 74
     0
 49
-0.125
 74
     0
 49
0.125
 74
     0
 49
-0.125
 74
     0
  0
LTYPE
  5
28A
330
247
100
AcDbSymbolTableRecord
100
AcDbLinetypeTableRecord
  2
PHANTOMX2
 70
     0
  3
Phantomx2 ____________    ____    ____   _
 72
    65
 73
     6
 40
5.0
 49
2.5
 74
     0
 49
-0.5
 74
     0
 49
0.5
 74
     0
 49
-0.5
 74
     0
 49
0.5
 74
     0
 49
-0.5
 74
     0
  0
LTYPE
  5
F109FF
330
247
100
AcDbSymbolTableRecord
100
AcDbLinetypeTableRecord
  2
AM_ISO02W050
 70
     0
  3
__ __ __ __ __ __ __ __ __ __ __ __ __ __ __
 72
    65
 73
     2
 40
7.5
 49
6.0
 74
     0
 49
-1.5
 74
     0
  0
LTYPE
  5
F10A00
330
247
100
AcDbSymbolTableRecord
100
AcDbLinetypeTableRecord
  2
AM_ISO08W050
 70
     0
  3
____ . ____ . ____ . ____ . ____ . ____ . ____
 72
    65
 73
     4
 40
18.0
 49
12.0
 74
     0
 49
-1.5
 74
     0
 49
3.0
 74
     0
 49
-1.5
 74
     0
  0
LTYPE
  5
F10A01
330
247
100
AcDbSymbolTableRecord
100
AcDbLinetypeTableRecord
  2
AM_ISO09W050
 70
     0
  3
_____ . . _____ . . _____ . . ____ .. ____
 72
    65
 73
     6
 40
22.5
 49
12.0
 74
     0
 49
-1.5
 74
     0
 49
3.0
 74
     0
 49
-1.5
 74
     0
 49
3.0
 74
     0
 49
-1.5
 74
     0
  0
LTYPE
  5
F10A02
330
247
100
AcDbSymbolTableRecord
100
AcDbLinetypeTableRecord
  2
Amconstr
 70
     0
  3
_______________________
 72
    65
 73
     2
 40
9999.0
 49
9999.0
 74
     0
 49
0.0
 74
     0
  0
LTYPE
  5
F10A03
330
247
100
AcDbSymbolTableRecord
100
AcDbLinetypeTableRecord
  2
AM_ISO08W050x2
 70
     0
  3
__ . __ . __ . __ . __ . __
 72
    65
 73
     4
 40
9.0
 49
6.0
 74
     0
 49
-0.75
 74
     0
 49
1.5
 74
     0
 49
-0.75
 74
     0
  0
LTYPE
  5
F10A04
330
247
100
AcDbSymbolTableRecord
100
AcDbLinetypeTableRecord
  2
AM_ISO02W050x2
 70
     0
  3
 _ _ _ _ _ _ _ _ _ _ _ _
 72
    65
 73
     2
 40
3.75
 49
3.0
 74
     0
 49
-0.75
 74
     0
  0
LTYPE
  5
F10A07
330
247
100
AcDbSymbolTableRecord
100
AcDbLinetypeTableRecord
  2
Amzigzag
 70
     0
  3
/\/-/\/-/\/-/\/-/\/-/\/
 72
    65
 73
     2
 40
11.0001
 49
0.0001
 74
     4
 75
   136
340
F10A06
 46
0.04
 50
0.0
 44
0.0
 45
0.0
 49
-11.0
 74
     0
  0
LTYPE
  5
F10A08
330
247
100
AcDbSymbolTableRecord
100
AcDbLinetypeTableRecord
  2
Amzigzag2
 70
     0
  3
/\/-/\/-/\/-/\/-/\/-/\/
 72
    65
 73
     2
 40
0.4401
 49
0.0001
 74
     4
 75
   136
340
F10A06
 46
0.0016
 50
0.0
 44
0.0
 45
0.0
 49
-0.4400000000000001
 74
     0
  0
LTYPE
  5
F10A16
330
247
100
AcDbSymbolTableRecord
100
AcDbLinetypeTableRecord
  2
ACANSTGB
 70
     0
  3
__ . . __ . .
 72
    65
 73
     6
 40
0.35433070866
 49
0.15748031496
 74
     0
 49
-0.03937007874
 74
     0
 49
0.03937007874
 74
     0
 49
-0.03937007874
 74
     0
 49
0.03937007874
 74
     0
 49
-0.03937007874
 74
     0
  0
LTYPE
  5
F10A17
330
247
100
AcDbSymbolTableRecord
100
AcDbLinetypeTableRecord
  2
ACANSTGL
 70
     0
  3
_ _ _ _ _
 72
    65
 73
     2
 40
0.11811023622
 49
0.07874015748
 74
     0
 49
-0.03937007874
 74
     0
  0
ENDTAB
  0
TABLE
  2
LAYER
  5
244
330
0
100
AcDbSymbolTable
 70
     6
  0
LAYER
  5
252
102
{ACAD_XDICTIONARY
360
F10ACD
102
}
330
244
100
AcDbSymbolTableRecord
100
AcDbLayerTableRecord
  2
0
 70
     0
 62
     7
  6
Continuous
370
     0
390
19
  0
LAYER
  5
23F
102
{ACAD_XDICTIONARY
360
F10ACF
102
}
330
244
100
AcDbSymbolTableRecord
100
AcDbLayerTableRecord
  2
Bemassung
 70
     0
 62
     7
  6
Continuous
370
     0
390
19
  0
LAYER
  5
240
102
{ACAD_XDICTIONARY
360
F10AD1
102
}
330
244
100
AcDbSymbolTableRecord
100
AcDbLayerTableRecord
  2
Rahmen
 70
     0
 62
     7
  6
Continuous
370
     0
390
19
  0
LAYER
  5
241
102
{ACAD_XDICTIONARY
360
F10AD3
102
}
330
244
100
AcDbSymbolTableRecord
100
AcDbLayerTableRecord
  2
Geo
 70
     0
 62
     7
  6
Continuous
370
     0
390
19
  0
LAYER
  5
33A
330
244
100
AcDbSymbolTableRecord
100
AcDbLayerTableRecord
  2
Defpoints
 70
     0
 62
     7
  6
Continuous
290
     0
370
    -3
390
19
  0
LAYER
  5
57E
102
{ACAD_XDICTIONARY
360
F10AD5
102
}
330
244
100
AcDbSymbolTableRecord
100
AcDbLayerTableRecord
  2
Text
 70
     0
 62
     7
  6
Continuous
370
     0
390
19
1001
AcAecLayerStandard
1000

1000

  0
ENDTAB
  0
TABLE
  2
STYLE
  5
245
330
0
100
AcDbSymbolTable
 70
     5
  0
STYLE
  5
253
330
245
100
AcDbSymbolTableRecord
100
AcDbTextStyleTableRecord
  2
Standard
 70
     0
 40
0.0
 41
1.0
 50
0.0
 71
     0
 42
0.2
  3
Arial
  4

1001
ACAD
1000
Arial
1071
        0
  0
STYLE
  5
132
330
245
100
AcDbSymbolTableRecord
100
AcDbTextStyleTableRecord
  2
Beschriftung
 70
     0
 40
0.0
 41
1.0
 50
0.0
 71
     0
 42
0.2
  3
Arial
  4

1001
ACAD
1000
Arial
1071
        0
1001
AcadAnnotative
1000
AnnotativeData
1070
     1
1070
     1
  0
STYLE
  5
F10A06
330
245
100
AcDbSymbolTableRecord
100
AcDbTextStyleTableRecord
  2

 70
     1
 40
0.0
 41
1.0
 50
0.0
 71
     0
 42
0.2
  3
genltshp.shx
  4

  0
STYLE
  5
F10A14
330
245
100
AcDbSymbolTableRecord
100
AcDbTextStyleTableRecord
  2
ACANSTS
 70
     0
 40
1.0
 41
1.0
 50
0.0
 71
     0
 42
0.2
  3
romans.shx
  4

  0
STYLE
  5
F10A15
330
245
100
AcDbSymbolTableRecord
100
AcDbTextStyleTableRecord
  2
ACANSGDT
 70
     0
 40
0.0
 41
1.0
 50
0.0
 71
     0
 42
0.2
  3
amgdt.shx
  4

  0
ENDTAB
  0
TABLE
  2
VIEW
  5
248
330
0
100
AcDbSymbolTable
 70
     0
  0
ENDTAB
  0
TABLE
  2
UCS
  5
249
330
0
100
AcDbSymbolTable
 70
     0
  0
ENDTAB
  0
TABLE
  2
APPID
  5
24B
330
0
100
AcDbSymbolTable
 70
    28
  0
APPID
  5
254
330
24B
100
AcDbSymbolTableRecord
100
AcDbRegAppTableRecord
  2
ACAD
 70
     0
  0
APPID
  5
26C
330
24B
100
AcDbSymbolTableRecord
100
AcDbRegAppTableRecord
  2
VD_INVISIBLE_NOT_FOR_READ
 70
     0
  0
APPID
  5
26D
330
24B
100
AcDbSymbolTableRecord
100
AcDbRegAppTableRecord
  2
VD_TEMPHATCH
 70
     0
  0
APPID
  5
26E
330
24B
100
AcDbSymbolTableRecord
100
AcDbRegAppTableRecord
  2
VDEXTRAPARAM
 70
     0
  0
APPID
  5
26F
330
24B
100
AcDbSymbolTableRecord
100
AcDbRegAppTableRecord
  2
PE_URL
 70
     0
  0
APPID
  5
270
330
24B
100
AcDbSymbolTableRecord
100
AcDbRegAppTableRecord
  2
VD_UNKNOWN
 70
     0
  0
APPID
  5
28F
330
24B
100
AcDbSymbolTableRecord
100
AcDbRegAppTableRecord
  2
AcadAnnotative
 70
     0
  0
APPID
  5
290
330
24B
100
AcDbSymbolTableRecord
100
AcDbRegAppTableRecord
  2
ACAD_DSTYLE_DIMJAG
 70
     0
  0
APPID
  5
291
330
24B
100
AcDbSymbolTableRecord
100
AcDbRegAppTableRecord
  2
ACAD_DSTYLE_DIMTALN
 70
     0
  0
APPID
  5
293
330
24B
100
AcDbSymbolTableRecord
100
AcDbRegAppTableRecord
  2
ACAD_PSEXT
 70
     0
  0
APPID
  5
42A
330
24B
100
AcDbSymbolTableRecord
100
AcDbRegAppTableRecord
  2
ACAD_MLEADERVER
 70
     0
  0
APPID
  5
532
330
24B
100
AcDbSymbolTableRecord
100
AcDbRegAppTableRecord
  2
ACAD_EXEMPT_FROM_CAD_STANDARDS
 70
     0
  0
APPID
  5
57F
330
24B
100
AcDbSymbolTableRecord
100
AcDbRegAppTableRecord
  2
AcAecLayerStandard
 70
     0
  0
APPID
  5
F10999
330
24B
100
AcDbSymbolTableRecord
100
AcDbRegAppTableRecord
  2
MCAD_NO_VIS
 70
     0
  0
APPID
  5
F1099A
330
24B
100
AcDbSymbolTableRecord
100
AcDbRegAppTableRecord
  2
ACAD_TEMP_GRAPHIC
 70
     0
  0
APPID
  5
F109C3
330
24B
100
AcDbSymbolTableRecord
100
AcDbRegAppTableRecord
  2
AD_DRAW
 70
     0
  0
APPID
  5
F109C6
330
24B
100
AcDbSymbolTableRecord
100
AcDbRegAppTableRecord
  2
ACATTRIBSERVICES
 70
     0
  0
APPID
  5
F109DF
330
24B
100
AcDbSymbolTableRecord
100
AcDbRegAppTableRecord
  2
DESIGNERASSEMBLIES
 70
     0
  0
APPID
  5
F109E4
330
24B
100
AcDbSymbolTableRecord
100
AcDbRegAppTableRecord
  2
ACADM_DIM_EDIT
 70
     0
  0
APPID
  5
F109E5
330
24B
100
AcDbSymbolTableRecord
100
AcDbRegAppTableRecord
  2
AMDT_DM_ADJ
 70
     0
  0
APPID
  5
F109FD
330
24B
100
AcDbSymbolTableRecord
100
AcDbRegAppTableRecord
  2
ACAD_DSTYLE_DIMBREAK
 70
     0
  0
APPID
  5
F10A1E
330
24B
100
AcDbSymbolTableRecord
100
AcDbRegAppTableRecord
  2
GENIUS_GENSCREG_15
 70
     0
  0
APPID
  5
F10A1F
330
24B
100
AcDbSymbolTableRecord
100
AcDbRegAppTableRecord
  2
GENIUS_GENODEF_13
 70
     0
  0
APPID
  5
F10A20
330
24B
100
AcDbSymbolTableRecord
100
AcDbRegAppTableRecord
  2
GENIUS_GENOBJ-N-SDF_13
 70
     0
  0
APPID
  5
F10B23
330
24B
100
AcDbSymbolTableRecord
100
AcDbRegAppTableRecord
  2
ACAD_DSTYLE_DIMARC_LENGTH_SYMBOL
 70
     0
  0
APPID
  5
F10B24
330
24B
100
AcDbSymbolTableRecord
100
AcDbRegAppTableRecord
  2
ACAD_DSTYLE_DIM_LINETYPE
 70
     0
  0
APPID
  5
F10B25
330
24B
100
AcDbSymbolTableRecord
100
AcDbRegAppTableRecord
  2
ACAD_DSTYLE_DIM_EXT1_LINETYPE
 70
     0
  0
APPID
  5
F10B26
330
24B
100
AcDbSymbolTableRecord
100
AcDbRegAppTableRecord
  2
ACAD_DSTYLE_DIM_EXT2_LINETYPE
 70
     0
  0
ENDTAB
  0
TABLE
  2
DIMSTYLE
  5
24C
330
0
100
AcDbSymbolTable
 70
     9
100
AcDbDimStyleTable
 71
     2
340
27
340
269
  0
DIMSTYLE
105
269
330
24C
100
AcDbSymbolTableRecord
100
AcDbDimStyleTableRecord
  2
Standard
 70
     0
172
     1
174
     1
288
     1
340
253
342
23C
  0
DIMSTYLE
105
137
330
24C
100
AcDbSymbolTableRecord
100
AcDbDimStyleTableRecord
  2
Beschriftung
 70
     0
 41
2.5
 42
0.625
 44
1.25
 73
     0
 74
     0
 77
     1
140
2.5
147
0.625
172
     1
174
     1
271
     2
288
     1
340
253
342
23C
1001
AcadAnnotative
1000
AnnotativeData
1070
     1
1070
     1
1001
ACAD_DSTYLE_DIMJAG
1070
   388
1040
1.5
1001
ACAD_DSTYLE_DIMTALN
1070
   392
1070
     0
  0
DIMSTYLE
105
27
102
{ACAD_REACTORS
330
F1000D
330
F10017
330
F10021
330
F10008
330
F10012
102
}
330
24C
100
AcDbSymbolTableRecord
100
AcDbDimStyleTableRecord
  2
BEM-ISBE
 70
     0
 41
2.5
 42
0.625
 44
1.25
 48
0.000000001
 71
     1
 73
     0
 74
     0
 77
     1
140
2.5
146
0.5
147
0.625
171
     3
172
     1
179
     3
271
     3
272
     3
274
     3
340
253
342
23C
1001
ACAD_DSTYLE_DIMJAG
1070
   388
1040
1.5
1001
ACAD_DSTYLE_DIMTALN
1070
   392
1070
     1
  0
DIMSTYLE
105
F109FC
102
{ACAD_REACTORS
330
F109EC
102
}
330
24C
100
AcDbSymbolTableRecord
100
AcDbDimStyleTableRecord
  2
AM_ANSI
 70
     0
  4
mm
 41
0.12
 42
0.05
 43
0.5
 44
0.1
 47
0.1
 48
0.1
 78
     7
 79
     2
140
0.12
141
0.0
146
0.71
147
0.06
176
   256
177
   256
178
     2
274
     4
284
     7
340
253
371
    -1
372
    -1
1001
ACAD_DSTYLE_DIMJAG
1070
   388
1040
1.5
1001
ACAD_DSTYLE_DIMBREAK
1070
   391
1040
0.125
1001
ACAD_DSTYLE_DIMARC_LENGTH_SYMBOL
1070
   379
1070
     1
1001
ACAD_DSTYLE_DIM_LINETYPE
1070
   380
1005
256
1001
ACAD_DSTYLE_DIM_EXT1_LINETYPE
1070
   381
1005
256
1001
ACAD_DSTYLE_DIM_EXT2_LINETYPE
1070
   382
1005
256
  0
DIMSTYLE
105
F10A09
330
24C
100
AcDbSymbolTableRecord
100
AcDbDimStyleTableRecord
  2
AM_ANSI$3
 70
     0
  4
mm
 41
0.12
 42
0.05
 43
0.5
 44
0.1
 47
0.1
 48
0.1
 78
     7
 79
     2
140
0.12
141
0.0
146
0.71
147
0.06
176
   256
177
   256
178
     2
274
     4
284
     7
288
     1
289
     0
340
253
371
    -1
372
    -1
1001
ACAD_DSTYLE_DIMBREAK
1070
   391
1040
0.125
1001
ACAD_DSTYLE_DIMJAG
1070
   388
1040
1.5
1001
ACAD_DSTYLE_DIMARC_LENGTH_SYMBOL
1070
   379
1070
     1
1001
ACAD_DSTYLE_DIM_LINETYPE
1070
   380
1005
256
1001
ACAD_DSTYLE_DIM_EXT1_LINETYPE
1070
   381
1005
256
1001
ACAD_DSTYLE_DIM_EXT2_LINETYPE
1070
   382
1005
256
  0
DIMSTYLE
105
F10A0A
330
24C
100
AcDbSymbolTableRecord
100
AcDbDimStyleTableRecord
  2
AM_ANSI$4
 70
     0
  4
mm
 41
0.12
 42
0.05
 43
0.5
 44
0.1
 47
0.1
 48
0.1
 78
     7
 79
     2
140
0.12
141
0.0
146
0.71
147
0.06
176
   256
177
   256
178
     2
274
     4
284
     7
288
     1
289
     0
340
253
371
    -1
372
    -1
1001
ACAD_DSTYLE_DIMBREAK
1070
   391
1040
0.125
1001
ACAD_DSTYLE_DIMJAG
1070
   388
1040
1.5
1001
ACAD_DSTYLE_DIMARC_LENGTH_SYMBOL
1070
   379
1070
     1
1001
ACAD_DSTYLE_DIM_LINETYPE
1070
   380
1005
256
1001
ACAD_DSTYLE_DIM_EXT1_LINETYPE
1070
   381
1005
256
1001
ACAD_DSTYLE_DIM_EXT2_LINETYPE
1070
   382
1005
256
  0
DIMSTYLE
105
F10A0B
330
24C
100
AcDbSymbolTableRecord
100
AcDbDimStyleTableRecord
  2
AM_ANSI$7
 70
     0
  4
mm
 41
0.12
 42
0.05
 43
0.5
 44
0.1
 47
0.1
 48
0.1
 78
     7
 79
     2
140
0.12
141
0.0
146
0.71
147
0.06
176
   256
177
   256
178
     2
274
     4
284
     7
340
253
371
    -1
372
    -1
1001
ACAD_DSTYLE_DIMBREAK
1070
   391
1040
0.125
1001
ACAD_DSTYLE_DIMJAG
1070
   388
1040
1.5
1001
ACAD_DSTYLE_DIMARC_LENGTH_SYMBOL
1070
   379
1070
     1
1001
ACAD_DSTYLE_DIM_LINETYPE
1070
   380
1005
256
1001
ACAD_DSTYLE_DIM_EXT1_LINETYPE
1070
   381
1005
256
1001
ACAD_DSTYLE_DIM_EXT2_LINETYPE
1070
   382
1005
256
  0
DIMSTYLE
105
F10A0C
330
24C
100
AcDbSymbolTableRecord
100
AcDbDimStyleTableRecord
  2
AM_ANSI$SF
 70
     0
  4
mm
 41
0.12
 42
0.05
 43
0.5
 44
0.1
 47
0.1
 48
0.1
 75
     1
 76
     1
 78
     7
 79
     2
140
0.12
141
0.0
146
0.71
147
0.06
176
   256
177
   256
178
     2
274
     4
284
     7
340
253
371
    -1
372
    -1
1001
ACAD_DSTYLE_DIMBREAK
1070
   391
1040
0.125
1001
ACAD_DSTYLE_DIMJAG
1070
   388
1040
1.5
1001
ACAD_DSTYLE_DIMARC_LENGTH_SYMBOL
1070
   379
1070
     1
1001
ACAD_DSTYLE_DIM_LINETYPE
1070
   380
1005
256
1001
ACAD_DSTYLE_DIM_EXT1_LINETYPE
1070
   381
1005
256
1001
ACAD_DSTYLE_DIM_EXT2_LINETYPE
1070
   382
1005
256
  0
DIMSTYLE
105
F10A11
330
24C
100
AcDbSymbolTableRecord
100
AcDbDimStyleTableRecord
  2
AM_ANSI$SH
 70
     0
  4
mm
 41
0.12
 42
0.05
 43
0.5
 44
0.1
 47
0.1
 48
0.1
 75
     1
 76
     1
 78
     7
 79
     2
140
0.12
141
0.0
146
0.71
147
0.06
173
     1
176
   256
177
   256
178
     2
274
     4
284
     7
340
253
343
F10A0D
371
    -1
372
    -1
1001
ACAD_DSTYLE_DIMBREAK
1070
   391
1040
0.125
1001
ACAD_DSTYLE_DIMJAG
1070
   388
1040
1.5
1001
ACAD_DSTYLE_DIMARC_LENGTH_SYMBOL
1070
   379
1070
     1
1001
ACAD_DSTYLE_DIM_LINETYPE
1070
   380
1005
256
1001
ACAD_DSTYLE_DIM_EXT1_LINETYPE
1070
   381
1005
256
1001
ACAD_DSTYLE_DIM_EXT2_LINETYPE
1070
   382
1005
256
  0
ENDTAB
  0
TABLE
  2
BLOCK_RECORD
  5
243
330
0
100
AcDbSymbolTable
 70
    12
  0
BLOCK_RECORD
  5
261
330
243
100
AcDbSymbolTableRecord
100
AcDbBlockTableRecord
  2
*Model_Space
340
FD0
  0
BLOCK_RECORD
  5
25D
330
243
100
AcDbSymbolTableRecord
100
AcDbBlockTableRecord
  2
*Paper_Space
340
FD1
  0
BLOCK_RECORD
  5
265
330
243
100
AcDbSymbolTableRecord
100
AcDbBlockTableRecord
  2
*Paper_Space0
340
0
  0
BLOCK_RECORD
  5
23C
330
243
100
AcDbSymbolTableRecord
100
AcDbBlockTableRecord
  2
VDDIM_DEFAULT
340
0
102
{BLKREFS
331
F10A2E
331
F10A2F
331
F10A5B
331
F10A5C
331
F10AA3
331
F10AA4
331
F10AAC
331
F10AAD
331
F10AB5
331
F10AB6
331
F10ABE
331
F10ABF
331
F10AC7
331
F10AC8
102
}
  0
BLOCK_RECORD
  5
23E
330
243
100
AcDbSymbolTableRecord
100
AcDbBlockTableRecord
  2
VDDIM_NONE
340
0
  0
BLOCK_RECORD
  5
F10002
330
243
100
AcDbSymbolTableRecord
100
AcDbBlockTableRecord
  2
*D3
340
0
  0
BLOCK_RECORD
  5
F1000C
330
243
100
AcDbSymbolTableRecord
100
AcDbBlockTableRecord
  2
*D4
340
0
  0
BLOCK_RECORD
  5
F10016
330
243
100
AcDbSymbolTableRecord
100
AcDbBlockTableRecord
  2
*D5
340
0
  0
BLOCK_RECORD
  5
F1001B
330
243
100
AcDbSymbolTableRecord
100
AcDbBlockTableRecord
  2
*D6
340
0
  0
BLOCK_RECORD
  5
F10020
330
243
100
AcDbSymbolTableRecord
100
AcDbBlockTableRecord
  2
*D7
340
0
  0
BLOCK_RECORD
  5
F10007
330
243
100
AcDbSymbolTableRecord
100
AcDbBlockTableRecord
  2
*D8
340
0
  0
BLOCK_RECORD
  5
F10011
330
243
100
AcDbSymbolTableRecord
100
AcDbBlockTableRecord
  2
*D9
340
0
  0
BLOCK_RECORD
  5
F10A0D
330
243
100
AcDbSymbolTableRecord
100
AcDbBlockTableRecord
  2
GENAXEH
340
0
  0
ENDTAB
  0
ENDSEC
  0
SECTION
  2
BLOCKS
  0
BLOCK
  5
262
330
261
100
AcDbEntity
  8
0
100
AcDbBlockBegin
  2
*Model_Space
 70
     0
 10
0.0
 20
0.0
 30
0.0
  3
*Model_Space
  1

  0
ENDBLK
  5
263
330
261
100
AcDbEntity
  8
0
100
AcDbBlockEnd
  0
BLOCK
  5
25E
330
25D
100
AcDbEntity
 67
     1
  8
0
100
AcDbBlockBegin
  2
*Paper_Space
 70
     0
 10
0.0
 20
0.0
 30
0.0
  3
*Paper_Space
  1

  0
ENDBLK
  5
25F
330
25D
100
AcDbEntity
 67
     1
  8
0
100
AcDbBlockEnd
  0
BLOCK
  5
266
330
265
100
AcDbEntity
  8
0
100
AcDbBlockBegin
  2
*Paper_Space0
 70
     0
 10
0.0
 20
0.0
 30
0.0
  3
*Paper_Space0
  1

  0
VIEWPORT
  5
296
102
{ACAD_XDICTIONARY
360
F10AE6
102
}
330
265
100
AcDbEntity
  8
0
 60
     1
100
AcDbViewport
 10
0.0
 20
0.0
 30
0.0
 40
10.0
 41
10.0
 69
     0
 12
0.0
 22
0.0
 13
0.0
 23
0.0
 14
1.0
 24
1.0
 15
0.0
 25
0.0
 16
0.0
 26
0.0
 36
1.0
 17
0.0
 27
0.0
 37
0.0
 42
0.0
 43
0.0
 44
0.0
 45
10.0
 50
0.0
 51
0.0000000000007958
 72
   100
 90
   163872
  1

281
     0
 71
     0
 74
     0
110
0.0
120
0.0
130
0.0
111
1.0
121
0.0
131
0.0
112
0.0
122
1.0
132
0.0
 79
     0
146
0.0
1001
VD_INVISIBLE_NOT_FOR_READ
1000
VD_INVISIBLE_NOT_FOR_READ
  0
VIEWPORT
  5
297
102
{ACAD_XDICTIONARY
360
F10AE8
102
}
330
265
100
AcDbEntity
  8
0
 60
     1
100
AcDbViewport
 10
0.0
 20
0.0
 30
0.0
 40
10.0
 41
10.0
 69
     0
 12
0.0
 22
0.0
 13
0.0
 23
0.0
 14
1.0
 24
1.0
 15
0.0
 25
0.0
 16
0.0
 26
0.0
 36
1.0
 17
0.0
 27
0.0
 37
0.0
 42
0.0
 43
0.0
 44
0.0
 45
10.0
 50
0.0
 51
0.0000000000007958
 72
   100
 90
   163872
  1

281
     0
 71
     0
 74
     0
110
0.0
120
0.0
130
0.0
111
1.0
121
0.0
131
0.0
112
0.0
122
1.0
132
0.0
 79
     0
146
0.0
1001
VD_INVISIBLE_NOT_FOR_READ
1000
VD_INVISIBLE_NOT_FOR_READ
  0
ENDBLK
  5
267
330
265
100
AcDbEntity
  8
0
100
AcDbBlockEnd
  0
BLOCK
  5
28B
330
23C
100
AcDbEntity
  8
0
100
AcDbBlockBegin
  2
VDDIM_DEFAULT
 70
     0
 10
0.0
 20
0.0
 30
0.0
  3
VDDIM_DEFAULT
  1

  0
LWPOLYLINE
  5
23D
330
23C
100
AcDbEntity
  8
0
  6
Continuous
 62
     0
100
AcDbPolyline
 90
        4
 70
     0
 43
0.0
 10
0.0
 20
0.0
 10
-1.0
 20
-0.1665
 10
-1.0
 20
0.1665
 10
0.0
 20
0.0
1001
VDEXTRAPARAM
1071
        1
1071
        0
1071
        0
1040
1.0
1000

1000

1040
0.0
1040
0.0
  0
HATCH
  5
292
330
23C
100
AcDbEntity
  8
0
  6
Continuous
 62
     0
100
AcDbHatch
 10
0.0
 20
0.0
 30
0.0
210
0.0
220
0.0
230
1.0
  2
SOLID
 70
     1
 71
     0
 91
        1
 92
        2
 72
     0
 73
     1
 93
        3
 10
0.0
 20
0.0
 10
-1.0
 20
-0.1665
 10
-1.0
 20
0.1665
 97
        0
 75
     0
 76
     1
 98
        1
 10
0.0
 20
0.0
1001
VDEXTRAPARAM
1071
        1
1071
        0
1071
        0
1040
1.0
1000

1000

1040
0.0
1040
0.0
1001
VD_TEMPHATCH
1000
VD_TEMPHATCH
  0
ENDBLK
  5
28C
330
23C
100
AcDbEntity
  8
0
100
AcDbBlockEnd
  0
BLOCK
  5
28D
330
23E
100
AcDbEntity
  8
0
100
AcDbBlockBegin
  2
VDDIM_NONE
 70
     0
 10
0.0
 20
0.0
 30
0.0
  3
VDDIM_NONE
  1

  0
ENDBLK
  5
28E
330
23E
100
AcDbEntity
  8
0
100
AcDbBlockEnd
  0
BLOCK
  5
F10025
330
F10002
100
AcDbEntity
  8
0
100
AcDbBlockBegin
  2
*D3
 70
     1
 10
0.0
 20
0.0
 30
0.0
  3
*D3
  1

  0
LINE
  5
F10A29
330
F10002
100
AcDbEntity
  8
Bemassung
 62
     0
370
    -2
100
AcDbLine
 10
-94.37389380530978
 20
-16.0741150442478
 30
0.0
 11
-94.37389380530978
 21
35.55088495575219
 31
0.0
  0
LINE
  5
F10A2A
330
F10002
100
AcDbEntity
  8
Bemassung
 62
     0
370
    -2
100
AcDbLine
 10
-94.19389380530979
 20
29.9258849557522
 30
0.0
 11
-94.19389380530979
 21
35.5508849557522
 31
0.0
  0
LINE
  5
F10A2B
330
F10002
100
AcDbEntity
  8
Bemassung
 62
     0
370
    -2
100
AcDbLine
 10
-96.8738938053098
 20
34.3008849557522
 30
0.0
 11
-99.3738938053098
 21
34.3008849557522
 31
0.0
  0
LINE
  5
F10A2C
330
F10002
100
AcDbEntity
  8
Bemassung
 62
     0
370
    -2
100
AcDbLine
 10
-91.69389380530979
 20
34.3008849557522
 30
0.0
 11
-81.44491699766998
 21
34.3008849557522
 31
0.0
  0
LINE
  5
F10A2D
330
F10002
100
AcDbEntity
  8
Bemassung
 62
     0
370
    -2
100
AcDbLine
 10
-94.37389380530978
 20
34.3008849557522
 30
0.0
 11
-94.19389380530979
 21
34.3008849557522
 31
0.0
  0
INSERT
  5
F10A2E
330
F10002
100
AcDbEntity
  8
Bemassung
 62
     0
370
    -2
100
AcDbBlockReference
  2
VDDIM_DEFAULT
 10
-94.37389380530978
 20
34.3008849557522
 30
0.0
 41
2.5
 42
2.5
 43
2.5
  0
INSERT
  5
F10A2F
330
F10002
100
AcDbEntity
  8
Bemassung
 62
     0
370
    -2
100
AcDbBlockReference
  2
VDDIM_DEFAULT
 10
-94.19389380530979
 20
34.3008849557522
 30
0.0
 41
2.5
 42
2.5
 43
2.5
 50
180.0
  0
MTEXT
  5
F10A30
330
F10002
100
AcDbEntity
  8
Bemassung
 62
     0
100
AcDbMText
 10
-85.31940540148989
 20
34.9258849557522
 30
0.0
 40
2.5
 41
0.0
 71
     8
 72
     1
  1
\A1;0.18
 73
     1
 44
1.0
1001
ACAD
1000
MTEXTBEGIN
1070
    73
1070
     1
1070
    44
1040
1.0
1070
    74
1070
     0
1000
MTEXTEND
  0
POINT
  5
F10A31
330
F10002
100
AcDbEntity
  8
Defpoints
 62
     0
100
AcDbPoint
 10
-94.37389380530978
 20
-16.6991150442478
 30
0.0
  0
POINT
  5
F10A32
330
F10002
100
AcDbEntity
  8
Defpoints
 62
     0
100
AcDbPoint
 10
-94.19389380530979
 20
29.3008849557522
 30
0.0
  0
POINT
  5
F10A33
330
F10002
100
AcDbEntity
  8
Defpoints
 62
     0
100
AcDbPoint
 10
-94.19389380530979
 20
34.3008849557522
 30
0.0
  0
ENDBLK
  5
F1002E
330
F10002
100
AcDbEntity
  8
0
100
AcDbBlockEnd
  0
BLOCK
  5
F1002F
330
F1000C
100
AcDbEntity
  8
0
100
AcDbBlockBegin
  2
*D4
 70
     1
 10
0.0
 20
0.0
 30
0.0
  3
*D4
  1

  0
LINE
  5
F10AA9
330
F1000C
100
AcDbEntity
  8
Bemassung
 62
     0
370
    -2
100
AcDbLine
 10
5.011402882710648
 20
9.328289541047627
 30
0.0
 11
5.011402882710648
 21
24.95328954104763
 31
0.0
  0
LINE
  5
F10AAA
330
F1000C
100
AcDbEntity
  8
Bemassung
 62
     0
370
    -2
100
AcDbLine
 10
50.01140288271066
 20
8.328289541047627
 30
0.0
 11
50.01140288271066
 21
24.95328954104763
 31
0.0
  0
LINE
  5
F10AAB
330
F1000C
100
AcDbEntity
  8
Bemassung
 62
     0
370
    -2
100
AcDbLine
 10
7.511402882710648
 20
23.70328954104763
 30
0.0
 11
47.51140288271066
 21
23.70328954104763
 31
0.0
  0
INSERT
  5
F10AAC
330
F1000C
100
AcDbEntity
  8
Bemassung
 62
     0
370
    -2
100
AcDbBlockReference
  2
VDDIM_DEFAULT
 10
5.011402882710648
 20
23.70328954104763
 30
0.0
 41
2.5
 42
2.5
 43
2.5
 50
180.0
  0
INSERT
  5
F10AAD
330
F1000C
100
AcDbEntity
  8
Bemassung
 62
     0
370
    -2
100
AcDbBlockReference
  2
VDDIM_DEFAULT
 10
50.01140288271066
 20
23.70328954104763
 30
0.0
 41
2.5
 42
2.5
 43
2.5
  0
MTEXT
  5
F10AAE
330
F1000C
100
AcDbEntity
  8
Bemassung
 62
     0
100
AcDbMText
 10
27.51140288271065
 20
24.32828954104763
 30
0.0
 40
2.5
 41
0.0
 71
     8
 72
     1
  1
\A1;45
 73
     1
 44
1.0
1001
ACAD
1000
MTEXTBEGIN
1070
    73
1070
     1
1070
    44
1040
1.0
1070
    74
1070
     0
1000
MTEXTEND
  0
POINT
  5
F10AAF
330
F1000C
100
AcDbEntity
  8
Defpoints
 62
     0
100
AcDbPoint
 10
5.011402882710648
 20
8.703289541047627
 30
0.0
  0
POINT
  5
F10AB0
330
F1000C
100
AcDbEntity
  8
Defpoints
 62
     0
100
AcDbPoint
 10
50.01140288271066
 20
7.703289541047627
 30
0.0
  0
POINT
  5
F10AB1
330
F1000C
100
AcDbEntity
  8
Defpoints
 62
     0
100
AcDbPoint
 10
50.01140288271066
 20
23.70328954104763
 30
0.0
  0
ENDBLK
  5
F10038
330
F1000C
100
AcDbEntity
  8
0
100
AcDbBlockEnd
  0
BLOCK
  5
F10039
330
F10016
100
AcDbEntity
  8
0
100
AcDbBlockBegin
  2
*D5
 70
     1
 10
0.0
 20
0.0
 30
0.0
  3
*D5
  1

  0
LINE
  5
F10ABB
330
F10016
100
AcDbEntity
  8
Bemassung
 62
     0
370
    -2
100
AcDbLine
 10
-15.98859711728936
 20
-5.921710458952375
 30
0.0
 11
-15.98859711728936
 21
-21.54671045895238
 31
0.0
  0
LINE
  5
F10ABC
330
F10016
100
AcDbEntity
  8
Bemassung
 62
     0
370
    -2
100
AcDbLine
 10
-41.98859711728935
 20
1.422955886971763
 30
0.0
 11
-41.98859711728935
 21
-21.54671045895238
 31
0.0
  0
LINE
  5
F10ABD
330
F10016
100
AcDbEntity
  8
Bemassung
 62
     0
370
    -2
100
AcDbLine
 10
-18.48859711728936
 20
-20.29671045895238
 30
0.0
 11
-39.48859711728935
 21
-20.29671045895238
 31
0.0
  0
INSERT
  5
F10ABE
330
F10016
100
AcDbEntity
  8
Bemassung
 62
     0
370
    -2
100
AcDbBlockReference
  2
VDDIM_DEFAULT
 10
-15.98859711728936
 20
-20.29671045895238
 30
0.0
 41
2.5
 42
2.5
 43
2.5
  0
INSERT
  5
F10ABF
330
F10016
100
AcDbEntity
  8
Bemassung
 62
     0
370
    -2
100
AcDbBlockReference
  2
VDDIM_DEFAULT
 10
-41.98859711728935
 20
-20.29671045895238
 30
0.0
 41
2.5
 42
2.5
 43
2.5
 50
180.0
  0
MTEXT
  5
F10AC0
330
F10016
100
AcDbEntity
  8
Bemassung
 62
     0
100
AcDbMText
 10
-28.98859711728935
 20
-19.67171045895238
 30
0.0
 40
2.5
 41
0.0
 71
     8
 72
     1
  1
\A1;26
 73
     1
 44
1.0
1001
ACAD
1000
MTEXTBEGIN
1070
    73
1070
     1
1070
    44
1040
1.0
1070
    74
1070
     0
1000
MTEXTEND
  0
POINT
  5
F10AC1
330
F10016
100
AcDbEntity
  8
Defpoints
 62
     0
100
AcDbPoint
 10
-15.98859711728936
 20
-5.296710458952375
 30
0.0
  0
POINT
  5
F10AC2
330
F10016
100
AcDbEntity
  8
Defpoints
 62
     0
100
AcDbPoint
 10
-41.98859711728935
 20
2.047955886971763
 30
0.0
  0
POINT
  5
F10AC3
330
F10016
100
AcDbEntity
  8
Defpoints
 62
     0
100
AcDbPoint
 10
-41.98859711728935
 20
-20.29671045895238
 30
0.0
  0
ENDBLK
  5
F10042
330
F10016
100
AcDbEntity
  8
0
100
AcDbBlockEnd
  0
BLOCK
  5
F10043
330
F1001B
100
AcDbEntity
  8
0
100
AcDbBlockBegin
  2
*D6
 70
     1
 10
0.0
 20
0.0
 30
0.0
  3
*D6
  1

  0
LINE
  5
F10A58
330
F1001B
100
AcDbEntity
  8
Bemassung
 62
     0
370
    -2
100
AcDbLine
 10
-56.2738938053098
 20
14.6758849557522
 30
0.0
 11
-56.2738938053098
 21
-15.9491150442478
 31
0.0
  0
LINE
  5
F10A59
330
F1001B
100
AcDbEntity
  8
Bemassung
 62
     0
370
    -2
100
AcDbLine
 10
-94.37389380530978
 20
-16.0741150442478
 30
0.0
 11
-94.37389380530978
 21
-13.4491150442478
 31
0.0
  0
LINE
  5
F10A5A
330
F1001B
100
AcDbEntity
  8
Bemassung
 62
     0
370
    -2
100
AcDbLine
 10
-58.7738938053098
 20
-14.6991150442478
 30
0.0
 11
-91.87389380530978
 21
-14.6991150442478
 31
0.0
  0
INSERT
  5
F10A5B
330
F1001B
100
AcDbEntity
  8
Bemassung
 62
     0
370
    -2
100
AcDbBlockReference
  2
VDDIM_DEFAULT
 10
-56.2738938053098
 20
-14.6991150442478
 30
0.0
 41
2.5
 42
2.5
 43
2.5
  0
INSERT
  5
F10A5C
330
F1001B
100
AcDbEntity
  8
Bemassung
 62
     0
370
    -2
100
AcDbBlockReference
  2
VDDIM_DEFAULT
 10
-94.37389380530978
 20
-14.6991150442478
 30
0.0
 41
2.5
 42
2.5
 43
2.5
 50
180.0
  0
MTEXT
  5
F10A5D
330
F1001B
100
AcDbEntity
  8
Bemassung
 62
     0
100
AcDbMText
 10
-75.32389380530979
 20
-14.0741150442478
 30
0.0
 40
2.5
 41
0.0
 71
     8
 72
     1
  1
\A1;38.1
 73
     1
 44
1.0
1001
ACAD
1000
MTEXTBEGIN
1070
    73
1070
     1
1070
    44
1040
1.0
1070
    74
1070
     0
1000
MTEXTEND
  0
POINT
  5
F10A5E
330
F1001B
100
AcDbEntity
  8
Defpoints
 62
     0
100
AcDbPoint
 10
-56.2738938053098
 20
15.3008849557522
 30
0.0
  0
POINT
  5
F10A5F
330
F1001B
100
AcDbEntity
  8
Defpoints
 62
     0
100
AcDbPoint
 10
-94.37389380530978
 20
-16.6991150442478
 30
0.0
  0
POINT
  5
F10A60
330
F1001B
100
AcDbEntity
  8
Defpoints
 62
     0
100
AcDbPoint
 10
-94.37389380530978
 20
-14.6991150442478
 30
0.0
  0
ENDBLK
  5
F1004C
330
F1001B
100
AcDbEntity
  8
0
100
AcDbBlockEnd
  0
BLOCK
  5
F1004D
330
F10020
100
AcDbEntity
  8
0
100
AcDbBlockBegin
  2
*D7
 70
     1
 10
0.0
 20
0.0
 30
0.0
  3
*D7
  1

  0
LINE
  5
F10AC4
330
F10020
100
AcDbEntity
  8
Bemassung
 62
     0
370
    -2
100
AcDbLine
 10
50.01140288271066
 20
8.328289541047627
 30
0.0
 11
50.01140288271066
 21
34.95328954104762
 31
0.0
  0
LINE
  5
F10AC5
330
F10020
100
AcDbEntity
  8
Bemassung
 62
     0
370
    -2
100
AcDbLine
 10
-41.98859711728935
 20
2.672955886971763
 30
0.0
 11
-41.98859711728935
 21
34.95328954104762
 31
0.0
  0
LINE
  5
F10AC6
330
F10020
100
AcDbEntity
  8
Bemassung
 62
     0
370
    -2
100
AcDbLine
 10
47.51140288271066
 20
33.70328954104762
 30
0.0
 11
-39.48859711728935
 21
33.70328954104762
 31
0.0
  0
INSERT
  5
F10AC7
330
F10020
100
AcDbEntity
  8
Bemassung
 62
     0
370
    -2
100
AcDbBlockReference
  2
VDDIM_DEFAULT
 10
50.01140288271066
 20
33.70328954104762
 30
0.0
 41
2.5
 42
2.5
 43
2.5
  0
INSERT
  5
F10AC8
330
F10020
100
AcDbEntity
  8
Bemassung
 62
     0
370
    -2
100
AcDbBlockReference
  2
VDDIM_DEFAULT
 10
-41.98859711728935
 20
33.70328954104762
 30
0.0
 41
2.5
 42
2.5
 43
2.5
 50
180.0
  0
MTEXT
  5
F10AC9
330
F10020
100
AcDbEntity
  8
Bemassung
 62
     0
100
AcDbMText
 10
4.011402882710655
 20
34.32828954104762
 30
0.0
 40
2.5
 41
0.0
 71
     8
 72
     1
  1
\A1;92
 73
     1
 44
1.0
1001
ACAD
1000
MTEXTBEGIN
1070
    73
1070
     1
1070
    44
1040
1.0
1070
    74
1070
     0
1000
MTEXTEND
  0
POINT
  5
F10ACA
330
F10020
100
AcDbEntity
  8
Defpoints
 62
     0
100
AcDbPoint
 10
50.01140288271066
 20
7.703289541047627
 30
0.0
  0
POINT
  5
F10ACB
330
F10020
100
AcDbEntity
  8
Defpoints
 62
     0
100
AcDbPoint
 10
-41.98859711728935
 20
2.047955886971763
 30
0.0
  0
POINT
  5
F10ACC
330
F10020
100
AcDbEntity
  8
Defpoints
 62
     0
100
AcDbPoint
 10
-41.98859711728935
 20
33.70328954104762
 30
0.0
  0
ENDBLK
  5
F10056
330
F10020
100
AcDbEntity
  8
0
100
AcDbBlockEnd
  0
BLOCK
  5
F10057
330
F10007
100
AcDbEntity
  8
0
100
AcDbBlockBegin
  2
*D8
 70
     1
 10
0.0
 20
0.0
 30
0.0
  3
*D8
  1

  0
LINE
  5
F10AA0
330
F10007
100
AcDbEntity
  8
Bemassung
 62
     0
370
    -2
100
AcDbLine
 10
-42.43359711728935
 20
-5.296710458952374
 30
0.0
 11
-53.23859711728956
 21
-5.296710458952372
 31
0.0
  0
LINE
  5
F10AA1
330
F10007
100
AcDbEntity
  8
Bemassung
 62
     0
370
    -2
100
AcDbLine
 10
-42.43359711728935
 20
8.703289541047627
 30
0.0
 11
-53.23859711728956
 21
8.703289541047631
 31
0.0
  0
LINE
  5
F10AA2
330
F10007
100
AcDbEntity
  8
Bemassung
 62
     0
370
    -2
100
AcDbLine
 10
-51.98859711728956
 20
-2.796710458952372
 30
0.0
 11
-51.98859711728956
 21
6.20328954104763
 31
0.0
  0
INSERT
  5
F10AA3
330
F10007
100
AcDbEntity
  8
Bemassung
 62
     0
370
    -2
100
AcDbBlockReference
  2
VDDIM_DEFAULT
 10
-51.98859711728956
 20
-5.296710458952372
 30
0.0
 41
2.5
 42
2.5
 43
2.5
 50
270.0
  0
INSERT
  5
F10AA4
330
F10007
100
AcDbEntity
  8
Bemassung
 62
     0
370
    -2
100
AcDbBlockReference
  2
VDDIM_DEFAULT
 10
-51.98859711728956
 20
8.703289541047629
 30
0.0
 41
2.5
 42
2.5
 43
2.5
 50
90.0
  0
MTEXT
  5
F10AA5
330
F10007
100
AcDbEntity
  8
Bemassung
 62
     0
100
AcDbMText
 10
-52.61359711728956
 20
1.703289541047621
 30
0.0
 40
2.5
 41
0.0
 71
     8
 72
     1
  1
\A1;%%c14
 11
0.0000000000000001
 21
1.0
 31
0.0
 73
     1
 44
1.0
1001
ACAD
1000
MTEXTBEGIN
1070
    73
1070
     1
1070
    44
1040
1.0
1070
    74
1070
     0
1000
MTEXTEND
  0
POINT
  5
F10AA6
330
F10007
100
AcDbEntity
  8
Defpoints
 62
     0
100
AcDbPoint
 10
-41.80859711728935
 20
-5.296710458952375
 30
0.0
  0
POINT
  5
F10AA7
330
F10007
100
AcDbEntity
  8
Defpoints
 62
     0
100
AcDbPoint
 10
-41.80859711728935
 20
8.703289541047627
 30
0.0
  0
POINT
  5
F10AA8
330
F10007
100
AcDbEntity
  8
Defpoints
 62
     0
100
AcDbPoint
 10
-51.98859711728956
 20
8.703289541047629
 30
0.0
  0
ENDBLK
  5
F10060
330
F10007
100
AcDbEntity
  8
0
100
AcDbBlockEnd
  0
BLOCK
  5
F10061
330
F10011
100
AcDbEntity
  8
0
100
AcDbBlockBegin
  2
*D9
 70
     1
 10
0.0
 20
0.0
 30
0.0
  3
*D9
  1

  0
LINE
  5
F10AB2
330
F10011
100
AcDbEntity
  8
Bemassung
 62
     0
370
    -2
100
AcDbLine
 10
49.63640288271065
 20
-5.296710458952375
 30
0.0
 11
61.26140288271066
 21
-5.296710458952379
 31
0.0
  0
LINE
  5
F10AB3
330
F10011
100
AcDbEntity
  8
Bemassung
 62
     0
370
    -2
100
AcDbLine
 10
49.63640288271065
 20
8.703289541047627
 30
0.0
 11
61.26140288271066
 21
8.703289541047624
 31
0.0
  0
LINE
  5
F10AB4
330
F10011
100
AcDbEntity
  8
Bemassung
 62
     0
370
    -2
100
AcDbLine
 10
60.01140288271066
 20
-2.796710458952379
 30
0.0
 11
60.01140288271066
 21
6.203289541047625
 31
0.0
  0
INSERT
  5
F10AB5
330
F10011
100
AcDbEntity
  8
Bemassung
 62
     0
370
    -2
100
AcDbBlockReference
  2
VDDIM_DEFAULT
 10
60.01140288271066
 20
-5.296710458952379
 30
0.0
 41
2.5
 42
2.5
 43
2.5
 50
270.0
  0
INSERT
  5
F10AB6
330
F10011
100
AcDbEntity
  8
Bemassung
 62
     0
370
    -2
100
AcDbBlockReference
  2
VDDIM_DEFAULT
 10
60.01140288271066
 20
8.703289541047624
 30
0.0
 41
2.5
 42
2.5
 43
2.5
 50
90.0
  0
MTEXT
  5
F10AB7
330
F10011
100
AcDbEntity
  8
Bemassung
 62
     0
100
AcDbMText
 10
59.38640288271066
 20
1.703289541047633
 30
0.0
 40
2.5
 41
0.0
 71
     8
 72
     1
  1
\A1;%%c14 h6
 11
0.0000000000000001
 21
1.0
 31
0.0
 73
     1
 44
1.0
1001
ACAD
1000
MTEXTBEGIN
1070
    73
1070
     1
1070
    44
1040
1.0
1070
    74
1070
     0
1000
MTEXTEND
  0
POINT
  5
F10AB8
330
F10011
100
AcDbEntity
  8
Defpoints
 62
     0
100
AcDbPoint
 10
49.01140288271065
 20
-5.296710458952375
 30
0.0
  0
POINT
  5
F10AB9
330
F10011
100
AcDbEntity
  8
Defpoints
 62
     0
100
AcDbPoint
 10
49.01140288271065
 20
8.703289541047627
 30
0.0
  0
POINT
  5
F10ABA
330
F10011
100
AcDbEntity
  8
Defpoints
 62
     0
100
AcDbPoint
 10
60.01140288271066
 20
8.703289541047624
 30
0.0
  0
ENDBLK
  5
F1006A
330
F10011
100
AcDbEntity
  8
0
100
AcDbBlockEnd
  0
BLOCK
  5
F10A0F
330
F10A0D
100
AcDbEntity
  8
0
100
AcDbBlockBegin
  2
GENAXEH
 70
     0
 10
0.0
 20
0.0
 30
0.0
  3
GENAXEH
  1

  0
LINE
  5
F10A0E
330
F10A0D
100
AcDbEntity
  8
0
100
AcDbLine
 10
-1.0
 20
0.0
 30
0.0
 11
1.0
 21
0.0
 31
0.0
  0
ENDBLK
  5
F10A10
330
F10A0D
100
AcDbEntity
  8
0
100
AcDbBlockEnd
  0
ENDSEC
  0
SECTION
  2
ENTITIES
  0
DIMENSION
  5
F1000D
330
261
100
AcDbEntity
  8
Bemassung
100
AcDbDimension
  2
*D4
 10
50.01140288271066
 20
23.70328954104763
 30
0.0
 11
27.51140288271065
 21
25.59960604855104
 31
0.0
 70
    32
  1
<>
 71
     8
 42
45.0
  3
BEM-ISBE
100
AcDbAlignedDimension
 13
5.011402882710648
 23
8.703289541047627
 33
0.0
 14
50.01140288271066
 24
7.703289541047627
 34
0.0
100
AcDbRotatedDimension
1001
ACAD
1000
DSTYLE
1002
{
1070
   147
1040
0.625
1070
    72
1070
     0
1070
    71
1070
     0
1070
   284
1070
     8
1070
    78
1070
     8
1070
   144
1040
1.0
1070
    47
1040
2.0
1070
    48
1040
0.0
1002
}
  0
DIMENSION
  5
F10017
330
261
100
AcDbEntity
  8
Bemassung
100
AcDbDimension
  2
*D5
 10
-41.98859711728935
 20
-20.29671045895238
 30
0.0
 11
-28.98859711728935
 21
-18.39527798964815
 31
0.0
 70
    32
  1
<>
 71
     8
 42
25.99999999999999
  3
BEM-ISBE
100
AcDbAlignedDimension
 13
-15.98859711728936
 23
-5.296710458952375
 33
0.0
 14
-41.98859711728935
 24
2.047955886971763
 34
0.0
100
AcDbRotatedDimension
1001
ACAD
1000
DSTYLE
1002
{
1070
   147
1040
0.625
1070
    72
1070
     0
1070
    71
1070
     0
1070
   284
1070
     8
1070
    78
1070
     8
1070
   144
1040
1.0
1070
    47
1040
2.0
1070
    48
1040
0.0
1002
}
  0
DIMENSION
  5
F10021
330
261
100
AcDbEntity
  8
Bemassung
100
AcDbDimension
  2
*D7
 10
-41.98859711728935
 20
33.70328954104762
 30
0.0
 11
4.011402882710655
 21
35.60472201035186
 31
0.0
 70
    32
  1
<>
 71
     8
 42
92.0
  3
BEM-ISBE
100
AcDbAlignedDimension
 13
50.01140288271066
 23
7.703289541047627
 33
0.0
 14
-41.98859711728935
 24
2.047955886971763
 34
0.0
100
AcDbRotatedDimension
1001
ACAD
1000
DSTYLE
1002
{
1070
   147
1040
0.625
1070
    72
1070
     0
1070
    71
1070
     0
1070
   284
1070
     8
1070
    78
1070
     8
1070
   144
1040
1.0
1070
    47
1040
2.0
1070
    48
1040
0.0
1002
}
  0
DIMENSION
  5
F10008
330
261
100
AcDbEntity
  8
Bemassung
100
AcDbDimension
  2
*D8
 10
-51.98859711728956
 20
8.703289541047629
 30
0.0
 11
-53.95994773120498
 21
1.703289541047621
 31
0.0
 70
    32
  1
%%c<>
 71
     8
 42
14.0
  3
BEM-ISBE
100
AcDbAlignedDimension
 13
-41.80859711728935
 23
-5.296710458952375
 33
0.0
 14
-41.80859711728935
 24
8.703289541047627
 34
0.0
 50
90.0
100
AcDbRotatedDimension
1001
ACAD
1000
DSTYLE
1002
{
1070
   147
1040
0.625
1070
    72
1070
     0
1070
    71
1070
     0
1070
   284
1070
     8
1070
    78
1070
     8
1070
   144
1040
1.0
1070
    47
1040
0.0
1070
    48
1040
-0.07
1002
}
  0
DIMENSION
  5
F10012
330
261
100
AcDbEntity
  8
Bemassung
100
AcDbDimension
  2
*D9
 10
60.01140288271066
 20
8.703289541047624
 30
0.0
 11
58.04005226879524
 21
1.703289541047633
 31
0.0
 70
    32
  1
%%c<> h6
 71
     8
 42
14.0
  3
BEM-ISBE
100
AcDbAlignedDimension
 13
49.01140288271065
 23
-5.296710458952375
 33
0.0
 14
49.01140288271065
 24
8.703289541047627
 34
0.0
 50
90.0
100
AcDbRotatedDimension
1001
ACAD
1000
DSTYLE
1002
{
1070
   284
1070
     8
1070
    78
1070
     8
1070
   144
1040
1.0
1070
   147
1040
0.625
1070
    72
1070
     0
1070
    71
1070
     0
1002
}
  0
LINE
  5
F1006B
330
261
100
AcDbEntity
  8
Geo
100
AcDbLine
 10
-41.98859711728935
 20
1.703289541047627
 30
0.0
 11
-41.98859711728935
 21
8.523289541047624
 31
0.0
  0
LINE
  5
F1006D
330
261
100
AcDbEntity
  8
Geo
100
AcDbLine
 10
-41.98859711728935
 20
8.523289541047624
 30
0.0
 11
-41.80859711728935
 21
8.703289541047627
 31
0.0
  0
LINE
  5
F1006F
330
261
100
AcDbEntity
  8
Geo
100
AcDbLine
 10
-41.80859711728935
 20
8.703289541047627
 30
0.0
 11
-15.98859711728936
 21
8.703289541047627
 31
0.0
  0
LINE
  5
F10071
330
261
100
AcDbEntity
  8
Geo
100
AcDbLine
 10
-15.98859711728936
 20
8.703289541047627
 30
0.0
 11
5.011402882710648
 21
8.703289541047627
 31
0.0
  0
LINE
  5
F10073
330
261
100
AcDbEntity
  8
Geo
100
AcDbLine
 10
5.011402882710648
 20
8.703289541047627
 30
0.0
 11
22.21140288271064
 21
8.703289541047627
 31
0.0
  0
LINE
  5
F10075
330
261
100
AcDbEntity
  8
Geo
100
AcDbLine
 10
22.21140288271064
 20
8.703289541047627
 30
0.0
 11
23.51140288271064
 21
7.403289541047627
 31
0.0
  0
LINE
  5
F10077
330
261
100
AcDbEntity
  8
Geo
100
AcDbLine
 10
23.51140288271064
 20
7.403289541047627
 30
0.0
 11
31.51140288271065
 21
7.403289541047627
 31
0.0
  0
LINE
  5
F10079
330
261
100
AcDbEntity
  8
Geo
100
AcDbLine
 10
31.51140288271065
 20
7.403289541047627
 30
0.0
 11
32.81140288271064
 21
8.703289541047627
 31
0.0
  0
LINE
  5
F1007B
330
261
100
AcDbEntity
  8
Geo
100
AcDbLine
 10
32.81140288271064
 20
8.703289541047627
 30
0.0
 11
49.01140288271065
 21
8.703289541047627
 31
0.0
  0
LINE
  5
F1007D
330
261
100
AcDbEntity
  8
Geo
100
AcDbLine
 10
49.01140288271065
 20
8.703289541047627
 30
0.0
 11
50.01140288271066
 21
7.703289541047627
 31
0.0
  0
LINE
  5
F1007F
330
261
100
AcDbEntity
  8
Geo
100
AcDbLine
 10
-17.78859711728926
 20
8.703158964522028
 30
0.0
 11
-17.68859711728926
 21
8.703273514573726
 31
0.0
  0
LINE
  5
F10081
330
261
100
AcDbEntity
  8
Geo
100
AcDbLine
 10
-17.68859711728926
 20
8.703273514573726
 30
0.0
 11
-17.58859711728925
 21
8.702911877939023
 31
0.0
  0
LINE
  5
F10083
330
261
100
AcDbEntity
  8
Geo
100
AcDbLine
 10
-17.58859711728925
 20
8.702911877939023
 30
0.0
 11
-17.48859711728926
 21
8.702074079218725
 31
0.0
  0
LINE
  5
F10085
330
261
100
AcDbEntity
  8
Geo
100
AcDbLine
 10
-17.48859711728926
 20
8.702074079218725
 30
0.0
 11
-17.38859711728926
 21
8.700760175405822
 31
0.0
  0
LINE
  5
F10087
330
261
100
AcDbEntity
  8
Geo
100
AcDbLine
 10
-17.38859711728926
 20
8.700760175405822
 30
0.0
 11
-17.28859711728925
 21
8.698970255880823
 31
0.0
  0
LINE
  5
F10089
330
261
100
AcDbEntity
  8
Geo
100
AcDbLine
 10
-17.28859711728925
 20
8.698970255880823
 30
0.0
 11
-17.18859711728926
 21
8.696704442406527
 31
0.0
  0
LINE
  5
F1008B
330
261
100
AcDbEntity
  8
Geo
100
AcDbLine
 10
-17.18859711728926
 20
8.696704442406527
 30
0.0
 11
-17.08859711728925
 21
8.693962889118726
 31
0.0
  0
LINE
  5
F1008D
330
261
100
AcDbEntity
  8
Geo
100
AcDbLine
 10
-17.08859711728925
 20
8.693962889118726
 30
0.0
 11
-16.98859711728926
 21
8.690745782516824
 31
0.0
  0
LINE
  5
F1008F
330
261
100
AcDbEntity
  8
Geo
100
AcDbLine
 10
-16.98859711728926
 20
8.690745782516824
 30
0.0
 11
-16.88859711728926
 21
8.687053341450326
 31
0.0
  0
LINE
  5
F10091
330
261
100
AcDbEntity
  8
Geo
100
AcDbLine
 10
-16.88859711728926
 20
8.687053341450326
 30
0.0
 11
-16.78859711728925
 21
8.682885817104125
 31
0.0
  0
LINE
  5
F10093
330
261
100
AcDbEntity
  8
Geo
100
AcDbLine
 10
-16.78859711728925
 20
8.682885817104125
 30
0.0
 11
-16.68859711728926
 21
8.678243492981927
 31
0.0
  0
LINE
  5
F10095
330
261
100
AcDbEntity
  8
Geo
100
AcDbLine
 10
-16.68859711728926
 20
8.678243492981927
 30
0.0
 11
-16.58859711728925
 21
8.673126684886028
 31
0.0
  0
LINE
  5
F10097
330
261
100
AcDbEntity
  8
Geo
100
AcDbLine
 10
-16.58859711728925
 20
8.673126684886028
 30
0.0
 11
-16.48859711728926
 21
8.66753574089682
 31
0.0
  0
LINE
  5
F10099
330
261
100
AcDbEntity
  8
Geo
100
AcDbLine
 10
-16.48859711728926
 20
8.66753574089682
 30
0.0
 11
-16.38859711728926
 21
8.661471041348423
 31
0.0
  0
LINE
  5
F1009B
330
261
100
AcDbEntity
  8
Geo
100
AcDbLine
 10
-16.38859711728926
 20
8.661471041348423
 30
0.0
 11
-16.28859711728926
 21
8.654932998803126
 31
0.0
  0
LINE
  5
F1009D
330
261
100
AcDbEntity
  8
Geo
100
AcDbLine
 10
-16.28859711728926
 20
8.654932998803126
 30
0.0
 11
-16.18859711728926
 21
8.647922058023123
 31
0.0
  0
LINE
  5
F1009F
330
261
100
AcDbEntity
  8
Geo
100
AcDbLine
 10
-16.18859711728926
 20
8.647922058023123
 30
0.0
 11
-16.08859711728925
 21
8.640438695940527
 31
0.0
  0
LINE
  5
F100A1
330
261
100
AcDbEntity
  8
Geo
100
AcDbLine
 10
-16.08859711728925
 20
8.640438695940527
 30
0.0
 11
-15.98859711728936
 21
8.632483421624726
 31
0.0
  0
LINE
  5
F100A3
330
261
100
AcDbEntity
  8
Geo
100
AcDbLine
 10
-15.98859711728936
 20
8.632483421624726
 30
0.0
 11
-15.98859711728936
 21
8.632483421624726
 31
0.0
  0
LINE
  5
F100A5
330
261
100
AcDbEntity
  8
Geo
100
AcDbLine
 10
-15.98859711728936
 20
8.632483421624726
 30
0.0
 11
-15.88859711728935
 21
8.610451970795125
 31
0.0
  0
LINE
  5
F100A7
330
261
100
AcDbEntity
  8
Geo
100
AcDbLine
 10
-15.88859711728935
 20
8.610451970795125
 30
0.0
 11
-15.78859711728935
 21
8.585462359260823
 31
0.0
  0
LINE
  5
F100A9
330
261
100
AcDbEntity
  8
Geo
100
AcDbLine
 10
-15.78859711728935
 20
8.585462359260823
 30
0.0
 11
-15.68859711728936
 21
8.557524992338425
 31
0.0
  0
LINE
  5
F100AB
330
261
100
AcDbEntity
  8
Geo
100
AcDbLine
 10
-15.68859711728936
 20
8.557524992338425
 30
0.0
 11
-15.58859711728935
 21
8.526651539417724
 31
0.0
  0
LINE
  5
F100AD
330
261
100
AcDbEntity
  8
Geo
100
AcDbLine
 10
-15.58859711728935
 20
8.526651539417724
 30
0.0
 11
-15.48859711728936
 21
8.492854929258722
 31
0.0
  0
LINE
  5
F100AF
330
261
100
AcDbEntity
  8
Geo
100
AcDbLine
 10
-15.48859711728936
 20
8.492854929258722
 30
0.0
 11
-15.38859711728935
 21
8.456149344746723
 31
0.0
  0
LINE
  5
F100B1
330
261
100
AcDbEntity
  8
Geo
100
AcDbLine
 10
-15.38859711728935
 20
8.456149344746723
 30
0.0
 11
-15.28859711728935
 21
8.416550217109723
 31
0.0
  0
LINE
  5
F100B3
330
261
100
AcDbEntity
  8
Geo
100
AcDbLine
 10
-15.28859711728935
 20
8.416550217109723
 30
0.0
 11
-15.18859711728936
 21
8.374074219598824
 31
0.0
  0
LINE
  5
F100B5
330
261
100
AcDbEntity
  8
Geo
100
AcDbLine
 10
-15.18859711728936
 20
8.374074219598824
 30
0.0
 11
-15.08859711728935
 21
8.328739260634225
 31
0.0
  0
LINE
  5
F100B7
330
261
100
AcDbEntity
  8
Geo
100
AcDbLine
 10
-15.08859711728935
 20
8.328739260634225
 30
0.0
 11
-14.98859711728936
 21
8.280564476421123
 31
0.0
  0
LINE
  5
F100B9
330
261
100
AcDbEntity
  8
Geo
100
AcDbLine
 10
-14.98859711728936
 20
8.280564476421123
 30
0.0
 11
-14.88859711728935
 21
8.229570223036027
 31
0.0
  0
LINE
  5
F100BB
330
261
100
AcDbEntity
  8
Geo
100
AcDbLine
 10
-14.88859711728935
 20
8.229570223036027
 30
0.0
 11
-14.78859711728935
 21
8.175778067988424
 31
0.0
  0
LINE
  5
F100BD
330
261
100
AcDbEntity
  8
Geo
100
AcDbLine
 10
-14.78859711728935
 20
8.175778067988424
 30
0.0
 11
-14.68859711728936
 21
8.119210781261724
 31
0.0
  0
LINE
  5
F100BF
330
261
100
AcDbEntity
  8
Geo
100
AcDbLine
 10
-14.68859711728936
 20
8.119210781261724
 30
0.0
 11
-14.58859711728935
 21
8.059892325834322
 31
0.0
  0
LINE
  5
F100C1
330
261
100
AcDbEntity
  8
Geo
100
AcDbLine
 10
-14.58859711728935
 20
8.059892325834322
 30
0.0
 11
-14.48859711728936
 21
7.997847847688422
 31
0.0
  0
LINE
  5
F100C3
330
261
100
AcDbEntity
  8
Geo
100
AcDbLine
 10
-14.48859711728936
 20
7.997847847688422
 30
0.0
 11
-14.38859711728935
 21
7.933103665307321
 31
0.0
  0
LINE
  5
F100C5
330
261
100
AcDbEntity
  8
Geo
100
AcDbLine
 10
-14.38859711728935
 20
7.933103665307321
 30
0.0
 11
-14.28859711728935
 21
7.865687258668028
 31
0.0
  0
LINE
  5
F100C7
330
261
100
AcDbEntity
  8
Geo
100
AcDbLine
 10
-14.28859711728935
 20
7.865687258668028
 30
0.0
 11
-14.18859711728936
 21
7.795627257731926
 31
0.0
  0
LINE
  5
F100C9
330
261
100
AcDbEntity
  8
Geo
100
AcDbLine
 10
-14.18859711728936
 20
7.795627257731926
 30
0.0
 11
-14.08859711728935
 21
7.722953430439325
 31
0.0
  0
LINE
  5
F100CB
330
261
100
AcDbEntity
  8
Geo
100
AcDbLine
 10
-14.08859711728935
 20
7.722953430439325
 30
0.0
 11
-13.98859711728936
 21
7.647696670212923
 31
0.0
  0
LINE
  5
F100CD
330
261
100
AcDbEntity
  8
Geo
100
AcDbLine
 10
-13.98859711728936
 20
7.647696670212923
 30
0.0
 11
-13.88859711728935
 21
7.569888982973925
 31
0.0
  0
LINE
  5
F100CF
330
261
100
AcDbEntity
  8
Geo
100
AcDbLine
 10
-13.88859711728935
 20
7.569888982973925
 30
0.0
 11
-13.78859711728935
 21
7.489563473678121
 31
0.0
  0
LINE
  5
F100D1
330
261
100
AcDbEntity
  8
Geo
100
AcDbLine
 10
-13.78859711728935
 20
7.489563473678121
 30
0.0
 11
-13.68859711728936
 21
7.406754332376724
 31
0.0
  0
LINE
  5
F100D3
330
261
100
AcDbEntity
  8
Geo
100
AcDbLine
 10
-13.68859711728936
 20
7.406754332376724
 30
0.0
 11
-13.58859711728935
 21
7.321496819806625
 31
0.0
  0
LINE
  5
F100D5
330
261
100
AcDbEntity
  8
Geo
100
AcDbLine
 10
-13.58859711728935
 20
7.321496819806625
 30
0.0
 11
-13.48859711728936
 21
7.233827252518725
 31
0.0
  0
LINE
  5
F100D7
330
261
100
AcDbEntity
  8
Geo
100
AcDbLine
 10
-13.48859711728936
 20
7.233827252518725
 30
0.0
 11
-13.38859711728935
 21
7.143782987547428
 31
0.0
  0
LINE
  5
F100D9
330
261
100
AcDbEntity
  8
Geo
100
AcDbLine
 10
-13.38859711728935
 20
7.143782987547428
 30
0.0
 11
-13.28859711728936
 21
7.051402406630227
 31
0.0
  0
LINE
  5
F100DB
330
261
100
AcDbEntity
  8
Geo
100
AcDbLine
 10
-13.28859711728936
 20
7.051402406630227
 30
0.0
 11
-13.18859711728936
 21
6.956724899982926
 31
0.0
  0
LINE
  5
F100DD
330
261
100
AcDbEntity
  8
Geo
100
AcDbLine
 10
-13.18859711728936
 20
6.956724899982926
 30
0.0
 11
-13.08859711728935
 21
6.859790849636823
 31
0.0
  0
LINE
  5
F100DF
330
261
100
AcDbEntity
  8
Geo
100
AcDbLine
 10
-13.08859711728935
 20
6.859790849636823
 30
0.0
 11
-12.98859711728936
 21
6.760641612345924
 31
0.0
  0
LINE
  5
F100E1
330
261
100
AcDbEntity
  8
Geo
100
AcDbLine
 10
-12.98859711728936
 20
6.760641612345924
 30
0.0
 11
-12.88859711728935
 21
6.659319502070729
 31
0.0
  0
LINE
  5
F100E3
330
261
100
AcDbEntity
  8
Geo
100
AcDbLine
 10
-12.88859711728935
 20
6.659319502070729
 30
0.0
 11
-12.78859711728935
 21
6.555867772045921
 31
0.0
  0
LINE
  5
F100E5
330
261
100
AcDbEntity
  8
Geo
100
AcDbLine
 10
-12.78859711728935
 20
6.555867772045921
 30
0.0
 11
-12.68859711728936
 21
6.450330596439826
 31
0.0
  0
LINE
  5
F100E7
330
261
100
AcDbEntity
  8
Geo
100
AcDbLine
 10
-12.68859711728936
 20
6.450330596439826
 30
0.0
 11
-12.58859711728935
 21
6.34275305161282
 31
0.0
  0
LINE
  5
F100E9
330
261
100
AcDbEntity
  8
Geo
100
AcDbLine
 10
-12.58859711728935
 20
6.34275305161282
 30
0.0
 11
-12.48859711728926
 21
6.233181096983823
 31
0.0
  0
LINE
  5
F100EB
330
261
100
AcDbEntity
  8
Geo
100
AcDbLine
 10
-12.48859711728926
 20
6.233181096983823
 30
0.0
 11
-12.38859711728926
 21
6.121661555510726
 31
0.0
  0
LINE
  5
F100ED
330
261
100
AcDbEntity
  8
Geo
100
AcDbLine
 10
-12.38859711728926
 20
6.121661555510726
 30
0.0
 11
-12.28859711728925
 21
6.008242093795423
 31
0.0
  0
LINE
  5
F100EF
330
261
100
AcDbEntity
  8
Geo
100
AcDbLine
 10
-12.28859711728925
 20
6.008242093795423
 30
0.0
 11
-12.18859711728926
 21
5.892971201820525
 31
0.0
  0
LINE
  5
F100F1
330
261
100
AcDbEntity
  8
Geo
100
AcDbLine
 10
-12.18859711728926
 20
5.892971201820525
 30
0.0
 11
-12.08859711728925
 21
5.775898172326122
 31
0.0
  0
LINE
  5
F100F3
330
261
100
AcDbEntity
  8
Geo
100
AcDbLine
 10
-12.08859711728925
 20
5.775898172326122
 30
0.0
 11
-11.98859711728926
 21
5.657073079836525
 31
0.0
  0
LINE
  5
F100F5
330
261
100
AcDbEntity
  8
Geo
100
AcDbLine
 10
-11.98859711728926
 20
5.657073079836525
 30
0.0
 11
-11.88859711728926
 21
5.536546759343924
 31
0.0
  0
LINE
  5
F100F7
330
261
100
AcDbEntity
  8
Geo
100
AcDbLine
 10
-11.88859711728926
 20
5.536546759343924
 30
0.0
 11
-11.78859711728925
 21
5.414370784660626
 31
0.0
  0
LINE
  5
F100F9
330
261
100
AcDbEntity
  8
Geo
100
AcDbLine
 10
-11.78859711728925
 20
5.414370784660626
 30
0.0
 11
-11.68859711728926
 21
5.290597446446124
 31
0.0
  0
LINE
  5
F100FB
330
261
100
AcDbEntity
  8
Geo
100
AcDbLine
 10
-11.68859711728926
 20
5.290597446446124
 30
0.0
 11
-11.58859711728926
 21
5.16527972992112
 31
0.0
  0
LINE
  5
F100FD
330
261
100
AcDbEntity
  8
Geo
100
AcDbLine
 10
-11.58859711728926
 20
5.16527972992112
 30
0.0
 11
-11.48859711728926
 21
5.038471292275424
 31
0.0
  0
LINE
  5
F100FF
330
261
100
AcDbEntity
  8
Geo
100
AcDbLine
 10
-11.48859711728926
 20
5.038471292275424
 30
0.0
 11
-11.38859711728926
 21
4.910226439781027
 31
0.0
  0
LINE
  5
F10101
330
261
100
AcDbEntity
  8
Geo
100
AcDbLine
 10
-11.38859711728926
 20
4.910226439781027
 30
0.0
 11
-11.28859711728925
 21
4.780600104619924
 31
0.0
  0
LINE
  5
F10103
330
261
100
AcDbEntity
  8
Geo
100
AcDbLine
 10
-11.28859711728925
 20
4.780600104619924
 30
0.0
 11
-11.18859711728926
 21
4.649647821435625
 31
0.0
  0
LINE
  5
F10105
330
261
100
AcDbEntity
  8
Geo
100
AcDbLine
 10
-11.18859711728926
 20
4.649647821435625
 30
0.0
 11
-11.08859711728926
 21
4.517425703618528
 31
0.0
  0
LINE
  5
F10107
330
261
100
AcDbEntity
  8
Geo
100
AcDbLine
 10
-11.08859711728926
 20
4.517425703618528
 30
0.0
 11
-10.98859711728926
 21
4.383990419336925
 31
0.0
  0
LINE
  5
F10109
330
261
100
AcDbEntity
  8
Geo
100
AcDbLine
 10
-10.98859711728926
 20
4.383990419336925
 30
0.0
 11
-10.88859711728926
 21
4.249399167320923
 31
0.0
  0
LINE
  5
F1010B
330
261
100
AcDbEntity
  8
Geo
100
AcDbLine
 10
-10.88859711728926
 20
4.249399167320923
 30
0.0
 11
-10.78859711728926
 21
4.113709652412225
 31
0.0
  0
LINE
  5
F1010D
330
261
100
AcDbEntity
  8
Geo
100
AcDbLine
 10
-10.78859711728926
 20
4.113709652412225
 30
0.0
 11
-10.68859711728926
 21
3.976980060888624
 31
0.0
  0
LINE
  5
F1010F
330
261
100
AcDbEntity
  8
Geo
100
AcDbLine
 10
-10.68859711728926
 20
3.976980060888624
 30
0.0
 11
-10.58859711728926
 21
3.839269035574528
 31
0.0
  0
LINE
  5
F10111
330
261
100
AcDbEntity
  8
Geo
100
AcDbLine
 10
-10.58859711728926
 20
3.839269035574528
 30
0.0
 11
-10.48859711728926
 21
3.700635650747724
 31
0.0
  0
LINE
  5
F10113
330
261
100
AcDbEntity
  8
Geo
100
AcDbLine
 10
-10.48859711728926
 20
3.700635650747724
 30
0.0
 11
-10.38859711728925
 21
3.561139386853227
 31
0.0
  0
LINE
  5
F10115
330
261
100
AcDbEntity
  8
Geo
100
AcDbLine
 10
-10.38859711728925
 20
3.561139386853227
 30
0.0
 11
-10.28859711728925
 21
3.420840105035026
 31
0.0
  0
LINE
  5
F10117
330
261
100
AcDbEntity
  8
Geo
100
AcDbLine
 10
-10.28859711728925
 20
3.420840105035026
 30
0.0
 11
-10.18859711728926
 21
3.279798021496425
 31
0.0
  0
LINE
  5
F10119
330
261
100
AcDbEntity
  8
Geo
100
AcDbLine
 10
-10.18859711728926
 20
3.279798021496425
 30
0.0
 11
-10.08859711728926
 21
3.138073681700426
 31
0.0
  0
LINE
  5
F1011B
330
261
100
AcDbEntity
  8
Geo
100
AcDbLine
 10
-10.08859711728926
 20
3.138073681700426
 30
0.0
 11
-9.988597117289259
 21
2.995727934420823
 31
0.0
  0
LINE
  5
F1011D
330
261
100
AcDbEntity
  8
Geo
100
AcDbLine
 10
-9.988597117289259
 20
2.995727934420823
 30
0.0
 11
-9.888597117289258
 21
2.852821905654625
 31
0.0
  0
LINE
  5
F1011F
330
261
100
AcDbEntity
  8
Geo
100
AcDbLine
 10
-9.888597117289258
 20
2.852821905654625
 30
0.0
 11
-9.788597117289256
 21
2.709416972407922
 31
0.0
  0
LINE
  5
F10121
330
261
100
AcDbEntity
  8
Geo
100
AcDbLine
 10
-9.788597117289256
 20
2.709416972407922
 30
0.0
 11
-9.688597117289262
 21
2.565574736366325
 31
0.0
  0
LINE
  5
F10123
330
261
100
AcDbEntity
  8
Geo
100
AcDbLine
 10
-9.688597117289262
 20
2.565574736366325
 30
0.0
 11
-9.588597117289261
 21
2.421356997460229
 31
0.0
  0
LINE
  5
F10125
330
261
100
AcDbEntity
  8
Geo
100
AcDbLine
 10
-9.588597117289261
 20
2.421356997460229
 30
0.0
 11
-9.488597117289259
 21
2.276825727337321
 31
0.0
  0
LINE
  5
F10127
330
261
100
AcDbEntity
  8
Geo
100
AcDbLine
 10
-9.488597117289259
 20
2.276825727337321
 30
0.0
 11
-9.388597117289258
 21
2.132043042753124
 31
0.0
  0
LINE
  5
F10129
330
261
100
AcDbEntity
  8
Geo
100
AcDbLine
 10
-9.388597117289258
 20
2.132043042753124
 30
0.0
 11
-9.288597117289256
 21
1.987071178891724
 31
0.0
  0
LINE
  5
F1012B
330
261
100
AcDbEntity
  8
Geo
100
AcDbLine
 10
-9.288597117289256
 20
1.987071178891724
 30
0.0
 11
-9.188597117289262
 21
1.841972462626525
 31
0.0
  0
LINE
  5
F1012D
330
261
100
AcDbEntity
  8
Geo
100
AcDbLine
 10
-9.188597117289262
 20
1.841972462626525
 30
0.0
 11
-9.088597117289261
 21
1.696809285734726
 31
0.0
  0
LINE
  5
F1012F
330
261
100
AcDbEntity
  8
Geo
100
AcDbLine
 10
-9.088597117289261
 20
1.696809285734726
 30
0.0
 11
-8.988597117289259
 21
1.551644078075028
 31
0.0
  0
LINE
  5
F10131
330
261
100
AcDbEntity
  8
Geo
100
AcDbLine
 10
-8.988597117289259
 20
1.551644078075028
 30
0.0
 11
-8.888597117289258
 21
1.406539280741725
 31
0.0
  0
LINE
  5
F10133
330
261
100
AcDbEntity
  8
Geo
100
AcDbLine
 10
-8.888597117289258
 20
1.406539280741725
 30
0.0
 11
-8.788597117289256
 21
1.261557319204822
 31
0.0
  0
LINE
  5
F10135
330
261
100
AcDbEntity
  8
Geo
100
AcDbLine
 10
-8.788597117289256
 20
1.261557319204822
 30
0.0
 11
-8.688597117289262
 21
1.116760576450325
 31
0.0
  0
LINE
  5
F10137
330
261
100
AcDbEntity
  8
Geo
100
AcDbLine
 10
-8.688597117289262
 20
1.116760576450325
 30
0.0
 11
-8.588597117289261
 21
0.9722113661293221
 31
0.0
  0
LINE
  5
F10139
330
261
100
AcDbEntity
  8
Geo
100
AcDbLine
 10
-8.588597117289261
 20
0.9722113661293221
 30
0.0
 11
-8.488597117289259
 21
0.8279719057297256
 31
0.0
  0
LINE
  5
F1013B
330
261
100
AcDbEntity
  8
Geo
100
AcDbLine
 10
-8.488597117289259
 20
0.8279719057297256
 30
0.0
 11
-8.388597117289258
 21
0.6841042897814269
 31
0.0
  0
LINE
  5
F1013D
330
261
100
AcDbEntity
  8
Geo
100
AcDbLine
 10
-8.388597117289258
 20
0.6841042897814269
 30
0.0
 11
-8.288597117289256
 21
0.5406704631060287
 31
0.0
  0
LINE
  5
F1013F
330
261
100
AcDbEntity
  8
Geo
100
AcDbLine
 10
-8.288597117289256
 20
0.5406704631060287
 30
0.0
 11
-8.188597117289262
 21
0.397732194122927
 31
0.0
  0
LINE
  5
F10141
330
261
100
AcDbEntity
  8
Geo
100
AcDbLine
 10
-8.188597117289262
 20
0.397732194122927
 30
0.0
 11
-8.088597117289261
 21
0.2553510482237264
 31
0.0
  0
LINE
  5
F10143
330
261
100
AcDbEntity
  8
Geo
100
AcDbLine
 10
-8.088597117289261
 20
0.2553510482237264
 30
0.0
 11
-7.988597117289259
 21
0.1135883612259256
 31
0.0
  0
LINE
  5
F10145
330
261
100
AcDbEntity
  8
Geo
100
AcDbLine
 10
-7.988597117289259
 20
0.1135883612259256
 30
0.0
 11
-7.888597117289258
 21
-0.0274947870823752
 31
0.0
  0
LINE
  5
F10147
330
261
100
AcDbEntity
  8
Geo
100
AcDbLine
 10
-7.888597117289258
 20
-0.0274947870823752
 30
0.0
 11
-7.788597117289256
 21
-0.1678375992962735
 31
0.0
  0
LINE
  5
F10149
330
261
100
AcDbEntity
  8
Geo
100
AcDbLine
 10
-7.788597117289256
 20
-0.1678375992962735
 30
0.0
 11
-7.688597117289262
 21
-0.3073795866322762
 31
0.0
  0
LINE
  5
F1014B
330
261
100
AcDbEntity
  8
Geo
100
AcDbLine
 10
-7.688597117289262
 20
-0.3073795866322762
 30
0.0
 11
-7.588597117289261
 21
-0.4460605950438748
 31
0.0
  0
LINE
  5
F1014D
330
261
100
AcDbEntity
  8
Geo
100
AcDbLine
 10
-7.588597117289261
 20
-0.4460605950438748
 30
0.0
 11
-7.488597117289259
 21
-0.583820831198775
 31
0.0
  0
LINE
  5
F1014F
330
261
100
AcDbEntity
  8
Geo
100
AcDbLine
 10
-7.488597117289259
 20
-0.583820831198775
 30
0.0
 11
-7.388597117289258
 21
-0.7206008883095763
 31
0.0
  0
LINE
  5
F10151
330
261
100
AcDbEntity
  8
Geo
100
AcDbLine
 10
-7.388597117289258
 20
-0.7206008883095763
 30
0.0
 11
-7.288597117289256
 21
-0.8563417718056776
 31
0.0
  0
LINE
  5
F10153
330
261
100
AcDbEntity
  8
Geo
100
AcDbLine
 10
-7.288597117289256
 20
-0.8563417718056776
 30
0.0
 11
-7.188597117289262
 21
-0.9909849248346773
 31
0.0
  0
LINE
  5
F10155
330
261
100
AcDbEntity
  8
Geo
100
AcDbLine
 10
-7.188597117289262
 20
-0.9909849248346773
 30
0.0
 11
-7.088597117289261
 21
-1.124472253583775
 31
0.0
  0
LINE
  5
F10157
330
261
100
AcDbEntity
  8
Geo
100
AcDbLine
 10
-7.088597117289261
 20
-1.124472253583775
 30
0.0
 11
-6.988597117289259
 21
-1.256746152408471
 31
0.0
  0
LINE
  5
F10159
330
261
100
AcDbEntity
  8
Geo
100
AcDbLine
 10
-6.988597117289259
 20
-1.256746152408471
 30
0.0
 11
-6.888597117289258
 21
-1.387749528758973
 31
0.0
  0
LINE
  5
F1015B
330
261
100
AcDbEntity
  8
Geo
100
AcDbLine
 10
-6.888597117289258
 20
-1.387749528758973
 30
0.0
 11
-6.788597117289256
 21
-1.517425827892775
 31
0.0
  0
LINE
  5
F1015D
330
261
100
AcDbEntity
  8
Geo
100
AcDbLine
 10
-6.788597117289256
 20
-1.517425827892775
 30
0.0
 11
-6.688597117289262
 21
-1.645719057363074
 31
0.0
  0
LINE
  5
F1015F
330
261
100
AcDbEntity
  8
Geo
100
AcDbLine
 10
-6.688597117289262
 20
-1.645719057363074
 30
0.0
 11
-6.588597117289261
 21
-1.772573811272273
 31
0.0
  0
LINE
  5
F10161
330
261
100
AcDbEntity
  8
Geo
100
AcDbLine
 10
-6.588597117289261
 20
-1.772573811272273
 30
0.0
 11
-6.488597117289259
 21
-1.89793529427947
 31
0.0
  0
LINE
  5
F10163
330
261
100
AcDbEntity
  8
Geo
100
AcDbLine
 10
-6.488597117289259
 20
-1.89793529427947
 30
0.0
 11
-6.388597117289258
 21
-2.021749345352972
 31
0.0
  0
LINE
  5
F10165
330
261
100
AcDbEntity
  8
Geo
100
AcDbLine
 10
-6.388597117289258
 20
-2.021749345352972
 30
0.0
 11
-6.288597117289256
 21
-2.143962461255775
 31
0.0
  0
LINE
  5
F10167
330
261
100
AcDbEntity
  8
Geo
100
AcDbLine
 10
-6.288597117289256
 20
-2.143962461255775
 30
0.0
 11
-6.188597117289262
 21
-2.264521819754577
 31
0.0
  0
LINE
  5
F10169
330
261
100
AcDbEntity
  8
Geo
100
AcDbLine
 10
-6.188597117289262
 20
-2.264521819754577
 30
0.0
 11
-6.088597117289261
 21
-2.383375302542876
 31
0.0
  0
LINE
  5
F1016B
330
261
100
AcDbEntity
  8
Geo
100
AcDbLine
 10
-6.088597117289261
 20
-2.383375302542876
 30
0.0
 11
-5.988597117289259
 21
-2.500471517866973
 31
0.0
  0
LINE
  5
F1016D
330
261
100
AcDbEntity
  8
Geo
100
AcDbLine
 10
-5.988597117289259
 20
-2.500471517866973
 30
0.0
 11
-5.888597117289258
 21
-2.615759822845376
 31
0.0
  0
LINE
  5
F1016F
330
261
100
AcDbEntity
  8
Geo
100
AcDbLine
 10
-5.888597117289258
 20
-2.615759822845376
 30
0.0
 11
-5.788597117289256
 21
-2.729190345472773
 31
0.0
  0
LINE
  5
F10171
330
261
100
AcDbEntity
  8
Geo
100
AcDbLine
 10
-5.788597117289256
 20
-2.729190345472773
 30
0.0
 11
-5.688597117289262
 21
-2.840714006297375
 31
0.0
  0
LINE
  5
F10173
330
261
100
AcDbEntity
  8
Geo
100
AcDbLine
 10
-5.688597117289262
 20
-2.840714006297375
 30
0.0
 11
-5.588597117289261
 21
-2.950282539763875
 31
0.0
  0
LINE
  5
F10175
330
261
100
AcDbEntity
  8
Geo
100
AcDbLine
 10
-5.588597117289261
 20
-2.950282539763875
 30
0.0
 11
-5.488597117289259
 21
-3.057848515211073
 31
0.0
  0
LINE
  5
F10177
330
261
100
AcDbEntity
  8
Geo
100
AcDbLine
 10
-5.488597117289259
 20
-3.057848515211073
 30
0.0
 11
-5.388597117289151
 21
-3.163365357516273
 31
0.0
  0
LINE
  5
F10179
330
261
100
AcDbEntity
  8
Geo
100
AcDbLine
 10
-5.388597117289151
 20
-3.163365357516273
 30
0.0
 11
-5.288597117289157
 21
-3.266787367377077
 31
0.0
  0
LINE
  5
F1017B
330
261
100
AcDbEntity
  8
Geo
100
AcDbLine
 10
-5.288597117289157
 20
-3.266787367377077
 30
0.0
 11
-5.188597117289155
 21
-3.368069741220775
 31
0.0
  0
LINE
  5
F1017D
330
261
100
AcDbEntity
  8
Geo
100
AcDbLine
 10
-5.188597117289155
 20
-3.368069741220775
 30
0.0
 11
-5.088597117289154
 21
-3.467168590734075
 31
0.0
  0
LINE
  5
F1017F
330
261
100
AcDbEntity
  8
Geo
100
AcDbLine
 10
-5.088597117289154
 20
-3.467168590734075
 30
0.0
 11
-4.988597117289153
 21
-3.564040962003673
 31
0.0
  0
LINE
  5
F10181
330
261
100
AcDbEntity
  8
Geo
100
AcDbLine
 10
-4.988597117289153
 20
-3.564040962003673
 30
0.0
 11
-4.888597117289151
 21
-3.658644854259375
 31
0.0
  0
LINE
  5
F10183
330
261
100
AcDbEntity
  8
Geo
100
AcDbLine
 10
-4.888597117289151
 20
-3.658644854259375
 30
0.0
 11
-4.788597117289157
 21
-3.750939238212275
 31
0.0
  0
LINE
  5
F10185
330
261
100
AcDbEntity
  8
Geo
100
AcDbLine
 10
-4.788597117289157
 20
-3.750939238212275
 30
0.0
 11
-4.688597117289155
 21
-3.840884073977875
 31
0.0
  0
LINE
  5
F10187
330
261
100
AcDbEntity
  8
Geo
100
AcDbLine
 10
-4.688597117289155
 20
-3.840884073977875
 30
0.0
 11
-4.588597117289154
 21
-3.928440328579576
 31
0.0
  0
LINE
  5
F10189
330
261
100
AcDbEntity
  8
Geo
100
AcDbLine
 10
-4.588597117289154
 20
-3.928440328579576
 30
0.0
 11
-4.488597117289153
 21
-4.013569993021771
 31
0.0
  0
LINE
  5
F1018B
330
261
100
AcDbEntity
  8
Geo
100
AcDbLine
 10
-4.488597117289153
 20
-4.013569993021771
 30
0.0
 11
-4.388597117289151
 21
-4.096236098926073
 31
0.0
  0
LINE
  5
F1018D
330
261
100
AcDbEntity
  8
Geo
100
AcDbLine
 10
-4.388597117289151
 20
-4.096236098926073
 30
0.0
 11
-4.288597117289157
 21
-4.176402734724476
 31
0.0
  0
LINE
  5
F1018F
330
261
100
AcDbEntity
  8
Geo
100
AcDbLine
 10
-4.288597117289157
 20
-4.176402734724476
 30
0.0
 11
-4.188597117289155
 21
-4.254035061400376
 31
0.0
  0
LINE
  5
F10191
330
261
100
AcDbEntity
  8
Geo
100
AcDbLine
 10
-4.188597117289155
 20
-4.254035061400376
 30
0.0
 11
-4.088597117289154
 21
-4.329099327771874
 31
0.0
  0
LINE
  5
F10193
330
261
100
AcDbEntity
  8
Geo
100
AcDbLine
 10
-4.088597117289154
 20
-4.329099327771874
 30
0.0
 11
-3.988597117289153
 21
-4.401562885309974
 31
0.0
  0
LINE
  5
F10195
330
261
100
AcDbEntity
  8
Geo
100
AcDbLine
 10
-3.988597117289153
 20
-4.401562885309974
 30
0.0
 11
-3.888597117289357
 21
-4.471394202485175
 31
0.0
  0
LINE
  5
F10197
330
261
100
AcDbEntity
  8
Geo
100
AcDbLine
 10
-41.98859711728935
 20
6.525757788739824
 30
0.0
 11
-41.88859711728935
 21
6.555944231148224
 31
0.0
  0
LINE
  5
F10199
330
261
100
AcDbEntity
  8
Geo
100
AcDbLine
 10
-41.88859711728935
 20
6.555944231148224
 30
0.0
 11
-41.78859711728934
 21
6.570717634383427
 31
0.0
  0
LINE
  5
F1019B
330
261
100
AcDbEntity
  8
Geo
100
AcDbLine
 10
-41.78859711728934
 20
6.570717634383427
 30
0.0
 11
-41.68859711728934
 21
6.529059867717528
 31
0.0
  0
LINE
  5
F1019D
330
261
100
AcDbEntity
  8
Geo
100
AcDbLine
 10
-41.68859711728934
 20
6.529059867717528
 30
0.0
 11
-41.58859711728934
 21
6.487073819217023
 31
0.0
  0
LINE
  5
F1019F
330
261
100
AcDbEntity
  8
Geo
100
AcDbLine
 10
-41.58859711728934
 20
6.487073819217023
 30
0.0
 11
-41.48859711728934
 21
6.444762345059324
 31
0.0
  0
LINE
  5
F101A1
330
261
100
AcDbEntity
  8
Geo
100
AcDbLine
 10
-41.48859711728934
 20
6.444762345059324
 30
0.0
 11
-41.38859711728935
 21
6.402128323559924
 31
0.0
  0
LINE
  5
F101A3
330
261
100
AcDbEntity
  8
Geo
100
AcDbLine
 10
-41.38859711728935
 20
6.402128323559924
 30
0.0
 11
-41.28859711728934
 21
6.359174654975724
 31
0.0
  0
LINE
  5
F101A5
330
261
100
AcDbEntity
  8
Geo
100
AcDbLine
 10
-41.28859711728934
 20
6.359174654975724
 30
0.0
 11
-41.18859711728934
 21
6.315904261308528
 31
0.0
  0
LINE
  5
F101A7
330
261
100
AcDbEntity
  8
Geo
100
AcDbLine
 10
-41.18859711728934
 20
6.315904261308528
 30
0.0
 11
-41.08859711728934
 21
6.272320086105825
 31
0.0
  0
LINE
  5
F101A9
330
261
100
AcDbEntity
  8
Geo
100
AcDbLine
 10
-41.08859711728934
 20
6.272320086105825
 30
0.0
 11
-40.98859711728934
 21
6.228425094260725
 31
0.0
  0
LINE
  5
F101AB
330
261
100
AcDbEntity
  8
Geo
100
AcDbLine
 10
-40.98859711728934
 20
6.228425094260725
 30
0.0
 11
-40.88859711728935
 21
6.184222271810121
 31
0.0
  0
LINE
  5
F101AD
330
261
100
AcDbEntity
  8
Geo
100
AcDbLine
 10
-40.88859711728935
 20
6.184222271810121
 30
0.0
 11
-40.78859711728934
 21
6.139714625731727
 31
0.0
  0
LINE
  5
F101AF
330
261
100
AcDbEntity
  8
Geo
100
AcDbLine
 10
-40.78859711728934
 20
6.139714625731727
 30
0.0
 11
-40.68859711728935
 21
6.094905183739424
 31
0.0
  0
LINE
  5
F101B1
330
261
100
AcDbEntity
  8
Geo
100
AcDbLine
 10
-40.68859711728935
 20
6.094905183739424
 30
0.0
 11
-40.58859711728934
 21
6.049796994077226
 31
0.0
  0
LINE
  5
F101B3
330
261
100
AcDbEntity
  8
Geo
100
AcDbLine
 10
-40.58859711728934
 20
6.049796994077226
 30
0.0
 11
-40.48859711728934
 21
6.004393125312123
 31
0.0
  0
LINE
  5
F101B5
330
261
100
AcDbEntity
  8
Geo
100
AcDbLine
 10
-40.48859711728934
 20
6.004393125312123
 30
0.0
 11
-40.38859711728934
 21
5.958696666125128
 31
0.0
  0
LINE
  5
F101B7
330
261
100
AcDbEntity
  8
Geo
100
AcDbLine
 10
-40.38859711728934
 20
5.958696666125128
 30
0.0
 11
-40.28859711728934
 21
5.912710725101323
 31
0.0
  0
LINE
  5
F101B9
330
261
100
AcDbEntity
  8
Geo
100
AcDbLine
 10
-40.28859711728934
 20
5.912710725101323
 30
0.0
 11
-40.18859711728935
 21
5.866438430518225
 31
0.0
  0
LINE
  5
F101BB
330
261
100
AcDbEntity
  8
Geo
100
AcDbLine
 10
-40.18859711728935
 20
5.866438430518225
 30
0.0
 11
-40.08859711728933
 21
5.819882930133225
 31
0.0
  0
LINE
  5
F101BD
330
261
100
AcDbEntity
  8
Geo
100
AcDbLine
 10
-40.08859711728933
 20
5.819882930133225
 30
0.0
 11
-39.98859711728935
 21
5.773047390969026
 31
0.0
  0
LINE
  5
F101BF
330
261
100
AcDbEntity
  8
Geo
100
AcDbLine
 10
-39.98859711728935
 20
5.773047390969026
 30
0.0
 11
-39.88859711728935
 21
5.725934999098821
 31
0.0
  0
LINE
  5
F101C1
330
261
100
AcDbEntity
  8
Geo
100
AcDbLine
 10
-39.88859711728935
 20
5.725934999098821
 30
0.0
 11
-39.78859711728934
 21
5.678548959429125
 31
0.0
  0
LINE
  5
F101C3
330
261
100
AcDbEntity
  8
Geo
100
AcDbLine
 10
-39.78859711728934
 20
5.678548959429125
 30
0.0
 11
-39.68859711728935
 21
5.630892495481624
 31
0.0
  0
LINE
  5
F101C5
330
261
100
AcDbEntity
  8
Geo
100
AcDbLine
 10
-39.68859711728935
 20
5.630892495481624
 30
0.0
 11
-39.58859711728934
 21
5.582968849174225
 31
0.0
  0
LINE
  5
F101C7
330
261
100
AcDbEntity
  8
Geo
100
AcDbLine
 10
-39.58859711728934
 20
5.582968849174225
 30
0.0
 11
-39.48859711728935
 21
5.534781280600626
 31
0.0
  0
LINE
  5
F101C9
330
261
100
AcDbEntity
  8
Geo
100
AcDbLine
 10
-39.48859711728935
 20
5.534781280600626
 30
0.0
 11
-39.38859711728935
 21
5.486333067808029
 31
0.0
  0
LINE
  5
F101CB
330
261
100
AcDbEntity
  8
Geo
100
AcDbLine
 10
-39.38859711728935
 20
5.486333067808029
 30
0.0
 11
-39.28859711728934
 21
5.437627506574525
 31
0.0
  0
LINE
  5
F101CD
330
261
100
AcDbEntity
  8
Geo
100
AcDbLine
 10
-39.28859711728934
 20
5.437627506574525
 30
0.0
 11
-39.18859711728935
 21
5.388667910184821
 31
0.0
  0
LINE
  5
F101CF
330
261
100
AcDbEntity
  8
Geo
100
AcDbLine
 10
-39.18859711728935
 20
5.388667910184821
 30
0.0
 11
-39.08859711728934
 21
5.339457609204927
 31
0.0
  0
LINE
  5
F101D1
330
261
100
AcDbEntity
  8
Geo
100
AcDbLine
 10
-39.08859711728934
 20
5.339457609204927
 30
0.0
 11
-38.98859711728935
 21
5.289999951255225
 31
0.0
  0
LINE
  5
F101D3
330
261
100
AcDbEntity
  8
Geo
100
AcDbLine
 10
-38.98859711728935
 20
5.289999951255225
 30
0.0
 11
-38.88859711728935
 21
5.240298300783326
 31
0.0
  0
LINE
  5
F101D5
330
261
100
AcDbEntity
  8
Geo
100
AcDbLine
 10
-38.88859711728935
 20
5.240298300783326
 30
0.0
 11
-38.78859711728934
 21
5.190356038834526
 31
0.0
  0
LINE
  5
F101D7
330
261
100
AcDbEntity
  8
Geo
100
AcDbLine
 10
-38.78859711728934
 20
5.190356038834526
 30
0.0
 11
-38.68859711728935
 21
5.140176562822528
 31
0.0
  0
LINE
  5
F101D9
330
261
100
AcDbEntity
  8
Geo
100
AcDbLine
 10
-38.68859711728935
 20
5.140176562822528
 30
0.0
 11
-38.58859711728934
 21
5.089763286297728
 31
0.0
  0
LINE
  5
F101DB
330
261
100
AcDbEntity
  8
Geo
100
AcDbLine
 10
-38.58859711728934
 20
5.089763286297728
 30
0.0
 11
-38.48859711728934
 21
5.039119638715323
 31
0.0
  0
LINE
  5
F101DD
330
261
100
AcDbEntity
  8
Geo
100
AcDbLine
 10
-38.48859711728934
 20
5.039119638715323
 30
0.0
 11
-38.38859711728935
 21
4.988249065201728
 31
0.0
  0
LINE
  5
F101DF
330
261
100
AcDbEntity
  8
Geo
100
AcDbLine
 10
-38.38859711728935
 20
4.988249065201728
 30
0.0
 11
-38.28859711728934
 21
4.937155026320724
 31
0.0
  0
LINE
  5
F101E1
330
261
100
AcDbEntity
  8
Geo
100
AcDbLine
 10
-38.28859711728934
 20
4.937155026320724
 30
0.0
 11
-38.18859711728935
 21
4.885840997837423
 31
0.0
  0
LINE
  5
F101E3
330
261
100
AcDbEntity
  8
Geo
100
AcDbLine
 10
-38.18859711728935
 20
4.885840997837423
 30
0.0
 11
-38.08859711728934
 21
4.834310470482424
 31
0.0
  0
LINE
  5
F101E5
330
261
100
AcDbEntity
  8
Geo
100
AcDbLine
 10
-38.08859711728934
 20
4.834310470482424
 30
0.0
 11
-37.98859711728935
 21
4.782566949713725
 31
0.0
  0
LINE
  5
F101E7
330
261
100
AcDbEntity
  8
Geo
100
AcDbLine
 10
-37.98859711728935
 20
4.782566949713725
 30
0.0
 11
-37.88859711728935
 21
4.730613955478926
 31
0.0
  0
LINE
  5
F101E9
330
261
100
AcDbEntity
  8
Geo
100
AcDbLine
 10
-37.88859711728935
 20
4.730613955478926
 30
0.0
 11
-37.78859711728934
 21
4.678455021975228
 31
0.0
  0
LINE
  5
F101EB
330
261
100
AcDbEntity
  8
Geo
100
AcDbLine
 10
-37.78859711728934
 20
4.678455021975228
 30
0.0
 11
-37.68859711728935
 21
4.626093697409324
 31
0.0
  0
LINE
  5
F101ED
330
261
100
AcDbEntity
  8
Geo
100
AcDbLine
 10
-37.68859711728935
 20
4.626093697409324
 30
0.0
 11
-37.58859711728934
 21
4.573533543755821
 31
0.0
  0
LINE
  5
F101EF
330
261
100
AcDbEntity
  8
Geo
100
AcDbLine
 10
-37.58859711728934
 20
4.573533543755821
 30
0.0
 11
-37.48859711728935
 21
4.520778136515122
 31
0.0
  0
LINE
  5
F101F1
330
261
100
AcDbEntity
  8
Geo
100
AcDbLine
 10
-37.48859711728935
 20
4.520778136515122
 30
0.0
 11
-37.38859711728935
 21
4.467831064470125
 31
0.0
  0
LINE
  5
F101F3
330
261
100
AcDbEntity
  8
Geo
100
AcDbLine
 10
-37.38859711728935
 20
4.467831064470125
 30
0.0
 11
-37.28859711728934
 21
4.414695929442025
 31
0.0
  0
LINE
  5
F101F5
330
261
100
AcDbEntity
  8
Geo
100
AcDbLine
 10
-37.28859711728934
 20
4.414695929442025
 30
0.0
 11
-37.18859711728935
 21
4.361376346045421
 31
0.0
  0
LINE
  5
F101F7
330
261
100
AcDbEntity
  8
Geo
100
AcDbLine
 10
-37.18859711728935
 20
4.361376346045421
 30
0.0
 11
-37.08859711728934
 21
4.307875941442226
 31
0.0
  0
LINE
  5
F101F9
330
261
100
AcDbEntity
  8
Geo
100
AcDbLine
 10
-37.08859711728934
 20
4.307875941442226
 30
0.0
 11
-36.98859711728935
 21
4.254198355095123
 31
0.0
  0
LINE
  5
F101FB
330
261
100
AcDbEntity
  8
Geo
100
AcDbLine
 10
-36.98859711728935
 20
4.254198355095123
 30
0.0
 11
-36.88859711728935
 21
4.200347238519928
 31
0.0
  0
LINE
  5
F101FD
330
261
100
AcDbEntity
  8
Geo
100
AcDbLine
 10
-36.88859711728935
 20
4.200347238519928
 30
0.0
 11
-36.78859711728935
 21
4.146326255037124
 31
0.0
  0
LINE
  5
F101FF
330
261
100
AcDbEntity
  8
Geo
100
AcDbLine
 10
-36.78859711728935
 20
4.146326255037124
 30
0.0
 11
-36.68859711728935
 21
4.092139079522723
 31
0.0
  0
LINE
  5
F10201
330
261
100
AcDbEntity
  8
Geo
100
AcDbLine
 10
-36.68859711728935
 20
4.092139079522723
 30
0.0
 11
-36.58859711728934
 21
4.037789398158228
 31
0.0
  0
LINE
  5
F10203
330
261
100
AcDbEntity
  8
Geo
100
AcDbLine
 10
-36.58859711728934
 20
4.037789398158228
 30
0.0
 11
-36.48859711728935
 21
3.983280908179921
 31
0.0
  0
LINE
  5
F10205
330
261
100
AcDbEntity
  8
Geo
100
AcDbLine
 10
-36.48859711728935
 20
3.983280908179921
 30
0.0
 11
-36.38859711728935
 21
3.928617317627324
 31
0.0
  0
LINE
  5
F10207
330
261
100
AcDbEntity
  8
Geo
100
AcDbLine
 10
-36.38859711728935
 20
3.928617317627324
 30
0.0
 11
-36.28859711728934
 21
3.873802345091029
 31
0.0
  0
LINE
  5
F10209
330
261
100
AcDbEntity
  8
Geo
100
AcDbLine
 10
-36.28859711728934
 20
3.873802345091029
 30
0.0
 11
-36.18859711728935
 21
3.818839719459425
 31
0.0
  0
LINE
  5
F1020B
330
261
100
AcDbEntity
  8
Geo
100
AcDbLine
 10
-36.18859711728935
 20
3.818839719459425
 30
0.0
 11
-36.08859711728934
 21
3.763733179665624
 31
0.0
  0
LINE
  5
F1020D
330
261
100
AcDbEntity
  8
Geo
100
AcDbLine
 10
-36.08859711728934
 20
3.763733179665624
 30
0.0
 11
-35.98859711728934
 21
3.708486474432426
 31
0.0
  0
LINE
  5
F1020F
330
261
100
AcDbEntity
  8
Geo
100
AcDbLine
 10
-35.98859711728934
 20
3.708486474432426
 30
0.0
 11
-35.88859711728935
 21
3.653103362017823
 31
0.0
  0
LINE
  5
F10211
330
261
100
AcDbEntity
  8
Geo
100
AcDbLine
 10
-35.88859711728935
 20
3.653103362017823
 30
0.0
 11
-35.78859711728934
 21
3.597587609959226
 31
0.0
  0
LINE
  5
F10213
330
261
100
AcDbEntity
  8
Geo
100
AcDbLine
 10
-35.78859711728934
 20
3.597587609959226
 30
0.0
 11
-35.68859711728935
 21
3.541942994816924
 31
0.0
  0
LINE
  5
F10215
330
261
100
AcDbEntity
  8
Geo
100
AcDbLine
 10
-35.68859711728935
 20
3.541942994816924
 30
0.0
 11
-35.58859711728934
 21
3.486173301917524
 31
0.0
  0
LINE
  5
F10217
330
261
100
AcDbEntity
  8
Geo
100
AcDbLine
 10
-35.58859711728934
 20
3.486173301917524
 30
0.0
 11
-35.48859711728935
 21
3.430282325096026
 31
0.0
  0
LINE
  5
F10219
330
261
100
AcDbEntity
  8
Geo
100
AcDbLine
 10
-35.48859711728935
 20
3.430282325096026
 30
0.0
 11
-35.38859711728935
 21
3.374273866438123
 31
0.0
  0
LINE
  5
F1021B
330
261
100
AcDbEntity
  8
Geo
100
AcDbLine
 10
-35.38859711728935
 20
3.374273866438123
 30
0.0
 11
-35.28859711728934
 21
3.318151736021622
 31
0.0
  0
LINE
  5
F1021D
330
261
100
AcDbEntity
  8
Geo
100
AcDbLine
 10
-35.28859711728934
 20
3.318151736021622
 30
0.0
 11
-35.18859711728935
 21
3.261919751656822
 31
0.0
  0
LINE
  5
F1021F
330
261
100
AcDbEntity
  8
Geo
100
AcDbLine
 10
-35.18859711728935
 20
3.261919751656822
 30
0.0
 11
-35.08859711728934
 21
3.205581738627024
 31
0.0
  0
LINE
  5
F10221
330
261
100
AcDbEntity
  8
Geo
100
AcDbLine
 10
-35.08859711728934
 20
3.205581738627024
 30
0.0
 11
-34.98859711728935
 21
3.149141529428426
 31
0.0
  0
LINE
  5
F10223
330
261
100
AcDbEntity
  8
Geo
100
AcDbLine
 10
-34.98859711728935
 20
3.149141529428426
 30
0.0
 11
-34.88859711728935
 21
3.092602963509321
 31
0.0
  0
LINE
  5
F10225
330
261
100
AcDbEntity
  8
Geo
100
AcDbLine
 10
-34.88859711728935
 20
3.092602963509321
 30
0.0
 11
-34.78859711728934
 21
3.035969887008825
 31
0.0
  0
LINE
  5
F10227
330
261
100
AcDbEntity
  8
Geo
100
AcDbLine
 10
-34.78859711728934
 20
3.035969887008825
 30
0.0
 11
-34.68859711728935
 21
2.979246152495228
 31
0.0
  0
LINE
  5
F10229
330
261
100
AcDbEntity
  8
Geo
100
AcDbLine
 10
-34.68859711728935
 20
2.979246152495228
 30
0.0
 11
-34.58859711728934
 21
2.922435618704323
 31
0.0
  0
LINE
  5
F1022B
330
261
100
AcDbEntity
  8
Geo
100
AcDbLine
 10
-34.58859711728934
 20
2.922435618704323
 30
0.0
 11
-34.48859711728935
 21
2.865542150276226
 31
0.0
  0
LINE
  5
F1022D
330
261
100
AcDbEntity
  8
Geo
100
AcDbLine
 10
-34.48859711728935
 20
2.865542150276226
 30
0.0
 11
-34.38859711728935
 21
2.808569617492924
 31
0.0
  0
LINE
  5
F1022F
330
261
100
AcDbEntity
  8
Geo
100
AcDbLine
 10
-34.38859711728935
 20
2.808569617492924
 30
0.0
 11
-34.28859711728935
 21
2.751521896015024
 31
0.0
  0
LINE
  5
F10231
330
261
100
AcDbEntity
  8
Geo
100
AcDbLine
 10
-34.28859711728935
 20
2.751521896015024
 30
0.0
 11
-34.18859711728935
 21
2.694402866618027
 31
0.0
  0
LINE
  5
F10233
330
261
100
AcDbEntity
  8
Geo
100
AcDbLine
 10
-34.18859711728935
 20
2.694402866618027
 30
0.0
 11
-34.08859711728934
 21
2.637216414927927
 31
0.0
  0
LINE
  5
F10235
330
261
100
AcDbEntity
  8
Geo
100
AcDbLine
 10
-34.08859711728934
 20
2.637216414927927
 30
0.0
 11
-33.98859711728935
 21
2.579966431157526
 31
0.0
  0
LINE
  5
F10237
330
261
100
AcDbEntity
  8
Geo
100
AcDbLine
 10
-33.98859711728935
 20
2.579966431157526
 30
0.0
 11
-33.88859711728935
 21
2.522656809841624
 31
0.0
  0
LINE
  5
F10239
330
261
100
AcDbEntity
  8
Geo
100
AcDbLine
 10
-33.88859711728935
 20
2.522656809841624
 30
0.0
 11
-33.78859711728934
 21
2.465291449571726
 31
0.0
  0
LINE
  5
F1023B
330
261
100
AcDbEntity
  8
Geo
100
AcDbLine
 10
-33.78859711728934
 20
2.465291449571726
 30
0.0
 11
-33.68859711728935
 21
2.407874252731122
 31
0.0
  0
LINE
  5
F1023D
330
261
100
AcDbEntity
  8
Geo
100
AcDbLine
 10
-33.68859711728935
 20
2.407874252731122
 30
0.0
 11
-33.58859711728934
 21
2.350409125229525
 31
0.0
  0
LINE
  5
F1023F
330
261
100
AcDbEntity
  8
Geo
100
AcDbLine
 10
-33.58859711728934
 20
2.350409125229525
 30
0.0
 11
-33.48859711728936
 21
2.292899976237027
 31
0.0
  0
LINE
  5
F10241
330
261
100
AcDbEntity
  8
Geo
100
AcDbLine
 10
-33.48859711728936
 20
2.292899976237027
 30
0.0
 11
-33.38859711728935
 21
2.235350717918425
 31
0.0
  0
LINE
  5
F10243
330
261
100
AcDbEntity
  8
Geo
100
AcDbLine
 10
-33.38859711728935
 20
2.235350717918425
 30
0.0
 11
-33.28859711728936
 21
2.177765265167227
 31
0.0
  0
LINE
  5
F10245
330
261
100
AcDbEntity
  8
Geo
100
AcDbLine
 10
-33.28859711728936
 20
2.177765265167227
 30
0.0
 11
-33.18859711728936
 21
2.120147535338823
 31
0.0
  0
LINE
  5
F10247
330
261
100
AcDbEntity
  8
Geo
100
AcDbLine
 10
-33.18859711728936
 20
2.120147535338823
 30
0.0
 11
-33.08859711728935
 21
2.062501447984423
 31
0.0
  0
LINE
  5
F10249
330
261
100
AcDbEntity
  8
Geo
100
AcDbLine
 10
-33.08859711728935
 20
2.062501447984423
 30
0.0
 11
-32.98859711728936
 21
2.004830924584528
 31
0.0
  0
LINE
  5
F1024B
330
261
100
AcDbEntity
  8
Geo
100
AcDbLine
 10
-32.98859711728936
 20
2.004830924584528
 30
0.0
 11
-32.88859711728935
 21
1.947139888281526
 31
0.0
  0
LINE
  5
F1024D
330
261
100
AcDbEntity
  8
Geo
100
AcDbLine
 10
-32.88859711728935
 20
1.947139888281526
 30
0.0
 11
-32.78859711728936
 21
1.889432263613624
 31
0.0
  0
LINE
  5
F1024F
330
261
100
AcDbEntity
  8
Geo
100
AcDbLine
 10
-32.78859711728936
 20
1.889432263613624
 30
0.0
 11
-32.68859711728936
 21
1.831711976247223
 31
0.0
  0
LINE
  5
F10251
330
261
100
AcDbEntity
  8
Geo
100
AcDbLine
 10
-32.68859711728936
 20
1.831711976247223
 30
0.0
 11
-32.58859711728935
 21
1.773982952710323
 31
0.0
  0
LINE
  5
F10253
330
261
100
AcDbEntity
  8
Geo
100
AcDbLine
 10
-32.58859711728935
 20
1.773982952710323
 30
0.0
 11
-32.48859711728936
 21
1.716249120125027
 31
0.0
  0
LINE
  5
F10255
330
261
100
AcDbEntity
  8
Geo
100
AcDbLine
 10
-32.48859711728936
 20
1.716249120125027
 30
0.0
 11
-32.38859711728935
 21
1.658514405940724
 31
0.0
  0
LINE
  5
F10257
330
261
100
AcDbEntity
  8
Geo
100
AcDbLine
 10
-32.38859711728935
 20
1.658514405940724
 30
0.0
 11
-32.28859711728936
 21
1.600782737666726
 31
0.0
  0
LINE
  5
F10259
330
261
100
AcDbEntity
  8
Geo
100
AcDbLine
 10
-32.28859711728936
 20
1.600782737666726
 30
0.0
 11
-32.18859711728936
 21
1.543058042605029
 31
0.0
  0
LINE
  5
F1025B
330
261
100
AcDbEntity
  8
Geo
100
AcDbLine
 10
-32.18859711728936
 20
1.543058042605029
 30
0.0
 11
-32.08859711728936
 21
1.485344247583622
 31
0.0
  0
LINE
  5
F1025D
330
261
100
AcDbEntity
  8
Geo
100
AcDbLine
 10
-32.08859711728936
 20
1.485344247583622
 30
0.0
 11
-31.98859711728936
 21
1.427645278688526
 31
0.0
  0
LINE
  5
F1025F
330
261
100
AcDbEntity
  8
Geo
100
AcDbLine
 10
-31.98859711728936
 20
1.427645278688526
 30
0.0
 11
-31.88859711728935
 21
1.369965060997426
 31
0.0
  0
LINE
  5
F10261
330
261
100
AcDbEntity
  8
Geo
100
AcDbLine
 10
-31.88859711728935
 20
1.369965060997426
 30
0.0
 11
-31.78859711728936
 21
1.312307518312625
 31
0.0
  0
LINE
  5
F10263
330
261
100
AcDbEntity
  8
Geo
100
AcDbLine
 10
-31.78859711728936
 20
1.312307518312625
 30
0.0
 11
-31.68859711728936
 21
1.254676572893423
 31
0.0
  0
LINE
  5
F10265
330
261
100
AcDbEntity
  8
Geo
100
AcDbLine
 10
-31.68859711728936
 20
1.254676572893423
 30
0.0
 11
-31.58859711728935
 21
1.197076145190326
 31
0.0
  0
LINE
  5
F10267
330
261
100
AcDbEntity
  8
Geo
100
AcDbLine
 10
-31.58859711728935
 20
1.197076145190326
 30
0.0
 11
-31.48859711728936
 21
1.139510153577422
 31
0.0
  0
LINE
  5
F10269
330
261
100
AcDbEntity
  8
Geo
100
AcDbLine
 10
-31.48859711728936
 20
1.139510153577422
 30
0.0
 11
-31.38859711728935
 21
1.081982514086323
 31
0.0
  0
LINE
  5
F1026B
330
261
100
AcDbEntity
  8
Geo
100
AcDbLine
 10
-31.38859711728935
 20
1.081982514086323
 30
0.0
 11
-31.28859711728936
 21
1.024497140139825
 31
0.0
  0
LINE
  5
F1026D
330
261
100
AcDbEntity
  8
Geo
100
AcDbLine
 10
-31.28859711728936
 20
1.024497140139825
 30
0.0
 11
-31.18859711728936
 21
0.9670579422853222
 31
0.0
  0
LINE
  5
F1026F
330
261
100
AcDbEntity
  8
Geo
100
AcDbLine
 10
-31.18859711728936
 20
0.9670579422853222
 30
0.0
 11
-31.08859711728936
 21
0.9096688279291242
 31
0.0
  0
LINE
  5
F10271
330
261
100
AcDbEntity
  8
Geo
100
AcDbLine
 10
-31.08859711728936
 20
0.9096688279291242
 30
0.0
 11
-30.98859711728936
 21
0.8523337010705276
 31
0.0
  0
LINE
  5
F10273
330
261
100
AcDbEntity
  8
Geo
100
AcDbLine
 10
-30.98859711728936
 20
0.8523337010705276
 30
0.0
 11
-30.88859711728935
 21
0.7950564620361256
 31
0.0
  0
LINE
  5
F10275
330
261
100
AcDbEntity
  8
Geo
100
AcDbLine
 10
-30.88859711728935
 20
0.7950564620361256
 30
0.0
 11
-30.78859711728936
 21
0.7378410072146231
 31
0.0
  0
LINE
  5
F10277
330
261
100
AcDbEntity
  8
Geo
100
AcDbLine
 10
-30.78859711728936
 20
0.7378410072146231
 30
0.0
 11
-30.68859711728936
 21
0.6806912287919254
 31
0.0
  0
LINE
  5
F10279
330
261
100
AcDbEntity
  8
Geo
100
AcDbLine
 10
-30.68859711728936
 20
0.6806912287919254
 30
0.0
 11
-30.58859711728935
 21
0.6236110144858209
 31
0.0
  0
LINE
  5
F1027B
330
261
100
AcDbEntity
  8
Geo
100
AcDbLine
 10
-30.58859711728935
 20
0.6236110144858209
 30
0.0
 11
-30.48859711728936
 21
0.5666042472821254
 31
0.0
  0
LINE
  5
F1027D
330
261
100
AcDbEntity
  8
Geo
100
AcDbLine
 10
-30.48859711728936
 20
0.5666042472821254
 30
0.0
 11
-30.38859711728935
 21
0.5096748051703237
 31
0.0
  0
LINE
  5
F1027F
330
261
100
AcDbEntity
  8
Geo
100
AcDbLine
 10
-30.38859711728935
 20
0.5096748051703237
 30
0.0
 11
-30.28859711728936
 21
0.4528265608796254
 31
0.0
  0
LINE
  5
F10281
330
261
100
AcDbEntity
  8
Geo
100
AcDbLine
 10
-30.28859711728936
 20
0.4528265608796254
 30
0.0
 11
-30.18859711728936
 21
0.3960633816155266
 31
0.0
  0
LINE
  5
F10283
330
261
100
AcDbEntity
  8
Geo
100
AcDbLine
 10
-30.18859711728936
 20
0.3960633816155266
 30
0.0
 11
-30.08859711728935
 21
0.3393891287968245
 31
0.0
  0
LINE
  5
F10285
330
261
100
AcDbEntity
  8
Geo
100
AcDbLine
 10
-30.08859711728935
 20
0.3393891287968245
 30
0.0
 11
-29.98859711728936
 21
0.2828076577932279
 31
0.0
  0
LINE
  5
F10287
330
261
100
AcDbEntity
  8
Geo
100
AcDbLine
 10
-29.98859711728936
 20
0.2828076577932279
 30
0.0
 11
-29.88859711728935
 21
0.2263228176624246
 31
0.0
  0
LINE
  5
F10289
330
261
100
AcDbEntity
  8
Geo
100
AcDbLine
 10
-29.88859711728935
 20
0.2263228176624246
 30
0.0
 11
-29.78859711728936
 21
0.1699384508888215
 31
0.0
  0
LINE
  5
F1028B
330
261
100
AcDbEntity
  8
Geo
100
AcDbLine
 10
-29.78859711728936
 20
0.1699384508888215
 30
0.0
 11
-29.68859711728936
 21
0.113658393121824
 31
0.0
  0
LINE
  5
F1028D
330
261
100
AcDbEntity
  8
Geo
100
AcDbLine
 10
-29.68859711728936
 20
0.113658393121824
 30
0.0
 11
-29.58859711728936
 21
0.057486472915123
 31
0.0
  0
LINE
  5
F1028F
330
261
100
AcDbEntity
  8
Geo
100
AcDbLine
 10
-29.58859711728936
 20
0.057486472915123
 30
0.0
 11
-29.48859711728936
 21
0.0014265114662244
 31
0.0
  0
LINE
  5
F10291
330
261
100
AcDbEntity
  8
Geo
100
AcDbLine
 10
-29.48859711728936
 20
0.0014265114662244
 30
0.0
 11
-29.38859711728935
 21
-0.0545176776438758
 31
0.0
  0
LINE
  5
F10293
330
261
100
AcDbEntity
  8
Geo
100
AcDbLine
 10
-29.38859711728935
 20
-0.0545176776438758
 30
0.0
 11
-29.28859711728936
 21
-0.1103422887094716
 31
0.0
  0
LINE
  5
F10295
330
261
100
AcDbEntity
  8
Geo
100
AcDbLine
 10
-29.28859711728936
 20
-0.1103422887094716
 30
0.0
 11
-29.18859711728936
 21
-0.1660435241594733
 31
0.0
  0
LINE
  5
F10297
330
261
100
AcDbEntity
  8
Geo
100
AcDbLine
 10
-29.18859711728936
 20
-0.1660435241594733
 30
0.0
 11
-29.08859711728935
 21
-0.2216175948157719
 31
0.0
  0
LINE
  5
F10299
330
261
100
AcDbEntity
  8
Geo
100
AcDbLine
 10
-29.08859711728935
 20
-0.2216175948157719
 30
0.0
 11
-28.98859711728936
 21
-0.2770607201507751
 31
0.0
  0
LINE
  5
F1029B
330
261
100
AcDbEntity
  8
Geo
100
AcDbLine
 10
-28.98859711728936
 20
-0.2770607201507751
 30
0.0
 11
-28.88859711728935
 21
-0.332369128544574
 31
0.0
  0
LINE
  5
F1029D
330
261
100
AcDbEntity
  8
Geo
100
AcDbLine
 10
-28.88859711728935
 20
-0.332369128544574
 30
0.0
 11
-28.78859711728935
 21
-0.3875390575418756
 31
0.0
  0
LINE
  5
F1029F
330
261
100
AcDbEntity
  8
Geo
100
AcDbLine
 10
-28.78859711728935
 20
-0.3875390575418756
 30
0.0
 11
-28.68859711728936
 21
-0.442566754107375
 31
0.0
  0
LINE
  5
F102A1
330
261
100
AcDbEntity
  8
Geo
100
AcDbLine
 10
-28.68859711728936
 20
-0.442566754107375
 30
0.0
 11
-28.58859711728936
 21
-0.4974484748817752
 31
0.0
  0
LINE
  5
F102A3
330
261
100
AcDbEntity
  8
Geo
100
AcDbLine
 10
-28.58859711728936
 20
-0.4974484748817752
 30
0.0
 11
-28.48859711728936
 21
-0.5521804864357734
 31
0.0
  0
LINE
  5
F102A5
330
261
100
AcDbEntity
  8
Geo
100
AcDbLine
 10
-28.48859711728936
 20
-0.5521804864357734
 30
0.0
 11
-28.38859711728935
 21
-0.6067590655242761
 31
0.0
  0
LINE
  5
F102A7
330
261
100
AcDbEntity
  8
Geo
100
AcDbLine
 10
-28.38859711728935
 20
-0.6067590655242761
 30
0.0
 11
-28.28859711728936
 21
-0.6611804993399737
 31
0.0
  0
LINE
  5
F102A9
330
261
100
AcDbEntity
  8
Geo
100
AcDbLine
 10
-28.28859711728936
 20
-0.6611804993399737
 30
0.0
 11
-28.18859711728936
 21
-0.7154410857654732
 31
0.0
  0
LINE
  5
F102AB
330
261
100
AcDbEntity
  8
Geo
100
AcDbLine
 10
-28.18859711728936
 20
-0.7154410857654732
 30
0.0
 11
-28.08859711728935
 21
-0.7695371336252741
 31
0.0
  0
LINE
  5
F102AD
330
261
100
AcDbEntity
  8
Geo
100
AcDbLine
 10
-28.08859711728935
 20
-0.7695371336252741
 30
0.0
 11
-27.98859711728936
 21
-0.8234649629369741
 31
0.0
  0
LINE
  5
F102AF
330
261
100
AcDbEntity
  8
Geo
100
AcDbLine
 10
-27.98859711728936
 20
-0.8234649629369741
 30
0.0
 11
-27.88859711728935
 21
-0.8772209051616748
 31
0.0
  0
LINE
  5
F102B1
330
261
100
AcDbEntity
  8
Geo
100
AcDbLine
 10
-27.88859711728935
 20
-0.8772209051616748
 30
0.0
 11
-27.78859711728936
 21
-0.9308013034531761
 31
0.0
  0
LINE
  5
F102B3
330
261
100
AcDbEntity
  8
Geo
100
AcDbLine
 10
-27.78859711728936
 20
-0.9308013034531761
 30
0.0
 11
-27.68859711728936
 21
-0.9842025129070748
 31
0.0
  0
LINE
  5
F102B5
330
261
100
AcDbEntity
  8
Geo
100
AcDbLine
 10
-27.68859711728936
 20
-0.9842025129070748
 30
0.0
 11
-27.58859711728935
 21
-1.037420900808776
 31
0.0
  0
LINE
  5
F102B7
330
261
100
AcDbEntity
  8
Geo
100
AcDbLine
 10
-27.58859711728935
 20
-1.037420900808776
 30
0.0
 11
-27.48859711728936
 21
-1.090452846880175
 31
0.0
  0
LINE
  5
F102B9
330
261
100
AcDbEntity
  8
Geo
100
AcDbLine
 10
-27.48859711728936
 20
-1.090452846880175
 30
0.0
 11
-27.38859711728935
 21
-1.143294743526276
 31
0.0
  0
LINE
  5
F102BB
330
261
100
AcDbEntity
  8
Geo
100
AcDbLine
 10
-27.38859711728935
 20
-1.143294743526276
 30
0.0
 11
-27.28859711728936
 21
-1.195942996080873
 31
0.0
  0
LINE
  5
F102BD
330
261
100
AcDbEntity
  8
Geo
100
AcDbLine
 10
-27.28859711728936
 20
-1.195942996080873
 30
0.0
 11
-27.18859711728936
 21
-1.248394023050177
 31
0.0
  0
LINE
  5
F102BF
330
261
100
AcDbEntity
  8
Geo
100
AcDbLine
 10
-27.18859711728936
 20
-1.248394023050177
 30
0.0
 11
-27.08859711728936
 21
-1.300644256357575
 31
0.0
  0
LINE
  5
F102C1
330
261
100
AcDbEntity
  8
Geo
100
AcDbLine
 10
-27.08859711728936
 20
-1.300644256357575
 30
0.0
 11
-26.98859711728936
 21
-1.352690141585473
 31
0.0
  0
LINE
  5
F102C3
330
261
100
AcDbEntity
  8
Geo
100
AcDbLine
 10
-26.98859711728936
 20
-1.352690141585473
 30
0.0
 11
-26.88859711728935
 21
-1.404528138217575
 31
0.0
  0
LINE
  5
F102C5
330
261
100
AcDbEntity
  8
Geo
100
AcDbLine
 10
-26.88859711728935
 20
-1.404528138217575
 30
0.0
 11
-26.78859711728936
 21
-1.456154719879474
 31
0.0
  0
LINE
  5
F102C7
330
261
100
AcDbEntity
  8
Geo
100
AcDbLine
 10
-26.78859711728936
 20
-1.456154719879474
 30
0.0
 11
-26.68859711728936
 21
-1.507566374578875
 31
0.0
  0
LINE
  5
F102C9
330
261
100
AcDbEntity
  8
Geo
100
AcDbLine
 10
-26.68859711728936
 20
-1.507566374578875
 30
0.0
 11
-26.58859711728935
 21
-1.558759604943876
 31
0.0
  0
LINE
  5
F102CB
330
261
100
AcDbEntity
  8
Geo
100
AcDbLine
 10
-26.58859711728935
 20
-1.558759604943876
 30
0.0
 11
-26.48859711728936
 21
-1.609730928461775
 31
0.0
  0
LINE
  5
F102CD
330
261
100
AcDbEntity
  8
Geo
100
AcDbLine
 10
-26.48859711728936
 20
-1.609730928461775
 30
0.0
 11
-26.38859711728935
 21
-1.660476877715176
 31
0.0
  0
LINE
  5
F102CF
330
261
100
AcDbEntity
  8
Geo
100
AcDbLine
 10
-26.38859711728935
 20
-1.660476877715176
 30
0.0
 11
-26.28859711728936
 21
-1.710994000618175
 31
0.0
  0
LINE
  5
F102D1
330
261
100
AcDbEntity
  8
Geo
100
AcDbLine
 10
-26.28859711728936
 20
-1.710994000618175
 30
0.0
 11
-26.18859711728936
 21
-1.761278860651472
 31
0.0
  0
LINE
  5
F102D3
330
261
100
AcDbEntity
  8
Geo
100
AcDbLine
 10
-26.18859711728936
 20
-1.761278860651472
 30
0.0
 11
-26.08859711728936
 21
-1.811328037095471
 31
0.0
  0
LINE
  5
F102D5
330
261
100
AcDbEntity
  8
Geo
100
AcDbLine
 10
-26.08859711728936
 20
-1.811328037095471
 30
0.0
 11
-25.98859711728936
 21
-1.861138125263675
 31
0.0
  0
LINE
  5
F102D7
330
261
100
AcDbEntity
  8
Geo
100
AcDbLine
 10
-25.98859711728936
 20
-1.861138125263675
 30
0.0
 11
-25.88859711728935
 21
-1.910705736733973
 31
0.0
  0
LINE
  5
F102D9
330
261
100
AcDbEntity
  8
Geo
100
AcDbLine
 10
-25.88859711728935
 20
-1.910705736733973
 30
0.0
 11
-25.78859711728936
 21
-1.960027499579073
 31
0.0
  0
LINE
  5
F102DB
330
261
100
AcDbEntity
  8
Geo
100
AcDbLine
 10
-25.78859711728936
 20
-1.960027499579073
 30
0.0
 11
-25.68859711728936
 21
-2.009100058596072
 31
0.0
  0
LINE
  5
F102DD
330
261
100
AcDbEntity
  8
Geo
100
AcDbLine
 10
-25.68859711728936
 20
-2.009100058596072
 30
0.0
 11
-25.58859711728935
 21
-2.057920075534475
 31
0.0
  0
LINE
  5
F102DF
330
261
100
AcDbEntity
  8
Geo
100
AcDbLine
 10
-25.58859711728935
 20
-2.057920075534475
 30
0.0
 11
-25.48859711728936
 21
-2.106484229323573
 31
0.0
  0
LINE
  5
F102E1
330
261
100
AcDbEntity
  8
Geo
100
AcDbLine
 10
-25.48859711728936
 20
-2.106484229323573
 30
0.0
 11
-25.38859711728935
 21
-2.154789216298272
 31
0.0
  0
LINE
  5
F102E3
330
261
100
AcDbEntity
  8
Geo
100
AcDbLine
 10
-25.38859711728935
 20
-2.154789216298272
 30
0.0
 11
-25.28859711728936
 21
-2.202831750423474
 31
0.0
  0
LINE
  5
F102E5
330
261
100
AcDbEntity
  8
Geo
100
AcDbLine
 10
-25.28859711728936
 20
-2.202831750423474
 30
0.0
 11
-25.18859711728936
 21
-2.250608563518273
 31
0.0
  0
LINE
  5
F102E7
330
261
100
AcDbEntity
  8
Geo
100
AcDbLine
 10
-25.18859711728936
 20
-2.250608563518273
 30
0.0
 11
-25.08859711728935
 21
-2.298116405477674
 31
0.0
  0
LINE
  5
F102E9
330
261
100
AcDbEntity
  8
Geo
100
AcDbLine
 10
-25.08859711728935
 20
-2.298116405477674
 30
0.0
 11
-24.98859711728936
 21
-2.345352044493971
 31
0.0
  0
LINE
  5
F102EB
330
261
100
AcDbEntity
  8
Geo
100
AcDbLine
 10
-24.98859711728936
 20
-2.345352044493971
 30
0.0
 11
-24.88859711728935
 21
-2.392312267276675
 31
0.0
  0
LINE
  5
F102ED
330
261
100
AcDbEntity
  8
Geo
100
AcDbLine
 10
-24.88859711728935
 20
-2.392312267276675
 30
0.0
 11
-24.78859711728936
 21
-2.438993879270874
 31
0.0
  0
LINE
  5
F102EF
330
261
100
AcDbEntity
  8
Geo
100
AcDbLine
 10
-24.78859711728936
 20
-2.438993879270874
 30
0.0
 11
-24.68859711728936
 21
-2.485393704874773
 31
0.0
  0
LINE
  5
F102F1
330
261
100
AcDbEntity
  8
Geo
100
AcDbLine
 10
-24.68859711728936
 20
-2.485393704874773
 30
0.0
 11
-24.58859711728936
 21
-2.531508587655473
 31
0.0
  0
LINE
  5
F102F3
330
261
100
AcDbEntity
  8
Geo
100
AcDbLine
 10
-24.58859711728936
 20
-2.531508587655473
 30
0.0
 11
-24.48859711728936
 21
-2.577335390563973
 31
0.0
  0
LINE
  5
F102F5
330
261
100
AcDbEntity
  8
Geo
100
AcDbLine
 10
-24.48859711728936
 20
-2.577335390563973
 30
0.0
 11
-24.38859711728935
 21
-2.622870996148272
 31
0.0
  0
LINE
  5
F102F7
330
261
100
AcDbEntity
  8
Geo
100
AcDbLine
 10
-24.38859711728935
 20
-2.622870996148272
 30
0.0
 11
-24.28859711728936
 21
-2.668112306765774
 31
0.0
  0
LINE
  5
F102F9
330
261
100
AcDbEntity
  8
Geo
100
AcDbLine
 10
-24.28859711728936
 20
-2.668112306765774
 30
0.0
 11
-24.18859711728936
 21
-2.713056244793676
 31
0.0
  0
LINE
  5
F102FB
330
261
100
AcDbEntity
  8
Geo
100
AcDbLine
 10
-24.18859711728936
 20
-2.713056244793676
 30
0.0
 11
-24.08859711728935
 21
-2.757699752838576
 31
0.0
  0
LINE
  5
F102FD
330
261
100
AcDbEntity
  8
Geo
100
AcDbLine
 10
-24.08859711728935
 20
-2.757699752838576
 30
0.0
 11
-23.98859711728936
 21
-2.802039793944373
 31
0.0
  0
LINE
  5
F102FF
330
261
100
AcDbEntity
  8
Geo
100
AcDbLine
 10
-23.98859711728936
 20
-2.802039793944373
 30
0.0
 11
-23.88859711728935
 21
-2.846073351798874
 31
0.0
  0
LINE
  5
F10301
330
261
100
AcDbEntity
  8
Geo
100
AcDbLine
 10
-23.88859711728935
 20
-2.846073351798874
 30
0.0
 11
-23.78859711728936
 21
-2.889797430938873
 31
0.0
  0
LINE
  5
F10303
330
261
100
AcDbEntity
  8
Geo
100
AcDbLine
 10
-23.78859711728936
 20
-2.889797430938873
 30
0.0
 11
-23.68859711728936
 21
-2.933209056954076
 31
0.0
  0
LINE
  5
F10305
330
261
100
AcDbEntity
  8
Geo
100
AcDbLine
 10
-23.68859711728936
 20
-2.933209056954076
 30
0.0
 11
-23.58859711728936
 21
-2.976305276689473
 31
0.0
  0
LINE
  5
F10307
330
261
100
AcDbEntity
  8
Geo
100
AcDbLine
 10
-23.58859711728936
 20
-2.976305276689473
 30
0.0
 11
-23.48859711728936
 21
-3.019083158445976
 31
0.0
  0
LINE
  5
F10309
330
261
100
AcDbEntity
  8
Geo
100
AcDbLine
 10
-23.48859711728936
 20
-3.019083158445976
 30
0.0
 11
-23.38859711728935
 21
-3.061539792180074
 31
0.0
  0
LINE
  5
F1030B
330
261
100
AcDbEntity
  8
Geo
100
AcDbLine
 10
-23.38859711728935
 20
-3.061539792180074
 30
0.0
 11
-23.28859711728936
 21
-3.103672289701876
 31
0.0
  0
LINE
  5
F1030D
330
261
100
AcDbEntity
  8
Geo
100
AcDbLine
 10
-23.28859711728936
 20
-3.103672289701876
 30
0.0
 11
-23.18859711728936
 21
-3.145477784871175
 31
0.0
  0
LINE
  5
F1030F
330
261
100
AcDbEntity
  8
Geo
100
AcDbLine
 10
-23.18859711728936
 20
-3.145477784871175
 30
0.0
 11
-23.08859711728935
 21
-3.186953433792975
 31
0.0
  0
LINE
  5
F10311
330
261
100
AcDbEntity
  8
Geo
100
AcDbLine
 10
-23.08859711728935
 20
-3.186953433792975
 30
0.0
 11
-22.98859711728936
 21
-3.228096415010575
 31
0.0
  0
LINE
  5
F10313
330
261
100
AcDbEntity
  8
Geo
100
AcDbLine
 10
-22.98859711728936
 20
-3.228096415010575
 30
0.0
 11
-22.88859711728935
 21
-3.268903929697476
 31
0.0
  0
LINE
  5
F10315
330
261
100
AcDbEntity
  8
Geo
100
AcDbLine
 10
-22.88859711728935
 20
-3.268903929697476
 30
0.0
 11
-22.78859711728935
 21
-3.309373201848075
 31
0.0
  0
LINE
  5
F10317
330
261
100
AcDbEntity
  8
Geo
100
AcDbLine
 10
-22.78859711728935
 20
-3.309373201848075
 30
0.0
 11
-22.68859711728936
 21
-3.349501478466272
 31
0.0
  0
LINE
  5
F10319
330
261
100
AcDbEntity
  8
Geo
100
AcDbLine
 10
-22.68859711728936
 20
-3.349501478466272
 30
0.0
 11
-22.58859711728935
 21
-3.389286029752877
 31
0.0
  0
LINE
  5
F1031B
330
261
100
AcDbEntity
  8
Geo
100
AcDbLine
 10
-22.58859711728935
 20
-3.389286029752877
 30
0.0
 11
-22.48859711728936
 21
-3.428724149290975
 31
0.0
  0
LINE
  5
F1031D
330
261
100
AcDbEntity
  8
Geo
100
AcDbLine
 10
-22.48859711728936
 20
-3.428724149290975
 30
0.0
 11
-22.38859711728935
 21
-3.467813154230576
 31
0.0
  0
LINE
  5
F1031F
330
261
100
AcDbEntity
  8
Geo
100
AcDbLine
 10
-22.38859711728935
 20
-3.467813154230576
 30
0.0
 11
-22.28859711728936
 21
-3.506550385470976
 31
0.0
  0
LINE
  5
F10321
330
261
100
AcDbEntity
  8
Geo
100
AcDbLine
 10
-22.28859711728936
 20
-3.506550385470976
 30
0.0
 11
-22.18859711728936
 21
-3.544933207840976
 31
0.0
  0
LINE
  5
F10323
330
261
100
AcDbEntity
  8
Geo
100
AcDbLine
 10
-22.18859711728936
 20
-3.544933207840976
 30
0.0
 11
-22.08859711728935
 21
-3.582959010279274
 31
0.0
  0
LINE
  5
F10325
330
261
100
AcDbEntity
  8
Geo
100
AcDbLine
 10
-22.08859711728935
 20
-3.582959010279274
 30
0.0
 11
-21.98859711728936
 21
-3.620625206011176
 31
0.0
  0
LINE
  5
F10327
330
261
100
AcDbEntity
  8
Geo
100
AcDbLine
 10
-21.98859711728936
 20
-3.620625206011176
 30
0.0
 11
-21.88859711728935
 21
-3.657929232724974
 31
0.0
  0
LINE
  5
F10329
330
261
100
AcDbEntity
  8
Geo
100
AcDbLine
 10
-21.88859711728935
 20
-3.657929232724974
 30
0.0
 11
-21.78859711728936
 21
-3.694868552746171
 31
0.0
  0
LINE
  5
F1032B
330
261
100
AcDbEntity
  8
Geo
100
AcDbLine
 10
-21.78859711728936
 20
-3.694868552746171
 30
0.0
 11
-21.68859711728936
 21
-3.731440653210075
 31
0.0
  0
LINE
  5
F1032D
330
261
100
AcDbEntity
  8
Geo
100
AcDbLine
 10
-21.68859711728936
 20
-3.731440653210075
 30
0.0
 11
-21.58859711728935
 21
-3.767643046232773
 31
0.0
  0
LINE
  5
F1032F
330
261
100
AcDbEntity
  8
Geo
100
AcDbLine
 10
-21.58859711728935
 20
-3.767643046232773
 30
0.0
 11
-21.48859711728936
 21
-3.803473269080477
 31
0.0
  0
LINE
  5
F10331
330
261
100
AcDbEntity
  8
Geo
100
AcDbLine
 10
-21.48859711728936
 20
-3.803473269080477
 30
0.0
 11
-21.38859711728935
 21
-3.838928884336876
 31
0.0
  0
LINE
  5
F10333
330
261
100
AcDbEntity
  8
Geo
100
AcDbLine
 10
-21.38859711728935
 20
-3.838928884336876
 30
0.0
 11
-21.28859711728936
 21
-3.874007480068875
 31
0.0
  0
LINE
  5
F10335
330
261
100
AcDbEntity
  8
Geo
100
AcDbLine
 10
-21.28859711728936
 20
-3.874007480068875
 30
0.0
 11
-21.18859711728936
 21
-3.908706669991175
 31
0.0
  0
LINE
  5
F10337
330
261
100
AcDbEntity
  8
Geo
100
AcDbLine
 10
-21.18859711728936
 20
-3.908706669991175
 30
0.0
 11
-21.08859711728936
 21
-3.943024093627975
 31
0.0
  0
LINE
  5
F10339
330
261
100
AcDbEntity
  8
Geo
100
AcDbLine
 10
-21.08859711728936
 20
-3.943024093627975
 30
0.0
 11
-20.98859711728936
 21
-3.976957416473773
 31
0.0
  0
LINE
  5
F1033B
330
261
100
AcDbEntity
  8
Geo
100
AcDbLine
 10
-20.98859711728936
 20
-3.976957416473773
 30
0.0
 11
-20.88859711728935
 21
-4.010504330152574
 31
0.0
  0
LINE
  5
F1033D
330
261
100
AcDbEntity
  8
Geo
100
AcDbLine
 10
-20.88859711728935
 20
-4.010504330152574
 30
0.0
 11
-20.78859711728936
 21
-4.043662552574172
 31
0.0
  0
LINE
  5
F1033F
330
261
100
AcDbEntity
  8
Geo
100
AcDbLine
 10
-20.78859711728936
 20
-4.043662552574172
 30
0.0
 11
-20.68859711728936
 21
-4.076429828089974
 31
0.0
  0
LINE
  5
F10341
330
261
100
AcDbEntity
  8
Geo
100
AcDbLine
 10
-20.68859711728936
 20
-4.076429828089974
 30
0.0
 11
-20.58859711728935
 21
-4.108803927646377
 31
0.0
  0
LINE
  5
F10343
330
261
100
AcDbEntity
  8
Geo
100
AcDbLine
 10
-20.58859711728935
 20
-4.108803927646377
 30
0.0
 11
-20.48859711728936
 21
-4.140782648936074
 31
0.0
  0
LINE
  5
F10345
330
261
100
AcDbEntity
  8
Geo
100
AcDbLine
 10
-20.48859711728936
 20
-4.140782648936074
 30
0.0
 11
-20.38859711728935
 21
-4.172363816548074
 31
0.0
  0
LINE
  5
F10347
330
261
100
AcDbEntity
  8
Geo
100
AcDbLine
 10
-20.38859711728935
 20
-4.172363816548074
 30
0.0
 11
-20.28859711728935
 21
-4.203545282116074
 31
0.0
  0
LINE
  5
F10349
330
261
100
AcDbEntity
  8
Geo
100
AcDbLine
 10
-20.28859711728935
 20
-4.203545282116074
 30
0.0
 11
-20.18859711728936
 21
-4.234324924463773
 31
0.0
  0
LINE
  5
F1034B
330
261
100
AcDbEntity
  8
Geo
100
AcDbLine
 10
-20.18859711728936
 20
-4.234324924463773
 30
0.0
 11
-20.08859711728935
 21
-4.264700649749773
 31
0.0
  0
LINE
  5
F1034D
330
261
100
AcDbEntity
  8
Geo
100
AcDbLine
 10
-20.08859711728935
 20
-4.264700649749773
 30
0.0
 11
-19.98859711728936
 21
-4.294670391610171
 31
0.0
  0
LINE
  5
F1034F
330
261
100
AcDbEntity
  8
Geo
100
AcDbLine
 10
-19.98859711728936
 20
-4.294670391610171
 30
0.0
 11
-19.88859711728935
 21
-4.324232111298275
 31
0.0
  0
LINE
  5
F10351
330
261
100
AcDbEntity
  8
Geo
100
AcDbLine
 10
-19.88859711728935
 20
-4.324232111298275
 30
0.0
 11
-19.78859711728935
 21
-4.353383797824374
 31
0.0
  0
LINE
  5
F10353
330
261
100
AcDbEntity
  8
Geo
100
AcDbLine
 10
-19.78859711728935
 20
-4.353383797824374
 30
0.0
 11
-19.68859711728936
 21
-4.382123468091673
 31
0.0
  0
LINE
  5
F10355
330
261
100
AcDbEntity
  8
Geo
100
AcDbLine
 10
-19.68859711728936
 20
-4.382123468091673
 30
0.0
 11
-19.58859711728935
 21
-4.410449167031575
 31
0.0
  0
LINE
  5
F10357
330
261
100
AcDbEntity
  8
Geo
100
AcDbLine
 10
-19.58859711728935
 20
-4.410449167031575
 30
0.0
 11
-19.48859711728926
 21
-4.438358967736874
 31
0.0
  0
LINE
  5
F10359
330
261
100
AcDbEntity
  8
Geo
100
AcDbLine
 10
-19.48859711728926
 20
-4.438358967736874
 30
0.0
 11
-19.38859711728926
 21
-4.465850971592374
 31
0.0
  0
LINE
  5
F1035B
330
261
100
AcDbEntity
  8
Geo
100
AcDbLine
 10
-19.38859711728926
 20
-4.465850971592374
 30
0.0
 11
-19.28859711728925
 21
-4.492923308404272
 31
0.0
  0
LINE
  5
F1035D
330
261
100
AcDbEntity
  8
Geo
100
AcDbLine
 10
-19.28859711728925
 20
-4.492923308404272
 30
0.0
 11
-19.18859711728926
 21
-4.519574136527577
 31
0.0
  0
LINE
  5
F1035F
330
261
100
AcDbEntity
  8
Geo
100
AcDbLine
 10
-19.18859711728926
 20
-4.519574136527577
 30
0.0
 11
-19.08859711728925
 21
-4.545801642990873
 31
0.0
  0
LINE
  5
F10361
330
261
100
AcDbEntity
  8
Geo
100
AcDbLine
 10
-19.08859711728925
 20
-4.545801642990873
 30
0.0
 11
-18.98859711728926
 21
-4.571604043620272
 31
0.0
  0
LINE
  5
F10363
330
261
100
AcDbEntity
  8
Geo
100
AcDbLine
 10
-18.98859711728926
 20
-4.571604043620272
 30
0.0
 11
-18.88859711728926
 21
-4.596979583160475
 31
0.0
  0
LINE
  5
F10365
330
261
100
AcDbEntity
  8
Geo
100
AcDbLine
 10
-18.88859711728926
 20
-4.596979583160475
 30
0.0
 11
-18.78859711728926
 21
-4.621926535393876
 31
0.0
  0
LINE
  5
F10367
330
261
100
AcDbEntity
  8
Geo
100
AcDbLine
 10
-18.78859711728926
 20
-4.621926535393876
 30
0.0
 11
-18.68859711728926
 21
-4.646443203258575
 31
0.0
  0
LINE
  5
F10369
330
261
100
AcDbEntity
  8
Geo
100
AcDbLine
 10
-18.68859711728926
 20
-4.646443203258575
 30
0.0
 11
-18.58859711728925
 21
-4.670527918963674
 31
0.0
  0
LINE
  5
F1036B
330
261
100
AcDbEntity
  8
Geo
100
AcDbLine
 10
-18.58859711728925
 20
-4.670527918963674
 30
0.0
 11
-18.48859711728926
 21
-4.694179044102174
 31
0.0
  0
LINE
  5
F1036D
330
261
100
AcDbEntity
  8
Geo
100
AcDbLine
 10
-18.48859711728926
 20
-4.694179044102174
 30
0.0
 11
-18.38859711728926
 21
-4.717394969763272
 31
0.0
  0
LINE
  5
F1036F
330
261
100
AcDbEntity
  8
Geo
100
AcDbLine
 10
-18.38859711728926
 20
-4.717394969763272
 30
0.0
 11
-18.28859711728926
 21
-4.740174116641275
 31
0.0
  0
LINE
  5
F10371
330
261
100
AcDbEntity
  8
Geo
100
AcDbLine
 10
-18.28859711728926
 20
-4.740174116641275
 30
0.0
 11
-18.18859711728926
 21
-4.762514935142974
 31
0.0
  0
LINE
  5
F10373
330
261
100
AcDbEntity
  8
Geo
100
AcDbLine
 10
-18.18859711728926
 20
-4.762514935142974
 30
0.0
 11
-18.08859711728925
 21
-4.784415905493576
 31
0.0
  0
LINE
  5
F10375
330
261
100
AcDbEntity
  8
Geo
100
AcDbLine
 10
-18.08859711728925
 20
-4.784415905493576
 30
0.0
 11
-17.98859711728926
 21
-4.805875537839476
 31
0.0
  0
LINE
  5
F10377
330
261
100
AcDbEntity
  8
Geo
100
AcDbLine
 10
-17.98859711728926
 20
-4.805875537839476
 30
0.0
 11
-17.88859711728926
 21
-4.826892372350075
 31
0.0
  0
LINE
  5
F10379
330
261
100
AcDbEntity
  8
Geo
100
AcDbLine
 10
-17.88859711728926
 20
-4.826892372350075
 30
0.0
 11
-17.78859711728926
 21
-4.847464979316875
 31
0.0
  0
LINE
  5
F1037B
330
261
100
AcDbEntity
  8
Geo
100
AcDbLine
 10
-17.78859711728926
 20
-4.847464979316875
 30
0.0
 11
-17.68859711728926
 21
-4.867591959250672
 31
0.0
  0
LINE
  5
F1037D
330
261
100
AcDbEntity
  8
Geo
100
AcDbLine
 10
-17.68859711728926
 20
-4.867591959250672
 30
0.0
 11
-17.58859711728925
 21
-4.887271942977074
 31
0.0
  0
LINE
  5
F1037F
330
261
100
AcDbEntity
  8
Geo
100
AcDbLine
 10
-17.58859711728925
 20
-4.887271942977074
 30
0.0
 11
-17.48859711728926
 21
-4.906503591728975
 31
0.0
  0
LINE
  5
F10381
330
261
100
AcDbEntity
  8
Geo
100
AcDbLine
 10
-17.48859711728926
 20
-4.906503591728975
 30
0.0
 11
-17.38859711728926
 21
-4.925285597238673
 31
0.0
  0
LINE
  5
F10383
330
261
100
AcDbEntity
  8
Geo
100
AcDbLine
 10
-17.38859711728926
 20
-4.925285597238673
 30
0.0
 11
-17.28859711728925
 21
-4.943616681825773
 31
0.0
  0
LINE
  5
F10385
330
261
100
AcDbEntity
  8
Geo
100
AcDbLine
 10
-17.28859711728925
 20
-4.943616681825773
 30
0.0
 11
-17.18859711728926
 21
-4.961495598484772
 31
0.0
  0
LINE
  5
F10387
330
261
100
AcDbEntity
  8
Geo
100
AcDbLine
 10
-17.18859711728926
 20
-4.961495598484772
 30
0.0
 11
-17.08859711728925
 21
-4.978921130969876
 31
0.0
  0
LINE
  5
F10389
330
261
100
AcDbEntity
  8
Geo
100
AcDbLine
 10
-17.08859711728925
 20
-4.978921130969876
 30
0.0
 11
-16.98859711728926
 21
-4.995892093877376
 31
0.0
  0
LINE
  5
F1038B
330
261
100
AcDbEntity
  8
Geo
100
AcDbLine
 10
-16.98859711728926
 20
-4.995892093877376
 30
0.0
 11
-16.88859711728926
 21
-5.012407332726475
 31
0.0
  0
LINE
  5
F1038D
330
261
100
AcDbEntity
  8
Geo
100
AcDbLine
 10
-16.88859711728926
 20
-5.012407332726475
 30
0.0
 11
-16.78859711728925
 21
-5.028465724037975
 31
0.0
  0
LINE
  5
F1038F
330
261
100
AcDbEntity
  8
Geo
100
AcDbLine
 10
-16.78859711728925
 20
-5.028465724037975
 30
0.0
 11
-16.68859711728926
 21
-5.044066175410474
 31
0.0
  0
LINE
  5
F10391
330
261
100
AcDbEntity
  8
Geo
100
AcDbLine
 10
-16.68859711728926
 20
-5.044066175410474
 30
0.0
 11
-16.58859711728925
 21
-5.059207625594774
 31
0.0
  0
LINE
  5
F10393
330
261
100
AcDbEntity
  8
Geo
100
AcDbLine
 10
-16.58859711728925
 20
-5.059207625594774
 30
0.0
 11
-16.48859711728926
 21
-5.073889044566175
 31
0.0
  0
LINE
  5
F10395
330
261
100
AcDbEntity
  8
Geo
100
AcDbLine
 10
-16.48859711728926
 20
-5.073889044566175
 30
0.0
 11
-16.38859711728926
 21
-5.088109433594173
 31
0.0
  0
LINE
  5
F10397
330
261
100
AcDbEntity
  8
Geo
100
AcDbLine
 10
-16.38859711728926
 20
-5.088109433594173
 30
0.0
 11
-16.28859711728926
 21
-5.101867825311076
 31
0.0
  0
LINE
  5
F10399
330
261
100
AcDbEntity
  8
Geo
100
AcDbLine
 10
-16.28859711728926
 20
-5.101867825311076
 30
0.0
 11
-16.18859711728926
 21
-5.115163283776976
 31
0.0
  0
LINE
  5
F1039B
330
261
100
AcDbEntity
  8
Geo
100
AcDbLine
 10
-16.18859711728926
 20
-5.115163283776976
 30
0.0
 11
-16.08859711728925
 21
-5.127994904544173
 31
0.0
  0
LINE
  5
F1039D
330
261
100
AcDbEntity
  8
Geo
100
AcDbLine
 10
-16.08859711728925
 20
-5.127994904544173
 30
0.0
 11
-15.98859711728936
 21
-5.140361814718273
 31
0.0
  0
LINE
  5
F1039F
330
261
100
AcDbEntity
  8
Geo
100
AcDbLine
 10
-15.98859711728936
 20
-5.140361814718273
 30
0.0
 11
-15.98859711728936
 21
-5.140361814718273
 31
0.0
  0
LINE
  5
F103A1
330
261
100
AcDbEntity
  8
Geo
100
AcDbLine
 10
-15.98859711728936
 20
-5.140361814718273
 30
0.0
 11
-15.88859711728935
 21
-5.136961259485476
 31
0.0
  0
LINE
  5
F103A3
330
261
100
AcDbEntity
  8
Geo
100
AcDbLine
 10
-15.88859711728935
 20
-5.136961259485476
 30
0.0
 11
-15.78859711728935
 21
-5.133524432084573
 31
0.0
  0
LINE
  5
F103A5
330
261
100
AcDbEntity
  8
Geo
100
AcDbLine
 10
-15.78859711728935
 20
-5.133524432084573
 30
0.0
 11
-15.68859711728936
 21
-5.130051347075376
 31
0.0
  0
LINE
  5
F103A7
330
261
100
AcDbEntity
  8
Geo
100
AcDbLine
 10
-15.68859711728936
 20
-5.130051347075376
 30
0.0
 11
-15.58859711728935
 21
-5.126542019212774
 31
0.0
  0
LINE
  5
F103A9
330
261
100
AcDbEntity
  8
Geo
100
AcDbLine
 10
-15.58859711728935
 20
-5.126542019212774
 30
0.0
 11
-15.48859711728936
 21
-5.122996463445774
 31
0.0
  0
LINE
  5
F103AB
330
261
100
AcDbEntity
  8
Geo
100
AcDbLine
 10
-15.48859711728936
 20
-5.122996463445774
 30
0.0
 11
-15.38859711728935
 21
-5.119414694918173
 31
0.0
  0
LINE
  5
F103AD
330
261
100
AcDbEntity
  8
Geo
100
AcDbLine
 10
-15.38859711728935
 20
-5.119414694918173
 30
0.0
 11
-15.28859711728935
 21
-5.115796728968273
 31
0.0
  0
LINE
  5
F103AF
330
261
100
AcDbEntity
  8
Geo
100
AcDbLine
 10
-15.28859711728935
 20
-5.115796728968273
 30
0.0
 11
-15.18859711728936
 21
-5.112142581128575
 31
0.0
  0
LINE
  5
F103B1
330
261
100
AcDbEntity
  8
Geo
100
AcDbLine
 10
-15.18859711728936
 20
-5.112142581128575
 30
0.0
 11
-15.08859711728935
 21
-5.108452267126375
 31
0.0
  0
LINE
  5
F103B3
330
261
100
AcDbEntity
  8
Geo
100
AcDbLine
 10
-15.08859711728935
 20
-5.108452267126375
 30
0.0
 11
-14.98859711728936
 21
-5.104725802883075
 31
0.0
  0
LINE
  5
F103B5
330
261
100
AcDbEntity
  8
Geo
100
AcDbLine
 10
-14.98859711728936
 20
-5.104725802883075
 30
0.0
 11
-14.88859711728935
 21
-5.100963204514377
 31
0.0
  0
LINE
  5
F103B7
330
261
100
AcDbEntity
  8
Geo
100
AcDbLine
 10
-14.88859711728935
 20
-5.100963204514377
 30
0.0
 11
-14.78859711728935
 21
-5.097164488330475
 31
0.0
  0
LINE
  5
F103B9
330
261
100
AcDbEntity
  8
Geo
100
AcDbLine
 10
-14.78859711728935
 20
-5.097164488330475
 30
0.0
 11
-14.68859711728936
 21
-5.093329670835773
 31
0.0
  0
LINE
  5
F103BB
330
261
100
AcDbEntity
  8
Geo
100
AcDbLine
 10
-14.68859711728936
 20
-5.093329670835773
 30
0.0
 11
-14.58859711728935
 21
-5.089458768728874
 31
0.0
  0
LINE
  5
F103BD
330
261
100
AcDbEntity
  8
Geo
100
AcDbLine
 10
-14.58859711728935
 20
-5.089458768728874
 30
0.0
 11
-14.48859711728936
 21
-5.085551798902374
 31
0.0
  0
LINE
  5
F103BF
330
261
100
AcDbEntity
  8
Geo
100
AcDbLine
 10
-14.48859711728936
 20
-5.085551798902374
 30
0.0
 11
-14.38859711728935
 21
-5.081608778443273
 31
0.0
  0
LINE
  5
F103C1
330
261
100
AcDbEntity
  8
Geo
100
AcDbLine
 10
-14.38859711728935
 20
-5.081608778443273
 30
0.0
 11
-14.28859711728935
 21
-5.077629724632474
 31
0.0
  0
LINE
  5
F103C3
330
261
100
AcDbEntity
  8
Geo
100
AcDbLine
 10
-14.28859711728935
 20
-5.077629724632474
 30
0.0
 11
-14.18859711728936
 21
-5.073614654944973
 31
0.0
  0
LINE
  5
F103C5
330
261
100
AcDbEntity
  8
Geo
100
AcDbLine
 10
-14.18859711728936
 20
-5.073614654944973
 30
0.0
 11
-14.08859711728935
 21
-5.069563587049774
 31
0.0
  0
LINE
  5
F103C7
330
261
100
AcDbEntity
  8
Geo
100
AcDbLine
 10
-14.08859711728935
 20
-5.069563587049774
 30
0.0
 11
-13.98859711728936
 21
-5.065476538809773
 31
0.0
  0
LINE
  5
F103C9
330
261
100
AcDbEntity
  8
Geo
100
AcDbLine
 10
-13.98859711728936
 20
-5.065476538809773
 30
0.0
 11
-13.88859711728935
 21
-5.061353528281673
 31
0.0
  0
LINE
  5
F103CB
330
261
100
AcDbEntity
  8
Geo
100
AcDbLine
 10
-13.88859711728935
 20
-5.061353528281673
 30
0.0
 11
-13.78859711728935
 21
-5.057194573716275
 31
0.0
  0
LINE
  5
F103CD
330
261
100
AcDbEntity
  8
Geo
100
AcDbLine
 10
-13.78859711728935
 20
-5.057194573716275
 30
0.0
 11
-13.68859711728936
 21
-5.052999693557874
 31
0.0
  0
LINE
  5
F103CF
330
261
100
AcDbEntity
  8
Geo
100
AcDbLine
 10
-13.68859711728936
 20
-5.052999693557874
 30
0.0
 11
-13.58859711728935
 21
-5.048768906444575
 31
0.0
  0
LINE
  5
F103D1
330
261
100
AcDbEntity
  8
Geo
100
AcDbLine
 10
-13.58859711728935
 20
-5.048768906444575
 30
0.0
 11
-13.48859711728936
 21
-5.044502231208273
 31
0.0
  0
LINE
  5
F103D3
330
261
100
AcDbEntity
  8
Geo
100
AcDbLine
 10
-13.48859711728936
 20
-5.044502231208273
 30
0.0
 11
-13.38859711728935
 21
-5.040199686874373
 31
0.0
  0
LINE
  5
F103D5
330
261
100
AcDbEntity
  8
Geo
100
AcDbLine
 10
-13.38859711728935
 20
-5.040199686874373
 30
0.0
 11
-13.28859711728936
 21
-5.035861292661975
 31
0.0
  0
LINE
  5
F103D7
330
261
100
AcDbEntity
  8
Geo
100
AcDbLine
 10
-13.28859711728936
 20
-5.035861292661975
 30
0.0
 11
-13.18859711728936
 21
-5.031487067983375
 31
0.0
  0
LINE
  5
F103D9
330
261
100
AcDbEntity
  8
Geo
100
AcDbLine
 10
-13.18859711728936
 20
-5.031487067983375
 30
0.0
 11
-13.08859711728935
 21
-5.027077032444674
 31
0.0
  0
LINE
  5
F103DB
330
261
100
AcDbEntity
  8
Geo
100
AcDbLine
 10
-13.08859711728935
 20
-5.027077032444674
 30
0.0
 11
-12.98859711728936
 21
-5.022631205845273
 31
0.0
  0
LINE
  5
F103DD
330
261
100
AcDbEntity
  8
Geo
100
AcDbLine
 10
-12.98859711728936
 20
-5.022631205845273
 30
0.0
 11
-12.88859711728935
 21
-5.018149608177674
 31
0.0
  0
LINE
  5
F103DF
330
261
100
AcDbEntity
  8
Geo
100
AcDbLine
 10
-12.88859711728935
 20
-5.018149608177674
 30
0.0
 11
-12.78859711728935
 21
-5.013632259627875
 31
0.0
  0
LINE
  5
F103E1
330
261
100
AcDbEntity
  8
Geo
100
AcDbLine
 10
-12.78859711728935
 20
-5.013632259627875
 30
0.0
 11
-12.68859711728936
 21
-5.009079180574973
 31
0.0
  0
LINE
  5
F103E3
330
261
100
AcDbEntity
  8
Geo
100
AcDbLine
 10
-12.68859711728936
 20
-5.009079180574973
 30
0.0
 11
-12.58859711728935
 21
-5.004490391591474
 31
0.0
  0
LINE
  5
F103E5
330
261
100
AcDbEntity
  8
Geo
100
AcDbLine
 10
-12.58859711728935
 20
-5.004490391591474
 30
0.0
 11
-12.48859711728926
 21
-4.999865913442375
 31
0.0
  0
LINE
  5
F103E7
330
261
100
AcDbEntity
  8
Geo
100
AcDbLine
 10
-12.48859711728926
 20
-4.999865913442375
 30
0.0
 11
-12.38859711728926
 21
-4.995205767086376
 31
0.0
  0
LINE
  5
F103E9
330
261
100
AcDbEntity
  8
Geo
100
AcDbLine
 10
-12.38859711728926
 20
-4.995205767086376
 30
0.0
 11
-12.28859711728925
 21
-4.990509973674575
 31
0.0
  0
LINE
  5
F103EB
330
261
100
AcDbEntity
  8
Geo
100
AcDbLine
 10
-12.28859711728925
 20
-4.990509973674575
 30
0.0
 11
-12.18859711728926
 21
-4.985778554551174
 31
0.0
  0
LINE
  5
F103ED
330
261
100
AcDbEntity
  8
Geo
100
AcDbLine
 10
-12.18859711728926
 20
-4.985778554551174
 30
0.0
 11
-12.08859711728925
 21
-4.981011531253274
 31
0.0
  0
LINE
  5
F103EF
330
261
100
AcDbEntity
  8
Geo
100
AcDbLine
 10
-12.08859711728925
 20
-4.981011531253274
 30
0.0
 11
-11.98859711728926
 21
-4.976208925510475
 31
0.0
  0
LINE
  5
F103F1
330
261
100
AcDbEntity
  8
Geo
100
AcDbLine
 10
-11.98859711728926
 20
-4.976208925510475
 30
0.0
 11
-11.88859711728926
 21
-4.971370759245273
 31
0.0
  0
LINE
  5
F103F3
330
261
100
AcDbEntity
  8
Geo
100
AcDbLine
 10
-11.88859711728926
 20
-4.971370759245273
 30
0.0
 11
-11.78859711728925
 21
-4.966497054572574
 31
0.0
  0
LINE
  5
F103F5
330
261
100
AcDbEntity
  8
Geo
100
AcDbLine
 10
-11.78859711728925
 20
-4.966497054572574
 30
0.0
 11
-11.68859711728926
 21
-4.961587833799773
 31
0.0
  0
LINE
  5
F103F7
330
261
100
AcDbEntity
  8
Geo
100
AcDbLine
 10
-11.68859711728926
 20
-4.961587833799773
 30
0.0
 11
-11.58859711728926
 21
-4.956643119427074
 31
0.0
  0
LINE
  5
F103F9
330
261
100
AcDbEntity
  8
Geo
100
AcDbLine
 10
-11.58859711728926
 20
-4.956643119427074
 30
0.0
 11
-11.48859711728926
 21
-4.951662934146575
 31
0.0
  0
LINE
  5
F103FB
330
261
100
AcDbEntity
  8
Geo
100
AcDbLine
 10
-11.48859711728926
 20
-4.951662934146575
 30
0.0
 11
-11.38859711728926
 21
-4.946647300842975
 31
0.0
  0
LINE
  5
F103FD
330
261
100
AcDbEntity
  8
Geo
100
AcDbLine
 10
-11.38859711728926
 20
-4.946647300842975
 30
0.0
 11
-11.28859711728925
 21
-4.941596242593075
 31
0.0
  0
LINE
  5
F103FF
330
261
100
AcDbEntity
  8
Geo
100
AcDbLine
 10
-11.28859711728925
 20
-4.941596242593075
 30
0.0
 11
-11.18859711728926
 21
-4.936509782665774
 31
0.0
  0
LINE
  5
F10401
330
261
100
AcDbEntity
  8
Geo
100
AcDbLine
 10
-11.18859711728926
 20
-4.936509782665774
 30
0.0
 11
-11.08859711728926
 21
-4.931387944522274
 31
0.0
  0
LINE
  5
F10403
330
261
100
AcDbEntity
  8
Geo
100
AcDbLine
 10
-11.08859711728926
 20
-4.931387944522274
 30
0.0
 11
-10.98859711728926
 21
-4.926230751815374
 31
0.0
  0
LINE
  5
F10405
330
261
100
AcDbEntity
  8
Geo
100
AcDbLine
 10
-10.98859711728926
 20
-4.926230751815374
 30
0.0
 11
-10.88859711728926
 21
-4.921038228390075
 31
0.0
  0
LINE
  5
F10407
330
261
100
AcDbEntity
  8
Geo
100
AcDbLine
 10
-10.88859711728926
 20
-4.921038228390075
 30
0.0
 11
-10.78859711728926
 21
-4.915810398283076
 31
0.0
  0
LINE
  5
F10409
330
261
100
AcDbEntity
  8
Geo
100
AcDbLine
 10
-10.78859711728926
 20
-4.915810398283076
 30
0.0
 11
-10.68859711728926
 21
-4.910547285722675
 31
0.0
  0
LINE
  5
F1040B
330
261
100
AcDbEntity
  8
Geo
100
AcDbLine
 10
-10.68859711728926
 20
-4.910547285722675
 30
0.0
 11
-10.58859711728926
 21
-4.905248915129174
 31
0.0
  0
LINE
  5
F1040D
330
261
100
AcDbEntity
  8
Geo
100
AcDbLine
 10
-10.58859711728926
 20
-4.905248915129174
 30
0.0
 11
-10.48859711728926
 21
-4.899915311114174
 31
0.0
  0
LINE
  5
F1040F
330
261
100
AcDbEntity
  8
Geo
100
AcDbLine
 10
-10.48859711728926
 20
-4.899915311114174
 30
0.0
 11
-10.38859711728925
 21
-4.894546498480673
 31
0.0
  0
LINE
  5
F10411
330
261
100
AcDbEntity
  8
Geo
100
AcDbLine
 10
-10.38859711728925
 20
-4.894546498480673
 30
0.0
 11
-10.28859711728925
 21
-4.889142502223172
 31
0.0
  0
LINE
  5
F10413
330
261
100
AcDbEntity
  8
Geo
100
AcDbLine
 10
-10.28859711728925
 20
-4.889142502223172
 30
0.0
 11
-10.18859711728926
 21
-4.883703347527575
 31
0.0
  0
LINE
  5
F10415
330
261
100
AcDbEntity
  8
Geo
100
AcDbLine
 10
-10.18859711728926
 20
-4.883703347527575
 30
0.0
 11
-10.08859711728926
 21
-4.878229059770774
 31
0.0
  0
LINE
  5
F10417
330
261
100
AcDbEntity
  8
Geo
100
AcDbLine
 10
-10.08859711728926
 20
-4.878229059770774
 30
0.0
 11
-9.988597117289259
 21
-4.872719664520975
 31
0.0
  0
LINE
  5
F10419
330
261
100
AcDbEntity
  8
Geo
100
AcDbLine
 10
-9.988597117289259
 20
-4.872719664520975
 30
0.0
 11
-9.888597117289258
 21
-4.867175187537274
 31
0.0
  0
LINE
  5
F1041B
330
261
100
AcDbEntity
  8
Geo
100
AcDbLine
 10
-9.888597117289258
 20
-4.867175187537274
 30
0.0
 11
-9.788597117289256
 21
-4.861595654769674
 31
0.0
  0
LINE
  5
F1041D
330
261
100
AcDbEntity
  8
Geo
100
AcDbLine
 10
-9.788597117289256
 20
-4.861595654769674
 30
0.0
 11
-9.688597117289262
 21
-4.855981092359275
 31
0.0
  0
LINE
  5
F1041F
330
261
100
AcDbEntity
  8
Geo
100
AcDbLine
 10
-9.688597117289262
 20
-4.855981092359275
 30
0.0
 11
-9.588597117289261
 21
-4.850331526637475
 31
0.0
  0
LINE
  5
F10421
330
261
100
AcDbEntity
  8
Geo
100
AcDbLine
 10
-9.588597117289261
 20
-4.850331526637475
 30
0.0
 11
-9.488597117289259
 21
-4.844646984126674
 31
0.0
  0
LINE
  5
F10423
330
261
100
AcDbEntity
  8
Geo
100
AcDbLine
 10
-9.488597117289259
 20
-4.844646984126674
 30
0.0
 11
-9.388597117289258
 21
-4.838927491539674
 31
0.0
  0
LINE
  5
F10425
330
261
100
AcDbEntity
  8
Geo
100
AcDbLine
 10
-9.388597117289258
 20
-4.838927491539674
 30
0.0
 11
-9.288597117289256
 21
-4.833173075779773
 31
0.0
  0
LINE
  5
F10427
330
261
100
AcDbEntity
  8
Geo
100
AcDbLine
 10
-9.288597117289256
 20
-4.833173075779773
 30
0.0
 11
-9.188597117289262
 21
-4.827383763940675
 31
0.0
  0
LINE
  5
F10429
330
261
100
AcDbEntity
  8
Geo
100
AcDbLine
 10
-9.188597117289262
 20
-4.827383763940675
 30
0.0
 11
-9.088597117289261
 21
-4.821559583306076
 31
0.0
  0
LINE
  5
F1042B
330
261
100
AcDbEntity
  8
Geo
100
AcDbLine
 10
-9.088597117289261
 20
-4.821559583306076
 30
0.0
 11
-8.988597117289259
 21
-4.815700561350174
 31
0.0
  0
LINE
  5
F1042D
330
261
100
AcDbEntity
  8
Geo
100
AcDbLine
 10
-8.988597117289259
 20
-4.815700561350174
 30
0.0
 11
-8.888597117289258
 21
-4.809806725736974
 31
0.0
  0
LINE
  5
F1042F
330
261
100
AcDbEntity
  8
Geo
100
AcDbLine
 10
-8.888597117289258
 20
-4.809806725736974
 30
0.0
 11
-8.788597117289256
 21
-4.803878104320375
 31
0.0
  0
LINE
  5
F10431
330
261
100
AcDbEntity
  8
Geo
100
AcDbLine
 10
-8.788597117289256
 20
-4.803878104320375
 30
0.0
 11
-8.688597117289262
 21
-4.797914725144375
 31
0.0
  0
LINE
  5
F10433
330
261
100
AcDbEntity
  8
Geo
100
AcDbLine
 10
-8.688597117289262
 20
-4.797914725144375
 30
0.0
 11
-8.588597117289261
 21
-4.791916616442374
 31
0.0
  0
LINE
  5
F10435
330
261
100
AcDbEntity
  8
Geo
100
AcDbLine
 10
-8.588597117289261
 20
-4.791916616442374
 30
0.0
 11
-8.488597117289259
 21
-4.785883806637775
 31
0.0
  0
LINE
  5
F10437
330
261
100
AcDbEntity
  8
Geo
100
AcDbLine
 10
-8.488597117289259
 20
-4.785883806637775
 30
0.0
 11
-8.388597117289258
 21
-4.779816324343174
 31
0.0
  0
LINE
  5
F10439
330
261
100
AcDbEntity
  8
Geo
100
AcDbLine
 10
-8.388597117289258
 20
-4.779816324343174
 30
0.0
 11
-8.288597117289256
 21
-4.773714198360575
 31
0.0
  0
LINE
  5
F1043B
330
261
100
AcDbEntity
  8
Geo
100
AcDbLine
 10
-8.288597117289256
 20
-4.773714198360575
 30
0.0
 11
-8.188597117289262
 21
-4.767577457681573
 31
0.0
  0
LINE
  5
F1043D
330
261
100
AcDbEntity
  8
Geo
100
AcDbLine
 10
-8.188597117289262
 20
-4.767577457681573
 30
0.0
 11
-8.088597117289261
 21
-4.761406131486774
 31
0.0
  0
LINE
  5
F1043F
330
261
100
AcDbEntity
  8
Geo
100
AcDbLine
 10
-8.088597117289261
 20
-4.761406131486774
 30
0.0
 11
-7.988597117289259
 21
-4.755200249145673
 31
0.0
  0
LINE
  5
F10441
330
261
100
AcDbEntity
  8
Geo
100
AcDbLine
 10
-7.988597117289259
 20
-4.755200249145673
 30
0.0
 11
-7.888597117289258
 21
-4.748959840216974
 31
0.0
  0
LINE
  5
F10443
330
261
100
AcDbEntity
  8
Geo
100
AcDbLine
 10
-7.888597117289258
 20
-4.748959840216974
 30
0.0
 11
-7.788597117289256
 21
-4.742684934448174
 31
0.0
  0
LINE
  5
F10445
330
261
100
AcDbEntity
  8
Geo
100
AcDbLine
 10
-7.788597117289256
 20
-4.742684934448174
 30
0.0
 11
-7.688597117289262
 21
-4.736375561775375
 31
0.0
  0
LINE
  5
F10447
330
261
100
AcDbEntity
  8
Geo
100
AcDbLine
 10
-7.688597117289262
 20
-4.736375561775375
 30
0.0
 11
-7.588597117289261
 21
-4.730031752323574
 31
0.0
  0
LINE
  5
F10449
330
261
100
AcDbEntity
  8
Geo
100
AcDbLine
 10
-7.588597117289261
 20
-4.730031752323574
 30
0.0
 11
-7.488597117289259
 21
-4.723653536405974
 31
0.0
  0
LINE
  5
F1044B
330
261
100
AcDbEntity
  8
Geo
100
AcDbLine
 10
-7.488597117289259
 20
-4.723653536405974
 30
0.0
 11
-7.388597117289258
 21
-4.717240944524272
 31
0.0
  0
LINE
  5
F1044D
330
261
100
AcDbEntity
  8
Geo
100
AcDbLine
 10
-7.388597117289258
 20
-4.717240944524272
 30
0.0
 11
-7.288597117289256
 21
-4.710794007368475
 31
0.0
  0
LINE
  5
F1044F
330
261
100
AcDbEntity
  8
Geo
100
AcDbLine
 10
-7.288597117289256
 20
-4.710794007368475
 30
0.0
 11
-7.188597117289262
 21
-4.704312755816673
 31
0.0
  0
LINE
  5
F10451
330
261
100
AcDbEntity
  8
Geo
100
AcDbLine
 10
-7.188597117289262
 20
-4.704312755816673
 30
0.0
 11
-7.088597117289261
 21
-4.697797220934877
 31
0.0
  0
LINE
  5
F10453
330
261
100
AcDbEntity
  8
Geo
100
AcDbLine
 10
-7.088597117289261
 20
-4.697797220934877
 30
0.0
 11
-6.988597117289259
 21
-4.691247433977174
 31
0.0
  0
LINE
  5
F10455
330
261
100
AcDbEntity
  8
Geo
100
AcDbLine
 10
-6.988597117289259
 20
-4.691247433977174
 30
0.0
 11
-6.888597117289258
 21
-4.684663426385272
 31
0.0
  0
LINE
  5
F10457
330
261
100
AcDbEntity
  8
Geo
100
AcDbLine
 10
-6.888597117289258
 20
-4.684663426385272
 30
0.0
 11
-6.788597117289256
 21
-4.678045229788674
 31
0.0
  0
LINE
  5
F10459
330
261
100
AcDbEntity
  8
Geo
100
AcDbLine
 10
-6.788597117289256
 20
-4.678045229788674
 30
0.0
 11
-6.688597117289262
 21
-4.671392876004272
 31
0.0
  0
LINE
  5
F1045B
330
261
100
AcDbEntity
  8
Geo
100
AcDbLine
 10
-6.688597117289262
 20
-4.671392876004272
 30
0.0
 11
-6.588597117289261
 21
-4.664706397036475
 31
0.0
  0
LINE
  5
F1045D
330
261
100
AcDbEntity
  8
Geo
100
AcDbLine
 10
-6.588597117289261
 20
-4.664706397036475
 30
0.0
 11
-6.488597117289259
 21
-4.657985825076874
 31
0.0
  0
LINE
  5
F1045F
330
261
100
AcDbEntity
  8
Geo
100
AcDbLine
 10
-6.488597117289259
 20
-4.657985825076874
 30
0.0
 11
-6.388597117289258
 21
-4.651231192504074
 31
0.0
  0
LINE
  5
F10461
330
261
100
AcDbEntity
  8
Geo
100
AcDbLine
 10
-6.388597117289258
 20
-4.651231192504074
 30
0.0
 11
-6.288597117289256
 21
-4.644442531883974
 31
0.0
  0
LINE
  5
F10463
330
261
100
AcDbEntity
  8
Geo
100
AcDbLine
 10
-6.288597117289256
 20
-4.644442531883974
 30
0.0
 11
-6.188597117289262
 21
-4.637619875969175
 31
0.0
  0
LINE
  5
F10465
330
261
100
AcDbEntity
  8
Geo
100
AcDbLine
 10
-6.188597117289262
 20
-4.637619875969175
 30
0.0
 11
-6.088597117289261
 21
-4.630763257698976
 31
0.0
  0
LINE
  5
F10467
330
261
100
AcDbEntity
  8
Geo
100
AcDbLine
 10
-6.088597117289261
 20
-4.630763257698976
 30
0.0
 11
-5.988597117289259
 21
-4.623872710199373
 31
0.0
  0
LINE
  5
F10469
330
261
100
AcDbEntity
  8
Geo
100
AcDbLine
 10
-5.988597117289259
 20
-4.623872710199373
 30
0.0
 11
-5.888597117289258
 21
-4.616948266782975
 31
0.0
  0
LINE
  5
F1046B
330
261
100
AcDbEntity
  8
Geo
100
AcDbLine
 10
-5.888597117289258
 20
-4.616948266782975
 30
0.0
 11
-5.788597117289256
 21
-4.609989960948476
 31
0.0
  0
LINE
  5
F1046D
330
261
100
AcDbEntity
  8
Geo
100
AcDbLine
 10
-5.788597117289256
 20
-4.609989960948476
 30
0.0
 11
-5.688597117289262
 21
-4.602997826380876
 31
0.0
  0
LINE
  5
F1046F
330
261
100
AcDbEntity
  8
Geo
100
AcDbLine
 10
-5.688597117289262
 20
-4.602997826380876
 30
0.0
 11
-5.588597117289261
 21
-4.595971896951272
 31
0.0
  0
LINE
  5
F10471
330
261
100
AcDbEntity
  8
Geo
100
AcDbLine
 10
-5.588597117289261
 20
-4.595971896951272
 30
0.0
 11
-5.488597117289259
 21
-4.588912206716674
 31
0.0
  0
LINE
  5
F10473
330
261
100
AcDbEntity
  8
Geo
100
AcDbLine
 10
-5.488597117289259
 20
-4.588912206716674
 30
0.0
 11
-5.388597117289151
 21
-4.581818789919875
 31
0.0
  0
LINE
  5
F10475
330
261
100
AcDbEntity
  8
Geo
100
AcDbLine
 10
-5.388597117289151
 20
-4.581818789919875
 30
0.0
 11
-5.288597117289157
 21
-4.574691680989474
 31
0.0
  0
LINE
  5
F10477
330
261
100
AcDbEntity
  8
Geo
100
AcDbLine
 10
-5.288597117289157
 20
-4.574691680989474
 30
0.0
 11
-5.188597117289155
 21
-4.567530914539275
 31
0.0
  0
LINE
  5
F10479
330
261
100
AcDbEntity
  8
Geo
100
AcDbLine
 10
-5.188597117289155
 20
-4.567530914539275
 30
0.0
 11
-5.088597117289154
 21
-4.560336525368676
 31
0.0
  0
LINE
  5
F1047B
330
261
100
AcDbEntity
  8
Geo
100
AcDbLine
 10
-5.088597117289154
 20
-4.560336525368676
 30
0.0
 11
-4.988597117289153
 21
-4.553108548462272
 31
0.0
  0
LINE
  5
F1047D
330
261
100
AcDbEntity
  8
Geo
100
AcDbLine
 10
-4.988597117289153
 20
-4.553108548462272
 30
0.0
 11
-4.888597117289151
 21
-4.545847018989675
 31
0.0
  0
LINE
  5
F1047F
330
261
100
AcDbEntity
  8
Geo
100
AcDbLine
 10
-4.888597117289151
 20
-4.545847018989675
 30
0.0
 11
-4.788597117289157
 21
-4.538551972305477
 31
0.0
  0
LINE
  5
F10481
330
261
100
AcDbEntity
  8
Geo
100
AcDbLine
 10
-4.788597117289157
 20
-4.538551972305477
 30
0.0
 11
-4.688597117289155
 21
-4.531223443949073
 31
0.0
  0
LINE
  5
F10483
330
261
100
AcDbEntity
  8
Geo
100
AcDbLine
 10
-4.688597117289155
 20
-4.531223443949073
 30
0.0
 11
-4.588597117289154
 21
-4.523861469644472
 31
0.0
  0
LINE
  5
F10485
330
261
100
AcDbEntity
  8
Geo
100
AcDbLine
 10
-4.588597117289154
 20
-4.523861469644472
 30
0.0
 11
-4.488597117289153
 21
-4.516466085300177
 31
0.0
  0
LINE
  5
F10487
330
261
100
AcDbEntity
  8
Geo
100
AcDbLine
 10
-4.488597117289153
 20
-4.516466085300177
 30
0.0
 11
-4.388597117289151
 21
-4.509037327008975
 31
0.0
  0
LINE
  5
F10489
330
261
100
AcDbEntity
  8
Geo
100
AcDbLine
 10
-4.388597117289151
 20
-4.509037327008975
 30
0.0
 11
-4.288597117289157
 21
-4.501575231048075
 31
0.0
  0
LINE
  5
F1048B
330
261
100
AcDbEntity
  8
Geo
100
AcDbLine
 10
-4.288597117289157
 20
-4.501575231048075
 30
0.0
 11
-4.188597117289155
 21
-4.494079833878377
 31
0.0
  0
LINE
  5
F1048D
330
261
100
AcDbEntity
  8
Geo
100
AcDbLine
 10
-4.188597117289155
 20
-4.494079833878377
 30
0.0
 11
-4.088597117289154
 21
-4.486551172144874
 31
0.0
  0
LINE
  5
F1048F
330
261
100
AcDbEntity
  8
Geo
100
AcDbLine
 10
-4.088597117289154
 20
-4.486551172144874
 30
0.0
 11
-3.988597117289153
 21
-4.478989282676472
 31
0.0
  0
LINE
  5
F10491
330
261
100
AcDbEntity
  8
Geo
100
AcDbLine
 10
-3.988597117289153
 20
-4.478989282676472
 30
0.0
 11
-3.888597117289357
 21
-4.471394202485175
 31
0.0
  0
LINE
  5
F10493
330
261
100
AcDbEntity
  8
Geo
100
AcDbLine
 10
-41.98859711728935
 20
4.554367942913724
 30
0.0
 11
-41.88859711728935
 21
4.544226234793026
 31
0.0
  0
LINE
  5
F10495
330
261
100
AcDbEntity
  8
Geo
100
AcDbLine
 10
-41.88859711728935
 20
4.544226234793026
 30
0.0
 11
-41.78859711728934
 21
4.524327026524726
 31
0.0
  0
LINE
  5
F10497
330
261
100
AcDbEntity
  8
Geo
100
AcDbLine
 10
-41.78859711728934
 20
4.524327026524726
 30
0.0
 11
-41.68859711728934
 21
4.471392713260822
 31
0.0
  0
LINE
  5
F10499
330
261
100
AcDbEntity
  8
Geo
100
AcDbLine
 10
-41.68859711728934
 20
4.471392713260822
 30
0.0
 11
-41.58859711728934
 21
4.418270094726125
 31
0.0
  0
LINE
  5
F1049B
330
261
100
AcDbEntity
  8
Geo
100
AcDbLine
 10
-41.58859711728934
 20
4.418270094726125
 30
0.0
 11
-41.48859711728934
 21
4.364962784683722
 31
0.0
  0
LINE
  5
F1049D
330
261
100
AcDbEntity
  8
Geo
100
AcDbLine
 10
-41.48859711728934
 20
4.364962784683722
 30
0.0
 11
-41.38859711728935
 21
4.311474409460821
 31
0.0
  0
LINE
  5
F1049F
330
261
100
AcDbEntity
  8
Geo
100
AcDbLine
 10
-41.38859711728935
 20
4.311474409460821
 30
0.0
 11
-41.28859711728934
 21
4.257808607701626
 31
0.0
  0
LINE
  5
F104A1
330
261
100
AcDbEntity
  8
Geo
100
AcDbLine
 10
-41.28859711728934
 20
4.257808607701626
 30
0.0
 11
-41.18859711728934
 21
4.203969030120227
 31
0.0
  0
LINE
  5
F104A3
330
261
100
AcDbEntity
  8
Geo
100
AcDbLine
 10
-41.18859711728934
 20
4.203969030120227
 30
0.0
 11
-41.08859711728934
 21
4.149959339252326
 31
0.0
  0
LINE
  5
F104A5
330
261
100
AcDbEntity
  8
Geo
100
AcDbLine
 10
-41.08859711728934
 20
4.149959339252326
 30
0.0
 11
-40.98859711728934
 21
4.095783209205624
 31
0.0
  0
LINE
  5
F104A7
330
261
100
AcDbEntity
  8
Geo
100
AcDbLine
 10
-40.98859711728934
 20
4.095783209205624
 30
0.0
 11
-40.88859711728935
 21
4.041444325410225
 31
0.0
  0
LINE
  5
F104A9
330
261
100
AcDbEntity
  8
Geo
100
AcDbLine
 10
-40.88859711728935
 20
4.041444325410225
 30
0.0
 11
-40.78859711728934
 21
3.986946384367925
 31
0.0
  0
LINE
  5
F104AB
330
261
100
AcDbEntity
  8
Geo
100
AcDbLine
 10
-40.78859711728934
 20
3.986946384367925
 30
0.0
 11
-40.68859711728935
 21
3.932293093400726
 31
0.0
  0
LINE
  5
F104AD
330
261
100
AcDbEntity
  8
Geo
100
AcDbLine
 10
-40.68859711728935
 20
3.932293093400726
 30
0.0
 11
-40.58859711728934
 21
3.877488170398322
 31
0.0
  0
LINE
  5
F104AF
330
261
100
AcDbEntity
  8
Geo
100
AcDbLine
 10
-40.58859711728934
 20
3.877488170398322
 30
0.0
 11
-40.48859711728934
 21
3.822535343565725
 31
0.0
  0
LINE
  5
F104B1
330
261
100
AcDbEntity
  8
Geo
100
AcDbLine
 10
-40.48859711728934
 20
3.822535343565725
 30
0.0
 11
-40.38859711728934
 21
3.767438351169225
 31
0.0
  0
LINE
  5
F104B3
330
261
100
AcDbEntity
  8
Geo
100
AcDbLine
 10
-40.38859711728934
 20
3.767438351169225
 30
0.0
 11
-40.28859711728934
 21
3.712200941282425
 31
0.0
  0
LINE
  5
F104B5
330
261
100
AcDbEntity
  8
Geo
100
AcDbLine
 10
-40.28859711728934
 20
3.712200941282425
 30
0.0
 11
-40.18859711728935
 21
3.656826871530824
 31
0.0
  0
LINE
  5
F104B7
330
261
100
AcDbEntity
  8
Geo
100
AcDbLine
 10
-40.18859711728935
 20
3.656826871530824
 30
0.0
 11
-40.08859711728933
 21
3.601319908836622
 31
0.0
  0
LINE
  5
F104B9
330
261
100
AcDbEntity
  8
Geo
100
AcDbLine
 10
-40.08859711728933
 20
3.601319908836622
 30
0.0
 11
-39.98859711728935
 21
3.545683829162321
 31
0.0
  0
LINE
  5
F104BB
330
261
100
AcDbEntity
  8
Geo
100
AcDbLine
 10
-39.98859711728935
 20
3.545683829162321
 30
0.0
 11
-39.88859711728935
 21
3.489922417253723
 31
0.0
  0
LINE
  5
F104BD
330
261
100
AcDbEntity
  8
Geo
100
AcDbLine
 10
-39.88859711728935
 20
3.489922417253723
 30
0.0
 11
-39.78859711728934
 21
3.434039466382625
 31
0.0
  0
LINE
  5
F104BF
330
261
100
AcDbEntity
  8
Geo
100
AcDbLine
 10
-39.78859711728934
 20
3.434039466382625
 30
0.0
 11
-39.68859711728935
 21
3.378038778088924
 31
0.0
  0
LINE
  5
F104C1
330
261
100
AcDbEntity
  8
Geo
100
AcDbLine
 10
-39.68859711728935
 20
3.378038778088924
 30
0.0
 11
-39.58859711728934
 21
3.321924161921526
 31
0.0
  0
LINE
  5
F104C3
330
261
100
AcDbEntity
  8
Geo
100
AcDbLine
 10
-39.58859711728934
 20
3.321924161921526
 30
0.0
 11
-39.48859711728935
 21
3.265699435179623
 31
0.0
  0
LINE
  5
F104C5
330
261
100
AcDbEntity
  8
Geo
100
AcDbLine
 10
-39.48859711728935
 20
3.265699435179623
 30
0.0
 11
-39.38859711728935
 21
3.209368422652822
 31
0.0
  0
LINE
  5
F104C7
330
261
100
AcDbEntity
  8
Geo
100
AcDbLine
 10
-39.38859711728935
 20
3.209368422652822
 30
0.0
 11
-39.28859711728934
 21
3.152934956361228
 31
0.0
  0
LINE
  5
F104C9
330
261
100
AcDbEntity
  8
Geo
100
AcDbLine
 10
-39.28859711728934
 20
3.152934956361228
 30
0.0
 11
-39.18859711728935
 21
3.096402875294323
 31
0.0
  0
LINE
  5
F104CB
330
261
100
AcDbEntity
  8
Geo
100
AcDbLine
 10
-39.18859711728935
 20
3.096402875294323
 30
0.0
 11
-39.08859711728934
 21
3.039776025150029
 31
0.0
  0
LINE
  5
F104CD
330
261
100
AcDbEntity
  8
Geo
100
AcDbLine
 10
-39.08859711728934
 20
3.039776025150029
 30
0.0
 11
-38.98859711728935
 21
2.983058258073224
 31
0.0
  0
LINE
  5
F104CF
330
261
100
AcDbEntity
  8
Geo
100
AcDbLine
 10
-38.98859711728935
 20
2.983058258073224
 30
0.0
 11
-38.88859711728935
 21
2.926253432393622
 31
0.0
  0
LINE
  5
F104D1
330
261
100
AcDbEntity
  8
Geo
100
AcDbLine
 10
-38.88859711728935
 20
2.926253432393622
 30
0.0
 11
-38.78859711728934
 21
2.869365412363023
 31
0.0
  0
LINE
  5
F104D3
330
261
100
AcDbEntity
  8
Geo
100
AcDbLine
 10
-38.78859711728934
 20
2.869365412363023
 30
0.0
 11
-38.68859711728935
 21
2.812398067893028
 31
0.0
  0
LINE
  5
F104D5
330
261
100
AcDbEntity
  8
Geo
100
AcDbLine
 10
-38.68859711728935
 20
2.812398067893028
 30
0.0
 11
-38.58859711728934
 21
2.755355274291023
 31
0.0
  0
LINE
  5
F104D7
330
261
100
AcDbEntity
  8
Geo
100
AcDbLine
 10
-38.58859711728934
 20
2.755355274291023
 30
0.0
 11
-38.48859711728934
 21
2.698240911997224
 31
0.0
  0
LINE
  5
F104D9
330
261
100
AcDbEntity
  8
Geo
100
AcDbLine
 10
-38.48859711728934
 20
2.698240911997224
 30
0.0
 11
-38.38859711728935
 21
2.641058866320424
 31
0.0
  0
LINE
  5
F104DB
330
261
100
AcDbEntity
  8
Geo
100
AcDbLine
 10
-38.38859711728935
 20
2.641058866320424
 30
0.0
 11
-38.28859711728934
 21
2.583813027173523
 31
0.0
  0
LINE
  5
F104DD
330
261
100
AcDbEntity
  8
Geo
100
AcDbLine
 10
-38.28859711728934
 20
2.583813027173523
 30
0.0
 11
-38.18859711728935
 21
2.526507288809423
 31
0.0
  0
LINE
  5
F104DF
330
261
100
AcDbEntity
  8
Geo
100
AcDbLine
 10
-38.18859711728935
 20
2.526507288809423
 30
0.0
 11
-38.08859711728934
 21
2.469145549555427
 31
0.0
  0
LINE
  5
F104E1
330
261
100
AcDbEntity
  8
Geo
100
AcDbLine
 10
-38.08859711728934
 20
2.469145549555427
 30
0.0
 11
-37.98859711728935
 21
2.411731711548526
 31
0.0
  0
LINE
  5
F104E3
330
261
100
AcDbEntity
  8
Geo
100
AcDbLine
 10
-37.98859711728935
 20
2.411731711548526
 30
0.0
 11
-37.88859711728935
 21
2.354269680469922
 31
0.0
  0
LINE
  5
F104E5
330
261
100
AcDbEntity
  8
Geo
100
AcDbLine
 10
-37.88859711728935
 20
2.354269680469922
 30
0.0
 11
-37.78859711728934
 21
2.296763365279225
 31
0.0
  0
LINE
  5
F104E7
330
261
100
AcDbEntity
  8
Geo
100
AcDbLine
 10
-37.78859711728934
 20
2.296763365279225
 30
0.0
 11
-37.68859711728935
 21
2.239216677948324
 31
0.0
  0
LINE
  5
F104E9
330
261
100
AcDbEntity
  8
Geo
100
AcDbLine
 10
-37.68859711728935
 20
2.239216677948324
 30
0.0
 11
-37.58859711728934
 21
2.181633533195725
 31
0.0
  0
LINE
  5
F104EB
330
261
100
AcDbEntity
  8
Geo
100
AcDbLine
 10
-37.58859711728934
 20
2.181633533195725
 30
0.0
 11
-37.48859711728935
 21
2.124017848220024
 31
0.0
  0
LINE
  5
F104ED
330
261
100
AcDbEntity
  8
Geo
100
AcDbLine
 10
-37.48859711728935
 20
2.124017848220024
 30
0.0
 11
-37.38859711728935
 21
2.066373542433225
 31
0.0
  0
LINE
  5
F104EF
330
261
100
AcDbEntity
  8
Geo
100
AcDbLine
 10
-37.38859711728935
 20
2.066373542433225
 30
0.0
 11
-37.28859711728934
 21
2.008704537194525
 31
0.0
  0
LINE
  5
F104F1
330
261
100
AcDbEntity
  8
Geo
100
AcDbLine
 10
-37.28859711728934
 20
2.008704537194525
 30
0.0
 11
-37.18859711728935
 21
1.951014755543322
 31
0.0
  0
LINE
  5
F104F3
330
261
100
AcDbEntity
  8
Geo
100
AcDbLine
 10
-37.18859711728935
 20
1.951014755543322
 30
0.0
 11
-37.08859711728934
 21
1.893308121932125
 31
0.0
  0
LINE
  5
F104F5
330
261
100
AcDbEntity
  8
Geo
100
AcDbLine
 10
-37.08859711728934
 20
1.893308121932125
 30
0.0
 11
-36.98859711728935
 21
1.835588561960225
 31
0.0
  0
LINE
  5
F104F7
330
261
100
AcDbEntity
  8
Geo
100
AcDbLine
 10
-36.98859711728935
 20
1.835588561960225
 30
0.0
 11
-36.88859711728935
 21
1.777860002105924
 31
0.0
  0
LINE
  5
F104F9
330
261
100
AcDbEntity
  8
Geo
100
AcDbLine
 10
-36.88859711728935
 20
1.777860002105924
 30
0.0
 11
-36.78859711728935
 21
1.720126369459926
 31
0.0
  0
LINE
  5
F104FB
330
261
100
AcDbEntity
  8
Geo
100
AcDbLine
 10
-36.78859711728935
 20
1.720126369459926
 30
0.0
 11
-36.68859711728935
 21
1.662391591457925
 31
0.0
  0
LINE
  5
F104FD
330
261
100
AcDbEntity
  8
Geo
100
AcDbLine
 10
-36.68859711728935
 20
1.662391591457925
 30
0.0
 11
-36.58859711728934
 21
1.604659595613622
 31
0.0
  0
LINE
  5
F104FF
330
261
100
AcDbEntity
  8
Geo
100
AcDbLine
 10
-36.58859711728934
 20
1.604659595613622
 30
0.0
 11
-36.48859711728935
 21
1.546934309251323
 31
0.0
  0
LINE
  5
F10501
330
261
100
AcDbEntity
  8
Geo
100
AcDbLine
 10
-36.48859711728935
 20
1.546934309251323
 30
0.0
 11
-36.38859711728935
 21
1.489219659239125
 31
0.0
  0
LINE
  5
F10503
330
261
100
AcDbEntity
  8
Geo
100
AcDbLine
 10
-36.38859711728935
 20
1.489219659239125
 30
0.0
 11
-36.28859711728934
 21
1.431519571721324
 31
0.0
  0
LINE
  5
F10505
330
261
100
AcDbEntity
  8
Geo
100
AcDbLine
 10
-36.28859711728934
 20
1.431519571721324
 30
0.0
 11
-36.18859711728935
 21
1.373837971851727
 31
0.0
  0
LINE
  5
F10507
330
261
100
AcDbEntity
  8
Geo
100
AcDbLine
 10
-36.18859711728935
 20
1.373837971851727
 30
0.0
 11
-36.08859711728934
 21
1.316178783526424
 31
0.0
  0
LINE
  5
F10509
330
261
100
AcDbEntity
  8
Geo
100
AcDbLine
 10
-36.08859711728934
 20
1.316178783526424
 30
0.0
 11
-35.98859711728934
 21
1.258545929117026
 31
0.0
  0
LINE
  5
F1050B
330
261
100
AcDbEntity
  8
Geo
100
AcDbLine
 10
-35.98859711728934
 20
1.258545929117026
 30
0.0
 11
-35.88859711728935
 21
1.200943329203525
 31
0.0
  0
LINE
  5
F1050D
330
261
100
AcDbEntity
  8
Geo
100
AcDbLine
 10
-35.88859711728935
 20
1.200943329203525
 30
0.0
 11
-35.78859711728934
 21
1.143374902308124
 31
0.0
  0
LINE
  5
F1050F
330
261
100
AcDbEntity
  8
Geo
100
AcDbLine
 10
-35.78859711728934
 20
1.143374902308124
 30
0.0
 11
-35.68859711728935
 21
1.085844564627926
 31
0.0
  0
LINE
  5
F10511
330
261
100
AcDbEntity
  8
Geo
100
AcDbLine
 10
-35.68859711728935
 20
1.085844564627926
 30
0.0
 11
-35.58859711728934
 21
1.028356229769226
 31
0.0
  0
LINE
  5
F10513
330
261
100
AcDbEntity
  8
Geo
100
AcDbLine
 10
-35.58859711728934
 20
1.028356229769226
 30
0.0
 11
-35.48859711728935
 21
0.9709138084809261
 31
0.0
  0
LINE
  5
F10515
330
261
100
AcDbEntity
  8
Geo
100
AcDbLine
 10
-35.48859711728935
 20
0.9709138084809261
 30
0.0
 11
-35.38859711728935
 21
0.9135212083886266
 31
0.0
  0
LINE
  5
F10517
330
261
100
AcDbEntity
  8
Geo
100
AcDbLine
 10
-35.38859711728935
 20
0.9135212083886266
 30
0.0
 11
-35.28859711728934
 21
0.8561823337286256
 31
0.0
  0
LINE
  5
F10519
330
261
100
AcDbEntity
  8
Geo
100
AcDbLine
 10
-35.28859711728934
 20
0.8561823337286256
 30
0.0
 11
-35.18859711728935
 21
0.7989010850826262
 31
0.0
  0
LINE
  5
F1051B
330
261
100
AcDbEntity
  8
Geo
100
AcDbLine
 10
-35.18859711728935
 20
0.7989010850826262
 30
0.0
 11
-35.08859711728934
 21
0.7416813591121248
 31
0.0
  0
LINE
  5
F1051D
330
261
100
AcDbEntity
  8
Geo
100
AcDbLine
 10
-35.08859711728934
 20
0.7416813591121248
 30
0.0
 11
-34.98859711728935
 21
0.6845270482933259
 31
0.0
  0
LINE
  5
F1051F
330
261
100
AcDbEntity
  8
Geo
100
AcDbLine
 10
-34.98859711728935
 20
0.6845270482933259
 30
0.0
 11
-34.88859711728935
 21
0.6274420406525252
 31
0.0
  0
LINE
  5
F10521
330
261
100
AcDbEntity
  8
Geo
100
AcDbLine
 10
-34.88859711728935
 20
0.6274420406525252
 30
0.0
 11
-34.78859711728934
 21
0.5704302195017235
 31
0.0
  0
LINE
  5
F10523
330
261
100
AcDbEntity
  8
Geo
100
AcDbLine
 10
-34.78859711728934
 20
0.5704302195017235
 30
0.0
 11
-34.68859711728935
 21
0.5134954631739248
 31
0.0
  0
LINE
  5
F10525
330
261
100
AcDbEntity
  8
Geo
100
AcDbLine
 10
-34.68859711728935
 20
0.5134954631739248
 30
0.0
 11
-34.58859711728934
 21
0.4566416447599267
 31
0.0
  0
LINE
  5
F10527
330
261
100
AcDbEntity
  8
Geo
100
AcDbLine
 10
-34.58859711728934
 20
0.4566416447599267
 30
0.0
 11
-34.48859711728935
 21
0.3998726318446231
 31
0.0
  0
LINE
  5
F10529
330
261
100
AcDbEntity
  8
Geo
100
AcDbLine
 10
-34.48859711728935
 20
0.3998726318446231
 30
0.0
 11
-34.38859711728935
 21
0.3431922862435286
 31
0.0
  0
LINE
  5
F1052B
330
261
100
AcDbEntity
  8
Geo
100
AcDbLine
 10
-34.38859711728935
 20
0.3431922862435286
 30
0.0
 11
-34.28859711728935
 21
0.2866044637407263
 31
0.0
  0
LINE
  5
F1052D
330
261
100
AcDbEntity
  8
Geo
100
AcDbLine
 10
-34.28859711728935
 20
0.2866044637407263
 30
0.0
 11
-34.18859711728935
 21
0.2301130138261271
 31
0.0
  0
LINE
  5
F1052F
330
261
100
AcDbEntity
  8
Geo
100
AcDbLine
 10
-34.18859711728935
 20
0.2301130138261271
 30
0.0
 11
-34.08859711728934
 21
0.1737217794336239
 31
0.0
  0
LINE
  5
F10531
330
261
100
AcDbEntity
  8
Geo
100
AcDbLine
 10
-34.08859711728934
 20
0.1737217794336239
 30
0.0
 11
-33.98859711728935
 21
0.1174345966800274
 31
0.0
  0
LINE
  5
F10533
330
261
100
AcDbEntity
  8
Geo
100
AcDbLine
 10
-33.98859711728935
 20
0.1174345966800274
 30
0.0
 11
-33.88859711728935
 21
0.0612552946035265
 31
0.0
  0
LINE
  5
F10535
330
261
100
AcDbEntity
  8
Geo
100
AcDbLine
 10
-33.88859711728935
 20
0.0612552946035265
 30
0.0
 11
-33.78859711728934
 21
0.005187694903821
 31
0.0
  0
LINE
  5
F10537
330
261
100
AcDbEntity
  8
Geo
100
AcDbLine
 10
-33.78859711728934
 20
0.005187694903821
 30
0.0
 11
-33.68859711728935
 21
-0.0507643883183775
 31
0.0
  0
LINE
  5
F10539
330
261
100
AcDbEntity
  8
Geo
100
AcDbLine
 10
-33.68859711728935
 20
-0.0507643883183775
 30
0.0
 11
-33.58859711728934
 21
-0.1065971488204731
 31
0.0
  0
LINE
  5
F1053B
330
261
100
AcDbEntity
  8
Geo
100
AcDbLine
 10
-33.58859711728934
 20
-0.1065971488204731
 30
0.0
 11
-33.48859711728936
 21
-0.1623067884770748
 31
0.0
  0
LINE
  5
F1053D
330
261
100
AcDbEntity
  8
Geo
100
AcDbLine
 10
-33.48859711728936
 20
-0.1623067884770748
 30
0.0
 11
-33.38859711728935
 21
-0.2178895175380759
 31
0.0
  0
LINE
  5
F1053F
330
261
100
AcDbEntity
  8
Geo
100
AcDbLine
 10
-33.38859711728935
 20
-0.2178895175380759
 30
0.0
 11
-33.28859711728936
 21
-0.2733415548870752
 31
0.0
  0
LINE
  5
F10541
330
261
100
AcDbEntity
  8
Geo
100
AcDbLine
 10
-33.28859711728936
 20
-0.2733415548870752
 30
0.0
 11
-33.18859711728936
 21
-0.3286591282978755
 31
0.0
  0
LINE
  5
F10543
330
261
100
AcDbEntity
  8
Geo
100
AcDbLine
 10
-33.18859711728936
 20
-0.3286591282978755
 30
0.0
 11
-33.08859711728935
 21
-0.3838384746916752
 31
0.0
  0
LINE
  5
F10545
330
261
100
AcDbEntity
  8
Geo
100
AcDbLine
 10
-33.08859711728935
 20
-0.3838384746916752
 30
0.0
 11
-32.98859711728936
 21
-0.4388758403926758
 31
0.0
  0
LINE
  5
F10547
330
261
100
AcDbEntity
  8
Geo
100
AcDbLine
 10
-32.98859711728936
 20
-0.4388758403926758
 30
0.0
 11
-32.88859711728935
 21
-0.4937674813836744
 31
0.0
  0
LINE
  5
F10549
330
261
100
AcDbEntity
  8
Geo
100
AcDbLine
 10
-32.88859711728935
 20
-0.4937674813836744
 30
0.0
 11
-32.78859711728936
 21
-0.5485096635604734
 31
0.0
  0
LINE
  5
F1054B
330
261
100
AcDbEntity
  8
Geo
100
AcDbLine
 10
-32.78859711728936
 20
-0.5485096635604734
 30
0.0
 11
-32.68859711728936
 21
-0.6030986629863762
 31
0.0
  0
LINE
  5
F1054D
330
261
100
AcDbEntity
  8
Geo
100
AcDbLine
 10
-32.68859711728936
 20
-0.6030986629863762
 30
0.0
 11
-32.58859711728935
 21
-0.6575307661449728
 31
0.0
  0
LINE
  5
F1054F
330
261
100
AcDbEntity
  8
Geo
100
AcDbLine
 10
-32.58859711728935
 20
-0.6575307661449728
 30
0.0
 11
-32.48859711728936
 21
-0.7118022701930756
 31
0.0
  0
LINE
  5
F10551
330
261
100
AcDbEntity
  8
Geo
100
AcDbLine
 10
-32.48859711728936
 20
-0.7118022701930756
 30
0.0
 11
-32.38859711728935
 21
-0.7659094832125746
 31
0.0
  0
LINE
  5
F10553
330
261
100
AcDbEntity
  8
Geo
100
AcDbLine
 10
-32.38859711728935
 20
-0.7659094832125746
 30
0.0
 11
-32.28859711728936
 21
-0.8198487244615755
 31
0.0
  0
LINE
  5
F10555
330
261
100
AcDbEntity
  8
Geo
100
AcDbLine
 10
-32.28859711728936
 20
-0.8198487244615755
 30
0.0
 11
-32.18859711728936
 21
-0.8736163246247734
 31
0.0
  0
LINE
  5
F10557
330
261
100
AcDbEntity
  8
Geo
100
AcDbLine
 10
-32.18859711728936
 20
-0.8736163246247734
 30
0.0
 11
-32.08859711728936
 21
-0.9272086260628746
 31
0.0
  0
LINE
  5
F10559
330
261
100
AcDbEntity
  8
Geo
100
AcDbLine
 10
-32.08859711728936
 20
-0.9272086260628746
 30
0.0
 11
-31.98859711728936
 21
-0.9806219830619724
 31
0.0
  0
LINE
  5
F1055B
330
261
100
AcDbEntity
  8
Geo
100
AcDbLine
 10
-31.98859711728936
 20
-0.9806219830619724
 30
0.0
 11
-31.88859711728935
 21
-1.033852762080773
 31
0.0
  0
LINE
  5
F1055D
330
261
100
AcDbEntity
  8
Geo
100
AcDbLine
 10
-31.88859711728935
 20
-1.033852762080773
 30
0.0
 11
-31.78859711728936
 21
-1.086897341998472
 31
0.0
  0
LINE
  5
F1055F
330
261
100
AcDbEntity
  8
Geo
100
AcDbLine
 10
-31.78859711728936
 20
-1.086897341998472
 30
0.0
 11
-31.68859711728936
 21
-1.139752114360678
 31
0.0
  0
LINE
  5
F10561
330
261
100
AcDbEntity
  8
Geo
100
AcDbLine
 10
-31.68859711728936
 20
-1.139752114360678
 30
0.0
 11
-31.58859711728935
 21
-1.192413483625074
 31
0.0
  0
LINE
  5
F10563
330
261
100
AcDbEntity
  8
Geo
100
AcDbLine
 10
-31.58859711728935
 20
-1.192413483625074
 30
0.0
 11
-31.48859711728936
 21
-1.244877867405772
 31
0.0
  0
LINE
  5
F10565
330
261
100
AcDbEntity
  8
Geo
100
AcDbLine
 10
-31.48859711728936
 20
-1.244877867405772
 30
0.0
 11
-31.38859711728935
 21
-1.297141696717474
 31
0.0
  0
LINE
  5
F10567
330
261
100
AcDbEntity
  8
Geo
100
AcDbLine
 10
-31.38859711728935
 20
-1.297141696717474
 30
0.0
 11
-31.28859711728936
 21
-1.349201416217574
 31
0.0
  0
LINE
  5
F10569
330
261
100
AcDbEntity
  8
Geo
100
AcDbLine
 10
-31.28859711728936
 20
-1.349201416217574
 30
0.0
 11
-31.18859711728936
 21
-1.401053484448876
 31
0.0
  0
LINE
  5
F1056B
330
261
100
AcDbEntity
  8
Geo
100
AcDbLine
 10
-31.18859711728936
 20
-1.401053484448876
 30
0.0
 11
-31.08859711728936
 21
-1.452694374079676
 31
0.0
  0
LINE
  5
F1056D
330
261
100
AcDbEntity
  8
Geo
100
AcDbLine
 10
-31.08859711728936
 20
-1.452694374079676
 30
0.0
 11
-30.98859711728936
 21
-1.504120572144273
 31
0.0
  0
LINE
  5
F1056F
330
261
100
AcDbEntity
  8
Geo
100
AcDbLine
 10
-30.98859711728936
 20
-1.504120572144273
 30
0.0
 11
-30.88859711728935
 21
-1.555328580281475
 31
0.0
  0
LINE
  5
F10571
330
261
100
AcDbEntity
  8
Geo
100
AcDbLine
 10
-30.88859711728935
 20
-1.555328580281475
 30
0.0
 11
-30.78859711728936
 21
-1.606314914973275
 31
0.0
  0
LINE
  5
F10573
330
261
100
AcDbEntity
  8
Geo
100
AcDbLine
 10
-30.78859711728936
 20
-1.606314914973275
 30
0.0
 11
-30.68859711728936
 21
-1.657076107781175
 31
0.0
  0
LINE
  5
F10575
330
261
100
AcDbEntity
  8
Geo
100
AcDbLine
 10
-30.68859711728936
 20
-1.657076107781175
 30
0.0
 11
-30.58859711728935
 21
-1.707608705582273
 31
0.0
  0
LINE
  5
F10577
330
261
100
AcDbEntity
  8
Geo
100
AcDbLine
 10
-30.58859711728935
 20
-1.707608705582273
 30
0.0
 11
-30.48859711728936
 21
-1.757909270804375
 31
0.0
  0
LINE
  5
F10579
330
261
100
AcDbEntity
  8
Geo
100
AcDbLine
 10
-30.48859711728936
 20
-1.757909270804375
 30
0.0
 11
-30.38859711728935
 21
-1.807974381659875
 31
0.0
  0
LINE
  5
F1057B
330
261
100
AcDbEntity
  8
Geo
100
AcDbLine
 10
-30.38859711728935
 20
-1.807974381659875
 30
0.0
 11
-30.28859711728936
 21
-1.857800632378072
 31
0.0
  0
LINE
  5
F1057D
330
261
100
AcDbEntity
  8
Geo
100
AcDbLine
 10
-30.28859711728936
 20
-1.857800632378072
 30
0.0
 11
-30.18859711728936
 21
-1.907384633437274
 31
0.0
  0
LINE
  5
F1057F
330
261
100
AcDbEntity
  8
Geo
100
AcDbLine
 10
-30.18859711728936
 20
-1.907384633437274
 30
0.0
 11
-30.08859711728935
 21
-1.956723011795574
 31
0.0
  0
LINE
  5
F10581
330
261
100
AcDbEntity
  8
Geo
100
AcDbLine
 10
-30.08859711728935
 20
-1.956723011795574
 30
0.0
 11
-29.98859711728936
 21
-2.005812411119375
 31
0.0
  0
LINE
  5
F10583
330
261
100
AcDbEntity
  8
Geo
100
AcDbLine
 10
-29.98859711728936
 20
-2.005812411119375
 30
0.0
 11
-29.88859711728935
 21
-2.05464949201297
 31
0.0
  0
LINE
  5
F10585
330
261
100
AcDbEntity
  8
Geo
100
AcDbLine
 10
-29.88859711728935
 20
-2.05464949201297
 30
0.0
 11
-29.78859711728936
 21
-2.103230932244677
 31
0.0
  0
LINE
  5
F10587
330
261
100
AcDbEntity
  8
Geo
100
AcDbLine
 10
-29.78859711728936
 20
-2.103230932244677
 30
0.0
 11
-29.68859711728936
 21
-2.151553426973375
 31
0.0
  0
LINE
  5
F10589
330
261
100
AcDbEntity
  8
Geo
100
AcDbLine
 10
-29.68859711728936
 20
-2.151553426973375
 30
0.0
 11
-29.58859711728936
 21
-2.199613688973077
 31
0.0
  0
LINE
  5
F1058B
330
261
100
AcDbEntity
  8
Geo
100
AcDbLine
 10
-29.58859711728936
 20
-2.199613688973077
 30
0.0
 11
-29.48859711728936
 21
-2.247408448856873
 31
0.0
  0
LINE
  5
F1058D
330
261
100
AcDbEntity
  8
Geo
100
AcDbLine
 10
-29.48859711728936
 20
-2.247408448856873
 30
0.0
 11
-29.38859711728935
 21
-2.294934455298974
 31
0.0
  0
LINE
  5
F1058F
330
261
100
AcDbEntity
  8
Geo
100
AcDbLine
 10
-29.38859711728935
 20
-2.294934455298974
 30
0.0
 11
-29.28859711728936
 21
-2.342188475255873
 31
0.0
  0
LINE
  5
F10591
330
261
100
AcDbEntity
  8
Geo
100
AcDbLine
 10
-29.28859711728936
 20
-2.342188475255873
 30
0.0
 11
-29.18859711728936
 21
-2.389167294186773
 31
0.0
  0
LINE
  5
F10593
330
261
100
AcDbEntity
  8
Geo
100
AcDbLine
 10
-29.18859711728936
 20
-2.389167294186773
 30
0.0
 11
-29.08859711728935
 21
-2.435867716271772
 31
0.0
  0
LINE
  5
F10595
330
261
100
AcDbEntity
  8
Geo
100
AcDbLine
 10
-29.08859711728935
 20
-2.435867716271772
 30
0.0
 11
-28.98859711728936
 21
-2.482286564629273
 31
0.0
  0
LINE
  5
F10597
330
261
100
AcDbEntity
  8
Geo
100
AcDbLine
 10
-28.98859711728936
 20
-2.482286564629273
 30
0.0
 11
-28.88859711728935
 21
-2.528420681532576
 31
0.0
  0
LINE
  5
F10599
330
261
100
AcDbEntity
  8
Geo
100
AcDbLine
 10
-28.88859711728935
 20
-2.528420681532576
 30
0.0
 11
-28.78859711728935
 21
-2.574266928624073
 31
0.0
  0
LINE
  5
F1059B
330
261
100
AcDbEntity
  8
Geo
100
AcDbLine
 10
-28.78859711728935
 20
-2.574266928624073
 30
0.0
 11
-28.68859711728936
 21
-2.619822187129177
 31
0.0
  0
LINE
  5
F1059D
330
261
100
AcDbEntity
  8
Geo
100
AcDbLine
 10
-28.68859711728936
 20
-2.619822187129177
 30
0.0
 11
-28.58859711728936
 21
-2.665083358068176
 31
0.0
  0
LINE
  5
F1059F
330
261
100
AcDbEntity
  8
Geo
100
AcDbLine
 10
-28.58859711728936
 20
-2.665083358068176
 30
0.0
 11
-28.48859711728936
 21
-2.710047362467374
 31
0.0
  0
LINE
  5
F105A1
330
261
100
AcDbEntity
  8
Geo
100
AcDbLine
 10
-28.48859711728936
 20
-2.710047362467374
 30
0.0
 11
-28.38859711728935
 21
-2.754711141568272
 31
0.0
  0
LINE
  5
F105A3
330
261
100
AcDbEntity
  8
Geo
100
AcDbLine
 10
-28.38859711728935
 20
-2.754711141568272
 30
0.0
 11
-28.28859711728936
 21
-2.799071657035874
 31
0.0
  0
LINE
  5
F105A5
330
261
100
AcDbEntity
  8
Geo
100
AcDbLine
 10
-28.28859711728936
 20
-2.799071657035874
 30
0.0
 11
-28.18859711728936
 21
-2.843125891164973
 31
0.0
  0
LINE
  5
F105A7
330
261
100
AcDbEntity
  8
Geo
100
AcDbLine
 10
-28.18859711728936
 20
-2.843125891164973
 30
0.0
 11
-28.08859711728935
 21
-2.886870847086072
 31
0.0
  0
LINE
  5
F105A9
330
261
100
AcDbEntity
  8
Geo
100
AcDbLine
 10
-28.08859711728935
 20
-2.886870847086072
 30
0.0
 11
-27.98859711728936
 21
-2.930303548968574
 31
0.0
  0
LINE
  5
F105AB
330
261
100
AcDbEntity
  8
Geo
100
AcDbLine
 10
-27.98859711728936
 20
-2.930303548968574
 30
0.0
 11
-27.88859711728935
 21
-2.973421042223677
 31
0.0
  0
LINE
  5
F105AD
330
261
100
AcDbEntity
  8
Geo
100
AcDbLine
 10
-27.88859711728935
 20
-2.973421042223677
 30
0.0
 11
-27.78859711728936
 21
-3.016220393705175
 31
0.0
  0
LINE
  5
F105AF
330
261
100
AcDbEntity
  8
Geo
100
AcDbLine
 10
-27.78859711728936
 20
-3.016220393705175
 30
0.0
 11
-27.68859711728936
 21
-3.058698691909174
 31
0.0
  0
LINE
  5
F105B1
330
261
100
AcDbEntity
  8
Geo
100
AcDbLine
 10
-27.68859711728936
 20
-3.058698691909174
 30
0.0
 11
-27.58859711728935
 21
-3.100853047171874
 31
0.0
  0
LINE
  5
F105B3
330
261
100
AcDbEntity
  8
Geo
100
AcDbLine
 10
-27.58859711728935
 20
-3.100853047171874
 30
0.0
 11
-27.48859711728936
 21
-3.142680591866174
 31
0.0
  0
LINE
  5
F105B5
330
261
100
AcDbEntity
  8
Geo
100
AcDbLine
 10
-27.48859711728936
 20
-3.142680591866174
 30
0.0
 11
-27.38859711728935
 21
-3.184178480597172
 31
0.0
  0
LINE
  5
F105B7
330
261
100
AcDbEntity
  8
Geo
100
AcDbLine
 10
-27.38859711728935
 20
-3.184178480597172
 30
0.0
 11
-27.28859711728936
 21
-3.225343890395173
 31
0.0
  0
LINE
  5
F105B9
330
261
100
AcDbEntity
  8
Geo
100
AcDbLine
 10
-27.28859711728936
 20
-3.225343890395173
 30
0.0
 11
-27.18859711728936
 21
-3.266174020908074
 31
0.0
  0
LINE
  5
F105BB
330
261
100
AcDbEntity
  8
Geo
100
AcDbLine
 10
-27.18859711728936
 20
-3.266174020908074
 30
0.0
 11
-27.08859711728936
 21
-3.306666094591673
 31
0.0
  0
LINE
  5
F105BD
330
261
100
AcDbEntity
  8
Geo
100
AcDbLine
 10
-27.08859711728936
 20
-3.306666094591673
 30
0.0
 11
-26.98859711728936
 21
-3.346817356898775
 31
0.0
  0
LINE
  5
F105BF
330
261
100
AcDbEntity
  8
Geo
100
AcDbLine
 10
-26.98859711728936
 20
-3.346817356898775
 30
0.0
 11
-26.88859711728935
 21
-3.386625076466476
 31
0.0
  0
LINE
  5
F105C1
330
261
100
AcDbEntity
  8
Geo
100
AcDbLine
 10
-26.88859711728935
 20
-3.386625076466476
 30
0.0
 11
-26.78859711728936
 21
-3.426086545301973
 31
0.0
  0
LINE
  5
F105C3
330
261
100
AcDbEntity
  8
Geo
100
AcDbLine
 10
-26.78859711728936
 20
-3.426086545301973
 30
0.0
 11
-26.68859711728936
 21
-3.465199078966772
 31
0.0
  0
LINE
  5
F105C5
330
261
100
AcDbEntity
  8
Geo
100
AcDbLine
 10
-26.68859711728936
 20
-3.465199078966772
 30
0.0
 11
-26.58859711728935
 21
-3.503960016759474
 31
0.0
  0
LINE
  5
F105C7
330
261
100
AcDbEntity
  8
Geo
100
AcDbLine
 10
-26.58859711728935
 20
-3.503960016759474
 30
0.0
 11
-26.48859711728936
 21
-3.542366721896573
 31
0.0
  0
LINE
  5
F105C9
330
261
100
AcDbEntity
  8
Geo
100
AcDbLine
 10
-26.48859711728936
 20
-3.542366721896573
 30
0.0
 11
-26.38859711728935
 21
-3.580416581691775
 31
0.0
  0
LINE
  5
F105CB
330
261
100
AcDbEntity
  8
Geo
100
AcDbLine
 10
-26.38859711728935
 20
-3.580416581691775
 30
0.0
 11
-26.28859711728936
 21
-3.618107007733875
 31
0.0
  0
LINE
  5
F105CD
330
261
100
AcDbEntity
  8
Geo
100
AcDbLine
 10
-26.28859711728936
 20
-3.618107007733875
 30
0.0
 11
-26.18859711728936
 21
-3.655435436062973
 31
0.0
  0
LINE
  5
F105CF
330
261
100
AcDbEntity
  8
Geo
100
AcDbLine
 10
-26.18859711728936
 20
-3.655435436062973
 30
0.0
 11
-26.08859711728936
 21
-3.692399327344475
 31
0.0
  0
LINE
  5
F105D1
330
261
100
AcDbEntity
  8
Geo
100
AcDbLine
 10
-26.08859711728936
 20
-3.692399327344475
 30
0.0
 11
-25.98859711728936
 21
-3.728996167042172
 31
0.0
  0
LINE
  5
F105D3
330
261
100
AcDbEntity
  8
Geo
100
AcDbLine
 10
-25.98859711728936
 20
-3.728996167042172
 30
0.0
 11
-25.88859711728935
 21
-3.765223465589475
 31
0.0
  0
LINE
  5
F105D5
330
261
100
AcDbEntity
  8
Geo
100
AcDbLine
 10
-25.88859711728935
 20
-3.765223465589475
 30
0.0
 11
-25.78859711728936
 21
-3.801078758558073
 31
0.0
  0
LINE
  5
F105D7
330
261
100
AcDbEntity
  8
Geo
100
AcDbLine
 10
-25.78859711728936
 20
-3.801078758558073
 30
0.0
 11
-25.68859711728936
 21
-3.836559606826273
 31
0.0
  0
LINE
  5
F105D9
330
261
100
AcDbEntity
  8
Geo
100
AcDbLine
 10
-25.68859711728936
 20
-3.836559606826273
 30
0.0
 11
-25.58859711728935
 21
-3.871663596744674
 31
0.0
  0
LINE
  5
F105DB
330
261
100
AcDbEntity
  8
Geo
100
AcDbLine
 10
-25.58859711728935
 20
-3.871663596744674
 30
0.0
 11
-25.48859711728936
 21
-3.906388340300175
 31
0.0
  0
LINE
  5
F105DD
330
261
100
AcDbEntity
  8
Geo
100
AcDbLine
 10
-25.48859711728936
 20
-3.906388340300175
 30
0.0
 11
-25.38859711728935
 21
-3.940731475278774
 31
0.0
  0
LINE
  5
F105DF
330
261
100
AcDbEntity
  8
Geo
100
AcDbLine
 10
-25.38859711728935
 20
-3.940731475278774
 30
0.0
 11
-25.28859711728936
 21
-3.974690665425974
 31
0.0
  0
LINE
  5
F105E1
330
261
100
AcDbEntity
  8
Geo
100
AcDbLine
 10
-25.28859711728936
 20
-3.974690665425974
 30
0.0
 11
-25.18859711728936
 21
-4.008263600606074
 31
0.0
  0
LINE
  5
F105E3
330
261
100
AcDbEntity
  8
Geo
100
AcDbLine
 10
-25.18859711728936
 20
-4.008263600606074
 30
0.0
 11
-25.08859711728935
 21
-4.041447996958574
 31
0.0
  0
LINE
  5
F105E5
330
261
100
AcDbEntity
  8
Geo
100
AcDbLine
 10
-25.08859711728935
 20
-4.041447996958574
 30
0.0
 11
-24.98859711728936
 21
-4.074241597054573
 31
0.0
  0
LINE
  5
F105E7
330
261
100
AcDbEntity
  8
Geo
100
AcDbLine
 10
-24.98859711728936
 20
-4.074241597054573
 30
0.0
 11
-24.88859711728935
 21
-4.106642170049575
 31
0.0
  0
LINE
  5
F105E9
330
261
100
AcDbEntity
  8
Geo
100
AcDbLine
 10
-24.88859711728935
 20
-4.106642170049575
 30
0.0
 11
-24.78859711728936
 21
-4.138647511835273
 31
0.0
  0
LINE
  5
F105EB
330
261
100
AcDbEntity
  8
Geo
100
AcDbLine
 10
-24.78859711728936
 20
-4.138647511835273
 30
0.0
 11
-24.68859711728936
 21
-4.170255445190072
 31
0.0
  0
LINE
  5
F105ED
330
261
100
AcDbEntity
  8
Geo
100
AcDbLine
 10
-24.68859711728936
 20
-4.170255445190072
 30
0.0
 11
-24.58859711728936
 21
-4.201463819926576
 31
0.0
  0
LINE
  5
F105EF
330
261
100
AcDbEntity
  8
Geo
100
AcDbLine
 10
-24.58859711728936
 20
-4.201463819926576
 30
0.0
 11
-24.48859711728936
 21
-4.232270513037974
 31
0.0
  0
LINE
  5
F105F1
330
261
100
AcDbEntity
  8
Geo
100
AcDbLine
 10
-24.48859711728936
 20
-4.232270513037974
 30
0.0
 11
-24.38859711728935
 21
-4.262673428842873
 31
0.0
  0
LINE
  5
F105F3
330
261
100
AcDbEntity
  8
Geo
100
AcDbLine
 10
-24.38859711728935
 20
-4.262673428842873
 30
0.0
 11
-24.28859711728936
 21
-4.292670499127474
 31
0.0
  0
LINE
  5
F105F5
330
261
100
AcDbEntity
  8
Geo
100
AcDbLine
 10
-24.28859711728936
 20
-4.292670499127474
 30
0.0
 11
-24.18859711728936
 21
-4.322259683286173
 31
0.0
  0
LINE
  5
F105F7
330
261
100
AcDbEntity
  8
Geo
100
AcDbLine
 10
-24.18859711728936
 20
-4.322259683286173
 30
0.0
 11
-24.08859711728935
 21
-4.351438968460875
 31
0.0
  0
LINE
  5
F105F9
330
261
100
AcDbEntity
  8
Geo
100
AcDbLine
 10
-24.08859711728935
 20
-4.351438968460875
 30
0.0
 11
-23.98859711728936
 21
-4.380206369677274
 31
0.0
  0
LINE
  5
F105FB
330
261
100
AcDbEntity
  8
Geo
100
AcDbLine
 10
-23.98859711728936
 20
-4.380206369677274
 30
0.0
 11
-23.88859711728935
 21
-4.408559929980576
 31
0.0
  0
LINE
  5
F105FD
330
261
100
AcDbEntity
  8
Geo
100
AcDbLine
 10
-23.88859711728935
 20
-4.408559929980576
 30
0.0
 11
-23.78859711728936
 21
-4.436497720567974
 31
0.0
  0
LINE
  5
F105FF
330
261
100
AcDbEntity
  8
Geo
100
AcDbLine
 10
-23.78859711728936
 20
-4.436497720567974
 30
0.0
 11
-23.68859711728936
 21
-4.464017840920273
 31
0.0
  0
LINE
  5
F10601
330
261
100
AcDbEntity
  8
Geo
100
AcDbLine
 10
-23.68859711728936
 20
-4.464017840920273
 30
0.0
 11
-23.58859711728936
 21
-4.491118418931076
 31
0.0
  0
LINE
  5
F10603
330
261
100
AcDbEntity
  8
Geo
100
AcDbLine
 10
-23.58859711728936
 20
-4.491118418931076
 30
0.0
 11
-23.48859711728936
 21
-4.517797611034076
 31
0.0
  0
LINE
  5
F10605
330
261
100
AcDbEntity
  8
Geo
100
AcDbLine
 10
-23.48859711728936
 20
-4.517797611034076
 30
0.0
 11
-23.38859711728935
 21
-4.544053602328574
 31
0.0
  0
LINE
  5
F10607
330
261
100
AcDbEntity
  8
Geo
100
AcDbLine
 10
-23.38859711728935
 20
-4.544053602328574
 30
0.0
 11
-23.28859711728936
 21
-4.569884606702874
 31
0.0
  0
LINE
  5
F10609
330
261
100
AcDbEntity
  8
Geo
100
AcDbLine
 10
-23.28859711728936
 20
-4.569884606702874
 30
0.0
 11
-23.18859711728936
 21
-4.595288866955677
 31
0.0
  0
LINE
  5
F1060B
330
261
100
AcDbEntity
  8
Geo
100
AcDbLine
 10
-23.18859711728936
 20
-4.595288866955677
 30
0.0
 11
-23.08859711728935
 21
-4.620264654915773
 31
0.0
  0
LINE
  5
F1060D
330
261
100
AcDbEntity
  8
Geo
100
AcDbLine
 10
-23.08859711728935
 20
-4.620264654915773
 30
0.0
 11
-22.98859711728936
 21
-4.644810271559673
 31
0.0
  0
LINE
  5
F1060F
330
261
100
AcDbEntity
  8
Geo
100
AcDbLine
 10
-22.98859711728936
 20
-4.644810271559673
 30
0.0
 11
-22.88859711728935
 21
-4.668924047127074
 31
0.0
  0
LINE
  5
F10611
330
261
100
AcDbEntity
  8
Geo
100
AcDbLine
 10
-22.88859711728935
 20
-4.668924047127074
 30
0.0
 11
-22.78859711728935
 21
-4.692604341234273
 31
0.0
  0
LINE
  5
F10613
330
261
100
AcDbEntity
  8
Geo
100
AcDbLine
 10
-22.78859711728935
 20
-4.692604341234273
 30
0.0
 11
-22.68859711728936
 21
-4.715849542986074
 31
0.0
  0
LINE
  5
F10615
330
261
100
AcDbEntity
  8
Geo
100
AcDbLine
 10
-22.68859711728936
 20
-4.715849542986074
 30
0.0
 11
-22.58859711728935
 21
-4.738658071085172
 31
0.0
  0
LINE
  5
F10617
330
261
100
AcDbEntity
  8
Geo
100
AcDbLine
 10
-22.58859711728935
 20
-4.738658071085172
 30
0.0
 11
-22.48859711728936
 21
-4.761028373939772
 31
0.0
  0
LINE
  5
F10619
330
261
100
AcDbEntity
  8
Geo
100
AcDbLine
 10
-22.48859711728936
 20
-4.761028373939772
 30
0.0
 11
-22.38859711728935
 21
-4.782958929769273
 31
0.0
  0
LINE
  5
F1061B
330
261
100
AcDbEntity
  8
Geo
100
AcDbLine
 10
-22.38859711728935
 20
-4.782958929769273
 30
0.0
 11
-22.28859711728936
 21
-4.804448246707675
 31
0.0
  0
LINE
  5
F1061D
330
261
100
AcDbEntity
  8
Geo
100
AcDbLine
 10
-22.28859711728936
 20
-4.804448246707675
 30
0.0
 11
-22.18859711728936
 21
-4.825494862904774
 31
0.0
  0
LINE
  5
F1061F
330
261
100
AcDbEntity
  8
Geo
100
AcDbLine
 10
-22.18859711728936
 20
-4.825494862904774
 30
0.0
 11
-22.08859711728935
 21
-4.846097346626173
 31
0.0
  0
LINE
  5
F10621
330
261
100
AcDbEntity
  8
Geo
100
AcDbLine
 10
-22.08859711728935
 20
-4.846097346626173
 30
0.0
 11
-21.98859711728936
 21
-4.866254296350273
 31
0.0
  0
LINE
  5
F10623
330
261
100
AcDbEntity
  8
Geo
100
AcDbLine
 10
-21.98859711728936
 20
-4.866254296350273
 30
0.0
 11
-21.88859711728935
 21
-4.885964340863875
 31
0.0
  0
LINE
  5
F10625
330
261
100
AcDbEntity
  8
Geo
100
AcDbLine
 10
-21.88859711728935
 20
-4.885964340863875
 30
0.0
 11
-21.78859711728936
 21
-4.905226139355175
 31
0.0
  0
LINE
  5
F10627
330
261
100
AcDbEntity
  8
Geo
100
AcDbLine
 10
-21.78859711728936
 20
-4.905226139355175
 30
0.0
 11
-21.68859711728936
 21
-4.924038381505173
 31
0.0
  0
LINE
  5
F10629
330
261
100
AcDbEntity
  8
Geo
100
AcDbLine
 10
-21.68859711728936
 20
-4.924038381505173
 30
0.0
 11
-21.58859711728935
 21
-4.942399787576674
 31
0.0
  0
LINE
  5
F1062B
330
261
100
AcDbEntity
  8
Geo
100
AcDbLine
 10
-21.58859711728935
 20
-4.942399787576674
 30
0.0
 11
-21.48859711728936
 21
-4.960309108501673
 31
0.0
  0
LINE
  5
F1062D
330
261
100
AcDbEntity
  8
Geo
100
AcDbLine
 10
-21.48859711728936
 20
-4.960309108501673
 30
0.0
 11
-21.38859711728935
 21
-4.977765125965772
 31
0.0
  0
LINE
  5
F1062F
330
261
100
AcDbEntity
  8
Geo
100
AcDbLine
 10
-21.38859711728935
 20
-4.977765125965772
 30
0.0
 11
-21.28859711728936
 21
-4.994766652491673
 31
0.0
  0
LINE
  5
F10631
330
261
100
AcDbEntity
  8
Geo
100
AcDbLine
 10
-21.28859711728936
 20
-4.994766652491673
 30
0.0
 11
-21.18859711728936
 21
-5.011312531519376
 31
0.0
  0
LINE
  5
F10633
330
261
100
AcDbEntity
  8
Geo
100
AcDbLine
 10
-21.18859711728936
 20
-5.011312531519376
 30
0.0
 11
-21.08859711728936
 21
-5.027401637485374
 31
0.0
  0
LINE
  5
F10635
330
261
100
AcDbEntity
  8
Geo
100
AcDbLine
 10
-21.08859711728936
 20
-5.027401637485374
 30
0.0
 11
-20.98859711728936
 21
-5.043032875898772
 31
0.0
  0
LINE
  5
F10637
330
261
100
AcDbEntity
  8
Geo
100
AcDbLine
 10
-20.98859711728936
 20
-5.043032875898772
 30
0.0
 11
-20.88859711728935
 21
-5.058205183416074
 31
0.0
  0
LINE
  5
F10639
330
261
100
AcDbEntity
  8
Geo
100
AcDbLine
 10
-20.88859711728935
 20
-5.058205183416074
 30
0.0
 11
-20.78859711728936
 21
-5.072917527913377
 31
0.0
  0
LINE
  5
F1063B
330
261
100
AcDbEntity
  8
Geo
100
AcDbLine
 10
-20.78859711728936
 20
-5.072917527913377
 30
0.0
 11
-20.68859711728936
 21
-5.087168908556474
 31
0.0
  0
LINE
  5
F1063D
330
261
100
AcDbEntity
  8
Geo
100
AcDbLine
 10
-20.68859711728936
 20
-5.087168908556474
 30
0.0
 11
-20.58859711728935
 21
-5.100958355869476
 31
0.0
  0
LINE
  5
F1063F
330
261
100
AcDbEntity
  8
Geo
100
AcDbLine
 10
-20.58859711728935
 20
-5.100958355869476
 30
0.0
 11
-20.48859711728936
 21
-5.114284931799772
 31
0.0
  0
LINE
  5
F10641
330
261
100
AcDbEntity
  8
Geo
100
AcDbLine
 10
-20.48859711728936
 20
-5.114284931799772
 30
0.0
 11
-20.38859711728935
 21
-5.127147729782876
 31
0.0
  0
LINE
  5
F10643
330
261
100
AcDbEntity
  8
Geo
100
AcDbLine
 10
-20.38859711728935
 20
-5.127147729782876
 30
0.0
 11
-20.28859711728935
 21
-5.139545874803374
 31
0.0
  0
LINE
  5
F10645
330
261
100
AcDbEntity
  8
Geo
100
AcDbLine
 10
-20.28859711728935
 20
-5.139545874803374
 30
0.0
 11
-20.18859711728936
 21
-5.151478523454875
 31
0.0
  0
LINE
  5
F10647
330
261
100
AcDbEntity
  8
Geo
100
AcDbLine
 10
-20.18859711728936
 20
-5.151478523454875
 30
0.0
 11
-20.08859711728935
 21
-5.162944863997175
 31
0.0
  0
LINE
  5
F10649
330
261
100
AcDbEntity
  8
Geo
100
AcDbLine
 10
-20.08859711728935
 20
-5.162944863997175
 30
0.0
 11
-19.98859711728936
 21
-5.173944116411474
 31
0.0
  0
LINE
  5
F1064B
330
261
100
AcDbEntity
  8
Geo
100
AcDbLine
 10
-19.98859711728936
 20
-5.173944116411474
 30
0.0
 11
-19.88859711728935
 21
-5.184475532453674
 31
0.0
  0
LINE
  5
F1064D
330
261
100
AcDbEntity
  8
Geo
100
AcDbLine
 10
-19.88859711728935
 20
-5.184475532453674
 30
0.0
 11
-19.78859711728935
 21
-5.194538395704876
 31
0.0
  0
LINE
  5
F1064F
330
261
100
AcDbEntity
  8
Geo
100
AcDbLine
 10
-19.78859711728935
 20
-5.194538395704876
 30
0.0
 11
-19.68859711728936
 21
-5.204132021620475
 31
0.0
  0
LINE
  5
F10651
330
261
100
AcDbEntity
  8
Geo
100
AcDbLine
 10
-19.68859711728936
 20
-5.204132021620475
 30
0.0
 11
-19.58859711728935
 21
-5.213255757576574
 31
0.0
  0
LINE
  5
F10653
330
261
100
AcDbEntity
  8
Geo
100
AcDbLine
 10
-19.58859711728935
 20
-5.213255757576574
 30
0.0
 11
-19.48859711728926
 21
-5.221908982914273
 31
0.0
  0
LINE
  5
F10655
330
261
100
AcDbEntity
  8
Geo
100
AcDbLine
 10
-19.48859711728926
 20
-5.221908982914273
 30
0.0
 11
-19.38859711728926
 21
-5.230091108982273
 31
0.0
  0
LINE
  5
F10657
330
261
100
AcDbEntity
  8
Geo
100
AcDbLine
 10
-19.38859711728926
 20
-5.230091108982273
 30
0.0
 11
-19.28859711728925
 21
-5.237801579176375
 31
0.0
  0
LINE
  5
F10659
330
261
100
AcDbEntity
  8
Geo
100
AcDbLine
 10
-19.28859711728925
 20
-5.237801579176375
 30
0.0
 11
-19.18859711728926
 21
-5.245039868977874
 31
0.0
  0
LINE
  5
F1065B
330
261
100
AcDbEntity
  8
Geo
100
AcDbLine
 10
-19.18859711728926
 20
-5.245039868977874
 30
0.0
 11
-19.08859711728925
 21
-5.251805485988976
 31
0.0
  0
LINE
  5
F1065D
330
261
100
AcDbEntity
  8
Geo
100
AcDbLine
 10
-19.08859711728925
 20
-5.251805485988976
 30
0.0
 11
-18.98859711728926
 21
-5.258097969965975
 31
0.0
  0
LINE
  5
F1065F
330
261
100
AcDbEntity
  8
Geo
100
AcDbLine
 10
-18.98859711728926
 20
-5.258097969965975
 30
0.0
 11
-18.88859711728926
 21
-5.263916892851375
 31
0.0
  0
LINE
  5
F10661
330
261
100
AcDbEntity
  8
Geo
100
AcDbLine
 10
-18.88859711728926
 20
-5.263916892851375
 30
0.0
 11
-18.78859711728926
 21
-5.269261858802275
 31
0.0
  0
LINE
  5
F10663
330
261
100
AcDbEntity
  8
Geo
100
AcDbLine
 10
-18.78859711728926
 20
-5.269261858802275
 30
0.0
 11
-18.68859711728926
 21
-5.274132504217574
 31
0.0
  0
LINE
  5
F10665
330
261
100
AcDbEntity
  8
Geo
100
AcDbLine
 10
-18.68859711728926
 20
-5.274132504217574
 30
0.0
 11
-18.58859711728925
 21
-5.278528497762675
 31
0.0
  0
LINE
  5
F10667
330
261
100
AcDbEntity
  8
Geo
100
AcDbLine
 10
-18.58859711728925
 20
-5.278528497762675
 30
0.0
 11
-18.48859711728926
 21
-5.282449540392274
 31
0.0
  0
LINE
  5
F10669
330
261
100
AcDbEntity
  8
Geo
100
AcDbLine
 10
-18.48859711728926
 20
-5.282449540392274
 30
0.0
 11
-18.38859711728926
 21
-5.285895365370175
 31
0.0
  0
LINE
  5
F1066B
330
261
100
AcDbEntity
  8
Geo
100
AcDbLine
 10
-18.38859711728926
 20
-5.285895365370175
 30
0.0
 11
-18.28859711728926
 21
-5.288865738287775
 31
0.0
  0
LINE
  5
F1066D
330
261
100
AcDbEntity
  8
Geo
100
AcDbLine
 10
-18.28859711728926
 20
-5.288865738287775
 30
0.0
 11
-18.18859711728926
 21
-5.291360457080175
 31
0.0
  0
LINE
  5
F1066F
330
261
100
AcDbEntity
  8
Geo
100
AcDbLine
 10
-18.18859711728926
 20
-5.291360457080175
 30
0.0
 11
-18.08859711728925
 21
-5.293379352039574
 31
0.0
  0
LINE
  5
F10671
330
261
100
AcDbEntity
  8
Geo
100
AcDbLine
 10
-18.08859711728925
 20
-5.293379352039574
 30
0.0
 11
-17.98859711728926
 21
-5.294922285826773
 31
0.0
  0
LINE
  5
F10673
330
261
100
AcDbEntity
  8
Geo
100
AcDbLine
 10
-17.98859711728926
 20
-5.294922285826773
 30
0.0
 11
-17.88859711728926
 21
-5.295989153481075
 31
0.0
  0
LINE
  5
F10675
330
261
100
AcDbEntity
  8
Geo
100
AcDbLine
 10
-17.88859711728926
 20
-5.295989153481075
 30
0.0
 11
-17.78859711728926
 21
-5.296579882426772
 31
0.0
  0
LINE
  5
F10677
330
261
100
AcDbEntity
  8
Geo
100
AcDbLine
 10
-41.98859711728935
 20
6.366753725025819
 30
0.0
 11
-41.88859711728935
 21
6.393536671759424
 31
0.0
  0
LINE
  5
F10679
330
261
100
AcDbEntity
  8
Geo
100
AcDbLine
 10
-41.88859711728935
 20
6.393536671759424
 30
0.0
 11
-41.78859711728934
 21
6.405359255227423
 31
0.0
  0
LINE
  5
F1067B
330
261
100
AcDbEntity
  8
Geo
100
AcDbLine
 10
-41.78859711728934
 20
6.405359255227423
 30
0.0
 11
-41.68859711728934
 21
6.362639461639123
 31
0.0
  0
LINE
  5
F1067D
330
261
100
AcDbEntity
  8
Geo
100
AcDbLine
 10
-41.68859711728934
 20
6.362639461639123
 30
0.0
 11
-41.58859711728934
 21
6.319602707268028
 31
0.0
  0
LINE
  5
F1067F
330
261
100
AcDbEntity
  8
Geo
100
AcDbLine
 10
-41.58859711728934
 20
6.319602707268028
 30
0.0
 11
-41.48859711728934
 21
6.276251919767922
 31
0.0
  0
LINE
  5
F10681
330
261
100
AcDbEntity
  8
Geo
100
AcDbLine
 10
-41.48859711728934
 20
6.276251919767922
 30
0.0
 11
-41.38859711728935
 21
6.23259004815512
 31
0.0
  0
LINE
  5
F10683
330
261
100
AcDbEntity
  8
Geo
100
AcDbLine
 10
-41.38859711728935
 20
6.23259004815512
 30
0.0
 11
-41.28859711728934
 21
6.188620062608425
 31
0.0
  0
LINE
  5
F10685
330
261
100
AcDbEntity
  8
Geo
100
AcDbLine
 10
-41.28859711728934
 20
6.188620062608425
 30
0.0
 11
-41.18859711728934
 21
6.144344954266028
 31
0.0
  0
LINE
  5
F10687
330
261
100
AcDbEntity
  8
Geo
100
AcDbLine
 10
-41.18859711728934
 20
6.144344954266028
 30
0.0
 11
-41.08859711728934
 21
6.099767735023227
 31
0.0
  0
LINE
  5
F10689
330
261
100
AcDbEntity
  8
Geo
100
AcDbLine
 10
-41.08859711728934
 20
6.099767735023227
 30
0.0
 11
-40.98859711728934
 21
6.054891437326624
 31
0.0
  0
LINE
  5
F1068B
330
261
100
AcDbEntity
  8
Geo
100
AcDbLine
 10
-40.98859711728934
 20
6.054891437326624
 30
0.0
 11
-40.88859711728935
 21
6.009719113968223
 31
0.0
  0
LINE
  5
F1068D
330
261
100
AcDbEntity
  8
Geo
100
AcDbLine
 10
-40.88859711728935
 20
6.009719113968223
 30
0.0
 11
-40.78859711728934
 21
5.964253837877926
 31
0.0
  0
LINE
  5
F1068F
330
261
100
AcDbEntity
  8
Geo
100
AcDbLine
 10
-40.78859711728934
 20
5.964253837877926
 30
0.0
 11
-40.68859711728935
 21
5.918498701914025
 31
0.0
  0
LINE
  5
F10691
330
261
100
AcDbEntity
  8
Geo
100
AcDbLine
 10
-40.68859711728935
 20
5.918498701914025
 30
0.0
 11
-40.58859711728934
 21
5.872456818653127
 31
0.0
  0
LINE
  5
F10693
330
261
100
AcDbEntity
  8
Geo
100
AcDbLine
 10
-40.58859711728934
 20
5.872456818653127
 30
0.0
 11
-40.48859711728934
 21
5.826131320178422
 31
0.0
  0
LINE
  5
F10695
330
261
100
AcDbEntity
  8
Geo
100
AcDbLine
 10
-40.48859711728934
 20
5.826131320178422
 30
0.0
 11
-40.38859711728934
 21
5.779525357866525
 31
0.0
  0
LINE
  5
F10697
330
261
100
AcDbEntity
  8
Geo
100
AcDbLine
 10
-40.38859711728934
 20
5.779525357866525
 30
0.0
 11
-40.28859711728934
 21
5.732642102173123
 31
0.0
  0
LINE
  5
F10699
330
261
100
AcDbEntity
  8
Geo
100
AcDbLine
 10
-40.28859711728934
 20
5.732642102173123
 30
0.0
 11
-40.18859711728935
 21
5.685484742417127
 31
0.0
  0
LINE
  5
F1069B
330
261
100
AcDbEntity
  8
Geo
100
AcDbLine
 10
-40.18859711728935
 20
5.685484742417127
 30
0.0
 11
-40.08859711728933
 21
5.638056486564128
 31
0.0
  0
LINE
  5
F1069D
330
261
100
AcDbEntity
  8
Geo
100
AcDbLine
 10
-40.08859711728933
 20
5.638056486564128
 30
0.0
 11
-39.98859711728935
 21
5.590360561007724
 31
0.0
  0
LINE
  5
F1069F
330
261
100
AcDbEntity
  8
Geo
100
AcDbLine
 10
-39.98859711728935
 20
5.590360561007724
 30
0.0
 11
-39.88859711728935
 21
5.542400210350322
 31
0.0
  0
LINE
  5
F106A1
330
261
100
AcDbEntity
  8
Geo
100
AcDbLine
 10
-39.88859711728935
 20
5.542400210350322
 30
0.0
 11
-39.78859711728934
 21
5.494178697182427
 31
0.0
  0
LINE
  5
F106A3
330
261
100
AcDbEntity
  8
Geo
100
AcDbLine
 10
-39.78859711728934
 20
5.494178697182427
 30
0.0
 11
-39.68859711728935
 21
5.445699301860226
 31
0.0
  0
LINE
  5
F106A5
330
261
100
AcDbEntity
  8
Geo
100
AcDbLine
 10
-39.68859711728935
 20
5.445699301860226
 30
0.0
 11
-39.58859711728934
 21
5.396965322283325
 31
0.0
  0
LINE
  5
F106A7
330
261
100
AcDbEntity
  8
Geo
100
AcDbLine
 10
-39.58859711728934
 20
5.396965322283325
 30
0.0
 11
-39.48859711728935
 21
5.347980073669624
 31
0.0
  0
LINE
  5
F106A9
330
261
100
AcDbEntity
  8
Geo
100
AcDbLine
 10
-39.48859711728935
 20
5.347980073669624
 30
0.0
 11
-39.38859711728935
 21
5.298746888329926
 31
0.0
  0
LINE
  5
F106AB
330
261
100
AcDbEntity
  8
Geo
100
AcDbLine
 10
-39.38859711728935
 20
5.298746888329926
 30
0.0
 11
-39.28859711728934
 21
5.249269115441528
 31
0.0
  0
LINE
  5
F106AD
330
261
100
AcDbEntity
  8
Geo
100
AcDbLine
 10
-39.28859711728934
 20
5.249269115441528
 30
0.0
 11
-39.18859711728935
 21
5.199550120820422
 31
0.0
  0
LINE
  5
F106AF
330
261
100
AcDbEntity
  8
Geo
100
AcDbLine
 10
-39.18859711728935
 20
5.199550120820422
 30
0.0
 11
-39.08859711728934
 21
5.149593286691722
 31
0.0
  0
LINE
  5
F106B1
330
261
100
AcDbEntity
  8
Geo
100
AcDbLine
 10
-39.08859711728934
 20
5.149593286691722
 30
0.0
 11
-38.98859711728935
 21
5.099402011460529
 31
0.0
  0
LINE
  5
F106B3
330
261
100
AcDbEntity
  8
Geo
100
AcDbLine
 10
-38.98859711728935
 20
5.099402011460529
 30
0.0
 11
-38.88859711728935
 21
5.048979709479723
 31
0.0
  0
LINE
  5
F106B5
330
261
100
AcDbEntity
  8
Geo
100
AcDbLine
 10
-38.88859711728935
 20
5.048979709479723
 30
0.0
 11
-38.78859711728934
 21
4.998329810818525
 31
0.0
  0
LINE
  5
F106B7
330
261
100
AcDbEntity
  8
Geo
100
AcDbLine
 10
-38.78859711728934
 20
4.998329810818525
 30
0.0
 11
-38.68859711728935
 21
4.947455761028624
 31
0.0
  0
LINE
  5
F106B9
330
261
100
AcDbEntity
  8
Geo
100
AcDbLine
 10
-38.68859711728935
 20
4.947455761028624
 30
0.0
 11
-38.58859711728934
 21
4.896361020910326
 31
0.0
  0
LINE
  5
F106BB
330
261
100
AcDbEntity
  8
Geo
100
AcDbLine
 10
-38.58859711728934
 20
4.896361020910326
 30
0.0
 11
-38.48859711728934
 21
4.845049066276526
 31
0.0
  0
LINE
  5
F106BD
330
261
100
AcDbEntity
  8
Geo
100
AcDbLine
 10
-38.48859711728934
 20
4.845049066276526
 30
0.0
 11
-38.38859711728935
 21
4.793523387716422
 31
0.0
  0
LINE
  5
F106BF
330
261
100
AcDbEntity
  8
Geo
100
AcDbLine
 10
-38.38859711728935
 20
4.793523387716422
 30
0.0
 11
-38.28859711728934
 21
4.741787490358525
 31
0.0
  0
LINE
  5
F106C1
330
261
100
AcDbEntity
  8
Geo
100
AcDbLine
 10
-38.28859711728934
 20
4.741787490358525
 30
0.0
 11
-38.18859711728935
 21
4.689844893631626
 31
0.0
  0
LINE
  5
F106C3
330
261
100
AcDbEntity
  8
Geo
100
AcDbLine
 10
-38.18859711728935
 20
4.689844893631626
 30
0.0
 11
-38.08859711728934
 21
4.637699131025726
 31
0.0
  0
LINE
  5
F106C5
330
261
100
AcDbEntity
  8
Geo
100
AcDbLine
 10
-38.08859711728934
 20
4.637699131025726
 30
0.0
 11
-37.98859711728935
 21
4.585353749851421
 31
0.0
  0
LINE
  5
F106C7
330
261
100
AcDbEntity
  8
Geo
100
AcDbLine
 10
-37.98859711728935
 20
4.585353749851421
 30
0.0
 11
-37.88859711728935
 21
4.532812310998821
 31
0.0
  0
LINE
  5
F106C9
330
261
100
AcDbEntity
  8
Geo
100
AcDbLine
 10
-37.88859711728935
 20
4.532812310998821
 30
0.0
 11
-37.78859711728934
 21
4.480078388695226
 31
0.0
  0
LINE
  5
F106CB
330
261
100
AcDbEntity
  8
Geo
100
AcDbLine
 10
-37.78859711728934
 20
4.480078388695226
 30
0.0
 11
-37.68859711728935
 21
4.427155570261927
 31
0.0
  0
LINE
  5
F106CD
330
261
100
AcDbEntity
  8
Geo
100
AcDbLine
 10
-37.68859711728935
 20
4.427155570261927
 30
0.0
 11
-37.58859711728934
 21
4.374047455870325
 31
0.0
  0
LINE
  5
F106CF
330
261
100
AcDbEntity
  8
Geo
100
AcDbLine
 10
-37.58859711728934
 20
4.374047455870325
 30
0.0
 11
-37.48859711728935
 21
4.320757658296823
 31
0.0
  0
LINE
  5
F106D1
330
261
100
AcDbEntity
  8
Geo
100
AcDbLine
 10
-37.48859711728935
 20
4.320757658296823
 30
0.0
 11
-37.38859711728935
 21
4.267289802677026
 31
0.0
  0
LINE
  5
F106D3
330
261
100
AcDbEntity
  8
Geo
100
AcDbLine
 10
-37.38859711728935
 20
4.267289802677026
 30
0.0
 11
-37.28859711728934
 21
4.213647526259528
 31
0.0
  0
LINE
  5
F106D5
330
261
100
AcDbEntity
  8
Geo
100
AcDbLine
 10
-37.28859711728934
 20
4.213647526259528
 30
0.0
 11
-37.18859711728935
 21
4.159834478158128
 31
0.0
  0
LINE
  5
F106D7
330
261
100
AcDbEntity
  8
Geo
100
AcDbLine
 10
-37.18859711728935
 20
4.159834478158128
 30
0.0
 11
-37.08859711728934
 21
4.105854319103624
 31
0.0
  0
LINE
  5
F106D9
330
261
100
AcDbEntity
  8
Geo
100
AcDbLine
 10
-37.08859711728934
 20
4.105854319103624
 30
0.0
 11
-36.98859711728935
 21
4.051710721194726
 31
0.0
  0
LINE
  5
F106DB
330
261
100
AcDbEntity
  8
Geo
100
AcDbLine
 10
-36.98859711728935
 20
4.051710721194726
 30
0.0
 11
-36.88859711728935
 21
3.997407367648627
 31
0.0
  0
LINE
  5
F106DD
330
261
100
AcDbEntity
  8
Geo
100
AcDbLine
 10
-36.88859711728935
 20
3.997407367648627
 30
0.0
 11
-36.78859711728935
 21
3.942947952550124
 31
0.0
  0
LINE
  5
F106DF
330
261
100
AcDbEntity
  8
Geo
100
AcDbLine
 10
-36.78859711728935
 20
3.942947952550124
 30
0.0
 11
-36.68859711728935
 21
3.888336180600123
 31
0.0
  0
LINE
  5
F106E1
330
261
100
AcDbEntity
  8
Geo
100
AcDbLine
 10
-36.68859711728935
 20
3.888336180600123
 30
0.0
 11
-36.58859711728934
 21
3.833575766864324
 31
0.0
  0
LINE
  5
F106E3
330
261
100
AcDbEntity
  8
Geo
100
AcDbLine
 10
-36.58859711728934
 20
3.833575766864324
 30
0.0
 11
-36.48859711728935
 21
3.778670436519725
 31
0.0
  0
LINE
  5
F106E5
330
261
100
AcDbEntity
  8
Geo
100
AcDbLine
 10
-36.48859711728935
 20
3.778670436519725
 30
0.0
 11
-36.38859711728935
 21
3.723623924601621
 31
0.0
  0
LINE
  5
F106E7
330
261
100
AcDbEntity
  8
Geo
100
AcDbLine
 10
-36.38859711728935
 20
3.723623924601621
 30
0.0
 11
-36.28859711728934
 21
3.668439975749425
 31
0.0
  0
LINE
  5
F106E9
330
261
100
AcDbEntity
  8
Geo
100
AcDbLine
 10
-36.28859711728934
 20
3.668439975749425
 30
0.0
 11
-36.18859711728935
 21
3.61312234395212
 31
0.0
  0
LINE
  5
F106EB
330
261
100
AcDbEntity
  8
Geo
100
AcDbLine
 10
-36.18859711728935
 20
3.61312234395212
 30
0.0
 11
-36.08859711728934
 21
3.557674792292424
 31
0.0
  0
LINE
  5
F106ED
330
261
100
AcDbEntity
  8
Geo
100
AcDbLine
 10
-36.08859711728934
 20
3.557674792292424
 30
0.0
 11
-35.98859711728934
 21
3.502101092691322
 31
0.0
  0
LINE
  5
F106EF
330
261
100
AcDbEntity
  8
Geo
100
AcDbLine
 10
-35.98859711728934
 20
3.502101092691322
 30
0.0
 11
-35.88859711728935
 21
3.446405025651127
 31
0.0
  0
LINE
  5
F106F1
330
261
100
AcDbEntity
  8
Geo
100
AcDbLine
 10
-35.88859711728935
 20
3.446405025651127
 30
0.0
 11
-35.78859711728934
 21
3.390590379998528
 31
0.0
  0
LINE
  5
F106F3
330
261
100
AcDbEntity
  8
Geo
100
AcDbLine
 10
-35.78859711728934
 20
3.390590379998528
 30
0.0
 11
-35.68859711728935
 21
3.334660952626624
 31
0.0
  0
LINE
  5
F106F5
330
261
100
AcDbEntity
  8
Geo
100
AcDbLine
 10
-35.68859711728935
 20
3.334660952626624
 30
0.0
 11
-35.58859711728934
 21
3.278620548236723
 31
0.0
  0
LINE
  5
F106F7
330
261
100
AcDbEntity
  8
Geo
100
AcDbLine
 10
-35.58859711728934
 20
3.278620548236723
 30
0.0
 11
-35.48859711728935
 21
3.222472979079824
 31
0.0
  0
LINE
  5
F106F9
330
261
100
AcDbEntity
  8
Geo
100
AcDbLine
 10
-35.48859711728935
 20
3.222472979079824
 30
0.0
 11
-35.38859711728935
 21
3.166222064696526
 31
0.0
  0
LINE
  5
F106FB
330
261
100
AcDbEntity
  8
Geo
100
AcDbLine
 10
-35.38859711728935
 20
3.166222064696526
 30
0.0
 11
-35.28859711728934
 21
3.109871631658226
 31
0.0
  0
LINE
  5
F106FD
330
261
100
AcDbEntity
  8
Geo
100
AcDbLine
 10
-35.28859711728934
 20
3.109871631658226
 30
0.0
 11
-35.18859711728935
 21
3.053425513305725
 31
0.0
  0
LINE
  5
F106FF
330
261
100
AcDbEntity
  8
Geo
100
AcDbLine
 10
-35.18859711728935
 20
3.053425513305725
 30
0.0
 11
-35.08859711728934
 21
2.996887549489528
 31
0.0
  0
LINE
  5
F10701
330
261
100
AcDbEntity
  8
Geo
100
AcDbLine
 10
-35.08859711728934
 20
2.996887549489528
 30
0.0
 11
-34.98859711728935
 21
2.940261586307627
 31
0.0
  0
LINE
  5
F10703
330
261
100
AcDbEntity
  8
Geo
100
AcDbLine
 10
-34.98859711728935
 20
2.940261586307627
 30
0.0
 11
-34.88859711728935
 21
2.883551475844527
 31
0.0
  0
LINE
  5
F10705
330
261
100
AcDbEntity
  8
Geo
100
AcDbLine
 10
-34.88859711728935
 20
2.883551475844527
 30
0.0
 11
-34.78859711728934
 21
2.826761075909029
 31
0.0
  0
LINE
  5
F10707
330
261
100
AcDbEntity
  8
Geo
100
AcDbLine
 10
-34.78859711728934
 20
2.826761075909029
 30
0.0
 11
-34.68859711728935
 21
2.769894249771823
 31
0.0
  0
LINE
  5
F10709
330
261
100
AcDbEntity
  8
Geo
100
AcDbLine
 10
-34.68859711728935
 20
2.769894249771823
 30
0.0
 11
-34.58859711728934
 21
2.712954865902524
 31
0.0
  0
LINE
  5
F1070B
330
261
100
AcDbEntity
  8
Geo
100
AcDbLine
 10
-34.58859711728934
 20
2.712954865902524
 30
0.0
 11
-34.48859711728935
 21
2.655946797706526
 31
0.0
  0
LINE
  5
F1070D
330
261
100
AcDbEntity
  8
Geo
100
AcDbLine
 10
-34.48859711728935
 20
2.655946797706526
 30
0.0
 11
-34.38859711728935
 21
2.598873923261923
 31
0.0
  0
LINE
  5
F1070F
330
261
100
AcDbEntity
  8
Geo
100
AcDbLine
 10
-34.38859711728935
 20
2.598873923261923
 30
0.0
 11
-34.28859711728935
 21
2.541740125054921
 31
0.0
  0
LINE
  5
F10711
330
261
100
AcDbEntity
  8
Geo
100
AcDbLine
 10
-34.28859711728935
 20
2.541740125054921
 30
0.0
 11
-34.18859711728935
 21
2.484549289716625
 31
0.0
  0
LINE
  5
F10713
330
261
100
AcDbEntity
  8
Geo
100
AcDbLine
 10
-34.18859711728935
 20
2.484549289716625
 30
0.0
 11
-34.08859711728934
 21
2.427305307758025
 31
0.0
  0
LINE
  5
F10715
330
261
100
AcDbEntity
  8
Geo
100
AcDbLine
 10
-34.08859711728934
 20
2.427305307758025
 30
0.0
 11
-33.98859711728935
 21
2.370012073305321
 31
0.0
  0
LINE
  5
F10717
330
261
100
AcDbEntity
  8
Geo
100
AcDbLine
 10
-33.98859711728935
 20
2.370012073305321
 30
0.0
 11
-33.88859711728935
 21
2.312673483835425
 31
0.0
  0
LINE
  5
F10719
330
261
100
AcDbEntity
  8
Geo
100
AcDbLine
 10
-33.88859711728935
 20
2.312673483835425
 30
0.0
 11
-33.78859711728934
 21
2.255293439910527
 31
0.0
  0
LINE
  5
F1071B
330
261
100
AcDbEntity
  8
Geo
100
AcDbLine
 10
-33.78859711728934
 20
2.255293439910527
 30
0.0
 11
-33.68859711728935
 21
2.197875844912825
 31
0.0
  0
LINE
  5
F1071D
330
261
100
AcDbEntity
  8
Geo
100
AcDbLine
 10
-33.68859711728935
 20
2.197875844912825
 30
0.0
 11
-33.58859711728934
 21
2.140424604779123
 31
0.0
  0
LINE
  5
F1071F
330
261
100
AcDbEntity
  8
Geo
100
AcDbLine
 10
-33.58859711728934
 20
2.140424604779123
 30
0.0
 11
-33.48859711728936
 21
2.082943627734824
 31
0.0
  0
LINE
  5
F10721
330
261
100
AcDbEntity
  8
Geo
100
AcDbLine
 10
-33.48859711728936
 20
2.082943627734824
 30
0.0
 11
-33.38859711728935
 21
2.025436824028325
 31
0.0
  0
LINE
  5
F10723
330
261
100
AcDbEntity
  8
Geo
100
AcDbLine
 10
-33.38859711728935
 20
2.025436824028325
 30
0.0
 11
-33.28859711728936
 21
1.967908105664925
 31
0.0
  0
LINE
  5
F10725
330
261
100
AcDbEntity
  8
Geo
100
AcDbLine
 10
-33.28859711728936
 20
1.967908105664925
 30
0.0
 11
-33.18859711728936
 21
1.910361386140724
 31
0.0
  0
LINE
  5
F10727
330
261
100
AcDbEntity
  8
Geo
100
AcDbLine
 10
-33.18859711728936
 20
1.910361386140724
 30
0.0
 11
-33.08859711728935
 21
1.852800580176225
 31
0.0
  0
LINE
  5
F10729
330
261
100
AcDbEntity
  8
Geo
100
AcDbLine
 10
-33.08859711728935
 20
1.852800580176225
 30
0.0
 11
-32.98859711728936
 21
1.795229603450323
 31
0.0
  0
LINE
  5
F1072B
330
261
100
AcDbEntity
  8
Geo
100
AcDbLine
 10
-32.98859711728936
 20
1.795229603450323
 30
0.0
 11
-32.88859711728935
 21
1.737652372334029
 31
0.0
  0
LINE
  5
F1072D
330
261
100
AcDbEntity
  8
Geo
100
AcDbLine
 10
-32.88859711728935
 20
1.737652372334029
 30
0.0
 11
-32.78859711728936
 21
1.680072803623325
 31
0.0
  0
LINE
  5
F1072F
330
261
100
AcDbEntity
  8
Geo
100
AcDbLine
 10
-32.78859711728936
 20
1.680072803623325
 30
0.0
 11
-32.68859711728936
 21
1.622494814273526
 31
0.0
  0
LINE
  5
F10731
330
261
100
AcDbEntity
  8
Geo
100
AcDbLine
 10
-32.68859711728936
 20
1.622494814273526
 30
0.0
 11
-32.58859711728935
 21
1.564922321132527
 31
0.0
  0
LINE
  5
F10733
330
261
100
AcDbEntity
  8
Geo
100
AcDbLine
 10
-32.58859711728935
 20
1.564922321132527
 30
0.0
 11
-32.48859711728936
 21
1.507359240674222
 31
0.0
  0
LINE
  5
F10735
330
261
100
AcDbEntity
  8
Geo
100
AcDbLine
 10
-32.48859711728936
 20
1.507359240674222
 30
0.0
 11
-32.38859711728935
 21
1.449809488732224
 31
0.0
  0
LINE
  5
F10737
330
261
100
AcDbEntity
  8
Geo
100
AcDbLine
 10
-32.38859711728935
 20
1.449809488732224
 30
0.0
 11
-32.28859711728936
 21
1.392276980233425
 31
0.0
  0
LINE
  5
F10739
330
261
100
AcDbEntity
  8
Geo
100
AcDbLine
 10
-32.28859711728936
 20
1.392276980233425
 30
0.0
 11
-32.18859711728936
 21
1.334765628931727
 31
0.0
  0
LINE
  5
F1073B
330
261
100
AcDbEntity
  8
Geo
100
AcDbLine
 10
-32.18859711728936
 20
1.334765628931727
 30
0.0
 11
-32.08859711728936
 21
1.277279347141824
 31
0.0
  0
LINE
  5
F1073D
330
261
100
AcDbEntity
  8
Geo
100
AcDbLine
 10
-32.08859711728936
 20
1.277279347141824
 30
0.0
 11
-31.98859711728936
 21
1.219822045472923
 31
0.0
  0
LINE
  5
F1073F
330
261
100
AcDbEntity
  8
Geo
100
AcDbLine
 10
-31.98859711728936
 20
1.219822045472923
 30
0.0
 11
-31.88859711728935
 21
1.162397632562925
 31
0.0
  0
LINE
  5
F10741
330
261
100
AcDbEntity
  8
Geo
100
AcDbLine
 10
-31.88859711728935
 20
1.162397632562925
 30
0.0
 11
-31.78859711728936
 21
1.105010014812226
 31
0.0
  0
LINE
  5
F10743
330
261
100
AcDbEntity
  8
Geo
100
AcDbLine
 10
-31.78859711728936
 20
1.105010014812226
 30
0.0
 11
-31.68859711728936
 21
1.047663096118228
 31
0.0
  0
LINE
  5
F10745
330
261
100
AcDbEntity
  8
Geo
100
AcDbLine
 10
-31.68859711728936
 20
1.047663096118228
 30
0.0
 11
-31.58859711728935
 21
0.9903607776099256
 31
0.0
  0
LINE
  5
F10747
330
261
100
AcDbEntity
  8
Geo
100
AcDbLine
 10
-31.58859711728935
 20
0.9903607776099256
 30
0.0
 11
-31.48859711728936
 21
0.933106957381927
 31
0.0
  0
LINE
  5
F10749
330
261
100
AcDbEntity
  8
Geo
100
AcDbLine
 10
-31.48859711728936
 20
0.933106957381927
 30
0.0
 11
-31.38859711728935
 21
0.8759055302300282
 31
0.0
  0
LINE
  5
F1074B
330
261
100
AcDbEntity
  8
Geo
100
AcDbLine
 10
-31.38859711728935
 20
0.8759055302300282
 30
0.0
 11
-31.28859711728936
 21
0.8187603873856232
 31
0.0
  0
LINE
  5
F1074D
330
261
100
AcDbEntity
  8
Geo
100
AcDbLine
 10
-31.28859711728936
 20
0.8187603873856232
 30
0.0
 11
-31.18859711728936
 21
0.7616754162514248
 31
0.0
  0
LINE
  5
F1074F
330
261
100
AcDbEntity
  8
Geo
100
AcDbLine
 10
-31.18859711728936
 20
0.7616754162514248
 30
0.0
 11
-31.08859711728936
 21
0.7046545001366234
 31
0.0
  0
LINE
  5
F10751
330
261
100
AcDbEntity
  8
Geo
100
AcDbLine
 10
-31.08859711728936
 20
0.7046545001366234
 30
0.0
 11
-30.98859711728936
 21
0.6477015179933261
 31
0.0
  0
LINE
  5
F10753
330
261
100
AcDbEntity
  8
Geo
100
AcDbLine
 10
-30.98859711728936
 20
0.6477015179933261
 30
0.0
 11
-30.88859711728935
 21
0.5908203441520286
 31
0.0
  0
LINE
  5
F10755
330
261
100
AcDbEntity
  8
Geo
100
AcDbLine
 10
-30.88859711728935
 20
0.5908203441520286
 30
0.0
 11
-30.78859711728936
 21
0.5340148480583231
 31
0.0
  0
LINE
  5
F10757
330
261
100
AcDbEntity
  8
Geo
100
AcDbLine
 10
-30.78859711728936
 20
0.5340148480583231
 30
0.0
 11
-30.68859711728936
 21
0.4772888940098241
 31
0.0
  0
LINE
  5
F10759
330
261
100
AcDbEntity
  8
Geo
100
AcDbLine
 10
-30.68859711728936
 20
0.4772888940098241
 30
0.0
 11
-30.58859711728935
 21
0.4206463408930255
 31
0.0
  0
LINE
  5
F1075B
330
261
100
AcDbEntity
  8
Geo
100
AcDbLine
 10
-30.58859711728935
 20
0.4206463408930255
 30
0.0
 11
-30.48859711728936
 21
0.3640910419211245
 31
0.0
  0
LINE
  5
F1075D
330
261
100
AcDbEntity
  8
Geo
100
AcDbLine
 10
-30.48859711728936
 20
0.3640910419211245
 30
0.0
 11
-30.38859711728935
 21
0.3076268443715264
 31
0.0
  0
LINE
  5
F1075F
330
261
100
AcDbEntity
  8
Geo
100
AcDbLine
 10
-30.38859711728935
 20
0.3076268443715264
 30
0.0
 11
-30.28859711728936
 21
0.2512575893242257
 31
0.0
  0
LINE
  5
F10761
330
261
100
AcDbEntity
  8
Geo
100
AcDbLine
 10
-30.28859711728936
 20
0.2512575893242257
 30
0.0
 11
-30.18859711728936
 21
0.194987111400728
 31
0.0
  0
LINE
  5
F10763
330
261
100
AcDbEntity
  8
Geo
100
AcDbLine
 10
-30.18859711728936
 20
0.194987111400728
 30
0.0
 11
-30.08859711728935
 21
0.1388192385031246
 31
0.0
  0
LINE
  5
F10765
330
261
100
AcDbEntity
  8
Geo
100
AcDbLine
 10
-30.08859711728935
 20
0.1388192385031246
 30
0.0
 11
-29.98859711728936
 21
0.0827577915533233
 31
0.0
  0
LINE
  5
F10767
330
261
100
AcDbEntity
  8
Geo
100
AcDbLine
 10
-29.98859711728936
 20
0.0827577915533233
 30
0.0
 11
-29.88859711728935
 21
0.026806584233622
 31
0.0
  0
LINE
  5
F10769
330
261
100
AcDbEntity
  8
Geo
100
AcDbLine
 10
-29.88859711728935
 20
0.026806584233622
 30
0.0
 11
-29.78859711728936
 21
-0.0290305772728736
 31
0.0
  0
LINE
  5
F1076B
330
261
100
AcDbEntity
  8
Geo
100
AcDbLine
 10
-29.78859711728936
 20
-0.0290305772728736
 30
0.0
 11
-29.68859711728936
 21
-0.0847498945414742
 31
0.0
  0
LINE
  5
F1076D
330
261
100
AcDbEntity
  8
Geo
100
AcDbLine
 10
-29.68859711728936
 20
-0.0847498945414742
 30
0.0
 11
-29.58859711728936
 21
-0.140347577163773
 31
0.0
  0
LINE
  5
F1076F
330
261
100
AcDbEntity
  8
Geo
100
AcDbLine
 10
-29.58859711728936
 20
-0.140347577163773
 30
0.0
 11
-29.48859711728936
 21
-0.195819843006177
 31
0.0
  0
LINE
  5
F10771
330
261
100
AcDbEntity
  8
Geo
100
AcDbLine
 10
-29.48859711728936
 20
-0.195819843006177
 30
0.0
 11
-29.38859711728935
 21
-0.2511629184662745
 31
0.0
  0
LINE
  5
F10773
330
261
100
AcDbEntity
  8
Geo
100
AcDbLine
 10
-29.38859711728935
 20
-0.2511629184662745
 30
0.0
 11
-29.28859711728936
 21
-0.3063730387304737
 31
0.0
  0
LINE
  5
F10775
330
261
100
AcDbEntity
  8
Geo
100
AcDbLine
 10
-29.28859711728936
 20
-0.3063730387304737
 30
0.0
 11
-29.18859711728936
 21
-0.3614464480295751
 31
0.0
  0
LINE
  5
F10777
330
261
100
AcDbEntity
  8
Geo
100
AcDbLine
 10
-29.18859711728936
 20
-0.3614464480295751
 30
0.0
 11
-29.08859711728935
 21
-0.4163793998943746
 31
0.0
  0
LINE
  5
F10779
330
261
100
AcDbEntity
  8
Geo
100
AcDbLine
 10
-29.08859711728935
 20
-0.4163793998943746
 30
0.0
 11
-28.98859711728936
 21
-0.471168157410574
 31
0.0
  0
LINE
  5
F1077B
330
261
100
AcDbEntity
  8
Geo
100
AcDbLine
 10
-28.98859711728936
 20
-0.471168157410574
 30
0.0
 11
-28.88859711728935
 21
-0.5258089934728752
 31
0.0
  0
LINE
  5
F1077D
330
261
100
AcDbEntity
  8
Geo
100
AcDbLine
 10
-28.88859711728935
 20
-0.5258089934728752
 30
0.0
 11
-28.78859711728935
 21
-0.580298191038775
 31
0.0
  0
LINE
  5
F1077F
330
261
100
AcDbEntity
  8
Geo
100
AcDbLine
 10
-28.78859711728935
 20
-0.580298191038775
 30
0.0
 11
-28.68859711728936
 21
-0.6346320433810746
 31
0.0
  0
LINE
  5
F10781
330
261
100
AcDbEntity
  8
Geo
100
AcDbLine
 10
-28.68859711728936
 20
-0.6346320433810746
 30
0.0
 11
-28.58859711728936
 21
-0.6888068543402746
 31
0.0
  0
LINE
  5
F10783
330
261
100
AcDbEntity
  8
Geo
100
AcDbLine
 10
-28.58859711728936
 20
-0.6888068543402746
 30
0.0
 11
-28.48859711728936
 21
-0.7428189385760753
 31
0.0
  0
LINE
  5
F10785
330
261
100
AcDbEntity
  8
Geo
100
AcDbLine
 10
-28.48859711728936
 20
-0.7428189385760753
 30
0.0
 11
-28.38859711728935
 21
-0.7966646218177758
 31
0.0
  0
LINE
  5
F10787
330
261
100
AcDbEntity
  8
Geo
100
AcDbLine
 10
-28.38859711728935
 20
-0.7966646218177758
 30
0.0
 11
-28.28859711728936
 21
-0.8503402411145764
 31
0.0
  0
LINE
  5
F10789
330
261
100
AcDbEntity
  8
Geo
100
AcDbLine
 10
-28.28859711728936
 20
-0.8503402411145764
 30
0.0
 11
-28.18859711728936
 21
-0.9038421450843756
 31
0.0
  0
LINE
  5
F1078B
330
261
100
AcDbEntity
  8
Geo
100
AcDbLine
 10
-28.18859711728936
 20
-0.9038421450843756
 30
0.0
 11
-28.08859711728935
 21
-0.9571666941625771
 31
0.0
  0
LINE
  5
F1078D
330
261
100
AcDbEntity
  8
Geo
100
AcDbLine
 10
-28.08859711728935
 20
-0.9571666941625771
 30
0.0
 11
-27.98859711728936
 21
-1.010310260849472
 31
0.0
  0
LINE
  5
F1078F
330
261
100
AcDbEntity
  8
Geo
100
AcDbLine
 10
-27.98859711728936
 20
-1.010310260849472
 30
0.0
 11
-27.88859711728935
 21
-1.063269229956773
 31
0.0
  0
LINE
  5
F10791
330
261
100
AcDbEntity
  8
Geo
100
AcDbLine
 10
-27.88859711728935
 20
-1.063269229956773
 30
0.0
 11
-27.78859711728936
 21
-1.116039998854073
 31
0.0
  0
LINE
  5
F10793
330
261
100
AcDbEntity
  8
Geo
100
AcDbLine
 10
-27.78859711728936
 20
-1.116039998854073
 30
0.0
 11
-27.68859711728936
 21
-1.168618977713471
 31
0.0
  0
LINE
  5
F10795
330
261
100
AcDbEntity
  8
Geo
100
AcDbLine
 10
-27.68859711728936
 20
-1.168618977713471
 30
0.0
 11
-27.58859711728935
 21
-1.221002589753972
 31
0.0
  0
LINE
  5
F10797
330
261
100
AcDbEntity
  8
Geo
100
AcDbLine
 10
-27.58859711728935
 20
-1.221002589753972
 30
0.0
 11
-27.48859711728936
 21
-1.273187271484676
 31
0.0
  0
LINE
  5
F10799
330
261
100
AcDbEntity
  8
Geo
100
AcDbLine
 10
-27.48859711728936
 20
-1.273187271484676
 30
0.0
 11
-27.38859711728935
 21
-1.325169472947472
 31
0.0
  0
LINE
  5
F1079B
330
261
100
AcDbEntity
  8
Geo
100
AcDbLine
 10
-27.38859711728935
 20
-1.325169472947472
 30
0.0
 11
-27.28859711728936
 21
-1.376945657958074
 31
0.0
  0
LINE
  5
F1079D
330
261
100
AcDbEntity
  8
Geo
100
AcDbLine
 10
-27.28859711728936
 20
-1.376945657958074
 30
0.0
 11
-27.18859711728936
 21
-1.428512304347176
 31
0.0
  0
LINE
  5
F1079F
330
261
100
AcDbEntity
  8
Geo
100
AcDbLine
 10
-27.18859711728936
 20
-1.428512304347176
 30
0.0
 11
-27.08859711728936
 21
-1.479865904199375
 31
0.0
  0
LINE
  5
F107A1
330
261
100
AcDbEntity
  8
Geo
100
AcDbLine
 10
-27.08859711728936
 20
-1.479865904199375
 30
0.0
 11
-26.98859711728936
 21
-1.531002964092472
 31
0.0
  0
LINE
  5
F107A3
330
261
100
AcDbEntity
  8
Geo
100
AcDbLine
 10
-26.98859711728936
 20
-1.531002964092472
 30
0.0
 11
-26.88859711728935
 21
-1.581920005334474
 31
0.0
  0
LINE
  5
F107A5
330
261
100
AcDbEntity
  8
Geo
100
AcDbLine
 10
-26.88859711728935
 20
-1.581920005334474
 30
0.0
 11
-26.78859711728936
 21
-1.632613564200774
 31
0.0
  0
LINE
  5
F107A7
330
261
100
AcDbEntity
  8
Geo
100
AcDbLine
 10
-26.78859711728936
 20
-1.632613564200774
 30
0.0
 11
-26.68859711728936
 21
-1.683080192169473
 31
0.0
  0
LINE
  5
F107A9
330
261
100
AcDbEntity
  8
Geo
100
AcDbLine
 10
-26.68859711728936
 20
-1.683080192169473
 30
0.0
 11
-26.58859711728935
 21
-1.733316456156178
 31
0.0
  0
LINE
  5
F107AB
330
261
100
AcDbEntity
  8
Geo
100
AcDbLine
 10
-26.58859711728935
 20
-1.733316456156178
 30
0.0
 11
-26.48859711728936
 21
-1.783318938747274
 31
0.0
  0
LINE
  5
F107AD
330
261
100
AcDbEntity
  8
Geo
100
AcDbLine
 10
-26.48859711728936
 20
-1.783318938747274
 30
0.0
 11
-26.38859711728935
 21
-1.833084238432576
 31
0.0
  0
LINE
  5
F107AF
330
261
100
AcDbEntity
  8
Geo
100
AcDbLine
 10
-26.38859711728935
 20
-1.833084238432576
 30
0.0
 11
-26.28859711728936
 21
-1.882608969836773
 31
0.0
  0
LINE
  5
F107B1
330
261
100
AcDbEntity
  8
Geo
100
AcDbLine
 10
-26.28859711728936
 20
-1.882608969836773
 30
0.0
 11
-26.18859711728936
 21
-1.931889763949676
 31
0.0
  0
LINE
  5
F107B3
330
261
100
AcDbEntity
  8
Geo
100
AcDbLine
 10
-26.18859711728936
 20
-1.931889763949676
 30
0.0
 11
-26.08859711728936
 21
-1.980923268355272
 31
0.0
  0
LINE
  5
F107B5
330
261
100
AcDbEntity
  8
Geo
100
AcDbLine
 10
-26.08859711728936
 20
-1.980923268355272
 30
0.0
 11
-25.98859711728936
 21
-2.029706147459972
 31
0.0
  0
LINE
  5
F107B7
330
261
100
AcDbEntity
  8
Geo
100
AcDbLine
 10
-25.98859711728936
 20
-2.029706147459972
 30
0.0
 11
-25.88859711728935
 21
-2.078235082719274
 31
0.0
  0
LINE
  5
F107B9
330
261
100
AcDbEntity
  8
Geo
100
AcDbLine
 10
-25.88859711728935
 20
-2.078235082719274
 30
0.0
 11
-25.78859711728936
 21
-2.126506772863773
 31
0.0
  0
LINE
  5
F107BB
330
261
100
AcDbEntity
  8
Geo
100
AcDbLine
 10
-25.78859711728936
 20
-2.126506772863773
 30
0.0
 11
-25.68859711728936
 21
-2.174517934123876
 31
0.0
  0
LINE
  5
F107BD
330
261
100
AcDbEntity
  8
Geo
100
AcDbLine
 10
-25.68859711728936
 20
-2.174517934123876
 30
0.0
 11
-25.58859711728935
 21
-2.222265300452374
 31
0.0
  0
LINE
  5
F107BF
330
261
100
AcDbEntity
  8
Geo
100
AcDbLine
 10
-25.58859711728935
 20
-2.222265300452374
 30
0.0
 11
-25.48859711728936
 21
-2.269745623747773
 31
0.0
  0
LINE
  5
F107C1
330
261
100
AcDbEntity
  8
Geo
100
AcDbLine
 10
-25.48859711728936
 20
-2.269745623747773
 30
0.0
 11
-25.38859711728935
 21
-2.316955674074275
 31
0.0
  0
LINE
  5
F107C3
330
261
100
AcDbEntity
  8
Geo
100
AcDbLine
 10
-25.38859711728935
 20
-2.316955674074275
 30
0.0
 11
-25.28859711728936
 21
-2.363892239882176
 31
0.0
  0
LINE
  5
F107C5
330
261
100
AcDbEntity
  8
Geo
100
AcDbLine
 10
-25.28859711728936
 20
-2.363892239882176
 30
0.0
 11
-25.18859711728936
 21
-2.410552128225774
 31
0.0
  0
LINE
  5
F107C7
330
261
100
AcDbEntity
  8
Geo
100
AcDbLine
 10
-25.18859711728936
 20
-2.410552128225774
 30
0.0
 11
-25.08859711728935
 21
-2.456932164981076
 31
0.0
  0
LINE
  5
F107C9
330
261
100
AcDbEntity
  8
Geo
100
AcDbLine
 10
-25.08859711728935
 20
-2.456932164981076
 30
0.0
 11
-24.98859711728936
 21
-2.503029195061376
 31
0.0
  0
LINE
  5
F107CB
330
261
100
AcDbEntity
  8
Geo
100
AcDbLine
 10
-24.98859711728936
 20
-2.503029195061376
 30
0.0
 11
-24.88859711728935
 21
-2.548840082632175
 31
0.0
  0
LINE
  5
F107CD
330
261
100
AcDbEntity
  8
Geo
100
AcDbLine
 10
-24.88859711728935
 20
-2.548840082632175
 30
0.0
 11
-24.78859711728936
 21
-2.594361711324076
 31
0.0
  0
LINE
  5
F107CF
330
261
100
AcDbEntity
  8
Geo
100
AcDbLine
 10
-24.78859711728936
 20
-2.594361711324076
 30
0.0
 11
-24.68859711728936
 21
-2.639590984445273
 31
0.0
  0
LINE
  5
F107D1
330
261
100
AcDbEntity
  8
Geo
100
AcDbLine
 10
-24.68859711728936
 20
-2.639590984445273
 30
0.0
 11
-24.58859711728936
 21
-2.684524825191974
 31
0.0
  0
LINE
  5
F107D3
330
261
100
AcDbEntity
  8
Geo
100
AcDbLine
 10
-24.58859711728936
 20
-2.684524825191974
 30
0.0
 11
-24.48859711728936
 21
-2.729160176857575
 31
0.0
  0
LINE
  5
F107D5
330
261
100
AcDbEntity
  8
Geo
100
AcDbLine
 10
-24.48859711728936
 20
-2.729160176857575
 30
0.0
 11
-24.38859711728935
 21
-2.773494003040774
 31
0.0
  0
LINE
  5
F107D7
330
261
100
AcDbEntity
  8
Geo
100
AcDbLine
 10
-24.38859711728935
 20
-2.773494003040774
 30
0.0
 11
-24.28859711728936
 21
-2.817523287852175
 31
0.0
  0
LINE
  5
F107D9
330
261
100
AcDbEntity
  8
Geo
100
AcDbLine
 10
-24.28859711728936
 20
-2.817523287852175
 30
0.0
 11
-24.18859711728936
 21
-2.861245036119274
 31
0.0
  0
LINE
  5
F107DB
330
261
100
AcDbEntity
  8
Geo
100
AcDbLine
 10
-24.18859711728936
 20
-2.861245036119274
 30
0.0
 11
-24.08859711728935
 21
-2.904656273590376
 31
0.0
  0
LINE
  5
F107DD
330
261
100
AcDbEntity
  8
Geo
100
AcDbLine
 10
-24.08859711728935
 20
-2.904656273590376
 30
0.0
 11
-23.98859711728936
 21
-2.947754047136875
 31
0.0
  0
LINE
  5
F107DF
330
261
100
AcDbEntity
  8
Geo
100
AcDbLine
 10
-23.98859711728936
 20
-2.947754047136875
 30
0.0
 11
-23.88859711728935
 21
-2.990535424953971
 31
0.0
  0
LINE
  5
F107E1
330
261
100
AcDbEntity
  8
Geo
100
AcDbLine
 10
-23.88859711728935
 20
-2.990535424953971
 30
0.0
 11
-23.78859711728936
 21
-3.032997496760373
 31
0.0
  0
LINE
  5
F107E3
330
261
100
AcDbEntity
  8
Geo
100
AcDbLine
 10
-23.78859711728936
 20
-3.032997496760373
 30
0.0
 11
-23.68859711728936
 21
-3.075137373996174
 31
0.0
  0
LINE
  5
F107E5
330
261
100
AcDbEntity
  8
Geo
100
AcDbLine
 10
-23.68859711728936
 20
-3.075137373996174
 30
0.0
 11
-23.58859711728936
 21
-3.116952190019272
 31
0.0
  0
LINE
  5
F107E7
330
261
100
AcDbEntity
  8
Geo
100
AcDbLine
 10
-23.58859711728936
 20
-3.116952190019272
 30
0.0
 11
-23.48859711728936
 21
-3.158439100300476
 31
0.0
  0
LINE
  5
F107E9
330
261
100
AcDbEntity
  8
Geo
100
AcDbLine
 10
-23.48859711728936
 20
-3.158439100300476
 30
0.0
 11
-23.38859711728935
 21
-3.199595282617075
 31
0.0
  0
LINE
  5
F107EB
330
261
100
AcDbEntity
  8
Geo
100
AcDbLine
 10
-23.38859711728935
 20
-3.199595282617075
 30
0.0
 11
-23.28859711728936
 21
-3.240417937244473
 31
0.0
  0
LINE
  5
F107ED
330
261
100
AcDbEntity
  8
Geo
100
AcDbLine
 10
-23.28859711728936
 20
-3.240417937244473
 30
0.0
 11
-23.18859711728936
 21
-3.280904287147272
 31
0.0
  0
LINE
  5
F107EF
330
261
100
AcDbEntity
  8
Geo
100
AcDbLine
 10
-23.18859711728936
 20
-3.280904287147272
 30
0.0
 11
-23.08859711728935
 21
-3.321051578167573
 31
0.0
  0
LINE
  5
F107F1
330
261
100
AcDbEntity
  8
Geo
100
AcDbLine
 10
-23.08859711728935
 20
-3.321051578167573
 30
0.0
 11
-22.98859711728936
 21
-3.360857079212575
 31
0.0
  0
LINE
  5
F107F3
330
261
100
AcDbEntity
  8
Geo
100
AcDbLine
 10
-22.98859711728936
 20
-3.360857079212575
 30
0.0
 11
-22.88859711728935
 21
-3.400318082440374
 31
0.0
  0
LINE
  5
F107F5
330
261
100
AcDbEntity
  8
Geo
100
AcDbLine
 10
-22.88859711728935
 20
-3.400318082440374
 30
0.0
 11
-22.78859711728935
 21
-3.439431903444276
 31
0.0
  0
LINE
  5
F107F7
330
261
100
AcDbEntity
  8
Geo
100
AcDbLine
 10
-22.78859711728935
 20
-3.439431903444276
 30
0.0
 11
-22.68859711728936
 21
-3.478195881435272
 31
0.0
  0
LINE
  5
F107F9
330
261
100
AcDbEntity
  8
Geo
100
AcDbLine
 10
-22.68859711728936
 20
-3.478195881435272
 30
0.0
 11
-22.58859711728935
 21
-3.516607379422875
 31
0.0
  0
LINE
  5
F107FB
330
261
100
AcDbEntity
  8
Geo
100
AcDbLine
 10
-22.58859711728935
 20
-3.516607379422875
 30
0.0
 11
-22.48859711728936
 21
-3.554663784394875
 31
0.0
  0
LINE
  5
F107FD
330
261
100
AcDbEntity
  8
Geo
100
AcDbLine
 10
-22.48859711728936
 20
-3.554663784394875
 30
0.0
 11
-22.38859711728935
 21
-3.592362507494875
 31
0.0
  0
LINE
  5
F107FF
330
261
100
AcDbEntity
  8
Geo
100
AcDbLine
 10
-22.38859711728935
 20
-3.592362507494875
 30
0.0
 11
-22.28859711728936
 21
-3.629700984198475
 31
0.0
  0
LINE
  5
F10801
330
261
100
AcDbEntity
  8
Geo
100
AcDbLine
 10
-22.28859711728936
 20
-3.629700984198475
 30
0.0
 11
-22.18859711728936
 21
-3.666676674487476
 31
0.0
  0
LINE
  5
F10803
330
261
100
AcDbEntity
  8
Geo
100
AcDbLine
 10
-22.18859711728936
 20
-3.666676674487476
 30
0.0
 11
-22.08859711728935
 21
-3.703287063023271
 31
0.0
  0
LINE
  5
F10805
330
261
100
AcDbEntity
  8
Geo
100
AcDbLine
 10
-22.08859711728935
 20
-3.703287063023271
 30
0.0
 11
-21.98859711728936
 21
-3.739529659317174
 31
0.0
  0
LINE
  5
F10807
330
261
100
AcDbEntity
  8
Geo
100
AcDbLine
 10
-21.98859711728936
 20
-3.739529659317174
 30
0.0
 11
-21.88859711728935
 21
-3.775401997900576
 31
0.0
  0
LINE
  5
F10809
330
261
100
AcDbEntity
  8
Geo
100
AcDbLine
 10
-21.88859711728935
 20
-3.775401997900576
 30
0.0
 11
-21.78859711728936
 21
-3.810901638492076
 31
0.0
  0
LINE
  5
F1080B
330
261
100
AcDbEntity
  8
Geo
100
AcDbLine
 10
-21.78859711728936
 20
-3.810901638492076
 30
0.0
 11
-21.68859711728936
 21
-3.846026166163774
 31
0.0
  0
LINE
  5
F1080D
330
261
100
AcDbEntity
  8
Geo
100
AcDbLine
 10
-21.68859711728936
 20
-3.846026166163774
 30
0.0
 11
-21.58859711728935
 21
-3.880773191505674
 31
0.0
  0
LINE
  5
F1080F
330
261
100
AcDbEntity
  8
Geo
100
AcDbLine
 10
-21.58859711728935
 20
-3.880773191505674
 30
0.0
 11
-21.48859711728936
 21
-3.915140350787975
 31
0.0
  0
LINE
  5
F10811
330
261
100
AcDbEntity
  8
Geo
100
AcDbLine
 10
-21.48859711728936
 20
-3.915140350787975
 30
0.0
 11
-21.38859711728935
 21
-3.949125306121874
 31
0.0
  0
LINE
  5
F10813
330
261
100
AcDbEntity
  8
Geo
100
AcDbLine
 10
-21.38859711728935
 20
-3.949125306121874
 30
0.0
 11
-21.28859711728936
 21
-3.982725745618672
 31
0.0
  0
LINE
  5
F10815
330
261
100
AcDbEntity
  8
Geo
100
AcDbLine
 10
-21.28859711728936
 20
-3.982725745618672
 30
0.0
 11
-21.18859711728936
 21
-4.015939383547372
 31
0.0
  0
LINE
  5
F10817
330
261
100
AcDbEntity
  8
Geo
100
AcDbLine
 10
-21.18859711728936
 20
-4.015939383547372
 30
0.0
 11
-21.08859711728936
 21
-4.048763960489374
 31
0.0
  0
LINE
  5
F10819
330
261
100
AcDbEntity
  8
Geo
100
AcDbLine
 10
-21.08859711728936
 20
-4.048763960489374
 30
0.0
 11
-20.98859711728936
 21
-4.081197243493075
 31
0.0
  0
LINE
  5
F1081B
330
261
100
AcDbEntity
  8
Geo
100
AcDbLine
 10
-20.98859711728936
 20
-4.081197243493075
 30
0.0
 11
-20.88859711728935
 21
-4.113237026225174
 31
0.0
  0
LINE
  5
F1081D
330
261
100
AcDbEntity
  8
Geo
100
AcDbLine
 10
-20.88859711728935
 20
-4.113237026225174
 30
0.0
 11
-20.78859711728936
 21
-4.144881129120875
 31
0.0
  0
LINE
  5
F1081F
330
261
100
AcDbEntity
  8
Geo
100
AcDbLine
 10
-20.78859711728936
 20
-4.144881129120875
 30
0.0
 11
-20.68859711728936
 21
-4.176127399532475
 31
0.0
  0
LINE
  5
F10821
330
261
100
AcDbEntity
  8
Geo
100
AcDbLine
 10
-20.68859711728936
 20
-4.176127399532475
 30
0.0
 11
-20.58859711728935
 21
-4.206973711875374
 31
0.0
  0
LINE
  5
F10823
330
261
100
AcDbEntity
  8
Geo
100
AcDbLine
 10
-20.58859711728935
 20
-4.206973711875374
 30
0.0
 11
-20.48859711728936
 21
-4.237417967772774
 31
0.0
  0
LINE
  5
F10825
330
261
100
AcDbEntity
  8
Geo
100
AcDbLine
 10
-20.48859711728936
 20
-4.237417967772774
 30
0.0
 11
-20.38859711728935
 21
-4.267458096198673
 31
0.0
  0
LINE
  5
F10827
330
261
100
AcDbEntity
  8
Geo
100
AcDbLine
 10
-20.38859711728935
 20
-4.267458096198673
 30
0.0
 11
-20.28859711728935
 21
-4.297092053618374
 31
0.0
  0
LINE
  5
F10829
330
261
100
AcDbEntity
  8
Geo
100
AcDbLine
 10
-20.28859711728935
 20
-4.297092053618374
 30
0.0
 11
-20.18859711728936
 21
-4.326317824128075
 31
0.0
  0
LINE
  5
F1082B
330
261
100
AcDbEntity
  8
Geo
100
AcDbLine
 10
-20.18859711728936
 20
-4.326317824128075
 30
0.0
 11
-20.08859711728935
 21
-4.355133419591172
 31
0.0
  0
LINE
  5
F1082D
330
261
100
AcDbEntity
  8
Geo
100
AcDbLine
 10
-20.08859711728935
 20
-4.355133419591172
 30
0.0
 11
-19.98859711728936
 21
-4.383536879774272
 31
0.0
  0
LINE
  5
F1082F
330
261
100
AcDbEntity
  8
Geo
100
AcDbLine
 10
-19.98859711728936
 20
-4.383536879774272
 30
0.0
 11
-19.88859711728935
 21
-4.411526272480273
 31
0.0
  0
LINE
  5
F10831
330
261
100
AcDbEntity
  8
Geo
100
AcDbLine
 10
-19.88859711728935
 20
-4.411526272480273
 30
0.0
 11
-19.78859711728935
 21
-4.439099693679374
 31
0.0
  0
LINE
  5
F10833
330
261
100
AcDbEntity
  8
Geo
100
AcDbLine
 10
-19.78859711728935
 20
-4.439099693679374
 30
0.0
 11
-19.68859711728936
 21
-4.466255267639574
 31
0.0
  0
LINE
  5
F10835
330
261
100
AcDbEntity
  8
Geo
100
AcDbLine
 10
-19.68859711728936
 20
-4.466255267639574
 30
0.0
 11
-19.58859711728935
 21
-4.492991147053174
 31
0.0
  0
LINE
  5
F10837
330
261
100
AcDbEntity
  8
Geo
100
AcDbLine
 10
-19.58859711728935
 20
-4.492991147053174
 30
0.0
 11
-19.48859711728926
 21
-4.519305513163175
 31
0.0
  0
LINE
  5
F10839
330
261
100
AcDbEntity
  8
Geo
100
AcDbLine
 10
-19.48859711728926
 20
-4.519305513163175
 30
0.0
 11
-19.38859711728926
 21
-4.545196575886976
 31
0.0
  0
LINE
  5
F1083B
330
261
100
AcDbEntity
  8
Geo
100
AcDbLine
 10
-19.38859711728926
 20
-4.545196575886976
 30
0.0
 11
-19.28859711728925
 21
-4.570662573937575
 31
0.0
  0
LINE
  5
F1083D
330
261
100
AcDbEntity
  8
Geo
100
AcDbLine
 10
-19.28859711728925
 20
-4.570662573937575
 30
0.0
 11
-19.18859711728926
 21
-4.595701774944075
 31
0.0
  0
LINE
  5
F1083F
330
261
100
AcDbEntity
  8
Geo
100
AcDbLine
 10
-19.18859711728926
 20
-4.595701774944075
 30
0.0
 11
-19.08859711728925
 21
-4.620312475569173
 31
0.0
  0
LINE
  5
F10841
330
261
100
AcDbEntity
  8
Geo
100
AcDbLine
 10
-19.08859711728925
 20
-4.620312475569173
 30
0.0
 11
-18.98859711728926
 21
-4.644493001624974
 31
0.0
  0
LINE
  5
F10843
330
261
100
AcDbEntity
  8
Geo
100
AcDbLine
 10
-18.98859711728926
 20
-4.644493001624974
 30
0.0
 11
-18.88859711728926
 21
-4.668241708186975
 31
0.0
  0
LINE
  5
F10845
330
261
100
AcDbEntity
  8
Geo
100
AcDbLine
 10
-18.88859711728926
 20
-4.668241708186975
 30
0.0
 11
-18.78859711728926
 21
-4.691556979706275
 31
0.0
  0
LINE
  5
F10847
330
261
100
AcDbEntity
  8
Geo
100
AcDbLine
 10
-18.78859711728926
 20
-4.691556979706275
 30
0.0
 11
-18.68859711728926
 21
-4.714437230118774
 31
0.0
  0
LINE
  5
F10849
330
261
100
AcDbEntity
  8
Geo
100
AcDbLine
 10
-18.68859711728926
 20
-4.714437230118774
 30
0.0
 11
-18.58859711728925
 21
-4.736880902953773
 31
0.0
  0
LINE
  5
F1084B
330
261
100
AcDbEntity
  8
Geo
100
AcDbLine
 10
-18.58859711728925
 20
-4.736880902953773
 30
0.0
 11
-18.48859711728926
 21
-4.758886471439375
 31
0.0
  0
LINE
  5
F1084D
330
261
100
AcDbEntity
  8
Geo
100
AcDbLine
 10
-18.48859711728926
 20
-4.758886471439375
 30
0.0
 11
-18.38859711728926
 21
-4.780452438606774
 31
0.0
  0
LINE
  5
F1084F
330
261
100
AcDbEntity
  8
Geo
100
AcDbLine
 10
-18.38859711728926
 20
-4.780452438606774
 30
0.0
 11
-18.28859711728926
 21
-4.801577337391476
 31
0.0
  0
LINE
  5
F10851
330
261
100
AcDbEntity
  8
Geo
100
AcDbLine
 10
-18.28859711728926
 20
-4.801577337391476
 30
0.0
 11
-18.18859711728926
 21
-4.822259730733975
 31
0.0
  0
LINE
  5
F10853
330
261
100
AcDbEntity
  8
Geo
100
AcDbLine
 10
-18.18859711728926
 20
-4.822259730733975
 30
0.0
 11
-18.08859711728925
 21
-4.842498211676375
 31
0.0
  0
LINE
  5
F10855
330
261
100
AcDbEntity
  8
Geo
100
AcDbLine
 10
-18.08859711728925
 20
-4.842498211676375
 30
0.0
 11
-17.98859711728926
 21
-4.862291403459376
 31
0.0
  0
LINE
  5
F10857
330
261
100
AcDbEntity
  8
Geo
100
AcDbLine
 10
-17.98859711728926
 20
-4.862291403459376
 30
0.0
 11
-17.88859711728926
 21
-4.881637959614774
 31
0.0
  0
LINE
  5
F10859
330
261
100
AcDbEntity
  8
Geo
100
AcDbLine
 10
-17.88859711728926
 20
-4.881637959614774
 30
0.0
 11
-17.78859711728926
 21
-4.900536564057876
 31
0.0
  0
LINE
  5
F1085B
330
261
100
AcDbEntity
  8
Geo
100
AcDbLine
 10
-17.78859711728926
 20
-4.900536564057876
 30
0.0
 11
-17.68859711728926
 21
-4.918985931176575
 31
0.0
  0
LINE
  5
F1085D
330
261
100
AcDbEntity
  8
Geo
100
AcDbLine
 10
-17.68859711728926
 20
-4.918985931176575
 30
0.0
 11
-17.58859711728925
 21
-4.936984805918974
 31
0.0
  0
LINE
  5
F1085F
330
261
100
AcDbEntity
  8
Geo
100
AcDbLine
 10
-17.58859711728925
 20
-4.936984805918974
 30
0.0
 11
-17.48859711728926
 21
-4.954531963878876
 31
0.0
  0
LINE
  5
F10861
330
261
100
AcDbEntity
  8
Geo
100
AcDbLine
 10
-17.48859711728926
 20
-4.954531963878876
 30
0.0
 11
-17.38859711728926
 21
-4.971626211378673
 31
0.0
  0
LINE
  5
F10863
330
261
100
AcDbEntity
  8
Geo
100
AcDbLine
 10
-17.38859711728926
 20
-4.971626211378673
 30
0.0
 11
-17.28859711728925
 21
-4.988266385551176
 31
0.0
  0
LINE
  5
F10865
330
261
100
AcDbEntity
  8
Geo
100
AcDbLine
 10
-17.28859711728925
 20
-4.988266385551176
 30
0.0
 11
-17.18859711728926
 21
-5.004451354417973
 31
0.0
  0
LINE
  5
F10867
330
261
100
AcDbEntity
  8
Geo
100
AcDbLine
 10
-17.18859711728926
 20
-5.004451354417973
 30
0.0
 11
-17.08859711728925
 21
-5.020180016967074
 31
0.0
  0
LINE
  5
F10869
330
261
100
AcDbEntity
  8
Geo
100
AcDbLine
 10
-17.08859711728925
 20
-5.020180016967074
 30
0.0
 11
-16.98859711728926
 21
-5.035451303227574
 31
0.0
  0
LINE
  5
F1086B
330
261
100
AcDbEntity
  8
Geo
100
AcDbLine
 10
-16.98859711728926
 20
-5.035451303227574
 30
0.0
 11
-16.88859711728926
 21
-5.050264174342274
 31
0.0
  0
LINE
  5
F1086D
330
261
100
AcDbEntity
  8
Geo
100
AcDbLine
 10
-16.88859711728926
 20
-5.050264174342274
 30
0.0
 11
-16.78859711728925
 21
-5.064617622638674
 31
0.0
  0
LINE
  5
F1086F
330
261
100
AcDbEntity
  8
Geo
100
AcDbLine
 10
-16.78859711728925
 20
-5.064617622638674
 30
0.0
 11
-16.68859711728926
 21
-5.078510671697074
 31
0.0
  0
LINE
  5
F10871
330
261
100
AcDbEntity
  8
Geo
100
AcDbLine
 10
-16.68859711728926
 20
-5.078510671697074
 30
0.0
 11
-16.58859711728925
 21
-5.091942376417673
 31
0.0
  0
LINE
  5
F10873
330
261
100
AcDbEntity
  8
Geo
100
AcDbLine
 10
-16.58859711728925
 20
-5.091942376417673
 30
0.0
 11
-16.48859711728926
 21
-5.104911823084075
 31
0.0
  0
LINE
  5
F10875
330
261
100
AcDbEntity
  8
Geo
100
AcDbLine
 10
-16.48859711728926
 20
-5.104911823084075
 30
0.0
 11
-16.38859711728926
 21
-5.117418129426075
 31
0.0
  0
LINE
  5
F10877
330
261
100
AcDbEntity
  8
Geo
100
AcDbLine
 10
-16.38859711728926
 20
-5.117418129426075
 30
0.0
 11
-16.28859711728926
 21
-5.129460444679274
 31
0.0
  0
LINE
  5
F10879
330
261
100
AcDbEntity
  8
Geo
100
AcDbLine
 10
-16.28859711728926
 20
-5.129460444679274
 30
0.0
 11
-16.18859711728926
 21
-5.141037949643374
 31
0.0
  0
LINE
  5
F1087B
330
261
100
AcDbEntity
  8
Geo
100
AcDbLine
 10
-16.18859711728926
 20
-5.141037949643374
 30
0.0
 11
-16.08859711728925
 21
-5.152149856737274
 31
0.0
  0
LINE
  5
F1087D
330
261
100
AcDbEntity
  8
Geo
100
AcDbLine
 10
-16.08859711728925
 20
-5.152149856737274
 30
0.0
 11
-16.08859711728925
 21
-5.127994904544173
 31
0.0
  0
LINE
  5
F1087F
330
261
100
AcDbEntity
  8
Geo
100
AcDbLine
 10
-16.08859711728925
 20
-5.152149856737274
 30
0.0
 11
-16.08859711728925
 21
-5.233859613845273
 31
0.0
  0
LINE
  5
F10881
330
261
100
AcDbEntity
  8
Geo
100
AcDbLine
 10
-41.98859711728935
 20
1.703289541047627
 30
0.0
 11
-41.98859711728935
 21
1.703289541047627
 31
0.0
  0
LINE
  5
F10883
330
261
100
AcDbEntity
  8
Geo
100
AcDbLine
 10
-41.98859711728935
 20
1.703289541047627
 30
0.0
 11
-41.98859711728935
 21
1.703289541047627
 31
0.0
  0
LINE
  5
F10885
330
261
100
AcDbEntity
  8
Geo
100
AcDbLine
 10
50.01140288271066
 20
7.703289541047627
 30
0.0
 11
50.01140288271066
 21
1.703289541047627
 31
0.0
  0
LINE
  5
F10887
330
261
100
AcDbEntity
  8
Geo
100
AcDbLine
 10
-41.98859711728935
 20
1.703289541047627
 30
0.0
 11
-41.98859711728935
 21
-5.116710458952375
 31
0.0
  0
LINE
  5
F10889
330
261
100
AcDbEntity
  8
Geo
100
AcDbLine
 10
-41.98859711728935
 20
-5.116710458952375
 30
0.0
 11
-41.80859711728935
 21
-5.296710458952375
 31
0.0
  0
LINE
  5
F1088B
330
261
100
AcDbEntity
  8
Geo
100
AcDbLine
 10
-41.80859711728935
 20
-5.296710458952375
 30
0.0
 11
-15.98859711728936
 21
-5.296710458952375
 31
0.0
  0
LINE
  5
F1088D
330
261
100
AcDbEntity
  8
Geo
100
AcDbLine
 10
-15.98859711728936
 20
-5.296710458952375
 30
0.0
 11
5.011402882710648
 21
-5.296710458952375
 31
0.0
  0
LINE
  5
F1088F
330
261
100
AcDbEntity
  8
Geo
100
AcDbLine
 10
5.011402882710648
 20
-5.296710458952375
 30
0.0
 11
49.01140288271065
 21
-5.296710458952375
 31
0.0
  0
LINE
  5
F10891
330
261
100
AcDbEntity
  8
Geo
100
AcDbLine
 10
49.01140288271065
 20
-5.296710458952375
 30
0.0
 11
50.01140288271066
 21
-4.296710458952375
 31
0.0
  0
LINE
  5
F10893
330
261
100
AcDbEntity
  8
Geo
100
AcDbLine
 10
-41.98859711728935
 20
8.523289541047624
 30
0.0
 11
-41.98859711728935
 21
-5.116710458952375
 31
0.0
  0
LINE
  5
F10895
330
261
100
AcDbEntity
  8
Geo
100
AcDbLine
 10
-41.80859711728935
 20
8.703289541047627
 30
0.0
 11
-41.80859711728935
 21
-5.296710458952375
 31
0.0
  0
LINE
  5
F10897
330
261
100
AcDbEntity
  8
Geo
100
AcDbLine
 10
-15.98859711728936
 20
8.703289541047627
 30
0.0
 11
-15.98859711728936
 21
-5.296710458952375
 31
0.0
  0
LINE
  5
F10899
330
261
100
AcDbEntity
  8
Geo
100
AcDbLine
 10
5.011402882710648
 20
8.703289541047627
 30
0.0
 11
5.011402882710648
 21
-5.296710458952375
 31
0.0
  0
LINE
  5
F1089B
330
261
100
AcDbEntity
  8
Geo
100
AcDbLine
 10
49.01140288271065
 20
8.703289541047627
 30
0.0
 11
49.01140288271065
 21
-5.296710458952375
 31
0.0
  0
LINE
  5
F1089D
330
261
100
AcDbEntity
  8
Geo
100
AcDbLine
 10
50.01140288271066
 20
7.703289541047627
 30
0.0
 11
50.01140288271066
 21
-4.296710458952375
 31
0.0
  0
LWPOLYLINE
  5
F1094B
330
261
100
AcDbEntity
  8
Rahmen
100
AcDbPolyline
 90
        4
 70
     1
 43
0.0
 10
-134.650259067358
 20
99.8316062176166
 10
143.354922279793
 20
99.8316062176166
 10
143.354922279793
 20
-100.103626943005
 10
-134.650259067358
 20
-100.103626943005
  0
LWPOLYLINE
  5
F1094F
330
261
100
AcDbEntity
  8
Rahmen
100
AcDbPolyline
 90
        4
 70
     1
 43
0.0
 10
103.367875647668
 20
-97.11139896373062
 10
143.354922279793
 20
-97.11139896373062
 10
143.354922279793
 20
-100.103626943005
 10
103.367875647668
 20
-100.103626943005
  0
TEXT
  5
F10951
330
261
100
AcDbEntity
  8
Text
100
AcDbText
 10
104.455958549223
 20
-98.11139896373061
 30
0.0
 40
0.75
  1
Ers. durch:
100
AcDbText
  0
LWPOLYLINE
  5
F10955
330
261
100
AcDbEntity
  8
Rahmen
100
AcDbPolyline
 90
        4
 70
     1
 43
0.0
 10
63.380829015544
 20
-97.11139896373062
 10
103.367875647668
 20
-97.11139896373062
 10
103.367875647668
 20
-100.103626943005
 10
63.380829015544
 20
-100.103626943005
  0
TEXT
  5
F10957
330
261
100
AcDbEntity
  8
Text
100
AcDbText
 10
64.46891191709839
 20
-98.11139896373061
 30
0.0
 40
0.75
  1
Ers. für:
100
AcDbText
  0
TEXT
  5
F10959
330
261
100
AcDbEntity
  8
Text
100
AcDbText
 10
91.39896373056991
 20
-99.4715025906736
 30
0.0
 40
0.75
  1

100
AcDbText
  0
LWPOLYLINE
  5
F1095B
330
261
100
AcDbEntity
  8
Rahmen
100
AcDbPolyline
 90
        4
 70
     1
 43
0.0
 10
130.025906735751
 20
-94.119170984456
 10
143.354922279793
 20
-94.119170984456
 10
143.354922279793
 20
-97.11139896373062
 10
130.025906735751
 20
-97.11139896373062
  0
TEXT
  5
F1095D
330
261
100
AcDbEntity
  8
Text
100
AcDbText
 10
131.113989637306
 20
-95.119170984456
 30
0.0
 40
0.75
  1
Blätter
100
AcDbText
  0
TEXT
  5
F1095F
330
261
100
AcDbEntity
  8
Text
100
AcDbText
 10
141.178756476684
 20
-96.479274611399
 30
0.0
 40
0.75
  1

100
AcDbText
  0
LWPOLYLINE
  5
F10961
330
261
100
AcDbEntity
  8
Rahmen
100
AcDbPolyline
 90
        4
 70
     1
 43
0.0
 10
130.025906735751
 20
-91.12694300518128
 10
143.354922279793
 20
-91.12694300518128
 10
143.354922279793
 20
-94.119170984456
 10
130.025906735751
 20
-94.119170984456
  0
TEXT
  5
F10963
330
261
100
AcDbEntity
  8
Text
100
AcDbText
 10
131.113989637306
 20
-92.12694300518128
 30
0.0
 40
0.75
  1
Blatt
100
AcDbText
  0
TEXT
  5
F10965
330
261
100
AcDbEntity
  8
Text
100
AcDbText
 10
141.178756476684
 20
-93.48704663212428
 30
0.0
 40
0.75
  1

100
AcDbText
  0
LWPOLYLINE
  5
F10967
330
261
100
AcDbEntity
  8
Rahmen
100
AcDbPolyline
 90
        4
 70
     1
 43
0.0
 10
63.380829015544
 20
-91.12694300518128
 10
130.025906735751
 20
-91.12694300518128
 10
130.025906735751
 20
-97.11139896373062
 10
63.380829015544
 20
-97.11139896373062
  0
TEXT
  5
F10969
330
261
100
AcDbEntity
  8
Text
100
AcDbText
 10
64.46891191709839
 20
-92.12694300518128
 30
0.0
 40
0.75
  1
Datum:
100
AcDbText
  0
TEXT
  5
F1096B
330
261
100
AcDbEntity
  8
Text
100
AcDbText
 10
91.67098445595859
 20
-95.119170984456
 30
0.0
 40
0.75
  1
17.12.2014
100
AcDbText
  0
LWPOLYLINE
  5
F1096D
330
261
100
AcDbEntity
  8
Rahmen
100
AcDbPolyline
 90
        4
 70
     1
 43
0.0
 10
63.380829015544
 20
-85.14248704663208
 10
143.354922279793
 20
-85.14248704663208
 10
143.354922279793
 20
-91.12694300518128
 10
63.380829015544
 20
-91.12694300518128
  0
TEXT
  5
F1096F
330
261
100
AcDbEntity
  8
Text
100
AcDbText
 10
-208.09585492228
 20
103.0
 30
0.0
 40
1.5
  1

100
AcDbText
  0
TEXT
  5
F10971
330
261
100
AcDbEntity
  8
Text
100
AcDbText
 10
94.119170984456
 20
-89.01986183074269
 30
0.0
 40
2.5
  1
1735-140
100
AcDbText
  0
LWPOLYLINE
  5
F10973
330
261
100
AcDbEntity
  8
Rahmen
100
AcDbPolyline
 90
        4
 70
     1
 43
0.0
 10
103.367875647668
 20
-79.1580310880829
 10
143.354922279793
 20
-79.1580310880829
 10
143.354922279793
 20
-85.14248704663208
 10
103.367875647668
 20
-85.14248704663208
  0
TEXT
  5
F10975
330
261
100
AcDbEntity
  8
Text
100
AcDbText
 10
104.455958549223
 20
-80.1580310880829
 30
0.0
 40
0.75
  1
Zu bearb. Material:
100
AcDbText
  0
TEXT
  5
F10977
330
261
100
AcDbEntity
  8
Text
100
AcDbText
 10
123.225388601036
 20
-84.5103626943005
 30
0.0
 40
0.75
  1

100
AcDbText
  0
LWPOLYLINE
  5
F10979
330
261
100
AcDbEntity
  8
Rahmen
100
AcDbPolyline
 90
        4
 70
     1
 43
0.0
 10
63.380829015544
 20
-79.1580310880829
 10
103.367875647668
 20
-79.1580310880829
 10
103.367875647668
 20
-85.14248704663208
 10
63.380829015544
 20
-85.14248704663208
  0
TEXT
  5
F1097B
330
261
100
AcDbEntity
  8
Text
100
AcDbText
 10
64.46891191709839
 20
-80.1580310880829
 30
0.0
 40
0.75
  1
Werkstoff:
100
AcDbText
  0
TEXT
  5
F1097D
330
261
100
AcDbEntity
  8
Text
100
AcDbText
 10
83.23834196891191
 20
-84.5103626943005
 30
0.0
 40
0.75
  1

100
AcDbText
  0
LWPOLYLINE
  5
F1097F
330
261
100
AcDbEntity
  8
Rahmen
100
AcDbPolyline
 90
        4
 70
     1
 43
0.0
 10
103.367875647668
 20
-76.16580310880831
 10
143.354922279793
 20
-76.16580310880831
 10
143.354922279793
 20
-79.1580310880829
 10
103.367875647668
 20
-79.1580310880829
  0
TEXT
  5
F10981
330
261
100
AcDbEntity
  8
Text
100
AcDbText
 10
-208.09585492228
 20
103.0
 30
0.0
 40
1.5
  1

100
AcDbText
  0
TEXT
  5
F10983
330
261
100
AcDbEntity
  8
Text
100
AcDbText
 10
123.225388601036
 20
-78.52590673575129
 30
0.0
 40
0.75
  1

100
AcDbText
  0
LWPOLYLINE
  5
F10985
330
261
100
AcDbEntity
  8
Rahmen
100
AcDbPolyline
 90
        4
 70
     1
 43
0.0
 10
63.380829015544
 20
-76.16580310880831
 10
103.367875647668
 20
-76.16580310880831
 10
103.367875647668
 20
-79.1580310880829
 10
63.380829015544
 20
-79.1580310880829
  0
TEXT
  5
F10987
330
261
100
AcDbEntity
  8
Text
100
AcDbText
 10
64.46891191709839
 20
-77.1658031088083
 30
0.0
 40
0.75
  1
Maßstab:
100
AcDbText
  0
TEXT
  5
F10989
330
261
100
AcDbEntity
  8
Text
100
AcDbText
 10
89.49481865284978
 20
-77.1658031088083
 30
0.0
 40
0.75
  1
1 : 1
100
AcDbText
  0
VIEWPORT
  5
294
102
{ACAD_XDICTIONARY
360
F10AE2
102
}
330
25D
100
AcDbEntity
 67
     1
  8
0
 60
     1
100
AcDbViewport
 10
0.0
 20
0.0
 30
0.0
 40
10.0
 41
10.0
 68
    -1
 69
     1
 12
0.0
 22
0.0
 13
0.0
 23
0.0
 14
1.0
 24
1.0
 15
0.0
 25
0.0
 16
0.0
 26
0.0
 36
1.0
 17
0.0
 27
0.0
 37
0.0
 42
0.0
 43
0.0
 44
0.0
 45
10.0
 50
0.0
 51
0.0000000000007958
 72
   100
 90
    32800
  1

281
     0
 71
     0
 74
     0
110
0.0
120
0.0
130
0.0
111
1.0
121
0.0
131
0.0
112
0.0
122
1.0
132
0.0
 79
     0
146
0.0
1001
VD_INVISIBLE_NOT_FOR_READ
1000
VD_INVISIBLE_NOT_FOR_READ
1001
GENIUS_GENSCREG_15
1000
PF
1040
1.0
1000
DF
1040
1.0
1000
MIN
1011
-5.0
1021
-5.0
1031
0.0
1000
MAX
1011
5.0
1021
5.0
1031
0.0
1000
FLAGS
1070
     4
1001
GENIUS_GENODEF_13
1002
{
1000
HIER
1070
     0
1002
}
1002
{
1000
MANEDIT
1070
     0
1002
}
1002
{
1000
NOSEL
1070
     0
1002
}
1002
{
1000
BEHIND
1070
     0
1002
}
1002
{
1000
OTHER
1070
     0
1002
}
1002
{
1000
REACTOR
1002
}
1001
GENIUS_GENOBJ-N-SDF_13
1002
{
1000
OWNER
1000
GEN
1002
}
  0
VIEWPORT
  5
295
102
{ACAD_XDICTIONARY
360
F10AE4
102
}
330
25D
100
AcDbEntity
 67
     1
  8
0
 60
     1
100
AcDbViewport
 10
0.0
 20
0.0
 30
0.0
 40
10.0
 41
10.0
 68
     0
 69
     2
 12
0.0
 22
0.0
 13
0.0
 23
0.0
 14
1.0
 24
1.0
 15
0.0
 25
0.0
 16
0.0
 26
0.0
 36
1.0
 17
0.0
 27
0.0
 37
0.0
 42
0.0
 43
0.0
 44
0.0
 45
10.0
 50
0.0
 51
0.0000000000007958
 72
   100
 90
   163872
  1

281
     0
 71
     0
 74
     0
110
0.0
120
0.0
130
0.0
111
1.0
121
0.0
131
0.0
112
0.0
122
1.0
132
0.0
 79
     0
146
0.0
1001
VD_INVISIBLE_NOT_FOR_READ
1000
VD_INVISIBLE_NOT_FOR_READ
1001
GENIUS_GENSCREG_15
1000
PF
1040
1.0
1000
DF
1040
1.0
1000
MIN
1011
-5.0
1021
-5.0
1031
0.0
1000
MAX
1011
5.0
1021
5.0
1031
0.0
1000
FLAGS
1070
     4
1001
GENIUS_GENODEF_13
1002
{
1000
HIER
1070
     0
1002
}
1002
{
1000
MANEDIT
1070
     0
1002
}
1002
{
1000
NOSEL
1070
     0
1002
}
1002
{
1000
BEHIND
1070
     0
1002
}
1002
{
1000
OTHER
1070
     0
1002
}
1002
{
1000
REACTOR
1002
}
1001
GENIUS_GENOBJ-N-SDF_13
1002
{
1000
OWNER
1000
GEN
1002
}
  0
ENDSEC
  0
SECTION
  2
OBJECTS
  0
DICTIONARY
  5
13
330
0
100
AcDbDictionary
281
     1
  3
ACAD_COLOR
350
FA7
  3
ACAD_GROUP
350
14
  3
ACAD_LAYOUT
350
FCF
  3
ACAD_MATERIAL
350
F7A
  3
ACAD_MLEADERSTYLE
350
FCD
  3
ACAD_MLINESTYLE
350
16
  3
ACAD_PLOTSETTINGS
350
17
  3
ACAD_PLOTSTYLENAME
350
18
  3
ACAD_SCALELIST
350
FAB
  3
ACAD_TABLESTYLE
350
FA8
  3
ACAD_VISUALSTYLE
350
F93
  3
ACDB_RECOMPOSE_DATA
350
F10AE0
  3
AcDbVariableDictionary
350
F10AD7
  3
AcmDictionary
350
F109E0
  3
AMG
350
F10994
  3
AMGSNAPSETTINGS
350
F10A21
  3
DWGPROPS
350
F10AE1
  0
DICTIONARY
  5
F10ACD
330
252
100
AcDbDictionary
280
     1
281
     1
  3
ADSK_XREC_LAYER_RECONCILED
360
F10ACE
  0
DICTIONARY
  5
F10ACF
330
23F
100
AcDbDictionary
280
     1
281
     1
  3
ADSK_XREC_LAYER_RECONCILED
360
F10AD0
  0
DICTIONARY
  5
F10AD1
330
240
100
AcDbDictionary
280
     1
281
     1
  3
ADSK_XREC_LAYER_RECONCILED
360
F10AD2
  0
DICTIONARY
  5
F10AD3
330
241
100
AcDbDictionary
280
     1
281
     1
  3
ADSK_XREC_LAYER_RECONCILED
360
F10AD4
  0
DICTIONARY
  5
F10AD5
330
57E
100
AcDbDictionary
280
     1
281
     1
  3
ADSK_XREC_LAYER_RECONCILED
360
F10AD6
  0
DICTIONARY
  5
F10AE6
330
296
100
AcDbDictionary
280
     1
281
     1
  3
ACAD_XREC_ROUNDTRIP
360
F10AE7
  0
DICTIONARY
  5
F10AE8
330
297
100
AcDbDictionary
280
     1
281
     1
  3
ACAD_XREC_ROUNDTRIP
360
F10AE9
  0
DICTIONARY
  5
F10AE2
330
294
100
AcDbDictionary
280
     1
281
     1
  3
ACAD_XREC_ROUNDTRIP
360
F10AE3
  0
DICTIONARY
  5
F10AE4
330
295
100
AcDbDictionary
280
     1
281
     1
  3
ACAD_XREC_ROUNDTRIP
360
F10AE5
  0
DICTIONARY
  5
FA7
102
{ACAD_REACTORS
330
13
102
}
330
13
100
AcDbDictionary
281
     1
  0
DICTIONARY
  5
14
330
13
100
AcDbDictionary
281
     1
  0
DICTIONARY
  5
FCF
102
{ACAD_REACTORS
330
13
102
}
330
13
100
AcDbDictionary
281
     1
  3
Layout1
350
FD1
  3
Model
350
FD0
  0
DICTIONARY
  5
F7A
102
{ACAD_REACTORS
330
13
102
}
330
13
100
AcDbDictionary
281
     1
  3
ByBlock
350
F83
  3
ByLayer
350
F7B
  3
Global
350
F8B
  0
DICTIONARY
  5
FCD
102
{ACAD_REACTORS
330
13
102
}
330
13
100
AcDbDictionary
281
     1
  3
Standard
350
FCE
  0
DICTIONARY
  5
16
330
13
100
AcDbDictionary
281
     1
  3
Standard
350
FAA
  0
DICTIONARY
  5
17
102
{ACAD_REACTORS
330
13
102
}
330
13
100
AcDbDictionary
281
     1
  0
ACDBDICTIONARYWDFLT
  5
18
102
{ACAD_REACTORS
330
13
102
}
330
13
100
AcDbDictionary
281
     1
  3
Normal
350
19
100
AcDbDictionaryWithDefault
340
19
  0
DICTIONARY
  5
FAB
102
{ACAD_REACTORS
330
13
102
}
330
13
100
AcDbDictionary
281
     1
  3
A0
350
FAC
  3
A1
350
FAD
  3
A2
350
FAE
  3
A3
350
FAF
  3
A4
350
FB0
  3
A5
350
FB1
  3
A6
350
FB2
  3
A7
350
FB3
  3
A8
350
FB4
  3
A9
350
FB5
  3
B0
350
FB6
  3
B1
350
FB7
  3
B2
350
FB8
  3
B3
350
FB9
  3
B4
350
FBA
  3
B5
350
FBB
  3
B6
350
FBC
  3
B7
350
FBD
  3
B8
350
FBE
  3
B9
350
FBF
  3
C0
350
FC0
  3
C1
350
FC1
  3
C2
350
FC2
  3
C3
350
FC3
  3
C4
350
FC4
  3
C5
350
FC5
  3
C6
350
FC6
  3
C7
350
FC7
  3
C8
350
FC8
  3
C9
350
FC9
  3
D0
350
FCA
  3
D1
350
FCB
  3
D2
350
FCC
  0
DICTIONARY
  5
FA8
102
{ACAD_REACTORS
330
13
102
}
330
13
100
AcDbDictionary
281
     1
  3
Standard
350
FA9
  0
DICTIONARY
  5
F93
102
{ACAD_REACTORS
330
13
102
}
330
13
100
AcDbDictionary
281
     1
  3
2dWireframe
350
F99
  3
3D Hidden
350
F9B
  3
3dWireframe
350
F9A
  3
Basic
350
F98
  3
Brighten
350
F9F
  3
ColorChange
350
FA3
  3
Conceptual
350
F9C
  3
Dim
350
F9E
  3
EdgeColorOff
350
FA6
  3
Facepattern
350
FA2
  3
Flat
350
F94
  3
FlatWithEdges
350
F95
  3
Gouraud
350
F96
  3
GouraudWithEdges
350
F97
  3
Hidden
350
F1098C
  3
JitterOff
350
FA4
  3
Linepattern
350
FA1
  3
OverhangOff
350
FA5
  3
Realistic
350
F9D
  3
Shaded
350
F10991
  3
Shaded with edges
350
F10990
  3
Shades of Gray
350
F1098D
  3
Sketchy
350
F1098E
  3
Thicken
350
FA0
  3
Wireframe
350
F1098B
  3
X-Ray
350
F1098F
  0
XRECORD
  5
F10AE0
102
{ACAD_REACTORS
330
13
102
}
330
13
100
AcDbXrecord
280
     1
 90
        1
330
FA9
  0
DICTIONARY
  5
F10AD7
102
{ACAD_REACTORS
330
13
102
}
330
13
100
AcDbDictionary
281
     1
  3
CANNOSCALE
350
F10ADA
  3
CMLEADERSTYLE
350
F10AD9
  3
CTABLESTYLE
350
F10AD8
  3
DIMASSOC
350
F10ADD
  3
INDEXCTL
350
F10ADC
  3
SORTENTS
350
F10ADB
  3
XCLIPFRAME
350
F10ADE
  0
DICTIONARY
  5
F109E0
102
{ACAD_REACTORS
330
13
102
}
330
13
100
AcDbDictionary
281
     1
  3
AcmStdDictionary
350
F109EB
  0
DICTIONARY
  5
F10994
102
{ACAD_REACTORS
330
13
102
}
330
13
100
AcDbDictionary
281
     1
  0
DICTIONARY
  5
F10A21
102
{ACAD_REACTORS
330
13
102
}
330
13
100
AcDbDictionary
281
     1
  0
XRECORD
  5
F10AE1
102
{ACAD_REACTORS
330
13
102
}
330
13
100
AcDbXrecord
280
     1
  1
DWGPROPS COOKIE
  2

  3

  4

  6

  7

  8
Steigner
  9

300
=
301
=
302
=
303
=
304
=
305
=
306
=
307
=
308
=
309
=
 40
0.0007688888888889
 41
2457011.416048091
 42
2457011.416815313
  1

 90
        0
  0
XRECORD
  5
F10ACE
102
{ACAD_REACTORS
330
F10ACD
102
}
330
F10ACD
100
AcDbXrecord
280
     1
290
     1
  0
XRECORD
  5
F10AD0
102
{ACAD_REACTORS
330
F10ACF
102
}
330
F10ACF
100
AcDbXrecord
280
     1
290
     1
  0
XRECORD
  5
F10AD2
102
{ACAD_REACTORS
330
F10AD1
102
}
330
F10AD1
100
AcDbXrecord
280
     1
290
     1
  0
XRECORD
  5
F10AD4
102
{ACAD_REACTORS
330
F10AD3
102
}
330
F10AD3
100
AcDbXrecord
280
     1
290
     1
  0
XRECORD
  5
F10AD6
102
{ACAD_REACTORS
330
F10AD5
102
}
330
F10AD5
100
AcDbXrecord
280
     1
290
     1
  0
XRECORD
  5
F10AE7
102
{ACAD_REACTORS
330
F10AE6
102
}
330
F10AE6
100
AcDbXrecord
280
     1
102
SHADEPLOT
 70
     0
  0
XRECORD
  5
F10AE9
102
{ACAD_REACTORS
330
F10AE8
102
}
330
F10AE8
100
AcDbXrecord
280
     1
102
SHADEPLOT
 70
     0
  0
XRECORD
  5
F10AE3
102
{ACAD_REACTORS
330
F10AE2
102
}
330
F10AE2
100
AcDbXrecord
280
     1
102
SHADEPLOT
 70
     0
  0
XRECORD
  5
F10AE5
102
{ACAD_REACTORS
330
F10AE4
102
}
330
F10AE4
100
AcDbXrecord
280
     1
102
SHADEPLOT
 70
     0
  0
LAYOUT
  5
FD1
102
{ACAD_XDICTIONARY
360
F10B13
102
}
102
{ACAD_REACTORS
330
FCF
102
}
330
FCF
100
AcDbPlotSettings
  1

  2
Microsoft XPS Document Writer
  4

  6

 40
0.0
 41
0.0
 42
0.0
 43
0.0
 44
0.0
 45
0.0
 46
0.0
 47
0.0
 48
0.0
 49
0.0
140
0.0
141
0.0
142
1.0
143
1.0
 70
   688
 72
     0
 73
     0
 74
     5
  7

 75
    16
147
1.0
148
0.0
149
0.0
100
AcDbLayout
  1
Layout1
 70
     1
 71
     1
 10
0.0
 20
0.0
 11
12.0
 21
9.0
 12
0.0
 22
0.0
 32
0.0
 14
1.000000000000000E+20
 24
1.000000000000000E+20
 34
1.000000000000000E+20
 15
-1.000000000000000E+20
 25
-1.000000000000000E+20
 35
-1.000000000000000E+20
146
0.0
 13
0.0
 23
0.0
 33
0.0
 16
1.0
 26
0.0
 36
0.0
 17
0.0
 27
1.0
 37
0.0
 76
     0
330
25D
  0
LAYOUT
  5
FD0
102
{ACAD_XDICTIONARY
360
F10B11
102
}
102
{ACAD_REACTORS
330
FCF
102
}
330
FCF
100
AcDbPlotSettings
  1

  2
Microsoft XPS Document Writer
  4

  6

 40
0.0
 41
0.0
 42
0.0
 43
0.0
 44
0.0
 45
0.0
 46
0.0
 47
0.0
 48
0.0
 49
0.0
140
0.0
141
0.0
142
1.0
143
1.0
 70
  1712
 72
     0
 73
     0
 74
     0
  7

 75
     0
147
1.0
148
0.0
149
0.0
100
AcDbLayout
  1
Model
 70
     1
 71
     0
 10
0.0
 20
0.0
 11
12.0
 21
9.0
 12
0.0
 22
0.0
 32
0.0
 14
0.0
 24
0.0
 34
0.0
 15
0.0
 25
0.0
 35
0.0
146
0.0
 13
0.0
 23
0.0
 33
0.0
 16
1.0
 26
0.0
 36
0.0
 17
0.0
 27
1.0
 37
0.0
 76
     0
330
261
331
26B
  0
MATERIAL
  5
F83
102
{ACAD_XDICTIONARY
360
F84
102
}
102
{ACAD_REACTORS
330
F7A
102
}
330
F7A
100
AcDbMaterial
  1
ByBlock
 72
     0
 43
0.0208333333333333
 43
0.0
 43
0.0
 43
0.0
 43
0.0
 43
0.0208333333333333
 43
0.0
 43
0.0
 43
0.0
 43
0.0
 43
1.0
 43
0.0
 43
0.0
 43
0.0
 43
0.0
 43
1.0
 77
     0
 47
0.0208333333333333
 47
0.0
 47
0.0
 47
0.0
 47
0.0
 47
0.0208333333333333
 47
0.0
 47
0.0
 47
0.0
 47
0.0
 47
1.0
 47
0.0
 47
0.0
 47
0.0
 47
0.0
 47
1.0
171
     0
 49
0.0208333333333333
 49
0.0
 49
0.0
 49
0.0
 49
0.0
 49
0.0208333333333333
 49
0.0
 49
0.0
 49
0.0
 49
0.0
 49
1.0
 49
0.0
 49
0.0
 49
0.0
 49
0.0
 49
1.0
175
     0
142
0.0208333333333333
142
0.0
142
0.0
142
0.0
142
0.0
142
0.0208333333333333
142
0.0
142
0.0
142
0.0
142
0.0
142
1.0
142
0.0
142
0.0
142
0.0
142
0.0
142
1.0
179
     0
144
0.0208333333333333
144
0.0
144
0.0
144
0.0
144
0.0
144
0.0208333333333333
144
0.0
144
0.0
144
0.0
144
0.0
144
1.0
144
0.0
144
0.0
144
0.0
144
0.0
144
1.0
147
0.0208333333333333
147
0.0
147
0.0
147
0.0
147
0.0
147
0.0208333333333333
147
0.0
147
0.0
147
0.0
147
0.0
147
1.0
147
0.0
147
0.0
147
0.0
147
0.0
147
1.0
  0
MATERIAL
  5
F7B
102
{ACAD_XDICTIONARY
360
F7C
102
}
102
{ACAD_REACTORS
330
F7A
102
}
330
F7A
100
AcDbMaterial
  1
ByLayer
 72
     0
 43
0.0208333333333333
 43
0.0
 43
0.0
 43
0.0
 43
0.0
 43
0.0208333333333333
 43
0.0
 43
0.0
 43
0.0
 43
0.0
 43
1.0
 43
0.0
 43
0.0
 43
0.0
 43
0.0
 43
1.0
 77
     0
 47
0.0208333333333333
 47
0.0
 47
0.0
 47
0.0
 47
0.0
 47
0.0208333333333333
 47
0.0
 47
0.0
 47
0.0
 47
0.0
 47
1.0
 47
0.0
 47
0.0
 47
0.0
 47
0.0
 47
1.0
171
     0
 49
0.0208333333333333
 49
0.0
 49
0.0
 49
0.0
 49
0.0
 49
0.0208333333333333
 49
0.0
 49
0.0
 49
0.0
 49
0.0
 49
1.0
 49
0.0
 49
0.0
 49
0.0
 49
0.0
 49
1.0
175
     0
142
0.0208333333333333
142
0.0
142
0.0
142
0.0
142
0.0
142
0.0208333333333333
142
0.0
142
0.0
142
0.0
142
0.0
142
1.0
142
0.0
142
0.0
142
0.0
142
0.0
142
1.0
179
     0
144
0.0208333333333333
144
0.0
144
0.0
144
0.0
144
0.0
144
0.0208333333333333
144
0.0
144
0.0
144
0.0
144
0.0
144
1.0
144
0.0
144
0.0
144
0.0
144
0.0
144
1.0
147
0.0208333333333333
147
0.0
147
0.0
147
0.0
147
0.0
147
0.0208333333333333
147
0.0
147
0.0
147
0.0
147
0.0
147
1.0
147
0.0
147
0.0
147
0.0
147
0.0
147
1.0
  0
MATERIAL
  5
F8B
102
{ACAD_XDICTIONARY
360
F8C
102
}
102
{ACAD_REACTORS
330
F7A
102
}
330
F7A
100
AcDbMaterial
  1
Global
 72
     0
 43
0.0208333333333333
 43
0.0
 43
0.0
 43
0.0
 43
0.0
 43
0.0208333333333333
 43
0.0
 43
0.0
 43
0.0
 43
0.0
 43
1.0
 43
0.0
 43
0.0
 43
0.0
 43
0.0
 43
1.0
 77
     0
 47
0.0208333333333333
 47
0.0
 47
0.0
 47
0.0
 47
0.0
 47
0.0208333333333333
 47
0.0
 47
0.0
 47
0.0
 47
0.0
 47
1.0
 47
0.0
 47
0.0
 47
0.0
 47
0.0
 47
1.0
171
     0
 49
0.0208333333333333
 49
0.0
 49
0.0
 49
0.0
 49
0.0
 49
0.0208333333333333
 49
0.0
 49
0.0
 49
0.0
 49
0.0
 49
1.0
 49
0.0
 49
0.0
 49
0.0
 49
0.0
 49
1.0
175
     0
142
0.0208333333333333
142
0.0
142
0.0
142
0.0
142
0.0
142
0.0208333333333333
142
0.0
142
0.0
142
0.0
142
0.0
142
1.0
142
0.0
142
0.0
142
0.0
142
0.0
142
1.0
179
     0
144
0.0208333333333333
144
0.0
144
0.0
144
0.0
144
0.0
144
0.0208333333333333
144
0.0
144
0.0
144
0.0
144
0.0
144
1.0
144
0.0
144
0.0
144
0.0
144
0.0
144
1.0
147
0.0208333333333333
147
0.0
147
0.0
147
0.0
147
0.0
147
0.0208333333333333
147
0.0
147
0.0
147
0.0
147
0.0
147
1.0
147
0.0
147
0.0
147
0.0
147
0.0
147
1.0
  0
MLEADERSTYLE
  5
FCE
102
{ACAD_REACTORS
330
FCD
102
}
330
FCD
100
AcDbMLeaderStyle
170
     2
171
     1
172
     0
 90
        2
 40
0.0
 41
0.0
173
     1
 91
-1056964608
340
256
 92
       -2
290
     1
 42
0.09
291
     1
 43
0.36
  3
Standard
 44
0.18
300

342
253
174
     1
178
     6
175
     1
176
     0
 93
-1056964608
 45
0.18
292
     0
297
     0
 46
0.18
 94
-1056964608
 47
1.0
 49
1.0
140
1.0
293
     1
141
0.0
294
     1
177
     0
142
1.0
295
     0
296
     0
143
0.125
1001
ACAD_MLEADERVER
1070
     2
  0
MLINESTYLE
  5
FAA
102
{ACAD_REACTORS
330
16
102
}
330
16
100
AcDbMlineStyle
  2
STANDARD
 70
     0
  3

 62
   256
 51
90.0
 52
90.0
 71
     2
 49
0.5
 62
   256
  6
BYLAYER
 49
-0.5
 62
   256
  6
BYLAYER
  0
ACDBPLACEHOLDER
  5
19
102
{ACAD_REACTORS
330
18
102
}
330
18
  0
SCALE
  5
FAC
102
{ACAD_REACTORS
330
FAB
102
}
330
FAB
100
AcDbScale
 70
     0
300
1:1
140
1.0
141
1.0
290
     1
  0
SCALE
  5
FAD
102
{ACAD_REACTORS
330
FAB
102
}
330
FAB
100
AcDbScale
 70
     0
300
1:2
140
1.0
141
2.0
290
     0
  0
SCALE
  5
FAE
102
{ACAD_REACTORS
330
FAB
102
}
330
FAB
100
AcDbScale
 70
     0
300
1:4
140
1.0
141
4.0
290
     0
  0
SCALE
  5
FAF
102
{ACAD_REACTORS
330
FAB
102
}
330
FAB
100
AcDbScale
 70
     0
300
1:5
140
1.0
141
5.0
290
     0
  0
SCALE
  5
FB0
102
{ACAD_REACTORS
330
FAB
102
}
330
FAB
100
AcDbScale
 70
     0
300
1:8
140
1.0
141
8.0
290
     0
  0
SCALE
  5
FB1
102
{ACAD_REACTORS
330
FAB
102
}
330
FAB
100
AcDbScale
 70
     0
300
1:10
140
1.0
141
10.0
290
     0
  0
SCALE
  5
FB2
102
{ACAD_REACTORS
330
FAB
102
}
330
FAB
100
AcDbScale
 70
     0
300
1:16
140
1.0
141
16.0
290
     0
  0
SCALE
  5
FB3
102
{ACAD_REACTORS
330
FAB
102
}
330
FAB
100
AcDbScale
 70
     0
300
1:20
140
1.0
141
20.0
290
     0
  0
SCALE
  5
FB4
102
{ACAD_REACTORS
330
FAB
102
}
330
FAB
100
AcDbScale
 70
     0
300
1:30
140
1.0
141
30.0
290
     0
  0
SCALE
  5
FB5
102
{ACAD_REACTORS
330
FAB
102
}
330
FAB
100
AcDbScale
 70
     0
300
1:40
140
1.0
141
40.0
290
     0
  0
SCALE
  5
FB6
102
{ACAD_REACTORS
330
FAB
102
}
330
FAB
100
AcDbScale
 70
     0
300
1:50
140
1.0
141
50.0
290
     0
  0
SCALE
  5
FB7
102
{ACAD_REACTORS
330
FAB
102
}
330
FAB
100
AcDbScale
 70
     0
300
1:100
140
1.0
141
100.0
290
     0
  0
SCALE
  5
FB8
102
{ACAD_REACTORS
330
FAB
102
}
330
FAB
100
AcDbScale
 70
     0
300
2:1
140
2.0
141
1.0
290
     0
  0
SCALE
  5
FB9
102
{ACAD_REACTORS
330
FAB
102
}
330
FAB
100
AcDbScale
 70
     0
300
4:1
140
4.0
141
1.0
290
     0
  0
SCALE
  5
FBA
102
{ACAD_REACTORS
330
FAB
102
}
330
FAB
100
AcDbScale
 70
     0
300
8:1
140
8.0
141
1.0
290
     0
  0
SCALE
  5
FBB
102
{ACAD_REACTORS
330
FAB
102
}
330
FAB
100
AcDbScale
 70
     0
300
10:1
140
10.0
141
1.0
290
     0
  0
SCALE
  5
FBC
102
{ACAD_REACTORS
330
FAB
102
}
330
FAB
100
AcDbScale
 70
     0
300
100:1
140
100.0
141
1.0
290
     0
  0
SCALE
  5
FBD
102
{ACAD_REACTORS
330
FAB
102
}
330
FAB
100
AcDbScale
 70
     0
300
1/128" = 1'-0"
140
0.0078125
141
12.0
290
     0
  0
SCALE
  5
FBE
102
{ACAD_REACTORS
330
FAB
102
}
330
FAB
100
AcDbScale
 70
     0
300
1/64" = 1'-0"
140
0.015625
141
12.0
290
     0
  0
SCALE
  5
FBF
102
{ACAD_REACTORS
330
FAB
102
}
330
FAB
100
AcDbScale
 70
     0
300
1/32" = 1'-0"
140
0.03125
141
12.0
290
     0
  0
SCALE
  5
FC0
102
{ACAD_REACTORS
330
FAB
102
}
330
FAB
100
AcDbScale
 70
     0
300
1/16" = 1'-0"
140
0.0625
141
12.0
290
     0
  0
SCALE
  5
FC1
102
{ACAD_REACTORS
330
FAB
102
}
330
FAB
100
AcDbScale
 70
     0
300
3/32" = 1'-0"
140
0.09375
141
12.0
290
     0
  0
SCALE
  5
FC2
102
{ACAD_REACTORS
330
FAB
102
}
330
FAB
100
AcDbScale
 70
     0
300
1/8" = 1'-0"
140
0.125
141
12.0
290
     0
  0
SCALE
  5
FC3
102
{ACAD_REACTORS
330
FAB
102
}
330
FAB
100
AcDbScale
 70
     0
300
3/16" = 1'-0"
140
0.1875
141
12.0
290
     0
  0
SCALE
  5
FC4
102
{ACAD_REACTORS
330
FAB
102
}
330
FAB
100
AcDbScale
 70
     0
300
1/4" = 1'-0"
140
0.25
141
12.0
290
     0
  0
SCALE
  5
FC5
102
{ACAD_REACTORS
330
FAB
102
}
330
FAB
100
AcDbScale
 70
     0
300
3/8" = 1'-0"
140
0.375
141
12.0
290
     0
  0
SCALE
  5
FC6
102
{ACAD_REACTORS
330
FAB
102
}
330
FAB
100
AcDbScale
 70
     0
300
1/2" = 1'-0"
140
0.5
141
12.0
290
     0
  0
SCALE
  5
FC7
102
{ACAD_REACTORS
330
FAB
102
}
330
FAB
100
AcDbScale
 70
     0
300
3/4" = 1'-0"
140
0.75
141
12.0
290
     0
  0
SCALE
  5
FC8
102
{ACAD_REACTORS
330
FAB
102
}
330
FAB
100
AcDbScale
 70
     0
300
1" = 1'-0"
140
1.0
141
12.0
290
     0
  0
SCALE
  5
FC9
102
{ACAD_REACTORS
330
FAB
102
}
330
FAB
100
AcDbScale
 70
     0
300
1-1/2" = 1'-0"
140
1.5
141
12.0
290
     0
  0
SCALE
  5
FCA
102
{ACAD_REACTORS
330
FAB
102
}
330
FAB
100
AcDbScale
 70
     0
300
3" = 1'-0"
140
3.0
141
12.0
290
     0
  0
SCALE
  5
FCB
102
{ACAD_REACTORS
330
FAB
102
}
330
FAB
100
AcDbScale
 70
     0
300
6" = 1'-0"
140
6.0
141
12.0
290
     0
  0
SCALE
  5
FCC
102
{ACAD_REACTORS
330
FAB
102
}
330
FAB
100
AcDbScale
 70
     0
300
1'-0" = 1'-0"
140
12.0
141
12.0
290
     0
  0
TABLESTYLE
  5
FA9
102
{ACAD_XDICTIONARY
360
FF8
102
}
102
{ACAD_REACTORS
330
FA8
102
}
330
FA8
100
AcDbTableStyle
  3
Standard
 70
     0
 71
     0
 40
0.06
 41
0.06
280
     0
281
     0
  7
Standard
140
0.18
170
     2
 62
     0
 63
     7
283
     0
274
    -2
284
     1
 64
     0
275
    -2
285
     1
 65
     0
276
    -2
286
     1
 66
     0
277
    -2
287
     1
 67
     0
278
    -2
288
     1
 68
     0
279
    -2
289
     1
 69
     0
  7
Standard
140
0.25
170
     5
 62
     0
 63
     7
283
     0
274
    -2
284
     1
 64
     0
275
    -2
285
     1
 65
     0
276
    -2
286
     1
 66
     0
277
    -2
287
     1
 67
     0
278
    -2
288
     1
 68
     0
279
    -2
289
     1
 69
     0
  7
Standard
140
0.18
170
     5
 62
     0
 63
     7
283
     0
274
    -2
284
     1
 64
     0
275
    -2
285
     1
 65
     0
276
    -2
286
     1
 66
     0
277
    -2
287
     1
 67
     0
278
    -2
288
     1
 68
     0
279
    -2
289
     1
 69
     0
  0
VISUALSTYLE
  5
F99
102
{ACAD_XDICTIONARY
360
F10AF4
102
}
102
{ACAD_REACTORS
330
F93
102
}
330
F93
100
AcDbVisualStyle
  2

 70
     4
 71
     0
 72
     2
 73
     0
 90
        0
 40
-0.6
 41
-30.0
 62
     5
 63
     7
 74
     1
 91
        4
 64
     7
 65
   257
 75
     1
175
     1
 42
1.0
 92
        0
 66
   257
 43
1.0
 76
     1
 77
     6
 78
     2
 67
     7
 79
     5
170
     0
171
     0
290
     0
174
     0
 93
        1
 44
0.0
173
     0
291
     0
 45
0.0
1001
ACAD
1000
AcDbSavedByObjectVersion
1070
     0
  0
VISUALSTYLE
  5
F9B
102
{ACAD_XDICTIONARY
360
F10AF8
102
}
102
{ACAD_REACTORS
330
F93
102
}
330
F93
100
AcDbVisualStyle
  2

 70
     6
 71
     1
 72
     2
 73
     2
 90
        0
 40
-0.6
 41
-30.0
 62
     5
 63
     7
 74
     2
 91
        2
 64
     7
 65
   257
 75
     2
175
     1
 42
179.0
 92
        0
 66
   257
 43
1.0
 76
     1
 77
     6
 78
     2
 67
     7
 79
     3
170
     0
171
     0
290
     0
174
     0
 93
        1
 44
0.0
173
     0
291
     0
 45
0.0
1001
ACAD
1000
AcDbSavedByObjectVersion
1070
     0
  0
VISUALSTYLE
  5
F9A
102
{ACAD_XDICTIONARY
360
F10AF6
102
}
102
{ACAD_REACTORS
330
F93
102
}
330
F93
100
AcDbVisualStyle
  2

 70
     5
 71
     0
 72
     2
 73
     0
 90
        0
 40
-0.6
 41
-30.0
 62
     5
 63
     7
 74
     1
 91
        4
 64
     7
 65
   257
 75
     1
175
     1
 42
1.0
 92
        0
 66
   257
 43
1.0
 76
     1
 77
     6
 78
     2
 67
     7
 79
     5
170
     0
171
     0
290
     0
174
     0
 93
        1
 44
0.0
173
     0
291
     0
 45
0.0
1001
ACAD
1000
AcDbSavedByObjectVersion
1070
     0
  0
VISUALSTYLE
  5
F98
102
{ACAD_XDICTIONARY
360
F10AF2
102
}
102
{ACAD_REACTORS
330
F93
102
}
330
F93
100
AcDbVisualStyle
  2

 70
     7
 71
     1
 72
     0
 73
     1
 90
        0
 40
-0.6
 41
-30.0
 62
     5
 63
     7
 74
     0
 91
        4
 64
     7
 65
   257
 75
     1
175
     1
 42
1.0
 92
        8
 66
     7
 43
1.0
 76
     1
 77
     6
 78
     2
 67
     7
 79
     5
170
     0
171
     0
290
     0
174
     0
 93
        1
 44
0.0
173
     0
291
     1
 45
0.0
1001
ACAD
1000
AcDbSavedByObjectVersion
1070
     0
  0
VISUALSTYLE
  5
F9F
102
{ACAD_XDICTIONARY
360
F10B00
102
}
102
{ACAD_REACTORS
330
F93
102
}
330
F93
100
AcDbVisualStyle
  2

 70
    12
 71
     2
 72
     2
 73
     0
 90
        0
 40
-0.6
 41
-30.0
 62
     5
 63
     7
 74
     1
 91
        4
 64
     7
 65
   257
 75
     1
175
     1
 42
1.0
 92
        8
 66
     7
 43
1.0
 76
     1
 77
     6
 78
     2
 67
     7
 79
     5
170
     0
171
     0
290
     0
174
     0
 93
        1
 44
50.0
173
     0
291
     1
 45
0.0
1001
ACAD
1000
AcDbSavedByObjectVersion
1070
     0
  0
VISUALSTYLE
  5
FA3
102
{ACAD_XDICTIONARY
360
F10B08
102
}
102
{ACAD_REACTORS
330
F93
102
}
330
F93
100
AcDbVisualStyle
  2

 70
    16
 71
     2
 72
     2
 73
     3
 90
        0
 40
-0.6
 41
-30.0
 62
     5
 63
     8
 74
     1
 91
        4
 64
     7
 65
   257
 75
     1
175
     1
 42
1.0
 92
        8
 66
     8
 43
1.0
 76
     1
 77
     6
 78
     2
 67
     7
 79
     5
170
     0
171
     0
290
     0
174
     0
 93
        1
 44
0.0
173
     0
291
     1
 45
0.0
1001
ACAD
1000
AcDbSavedByObjectVersion
1070
     0
  0
VISUALSTYLE
  5
F9C
102
{ACAD_XDICTIONARY
360
F10AFA
102
}
102
{ACAD_REACTORS
330
F93
102
}
330
F93
100
AcDbVisualStyle
  2

 70
     9
 71
     3
 72
     2
 73
     0
 90
        0
 40
-0.6
 41
-30.0
 62
     5
 63
     7
 74
     2
 91
        2
 64
     7
 65
   257
 75
     1
175
     1
 42
179.0
 92
        8
 66
     7
 43
1.0
 76
     1
 77
     6
 78
     2
 67
     7
 79
     3
170
     0
171
     0
290
     0
174
     0
 93
        1
 44
0.0
173
     0
291
     0
 45
0.0
1001
ACAD
1000
AcDbSavedByObjectVersion
1070
     0
  0
VISUALSTYLE
  5
F9E
102
{ACAD_XDICTIONARY
360
F10AFE
102
}
102
{ACAD_REACTORS
330
F93
102
}
330
F93
100
AcDbVisualStyle
  2

 70
    11
 71
     2
 72
     2
 73
     0
 90
        0
 40
-0.6
 41
-30.0
 62
     5
 63
     7
 74
     1
 91
        4
 64
     7
 65
   257
 75
     1
175
     1
 42
1.0
 92
        8
 66
     7
 43
1.0
 76
     1
 77
     6
 78
     2
 67
     7
 79
     5
170
     0
171
     0
290
     0
174
     0
 93
        1
 44
-50.0
173
     0
291
     1
 45
0.0
1001
ACAD
1000
AcDbSavedByObjectVersion
1070
     0
  0
VISUALSTYLE
  5
FA6
102
{ACAD_XDICTIONARY
360
F10B0E
102
}
102
{ACAD_REACTORS
330
F93
102
}
330
F93
100
AcDbVisualStyle
  2

 70
    22
 71
     2
 72
     2
 73
     0
 90
        0
 40
-0.6
 41
-30.0
 62
     5
 63
     7
 74
     1
 91
        4
 64
     7
 65
   257
 75
     1
175
     1
 42
1.0
 92
        8
 66
     7
 43
1.0
 76
     1
 77
     6
 78
     2
 67
     7
 79
     5
170
     0
171
     0
290
     0
174
     0
 93
        1
 44
0.0
173
     0
291
     1
 45
0.0
1001
ACAD
1000
AcDbSavedByObjectVersion
1070
     0
  0
VISUALSTYLE
  5
FA2
102
{ACAD_XDICTIONARY
360
F10B06
102
}
102
{ACAD_REACTORS
330
F93
102
}
330
F93
100
AcDbVisualStyle
  2

 70
    15
 71
     2
 72
     2
 73
     0
 90
        0
 40
-0.6
 41
-30.0
 62
     5
 63
     7
 74
     1
 91
        4
 64
     7
 65
   257
 75
     1
175
     1
 42
1.0
 92
        8
 66
     7
 43
1.0
 76
     1
 77
     6
 78
     2
 67
     7
 79
     5
170
     0
171
     0
290
     0
174
     0
 93
        1
 44
0.0
173
     0
291
     1
 45
0.0
1001
ACAD
1000
AcDbSavedByObjectVersion
1070
     0
  0
VISUALSTYLE
  5
F94
102
{ACAD_XDICTIONARY
360
F10AEA
102
}
102
{ACAD_REACTORS
330
F93
102
}
330
F93
100
AcDbVisualStyle
  2

 70
     0
 71
     2
 72
     1
 73
     1
 90
        2
 40
-0.6
 41
30.0
 62
     5
 63
     7
 74
     0
 91
        4
 64
     7
 65
   257
 75
     1
175
     1
 42
1.0
 92
        8
 66
     7
 43
1.0
 76
     1
 77
     6
 78
     2
 67
     7
 79
     5
170
     0
171
     0
290
     0
174
     0
 93
       13
 44
0.0
173
     0
291
     1
 45
0.0
1001
ACAD
1000
AcDbSavedByObjectVersion
1070
     0
  0
VISUALSTYLE
  5
F95
102
{ACAD_XDICTIONARY
360
F10AEC
102
}
102
{ACAD_REACTORS
330
F93
102
}
330
F93
100
AcDbVisualStyle
  2

 70
     1
 71
     2
 72
     1
 73
     1
 90
        2
 40
-0.6
 41
30.0
 62
     5
 63
     7
 74
     1
 91
        4
 64
     7
 65
   257
 75
     1
175
     1
 42
1.0
 92
        0
 66
   257
 43
1.0
 76
     1
 77
     6
 78
     2
 67
     7
 79
     5
170
     0
171
     0
290
     0
174
     0
 93
       13
 44
0.0
173
     0
291
     1
 45
0.0
1001
ACAD
1000
AcDbSavedByObjectVersion
1070
     0
  0
VISUALSTYLE
  5
F96
102
{ACAD_XDICTIONARY
360
F10AEE
102
}
102
{ACAD_REACTORS
330
F93
102
}
330
F93
100
AcDbVisualStyle
  2

 70
     2
 71
     2
 72
     2
 73
     1
 90
        2
 40
-0.6
 41
30.0
 62
     5
 63
     7
 74
     0
 91
        4
 64
     7
 65
   257
 75
     1
175
     1
 42
1.0
 92
        0
 66
     7
 43
1.0
 76
     1
 77
     6
 78
     2
 67
     7
 79
     5
170
     0
171
     0
290
     0
174
     0
 93
       13
 44
0.0
173
     0
291
     1
 45
0.0
1001
ACAD
1000
AcDbSavedByObjectVersion
1070
     0
  0
VISUALSTYLE
  5
F97
102
{ACAD_XDICTIONARY
360
F10AF0
102
}
102
{ACAD_REACTORS
330
F93
102
}
330
F93
100
AcDbVisualStyle
  2

 70
     3
 71
     2
 72
     2
 73
     1
 90
        2
 40
-0.6
 41
30.0
 62
     5
 63
     7
 74
     1
 91
        4
 64
     7
 65
   257
 75
     1
175
     1
 42
1.0
 92
        0
 66
   257
 43
1.0
 76
     1
 77
     6
 78
     2
 67
     7
 79
     5
170
     0
171
     0
290
     0
174
     0
 93
       13
 44
0.0
173
     0
291
     1
 45
0.0
1001
ACAD
1000
AcDbSavedByObjectVersion
1070
     0
  0
VISUALSTYLE
  5
F1098C
102
{ACAD_XDICTIONARY
360
F10B17
102
}
102
{ACAD_REACTORS
330
F93
102
}
330
F93
100
AcDbVisualStyle
  2
Hidden
 70
     6
 71
     1
 72
     2
 73
     2
 90
        0
 40
-0.6
 41
-30.0
 62
     5
 63
     7
 74
     2
 91
        2
 64
     7
 65
   257
 75
     2
175
     1
 42
40.0
 92
        0
 66
   257
 43
1.0
 76
     1
 77
     6
 78
     2
 67
     7
 79
     3
170
     0
171
     0
290
     0
174
     0
 93
        1
 44
0.0
173
     0
291
     0
 45
0.0
1001
ACAD
1000
AcDbSavedByObjectVersion
1070
     0
  0
VISUALSTYLE
  5
FA4
102
{ACAD_XDICTIONARY
360
F10B0A
102
}
102
{ACAD_REACTORS
330
F93
102
}
330
F93
100
AcDbVisualStyle
  2

 70
    20
 71
     2
 72
     2
 73
     0
 90
        0
 40
-0.6
 41
-30.0
 62
     5
 63
     7
 74
     1
 91
        4
 64
     7
 65
   257
 75
     1
175
     1
 42
1.0
 92
       10
 66
     7
 43
1.0
 76
     1
 77
     6
 78
     2
 67
     7
 79
     5
170
     0
171
     0
290
     0
174
     0
 93
        1
 44
0.0
173
     0
291
     1
 45
0.0
1001
ACAD
1000
AcDbSavedByObjectVersion
1070
     0
  0
VISUALSTYLE
  5
FA1
102
{ACAD_XDICTIONARY
360
F10B04
102
}
102
{ACAD_REACTORS
330
F93
102
}
330
F93
100
AcDbVisualStyle
  2

 70
    14
 71
     2
 72
     2
 73
     0
 90
        0
 40
-0.6
 41
-30.0
 62
     5
 63
     7
 74
     1
 91
        4
 64
     7
 65
   257
 75
     7
175
     7
 42
1.0
 92
        8
 66
     7
 43
1.0
 76
     1
 77
     6
 78
     2
 67
     7
 79
     5
170
     0
171
     0
290
     0
174
     0
 93
        1
 44
0.0
173
     0
291
     1
 45
0.0
1001
ACAD
1000
AcDbSavedByObjectVersion
1070
     0
  0
VISUALSTYLE
  5
FA5
102
{ACAD_XDICTIONARY
360
F10B0C
102
}
102
{ACAD_REACTORS
330
F93
102
}
330
F93
100
AcDbVisualStyle
  2

 70
    21
 71
     2
 72
     2
 73
     0
 90
        0
 40
-0.6
 41
-30.0
 62
     5
 63
     7
 74
     1
 91
        4
 64
     7
 65
   257
 75
     1
175
     1
 42
1.0
 92
        9
 66
     7
 43
1.0
 76
     1
 77
     6
 78
     2
 67
     7
 79
     5
170
     0
171
     0
290
     0
174
     0
 93
        1
 44
0.0
173
     0
291
     1
 45
0.0
1001
ACAD
1000
AcDbSavedByObjectVersion
1070
     0
  0
VISUALSTYLE
  5
F9D
102
{ACAD_XDICTIONARY
360
F10AFC
102
}
102
{ACAD_REACTORS
330
F93
102
}
330
F93
100
AcDbVisualStyle
  2

 70
     8
 71
     2
 72
     2
 73
     0
 90
        0
 40
-0.6
 41
-30.0
 62
     5
 63
     7
 74
     1
 91
        0
 64
     7
 65
   257
 75
     1
175
     1
 42
1.0
 92
        8
 66
     8
 43
1.0
 76
     1
 77
     6
 78
     2
 67
     7
 79
     5
170
     0
171
     0
290
     0
174
     0
 93
       13
 44
0.0
173
     0
291
     0
 45
0.0
1001
ACAD
1000
AcDbSavedByObjectVersion
1070
     0
  0
VISUALSTYLE
  5
F10991
102
{ACAD_XDICTIONARY
360
F10B21
102
}
102
{ACAD_REACTORS
330
F93
102
}
330
F93
100
AcDbVisualStyle
  2
Shaded
 70
    27
 71
     2
 72
     2
 73
     1
 90
        2
 40
-0.6
 41
30.0
 62
     5
 63
     7
 74
     0
 91
        4
 64
     7
 65
   257
 75
     1
175
     1
 42
1.0
 92
        8
 66
   257
 43
1.0
 76
     1
 77
     6
 78
     2
 67
     8
 79
     3
170
     0
171
     0
290
     0
174
     0
 93
        5
 44
0.0
173
     0
291
     0
 45
0.0
1001
ACAD
1000
AcDbSavedByObjectVersion
1070
     0
  0
VISUALSTYLE
  5
F10990
102
{ACAD_XDICTIONARY
360
F10B1F
102
}
102
{ACAD_REACTORS
330
F93
102
}
330
F93
100
AcDbVisualStyle
  2
Shaded with edges
 70
    26
 71
     2
 72
     2
 73
     1
 90
        2
 40
-0.6
 41
30.0
 62
     5
 63
     7
 74
     1
 91
       10
 64
     7
 65
   257
 75
     2
175
     1
 42
1.0
 92
        8
 66
   257
 43
1.0
 76
     1
 77
     6
 78
     2
 67
     7
 79
     3
170
     0
171
     0
290
     0
174
     0
 93
        5
 44
0.0
173
     0
291
     0
 45
0.0
1001
ACAD
1000
AcDbSavedByObjectVersion
1070
     0
  0
VISUALSTYLE
  5
F1098D
102
{ACAD_XDICTIONARY
360
F10B19
102
}
102
{ACAD_REACTORS
330
F93
102
}
330
F93
100
AcDbVisualStyle
  2
Shades of Gray
 70
    23
 71
     2
 72
     2
 73
     3
 90
        0
 40
-0.6
 41
-30.0
 62
     5
 63
     7
 74
     2
 91
        2
 64
     7
 65
     7
 75
     1
175
     1
 42
40.0
 92
        8
 66
     7
 43
1.0
 76
     1
 77
     6
 78
     2
 67
     7
 79
     3
170
     0
171
     0
290
     0
174
     0
 93
        1
 44
0.0
173
     0
291
     0
 45
0.0
1001
ACAD
1000
AcDbSavedByObjectVersion
1070
     0
  0
VISUALSTYLE
  5
F1098E
102
{ACAD_XDICTIONARY
360
F10B1B
102
}
102
{ACAD_REACTORS
330
F93
102
}
330
F93
100
AcDbVisualStyle
  2
Sketchy
 70
    24
 71
     1
 72
     2
 73
     2
 90
        0
 40
-0.6
 41
-30.0
 62
     5
 63
     7
 74
     2
 91
        2
 64
     7
 65
     7
 75
     1
175
     1
 42
40.0
 92
       11
 66
     7
 43
1.0
 76
     1
 77
     6
 78
     2
 67
     7
 79
     6
170
     0
171
     0
290
     0
174
     0
 93
        1
 44
0.0
173
     0
291
     0
 45
0.0
1001
ACAD
1000
AcDbSavedByObjectVersion
1070
     0
  0
VISUALSTYLE
  5
FA0
102
{ACAD_XDICTIONARY
360
F10B02
102
}
102
{ACAD_REACTORS
330
F93
102
}
330
F93
100
AcDbVisualStyle
  2

 70
    13
 71
     2
 72
     2
 73
     0
 90
        0
 40
-0.6
 41
-30.0
 62
     5
 63
     7
 74
     1
 91
        4
 64
     7
 65
   257
 75
     1
175
     1
 42
1.0
 92
       12
 66
     7
 43
1.0
 76
     1
 77
     6
 78
     2
 67
     7
 79
     5
170
     0
171
     0
290
     0
174
     0
 93
        1
 44
0.0
173
     0
291
     1
 45
0.0
1001
ACAD
1000
AcDbSavedByObjectVersion
1070
     0
  0
VISUALSTYLE
  5
F1098B
102
{ACAD_XDICTIONARY
360
F10B15
102
}
102
{ACAD_REACTORS
330
F93
102
}
330
F93
100
AcDbVisualStyle
  2
Wireframe
 70
     5
 71
     0
 72
     2
 73
     0
 90
        0
 40
-0.6
 41
-30.0
 62
     5
 63
     7
 74
     1
 91
        4
 64
     7
 65
   257
 75
     1
175
     1
 42
1.0
 92
        0
 66
   257
 43
1.0
 76
     1
 77
     6
 78
     2
 67
     7
 79
     3
170
     0
171
     0
290
     0
174
     0
 93
        1
 44
0.0
173
     0
291
     0
 45
0.0
1001
ACAD
1000
AcDbSavedByObjectVersion
1070
     0
  0
VISUALSTYLE
  5
F1098F
102
{ACAD_XDICTIONARY
360
F10B1D
102
}
102
{ACAD_REACTORS
330
F93
102
}
330
F93
100
AcDbVisualStyle
  2
X-Ray
 70
    25
 71
     2
 72
     2
 73
     1
 90
        1
 40
0.5
 41
-30.0
 62
     5
 63
     7
 74
     1
 91
        0
 64
     7
 65
   257
 75
     1
175
     1
 42
1.0
 92
        8
 66
     7
 43
1.0
 76
     1
 77
     6
 78
     2
 67
     7
 79
     3
170
     0
171
     0
290
     0
174
     0
 93
       13
 44
0.0
173
     0
291
     0
 45
0.0
1001
ACAD
1000
AcDbSavedByObjectVersion
1070
     0
  0
DICTIONARYVAR
  5
F10ADA
102
{ACAD_REACTORS
330
F10AD7
102
}
330
F10AD7
100
DictionaryVariables
280
     0
  1
1:1
  0
DICTIONARYVAR
  5
F10AD9
102
{ACAD_REACTORS
330
F10AD7
102
}
330
F10AD7
100
DictionaryVariables
280
     0
  1
STANDARD
  0
DICTIONARYVAR
  5
F10AD8
102
{ACAD_REACTORS
330
F10AD7
102
}
330
F10AD7
100
DictionaryVariables
280
     0
  1
STANDARD
  0
DICTIONARYVAR
  5
F10ADD
102
{ACAD_REACTORS
330
F10AD7
102
}
330
F10AD7
100
DictionaryVariables
280
     0
  1
1
  0
DICTIONARYVAR
  5
F10ADC
102
{ACAD_REACTORS
330
F10AD7
102
}
330
F10AD7
100
DictionaryVariables
280
     0
  1
0
  0
DICTIONARYVAR
  5
F10ADB
102
{ACAD_REACTORS
330
F10AD7
102
}
330
F10AD7
100
DictionaryVariables
280
     0
  1
127
  0
DICTIONARYVAR
  5
F10ADE
102
{ACAD_REACTORS
330
F10AD7
102
}
330
F10AD7
100
DictionaryVariables
280
     0
  1
2
  0
DICTIONARY
  5
F109EB
102
{ACAD_REACTORS
330
F109E0
102
}
330
F109E0
100
AcDbDictionary
281
     1
  0
DICTIONARY
  5
F10B13
330
FD1
100
AcDbDictionary
280
     1
281
     1
  3
ACAD_XREC_ROUNDTRIP
360
F10B14
  0
DICTIONARY
  5
F10B11
330
FD0
100
AcDbDictionary
280
     1
281
     1
  3
ACAD_XREC_ROUNDTRIP
360
F10B12
  0
DICTIONARY
  5
F84
330
F83
100
AcDbDictionary
280
     1
281
     1
  3
ACAD_XREC_ROUNDTRIP
360
FFF
  3
BUMPTILE
360
F86
  3
DIFFUSETILE
360
F85
  3
OPACITYTILE
360
F89
  3
REFLECTIONTILE
360
F88
  3
REFRACTIONTILE
360
F8A
  3
SPECULARTILE
360
F87
  0
DICTIONARY
  5
F7C
330
F7B
100
AcDbDictionary
280
     1
281
     1
  3
ACAD_XREC_ROUNDTRIP
360
FFE
  3
BUMPTILE
360
F7E
  3
DIFFUSETILE
360
F7D
  3
OPACITYTILE
360
F81
  3
REFLECTIONTILE
360
F80
  3
REFRACTIONTILE
360
F82
  3
SPECULARTILE
360
F7F
  0
DICTIONARY
  5
F8C
330
F8B
100
AcDbDictionary
280
     1
281
     1
  3
ACAD_XREC_ROUNDTRIP
360
1000
  3
BUMPTILE
360
F8E
  3
DIFFUSETILE
360
F8D
  3
OPACITYTILE
360
F91
  3
REFLECTIONTILE
360
F90
  3
REFRACTIONTILE
360
F92
  3
SPECULARTILE
360
F8F
  0
DICTIONARY
  5
FF8
330
FA9
100
AcDbDictionary
280
     1
281
     1
  3
ACAD_ROUNDTRIP_2008_TABLESTYLE_CELLSTYLEMAP
360
F10ADF
  3
ACAD_XREC_ROUNDTRIP
360
F10B10
  0
DICTIONARY
  5
F10AF4
330
F99
100
AcDbDictionary
280
     1
281
     1
  3
ACAD_XREC_ROUNDTRIP
360
F10AF5
  0
DICTIONARY
  5
F10AF8
330
F9B
100
AcDbDictionary
280
     1
281
     1
  3
ACAD_XREC_ROUNDTRIP
360
F10AF9
  0
DICTIONARY
  5
F10AF6
330
F9A
100
AcDbDictionary
280
     1
281
     1
  3
ACAD_XREC_ROUNDTRIP
360
F10AF7
  0
DICTIONARY
  5
F10AF2
330
F98
100
AcDbDictionary
280
     1
281
     1
  3
ACAD_XREC_ROUNDTRIP
360
F10AF3
  0
DICTIONARY
  5
F10B00
330
F9F
100
AcDbDictionary
280
     1
281
     1
  3
ACAD_XREC_ROUNDTRIP
360
F10B01
  0
DICTIONARY
  5
F10B08
330
FA3
100
AcDbDictionary
280
     1
281
     1
  3
ACAD_XREC_ROUNDTRIP
360
F10B09
  0
DICTIONARY
  5
F10AFA
330
F9C
100
AcDbDictionary
280
     1
281
     1
  3
ACAD_XREC_ROUNDTRIP
360
F10AFB
  0
DICTIONARY
  5
F10AFE
330
F9E
100
AcDbDictionary
280
     1
281
     1
  3
ACAD_XREC_ROUNDTRIP
360
F10AFF
  0
DICTIONARY
  5
F10B0E
330
FA6
100
AcDbDictionary
280
     1
281
     1
  3
ACAD_XREC_ROUNDTRIP
360
F10B0F
  0
DICTIONARY
  5
F10B06
330
FA2
100
AcDbDictionary
280
     1
281
     1
  3
ACAD_XREC_ROUNDTRIP
360
F10B07
  0
DICTIONARY
  5
F10AEA
330
F94
100
AcDbDictionary
280
     1
281
     1
  3
ACAD_XREC_ROUNDTRIP
360
F10AEB
  0
DICTIONARY
  5
F10AEC
330
F95
100
AcDbDictionary
280
     1
281
     1
  3
ACAD_XREC_ROUNDTRIP
360
F10AED
  0
DICTIONARY
  5
F10AEE
330
F96
100
AcDbDictionary
280
     1
281
     1
  3
ACAD_XREC_ROUNDTRIP
360
F10AEF
  0
DICTIONARY
  5
F10AF0
330
F97
100
AcDbDictionary
280
     1
281
     1
  3
ACAD_XREC_ROUNDTRIP
360
F10AF1
  0
DICTIONARY
  5
F10B17
330
F1098C
100
AcDbDictionary
280
     1
281
     1
  3
ACAD_XREC_ROUNDTRIP
360
F10B18
  0
DICTIONARY
  5
F10B0A
330
FA4
100
AcDbDictionary
280
     1
281
     1
  3
ACAD_XREC_ROUNDTRIP
360
F10B0B
  0
DICTIONARY
  5
F10B04
330
FA1
100
AcDbDictionary
280
     1
281
     1
  3
ACAD_XREC_ROUNDTRIP
360
F10B05
  0
DICTIONARY
  5
F10B0C
330
FA5
100
AcDbDictionary
280
     1
281
     1
  3
ACAD_XREC_ROUNDTRIP
360
F10B0D
  0
DICTIONARY
  5
F10AFC
330
F9D
100
AcDbDictionary
280
     1
281
     1
  3
ACAD_XREC_ROUNDTRIP
360
F10AFD
  0
DICTIONARY
  5
F10B21
330
F10991
100
AcDbDictionary
280
     1
281
     1
  3
ACAD_XREC_ROUNDTRIP
360
F10B22
  0
DICTIONARY
  5
F10B1F
330
F10990
100
AcDbDictionary
280
     1
281
     1
  3
ACAD_XREC_ROUNDTRIP
360
F10B20
  0
DICTIONARY
  5
F10B19
330
F1098D
100
AcDbDictionary
280
     1
281
     1
  3
ACAD_XREC_ROUNDTRIP
360
F10B1A
  0
DICTIONARY
  5
F10B1B
330
F1098E
100
AcDbDictionary
280
     1
281
     1
  3
ACAD_XREC_ROUNDTRIP
360
F10B1C
  0
DICTIONARY
  5
F10B02
330
FA0
100
AcDbDictionary
280
     1
281
     1
  3
ACAD_XREC_ROUNDTRIP
360
F10B03
  0
DICTIONARY
  5
F10B15
330
F1098B
100
AcDbDictionary
280
     1
281
     1
  3
ACAD_XREC_ROUNDTRIP
360
F10B16
  0
DICTIONARY
  5
F10B1D
330
F1098F
100
AcDbDictionary
280
     1
281
     1
  3
ACAD_XREC_ROUNDTRIP
360
F10B1E
  0
XRECORD
  5
F10B14
102
{ACAD_REACTORS
330
F10B13
102
}
330
F10B13
100
AcDbXrecord
280
     1
102
SHADEPLOT
 70
     0
102
SHADEPLOTRESLEVEL
 70
     2
102
SHADEPLOTCUSTOMDPI
 70
   300
  0
XRECORD
  5
F10B12
102
{ACAD_REACTORS
330
F10B11
102
}
330
F10B11
100
AcDbXrecord
280
     1
102
SHADEPLOT
 70
     0
102
SHADEPLOTRESLEVEL
 70
     2
102
SHADEPLOTCUSTOMDPI
 70
   300
  0
XRECORD
  5
FFF
102
{ACAD_REACTORS
330
F84
102
}
330
F84
100
AcDbXrecord
280
     1
102
MATERIAL
148
0.0
149
0.0
149
0.0
 93
        0
 94
      127
282
     0
 72
     0
 77
     0
171
     0
175
     0
179
     0
273
     0
  0
XRECORD
  5
F86
102
{ACAD_REACTORS
330
F84
102
}
330
F84
100
AcDbXrecord
280
     1
270
     1
271
     1
  0
XRECORD
  5
F85
102
{ACAD_REACTORS
330
F84
102
}
330
F84
100
AcDbXrecord
280
     1
270
     1
271
     1
  0
XRECORD
  5
F89
102
{ACAD_REACTORS
330
F84
102
}
330
F84
100
AcDbXrecord
280
     1
270
     1
271
     1
  0
XRECORD
  5
F88
102
{ACAD_REACTORS
330
F84
102
}
330
F84
100
AcDbXrecord
280
     1
270
     1
271
     1
  0
XRECORD
  5
F8A
102
{ACAD_REACTORS
330
F84
102
}
330
F84
100
AcDbXrecord
280
     1
270
     1
271
     1
  0
XRECORD
  5
F87
102
{ACAD_REACTORS
330
F84
102
}
330
F84
100
AcDbXrecord
280
     1
270
     1
271
     1
  0
XRECORD
  5
FFE
102
{ACAD_REACTORS
330
F7C
102
}
330
F7C
100
AcDbXrecord
280
     1
102
MATERIAL
148
0.0
149
0.0
149
0.0
 93
        0
 94
      127
282
     0
 72
     0
 77
     0
171
     0
175
     0
179
     0
273
     0
  0
XRECORD
  5
F7E
102
{ACAD_REACTORS
330
F7C
102
}
330
F7C
100
AcDbXrecord
280
     1
270
     1
271
     1
  0
XRECORD
  5
F7D
102
{ACAD_REACTORS
330
F7C
102
}
330
F7C
100
AcDbXrecord
280
     1
270
     1
271
     1
  0
XRECORD
  5
F81
102
{ACAD_REACTORS
330
F7C
102
}
330
F7C
100
AcDbXrecord
280
     1
270
     1
271
     1
  0
XRECORD
  5
F80
102
{ACAD_REACTORS
330
F7C
102
}
330
F7C
100
AcDbXrecord
280
     1
270
     1
271
     1
  0
XRECORD
  5
F82
102
{ACAD_REACTORS
330
F7C
102
}
330
F7C
100
AcDbXrecord
280
     1
270
     1
271
     1
  0
XRECORD
  5
F7F
102
{ACAD_REACTORS
330
F7C
102
}
330
F7C
100
AcDbXrecord
280
     1
270
     1
271
     1
  0
XRECORD
  5
1000
102
{ACAD_REACTORS
330
F8C
102
}
330
F8C
100
AcDbXrecord
280
     1
102
MATERIAL
148
0.0
149
0.0
149
0.0
 93
        0
 94
      127
282
     0
 72
     0
 77
     0
171
     0
175
     0
179
     0
273
     0
  0
XRECORD
  5
F8E
102
{ACAD_REACTORS
330
F8C
102
}
330
F8C
100
AcDbXrecord
280
     1
270
     1
271
     1
  0
XRECORD
  5
F8D
102
{ACAD_REACTORS
330
F8C
102
}
330
F8C
100
AcDbXrecord
280
     1
270
     1
271
     1
  0
XRECORD
  5
F91
102
{ACAD_REACTORS
330
F8C
102
}
330
F8C
100
AcDbXrecord
280
     1
270
     1
271
     1
  0
XRECORD
  5
F90
102
{ACAD_REACTORS
330
F8C
102
}
330
F8C
100
AcDbXrecord
280
     1
270
     1
271
     1
  0
XRECORD
  5
F92
102
{ACAD_REACTORS
330
F8C
102
}
330
F8C
100
AcDbXrecord
280
     1
270
     1
271
     1
  0
XRECORD
  5
F8F
102
{ACAD_REACTORS
330
F8C
102
}
330
F8C
100
AcDbXrecord
280
     1
270
     1
271
     1
  0
CELLSTYLEMAP
  5
F10ADF
102
{ACAD_REACTORS
330
FF8
102
}
330
FF8
100
AcDbCellStyleMap
 90
        3
300
CELLSTYLE
  1
TABLEFORMAT_BEGIN
 90
        5
170
     1
 91
        0
 92
    32768
 62
   257
 93
        1
300
CONTENTFORMAT
  1
CONTENTFORMAT_BEGIN
 90
        0
 91
        0
 92
      512
 93
        0
300

 40
0.0
140
1.0
 94
        5
 62
     0
340
253
144
0.25
309
CONTENTFORMAT_END
171
     1
301
MARGIN
  1
CELLMARGIN_BEGIN
 40
0.06
 40
0.06
 40
0.06
 40
0.06
 40
0.18
 40
0.18
309
CELLMARGIN_END
 94
        6
 95
        1
302
GRIDFORMAT
  1
GRIDFORMAT_BEGIN
 90
        0
 91
        1
 62
     0
 92
       -2
340
0
 93
        0
 40
0.045
309
GRIDFORMAT_END
 95
        2
302
GRIDFORMAT
  1
GRIDFORMAT_BEGIN
 90
        0
 91
        1
 62
     0
 92
       -2
340
0
 93
        0
 40
0.045
309
GRIDFORMAT_END
 95
        4
302
GRIDFORMAT
  1
GRIDFORMAT_BEGIN
 90
        0
 91
        1
 62
     0
 92
       -2
340
0
 93
        0
 40
0.045
309
GRIDFORMAT_END
 95
        8
302
GRIDFORMAT
  1
GRIDFORMAT_BEGIN
 90
        0
 91
        1
 62
     0
 92
       -2
340
0
 93
        0
 40
0.045
309
GRIDFORMAT_END
 95
       16
302
GRIDFORMAT
  1
GRIDFORMAT_BEGIN
 90
        0
 91
        1
 62
     0
 92
       -2
340
0
 93
        0
 40
0.045
309
GRIDFORMAT_END
 95
       32
302
GRIDFORMAT
  1
GRIDFORMAT_BEGIN
 90
        0
 91
        1
 62
     0
 92
       -2
340
0
 93
        0
 40
0.045
309
GRIDFORMAT_END
309
TABLEFORMAT_END
  1
CELLSTYLE_BEGIN
 90
        1
 91
        1
300
_TITLE
309
CELLSTYLE_END
300
CELLSTYLE
  1
TABLEFORMAT_BEGIN
 90
        5
170
     1
 91
        0
 92
        0
 62
   257
 93
        1
300
CONTENTFORMAT
  1
CONTENTFORMAT_BEGIN
 90
        0
 91
        0
 92
      512
 93
        0
300

 40
0.0
140
1.0
 94
        5
 62
     0
340
253
144
0.18
309
CONTENTFORMAT_END
171
     1
301
MARGIN
  1
CELLMARGIN_BEGIN
 40
0.06
 40
0.06
 40
0.06
 40
0.06
 40
0.18
 40
0.18
309
CELLMARGIN_END
 94
        6
 95
        1
302
GRIDFORMAT
  1
GRIDFORMAT_BEGIN
 90
        0
 91
        1
 62
     0
 92
       -2
340
0
 93
        0
 40
0.045
309
GRIDFORMAT_END
 95
        2
302
GRIDFORMAT
  1
GRIDFORMAT_BEGIN
 90
        0
 91
        1
 62
     0
 92
       -2
340
0
 93
        0
 40
0.045
309
GRIDFORMAT_END
 95
        4
302
GRIDFORMAT
  1
GRIDFORMAT_BEGIN
 90
        0
 91
        1
 62
     0
 92
       -2
340
0
 93
        0
 40
0.045
309
GRIDFORMAT_END
 95
        8
302
GRIDFORMAT
  1
GRIDFORMAT_BEGIN
 90
        0
 91
        1
 62
     0
 92
       -2
340
0
 93
        0
 40
0.045
309
GRIDFORMAT_END
 95
       16
302
GRIDFORMAT
  1
GRIDFORMAT_BEGIN
 90
        0
 91
        1
 62
     0
 92
       -2
340
0
 93
        0
 40
0.045
309
GRIDFORMAT_END
 95
       32
302
GRIDFORMAT
  1
GRIDFORMAT_BEGIN
 90
        0
 91
        1
 62
     0
 92
       -2
340
0
 93
        0
 40
0.045
309
GRIDFORMAT_END
309
TABLEFORMAT_END
  1
CELLSTYLE_BEGIN
 90
        2
 91
        1
300
_HEADER
309
CELLSTYLE_END
300
CELLSTYLE
  1
TABLEFORMAT_BEGIN
 90
        5
170
     1
 91
        0
 92
        0
 62
   257
 93
        1
300
CONTENTFORMAT
  1
CONTENTFORMAT_BEGIN
 90
        0
 91
        0
 92
      512
 93
        0
300

 40
0.0
140
1.0
 94
        2
 62
     0
340
253
144
0.18
309
CONTENTFORMAT_END
171
     1
301
MARGIN
  1
CELLMARGIN_BEGIN
 40
0.06
 40
0.06
 40
0.06
 40
0.06
 40
0.18
 40
0.18
309
CELLMARGIN_END
 94
        6
 95
        1
302
GRIDFORMAT
  1
GRIDFORMAT_BEGIN
 90
        0
 91
        1
 62
     0
 92
       -2
340
0
 93
        0
 40
0.045
309
GRIDFORMAT_END
 95
        2
302
GRIDFORMAT
  1
GRIDFORMAT_BEGIN
 90
        0
 91
        1
 62
     0
 92
       -2
340
0
 93
        0
 40
0.045
309
GRIDFORMAT_END
 95
        4
302
GRIDFORMAT
  1
GRIDFORMAT_BEGIN
 90
        0
 91
        1
 62
     0
 92
       -2
340
0
 93
        0
 40
0.045
309
GRIDFORMAT_END
 95
        8
302
GRIDFORMAT
  1
GRIDFORMAT_BEGIN
 90
        0
 91
        1
 62
     0
 92
       -2
340
0
 93
        0
 40
0.045
309
GRIDFORMAT_END
 95
       16
302
GRIDFORMAT
  1
GRIDFORMAT_BEGIN
 90
        0
 91
        1
 62
     0
 92
       -2
340
0
 93
        0
 40
0.045
309
GRIDFORMAT_END
 95
       32
302
GRIDFORMAT
  1
GRIDFORMAT_BEGIN
 90
        0
 91
        1
 62
     0
 92
       -2
340
0
 93
        0
 40
0.045
309
GRIDFORMAT_END
309
TABLEFORMAT_END
  1
CELLSTYLE_BEGIN
 90
        3
 91
        2
300
_DATA
309
CELLSTYLE_END
  0
XRECORD
  5
F10B10
102
{ACAD_REACTORS
330
FF8
102
}
330
FF8
100
AcDbXrecord
280
     1
102
ACAD_ROUNDTRIP_PRE2007_TABLESTYLE
 90
      512
 91
        0
  1

 92
      512
 93
        0
  2

 94
      512
 95
        0
  3

  0
XRECORD
  5
F10AF5
102
{ACAD_REACTORS
330
F10AF4
102
}
330
F10AF4
100
AcDbXrecord
280
     1
102
RTVSPropertyOp0
 70
     1
102
RTVSPropertyOp1
 70
     1
102
RTVSPropertyOp2
 70
     1
102
RTVSPropertyOp3
 70
     1
102
RTVSPropertyOp4
 70
     1
102
RTVSPropertyOp5
 70
     1
102
RTVSPropertyOp6
 70
     1
102
RTVSPropertyOp7
 70
     1
102
RTVSPropertyOp8
 70
     1
102
RTVSPropertyOp9
 70
     1
102
RTVSPropertyOp10
 70
     1
102
RTVSPropertyOp11
 70
     1
102
RTVSPropertyOp12
 70
     1
102
RTVSPropertyOp13
 70
     1
102
RTVSPropertyOp14
 70
     1
102
RTVSPropertyOp15
 70
     1
102
RTVSPropertyOp16
 70
     1
102
RTVSPropertyOp17
 70
     1
102
RTVSPropertyOp18
 70
     1
102
RTVSPropertyOp19
 70
     1
102
RTVSPropertyOp20
 70
     1
102
RTVSPropertyOp21
 70
     1
102
RTVSPropertyOp22
 70
     1
102
RTVSPropertyOp23
 70
     1
102
RTVSPropertyOp24
 70
     1
102
RTVSPropertyOp25
 70
     1
102
RTVSPropertyOp26
 70
     1
102
RTVSPropertyOp27
 70
     1
102
RTVSPropertyOp28
 70
     1
102
RTVSPropertyOp29
 70
     1
102
RTVSPropertyOp30
 70
     1
102
RTVSPropertyOp31
 70
     1
102
RTVSPropertyOp32
 70
     1
  0
XRECORD
  5
F10AF9
102
{ACAD_REACTORS
330
F10AF8
102
}
330
F10AF8
100
AcDbXrecord
280
     1
102
RTVSPropertyOp0
 70
     1
102
RTVSPropertyOp1
 70
     1
102
RTVSPropertyOp2
 70
     1
102
RTVSPropertyOp3
 70
     1
102
RTVSPropertyOp4
 70
     1
102
RTVSPropertyOp5
 70
     1
102
RTVSPropertyOp6
 70
     1
102
RTVSPropertyOp7
 70
     1
102
RTVSPropertyOp8
 70
     1
102
RTVSPropertyOp9
 70
     1
102
RTVSPropertyOp10
 70
     1
102
RTVSPropertyOp11
 70
     1
102
RTVSPropertyOp12
 70
     1
102
RTVSPropertyOp13
 70
     1
102
RTVSPropertyOp14
 70
     1
102
RTVSPropertyOp15
 70
     1
102
RTVSPropertyOp16
 70
     1
102
RTVSPropertyOp17
 70
     1
102
RTVSPropertyOp18
 70
     1
102
RTVSPropertyOp19
 70
     1
102
RTVSPropertyOp20
 70
     1
102
RTVSPropertyOp21
 70
     1
102
RTVSPropertyOp22
 70
     1
102
RTVSPropertyOp23
 70
     1
102
RTVSPropertyOp24
 70
     1
102
RTVSPropertyOp25
 70
     1
102
RTVSPropertyOp26
 70
     1
102
RTVSPropertyOp27
 70
     1
102
RTVSPropertyOp28
 70
     1
102
RTVSPropertyOp29
 70
     1
102
RTVSPropertyOp30
 70
     1
102
RTVSPropertyOp31
 70
     1
102
RTVSPropertyOp32
 70
     1
  0
XRECORD
  5
F10AF7
102
{ACAD_REACTORS
330
F10AF6
102
}
330
F10AF6
100
AcDbXrecord
280
     1
102
RTVSPropertyOp0
 70
     1
102
RTVSPropertyOp1
 70
     1
102
RTVSPropertyOp2
 70
     1
102
RTVSPropertyOp3
 70
     1
102
RTVSPropertyOp4
 70
     1
102
RTVSPropertyOp5
 70
     1
102
RTVSPropertyOp6
 70
     1
102
RTVSPropertyOp7
 70
     1
102
RTVSPropertyOp8
 70
     1
102
RTVSPropertyOp9
 70
     1
102
RTVSPropertyOp10
 70
     1
102
RTVSPropertyOp11
 70
     1
102
RTVSPropertyOp12
 70
     1
102
RTVSPropertyOp13
 70
     1
102
RTVSPropertyOp14
 70
     1
102
RTVSPropertyOp15
 70
     1
102
RTVSPropertyOp16
 70
     1
102
RTVSPropertyOp17
 70
     1
102
RTVSPropertyOp18
 70
     1
102
RTVSPropertyOp19
 70
     1
102
RTVSPropertyOp20
 70
     1
102
RTVSPropertyOp21
 70
     1
102
RTVSPropertyOp22
 70
     1
102
RTVSPropertyOp23
 70
     1
102
RTVSPropertyOp24
 70
     1
102
RTVSPropertyOp25
 70
     1
102
RTVSPropertyOp26
 70
     1
102
RTVSPropertyOp27
 70
     1
102
RTVSPropertyOp28
 70
     1
102
RTVSPropertyOp29
 70
     1
102
RTVSPropertyOp30
 70
     1
102
RTVSPropertyOp31
 70
     1
102
RTVSPropertyOp32
 70
     1
  0
XRECORD
  5
F10AF3
102
{ACAD_REACTORS
330
F10AF2
102
}
330
F10AF2
100
AcDbXrecord
280
     1
102
RTVSPropertyOp0
 70
     1
102
RTVSPropertyOp1
 70
     1
102
RTVSPropertyOp2
 70
     1
102
RTVSPropertyOp3
 70
     1
102
RTVSPropertyOp4
 70
     1
102
RTVSPropertyOp5
 70
     1
102
RTVSPropertyOp6
 70
     1
102
RTVSPropertyOp7
 70
     1
102
RTVSPropertyOp8
 70
     1
102
RTVSPropertyOp9
 70
     1
102
RTVSPropertyOp10
 70
     1
102
RTVSPropertyOp11
 70
     1
102
RTVSPropertyOp12
 70
     1
102
RTVSPropertyOp13
 70
     1
102
RTVSPropertyOp14
 70
     1
102
RTVSPropertyOp15
 70
     1
102
RTVSPropertyOp16
 70
     1
102
RTVSPropertyOp17
 70
     1
102
RTVSPropertyOp18
 70
     1
102
RTVSPropertyOp19
 70
     1
102
RTVSPropertyOp20
 70
     1
102
RTVSPropertyOp21
 70
     1
102
RTVSPropertyOp22
 70
     1
102
RTVSPropertyOp23
 70
     1
102
RTVSPropertyOp24
 70
     1
102
RTVSPropertyOp25
 70
     1
102
RTVSPropertyOp26
 70
     1
102
RTVSPropertyOp27
 70
     1
102
RTVSPropertyOp28
 70
     1
102
RTVSPropertyOp29
 70
     1
102
RTVSPropertyOp30
 70
     1
102
RTVSPropertyOp31
 70
     1
102
RTVSPropertyOp32
 70
     1
  0
XRECORD
  5
F10B01
102
{ACAD_REACTORS
330
F10B00
102
}
330
F10B00
100
AcDbXrecord
280
     1
102
RTVSPropertyOp0
 70
     1
102
RTVSPropertyOp1
 70
     1
102
RTVSPropertyOp2
 70
     1
102
RTVSPropertyOp3
 70
     1
102
RTVSPropertyOp4
 70
     1
102
RTVSPropertyOp5
 70
     1
102
RTVSPropertyOp6
 70
     1
102
RTVSPropertyOp7
 70
     1
102
RTVSPropertyOp8
 70
     1
102
RTVSPropertyOp9
 70
     1
102
RTVSPropertyOp10
 70
     1
102
RTVSPropertyOp11
 70
     1
102
RTVSPropertyOp12
 70
     1
102
RTVSPropertyOp13
 70
     1
102
RTVSPropertyOp14
 70
     1
102
RTVSPropertyOp15
 70
     1
102
RTVSPropertyOp16
 70
     1
102
RTVSPropertyOp17
 70
     1
102
RTVSPropertyOp18
 70
     1
102
RTVSPropertyOp19
 70
     1
102
RTVSPropertyOp20
 70
     1
102
RTVSPropertyOp21
 70
     1
102
RTVSPropertyOp22
 70
     1
102
RTVSPropertyOp23
 70
     1
102
RTVSPropertyOp24
 70
     1
102
RTVSPropertyOp25
 70
     1
102
RTVSPropertyOp26
 70
     1
102
RTVSPropertyOp27
 70
     1
102
RTVSPropertyOp28
 70
     1
102
RTVSPropertyOp29
 70
     1
102
RTVSPropertyOp30
 70
     1
102
RTVSPropertyOp31
 70
     1
102
RTVSPropertyOp32
 70
     1
  0
XRECORD
  5
F10B09
102
{ACAD_REACTORS
330
F10B08
102
}
330
F10B08
100
AcDbXrecord
280
     1
102
RTVSPropertyOp0
 70
     1
102
RTVSPropertyOp1
 70
     1
102
RTVSPropertyOp2
 70
     1
102
RTVSPropertyOp3
 70
     1
102
RTVSPropertyOp4
 70
     1
102
RTVSPropertyOp5
 70
     1
102
RTVSPropertyOp6
 70
     1
102
RTVSPropertyOp7
 70
     1
102
RTVSPropertyOp8
 70
     1
102
RTVSPropertyOp9
 70
     1
102
RTVSPropertyOp10
 70
     1
102
RTVSPropertyOp11
 70
     1
102
RTVSPropertyOp12
 70
     1
102
RTVSPropertyOp13
 70
     1
102
RTVSPropertyOp14
 70
     1
102
RTVSPropertyOp15
 70
     1
102
RTVSPropertyOp16
 70
     1
102
RTVSPropertyOp17
 70
     1
102
RTVSPropertyOp18
 70
     1
102
RTVSPropertyOp19
 70
     1
102
RTVSPropertyOp20
 70
     1
102
RTVSPropertyOp21
 70
     1
102
RTVSPropertyOp22
 70
     1
102
RTVSPropertyOp23
 70
     1
102
RTVSPropertyOp24
 70
     1
102
RTVSPropertyOp25
 70
     1
102
RTVSPropertyOp26
 70
     1
102
RTVSPropertyOp27
 70
     1
102
RTVSPropertyOp28
 70
     1
102
RTVSPropertyOp29
 70
     1
102
RTVSPropertyOp30
 70
     1
102
RTVSPropertyOp31
 70
     1
102
RTVSPropertyOp32
 70
     1
  0
XRECORD
  5
F10AFB
102
{ACAD_REACTORS
330
F10AFA
102
}
330
F10AFA
100
AcDbXrecord
280
     1
102
RTVSPropertyOp0
 70
     1
102
RTVSPropertyOp1
 70
     1
102
RTVSPropertyOp2
 70
     1
102
RTVSPropertyOp3
 70
     1
102
RTVSPropertyOp4
 70
     1
102
RTVSPropertyOp5
 70
     1
102
RTVSPropertyOp6
 70
     1
102
RTVSPropertyOp7
 70
     1
102
RTVSPropertyOp8
 70
     1
102
RTVSPropertyOp9
 70
     1
102
RTVSPropertyOp10
 70
     1
102
RTVSPropertyOp11
 70
     1
102
RTVSPropertyOp12
 70
     1
102
RTVSPropertyOp13
 70
     1
102
RTVSPropertyOp14
 70
     1
102
RTVSPropertyOp15
 70
     1
102
RTVSPropertyOp16
 70
     1
102
RTVSPropertyOp17
 70
     1
102
RTVSPropertyOp18
 70
     1
102
RTVSPropertyOp19
 70
     1
102
RTVSPropertyOp20
 70
     1
102
RTVSPropertyOp21
 70
     1
102
RTVSPropertyOp22
 70
     1
102
RTVSPropertyOp23
 70
     1
102
RTVSPropertyOp24
 70
     1
102
RTVSPropertyOp25
 70
     1
102
RTVSPropertyOp26
 70
     1
102
RTVSPropertyOp27
 70
     1
102
RTVSPropertyOp28
 70
     1
102
RTVSPropertyOp29
 70
     1
102
RTVSPropertyOp30
 70
     1
102
RTVSPropertyOp31
 70
     1
102
RTVSPropertyOp32
 70
     1
  0
XRECORD
  5
F10AFF
102
{ACAD_REACTORS
330
F10AFE
102
}
330
F10AFE
100
AcDbXrecord
280
     1
102
RTVSPropertyOp0
 70
     1
102
RTVSPropertyOp1
 70
     1
102
RTVSPropertyOp2
 70
     1
102
RTVSPropertyOp3
 70
     1
102
RTVSPropertyOp4
 70
     1
102
RTVSPropertyOp5
 70
     1
102
RTVSPropertyOp6
 70
     1
102
RTVSPropertyOp7
 70
     1
102
RTVSPropertyOp8
 70
     1
102
RTVSPropertyOp9
 70
     1
102
RTVSPropertyOp10
 70
     1
102
RTVSPropertyOp11
 70
     1
102
RTVSPropertyOp12
 70
     1
102
RTVSPropertyOp13
 70
     1
102
RTVSPropertyOp14
 70
     1
102
RTVSPropertyOp15
 70
     1
102
RTVSPropertyOp16
 70
     1
102
RTVSPropertyOp17
 70
     1
102
RTVSPropertyOp18
 70
     1
102
RTVSPropertyOp19
 70
     1
102
RTVSPropertyOp20
 70
     1
102
RTVSPropertyOp21
 70
     1
102
RTVSPropertyOp22
 70
     1
102
RTVSPropertyOp23
 70
     1
102
RTVSPropertyOp24
 70
     1
102
RTVSPropertyOp25
 70
     1
102
RTVSPropertyOp26
 70
     1
102
RTVSPropertyOp27
 70
     1
102
RTVSPropertyOp28
 70
     1
102
RTVSPropertyOp29
 70
     1
102
RTVSPropertyOp30
 70
     1
102
RTVSPropertyOp31
 70
     1
102
RTVSPropertyOp32
 70
     1
  0
XRECORD
  5
F10B0F
102
{ACAD_REACTORS
330
F10B0E
102
}
330
F10B0E
100
AcDbXrecord
280
     1
102
RTVSPropertyOp0
 70
     0
102
RTVSPropertyOp1
 70
     0
102
RTVSPropertyOp2
 70
     0
102
RTVSPropertyOp3
 70
     0
102
RTVSPropertyOp4
 70
     0
102
RTVSPropertyOp5
 70
     0
102
RTVSPropertyOp6
 70
     0
102
RTVSPropertyOp7
 70
     0
102
RTVSPropertyOp8
 70
     0
102
RTVSPropertyOp9
 70
     0
102
RTVSPropertyOp10
 70
     0
102
RTVSPropertyOp11
 70
     0
102
RTVSPropertyOp12
 70
     0
102
RTVSPropertyOp13
 70
     0
102
RTVSPropertyOp14
 70
     2
102
RTVSPropertyOp15
 70
     0
102
RTVSPropertyOp16
 70
     0
102
RTVSPropertyOp17
 70
     0
102
RTVSPropertyOp18
 70
     0
102
RTVSPropertyOp19
 70
     0
102
RTVSPropertyOp20
 70
     0
102
RTVSPropertyOp21
 70
     0
102
RTVSPropertyOp22
 70
     0
102
RTVSPropertyOp23
 70
     0
102
RTVSPropertyOp24
 70
     0
102
RTVSPropertyOp25
 70
     0
102
RTVSPropertyOp26
 70
     0
102
RTVSPropertyOp27
 70
     0
102
RTVSPropertyOp28
 70
     1
102
RTVSPropertyOp29
 70
     1
102
RTVSPropertyOp30
 70
     1
102
RTVSPropertyOp31
 70
     1
102
RTVSPropertyOp32
 70
     1
  0
XRECORD
  5
F10B07
102
{ACAD_REACTORS
330
F10B06
102
}
330
F10B06
100
AcDbXrecord
280
     1
102
RTVSPropertyOp0
 70
     1
102
RTVSPropertyOp1
 70
     1
102
RTVSPropertyOp2
 70
     1
102
RTVSPropertyOp3
 70
     1
102
RTVSPropertyOp4
 70
     1
102
RTVSPropertyOp5
 70
     1
102
RTVSPropertyOp6
 70
     1
102
RTVSPropertyOp7
 70
     1
102
RTVSPropertyOp8
 70
     1
102
RTVSPropertyOp9
 70
     1
102
RTVSPropertyOp10
 70
     1
102
RTVSPropertyOp11
 70
     1
102
RTVSPropertyOp12
 70
     1
102
RTVSPropertyOp13
 70
     1
102
RTVSPropertyOp14
 70
     1
102
RTVSPropertyOp15
 70
     1
102
RTVSPropertyOp16
 70
     1
102
RTVSPropertyOp17
 70
     1
102
RTVSPropertyOp18
 70
     1
102
RTVSPropertyOp19
 70
     1
102
RTVSPropertyOp20
 70
     1
102
RTVSPropertyOp21
 70
     1
102
RTVSPropertyOp22
 70
     1
102
RTVSPropertyOp23
 70
     1
102
RTVSPropertyOp24
 70
     1
102
RTVSPropertyOp25
 70
     1
102
RTVSPropertyOp26
 70
     1
102
RTVSPropertyOp27
 70
     1
102
RTVSPropertyOp28
 70
     1
102
RTVSPropertyOp29
 70
     1
102
RTVSPropertyOp30
 70
     1
102
RTVSPropertyOp31
 70
     1
102
RTVSPropertyOp32
 70
     1
  0
XRECORD
  5
F10AEB
102
{ACAD_REACTORS
330
F10AEA
102
}
330
F10AEA
100
AcDbXrecord
280
     1
102
RTVSPropertyOp0
 70
     1
102
RTVSPropertyOp1
 70
     1
102
RTVSPropertyOp2
 70
     1
102
RTVSPropertyOp3
 70
     1
102
RTVSPropertyOp4
 70
     1
102
RTVSPropertyOp5
 70
     1
102
RTVSPropertyOp6
 70
     1
102
RTVSPropertyOp7
 70
     1
102
RTVSPropertyOp8
 70
     1
102
RTVSPropertyOp9
 70
     1
102
RTVSPropertyOp10
 70
     1
102
RTVSPropertyOp11
 70
     1
102
RTVSPropertyOp12
 70
     1
102
RTVSPropertyOp13
 70
     1
102
RTVSPropertyOp14
 70
     1
102
RTVSPropertyOp15
 70
     1
102
RTVSPropertyOp16
 70
     1
102
RTVSPropertyOp17
 70
     1
102
RTVSPropertyOp18
 70
     1
102
RTVSPropertyOp19
 70
     1
102
RTVSPropertyOp20
 70
     1
102
RTVSPropertyOp21
 70
     1
102
RTVSPropertyOp22
 70
     1
102
RTVSPropertyOp23
 70
     1
102
RTVSPropertyOp24
 70
     1
102
RTVSPropertyOp25
 70
     1
102
RTVSPropertyOp26
 70
     1
102
RTVSPropertyOp27
 70
     1
102
RTVSPropertyOp28
 70
     1
102
RTVSPropertyOp29
 70
     1
102
RTVSPropertyOp30
 70
     1
102
RTVSPropertyOp31
 70
     1
102
RTVSPropertyOp32
 70
     1
  0
XRECORD
  5
F10AED
102
{ACAD_REACTORS
330
F10AEC
102
}
330
F10AEC
100
AcDbXrecord
280
     1
102
RTVSPropertyOp0
 70
     1
102
RTVSPropertyOp1
 70
     1
102
RTVSPropertyOp2
 70
     1
102
RTVSPropertyOp3
 70
     1
102
RTVSPropertyOp4
 70
     1
102
RTVSPropertyOp5
 70
     1
102
RTVSPropertyOp6
 70
     1
102
RTVSPropertyOp7
 70
     1
102
RTVSPropertyOp8
 70
     1
102
RTVSPropertyOp9
 70
     1
102
RTVSPropertyOp10
 70
     1
102
RTVSPropertyOp11
 70
     1
102
RTVSPropertyOp12
 70
     1
102
RTVSPropertyOp13
 70
     1
102
RTVSPropertyOp14
 70
     1
102
RTVSPropertyOp15
 70
     1
102
RTVSPropertyOp16
 70
     1
102
RTVSPropertyOp17
 70
     1
102
RTVSPropertyOp18
 70
     1
102
RTVSPropertyOp19
 70
     1
102
RTVSPropertyOp20
 70
     1
102
RTVSPropertyOp21
 70
     1
102
RTVSPropertyOp22
 70
     1
102
RTVSPropertyOp23
 70
     1
102
RTVSPropertyOp24
 70
     1
102
RTVSPropertyOp25
 70
     1
102
RTVSPropertyOp26
 70
     1
102
RTVSPropertyOp27
 70
     1
102
RTVSPropertyOp28
 70
     1
102
RTVSPropertyOp29
 70
     1
102
RTVSPropertyOp30
 70
     1
102
RTVSPropertyOp31
 70
     1
102
RTVSPropertyOp32
 70
     1
  0
XRECORD
  5
F10AEF
102
{ACAD_REACTORS
330
F10AEE
102
}
330
F10AEE
100
AcDbXrecord
280
     1
102
RTVSPropertyOp0
 70
     1
102
RTVSPropertyOp1
 70
     1
102
RTVSPropertyOp2
 70
     1
102
RTVSPropertyOp3
 70
     1
102
RTVSPropertyOp4
 70
     1
102
RTVSPropertyOp5
 70
     1
102
RTVSPropertyOp6
 70
     1
102
RTVSPropertyOp7
 70
     1
102
RTVSPropertyOp8
 70
     1
102
RTVSPropertyOp9
 70
     1
102
RTVSPropertyOp10
 70
     1
102
RTVSPropertyOp11
 70
     1
102
RTVSPropertyOp12
 70
     1
102
RTVSPropertyOp13
 70
     1
102
RTVSPropertyOp14
 70
     1
102
RTVSPropertyOp15
 70
     1
102
RTVSPropertyOp16
 70
     1
102
RTVSPropertyOp17
 70
     1
102
RTVSPropertyOp18
 70
     1
102
RTVSPropertyOp19
 70
     1
102
RTVSPropertyOp20
 70
     1
102
RTVSPropertyOp21
 70
     1
102
RTVSPropertyOp22
 70
     1
102
RTVSPropertyOp23
 70
     1
102
RTVSPropertyOp24
 70
     1
102
RTVSPropertyOp25
 70
     1
102
RTVSPropertyOp26
 70
     1
102
RTVSPropertyOp27
 70
     1
102
RTVSPropertyOp28
 70
     1
102
RTVSPropertyOp29
 70
     1
102
RTVSPropertyOp30
 70
     1
102
RTVSPropertyOp31
 70
     1
102
RTVSPropertyOp32
 70
     1
  0
XRECORD
  5
F10AF1
102
{ACAD_REACTORS
330
F10AF0
102
}
330
F10AF0
100
AcDbXrecord
280
     1
102
RTVSPropertyOp0
 70
     1
102
RTVSPropertyOp1
 70
     1
102
RTVSPropertyOp2
 70
     1
102
RTVSPropertyOp3
 70
     1
102
RTVSPropertyOp4
 70
     1
102
RTVSPropertyOp5
 70
     1
102
RTVSPropertyOp6
 70
     1
102
RTVSPropertyOp7
 70
     1
102
RTVSPropertyOp8
 70
     1
102
RTVSPropertyOp9
 70
     1
102
RTVSPropertyOp10
 70
     1
102
RTVSPropertyOp11
 70
     1
102
RTVSPropertyOp12
 70
     1
102
RTVSPropertyOp13
 70
     1
102
RTVSPropertyOp14
 70
     1
102
RTVSPropertyOp15
 70
     1
102
RTVSPropertyOp16
 70
     1
102
RTVSPropertyOp17
 70
     1
102
RTVSPropertyOp18
 70
     1
102
RTVSPropertyOp19
 70
     1
102
RTVSPropertyOp20
 70
     1
102
RTVSPropertyOp21
 70
     1
102
RTVSPropertyOp22
 70
     1
102
RTVSPropertyOp23
 70
     1
102
RTVSPropertyOp24
 70
     1
102
RTVSPropertyOp25
 70
     1
102
RTVSPropertyOp26
 70
     1
102
RTVSPropertyOp27
 70
     1
102
RTVSPropertyOp28
 70
     1
102
RTVSPropertyOp29
 70
     1
102
RTVSPropertyOp30
 70
     1
102
RTVSPropertyOp31
 70
     1
102
RTVSPropertyOp32
 70
     1
  0
XRECORD
  5
F10B18
102
{ACAD_REACTORS
330
F10B17
102
}
330
F10B17
100
AcDbXrecord
280
     1
102
RTVSPropertyOp0
 70
     1
102
RTVSPropertyOp1
 70
     1
102
RTVSPropertyOp2
 70
     1
102
RTVSPropertyOp3
 70
     1
102
RTVSPropertyOp4
 70
     1
102
RTVSPropertyOp5
 70
     1
102
RTVSPropertyOp6
 70
     1
102
RTVSPropertyOp7
 70
     1
102
RTVSPropertyOp8
 70
     1
102
RTVSPropertyOp9
 70
     1
102
RTVSPropertyOp10
 70
     1
102
RTVSPropertyOp11
 70
     1
102
RTVSPropertyOp12
 70
     1
102
RTVSPropertyOp13
 70
     1
102
RTVSPropertyOp14
 70
     1
102
RTVSPropertyOp15
 70
     1
102
RTVSPropertyOp16
 70
     1
102
RTVSPropertyOp17
 70
     1
102
RTVSPropertyOp18
 70
     1
102
RTVSPropertyOp19
 70
     1
102
RTVSPropertyOp20
 70
     1
102
RTVSPropertyOp21
 70
     1
102
RTVSPropertyOp22
 70
     1
102
RTVSPropertyOp23
 70
     1
102
RTVSPropertyOp24
 70
     1
102
RTVSPropertyOp25
 70
     1
102
RTVSPropertyOp26
 70
     1
102
RTVSPropertyOp27
 70
     1
102
RTVSPropertyOp28
 70
     1
102
RTVSPropertyOp29
 70
     1
102
RTVSPropertyOp30
 70
     1
102
RTVSPropertyOp31
 70
     1
102
RTVSPropertyOp32
 70
     1
  0
XRECORD
  5
F10B0B
102
{ACAD_REACTORS
330
F10B0A
102
}
330
F10B0A
100
AcDbXrecord
280
     1
102
RTVSPropertyOp0
 70
     0
102
RTVSPropertyOp1
 70
     0
102
RTVSPropertyOp2
 70
     0
102
RTVSPropertyOp3
 70
     0
102
RTVSPropertyOp4
 70
     0
102
RTVSPropertyOp5
 70
     0
102
RTVSPropertyOp6
 70
     0
102
RTVSPropertyOp7
 70
     0
102
RTVSPropertyOp8
 70
     0
102
RTVSPropertyOp9
 70
     0
102
RTVSPropertyOp10
 70
     0
102
RTVSPropertyOp11
 70
     0
102
RTVSPropertyOp12
 70
     0
102
RTVSPropertyOp13
 70
     0
102
RTVSPropertyOp14
 70
     2
102
RTVSPropertyOp15
 70
     0
102
RTVSPropertyOp16
 70
     0
102
RTVSPropertyOp17
 70
     0
102
RTVSPropertyOp18
 70
     0
102
RTVSPropertyOp19
 70
     0
102
RTVSPropertyOp20
 70
     0
102
RTVSPropertyOp21
 70
     0
102
RTVSPropertyOp22
 70
     0
102
RTVSPropertyOp23
 70
     0
102
RTVSPropertyOp24
 70
     0
102
RTVSPropertyOp25
 70
     0
102
RTVSPropertyOp26
 70
     0
102
RTVSPropertyOp27
 70
     0
102
RTVSPropertyOp28
 70
     1
102
RTVSPropertyOp29
 70
     1
102
RTVSPropertyOp30
 70
     1
102
RTVSPropertyOp31
 70
     1
102
RTVSPropertyOp32
 70
     1
  0
XRECORD
  5
F10B05
102
{ACAD_REACTORS
330
F10B04
102
}
330
F10B04
100
AcDbXrecord
280
     1
102
RTVSPropertyOp0
 70
     1
102
RTVSPropertyOp1
 70
     1
102
RTVSPropertyOp2
 70
     1
102
RTVSPropertyOp3
 70
     1
102
RTVSPropertyOp4
 70
     1
102
RTVSPropertyOp5
 70
     1
102
RTVSPropertyOp6
 70
     1
102
RTVSPropertyOp7
 70
     1
102
RTVSPropertyOp8
 70
     1
102
RTVSPropertyOp9
 70
     1
102
RTVSPropertyOp10
 70
     1
102
RTVSPropertyOp11
 70
     1
102
RTVSPropertyOp12
 70
     1
102
RTVSPropertyOp13
 70
     1
102
RTVSPropertyOp14
 70
     1
102
RTVSPropertyOp15
 70
     1
102
RTVSPropertyOp16
 70
     1
102
RTVSPropertyOp17
 70
     1
102
RTVSPropertyOp18
 70
     1
102
RTVSPropertyOp19
 70
     1
102
RTVSPropertyOp20
 70
     1
102
RTVSPropertyOp21
 70
     1
102
RTVSPropertyOp22
 70
     1
102
RTVSPropertyOp23
 70
     1
102
RTVSPropertyOp24
 70
     1
102
RTVSPropertyOp25
 70
     1
102
RTVSPropertyOp26
 70
     1
102
RTVSPropertyOp27
 70
     1
102
RTVSPropertyOp28
 70
     1
102
RTVSPropertyOp29
 70
     1
102
RTVSPropertyOp30
 70
     1
102
RTVSPropertyOp31
 70
     1
102
RTVSPropertyOp32
 70
     1
  0
XRECORD
  5
F10B0D
102
{ACAD_REACTORS
330
F10B0C
102
}
330
F10B0C
100
AcDbXrecord
280
     1
102
RTVSPropertyOp0
 70
     0
102
RTVSPropertyOp1
 70
     0
102
RTVSPropertyOp2
 70
     0
102
RTVSPropertyOp3
 70
     0
102
RTVSPropertyOp4
 70
     0
102
RTVSPropertyOp5
 70
     0
102
RTVSPropertyOp6
 70
     0
102
RTVSPropertyOp7
 70
     0
102
RTVSPropertyOp8
 70
     0
102
RTVSPropertyOp9
 70
     0
102
RTVSPropertyOp10
 70
     0
102
RTVSPropertyOp11
 70
     0
102
RTVSPropertyOp12
 70
     0
102
RTVSPropertyOp13
 70
     0
102
RTVSPropertyOp14
 70
     2
102
RTVSPropertyOp15
 70
     0
102
RTVSPropertyOp16
 70
     0
102
RTVSPropertyOp17
 70
     0
102
RTVSPropertyOp18
 70
     0
102
RTVSPropertyOp19
 70
     0
102
RTVSPropertyOp20
 70
     0
102
RTVSPropertyOp21
 70
     0
102
RTVSPropertyOp22
 70
     0
102
RTVSPropertyOp23
 70
     0
102
RTVSPropertyOp24
 70
     0
102
RTVSPropertyOp25
 70
     0
102
RTVSPropertyOp26
 70
     0
102
RTVSPropertyOp27
 70
     0
102
RTVSPropertyOp28
 70
     1
102
RTVSPropertyOp29
 70
     1
102
RTVSPropertyOp30
 70
     1
102
RTVSPropertyOp31
 70
     1
102
RTVSPropertyOp32
 70
     1
  0
XRECORD
  5
F10AFD
102
{ACAD_REACTORS
330
F10AFC
102
}
330
F10AFC
100
AcDbXrecord
280
     1
102
RTVSPropertyOp0
 70
     1
102
RTVSPropertyOp1
 70
     1
102
RTVSPropertyOp2
 70
     1
102
RTVSPropertyOp3
 70
     1
102
RTVSPropertyOp4
 70
     1
102
RTVSPropertyOp5
 70
     1
102
RTVSPropertyOp6
 70
     1
102
RTVSPropertyOp7
 70
     1
102
RTVSPropertyOp8
 70
     1
102
RTVSPropertyOp9
 70
     1
102
RTVSPropertyOp10
 70
     1
102
RTVSPropertyOp11
 70
     1
102
RTVSPropertyOp12
 70
     1
102
RTVSPropertyOp13
 70
     1
102
RTVSPropertyOp14
 70
     1
102
RTVSPropertyOp15
 70
     1
102
RTVSPropertyOp16
 70
     1
102
RTVSPropertyOp17
 70
     1
102
RTVSPropertyOp18
 70
     1
102
RTVSPropertyOp19
 70
     1
102
RTVSPropertyOp20
 70
     1
102
RTVSPropertyOp21
 70
     1
102
RTVSPropertyOp22
 70
     1
102
RTVSPropertyOp23
 70
     1
102
RTVSPropertyOp24
 70
     1
102
RTVSPropertyOp25
 70
     1
102
RTVSPropertyOp26
 70
     1
102
RTVSPropertyOp27
 70
     1
102
RTVSPropertyOp28
 70
     1
102
RTVSPropertyOp29
 70
     1
102
RTVSPropertyOp30
 70
     1
102
RTVSPropertyOp31
 70
     1
102
RTVSPropertyOp32
 70
     1
  0
XRECORD
  5
F10B22
102
{ACAD_REACTORS
330
F10B21
102
}
330
F10B21
100
AcDbXrecord
280
     1
102
RTVSPropertyOp0
 70
     1
102
RTVSPropertyOp1
 70
     1
102
RTVSPropertyOp2
 70
     1
102
RTVSPropertyOp3
 70
     1
102
RTVSPropertyOp4
 70
     1
102
RTVSPropertyOp5
 70
     1
102
RTVSPropertyOp6
 70
     1
102
RTVSPropertyOp7
 70
     1
102
RTVSPropertyOp8
 70
     1
102
RTVSPropertyOp9
 70
     1
102
RTVSPropertyOp10
 70
     1
102
RTVSPropertyOp11
 70
     1
102
RTVSPropertyOp12
 70
     1
102
RTVSPropertyOp13
 70
     1
102
RTVSPropertyOp14
 70
     1
102
RTVSPropertyOp15
 70
     1
102
RTVSPropertyOp16
 70
     1
102
RTVSPropertyOp17
 70
     1
102
RTVSPropertyOp18
 70
     1
102
RTVSPropertyOp19
 70
     1
102
RTVSPropertyOp20
 70
     1
102
RTVSPropertyOp21
 70
     1
102
RTVSPropertyOp22
 70
     1
102
RTVSPropertyOp23
 70
     1
102
RTVSPropertyOp24
 70
     1
102
RTVSPropertyOp25
 70
     1
102
RTVSPropertyOp26
 70
     1
102
RTVSPropertyOp27
 70
     1
102
RTVSPropertyOp28
 70
     1
102
RTVSPropertyOp29
 70
     1
102
RTVSPropertyOp30
 70
     1
102
RTVSPropertyOp31
 70
     1
102
RTVSPropertyOp32
 70
     1
  0
XRECORD
  5
F10B20
102
{ACAD_REACTORS
330
F10B1F
102
}
330
F10B1F
100
AcDbXrecord
280
     1
102
RTVSPropertyOp0
 70
     1
102
RTVSPropertyOp1
 70
     1
102
RTVSPropertyOp2
 70
     1
102
RTVSPropertyOp3
 70
     1
102
RTVSPropertyOp4
 70
     1
102
RTVSPropertyOp5
 70
     1
102
RTVSPropertyOp6
 70
     1
102
RTVSPropertyOp7
 70
     1
102
RTVSPropertyOp8
 70
     1
102
RTVSPropertyOp9
 70
     1
102
RTVSPropertyOp10
 70
     1
102
RTVSPropertyOp11
 70
     1
102
RTVSPropertyOp12
 70
     1
102
RTVSPropertyOp13
 70
     1
102
RTVSPropertyOp14
 70
     1
102
RTVSPropertyOp15
 70
     1
102
RTVSPropertyOp16
 70
     1
102
RTVSPropertyOp17
 70
     1
102
RTVSPropertyOp18
 70
     1
102
RTVSPropertyOp19
 70
     1
102
RTVSPropertyOp20
 70
     1
102
RTVSPropertyOp21
 70
     1
102
RTVSPropertyOp22
 70
     1
102
RTVSPropertyOp23
 70
     1
102
RTVSPropertyOp24
 70
     1
102
RTVSPropertyOp25
 70
     1
102
RTVSPropertyOp26
 70
     1
102
RTVSPropertyOp27
 70
     1
102
RTVSPropertyOp28
 70
     1
102
RTVSPropertyOp29
 70
     1
102
RTVSPropertyOp30
 70
     1
102
RTVSPropertyOp31
 70
     1
102
RTVSPropertyOp32
 70
     1
  0
XRECORD
  5
F10B1A
102
{ACAD_REACTORS
330
F10B19
102
}
330
F10B19
100
AcDbXrecord
280
     1
102
RTVSPropertyOp0
 70
     1
102
RTVSPropertyOp1
 70
     1
102
RTVSPropertyOp2
 70
     1
102
RTVSPropertyOp3
 70
     1
102
RTVSPropertyOp4
 70
     1
102
RTVSPropertyOp5
 70
     1
102
RTVSPropertyOp6
 70
     1
102
RTVSPropertyOp7
 70
     1
102
RTVSPropertyOp8
 70
     1
102
RTVSPropertyOp9
 70
     1
102
RTVSPropertyOp10
 70
     1
102
RTVSPropertyOp11
 70
     1
102
RTVSPropertyOp12
 70
     1
102
RTVSPropertyOp13
 70
     1
102
RTVSPropertyOp14
 70
     1
102
RTVSPropertyOp15
 70
     1
102
RTVSPropertyOp16
 70
     1
102
RTVSPropertyOp17
 70
     1
102
RTVSPropertyOp18
 70
     1
102
RTVSPropertyOp19
 70
     1
102
RTVSPropertyOp20
 70
     1
102
RTVSPropertyOp21
 70
     1
102
RTVSPropertyOp22
 70
     1
102
RTVSPropertyOp23
 70
     1
102
RTVSPropertyOp24
 70
     1
102
RTVSPropertyOp25
 70
     1
102
RTVSPropertyOp26
 70
     1
102
RTVSPropertyOp27
 70
     1
102
RTVSPropertyOp28
 70
     1
102
RTVSPropertyOp29
 70
     1
102
RTVSPropertyOp30
 70
     1
102
RTVSPropertyOp31
 70
     1
102
RTVSPropertyOp32
 70
     1
  0
XRECORD
  5
F10B1C
102
{ACAD_REACTORS
330
F10B1B
102
}
330
F10B1B
100
AcDbXrecord
280
     1
102
RTVSPropertyOp0
 70
     1
102
RTVSPropertyOp1
 70
     1
102
RTVSPropertyOp2
 70
     1
102
RTVSPropertyOp3
 70
     1
102
RTVSPropertyOp4
 70
     1
102
RTVSPropertyOp5
 70
     1
102
RTVSPropertyOp6
 70
     1
102
RTVSPropertyOp7
 70
     1
102
RTVSPropertyOp8
 70
     1
102
RTVSPropertyOp9
 70
     1
102
RTVSPropertyOp10
 70
     1
102
RTVSPropertyOp11
 70
     1
102
RTVSPropertyOp12
 70
     1
102
RTVSPropertyOp13
 70
     1
102
RTVSPropertyOp14
 70
     1
102
RTVSPropertyOp15
 70
     1
102
RTVSPropertyOp16
 70
     1
102
RTVSPropertyOp17
 70
     1
102
RTVSPropertyOp18
 70
     1
102
RTVSPropertyOp19
 70
     1
102
RTVSPropertyOp20
 70
     1
102
RTVSPropertyOp21
 70
     1
102
RTVSPropertyOp22
 70
     1
102
RTVSPropertyOp23
 70
     1
102
RTVSPropertyOp24
 70
     1
102
RTVSPropertyOp25
 70
     1
102
RTVSPropertyOp26
 70
     1
102
RTVSPropertyOp27
 70
     1
102
RTVSPropertyOp28
 70
     1
102
RTVSPropertyOp29
 70
     1
102
RTVSPropertyOp30
 70
     1
102
RTVSPropertyOp31
 70
     1
102
RTVSPropertyOp32
 70
     1
  0
XRECORD
  5
F10B03
102
{ACAD_REACTORS
330
F10B02
102
}
330
F10B02
100
AcDbXrecord
280
     1
102
RTVSPropertyOp0
 70
     1
102
RTVSPropertyOp1
 70
     1
102
RTVSPropertyOp2
 70
     1
102
RTVSPropertyOp3
 70
     1
102
RTVSPropertyOp4
 70
     1
102
RTVSPropertyOp5
 70
     1
102
RTVSPropertyOp6
 70
     1
102
RTVSPropertyOp7
 70
     1
102
RTVSPropertyOp8
 70
     1
102
RTVSPropertyOp9
 70
     1
102
RTVSPropertyOp10
 70
     1
102
RTVSPropertyOp11
 70
     1
102
RTVSPropertyOp12
 70
     1
102
RTVSPropertyOp13
 70
     1
102
RTVSPropertyOp14
 70
     1
102
RTVSPropertyOp15
 70
     1
102
RTVSPropertyOp16
 70
     1
102
RTVSPropertyOp17
 70
     1
102
RTVSPropertyOp18
 70
     1
102
RTVSPropertyOp19
 70
     1
102
RTVSPropertyOp20
 70
     1
102
RTVSPropertyOp21
 70
     1
102
RTVSPropertyOp22
 70
     1
102
RTVSPropertyOp23
 70
     1
102
RTVSPropertyOp24
 70
     1
102
RTVSPropertyOp25
 70
     1
102
RTVSPropertyOp26
 70
     1
102
RTVSPropertyOp27
 70
     1
102
RTVSPropertyOp28
 70
     1
102
RTVSPropertyOp29
 70
     1
102
RTVSPropertyOp30
 70
     1
102
RTVSPropertyOp31
 70
     1
102
RTVSPropertyOp32
 70
     1
  0
XRECORD
  5
F10B16
102
{ACAD_REACTORS
330
F10B15
102
}
330
F10B15
100
AcDbXrecord
280
     1
102
RTVSPropertyOp0
 70
     1
102
RTVSPropertyOp1
 70
     1
102
RTVSPropertyOp2
 70
     1
102
RTVSPropertyOp3
 70
     1
102
RTVSPropertyOp4
 70
     1
102
RTVSPropertyOp5
 70
     1
102
RTVSPropertyOp6
 70
     1
102
RTVSPropertyOp7
 70
     1
102
RTVSPropertyOp8
 70
     1
102
RTVSPropertyOp9
 70
     1
102
RTVSPropertyOp10
 70
     1
102
RTVSPropertyOp11
 70
     1
102
RTVSPropertyOp12
 70
     1
102
RTVSPropertyOp13
 70
     1
102
RTVSPropertyOp14
 70
     1
102
RTVSPropertyOp15
 70
     1
102
RTVSPropertyOp16
 70
     1
102
RTVSPropertyOp17
 70
     1
102
RTVSPropertyOp18
 70
     1
102
RTVSPropertyOp19
 70
     1
102
RTVSPropertyOp20
 70
     1
102
RTVSPropertyOp21
 70
     1
102
RTVSPropertyOp22
 70
     1
102
RTVSPropertyOp23
 70
     1
102
RTVSPropertyOp24
 70
     1
102
RTVSPropertyOp25
 70
     1
102
RTVSPropertyOp26
 70
     1
102
RTVSPropertyOp27
 70
     1
102
RTVSPropertyOp28
 70
     1
102
RTVSPropertyOp29
 70
     1
102
RTVSPropertyOp30
 70
     1
102
RTVSPropertyOp31
 70
     1
102
RTVSPropertyOp32
 70
     1
  0
XRECORD
  5
F10B1E
102
{ACAD_REACTORS
330
F10B1D
102
}
330
F10B1D
100
AcDbXrecord
280
     1
102
RTVSPropertyOp0
 70
     1
102
RTVSPropertyOp1
 70
     1
102
RTVSPropertyOp2
 70
     1
102
RTVSPropertyOp3
 70
     1
102
RTVSPropertyOp4
 70
     1
102
RTVSPropertyOp5
 70
     1
102
RTVSPropertyOp6
 70
     1
102
RTVSPropertyOp7
 70
     1
102
RTVSPropertyOp8
 70
     1
102
RTVSPropertyOp9
 70
     1
102
RTVSPropertyOp10
 70
     1
102
RTVSPropertyOp11
 70
     1
102
RTVSPropertyOp12
 70
     1
102
RTVSPropertyOp13
 70
     1
102
RTVSPropertyOp14
 70
     1
102
RTVSPropertyOp15
 70
     1
102
RTVSPropertyOp16
 70
     1
102
RTVSPropertyOp17
 70
     1
102
RTVSPropertyOp18
 70
     1
102
RTVSPropertyOp19
 70
     1
102
RTVSPropertyOp20
 70
     1
102
RTVSPropertyOp21
 70
     1
102
RTVSPropertyOp22
 70
     1
102
RTVSPropertyOp23
 70
     1
102
RTVSPropertyOp24
 70
     1
102
RTVSPropertyOp25
 70
     1
102
RTVSPropertyOp26
 70
     1
102
RTVSPropertyOp27
 70
     1
102
RTVSPropertyOp28
 70
     1
102
RTVSPropertyOp29
 70
     1
102
RTVSPropertyOp30
 70
     1
102
RTVSPropertyOp31
 70
     1
102
RTVSPropertyOp32
 70
     1
  0
ENDSEC
  0
EOF
