0
SECTION
2
HEADER
9
$ACADVER
1
AC1015
9
$ACADMAINTVER
70
20
9
$DWGCODEPAGE
3
ANSI_1252
9
$INSBASE
10
0.0
20
0.0
30
0.0
9
$EXTMIN
10
-150.000000000000
20
-105.000000000000
30
0.0
9
$EXTMAX
10
150.000000000000
20
105.000000000000
30
0.0
9
$LIMMIN
10
0.0
20
0.0
9
$LIMMAX
10
12.0
20
9.0
9
$ORTHOMODE
70
0
9
$REGENMODE
70
1
9
$FILLMODE
70
1
9
$QTEXTMODE
70
0
9
$MIRRTEXT
70
1
9
$LTSCALE
40
1.0
9
$ATTMODE
70
1
9
$TEXTSIZE
40
0.2
9
$TRACEWID
40
0.05
9
$TEXTSTYLE
7
Standard
9
$CLAYER
8
0
9
$CELTYPE
6
ByLayer
9
$CECOLOR
62
256
9
$CELTSCALE
40
1.0
9
$DISPSILH
70
0
9
$DIMSCALE
40
1.0
9
$DIMASZ
40
2.5
9
$DIMEXO
40
0.625
9
$DIMDLI
40
0.38
9
$DIMRND
40
0.0
9
$DIMDLE
40
0.0
9
$DIMEXE
40
1.25
9
$DIMTP
40
0.0
9
$DIMTM
40
0.000000001
9
$DIMTXT
40
2.5
9
$DIMCEN
40
0.09
9
$DIMTSZ
40
0.0
9
$DIMTOL
70
1
9
$DIMLIM
70
0
9
$DIMTIH
70
0
9
$DIMTOH
70
0
9
$DIMSE1
70
0
9
$DIMSE2
70
0
9
$DIMTAD
70
1
9
$DIMZIN
70
0
9
$DIMBLK
1
VDDIM_DEFAULT
9
$DIMASO
70
1
9
$DIMSHO
70
1
9
$DIMPOST
1

9
$DIMAPOST
1

9
$DIMALT
70
0
9
$DIMALTD
70
2
9
$DIMALTF
40
25.4
9
$DIMLFAC
40
1.00000000000000
9
$DIMTOFL
70
0
9
$DIMTVP
40
0.0
9
$DIMTIX
70
0
9
$DIMSOXD
70
0
9
$DIMSAH
70
0
9
$DIMBLK1
1

9
$DIMBLK2
1

9
$DIMSTYLE
2
BEM-ISBE
9
$DIMCLRD
70
0
9
$DIMCLRE
70
0
9
$DIMCLRT
70
0
9
$DIMTFAC
40
0.5
9
$DIMGAP
40
0.625
9
$DIMJUST
70
0
9
$DIMSD1
70
0
9
$DIMSD2
70
0
9
$DIMTOLJ
70
1
9
$DIMTZIN
70
0
9
$DIMALTZ
70
0
9
$DIMALTTZ
70
0
9
$DIMUPT
70
0
9
$DIMDEC
70
3
9
$DIMTDEC
70
3
9
$DIMALTU
70
2
9
$DIMALTTD
70
2
9
$DIMTXSTY
7
Standard
9
$DIMAUNIT
70
0
9
$DIMADEC
70
3
9
$DIMALTRND
40
0.0
9
$DIMAZIN
70
0
9
$DIMDSEP
70
46
9
$DIMATFIT
70
3
9
$DIMFRAC
70
0
9
$DIMLDRBLK
1

9
$DIMLUNIT
70
2
9
$DIMLWD
70
-2
9
$DIMLWE
70
-2
9
$DIMTMOVE
70
0
9
$LUNITS
70
2
9
$LUPREC
70
4
9
$SKETCHINC
40
0.1
9
$FILLETRAD
40
0.5
9
$AUNITS
70
0
9
$AUPREC
70
0
9
$MENU
1
.
9
$ELEVATION
40
0.0
9
$PELEVATION
40
0.0
9
$THICKNESS
40
0.0
9
$LIMCHECK
70
0
9
$CHAMFERA
40
0.5
9
$CHAMFERB
40
0.5
9
$CHAMFERC
40
1.0
9
$CHAMFERD
40
0.0
9
$SKPOLY
70
0
9
$TDCREATE
40
0.0
9
$TDUCREATE
40
0.0
9
$TDUPDATE
40
0.0
9
$TDUUPDATE
40
0.0
9
$TDINDWG
40
0.0
9
$TDUSRTIMER
40
0.0
9
$USRTIMER
70
1
9
$ANGBASE
50
0.0
9
$ANGDIR
70
0
9
$PDMODE
70
0
9
$PDSIZE
40
0.0
9
$PLINEWID
40
0.0
9
$SPLFRAME
70
0
9
$SPLINETYPE
70
6
9
$SPLINESEGS
70
8
9
$HANDSEED
5
10AB
9
$SURFTAB1
70
6
9
$SURFTAB2
70
6
9
$SURFTYPE
70
6
9
$SURFU
70
6
9
$SURFV
70
6
9
$UCSBASE
2

9
$UCSNAME
2

9
$UCSORG
10
0.0
20
0.0
30
0.0
9
$UCSXDIR
10
1.0
20
0.0
30
0.0
9
$UCSYDIR
10
0.0
20
1.0
30
0.0
9
$UCSORTHOREF
2

9
$UCSORTHOVIEW
70
0
9
$UCSORGTOP
10
0.0
20
0.0
30
0.0
9
$UCSORGBOTTOM
10
0.0
20
0.0
30
0.0
9
$UCSORGLEFT
10
0.0
20
0.0
30
0.0
9
$UCSORGRIGHT
10
0.0
20
0.0
30
0.0
9
$UCSORGFRONT
10
0.0
20
0.0
30
0.0
9
$UCSORGBACK
10
0.0
20
0.0
30
0.0
9
$PUCSBASE
2

9
$PUCSNAME
2

9
$PUCSORG
10
0.0
20
0.0
30
0.0
9
$PUCSXDIR
10
1.0
20
0.0
30
0.0
9
$PUCSYDIR
10
0.0
20
1.0
30
0.0
9
$PUCSORTHOREF
2

9
$PUCSORTHOVIEW
70
0
9
$PUCSORGTOP
10
0.0
20
0.0
30
0.0
9
$PUCSORGBOTTOM
10
0.0
20
0.0
30
0.0
9
$PUCSORGLEFT
10
0.0
20
0.0
30
0.0
9
$PUCSORGRIGHT
10
0.0
20
0.0
30
0.0
9
$PUCSORGFRONT
10
0.0
20
0.0
30
0.0
9
$PUCSORGBACK
10
0.0
20
0.0
30
0.0
9
$USERI1
70
0
9
$USERI2
70
0
9
$USERI3
70
0
9
$USERI4
70
0
9
$USERI5
70
0
9
$USERR1
40
0.0
9
$USERR2
40
0.0
9
$USERR3
40
0.0
9
$USERR4
40
0.0
9
$USERR5
40
0.0
9
$WORLDVIEW
70
1
9
$SHADEDGE
70
3
9
$SHADEDIF
70
70
9
$TILEMODE
70
1
9
$MAXACTVP
70
64
9
$PINSBASE
10
0.0
20
0.0
30
0.0
9
$PLIMCHECK
70
0
9
$PEXTMIN
10
1.000000000000000E+20
20
1.000000000000000E+20
30
1.000000000000000E+20
9
$PEXTMAX
10
-1.000000000000000E+20
20
-1.000000000000000E+20
30
-1.000000000000000E+20
9
$PLIMMIN
10
0.0
20
0.0
9
$PLIMMAX
10
12.0
20
9.0
9
$UNITMODE
70
0
9
$VISRETAIN
70
1
9
$PLINEGEN
70
0
9
$PSLTSCALE
70
1
9
$TREEDEPTH
70
3020
9
$CMLSTYLE
2
Standard
9
$CMLJUST
70
0
9
$CMLSCALE
40
1.0
9
$PROXYGRAPHICS
70
1
9
$MEASUREMENT
70
0
9
$CELWEIGHT
370
-1
9
$ENDCAPS
280
0
9
$JOINSTYLE
280
0
9
$LWDISPLAY
290
0
9
$INSUNITS
70
4
9
$HYPERLINKBASE
1

9
$STYLESHEET
1

9
$XEDIT
290
1
9
$CEPSNTYPE
380
0
9
$PSTYLEMODE
290
0
9
$FINGERPRINTGUID
2
{FAEB1C30-E019-11D5-929B-00C0DF256EC4}
9
$VERSIONGUID
2
{04C5C4E4-4947-4D90-8812-D401569E61F7}
9
$EXTNAMES
290
1
9
$PSVPSCALE
40
0.0
9
$OLESTARTUP
290
0
0
ENDSEC
0
SECTION
2
TABLES
0
TABLE
2
VPORT
5
24A
330
0
100
AcDbSymbolTable
70
1
0
VPORT
5
26B
330
24A
100
AcDbSymbolTableRecord
100
AcDbViewportTableRecord
2
*Active
70
0
10
0.0
20
0.0
11
1.0
21
1.0
12
0.000000000000000
22
0.000000000000000
13
0.0
23
0.0
14
10.0
24
10.0
15
10.0
25
10.0
16
0.0
26
0.0
36
1.0
17
0.0
27
0.0
37
0.0
40
210.000000000000
41
1.42857142857143
42
1.0
43
0.0
44
0.0
50
0.0
51
0.0000000000007958
71
0
72
100
73
1
74
3
75
0
76
0
77
0
78
1
281
0
65
1
110
0.0
120
0.0
130
0.0
111
1.0
121
0.0
131
0.0
112
0.0
122
1.0
132
0.0
79
0
146
0.0
0
ENDTAB
0
TABLE
2
LTYPE
5
247
330
0
100
AcDbSymbolTable
70
25
0
LTYPE
5
256
330
247
100
AcDbSymbolTableRecord
100
AcDbLinetypeTableRecord
2
ByBlock
70
0
3

72
65
73
0
40
0.0
0
LTYPE
5
257
330
247
100
AcDbSymbolTableRecord
100
AcDbLinetypeTableRecord
2
ByLayer
70
0
3

72
65
73
0
40
0.0
0
LTYPE
5
258
330
247
100
AcDbSymbolTableRecord
100
AcDbLinetypeTableRecord
2
Continuous
70
0
3
Solid line
72
65
73
0
40
0.0
0
LTYPE
5
273
330
247
100
AcDbSymbolTableRecord
100
AcDbLinetypeTableRecord
2
CENTER
70
0
3
Center ____ _ ____ _ ____ _ ____ _ ____ _ ____
72
65
73
4
40
2.0
49
1.25
74
0
49
-0.25
74
0
49
0.25
74
0
49
-0.25
74
0
0
LTYPE
5
274
330
247
100
AcDbSymbolTableRecord
100
AcDbLinetypeTableRecord
2
DASHDOT
70
0
3
Dashdot __ . __ . __ . __ . __ . __ . __ . __
72
65
73
4
40
1.0
49
0.5
74
0
49
-0.25
74
0
49
0.0
74
0
49
-0.25
74
0
0
LTYPE
5
275
330
247
100
AcDbSymbolTableRecord
100
AcDbLinetypeTableRecord
2
DASHED
70
0
3
Dashed __ __ __ __ __ __ __ __ __ __ __ __ __ _
72
65
73
2
40
0.75
49
0.5
74
0
49
-0.25
74
0
0
LTYPE
5
276
330
247
100
AcDbSymbolTableRecord
100
AcDbLinetypeTableRecord
2
HIDDEN
70
0
3
Hidden __ __ __ __ __ __ __ __ __ __ __ __ __ __
72
65
73
2
40
0.375
49
0.25
74
0
49
-0.125
74
0
0
LTYPE
5
277
330
247
100
AcDbSymbolTableRecord
100
AcDbLinetypeTableRecord
2
HIDDEN2
70
0
3
Hidden2 _ _ _ _ _ _ _ _ _ _ _ _ _ _ _ _ _
72
65
73
2
40
0.1875
49
0.125
74
0
49
-0.0625
74
0
0
LTYPE
5
278
330
247
100
AcDbSymbolTableRecord
100
AcDbLinetypeTableRecord
2
BORDER
70
0
3
Border __ __ . __ __ . __ __ . __ __ . __ __ .
72
65
73
6
40
1.75
49
0.5
74
0
49
-0.25
74
0
49
0.5
74
0
49
-0.25
74
0
49
0.0
74
0
49
-0.25
74
0
0
LTYPE
5
279
330
247
100
AcDbSymbolTableRecord
100
AcDbLinetypeTableRecord
2
BORDER2
70
0
3
Border2 __.__.__.__.__.__.__.__.__.__.__.
72
65
73
6
40
0.875
49
0.25
74
0
49
-0.125
74
0
49
0.25
74
0
49
-0.125
74
0
49
0.0
74
0
49
-0.125
74
0
0
LTYPE
5
27A
330
247
100
AcDbSymbolTableRecord
100
AcDbLinetypeTableRecord
2
BORDERX2
70
0
3
Borderx2  ____  ____  .  ____  ____  .  ___
72
65
73
6
40
3.5
49
1.0
74
0
49
-0.5
74
0
49
1.0
74
0
49
-0.5
74
0
49
0.0
74
0
49
-0.5
74
0
0
LTYPE
5
27B
330
247
100
AcDbSymbolTableRecord
100
AcDbLinetypeTableRecord
2
CENTER2
70
0
3
Center2  ___ _ ___ _ ___ _ ___ _ ___ _ ___
72
65
73
4
40
1.125
49
0.75
74
0
49
-0.125
74
0
49
0.125
74
0
49
-0.125
74
0
0
LTYPE
5
27C
330
247
100
AcDbSymbolTableRecord
100
AcDbLinetypeTableRecord
2
CENTERX2
70
0
3
Centerx2  ________  __  ________  __  _____
72
65
73
4
40
4.0
49
2.5
74
0
49
-0.5
74
0
49
0.5
74
0
49
-0.5
74
0
0
LTYPE
5
27D
330
247
100
AcDbSymbolTableRecord
100
AcDbLinetypeTableRecord
2
DASHDOT2
70
0
3
Dashdot2  _._._._._._._._._._._._._._._.
72
65
73
4
40
0.5
49
0.25
74
0
49
-0.125
74
0
49
0.0
74
0
49
-0.125
74
0
0
LTYPE
5
27E
330
247
100
AcDbSymbolTableRecord
100
AcDbLinetypeTableRecord
2
DASHDOTX2
70
0
3
Dashdotx2 ____  .  ____  .  ____  .  ___
72
65
73
4
40
2.0
49
1.0
74
0
49
-0.5
74
0
49
0.0
74
0
49
-0.5
74
0
0
LTYPE
5
27F
330
247
100
AcDbSymbolTableRecord
100
AcDbLinetypeTableRecord
2
DASHED2
70
0
3
Dashed2 _ _ _ _ _ _ _ _ _ _ _ _ _ _ _ _ _
72
65
73
2
40
0.375
49
0.25
74
0
49
-0.125
74
0
0
LTYPE
5
280
330
247
100
AcDbSymbolTableRecord
100
AcDbLinetypeTableRecord
2
DASHEDX2
70
0
3
Dashedx2 ____  ____  ____  ____  ____  ___
72
65
73
2
40
1.5
49
1.0
74
0
49
-0.5
74
0
0
LTYPE
5
281
330
247
100
AcDbSymbolTableRecord
100
AcDbLinetypeTableRecord
2
DIVIDE
70
0
3
Divide ____ . . ____ . . ____ . . ____ . . ____
72
65
73
6
40
1.25
49
0.5
74
0
49
-0.25
74
0
49
0.0
74
0
49
-0.25
74
0
49
0.0
74
0
49
-0.25
74
0
0
LTYPE
5
282
330
247
100
AcDbSymbolTableRecord
100
AcDbLinetypeTableRecord
2
DIVIDE2
70
0
3
Divide2 __..__..__..__..__..__..__..__.._
72
65
73
6
40
0.625
49
0.25
74
0
49
-0.125
74
0
49
0.0
74
0
49
-0.125
74
0
49
0.0
74
0
49
-0.125
74
0
0
LTYPE
5
283
330
247
100
AcDbSymbolTableRecord
100
AcDbLinetypeTableRecord
2
DIVIDEX2
70
0
3
Dividex2 ________  .  .  ________  .  .  _
72
65
73
6
40
2.5
49
1.0
74
0
49
-0.5
74
0
49
0.0
74
0
49
-0.5
74
0
49
0.0
74
0
49
-0.5
74
0
0
LTYPE
5
284
330
247
100
AcDbSymbolTableRecord
100
AcDbLinetypeTableRecord
2
DOT
70
0
3
Dot . . . . . . . . . . . . . . . . . . . . . . . .
72
65
73
2
40
0.25
49
0.0
74
0
49
-0.25
74
0
0
LTYPE
5
285
330
247
100
AcDbSymbolTableRecord
100
AcDbLinetypeTableRecord
2
DOT2
70
0
3
Dot2 ........................................
72
65
73
2
40
0.125
49
0.0
74
0
49
-0.125
74
0
0
LTYPE
5
286
330
247
100
AcDbSymbolTableRecord
100
AcDbLinetypeTableRecord
2
DOTX2
70
0
3
Dotx2 .  .  .  .  .  .  .  .  .  .  .  .  .  .
72
65
73
2
40
0.5
49
0.0
74
0
49
-0.5
74
0
0
LTYPE
5
287
330
247
100
AcDbSymbolTableRecord
100
AcDbLinetypeTableRecord
2
HIDDENX2
70
0
3
Hiddenx2 ____ ____ ____ ____ ____ ____ ____
72
65
73
2
40
0.75
49
0.5
74
0
49
-0.25
74
0
0
LTYPE
5
288
330
247
100
AcDbSymbolTableRecord
100
AcDbLinetypeTableRecord
2
PHANTOM
70
0
3
Phantom ______  __  __  ______  __  __  ______
72
65
73
6
40
2.5
49
1.25
74
0
49
-0.25
74
0
49
0.25
74
0
49
-0.25
74
0
49
0.25
74
0
49
-0.25
74
0
0
LTYPE
5
289
330
247
100
AcDbSymbolTableRecord
100
AcDbLinetypeTableRecord
2
PHANTOM2
70
0
3
Phantom2 ___ _ _ ___ _ _ ___ _ _ ___ _ _
72
65
73
6
40
1.25
49
0.625
74
0
49
-0.125
74
0
49
0.125
74
0
49
-0.125
74
0
49
0.125
74
0
49
-0.125
74
0
0
LTYPE
5
28A
330
247
100
AcDbSymbolTableRecord
100
AcDbLinetypeTableRecord
2
PHANTOMX2
70
0
3
Phantomx2 ____________    ____    ____   _
72
65
73
6
40
5.0
49
2.5
74
0
49
-0.5
74
0
49
0.5
74
0
49
-0.5
74
0
49
0.5
74
0
49
-0.5
74
0
0
ENDTAB
0
TABLE
2
LAYER
5
244
330
0
100
AcDbSymbolTable
70
6
0
LAYER
5
252
330
244
100
AcDbSymbolTableRecord
100
AcDbLayerTableRecord
2
0
70
0
62
7
6
Continuous
370
0
390
251
0
LAYER
5
23F
330
244
100
AcDbSymbolTableRecord
100
AcDbLayerTableRecord
2
Bemassung
70
0
 62
   7
6
Continuous
370
0
390
251
0
LAYER
5
240
330
244
100
AcDbSymbolTableRecord
100
AcDbLayerTableRecord
2
Rahmen
70
0
 62
   7
6
Continuous
370
0
390
251
0
LAYER
5
241
330
244
100
AcDbSymbolTableRecord
100
AcDbLayerTableRecord
2
Geo
70
0
 62
   7
6
Continuous
370
0
390
251
0
LAYER
5
33A
330
244
100
AcDbSymbolTableRecord
100
AcDbLayerTableRecord
2
Defpoints
70
0
62
7
6
Continuous
290
0
370
-3
390
251
0
LAYER
5
57E
330
244
100
AcDbSymbolTableRecord
100
AcDbLayerTableRecord
2
Text
70
0
 62
   7
6
Continuous
370
0
390
251
1001
AcAecLayerStandard
1000

1000

0
ENDTAB
0
TABLE
2
STYLE
5
245
330
0
100
AcDbSymbolTable
70
2
0
STYLE
5
253
330
245
100
AcDbSymbolTableRecord
100
AcDbTextStyleTableRecord
2
Standard
70
0
40
0.0
41
1.0
50
0.0
71
0
42
0.2
3
Arial
4

1001
ACAD
1000
Arial
1071
0
0
STYLE
5
132
330
245
100
AcDbSymbolTableRecord
100
AcDbTextStyleTableRecord
2
Beschriftung
70
0
40
0.0
41
1.0
50
0.0
71
0
42
0.2
3
Arial
4

1001
ACAD
1000
Arial
1071
0
1001
AcadAnnotative
1000
AnnotativeData
1070
1
1070
1
0
ENDTAB
0
TABLE
2
VIEW
5
248
330
0
100
AcDbSymbolTable
70
0
0
ENDTAB
0
TABLE
2
UCS
5
249
330
0
100
AcDbSymbolTable
70
0
0
ENDTAB
0
TABLE
2
APPID
5
24B
330
0
100
AcDbSymbolTable
70
13
0
APPID
5
254
330
24B
100
AcDbSymbolTableRecord
100
AcDbRegAppTableRecord
2
ACAD
70
0
0
APPID
5
26C
330
24B
100
AcDbSymbolTableRecord
100
AcDbRegAppTableRecord
2
VD_INVISIBLE_NOT_FOR_READ
70
0
0
APPID
5
26D
330
24B
100
AcDbSymbolTableRecord
100
AcDbRegAppTableRecord
2
VD_TEMPHATCH
70
0
0
APPID
5
26E
330
24B
100
AcDbSymbolTableRecord
100
AcDbRegAppTableRecord
2
VDEXTRAPARAM
70
0
0
APPID
5
26F
330
24B
100
AcDbSymbolTableRecord
100
AcDbRegAppTableRecord
2
PE_URL
70
0
0
APPID
5
270
330
24B
100
AcDbSymbolTableRecord
100
AcDbRegAppTableRecord
2
VD_UNKNOWN
70
0
0
APPID
5
28F
330
24B
100
AcDbSymbolTableRecord
100
AcDbRegAppTableRecord
2
AcadAnnotative
70
0
0
APPID
5
290
330
24B
100
AcDbSymbolTableRecord
100
AcDbRegAppTableRecord
2
ACAD_DSTYLE_DIMJAG
70
0
0
APPID
5
291
330
24B
100
AcDbSymbolTableRecord
100
AcDbRegAppTableRecord
2
ACAD_DSTYLE_DIMTALN
70
0
0
APPID
5
293
330
24B
100
AcDbSymbolTableRecord
100
AcDbRegAppTableRecord
2
ACAD_PSEXT
70
0
0
APPID
5
42A
330
24B
100
AcDbSymbolTableRecord
100
AcDbRegAppTableRecord
2
ACAD_MLEADERVER
70
0
0
APPID
5
532
330
24B
100
AcDbSymbolTableRecord
100
AcDbRegAppTableRecord
2
ACAD_EXEMPT_FROM_CAD_STANDARDS
70
0
0
APPID
5
57F
330
24B
100
AcDbSymbolTableRecord
100
AcDbRegAppTableRecord
2
AcAecLayerStandard
70
0
0
ENDTAB
0
TABLE
2
DIMSTYLE
5
24C
330
0
100
AcDbSymbolTable
70
3
100
AcDbDimStyleTable
71
2
340
27
340
269
0
DIMSTYLE
105
269
330
24C
100
AcDbSymbolTableRecord
100
AcDbDimStyleTableRecord
2
Standard
70
0
172
1
174
1
288
1
340
253
342
23C
0
DIMSTYLE
105
137
330
24C
100
AcDbSymbolTableRecord
100
AcDbDimStyleTableRecord
2
Beschriftung
70
0
41
2.5
42
0.625
44
1.25
73
0
74
0
77
1
140
2.5
147
0.625
172
1
174
1
271
2
288
1
340
253
342
23C
1001
AcadAnnotative
1000
AnnotativeData
1070
1
1070
1
1001
ACAD_DSTYLE_DIMJAG
1070
388
1040
1.5
1001
ACAD_DSTYLE_DIMTALN
1070
392
1070
0
0
DIMSTYLE
105
27
102
{ACAD_REACTORS
330
F1000D
330
F10017
330
F1001C
330
F10021
330
F10003
330
F10008
330
F10012
102
}
330
24C
100
AcDbSymbolTableRecord
100
AcDbDimStyleTableRecord
2
BEM-ISBE
70
0
41
2.5
42
0.625
44
1.25
48
0.000000001
71
1
73
0
74
0
77
1
140
2.5
144
1.00000000000000
146
0.5
147
0.625
171
 3
172
 1
179
 3
271
 3
272
 3
274
 3
340
253
342
23C
1001
ACAD_DSTYLE_DIMJAG
1070
388
1040
1.5
1001
ACAD_DSTYLE_DIMTALN
1070
392
1070
1
0
ENDTAB
0
TABLE
2
BLOCK_RECORD
5
243
330
0
100
AcDbSymbolTable
70
5
0
BLOCK_RECORD
5
261
330
243
100
AcDbSymbolTableRecord
100
AcDbBlockTableRecord
2
*Model_Space
340
FD0
0
BLOCK_RECORD
5
25D
330
243
100
AcDbSymbolTableRecord
100
AcDbBlockTableRecord
2
*Paper_Space
340
FD1
0
BLOCK_RECORD
5
265
330
243
100
AcDbSymbolTableRecord
100
AcDbBlockTableRecord
2
*Paper_Space0
340
0
0
BLOCK_RECORD
5
23C
330
243
100
AcDbSymbolTableRecord
100
AcDbBlockTableRecord
2
VDDIM_DEFAULT
340
0
102
{BLKREFS
102
}
0
BLOCK_RECORD
5
23E
330
243
100
AcDbSymbolTableRecord
100
AcDbBlockTableRecord
2
VDDIM_NONE
340
0
0
BLOCK_RECORD
5
F1000C
330
243
100
AcDbSymbolTableRecord
100
AcDbBlockTableRecord
2
*D5
340
0
0
BLOCK_RECORD
5
F10016
330
243
100
AcDbSymbolTableRecord
100
AcDbBlockTableRecord
2
*D7
340
0
0
BLOCK_RECORD
5
F1001B
330
243
100
AcDbSymbolTableRecord
100
AcDbBlockTableRecord
2
*D8
340
0
0
BLOCK_RECORD
5
F10020
330
243
100
AcDbSymbolTableRecord
100
AcDbBlockTableRecord
2
*D9
340
0
0
BLOCK_RECORD
5
F10002
330
243
100
AcDbSymbolTableRecord
100
AcDbBlockTableRecord
2
*D3
340
0
0
BLOCK_RECORD
5
F10007
330
243
100
AcDbSymbolTableRecord
100
AcDbBlockTableRecord
2
*D4
340
0
0
BLOCK_RECORD
5
F10011
330
243
100
AcDbSymbolTableRecord
100
AcDbBlockTableRecord
2
*D6
340
0
0
ENDTAB
0
ENDSEC
0
SECTION
2
BLOCKS
0
BLOCK
5
262
330
261
100
AcDbEntity
8
0
100
AcDbBlockBegin
2
*Model_Space
70
0
10
0.0
20
0.0
30
0.0
3
*Model_Space
1

0
ENDBLK
5
263
330
261
100
AcDbEntity
8
0
100
AcDbBlockEnd
0
BLOCK
5
25E
330
25D
100
AcDbEntity
67
1
8
0
100
AcDbBlockBegin
2
*Paper_Space
70
0
10
0.0
20
0.0
30
0.0
3
*Paper_Space
1

0
ENDBLK
5
25F
330
25D
100
AcDbEntity
67
1
8
0
100
AcDbBlockEnd
0
BLOCK
5
266
330
265
100
AcDbEntity
8
0
100
AcDbBlockBegin
2
*Paper_Space0
70
0
10
0.0
20
0.0
30
0.0
3
*Paper_Space0
1

0
VIEWPORT
5
296
102
{ACAD_XDICTIONARY
360
58E
102
}
330
265
100
AcDbEntity
8
0
60
1
100
AcDbViewport
10
0.0
20
0.0
30
0.0
40
10.0
41
10.0
69
0
12
0.0
22
0.0
13
0.0
23
0.0
14
1.0
24
1.0
15
0.0
25
0.0
16
0.0
26
0.0
36
1.0
17
0.0
27
0.0
37
0.0
42
0.0
43
0.0
44
0.0
45
10.0
50
0.0
51
0.0000000000007958
72
100
90
163872
1

281
0
71
0
74
0
110
0.0
120
0.0
130
0.0
111
1.0
121
0.0
131
0.0
112
0.0
122
1.0
132
0.0
79
0
146
0.0
1001
VD_INVISIBLE_NOT_FOR_READ
1000
VD_INVISIBLE_NOT_FOR_READ
0
VIEWPORT
5
297
102
{ACAD_XDICTIONARY
360
590
102
}
330
265
100
AcDbEntity
8
0
60
1
100
AcDbViewport
10
0.0
20
0.0
30
0.0
40
10.0
41
10.0
69
0
12
0.0
22
0.0
13
0.0
23
0.0
14
1.0
24
1.0
15
0.0
25
0.0
16
0.0
26
0.0
36
1.0
17
0.0
27
0.0
37
0.0
42
0.0
43
0.0
44
0.0
45
10.0
50
0.0
51
0.0000000000007958
72
100
90
163872
1

281
0
71
0
74
0
110
0.0
120
0.0
130
0.0
111
1.0
121
0.0
131
0.0
112
0.0
122
1.0
132
0.0
79
0
146
0.0
1001
VD_INVISIBLE_NOT_FOR_READ
1000
VD_INVISIBLE_NOT_FOR_READ
0
ENDBLK
5
267
330
265
100
AcDbEntity
8
0
100
AcDbBlockEnd
0
BLOCK
5
28B
330
23C
100
AcDbEntity
8
0
100
AcDbBlockBegin
2
VDDIM_DEFAULT
70
0
10
0.0
20
0.0
30
0.0
3
VDDIM_DEFAULT
1

0
LWPOLYLINE
5
23D
330
23C
100
AcDbEntity
8
0
6
Continuous
62
0
100
AcDbPolyline
90
4
70
0
43
0.0
10
0.0
20
0.0
10
-1.0
20
-0.1665
10
-1.0
20
0.1665
10
0.0
20
0.0
1001
VDEXTRAPARAM
1071
1
1071
0
1071
0
1040
1.0
1000

1000

1040
0.0
1040
0.0
0
HATCH
5
292
330
23C
100
AcDbEntity
8
0
6
Continuous
62
0
100
AcDbHatch
10
0.0
20
0.0
30
0.0
210
0.0
220
0.0
230
1.0
2
SOLID
70
1
71
0
91
1
92
2
72
0
73
1
93
3
10
0.0
20
0.0
10
-1.0
20
-0.1665
10
-1.0
20
0.1665
97
0
75
0
76
1
98
1
10
0.0
20
0.0
1001
VDEXTRAPARAM
1071
1
1071
0
1071
0
1040
1.0
1000

1000

1040
0.0
1040
0.0
1001
VD_TEMPHATCH
1000
VD_TEMPHATCH
0
ENDBLK
5
28C
330
23C
100
AcDbEntity
8
0
100
AcDbBlockEnd
0
BLOCK
5
28D
330
23E
100
AcDbEntity
8
0
100
AcDbBlockBegin
2
VDDIM_NONE
70
0
10
0.0
20
0.0
30
0.0
3
VDDIM_NONE
1

0
ENDBLK
5
28E
330
23E
100
AcDbEntity
8
0
100
AcDbBlockEnd
  0
BLOCK
  5
F10025
330
F1000C
100
AcDbEntity
  8
0
100
AcDbBlockBegin
  2
*D5
 70
     1
 10
0.0
 20
0.0
 30
0.0
  3
*D5
  1

  0
LINE
  5
F10026
330
F1000C
100
AcDbEntity
  8
Bemassung
 62
     0
370
    -2
100
AcDbLine
10
-0.243875278396487
20
8.44320712694878
30
0.000000000000000
11
-0.243875278396487
21
25.4432071269488
31
0.000000000000000
  0
LINE
  5
F10027
330
F1000C
100
AcDbEntity
  8
Bemassung
 62
     0
370
    -2
100
AcDbLine
10
35.7561247216035
20
7.74320712694878
30
0.000000000000000
11
35.7561247216035
21
40.4432071269488
31
0.000000000000000
  0
LINE
  5
F10028
330
F1000C
100
AcDbEntity
  8
Bemassung
 62
     0
370
    -2
100
AcDbLine
10
-0.243875278396487
20
23.4432071269488
30
0.000000000000000
11
35.7561247216035
21
23.4432071269488
31
0.000000000000000
  0
INSERT
  5
F10029
330
F1000C
100
AcDbEntity
  8
Bemassung
 62
     0
370
    -2
100
AcDbBlockReference
  2
VDDIM_DEFAULT
10
-0.243875278396487
20
23.4432071269488
30
0.000000000000000
 41
2.50000000000000
 42
2.50000000000000
 43
2.50000000000000
 50
180.000000000000
  0
INSERT
  5
F1002A
330
F1000C
100
AcDbEntity
  8
Bemassung
 62
     0
370
    -2
100
AcDbBlockReference
  2
VDDIM_DEFAULT
10
35.7561247216035
20
23.4432071269488
30
0.000000000000000
 41
2.50000000000000
 42
2.50000000000000
 43
2.50000000000000
  0
MTEXT
  5
F1002B
102
{ACAD_XDICTIONARY
360
F1000F
102
}
330
F1000C
100
AcDbEntity
  8
Bemassung
 62
     0
100
AcDbMText
10
17.7251512702760
20
22.7765404602821
30
0.000000000000000
 40
2.50000000000000
 41
0.0
 71
     8
 72
     1
  1
\A1;36
 11
1.00000000000000
 21
0.000000000000000
 31
0.0
 73
     1
 44
1.0
1001
ACAD
1000
MTEXTBEGIN
1070
73
1070
1
1070
44
1040
1.0
1070
74
1070
0
1000
MTEXTEND
  0
POINT
  5
F1002C
330
F1000C
100
AcDbEntity
  8
Bemassung
 62
     0
100
AcDbPoint
10
-0.243875278396487
20
8.44320712694878
30
0.000000000000000
  0
POINT
  5
F1002D
330
F1000C
100
AcDbEntity
  8
Bemassung
 62
     0
100
AcDbPoint
10
35.7561247216035
20
7.74320712694878
30
0.000000000000000
  0
ENDBLK
  5
F1002E
330
F1000C
100
AcDbEntity
  8
0
100
AcDbBlockEnd
  0
BLOCK
  5
F1002F
330
F10016
100
AcDbEntity
  8
0
100
AcDbBlockBegin
  2
*D7
 70
     1
 10
0.0
 20
0.0
 30
0.0
  3
*D7
  1

  0
LINE
  5
F10030
330
F10016
100
AcDbEntity
  8
Bemassung
 62
     0
370
    -2
100
AcDbLine
10
-8.24387527839649
20
0.693207126948778
30
0.000000000000000
11
-8.24387527839649
21
-16.5567928730512
31
0.000000000000000
  0
LINE
  5
F10031
330
F10016
100
AcDbEntity
  8
Bemassung
 62
     0
370
    -2
100
AcDbLine
10
-27.2438752783965
20
-16.5567928730512
30
0.000000000000000
11
-27.2438752783965
21
40.4432071269488
31
0.000000000000000
  0
LINE
  5
F10032
330
F10016
100
AcDbEntity
  8
Bemassung
 62
     0
370
    -2
100
AcDbLine
10
-8.24387527839649
20
-14.5567928730512
30
0.000000000000000
11
-27.2438752783965
21
-14.5567928730512
31
0.000000000000000
  0
INSERT
  5
F10033
330
F10016
100
AcDbEntity
  8
Bemassung
 62
     0
370
    -2
100
AcDbBlockReference
  2
VDDIM_DEFAULT
10
-8.24387527839649
20
-14.5567928730512
30
0.000000000000000
 41
2.50000000000000
 42
2.50000000000000
 43
2.50000000000000
  0
INSERT
  5
F10034
330
F10016
100
AcDbEntity
  8
Bemassung
 62
     0
370
    -2
100
AcDbBlockReference
  2
VDDIM_DEFAULT
10
-27.2438752783965
20
-14.5567928730512
30
0.000000000000000
 41
2.50000000000000
 42
2.50000000000000
 43
2.50000000000000
 50
180.000000000000
  0
MTEXT
  5
F10035
102
{ACAD_XDICTIONARY
360
F10019
102
}
330
F10016
100
AcDbEntity
  8
Bemassung
 62
     0
100
AcDbMText
10
-17.5447602341487
20
-13.8901262063846
30
0.000000000000000
 40
2.50000000000000
 41
0.0
 71
     8
 72
     1
  1
\A1;19
 11
1.00000000000000
 21
0.000000000000000
 31
0.0
 73
     1
 44
1.0
1001
ACAD
1000
MTEXTBEGIN
1070
73
1070
1
1070
44
1040
1.0
1070
74
1070
0
1000
MTEXTEND
  0
POINT
  5
F10036
330
F10016
100
AcDbEntity
  8
Bemassung
 62
     0
100
AcDbPoint
10
-8.24387527839649
20
0.693207126948778
30
0.000000000000000
  0
POINT
  5
F10037
330
F10016
100
AcDbEntity
  8
Bemassung
 62
     0
100
AcDbPoint
10
-27.2438752783965
20
-16.5567928730512
30
0.000000000000000
  0
ENDBLK
  5
F10038
330
F10016
100
AcDbEntity
  8
0
100
AcDbBlockEnd
  0
BLOCK
  5
F10039
330
F1001B
100
AcDbEntity
  8
0
100
AcDbBlockBegin
  2
*D8
 70
     1
 10
0.0
 20
0.0
 30
0.0
  3
*D8
  1

  0
LINE
  5
F1003A
330
F1001B
100
AcDbEntity
  8
Bemassung
 62
     0
370
    -2
100
AcDbLine
10
35.7561247216035
20
7.74320712694878
30
0.000000000000000
11
35.7561247216035
21
40.4432071269488
31
0.000000000000000
  0
LINE
  5
F1003B
330
F1001B
100
AcDbEntity
  8
Bemassung
 62
     0
370
    -2
100
AcDbLine
10
-27.2438752783965
20
-16.5567928730512
30
0.000000000000000
11
-27.2438752783965
21
40.4432071269488
31
0.000000000000000
  0
LINE
  5
F1003C
330
F1001B
100
AcDbEntity
  8
Bemassung
 62
     0
370
    -2
100
AcDbLine
10
35.7561247216035
20
38.4432071269488
30
0.000000000000000
11
-27.2438752783965
21
38.4432071269488
31
0.000000000000000
  0
INSERT
  5
F1003D
330
F1001B
100
AcDbEntity
  8
Bemassung
 62
     0
370
    -2
100
AcDbBlockReference
  2
VDDIM_DEFAULT
10
35.7561247216035
20
38.4432071269488
30
0.000000000000000
 41
2.50000000000000
 42
2.50000000000000
 43
2.50000000000000
  0
INSERT
  5
F1003E
330
F1001B
100
AcDbEntity
  8
Bemassung
 62
     0
370
    -2
100
AcDbBlockReference
  2
VDDIM_DEFAULT
10
-27.2438752783965
20
38.4432071269488
30
0.000000000000000
 41
2.50000000000000
 42
2.50000000000000
 43
2.50000000000000
 50
180.000000000000
  0
MTEXT
  5
F1003F
102
{ACAD_XDICTIONARY
360
F1001E
102
}
330
F1001B
100
AcDbEntity
  8
Bemassung
 62
     0
100
AcDbMText
10
7.75501852691320
20
39.1098737936154
30
0.000000000000000
 40
2.50000000000000
 41
0.0
 71
     8
 72
     1
  1
\A1;63
 11
1.00000000000000
 21
0.000000000000000
 31
0.0
 73
     1
 44
1.0
1001
ACAD
1000
MTEXTBEGIN
1070
73
1070
1
1070
44
1040
1.0
1070
74
1070
0
1000
MTEXTEND
  0
POINT
  5
F10040
330
F1001B
100
AcDbEntity
  8
Bemassung
 62
     0
100
AcDbPoint
10
35.7561247216035
20
7.74320712694878
30
0.000000000000000
  0
POINT
  5
F10041
330
F1001B
100
AcDbEntity
  8
Bemassung
 62
     0
100
AcDbPoint
10
-27.2438752783965
20
-16.5567928730512
30
0.000000000000000
  0
ENDBLK
  5
F10042
330
F1001B
100
AcDbEntity
  8
0
100
AcDbBlockEnd
  0
BLOCK
  5
F10043
330
F10020
100
AcDbEntity
  8
0
100
AcDbBlockBegin
  2
*D9
 70
     1
 10
0.0
 20
0.0
 30
0.0
  3
*D9
  1

  0
LINE
  5
F10044
330
F10020
100
AcDbEntity
  8
Bemassung
 62
     0
370
    -2
100
AcDbLine
10
-27.2438752783965
20
4.44320712694878
30
0.000000000000000
11
-27.2438752783965
21
25.3701982773912
31
0.000000000000000
  0
LINE
  5
F10045
330
F10020
100
AcDbEntity
  8
Bemassung
 62
     0
370
    -2
100
AcDbLine
10
-0.243875278396487
20
0.443207126948778
30
0.000000000000000
11
-0.243875278396487
21
25.3701982773912
31
0.000000000000000
  0
LINE
  5
F10046
330
F10020
100
AcDbEntity
  8
Bemassung
 62
     0
370
    -2
100
AcDbLine
10
-27.2438752783965
20
23.3701982773912
30
0.000000000000000
11
-0.243875278396487
21
23.3701982773912
31
0.000000000000000
  0
INSERT
  5
F10047
330
F10020
100
AcDbEntity
  8
Bemassung
 62
     0
370
    -2
100
AcDbBlockReference
  2
VDDIM_DEFAULT
10
-27.2438752783965
20
23.3701982773912
30
0.000000000000000
 41
2.50000000000000
 42
2.50000000000000
 43
2.50000000000000
 50
180.000000000000
  0
INSERT
  5
F10048
330
F10020
100
AcDbEntity
  8
Bemassung
 62
     0
370
    -2
100
AcDbBlockReference
  2
VDDIM_DEFAULT
10
-0.243875278396487
20
23.3701982773912
30
0.000000000000000
 41
2.50000000000000
 42
2.50000000000000
 43
2.50000000000000
  0
MTEXT
  5
F10049
102
{ACAD_XDICTIONARY
360
F10023
102
}
330
F10020
100
AcDbEntity
  8
Bemassung
 62
     0
100
AcDbMText
10
-16.7704239509629
20
22.7035316107245
30
0.000000000000000
 40
2.50000000000000
 41
0.0
 71
     8
 72
     1
  1
\A1;27
 11
1.00000000000000
 21
0.000000000000000
 31
0.0
 73
     1
 44
1.0
1001
ACAD
1000
MTEXTBEGIN
1070
73
1070
1
1070
44
1040
1.0
1070
74
1070
0
1000
MTEXTEND
  0
POINT
  5
F1004A
330
F10020
100
AcDbEntity
  8
Bemassung
 62
     0
100
AcDbPoint
10
-27.2438752783965
20
4.44320712694878
30
0.000000000000000
  0
POINT
  5
F1004B
330
F10020
100
AcDbEntity
  8
Bemassung
 62
     0
100
AcDbPoint
10
-0.243875278396487
20
0.443207126948778
30
0.000000000000000
  0
ENDBLK
  5
F1004C
330
F10020
100
AcDbEntity
  8
0
100
AcDbBlockEnd
  0
BLOCK
  5
F1004D
330
F10002
100
AcDbEntity
  8
0
100
AcDbBlockBegin
  2
*D3
 70
     1
 10
0.0
 20
0.0
 30
0.0
  3
*D3
  1

  0
LINE
  5
F1004E
330
F10002
100
AcDbEntity
  8
Bemassung
 62
     0
370
    -2
100
AcDbLine
10
-27.1338752783965
20
0.443207126948778
30
0.000000000000000
11
-39.2438752783965
21
0.443207126948778
31
0.000000000000000
  0
LINE
  5
F1004F
330
F10002
100
AcDbEntity
  8
Bemassung
 62
     0
370
    -2
100
AcDbLine
10
-27.1338752783965
20
8.44320712694878
30
0.000000000000000
11
-39.2438752783965
21
8.44320712694878
31
0.000000000000000
  0
LINE
  5
F10050
330
F10002
100
AcDbEntity
  8
Bemassung
 62
     0
370
    -2
100
AcDbLine
10
-37.2438752783965
20
0.443207126948778
30
0.000000000000000
11
-37.2438752783965
21
8.44320712694878
31
0.000000000000000
  0
INSERT
  5
F10051
330
F10002
100
AcDbEntity
  8
Bemassung
 62
     0
370
    -2
100
AcDbBlockReference
  2
VDDIM_DEFAULT
10
-37.2438752783965
20
0.443207126948778
30
0.000000000000000
 41
2.50000000000000
 42
2.50000000000000
 43
2.50000000000000
 50
90.0000000000000
  0
INSERT
  5
F10052
330
F10002
100
AcDbEntity
  8
Bemassung
 62
     0
370
    -2
100
AcDbBlockReference
  2
VDDIM_DEFAULT
10
-37.2438752783965
20
8.44320712694878
30
0.000000000000000
 41
2.50000000000000
 42
2.50000000000000
 43
2.50000000000000
 50
270.000000000000
  0
MTEXT
  5
F10053
102
{ACAD_XDICTIONARY
360
F10005
102
}
330
F10002
100
AcDbEntity
  8
Bemassung
 62
     0
100
AcDbMText
10
-37.9105419450632
20
4.13347261367442
30
0.000000000000000
 40
2.50000000000000
 41
0.0
 71
     8
 72
     1
  1
\A1;%%c8
 11
6.12323399573677e-017
 21
1.00000000000000
 31
0.0
 73
     1
 44
1.0
1001
ACAD
1000
MTEXTBEGIN
1070
73
1070
1
1070
44
1040
1.0
1070
74
1070
0
1000
MTEXTEND
  0
POINT
  5
F10054
330
F10002
100
AcDbEntity
  8
Bemassung
 62
     0
100
AcDbPoint
10
-27.1338752783965
20
0.443207126948778
30
0.000000000000000
  0
POINT
  5
F10055
330
F10002
100
AcDbEntity
  8
Bemassung
 62
     0
100
AcDbPoint
10
-27.1338752783965
20
8.44320712694878
30
0.000000000000000
  0
ENDBLK
  5
F10056
330
F10002
100
AcDbEntity
  8
0
100
AcDbBlockEnd
  0
BLOCK
  5
F10057
330
F10007
100
AcDbEntity
  8
0
100
AcDbBlockBegin
  2
*D4
 70
     1
 10
0.0
 20
0.0
 30
0.0
  3
*D4
  1

  0
LINE
  5
F10058
330
F10007
100
AcDbEntity
  8
Bemassung
 62
     0
370
    -2
100
AcDbLine
10
-4.85338855273276
20
0.693207126948778
30
0.000000000000000
11
-0.243875278396487
21
0.693207126948778
31
0.000000000000000
  0
LINE
  5
F10059
330
F10007
100
AcDbEntity
  8
Bemassung
 62
     0
370
    -2
100
AcDbLine
10
-4.85338855273276
20
8.19320712694878
30
0.000000000000000
11
-0.243875278396487
21
8.19320712694878
31
0.000000000000000
  0
LINE
  5
F1005A
330
F10007
100
AcDbEntity
  8
Bemassung
 62
     0
370
    -2
100
AcDbLine
10
-2.85338855273276
20
0.693207126948778
30
0.000000000000000
11
-2.85338855273276
21
8.19320712694878
31
0.000000000000000
  0
INSERT
  5
F1005B
330
F10007
100
AcDbEntity
  8
Bemassung
 62
     0
370
    -2
100
AcDbBlockReference
  2
VDDIM_DEFAULT
10
-2.85338855273276
20
0.693207126948778
30
0.000000000000000
 41
2.50000000000000
 42
2.50000000000000
 43
2.50000000000000
 50
90.0000000000000
  0
INSERT
  5
F1005C
330
F10007
100
AcDbEntity
  8
Bemassung
 62
     0
370
    -2
100
AcDbBlockReference
  2
VDDIM_DEFAULT
10
-2.85338855273276
20
8.19320712694878
30
0.000000000000000
 41
2.50000000000000
 42
2.50000000000000
 43
2.50000000000000
 50
270.000000000000
  0
MTEXT
  5
F1005D
102
{ACAD_XDICTIONARY
360
F1000A
102
}
330
F10007
100
AcDbEntity
  8
Bemassung
 62
     0
100
AcDbMText
10
-3.52005521939942
20
-0.854359244732632
30
0.000000000000000
 40
2.50000000000000
 41
0.0
 71
     8
 72
     1
  1
\A1;%%c7.5
 11
6.12323399573677e-017
 21
1.00000000000000
 31
0.0
 73
     1
 44
1.0
1001
ACAD
1000
MTEXTBEGIN
1070
73
1070
1
1070
44
1040
1.0
1070
74
1070
0
1000
MTEXTEND
  0
POINT
  5
F1005E
330
F10007
100
AcDbEntity
  8
Bemassung
 62
     0
100
AcDbPoint
10
-4.85338855273276
20
0.693207126948778
30
0.000000000000000
  0
POINT
  5
F1005F
330
F10007
100
AcDbEntity
  8
Bemassung
 62
     0
100
AcDbPoint
10
-4.85338855273276
20
8.19320712694878
30
0.000000000000000
  0
ENDBLK
  5
F10060
330
F10007
100
AcDbEntity
  8
0
100
AcDbBlockEnd
  0
BLOCK
  5
F10061
330
F10011
100
AcDbEntity
  8
0
100
AcDbBlockBegin
  2
*D6
 70
     1
 10
0.0
 20
0.0
 30
0.0
  3
*D6
  1

  0
LINE
  5
F10062
330
F10011
100
AcDbEntity
  8
Bemassung
 62
     0
370
    -2
100
AcDbLine
10
35.0561247216035
20
0.443207126948778
30
0.000000000000000
11
47.7561247216035
21
0.443207126948778
31
0.000000000000000
  0
LINE
  5
F10063
330
F10011
100
AcDbEntity
  8
Bemassung
 62
     0
370
    -2
100
AcDbLine
10
35.0561247216035
20
8.44320712694878
30
0.000000000000000
11
47.7561247216035
21
8.44320712694878
31
0.000000000000000
  0
LINE
  5
F10064
330
F10011
100
AcDbEntity
  8
Bemassung
 62
     0
370
    -2
100
AcDbLine
10
45.7561247216035
20
0.443207126948778
30
0.000000000000000
11
45.7561247216035
21
8.44320712694878
31
0.000000000000000
  0
INSERT
  5
F10065
330
F10011
100
AcDbEntity
  8
Bemassung
 62
     0
370
    -2
100
AcDbBlockReference
  2
VDDIM_DEFAULT
10
45.7561247216035
20
0.443207126948778
30
0.000000000000000
 41
2.50000000000000
 42
2.50000000000000
 43
2.50000000000000
 50
90.0000000000000
  0
INSERT
  5
F10066
330
F10011
100
AcDbEntity
  8
Bemassung
 62
     0
370
    -2
100
AcDbBlockReference
  2
VDDIM_DEFAULT
10
45.7561247216035
20
8.44320712694878
30
0.000000000000000
 41
2.50000000000000
 42
2.50000000000000
 43
2.50000000000000
 50
270.000000000000
  0
MTEXT
  5
F10067
330
F10011
100
AcDbEntity
  8
Bemassung
 62
     0
100
AcDbMText
10
45.0894580549368
20
4.44320712694878
30
0.000000000000000
 40
2.50000000000000
 41
0.0
 71
     8
 72
     1
  1
\A1;%%c8 h6
 11
6.12323399573677e-017
 21
1.00000000000000
 31
0.0
 73
     1
 44
1.0
  0
POINT
  5
F10068
330
F10011
100
AcDbEntity
  8
Bemassung
 62
     0
100
AcDbPoint
10
35.0561247216035
20
0.443207126948778
30
0.000000000000000
  0
POINT
  5
F10069
330
F10011
100
AcDbEntity
  8
Bemassung
 62
     0
100
AcDbPoint
10
35.0561247216035
20
8.44320712694878
30
0.000000000000000
  0
ENDBLK
  5
F1006A
330
F10011
100
AcDbEntity
  8
0
100
AcDbBlockEnd
0
ENDSEC
0
SECTION
2
ENTITIES
  0
DIMENSION
  5
F1000D
330
261
100
AcDbEntity
  8
Bemassung
100
AcDbDimension
  2
*D5
10
35.7561247216035
20
23.4432071269488
30
0.000000000000000
11
17.7251512702760
21
22.7765404602821
31
0.000000000000000
 70
32
 1
<>
 71
     8
  3
BEM-ISBE
100
AcDbAlignedDimension
13
-0.243875278396487
23
8.44320712694878
33
0.000000000000000
14
35.7561247216035
24
7.74320712694878
34
0.000000000000000
100
AcDbRotatedDimension
1001
ACAD
1000
DSTYLE
1002
{
1070
284
1070
8
1070
78
1070
8
1070
144
1040
1.00000000000000
1070
147
1040
0.625
1070
 72
1070
 0
1070
 71
1070
 0
1002
}
  0
DIMENSION
  5
F10017
330
261
100
AcDbEntity
  8
Bemassung
100
AcDbDimension
  2
*D7
10
-27.2438752783965
20
-14.5567928730512
30
0.000000000000000
11
-17.5447602341487
21
-13.8901262063846
31
0.000000000000000
 70
32
 1
<>
 71
     8
  3
BEM-ISBE
100
AcDbAlignedDimension
13
-8.24387527839649
23
0.693207126948778
33
0.000000000000000
14
-27.2438752783965
24
-16.5567928730512
34
0.000000000000000
100
AcDbRotatedDimension
1001
ACAD
1000
DSTYLE
1002
{
1070
284
1070
8
1070
78
1070
8
1070
144
1040
1.00000000000000
1070
147
1040
0.625
1070
 72
1070
 0
1070
 71
1070
 0
1002
}
  0
DIMENSION
  5
F1001C
330
261
100
AcDbEntity
  8
Bemassung
100
AcDbDimension
  2
*D8
10
-27.2438752783965
20
38.4432071269488
30
0.000000000000000
11
7.75501852691320
21
39.1098737936154
31
0.000000000000000
 70
32
 1
<>
 71
     8
  3
BEM-ISBE
100
AcDbAlignedDimension
13
35.7561247216035
23
7.74320712694878
33
0.000000000000000
14
-27.2438752783965
24
-16.5567928730512
34
0.000000000000000
100
AcDbRotatedDimension
1001
ACAD
1000
DSTYLE
1002
{
1070
284
1070
8
1070
78
1070
8
1070
144
1040
1.00000000000000
1070
147
1040
0.625
1070
 72
1070
 0
1070
 71
1070
 0
1002
}
  0
DIMENSION
  5
F10021
330
261
100
AcDbEntity
  8
Bemassung
100
AcDbDimension
  2
*D9
10
-0.243875278396487
20
23.3701982773912
30
0.000000000000000
11
-16.7704239509629
21
22.7035316107245
31
0.000000000000000
 70
32
 1
<>
 71
     8
  3
BEM-ISBE
100
AcDbAlignedDimension
13
-27.2438752783965
23
4.44320712694878
33
0.000000000000000
14
-0.243875278396487
24
0.443207126948778
34
0.000000000000000
100
AcDbRotatedDimension
1001
ACAD
1000
DSTYLE
1002
{
1070
284
1070
8
1070
78
1070
8
1070
144
1040
1.00000000000000
1070
147
1040
0.625
1070
 72
1070
 0
1070
 71
1070
 0
1002
}
  0
DIMENSION
  5
F10003
330
261
100
AcDbEntity
  8
Bemassung
100
AcDbDimension
  2
*D3
10
-37.2438752783965
20
8.44320712694878
30
0.000000000000000
11
-37.9105419450632
21
4.13347261367442
31
0.000000000000000
 70
32
 1
%%c<>
 71
     8
  3
BEM-ISBE
100
AcDbAlignedDimension
13
-27.1338752783965
23
0.443207126948778
33
0.000000000000000
14
-27.1338752783965
24
8.44320712694878
34
0.000000000000000
50
90.0000000000000
100
AcDbRotatedDimension
1001
ACAD
1000
DSTYLE
1002
{
1070
284
1070
8
1070
78
1070
8
1070
144
1040
1.00000000000000
1070
147
1040
0.625
1070
 72
1070
 0
1070
 71
1070
 0
1002
}
  0
DIMENSION
  5
F10008
330
261
100
AcDbEntity
  8
Bemassung
100
AcDbDimension
  2
*D4
10
-2.85338855273276
20
8.19320712694878
30
0.000000000000000
11
-3.52005521939942
21
-0.854359244732632
31
0.000000000000000
 70
32
 1
%%c<>
 71
     8
  3
BEM-ISBE
100
AcDbAlignedDimension
13
-4.85338855273276
23
0.693207126948778
33
0.000000000000000
14
-4.85338855273276
24
8.19320712694878
34
0.000000000000000
50
90.0000000000000
100
AcDbRotatedDimension
1001
ACAD
1000
DSTYLE
1002
{
1070
284
1070
8
1070
78
1070
8
1070
144
1040
1.00000000000000
1070
147
1040
0.625
1070
 72
1070
 0
1070
 71
1070
 0
1002
}
  0
DIMENSION
  5
F10012
330
261
100
AcDbEntity
  8
Bemassung
100
AcDbDimension
  2
*D6
10
45.7561247216035
20
8.44320712694878
30
0.000000000000000
11
45.0894580549368
21
4.44320712694878
31
0.000000000000000
 70
32
 1
%%c<> h6
 71
     8
  3
BEM-ISBE
100
AcDbAlignedDimension
13
35.0561247216035
23
0.443207126948778
33
0.000000000000000
14
35.0561247216035
24
8.44320712694878
34
0.000000000000000
50
90.0000000000000
100
AcDbRotatedDimension
1001
ACAD
1000
DSTYLE
1002
{
1070
284
1070
8
1070
78
1070
8
1070
144
1040
1.00000000000000
1070
147
1040
0.625
1070
 72
1070
 0
1070
 71
1070
 0
1002
}
  0
LINE
  5
F1006B
330
F1006C
100
AcDbEntity
8
Geo
100
AcDbLine
10
-27.2438752783965
20
4.44320712694878
30
0.000000000000000
11
-27.2438752783965
21
8.33320712694878
31
0.000000000000000
  0
LINE
  5
F1006D
330
F1006E
100
AcDbEntity
8
Geo
100
AcDbLine
10
-27.2438752783965
20
8.33320712694878
30
0.000000000000000
11
-27.1338752783965
21
8.44320712694878
31
0.000000000000000
  0
LINE
  5
F1006F
330
F10070
100
AcDbEntity
8
Geo
100
AcDbLine
10
-27.1338752783965
20
8.44320712694878
30
0.000000000000000
11
-8.24387527839649
21
8.44320712694878
31
0.000000000000000
  0
LINE
  5
F10071
330
F10072
100
AcDbEntity
8
Geo
100
AcDbLine
10
-8.24387527839649
20
8.44320712694878
30
0.000000000000000
11
-8.24387527839649
21
8.19320712694878
31
0.000000000000000
  0
LINE
  5
F10073
330
F10074
100
AcDbEntity
8
Geo
100
AcDbLine
10
-8.24387527839649
20
8.19320712694878
30
0.000000000000000
11
-0.243875278396487
21
8.19320712694878
31
0.000000000000000
  0
LINE
  5
F10075
330
F10076
100
AcDbEntity
8
Geo
100
AcDbLine
10
-0.243875278396487
20
8.19320712694878
30
0.000000000000000
11
-0.243875278396487
21
8.44320712694878
31
0.000000000000000
  0
LINE
  5
F10077
330
F10078
100
AcDbEntity
8
Geo
100
AcDbLine
10
-0.243875278396487
20
8.44320712694878
30
0.000000000000000
11
35.0561247216035
21
8.44320712694878
31
0.000000000000000
  0
LINE
  5
F10079
330
F1007A
100
AcDbEntity
8
Geo
100
AcDbLine
10
35.0561247216035
20
8.44320712694878
30
0.000000000000000
11
35.7561247216035
21
7.74320712694878
31
0.000000000000000
  0
LINE
  5
F1007B
330
F1007C
100
AcDbEntity
8
Geo
100
AcDbLine
10
-23.7438752783965
20
8.44267710085563
30
0.000000000000000
11
-23.6438752783965
21
8.44316298293628
31
0.000000000000000
  0
LINE
  5
F1007D
330
F1007E
100
AcDbEntity
8
Geo
100
AcDbLine
10
-23.6438752783965
20
8.44316298293628
30
0.000000000000000
11
-23.5438752783965
21
8.44188872851297
31
0.000000000000000
  0
LINE
  5
F1007F
330
F10080
100
AcDbEntity
8
Geo
100
AcDbLine
10
-23.5438752783965
20
8.44188872851297
30
0.000000000000000
11
-23.4438752783965
21
8.43885489830731
31
0.000000000000000
  0
LINE
  5
F10081
330
F10082
100
AcDbEntity
8
Geo
100
AcDbLine
10
-23.4438752783965
20
8.43885489830731
30
0.000000000000000
11
-23.3438752783965
21
8.43406282732286
31
0.000000000000000
  0
LINE
  5
F10083
330
F10084
100
AcDbEntity
8
Geo
100
AcDbLine
10
-23.3438752783965
20
8.43406282732286
30
0.000000000000000
11
-23.2438752783965
21
8.42751462425767
31
0.000000000000000
  0
LINE
  5
F10085
330
F10086
100
AcDbEntity
8
Geo
100
AcDbLine
10
-23.2438752783965
20
8.42751462425767
30
0.000000000000000
11
-23.1438752783965
21
8.41921317057634
31
0.000000000000000
  0
LINE
  5
F10087
330
F10088
100
AcDbEntity
8
Geo
100
AcDbLine
10
-23.1438752783965
20
8.41921317057634
30
0.000000000000000
11
-23.0438752783965
21
8.40916211924211
31
0.000000000000000
  0
LINE
  5
F10089
330
F1008A
100
AcDbEntity
8
Geo
100
AcDbLine
10
-23.0438752783965
20
8.40916211924211
30
0.000000000000000
11
-22.9438752783965
21
8.39736589310937
31
0.000000000000000
  0
LINE
  5
F1008B
330
F1008C
100
AcDbEntity
8
Geo
100
AcDbLine
10
-22.9438752783965
20
8.39736589310937
30
0.000000000000000
11
-22.8438752783965
21
8.38382968297746
31
0.000000000000000
  0
LINE
  5
F1008D
330
F1008E
100
AcDbEntity
8
Geo
100
AcDbLine
10
-22.8438752783965
20
8.38382968297746
30
0.000000000000000
11
-22.7438752783965
21
8.36855944530652
31
0.000000000000000
  0
LINE
  5
F1008F
330
F10090
100
AcDbEntity
8
Geo
100
AcDbLine
10
-22.7438752783965
20
8.36855944530652
30
0.000000000000000
11
-22.6438752783965
21
8.35156189959639
31
0.000000000000000
  0
LINE
  5
F10091
330
F10092
100
AcDbEntity
8
Geo
100
AcDbLine
10
-22.6438752783965
20
8.35156189959639
30
0.000000000000000
11
-22.5438752783965
21
8.33284452542979
31
0.000000000000000
  0
LINE
  5
F10093
330
F10094
100
AcDbEntity
8
Geo
100
AcDbLine
10
-22.5438752783965
20
8.33284452542979
30
0.000000000000000
11
-22.4438752783965
21
8.31241555918099
31
0.000000000000000
  0
LINE
  5
F10095
330
F10096
100
AcDbEntity
8
Geo
100
AcDbLine
10
-22.4438752783965
20
8.31241555918099
30
0.000000000000000
11
-22.3438752783965
21
8.29028399039151
31
0.000000000000000
  0
LINE
  5
F10097
330
F10098
100
AcDbEntity
8
Geo
100
AcDbLine
10
-22.3438752783965
20
8.29028399039151
30
0.000000000000000
11
-22.2438752783965
21
8.26645955781435
31
0.000000000000000
  0
LINE
  5
F10099
330
F1009A
100
AcDbEntity
8
Geo
100
AcDbLine
10
-22.2438752783965
20
8.26645955781435
30
0.000000000000000
11
-22.1438752783965
21
8.24095274512859
31
0.000000000000000
  0
LINE
  5
F1009B
330
F1009C
100
AcDbEntity
8
Geo
100
AcDbLine
10
-22.1438752783965
20
8.24095274512859
30
0.000000000000000
11
-22.0438752783965
21
8.21377477632611
31
0.000000000000000
  0
LINE
  5
F1009D
330
F1009E
100
AcDbEntity
8
Geo
100
AcDbLine
10
-22.0438752783965
20
8.21377477632611
30
0.000000000000000
11
-21.9438752783965
21
8.18493761077265
31
0.000000000000000
  0
LINE
  5
F1009F
330
F100A0
100
AcDbEntity
8
Geo
100
AcDbLine
10
-21.9438752783965
20
8.18493761077265
30
0.000000000000000
11
-21.8438752783965
21
8.15445393794518
31
0.000000000000000
  0
LINE
  5
F100A1
330
F100A2
100
AcDbEntity
8
Geo
100
AcDbLine
10
-21.8438752783965
20
8.15445393794518
30
0.000000000000000
11
-21.7438752783965
21
8.12233717184809
31
0.000000000000000
  0
LINE
  5
F100A3
330
F100A4
100
AcDbEntity
8
Geo
100
AcDbLine
10
-21.7438752783965
20
8.12233717184809
30
0.000000000000000
11
-21.6438752783965
21
8.08860144511042
31
0.000000000000000
  0
LINE
  5
F100A5
330
F100A6
100
AcDbEntity
8
Geo
100
AcDbLine
10
-21.6438752783965
20
8.08860144511042
30
0.000000000000000
11
-21.5438752783965
21
8.05326160276705
31
0.000000000000000
  0
LINE
  5
F100A7
330
F100A8
100
AcDbEntity
8
Geo
100
AcDbLine
10
-21.5438752783965
20
8.05326160276705
30
0.000000000000000
11
-21.4438752783965
21
8.01633319572622
31
0.000000000000000
  0
LINE
  5
F100A9
330
F100AA
100
AcDbEntity
8
Geo
100
AcDbLine
10
-21.4438752783965
20
8.01633319572622
30
0.000000000000000
11
-21.3438752783965
21
7.97783247392660
31
0.000000000000000
  0
LINE
  5
F100AB
330
F100AC
100
AcDbEntity
8
Geo
100
AcDbLine
10
-21.3438752783965
20
7.97783247392660
30
0.000000000000000
11
-21.2438752783965
21
7.93777637918661
31
0.000000000000000
  0
LINE
  5
F100AD
330
F100AE
100
AcDbEntity
8
Geo
100
AcDbLine
10
-21.2438752783965
20
7.93777637918661
30
0.000000000000000
11
-21.1438752783965
21
7.89618253774943
31
0.000000000000000
  0
LINE
  5
F100AF
330
F100B0
100
AcDbEntity
8
Geo
100
AcDbLine
10
-21.1438752783965
20
7.89618253774943
30
0.000000000000000
11
-21.0438752783965
21
7.85306925252670
31
0.000000000000000
  0
LINE
  5
F100B1
330
F100B2
100
AcDbEntity
8
Geo
100
AcDbLine
10
-21.0438752783965
20
7.85306925252670
30
0.000000000000000
11
-20.9438752783965
21
7.80845549504458
31
0.000000000000000
  0
LINE
  5
F100B3
330
F100B4
100
AcDbEntity
8
Geo
100
AcDbLine
10
-20.9438752783965
20
7.80845549504458
30
0.000000000000000
11
-20.8438752783965
21
7.76236089709550
31
0.000000000000000
  0
LINE
  5
F100B5
330
F100B6
100
AcDbEntity
8
Geo
100
AcDbLine
10
-20.8438752783965
20
7.76236089709550
30
0.000000000000000
11
-20.7438752783965
21
7.71480574209943
31
0.000000000000000
  0
LINE
  5
F100B7
330
F100B8
100
AcDbEntity
8
Geo
100
AcDbLine
10
-20.7438752783965
20
7.71480574209943
30
0.000000000000000
11
-20.6438752783965
21
7.66581095617838
31
0.000000000000000
  0
LINE
  5
F100B9
330
F100BA
100
AcDbEntity
8
Geo
100
AcDbLine
10
-20.6438752783965
20
7.66581095617838
30
0.000000000000000
11
-20.5438752783965
21
7.61539809894809
31
0.000000000000000
  0
LINE
  5
F100BB
330
F100BC
100
AcDbEntity
8
Geo
100
AcDbLine
10
-20.5438752783965
20
7.61539809894809
30
0.000000000000000
11
-20.4438752783965
21
7.56358935403093
31
0.000000000000000
  0
LINE
  5
F100BD
330
F100BE
100
AcDbEntity
8
Geo
100
AcDbLine
10
-20.4438752783965
20
7.56358935403093
30
0.000000000000000
11
-20.3438752783965
21
7.51040751929430
31
0.000000000000000
  0
LINE
  5
F100BF
330
F100C0
100
AcDbEntity
8
Geo
100
AcDbLine
10
-20.3438752783965
20
7.51040751929430
30
0.000000000000000
11
-20.2438752783965
21
7.45587599681863
31
0.000000000000000
  0
LINE
  5
F100C1
330
F100C2
100
AcDbEntity
8
Geo
100
AcDbLine
10
-20.2438752783965
20
7.45587599681863
30
0.000000000000000
11
-20.1438752783965
21
7.40001878259956
31
0.000000000000000
  0
LINE
  5
F100C3
330
F100C4
100
AcDbEntity
8
Geo
100
AcDbLine
10
-20.1438752783965
20
7.40001878259956
30
0.000000000000000
11
-20.0438752783965
21
7.34286045598881
31
0.000000000000000
  0
LINE
  5
F100C5
330
F100C6
100
AcDbEntity
8
Geo
100
AcDbLine
10
-20.0438752783965
20
7.34286045598881
30
0.000000000000000
11
-19.9438752783965
21
7.28442616887822
31
0.000000000000000
  0
LINE
  5
F100C7
330
F100C8
100
AcDbEntity
8
Geo
100
AcDbLine
10
-19.9438752783965
20
7.28442616887822
30
0.000000000000000
11
-19.8438752783965
21
7.22474163463205
31
0.000000000000000
  0
LINE
  5
F100C9
330
F100CA
100
AcDbEntity
8
Geo
100
AcDbLine
10
-19.8438752783965
20
7.22474163463205
30
0.000000000000000
11
-19.7438752783965
21
7.16383311677199
31
0.000000000000000
  0
LINE
  5
F100CB
330
F100CC
100
AcDbEntity
8
Geo
100
AcDbLine
10
-19.7438752783965
20
7.16383311677199
30
0.000000000000000
11
-19.6438752783965
21
7.10172741742025
31
0.000000000000000
  0
LINE
  5
F100CD
330
F100CE
100
AcDbEntity
8
Geo
100
AcDbLine
10
-19.6438752783965
20
7.10172741742025
30
0.000000000000000
11
-19.5438752783965
21
7.03845186550556
31
0.000000000000000
  0
LINE
  5
F100CF
330
F100D0
100
AcDbEntity
8
Geo
100
AcDbLine
10
-19.5438752783965
20
7.03845186550556
30
0.000000000000000
11
-19.4438752783965
21
6.97403430473740
31
0.000000000000000
  0
LINE
  5
F100D1
330
F100D2
100
AcDbEntity
8
Geo
100
AcDbLine
10
-19.4438752783965
20
6.97403430473740
30
0.000000000000000
11
-19.3438752783965
21
6.90850308135365
31
0.000000000000000
  0
LINE
  5
F100D3
330
F100D4
100
AcDbEntity
8
Geo
100
AcDbLine
10
-19.3438752783965
20
6.90850308135365
30
0.000000000000000
11
-19.2438752783965
21
6.84188703164714
31
0.000000000000000
  0
LINE
  5
F100D5
330
F100D6
100
AcDbEntity
8
Geo
100
AcDbLine
10
-19.2438752783965
20
6.84188703164714
30
0.000000000000000
11
-19.1438752783965
21
6.77421546927660
31
0.000000000000000
  0
LINE
  5
F100D7
330
F100D8
100
AcDbEntity
8
Geo
100
AcDbLine
10
-19.1438752783965
20
6.77421546927660
30
0.000000000000000
11
-19.0438752783965
21
6.70551817236745
31
0.000000000000000
  0
LINE
  5
F100D9
330
F100DA
100
AcDbEntity
8
Geo
100
AcDbLine
10
-19.0438752783965
20
6.70551817236745
30
0.000000000000000
11
-18.9438752783965
21
6.63582537040832
31
0.000000000000000
  0
LINE
  5
F100DB
330
F100DC
100
AcDbEntity
8
Geo
100
AcDbLine
10
-18.9438752783965
20
6.63582537040832
30
0.000000000000000
11
-18.8438752783965
21
6.56516773094885
31
0.000000000000000
  0
LINE
  5
F100DD
330
F100DE
100
AcDbEntity
8
Geo
100
AcDbLine
10
-18.8438752783965
20
6.56516773094885
30
0.000000000000000
11
-18.7438752783965
21
6.49357634610479
31
0.000000000000000
  0
LINE
  5
F100DF
330
F100E0
100
AcDbEntity
8
Geo
100
AcDbLine
10
-18.7438752783965
20
6.49357634610479
30
0.000000000000000
11
-18.6438752783965
21
6.42108271887627
31
0.000000000000000
  0
LINE
  5
F100E1
330
F100E2
100
AcDbEntity
8
Geo
100
AcDbLine
10
-18.6438752783965
20
6.42108271887627
30
0.000000000000000
11
-18.5438752783965
21
6.34771874928524
31
0.000000000000000
  0
LINE
  5
F100E3
330
F100E4
100
AcDbEntity
8
Geo
100
AcDbLine
10
-18.5438752783965
20
6.34771874928524
30
0.000000000000000
11
-18.4438752783965
21
6.27351672033822
31
0.000000000000000
  0
LINE
  5
F100E5
330
F100E6
100
AcDbEntity
8
Geo
100
AcDbLine
10
-18.4438752783965
20
6.27351672033822
30
0.000000000000000
11
-18.3438752783965
21
6.19850928382049
31
0.000000000000000
  0
LINE
  5
F100E7
330
F100E8
100
AcDbEntity
8
Geo
100
AcDbLine
10
-18.3438752783965
20
6.19850928382049
30
0.000000000000000
11
-18.2438752783965
21
6.12272944592808
31
0.000000000000000
  0
LINE
  5
F100E9
330
F100EA
100
AcDbEntity
8
Geo
100
AcDbLine
10
-18.2438752783965
20
6.12272944592808
30
0.000000000000000
11
-18.1438752783965
21
6.04621055274375
31
0.000000000000000
  0
LINE
  5
F100EB
330
F100EC
100
AcDbEntity
8
Geo
100
AcDbLine
10
-18.1438752783965
20
6.04621055274375
30
0.000000000000000
11
-18.0438752783965
21
5.96898627556337
31
0.000000000000000
  0
LINE
  5
F100ED
330
F100EE
100
AcDbEntity
8
Geo
100
AcDbLine
10
-18.0438752783965
20
5.96898627556337
30
0.000000000000000
11
-17.9438752783965
21
5.89109059607928
31
0.000000000000000
  0
LINE
  5
F100EF
330
F100F0
100
AcDbEntity
8
Geo
100
AcDbLine
10
-17.9438752783965
20
5.89109059607928
30
0.000000000000000
11
-17.8438752783965
21
5.81255779142699
31
0.000000000000000
  0
LINE
  5
F100F1
330
F100F2
100
AcDbEntity
8
Geo
100
AcDbLine
10
-17.8438752783965
20
5.81255779142699
30
0.000000000000000
11
-17.7438752783965
21
5.73342241910195
31
0.000000000000000
  0
LINE
  5
F100F3
330
F100F4
100
AcDbEntity
8
Geo
100
AcDbLine
10
-17.7438752783965
20
5.73342241910195
30
0.000000000000000
11
-17.6438752783965
21
5.65371930175285
31
0.000000000000000
  0
LINE
  5
F100F5
330
F100F6
100
AcDbEntity
8
Geo
100
AcDbLine
10
-17.6438752783965
20
5.65371930175285
30
0.000000000000000
11
-17.5438752783965
21
5.57348351185833
31
0.000000000000000
  0
LINE
  5
F100F7
330
F100F8
100
AcDbEntity
8
Geo
100
AcDbLine
10
-17.5438752783965
20
5.57348351185833
30
0.000000000000000
11
-17.4438752783965
21
5.49275035629372
31
0.000000000000000
  0
LINE
  5
F100F9
330
F100FA
100
AcDbEntity
8
Geo
100
AcDbLine
10
-17.4438752783965
20
5.49275035629372
30
0.000000000000000
11
-17.3438752783965
21
5.41155536079463
31
0.000000000000000
  0
LINE
  5
F100FB
330
F100FC
100
AcDbEntity
8
Geo
100
AcDbLine
10
-17.3438752783965
20
5.41155536079463
30
0.000000000000000
11
-17.2438752783965
21
5.32993425432425
31
0.000000000000000
  0
LINE
  5
F100FD
330
F100FE
100
AcDbEntity
8
Geo
100
AcDbLine
10
-17.2438752783965
20
5.32993425432425
30
0.000000000000000
11
-17.1438752783965
21
5.24792295335119
31
0.000000000000000
  0
LINE
  5
F100FF
330
F10100
100
AcDbEntity
8
Geo
100
AcDbLine
10
-17.1438752783965
20
5.24792295335119
30
0.000000000000000
11
-17.0438752783965
21
5.16555754604487
31
0.000000000000000
  0
LINE
  5
F10101
330
F10102
100
AcDbEntity
8
Geo
100
AcDbLine
10
-17.0438752783965
20
5.16555754604487
30
0.000000000000000
11
-16.9438752783965
21
5.08287427639529
31
0.000000000000000
  0
LINE
  5
F10103
330
F10104
100
AcDbEntity
8
Geo
100
AcDbLine
10
-16.9438752783965
20
5.08287427639529
30
0.000000000000000
11
-16.8438752783965
21
4.99990952826428
31
0.000000000000000
  0
LINE
  5
F10105
330
F10106
100
AcDbEntity
8
Geo
100
AcDbLine
10
-16.8438752783965
20
4.99990952826428
30
0.000000000000000
11
-16.7438752783965
21
4.91669980937518
31
0.000000000000000
  0
LINE
  5
F10107
330
F10108
100
AcDbEntity
8
Geo
100
AcDbLine
10
-16.7438752783965
20
4.91669980937518
30
0.000000000000000
11
-16.6438752783965
21
4.83328173524800
31
0.000000000000000
  0
LINE
  5
F10109
330
F1010A
100
AcDbEntity
8
Geo
100
AcDbLine
10
-16.6438752783965
20
4.83328173524800
30
0.000000000000000
11
-16.5438752783965
21
4.74969201308717
31
0.000000000000000
  0
LINE
  5
F1010B
330
F1010C
100
AcDbEntity
8
Geo
100
AcDbLine
10
-16.5438752783965
20
4.74969201308717
30
0.000000000000000
11
-16.4438752783965
21
4.66596742562896
31
0.000000000000000
  0
LINE
  5
F1010D
330
F1010E
100
AcDbEntity
8
Geo
100
AcDbLine
10
-16.4438752783965
20
4.66596742562896
30
0.000000000000000
11
-16.3438752783965
21
4.58214481495564
31
0.000000000000000
  0
LINE
  5
F1010F
330
F10110
100
AcDbEntity
8
Geo
100
AcDbLine
10
-16.3438752783965
20
4.58214481495564
30
0.000000000000000
11
-16.2438752783965
21
4.49826106628349
31
0.000000000000000
  0
LINE
  5
F10111
330
F10112
100
AcDbEntity
8
Geo
100
AcDbLine
10
-16.2438752783965
20
4.49826106628349
30
0.000000000000000
11
-16.1438752783965
21
4.41435309173190
31
0.000000000000000
  0
LINE
  5
F10113
330
F10114
100
AcDbEntity
8
Geo
100
AcDbLine
10
-16.1438752783965
20
4.41435309173190
30
0.000000000000000
11
-16.0438752783965
21
4.33045781408061
31
0.000000000000000
  0
LINE
  5
F10115
330
F10116
100
AcDbEntity
8
Geo
100
AcDbLine
10
-16.0438752783965
20
4.33045781408061
30
0.000000000000000
11
-15.9438752783965
21
4.24661215052219
31
0.000000000000000
  0
LINE
  5
F10117
330
F10118
100
AcDbEntity
8
Geo
100
AcDbLine
10
-15.9438752783965
20
4.24661215052219
30
0.000000000000000
11
-15.8438752783965
21
4.16285299641713
31
0.000000000000000
  0
LINE
  5
F10119
330
F1011A
100
AcDbEntity
8
Geo
100
AcDbLine
10
-15.8438752783965
20
4.16285299641713
30
0.000000000000000
11
-15.7438752783965
21
4.07921720905834
31
0.000000000000000
  0
LINE
  5
F1011B
330
F1011C
100
AcDbEntity
8
Geo
100
AcDbLine
10
-15.7438752783965
20
4.07921720905834
30
0.000000000000000
11
-15.6438752783965
21
3.99574159145256
31
0.000000000000000
  0
LINE
  5
F1011D
330
F1011E
100
AcDbEntity
8
Geo
100
AcDbLine
10
-15.6438752783965
20
3.99574159145256
30
0.000000000000000
11
-15.5438752783965
21
3.91246287612563
31
0.000000000000000
  0
LINE
  5
F1011F
330
F10120
100
AcDbEntity
8
Geo
100
AcDbLine
10
-15.5438752783965
20
3.91246287612563
30
0.000000000000000
11
-15.4438752783965
21
3.82941770895867
31
0.000000000000000
  0
LINE
  5
F10121
330
F10122
100
AcDbEntity
8
Geo
100
AcDbLine
10
-15.4438752783965
20
3.82941770895867
30
0.000000000000000
11
-15.3438752783965
21
3.74664263306253
31
0.000000000000000
  0
LINE
  5
F10123
330
F10124
100
AcDbEntity
8
Geo
100
AcDbLine
10
-15.3438752783965
20
3.74664263306253
30
0.000000000000000
11
-15.2438752783965
21
3.66417407269735
31
0.000000000000000
  0
LINE
  5
F10125
330
F10126
100
AcDbEntity
8
Geo
100
AcDbLine
10
-15.2438752783965
20
3.66417407269735
30
0.000000000000000
11
-15.1438752783965
21
3.58204831724452
31
0.000000000000000
  0
LINE
  5
F10127
330
F10128
100
AcDbEntity
8
Geo
100
AcDbLine
10
-15.1438752783965
20
3.58204831724452
30
0.000000000000000
11
-15.0438752783965
21
3.50030150523787
31
0.000000000000000
  0
LINE
  5
F10129
330
F1012A
100
AcDbEntity
8
Geo
100
AcDbLine
10
-15.0438752783965
20
3.50030150523787
30
0.000000000000000
11
-14.9438752783965
21
3.41896960846137
31
0.000000000000000
  0
LINE
  5
F1012B
330
F1012C
100
AcDbEntity
8
Geo
100
AcDbLine
10
-14.9438752783965
20
3.41896960846137
30
0.000000000000000
11
-14.8438752783965
21
3.33808841612011
31
0.000000000000000
  0
LINE
  5
F1012D
330
F1012E
100
AcDbEntity
8
Geo
100
AcDbLine
10
-14.8438752783965
20
3.33808841612011
30
0.000000000000000
11
-14.7438752783965
21
3.25769351909163
31
0.000000000000000
  0
LINE
  5
F1012F
330
F10130
100
AcDbEntity
8
Geo
100
AcDbLine
10
-14.7438752783965
20
3.25769351909163
30
0.000000000000000
11
-14.6438752783965
21
3.17782029426461
31
0.000000000000000
  0
LINE
  5
F10131
330
F10132
100
AcDbEntity
8
Geo
100
AcDbLine
10
-14.6438752783965
20
3.17782029426461
30
0.000000000000000
11
-14.5438752783965
21
3.09850388897162
31
0.000000000000000
  0
LINE
  5
F10133
330
F10134
100
AcDbEntity
8
Geo
100
AcDbLine
10
-14.5438752783965
20
3.09850388897162
30
0.000000000000000
11
-14.4438752783965
21
3.01977920552291
31
0.000000000000000
  0
LINE
  5
F10135
330
F10136
100
AcDbEntity
8
Geo
100
AcDbLine
10
-14.4438752783965
20
3.01977920552291
30
0.000000000000000
11
-14.3438752783965
21
2.94168088584807
31
0.000000000000000
  0
LINE
  5
F10137
330
F10138
100
AcDbEntity
8
Geo
100
AcDbLine
10
-14.3438752783965
20
2.94168088584807
30
0.000000000000000
11
-14.2438752783965
21
2.86424329625220
31
0.000000000000000
  0
LINE
  5
F10139
330
F1013A
100
AcDbEntity
8
Geo
100
AcDbLine
10
-14.2438752783965
20
2.86424329625220
30
0.000000000000000
11
-14.1438752783965
21
2.78750051229342
31
0.000000000000000
  0
LINE
  5
F1013B
330
F1013C
100
AcDbEntity
8
Geo
100
AcDbLine
10
-14.1438752783965
20
2.78750051229342
30
0.000000000000000
11
-14.0438752783965
21
2.71148630378827
31
0.000000000000000
  0
LINE
  5
F1013D
330
F1013E
100
AcDbEntity
8
Geo
100
AcDbLine
10
-14.0438752783965
20
2.71148630378827
30
0.000000000000000
11
-13.9438752783965
21
2.63623411995172
31
0.000000000000000
  0
LINE
  5
F1013F
330
F10140
100
AcDbEntity
8
Geo
100
AcDbLine
10
-13.9438752783965
20
2.63623411995172
30
0.000000000000000
11
-13.8438752783965
21
2.56177707467813
31
0.000000000000000
  0
LINE
  5
F10141
330
F10142
100
AcDbEntity
8
Geo
100
AcDbLine
10
-13.8438752783965
20
2.56177707467813
30
0.000000000000000
11
-13.7438752783965
21
2.48814793196995
31
0.000000000000000
  0
LINE
  5
F10143
330
F10144
100
AcDbEntity
8
Geo
100
AcDbLine
10
-13.7438752783965
20
2.48814793196995
30
0.000000000000000
11
-13.6438752783965
21
2.41537909152019
31
0.000000000000000
  0
LINE
  5
F10145
330
F10146
100
AcDbEntity
8
Geo
100
AcDbLine
10
-13.6438752783965
20
2.41537909152019
30
0.000000000000000
11
-13.5438752783965
21
2.34350257445534
31
0.000000000000000
  0
LINE
  5
F10147
330
F10148
100
AcDbEntity
8
Geo
100
AcDbLine
10
-13.5438752783965
20
2.34350257445534
30
0.000000000000000
11
-13.4438752783965
21
2.27255000924482
31
0.000000000000000
  0
LINE
  5
F10149
330
F1014A
100
AcDbEntity
8
Geo
100
AcDbLine
10
-13.4438752783965
20
2.27255000924482
30
0.000000000000000
11
-13.3438752783965
21
2.20255261778321
31
0.000000000000000
  0
LINE
  5
F1014B
330
F1014C
100
AcDbEntity
8
Geo
100
AcDbLine
10
-13.3438752783965
20
2.20255261778321
30
0.000000000000000
11
-13.2438752783965
21
2.13354120165142
31
0.000000000000000
  0
LINE
  5
F1014D
330
F1014E
100
AcDbEntity
8
Geo
100
AcDbLine
10
-13.2438752783965
20
2.13354120165142
30
0.000000000000000
11
-13.1438752783965
21
2.06554612856276
31
0.000000000000000
  0
LINE
  5
F1014F
330
F10150
100
AcDbEntity
8
Geo
100
AcDbLine
10
-13.1438752783965
20
2.06554612856276
30
0.000000000000000
11
-13.0438752783965
21
1.99859731900000
31
0.000000000000000
  0
LINE
  5
F10151
330
F10152
100
AcDbEntity
8
Geo
100
AcDbLine
10
-13.0438752783965
20
1.99859731900000
30
0.000000000000000
11
-12.9438752783965
21
1.93272423304916
31
0.000000000000000
  0
LINE
  5
F10153
330
F10154
100
AcDbEntity
8
Geo
100
AcDbLine
10
-12.9438752783965
20
1.93272423304916
30
0.000000000000000
11
-12.8438752783965
21
1.86795585743593
31
0.000000000000000
  0
LINE
  5
F10155
330
F10156
100
AcDbEntity
8
Geo
100
AcDbLine
10
-12.8438752783965
20
1.86795585743593
30
0.000000000000000
11
-12.7438752783965
21
1.80432069277041
31
0.000000000000000
  0
LINE
  5
F10157
330
F10158
100
AcDbEntity
8
Geo
100
AcDbLine
10
-12.7438752783965
20
1.80432069277041
30
0.000000000000000
11
-12.6438752783965
21
1.74184674100569
31
0.000000000000000
  0
LINE
  5
F10159
330
F1015A
100
AcDbEntity
8
Geo
100
AcDbLine
10
-12.6438752783965
20
1.74184674100569
30
0.000000000000000
11
-12.5438752783965
21
1.68056149311592
31
0.000000000000000
  0
LINE
  5
F1015B
330
F1015C
100
AcDbEntity
8
Geo
100
AcDbLine
10
-12.5438752783965
20
1.68056149311592
30
0.000000000000000
11
-12.4438752783965
21
1.62049191699922
31
0.000000000000000
  0
LINE
  5
F1015D
330
F1015E
100
AcDbEntity
8
Geo
100
AcDbLine
10
-12.4438752783965
20
1.62049191699922
30
0.000000000000000
11
-12.3438752783965
21
1.56166444561072
31
0.000000000000000
  0
LINE
  5
F1015F
330
F10160
100
AcDbEntity
8
Geo
100
AcDbLine
10
-12.3438752783965
20
1.56166444561072
30
0.000000000000000
11
-12.2438752783965
21
1.50410496533106
31
0.000000000000000
  0
LINE
  5
F10161
330
F10162
100
AcDbEntity
8
Geo
100
AcDbLine
10
-12.2438752783965
20
1.50410496533106
30
0.000000000000000
11
-12.1438752783965
21
1.44783880457536
31
0.000000000000000
  0
LINE
  5
F10163
330
F10164
100
AcDbEntity
8
Geo
100
AcDbLine
10
-12.1438752783965
20
1.44783880457536
30
0.000000000000000
11
-12.0438752783965
21
1.39289072264774
31
0.000000000000000
  0
LINE
  5
F10165
330
F10166
100
AcDbEntity
8
Geo
100
AcDbLine
10
-12.0438752783965
20
1.39289072264774
30
0.000000000000000
11
-11.9438752783965
21
1.33928489884625
31
0.000000000000000
  0
LINE
  5
F10167
330
F10168
100
AcDbEntity
8
Geo
100
AcDbLine
10
-11.9438752783965
20
1.33928489884625
30
0.000000000000000
11
-11.8438752783965
21
1.28704492182303
31
0.000000000000000
  0
LINE
  5
F10169
330
F1016A
100
AcDbEntity
8
Geo
100
AcDbLine
10
-11.8438752783965
20
1.28704492182303
30
0.000000000000000
11
-11.7438752783965
21
1.23619377920441
31
0.000000000000000
  0
LINE
  5
F1016B
330
F1016C
100
AcDbEntity
8
Geo
100
AcDbLine
10
-11.7438752783965
20
1.23619377920441
30
0.000000000000000
11
-11.6438752783965
21
1.18675384747543
31
0.000000000000000
  0
LINE
  5
F1016D
330
F1016E
100
AcDbEntity
8
Geo
100
AcDbLine
10
-11.6438752783965
20
1.18675384747543
30
0.000000000000000
11
-11.5438752783965
21
1.13874688213334
31
0.000000000000000
  0
LINE
  5
F1016F
330
F10170
100
AcDbEntity
8
Geo
100
AcDbLine
10
-11.5438752783965
20
1.13874688213334
30
0.000000000000000
11
-11.4438752783965
21
1.09219400811430
31
0.000000000000000
  0
LINE
  5
F10171
330
F10172
100
AcDbEntity
8
Geo
100
AcDbLine
10
-11.4438752783965
20
1.09219400811430
30
0.000000000000000
11
-11.3438752783965
21
1.04711571049762
31
0.000000000000000
  0
LINE
  5
F10173
330
F10174
100
AcDbEntity
8
Geo
100
AcDbLine
10
-11.3438752783965
20
1.04711571049762
30
0.000000000000000
11
-11.2438752783965
21
1.00353182549151
31
0.000000000000000
  0
LINE
  5
F10175
330
F10176
100
AcDbEntity
8
Geo
100
AcDbLine
10
-11.2438752783965
20
1.00353182549151
30
0.000000000000000
11
-11.1438752783965
21
0.961461531704358
31
0.000000000000000
  0
LINE
  5
F10177
330
F10178
100
AcDbEntity
8
Geo
100
AcDbLine
10
-11.1438752783965
20
0.961461531704358
30
0.000000000000000
11
-11.0438752783965
21
0.920923341705428
31
0.000000000000000
  0
LINE
  5
F10179
330
F1017A
100
AcDbEntity
8
Geo
100
AcDbLine
10
-11.0438752783965
20
0.920923341705428
30
0.000000000000000
11
-10.9438752783965
21
0.881935093878608
31
0.000000000000000
  0
LINE
  5
F1017B
330
F1017C
100
AcDbEntity
8
Geo
100
AcDbLine
10
-10.9438752783965
20
0.881935093878608
30
0.000000000000000
11
-10.8438752783965
21
0.844513944572768
31
0.000000000000000
  0
LINE
  5
F1017D
330
F1017E
100
AcDbEntity
8
Geo
100
AcDbLine
10
-10.8438752783965
20
0.844513944572768
30
0.000000000000000
11
-10.7438752783965
21
0.808676360552378
31
0.000000000000000
  0
LINE
  5
F1017F
330
F10180
100
AcDbEntity
8
Geo
100
AcDbLine
10
-10.7438752783965
20
0.808676360552378
30
0.000000000000000
11
-10.6438752783965
21
0.774438111751438
31
0.000000000000000
  0
LINE
  5
F10181
330
F10182
100
AcDbEntity
8
Geo
100
AcDbLine
10
-10.6438752783965
20
0.774438111751438
30
0.000000000000000
11
-10.5438752783965
21
0.741814264334098
31
0.000000000000000
  0
LINE
  5
F10183
330
F10184
100
AcDbEntity
8
Geo
100
AcDbLine
10
-10.5438752783965
20
0.741814264334098
30
0.000000000000000
11
-10.4438752783965
21
0.710819174064978
31
0.000000000000000
  0
LINE
  5
F10185
330
F10186
100
AcDbEntity
8
Geo
100
AcDbLine
10
-10.4438752783965
20
0.710819174064978
30
0.000000000000000
11
-10.3438752783965
21
0.681466479992048
31
0.000000000000000
  0
LINE
  5
F10187
330
F10188
100
AcDbEntity
8
Geo
100
AcDbLine
10
-10.3438752783965
20
0.681466479992048
30
0.000000000000000
11
-10.2438752783965
21
0.653769098444938
31
0.000000000000000
  0
LINE
  5
F10189
330
F1018A
100
AcDbEntity
8
Geo
100
AcDbLine
10
-10.2438752783965
20
0.653769098444938
30
0.000000000000000
11
-10.1438752783965
21
0.627739217351248
31
0.000000000000000
  0
LINE
  5
F1018B
330
F1018C
100
AcDbEntity
8
Geo
100
AcDbLine
10
-10.1438752783965
20
0.627739217351248
30
0.000000000000000
11
-10.0438752783965
21
0.603388290873338
31
0.000000000000000
  0
LINE
  5
F1018D
330
F1018E
100
AcDbEntity
8
Geo
100
AcDbLine
10
-10.0438752783965
20
0.603388290873338
30
0.000000000000000
11
-9.94387527839649
21
0.580727034368128
31
0.000000000000000
  0
LINE
  5
F1018F
330
F10190
100
AcDbEntity
8
Geo
100
AcDbLine
10
-9.94387527839649
20
0.580727034368128
30
0.000000000000000
11
-9.84387527839649
21
0.559765419671868
31
0.000000000000000
  0
LINE
  5
F10191
330
F10192
100
AcDbEntity
8
Geo
100
AcDbLine
10
-9.84387527839649
20
0.559765419671868
30
0.000000000000000
11
-9.74387527839649
21
0.540512670712158
31
0.000000000000000
  0
LINE
  5
F10193
330
F10194
100
AcDbEntity
8
Geo
100
AcDbLine
10
-9.74387527839649
20
0.540512670712158
30
0.000000000000000
11
-9.64387527839649
21
0.522977259449048
31
0.000000000000000
  0
LINE
  5
F10195
330
F10196
100
AcDbEntity
8
Geo
100
AcDbLine
10
-9.64387527839649
20
0.522977259449048
30
0.000000000000000
11
-9.54387527839649
21
0.507166902147058
31
0.000000000000000
  0
LINE
  5
F10197
330
F10198
100
AcDbEntity
8
Geo
100
AcDbLine
10
-9.54387527839649
20
0.507166902147058
30
0.000000000000000
11
-9.44387527839649
21
0.493088555979738
31
0.000000000000000
  0
LINE
  5
F10199
330
F1019A
100
AcDbEntity
8
Geo
100
AcDbLine
10
-9.44387527839649
20
0.493088555979738
30
0.000000000000000
11
-9.34387527839649
21
0.480748415968208
31
0.000000000000000
  0
LINE
  5
F1019B
330
F1019C
100
AcDbEntity
8
Geo
100
AcDbLine
10
-9.34387527839649
20
0.480748415968208
30
0.000000000000000
11
-9.24387527839649
21
0.470151912255108
31
0.000000000000000
  0
LINE
  5
F1019D
330
F1019E
100
AcDbEntity
8
Geo
100
AcDbLine
10
-9.24387527839649
20
0.470151912255108
30
0.000000000000000
11
-9.14387527839649
21
0.461303707715158
31
0.000000000000000
  0
LINE
  5
F1019F
330
F101A0
100
AcDbEntity
8
Geo
100
AcDbLine
10
-9.14387527839649
20
0.461303707715158
30
0.000000000000000
11
-9.04387527839649
21
0.454207695903268
31
0.000000000000000
  0
LINE
  5
F101A1
330
F101A2
100
AcDbEntity
8
Geo
100
AcDbLine
10
-9.04387527839649
20
0.454207695903268
30
0.000000000000000
11
-8.94387527839649
21
0.448866999341258
31
0.000000000000000
  0
LINE
  5
F101A3
330
F101A4
100
AcDbEntity
8
Geo
100
AcDbLine
10
-8.94387527839649
20
0.448866999341258
30
0.000000000000000
11
-8.84387527839649
21
0.445283968143818
31
0.000000000000000
  0
LINE
  5
F101A5
330
F101A6
100
AcDbEntity
8
Geo
100
AcDbLine
10
-8.84387527839649
20
0.445283968143818
30
0.000000000000000
11
-8.74387527839649
21
0.443460178984338
31
0.000000000000000
  0
LINE
  5
F101A7
330
F101A8
100
AcDbEntity
8
Geo
100
AcDbLine
10
-27.2438752783965
20
7.19385250576445
30
0.000000000000000
11
-27.1438752783965
21
7.20476180056871
31
0.000000000000000
  0
LINE
  5
F101A9
330
F101AA
100
AcDbEntity
8
Geo
100
AcDbLine
10
-27.1438752783965
20
7.20476180056871
30
0.000000000000000
11
-27.0438752783965
21
7.15051349145754
31
0.000000000000000
  0
LINE
  5
F101AB
330
F101AC
100
AcDbEntity
8
Geo
100
AcDbLine
10
-27.0438752783965
20
7.15051349145754
30
0.000000000000000
11
-26.9438752783965
21
7.08815267235086
31
0.000000000000000
  0
LINE
  5
F101AD
330
F101AE
100
AcDbEntity
8
Geo
100
AcDbLine
10
-26.9438752783965
20
7.08815267235086
30
0.000000000000000
11
-26.8438752783965
21
7.02462797409825
31
0.000000000000000
  0
LINE
  5
F101AF
330
F101B0
100
AcDbEntity
8
Geo
100
AcDbLine
10
-26.8438752783965
20
7.02462797409825
30
0.000000000000000
11
-26.7438752783965
21
6.95996735004327
31
0.000000000000000
  0
LINE
  5
F101B1
330
F101B2
100
AcDbEntity
8
Geo
100
AcDbLine
10
-26.7438752783965
20
6.95996735004327
30
0.000000000000000
11
-26.6438752783965
21
6.89419925338112
31
0.000000000000000
  0
LINE
  5
F101B3
330
F101B4
100
AcDbEntity
8
Geo
100
AcDbLine
10
-26.6438752783965
20
6.89419925338112
30
0.000000000000000
11
-26.5438752783965
21
6.82735262463812
31
0.000000000000000
  0
LINE
  5
F101B5
330
F101B6
100
AcDbEntity
8
Geo
100
AcDbLine
10
-26.5438752783965
20
6.82735262463812
30
0.000000000000000
11
-26.4438752783965
21
6.75945687893675
31
0.000000000000000
  0
LINE
  5
F101B7
330
F101B8
100
AcDbEntity
8
Geo
100
AcDbLine
10
-26.4438752783965
20
6.75945687893675
30
0.000000000000000
11
-26.3438752783965
21
6.69054189305185
31
0.000000000000000
  0
LINE
  5
F101B9
330
F101BA
100
AcDbEntity
8
Geo
100
AcDbLine
10
-26.3438752783965
20
6.69054189305185
30
0.000000000000000
11
-26.2438752783965
21
6.62063799226368
31
0.000000000000000
  0
LINE
  5
F101BB
330
F101BC
100
AcDbEntity
8
Geo
100
AcDbLine
10
-26.2438752783965
20
6.62063799226368
30
0.000000000000000
11
-26.1438752783965
21
6.54977593701359
31
0.000000000000000
  0
LINE
  5
F101BD
330
F101BE
100
AcDbEntity
8
Geo
100
AcDbLine
10
-26.1438752783965
20
6.54977593701359
30
0.000000000000000
11
-26.0438752783965
21
6.47798690936824
31
0.000000000000000
  0
LINE
  5
F101BF
330
F101C0
100
AcDbEntity
8
Geo
100
AcDbLine
10
-26.0438752783965
20
6.47798690936824
30
0.000000000000000
11
-25.9438752783965
21
6.40530249929832
31
0.000000000000000
  0
LINE
  5
F101C1
330
F101C2
100
AcDbEntity
8
Geo
100
AcDbLine
10
-25.9438752783965
20
6.40530249929832
30
0.000000000000000
11
-25.8438752783965
21
6.33175469077765
31
0.000000000000000
  0
LINE
  5
F101C3
330
F101C4
100
AcDbEntity
8
Geo
100
AcDbLine
10
-25.8438752783965
20
6.33175469077765
30
0.000000000000000
11
-25.7438752783965
21
6.25737584770903
31
0.000000000000000
  0
LINE
  5
F101C5
330
F101C6
100
AcDbEntity
8
Geo
100
AcDbLine
10
-25.7438752783965
20
6.25737584770903
30
0.000000000000000
11
-25.6438752783965
21
6.18219869968288
31
0.000000000000000
  0
LINE
  5
F101C7
330
F101C8
100
AcDbEntity
8
Geo
100
AcDbLine
10
-25.6438752783965
20
6.18219869968288
30
0.000000000000000
11
-25.5438752783965
21
6.10625632757490
31
0.000000000000000
  0
LINE
  5
F101C9
330
F101CA
100
AcDbEntity
8
Geo
100
AcDbLine
10
-25.5438752783965
20
6.10625632757490
30
0.000000000000000
11
-25.4438752783965
21
6.02958214898923
31
0.000000000000000
  0
LINE
  5
F101CB
330
F101CC
100
AcDbEntity
8
Geo
100
AcDbLine
10
-25.4438752783965
20
6.02958214898923
30
0.000000000000000
11
-25.3438752783965
21
5.95220990355337
31
0.000000000000000
  0
LINE
  5
F101CD
330
F101CE
100
AcDbEntity
8
Geo
100
AcDbLine
10
-25.3438752783965
20
5.95220990355337
30
0.000000000000000
11
-25.2438752783965
21
5.87417363807146
31
0.000000000000000
  0
LINE
  5
F101CF
330
F101D0
100
AcDbEntity
8
Geo
100
AcDbLine
10
-25.2438752783965
20
5.87417363807146
30
0.000000000000000
11
-25.1438752783965
21
5.79550769154235
31
0.000000000000000
  0
LINE
  5
F101D1
330
F101D2
100
AcDbEntity
8
Geo
100
AcDbLine
10
-25.1438752783965
20
5.79550769154235
30
0.000000000000000
11
-25.0438752783965
21
5.71624668004908
31
0.000000000000000
  0
LINE
  5
F101D3
330
F101D4
100
AcDbEntity
8
Geo
100
AcDbLine
10
-25.0438752783965
20
5.71624668004908
30
0.000000000000000
11
-24.9438752783965
21
5.63642548152648
31
0.000000000000000
  0
LINE
  5
F101D5
330
F101D6
100
AcDbEntity
8
Geo
100
AcDbLine
10
-24.9438752783965
20
5.63642548152648
30
0.000000000000000
11
-24.8438752783965
21
5.55607922041352
31
0.000000000000000
  0
LINE
  5
F101D7
330
F101D8
100
AcDbEntity
8
Geo
100
AcDbLine
10
-24.8438752783965
20
5.55607922041352
30
0.000000000000000
11
-24.7438752783965
21
5.47524325219717
31
0.000000000000000
  0
LINE
  5
F101D9
330
F101DA
100
AcDbEntity
8
Geo
100
AcDbLine
10
-24.7438752783965
20
5.47524325219717
30
0.000000000000000
11
-24.6438752783965
21
5.39395314785460
31
0.000000000000000
  0
LINE
  5
F101DB
330
F101DC
100
AcDbEntity
8
Geo
100
AcDbLine
10
-24.6438752783965
20
5.39395314785460
30
0.000000000000000
11
-24.5438752783965
21
5.31224467820060
31
0.000000000000000
  0
LINE
  5
F101DD
330
F101DE
100
AcDbEntity
8
Geo
100
AcDbLine
10
-24.5438752783965
20
5.31224467820060
30
0.000000000000000
11
-24.4438752783965
21
5.23015379814700
31
0.000000000000000
  0
LINE
  5
F101DF
330
F101E0
100
AcDbEntity
8
Geo
100
AcDbLine
10
-24.4438752783965
20
5.23015379814700
30
0.000000000000000
11
-24.3438752783965
21
5.14771663088111
31
0.000000000000000
  0
LINE
  5
F101E1
330
F101E2
100
AcDbEntity
8
Geo
100
AcDbLine
10
-24.3438752783965
20
5.14771663088111
30
0.000000000000000
11
-24.2438752783965
21
5.06496945197012
31
0.000000000000000
  0
LINE
  5
F101E3
330
F101E4
100
AcDbEntity
8
Geo
100
AcDbLine
10
-24.2438752783965
20
5.06496945197012
30
0.000000000000000
11
-24.1438752783965
21
4.98194867339842
31
0.000000000000000
  0
LINE
  5
F101E5
330
F101E6
100
AcDbEntity
8
Geo
100
AcDbLine
10
-24.1438752783965
20
4.98194867339842
30
0.000000000000000
11
-24.0438752783965
21
4.89869082754492
31
0.000000000000000
  0
LINE
  5
F101E7
330
F101E8
100
AcDbEntity
8
Geo
100
AcDbLine
10
-24.0438752783965
20
4.89869082754492
30
0.000000000000000
11
-23.9438752783965
21
4.81523255110737
31
0.000000000000000
  0
LINE
  5
F101E9
330
F101EA
100
AcDbEntity
8
Geo
100
AcDbLine
10
-23.9438752783965
20
4.81523255110737
30
0.000000000000000
11
-23.8438752783965
21
4.73161056898079
31
0.000000000000000
  0
LINE
  5
F101EB
330
F101EC
100
AcDbEntity
8
Geo
100
AcDbLine
10
-23.8438752783965
20
4.73161056898079
30
0.000000000000000
11
-23.7438752783965
21
4.64786167809710
31
0.000000000000000
  0
LINE
  5
F101ED
330
F101EE
100
AcDbEntity
8
Geo
100
AcDbLine
10
-23.7438752783965
20
4.64786167809710
30
0.000000000000000
11
-23.6438752783965
21
4.56402273123301
31
0.000000000000000
  0
LINE
  5
F101EF
330
F101F0
100
AcDbEntity
8
Geo
100
AcDbLine
10
-23.6438752783965
20
4.56402273123301
30
0.000000000000000
11
-23.5438752783965
21
4.48013062079337
31
0.000000000000000
  0
LINE
  5
F101F1
330
F101F2
100
AcDbEntity
8
Geo
100
AcDbLine
10
-23.5438752783965
20
4.48013062079337
30
0.000000000000000
11
-23.4438752783965
21
4.39622226257708
31
0.000000000000000
  0
LINE
  5
F101F3
330
F101F4
100
AcDbEntity
8
Geo
100
AcDbLine
10
-23.4438752783965
20
4.39622226257708
30
0.000000000000000
11
-23.3438752783965
21
4.31233457953269
31
0.000000000000000
  0
LINE
  5
F101F5
330
F101F6
100
AcDbEntity
8
Geo
100
AcDbLine
10
-23.3438752783965
20
4.31233457953269
30
0.000000000000000
11
-23.2438752783965
21
4.22850448551087
31
0.000000000000000
  0
LINE
  5
F101F7
330
F101F8
100
AcDbEntity
8
Geo
100
AcDbLine
10
-23.2438752783965
20
4.22850448551087
30
0.000000000000000
11
-23.1438752783965
21
4.14476886902087
31
0.000000000000000
  0
LINE
  5
F101F9
330
F101FA
100
AcDbEntity
8
Geo
100
AcDbLine
10
-23.1438752783965
20
4.14476886902087
30
0.000000000000000
11
-23.0438752783965
21
4.06116457699816
31
0.000000000000000
  0
LINE
  5
F101FB
330
F101FC
100
AcDbEntity
8
Geo
100
AcDbLine
10
-23.0438752783965
20
4.06116457699816
30
0.000000000000000
11
-22.9438752783965
21
3.97772839859032
31
0.000000000000000
  0
LINE
  5
F101FD
330
F101FE
100
AcDbEntity
8
Geo
100
AcDbLine
10
-22.9438752783965
20
3.97772839859032
30
0.000000000000000
11
-22.8438752783965
21
3.89449704896836
31
0.000000000000000
  0
LINE
  5
F101FF
330
F10200
100
AcDbEntity
8
Geo
100
AcDbLine
10
-22.8438752783965
20
3.89449704896836
30
0.000000000000000
11
-22.7438752783965
21
3.81150715317068
31
0.000000000000000
  0
LINE
  5
F10201
330
F10202
100
AcDbEntity
8
Geo
100
AcDbLine
10
-22.7438752783965
20
3.81150715317068
30
0.000000000000000
11
-22.6438752783965
21
3.72879522998655
31
0.000000000000000
  0
LINE
  5
F10203
330
F10204
100
AcDbEntity
8
Geo
100
AcDbLine
10
-22.6438752783965
20
3.72879522998655
30
0.000000000000000
11
-22.5438752783965
21
3.64639767588648
31
0.000000000000000
  0
LINE
  5
F10205
330
F10206
100
AcDbEntity
8
Geo
100
AcDbLine
10
-22.5438752783965
20
3.64639767588648
30
0.000000000000000
11
-22.4438752783965
21
3.56435074900631
31
0.000000000000000
  0
LINE
  5
F10207
330
F10208
100
AcDbEntity
8
Geo
100
AcDbLine
10
-22.4438752783965
20
3.56435074900631
30
0.000000000000000
11
-22.3438752783965
21
3.48269055319224
31
0.000000000000000
  0
LINE
  5
F10209
330
F1020A
100
AcDbEntity
8
Geo
100
AcDbLine
10
-22.3438752783965
20
3.48269055319224
30
0.000000000000000
11
-22.2438752783965
21
3.40145302211374
31
0.000000000000000
  0
LINE
  5
F1020B
330
F1020C
100
AcDbEntity
8
Geo
100
AcDbLine
10
-22.2438752783965
20
3.40145302211374
30
0.000000000000000
11
-22.1438752783965
21
3.32067390345130
31
0.000000000000000
  0
LINE
  5
F1020D
330
F1020E
100
AcDbEntity
8
Geo
100
AcDbLine
10
-22.1438752783965
20
3.32067390345130
30
0.000000000000000
11
-22.0438752783965
21
3.24038874316608
31
0.000000000000000
  0
LINE
  5
F1020F
330
F10210
100
AcDbEntity
8
Geo
100
AcDbLine
10
-22.0438752783965
20
3.24038874316608
30
0.000000000000000
11
-21.9438752783965
21
3.16063286985830
31
0.000000000000000
  0
LINE
  5
F10211
330
F10212
100
AcDbEntity
8
Geo
100
AcDbLine
10
-21.9438752783965
20
3.16063286985830
30
0.000000000000000
11
-21.8438752783965
21
3.08144137922129
31
0.000000000000000
  0
LINE
  5
F10213
330
F10214
100
AcDbEntity
8
Geo
100
AcDbLine
10
-21.8438752783965
20
3.08144137922129
30
0.000000000000000
11
-21.7438752783965
21
3.00284911859799
31
0.000000000000000
  0
LINE
  5
F10215
330
F10216
100
AcDbEntity
8
Geo
100
AcDbLine
10
-21.7438752783965
20
3.00284911859799
30
0.000000000000000
11
-21.6438752783965
21
2.92489067164678
31
0.000000000000000
  0
LINE
  5
F10217
330
F10218
100
AcDbEntity
8
Geo
100
AcDbLine
10
-21.6438752783965
20
2.92489067164678
30
0.000000000000000
11
-21.5438752783965
21
2.84760034312331
31
0.000000000000000
  0
LINE
  5
F10219
330
F1021A
100
AcDbEntity
8
Geo
100
AcDbLine
10
-21.5438752783965
20
2.84760034312331
30
0.000000000000000
11
-21.4438752783965
21
2.77101214378509
31
0.000000000000000
  0
LINE
  5
F1021B
330
F1021C
100
AcDbEntity
8
Geo
100
AcDbLine
10
-21.4438752783965
20
2.77101214378509
30
0.000000000000000
11
-21.3438752783965
21
2.69515977542540
31
0.000000000000000
  0
LINE
  5
F1021D
330
F1021E
100
AcDbEntity
8
Geo
100
AcDbLine
10
-21.3438752783965
20
2.69515977542540
30
0.000000000000000
11
-21.2438752783965
21
2.62007661604322
31
0.000000000000000
  0
LINE
  5
F1021F
330
F10220
100
AcDbEntity
8
Geo
100
AcDbLine
10
-21.2438752783965
20
2.62007661604322
30
0.000000000000000
11
-21.1438752783965
21
2.54579570515559
31
0.000000000000000
  0
LINE
  5
F10221
330
F10222
100
AcDbEntity
8
Geo
100
AcDbLine
10
-21.1438752783965
20
2.54579570515559
30
0.000000000000000
11
-21.0438752783965
21
2.47234972925894
31
0.000000000000000
  0
LINE
  5
F10223
330
F10224
100
AcDbEntity
8
Geo
100
AcDbLine
10
-21.0438752783965
20
2.47234972925894
30
0.000000000000000
11
-20.9438752783965
21
2.39977100744576
31
0.000000000000000
  0
LINE
  5
F10225
330
F10226
100
AcDbEntity
8
Geo
100
AcDbLine
10
-20.9438752783965
20
2.39977100744576
30
0.000000000000000
11
-20.8438752783965
21
2.32809147718292
31
0.000000000000000
  0
LINE
  5
F10227
330
F10228
100
AcDbEntity
8
Geo
100
AcDbLine
10
-20.8438752783965
20
2.32809147718292
30
0.000000000000000
11
-20.7438752783965
21
2.25734268025796
31
0.000000000000000
  0
LINE
  5
F10229
330
F1022A
100
AcDbEntity
8
Geo
100
AcDbLine
10
-20.7438752783965
20
2.25734268025796
30
0.000000000000000
11
-20.6438752783965
21
2.18755574889950
31
0.000000000000000
  0
LINE
  5
F1022B
330
F1022C
100
AcDbEntity
8
Geo
100
AcDbLine
10
-20.6438752783965
20
2.18755574889950
30
0.000000000000000
11
-20.5438752783965
21
2.11876139207776
31
0.000000000000000
  0
LINE
  5
F1022D
330
F1022E
100
AcDbEntity
8
Geo
100
AcDbLine
10
-20.5438752783965
20
2.11876139207776
30
0.000000000000000
11
-20.4438752783965
21
2.05098988199153
31
0.000000000000000
  0
LINE
  5
F1022F
330
F10230
100
AcDbEntity
8
Geo
100
AcDbLine
10
-20.4438752783965
20
2.05098988199153
30
0.000000000000000
11
-20.3438752783965
21
1.98427104074711
31
0.000000000000000
  0
LINE
  5
F10231
330
F10232
100
AcDbEntity
8
Geo
100
AcDbLine
10
-20.3438752783965
20
1.98427104074711
30
0.000000000000000
11
-20.2438752783965
21
1.91863422723552
31
0.000000000000000
  0
LINE
  5
F10233
330
F10234
100
AcDbEntity
8
Geo
100
AcDbLine
10
-20.2438752783965
20
1.91863422723552
30
0.000000000000000
11
-20.1438752783965
21
1.85410832421336
31
0.000000000000000
  0
LINE
  5
F10235
330
F10236
100
AcDbEntity
8
Geo
100
AcDbLine
10
-20.1438752783965
20
1.85410832421336
30
0.000000000000000
11
-20.0438752783965
21
1.79072172559333
31
0.000000000000000
  0
LINE
  5
F10237
330
F10238
100
AcDbEntity
8
Geo
100
AcDbLine
10
-20.0438752783965
20
1.79072172559333
30
0.000000000000000
11
-19.9438752783965
21
1.72850232394978
31
0.000000000000000
  0
LINE
  5
F10239
330
F1023A
100
AcDbEntity
8
Geo
100
AcDbLine
10
-19.9438752783965
20
1.72850232394978
30
0.000000000000000
11
-19.8438752783965
21
1.66747749824489
31
0.000000000000000
  0
LINE
  5
F1023B
330
F1023C
100
AcDbEntity
8
Geo
100
AcDbLine
10
-19.8438752783965
20
1.66747749824489
30
0.000000000000000
11
-19.7438752783965
21
1.60767410178084
31
0.000000000000000
  0
LINE
  5
F1023D
330
F1023E
100
AcDbEntity
8
Geo
100
AcDbLine
10
-19.7438752783965
20
1.60767410178084
30
0.000000000000000
11
-19.6438752783965
21
1.54911845038336
31
0.000000000000000
  0
LINE
  5
F1023F
330
F10240
100
AcDbEntity
8
Geo
100
AcDbLine
10
-19.6438752783965
20
1.54911845038336
30
0.000000000000000
11
-19.5438752783965
21
1.49183631082170
31
0.000000000000000
  0
LINE
  5
F10241
330
F10242
100
AcDbEntity
8
Geo
100
AcDbLine
10
-19.5438752783965
20
1.49183631082170
30
0.000000000000000
11
-19.4438752783965
21
1.43585288947024
31
0.000000000000000
  0
LINE
  5
F10243
330
F10244
100
AcDbEntity
8
Geo
100
AcDbLine
10
-19.4438752783965
20
1.43585288947024
30
0.000000000000000
11
-19.3438752783965
21
1.38119282121674
31
0.000000000000000
  0
LINE
  5
F10245
330
F10246
100
AcDbEntity
8
Geo
100
AcDbLine
10
-19.3438752783965
20
1.38119282121674
30
0.000000000000000
11
-19.2438752783965
21
1.32788015862201
31
0.000000000000000
  0
LINE
  5
F10247
330
F10248
100
AcDbEntity
8
Geo
100
AcDbLine
10
-19.2438752783965
20
1.32788015862201
30
0.000000000000000
11
-19.1438752783965
21
1.27593836133583
31
0.000000000000000
  0
LINE
  5
F10249
330
F1024A
100
AcDbEntity
8
Geo
100
AcDbLine
10
-19.1438752783965
20
1.27593836133583
30
0.000000000000000
11
-19.0438752783965
21
1.22539028577383
31
0.000000000000000
  0
LINE
  5
F1024B
330
F1024C
100
AcDbEntity
8
Geo
100
AcDbLine
10
-19.0438752783965
20
1.22539028577383
30
0.000000000000000
11
-18.9438752783965
21
1.17625817505972
31
0.000000000000000
  0
LINE
  5
F1024D
330
F1024E
100
AcDbEntity
8
Geo
100
AcDbLine
10
-18.9438752783965
20
1.17625817505972
30
0.000000000000000
11
-18.8438752783965
21
1.12856364923750
31
0.000000000000000
  0
LINE
  5
F1024F
330
F10250
100
AcDbEntity
8
Geo
100
AcDbLine
10
-18.8438752783965
20
1.12856364923750
30
0.000000000000000
11
-18.7438752783965
21
1.08232769575778
31
0.000000000000000
  0
LINE
  5
F10251
330
F10252
100
AcDbEntity
8
Geo
100
AcDbLine
10
-18.7438752783965
20
1.08232769575778
30
0.000000000000000
11
-18.6438752783965
21
1.03757066024247
31
0.000000000000000
  0
LINE
  5
F10253
330
F10254
100
AcDbEntity
8
Geo
100
AcDbLine
10
-18.6438752783965
20
1.03757066024247
30
0.000000000000000
11
-18.5438752783965
21
0.994312237531918
31
0.000000000000000
  0
LINE
  5
F10255
330
F10256
100
AcDbEntity
8
Geo
100
AcDbLine
10
-18.5438752783965
20
0.994312237531918
30
0.000000000000000
11
-18.4438752783965
21
0.952571463018438
31
0.000000000000000
  0
LINE
  5
F10257
330
F10258
100
AcDbEntity
8
Geo
100
AcDbLine
10
-18.4438752783965
20
0.952571463018438
30
0.000000000000000
11
-18.3438752783965
21
0.912366704269958
31
0.000000000000000
  0
LINE
  5
F10259
330
F1025A
100
AcDbEntity
8
Geo
100
AcDbLine
10
-18.3438752783965
20
0.912366704269958
30
0.000000000000000
11
-18.2438752783965
21
0.873715652947608
31
0.000000000000000
  0
LINE
  5
F1025B
330
F1025C
100
AcDbEntity
8
Geo
100
AcDbLine
10
-18.2438752783965
20
0.873715652947608
30
0.000000000000000
11
-18.1438752783965
21
0.836635317020668
31
0.000000000000000
  0
LINE
  5
F1025D
330
F1025E
100
AcDbEntity
8
Geo
100
AcDbLine
10
-18.1438752783965
20
0.836635317020668
30
0.000000000000000
11
-18.0438752783965
21
0.801142013282428
31
0.000000000000000
  0
LINE
  5
F1025F
330
F10260
100
AcDbEntity
8
Geo
100
AcDbLine
10
-18.0438752783965
20
0.801142013282428
30
0.000000000000000
11
-17.9438752783965
21
0.767251360170128
31
0.000000000000000
  0
LINE
  5
F10261
330
F10262
100
AcDbEntity
8
Geo
100
AcDbLine
10
-17.9438752783965
20
0.767251360170128
30
0.000000000000000
11
-17.8438752783965
21
0.734978270892298
31
0.000000000000000
  0
LINE
  5
F10263
330
F10264
100
AcDbEntity
8
Geo
100
AcDbLine
10
-17.8438752783965
20
0.734978270892298
30
0.000000000000000
11
-17.7438752783965
21
0.704336946866268
31
0.000000000000000
  0
LINE
  5
F10265
330
F10266
100
AcDbEntity
8
Geo
100
AcDbLine
10
-17.7438752783965
20
0.704336946866268
30
0.000000000000000
11
-17.6438752783965
21
0.675340871469098
31
0.000000000000000
  0
LINE
  5
F10267
330
F10268
100
AcDbEntity
8
Geo
100
AcDbLine
10
-17.6438752783965
20
0.675340871469098
30
0.000000000000000
11
-17.5438752783965
21
0.648002804104288
31
0.000000000000000
  0
LINE
  5
F10269
330
F1026A
100
AcDbEntity
8
Geo
100
AcDbLine
10
-17.5438752783965
20
0.648002804104288
30
0.000000000000000
11
-17.4438752783965
21
0.622334774587188
31
0.000000000000000
  0
LINE
  5
F1026B
330
F1026C
100
AcDbEntity
8
Geo
100
AcDbLine
10
-17.4438752783965
20
0.622334774587188
30
0.000000000000000
11
-17.3438752783965
21
0.598348077851368
31
0.000000000000000
  0
LINE
  5
F1026D
330
F1026E
100
AcDbEntity
8
Geo
100
AcDbLine
10
-17.3438752783965
20
0.598348077851368
30
0.000000000000000
11
-17.2438752783965
21
0.576053268978448
31
0.000000000000000
  0
LINE
  5
F1026F
330
F10270
100
AcDbEntity
8
Geo
100
AcDbLine
10
-17.2438752783965
20
0.576053268978448
30
0.000000000000000
11
-17.1438752783965
21
0.555460158553448
31
0.000000000000000
  0
LINE
  5
F10271
330
F10272
100
AcDbEntity
8
Geo
100
AcDbLine
10
-17.1438752783965
20
0.555460158553448
30
0.000000000000000
11
-17.0438752783965
21
0.536577808347718
31
0.000000000000000
  0
LINE
  5
F10273
330
F10274
100
AcDbEntity
8
Geo
100
AcDbLine
10
-17.0438752783965
20
0.536577808347718
30
0.000000000000000
11
-16.9438752783965
21
0.519414527331408
31
0.000000000000000
  0
LINE
  5
F10275
330
F10276
100
AcDbEntity
8
Geo
100
AcDbLine
10
-16.9438752783965
20
0.519414527331408
30
0.000000000000000
11
-16.8438752783965
21
0.503977868017258
31
0.000000000000000
  0
LINE
  5
F10277
330
F10278
100
AcDbEntity
8
Geo
100
AcDbLine
10
-16.8438752783965
20
0.503977868017258
30
0.000000000000000
11
-16.7438752783965
21
0.490274623137088
31
0.000000000000000
  0
LINE
  5
F10279
330
F1027A
100
AcDbEntity
8
Geo
100
AcDbLine
10
-16.7438752783965
20
0.490274623137088
30
0.000000000000000
11
-16.6438752783965
21
0.478310822652858
31
0.000000000000000
  0
LINE
  5
F1027B
330
F1027C
100
AcDbEntity
8
Geo
100
AcDbLine
10
-16.6438752783965
20
0.478310822652858
30
0.000000000000000
11
-16.5438752783965
21
0.468091731103138
31
0.000000000000000
  0
LINE
  5
F1027D
330
F1027E
100
AcDbEntity
8
Geo
100
AcDbLine
10
-16.5438752783965
20
0.468091731103138
30
0.000000000000000
11
-16.4438752783965
21
0.459621845286588
31
0.000000000000000
  0
LINE
  5
F1027F
330
F10280
100
AcDbEntity
8
Geo
100
AcDbLine
10
-16.4438752783965
20
0.459621845286588
30
0.000000000000000
11
-16.3438752783965
21
0.452904892283138
31
0.000000000000000
  0
LINE
  5
F10281
330
F10282
100
AcDbEntity
8
Geo
100
AcDbLine
10
-16.3438752783965
20
0.452904892283138
30
0.000000000000000
11
-16.2438752783965
21
0.447943827813938
31
0.000000000000000
  0
LINE
  5
F10283
330
F10284
100
AcDbEntity
8
Geo
100
AcDbLine
10
-16.2438752783965
20
0.447943827813938
30
0.000000000000000
11
-16.1438752783965
21
0.444740834940768
31
0.000000000000000
  0
LINE
  5
F10285
330
F10286
100
AcDbEntity
8
Geo
100
AcDbLine
10
-16.1438752783965
20
0.444740834940768
30
0.000000000000000
11
-16.0438752783965
21
0.443297323105338
31
0.000000000000000
  0
LINE
  5
F10287
330
F10288
100
AcDbEntity
8
Geo
100
AcDbLine
10
-27.2438752783965
20
5.31826672834640
30
0.000000000000000
11
-27.1438752783965
21
5.25901537775678
31
0.000000000000000
  0
LINE
  5
F10289
330
F1028A
100
AcDbEntity
8
Geo
100
AcDbLine
10
-27.1438752783965
20
5.25901537775678
30
0.000000000000000
11
-27.0438752783965
21
5.17874878845414
31
0.000000000000000
  0
LINE
  5
F1028B
330
F1028C
100
AcDbEntity
8
Geo
100
AcDbLine
10
-27.0438752783965
20
5.17874878845414
30
0.000000000000000
11
-26.9438752783965
21
5.09611389993982
31
0.000000000000000
  0
LINE
  5
F1028D
330
F1028E
100
AcDbEntity
8
Geo
100
AcDbLine
10
-26.9438752783965
20
5.09611389993982
30
0.000000000000000
11
-26.8438752783965
21
5.01319170699359
31
0.000000000000000
  0
LINE
  5
F1028F
330
F10290
100
AcDbEntity
8
Geo
100
AcDbLine
10
-26.8438752783965
20
5.01319170699359
30
0.000000000000000
11
-26.7438752783965
21
4.93001869861286
31
0.000000000000000
  0
LINE
  5
F10291
330
F10292
100
AcDbEntity
8
Geo
100
AcDbLine
10
-26.7438752783965
20
4.93001869861286
30
0.000000000000000
11
-26.6438752783965
21
4.84663147416359
31
0.000000000000000
  0
LINE
  5
F10293
330
F10294
100
AcDbEntity
8
Geo
100
AcDbLine
10
-26.6438752783965
20
4.84663147416359
30
0.000000000000000
11
-26.5438752783965
21
4.76306672727514
31
0.000000000000000
  0
LINE
  5
F10295
330
F10296
100
AcDbEntity
8
Geo
100
AcDbLine
10
-26.5438752783965
20
4.76306672727514
30
0.000000000000000
11
-26.4438752783965
21
4.67936122969370
31
0.000000000000000
  0
LINE
  5
F10297
330
F10298
100
AcDbEntity
8
Geo
100
AcDbLine
10
-26.4438752783965
20
4.67936122969370
30
0.000000000000000
11
-26.3438752783965
21
4.59555181510123
31
0.000000000000000
  0
LINE
  5
F10299
330
F1029A
100
AcDbEntity
8
Geo
100
AcDbLine
10
-26.3438752783965
20
4.59555181510123
30
0.000000000000000
11
-26.2438752783965
21
4.51167536290723
31
0.000000000000000
  0
LINE
  5
F1029B
330
F1029C
100
AcDbEntity
8
Geo
100
AcDbLine
10
-26.2438752783965
20
4.51167536290723
30
0.000000000000000
11
-26.1438752783965
21
4.42776878202037
31
0.000000000000000
  0
LINE
  5
F1029D
330
F1029E
100
AcDbEntity
8
Geo
100
AcDbLine
10
-26.1438752783965
20
4.42776878202037
30
0.000000000000000
11
-26.0438752783965
21
4.34386899460709
31
0.000000000000000
  0
LINE
  5
F1029F
330
F102A0
100
AcDbEntity
8
Geo
100
AcDbLine
10
-26.0438752783965
20
4.34386899460709
30
0.000000000000000
11
-25.9438752783965
21
4.26001291984447
31
0.000000000000000
  0
LINE
  5
F102A1
330
F102A2
100
AcDbEntity
8
Geo
100
AcDbLine
10
-25.9438752783965
20
4.26001291984447
30
0.000000000000000
11
-25.8438752783965
21
4.17623745767430
31
0.000000000000000
  0
LINE
  5
F102A3
330
F102A4
100
AcDbEntity
8
Geo
100
AcDbLine
10
-25.8438752783965
20
4.17623745767430
30
0.000000000000000
11
-25.7438752783965
21
4.09257947256570
31
0.000000000000000
  0
LINE
  5
F102A5
330
F102A6
100
AcDbEntity
8
Geo
100
AcDbLine
10
-25.7438752783965
20
4.09257947256570
30
0.000000000000000
11
-25.6438752783965
21
4.00907577729328
31
0.000000000000000
  0
LINE
  5
F102A7
330
F102A8
100
AcDbEntity
8
Geo
100
AcDbLine
10
-25.6438752783965
20
4.00907577729328
30
0.000000000000000
11
-25.5438752783965
21
3.92576311673813
31
0.000000000000000
  0
LINE
  5
F102A9
330
F102AA
100
AcDbEntity
8
Geo
100
AcDbLine
10
-25.5438752783965
20
3.92576311673813
30
0.000000000000000
11
-25.4438752783965
21
3.84267815171861
31
0.000000000000000
  0
LINE
  5
F102AB
330
F102AC
100
AcDbEntity
8
Geo
100
AcDbLine
10
-25.4438752783965
20
3.84267815171861
30
0.000000000000000
11
-25.3438752783965
21
3.75985744285817
31
0.000000000000000
  0
LINE
  5
F102AD
330
F102AE
100
AcDbEntity
8
Geo
100
AcDbLine
10
-25.3438752783965
20
3.75985744285817
30
0.000000000000000
11
-25.2438752783965
21
3.67733743449725
31
0.000000000000000
  0
LINE
  5
F102AF
330
F102B0
100
AcDbEntity
8
Geo
100
AcDbLine
10
-25.2438752783965
20
3.67733743449725
30
0.000000000000000
11
-25.1438752783965
21
3.59515443865634
31
0.000000000000000
  0
LINE
  5
F102B1
330
F102B2
100
AcDbEntity
8
Geo
100
AcDbLine
10
-25.1438752783965
20
3.59515443865634
30
0.000000000000000
11
-25.0438752783965
21
3.51334461905729
31
0.000000000000000
  0
LINE
  5
F102B3
330
F102B4
100
AcDbEntity
8
Geo
100
AcDbLine
10
-25.0438752783965
20
3.51334461905729
30
0.000000000000000
11
-24.9438752783965
21
3.43194397520986
31
0.000000000000000
  0
LINE
  5
F102B5
330
F102B6
100
AcDbEntity
8
Geo
100
AcDbLine
10
-24.9438752783965
20
3.43194397520986
30
0.000000000000000
11
-24.8438752783965
21
3.35098832657051
31
0.000000000000000
  0
LINE
  5
F102B7
330
F102B8
100
AcDbEntity
8
Geo
100
AcDbLine
10
-24.8438752783965
20
3.35098832657051
30
0.000000000000000
11
-24.7438752783965
21
3.27051329678050
31
0.000000000000000
  0
LINE
  5
F102B9
330
F102BA
100
AcDbEntity
8
Geo
100
AcDbLine
10
-24.7438752783965
20
3.27051329678050
30
0.000000000000000
11
-24.6438752783965
21
3.19055429799001
31
0.000000000000000
  0
LINE
  5
F102BB
330
F102BC
100
AcDbEntity
8
Geo
100
AcDbLine
10
-24.6438752783965
20
3.19055429799001
30
0.000000000000000
11
-24.5438752783965
21
3.11114651527551
31
0.000000000000000
  0
LINE
  5
F102BD
330
F102BE
100
AcDbEntity
8
Geo
100
AcDbLine
10
-24.5438752783965
20
3.11114651527551
30
0.000000000000000
11
-24.4438752783965
21
3.03232489115688
31
0.000000000000000
  0
LINE
  5
F102BF
330
F102C0
100
AcDbEntity
8
Geo
100
AcDbLine
10
-24.4438752783965
20
3.03232489115688
30
0.000000000000000
11
-24.3438752783965
21
2.95412411022138
31
0.000000000000000
  0
LINE
  5
F102C1
330
F102C2
100
AcDbEntity
8
Geo
100
AcDbLine
10
-24.3438752783965
20
2.95412411022138
30
0.000000000000000
11
-24.2438752783965
21
2.87657858386107
31
0.000000000000000
  0
LINE
  5
F102C3
330
F102C4
100
AcDbEntity
8
Geo
100
AcDbLine
10
-24.2438752783965
20
2.87657858386107
30
0.000000000000000
11
-24.1438752783965
21
2.79972243513043
31
0.000000000000000
  0
LINE
  5
F102C5
330
F102C6
100
AcDbEntity
8
Geo
100
AcDbLine
10
-24.1438752783965
20
2.79972243513043
30
0.000000000000000
11
-24.0438752783965
21
2.72358948373095
31
0.000000000000000
  0
LINE
  5
F102C7
330
F102C8
100
AcDbEntity
8
Geo
100
AcDbLine
10
-24.0438752783965
20
2.72358948373095
30
0.000000000000000
11
-23.9438752783965
21
2.64821323112907
31
0.000000000000000
  0
LINE
  5
F102C9
330
F102CA
100
AcDbEntity
8
Geo
100
AcDbLine
10
-23.9438752783965
20
2.64821323112907
30
0.000000000000000
11
-23.8438752783965
21
2.57362684581428
31
0.000000000000000
  0
LINE
  5
F102CB
330
F102CC
100
AcDbEntity
8
Geo
100
AcDbLine
10
-23.8438752783965
20
2.57362684581428
30
0.000000000000000
11
-23.7438752783965
21
2.49986314870365
31
0.000000000000000
  0
LINE
  5
F102CD
330
F102CE
100
AcDbEntity
8
Geo
100
AcDbLine
10
-23.7438752783965
20
2.49986314870365
30
0.000000000000000
11
-23.6438752783965
21
2.42695459869940
31
0.000000000000000
  0
LINE
  5
F102CF
330
F102D0
100
AcDbEntity
8
Geo
100
AcDbLine
10
-23.6438752783965
20
2.42695459869940
30
0.000000000000000
11
-23.5438752783965
21
2.35493327840565
31
0.000000000000000
  0
LINE
  5
F102D1
330
F102D2
100
AcDbEntity
8
Geo
100
AcDbLine
10
-23.5438752783965
20
2.35493327840565
30
0.000000000000000
11
-23.4438752783965
21
2.28383088001091
31
0.000000000000000
  0
LINE
  5
F102D3
330
F102D4
100
AcDbEntity
8
Geo
100
AcDbLine
10
-23.4438752783965
20
2.28383088001091
30
0.000000000000000
11
-23.3438752783965
21
2.21367869134219
31
0.000000000000000
  0
LINE
  5
F102D5
330
F102D6
100
AcDbEntity
8
Geo
100
AcDbLine
10
-23.3438752783965
20
2.21367869134219
30
0.000000000000000
11
-23.2438752783965
21
2.14450758209720
31
0.000000000000000
  0
LINE
  5
F102D7
330
F102D8
100
AcDbEntity
8
Geo
100
AcDbLine
10
-23.2438752783965
20
2.14450758209720
30
0.000000000000000
11
-23.1438752783965
21
2.07634799026045
31
0.000000000000000
  0
LINE
  5
F102D9
330
F102DA
100
AcDbEntity
8
Geo
100
AcDbLine
10
-23.1438752783965
20
2.07634799026045
30
0.000000000000000
11
-23.0438752783965
21
2.00922990870937
31
0.000000000000000
  0
LINE
  5
F102DB
330
F102DC
100
AcDbEntity
8
Geo
100
AcDbLine
10
-23.0438752783965
20
2.00922990870937
30
0.000000000000000
11
-22.9438752783965
21
1.94318287201626
31
0.000000000000000
  0
LINE
  5
F102DD
330
F102DE
100
AcDbEntity
8
Geo
100
AcDbLine
10
-22.9438752783965
20
1.94318287201626
30
0.000000000000000
11
-22.8438752783965
21
1.87823594345191
31
0.000000000000000
  0
LINE
  5
F102DF
330
F102E0
100
AcDbEntity
8
Geo
100
AcDbLine
10
-22.8438752783965
20
1.87823594345191
30
0.000000000000000
11
-22.7438752783965
21
1.81441770219668
31
0.000000000000000
  0
LINE
  5
F102E1
330
F102E2
100
AcDbEntity
8
Geo
100
AcDbLine
10
-22.7438752783965
20
1.81441770219668
30
0.000000000000000
11
-22.6438752783965
21
1.75175623076450
31
0.000000000000000
  0
LINE
  5
F102E3
330
F102E4
100
AcDbEntity
8
Geo
100
AcDbLine
10
-22.6438752783965
20
1.75175623076450
30
0.000000000000000
11
-22.5438752783965
21
1.69027910264549
31
0.000000000000000
  0
LINE
  5
F102E5
330
F102E6
100
AcDbEntity
8
Geo
100
AcDbLine
10
-22.5438752783965
20
1.69027910264549
30
0.000000000000000
11
-22.4438752783965
21
1.63001337017253
31
0.000000000000000
  0
LINE
  5
F102E7
330
F102E8
100
AcDbEntity
8
Geo
100
AcDbLine
10
-22.4438752783965
20
1.63001337017253
30
0.000000000000000
11
-22.3438752783965
21
1.57098555261721
31
0.000000000000000
  0
LINE
  5
F102E9
330
F102EA
100
AcDbEntity
8
Geo
100
AcDbLine
10
-22.3438752783965
20
1.57098555261721
30
0.000000000000000
11
-22.2438752783965
21
1.51322162452029
31
0.000000000000000
  0
LINE
  5
F102EB
330
F102EC
100
AcDbEntity
8
Geo
100
AcDbLine
10
-22.2438752783965
20
1.51322162452029
30
0.000000000000000
11
-22.1438752783965
21
1.45674700426190
31
0.000000000000000
  0
LINE
  5
F102ED
330
F102EE
100
AcDbEntity
8
Geo
100
AcDbLine
10
-22.1438752783965
20
1.45674700426190
30
0.000000000000000
11
-22.0438752783965
21
1.40158654287647
31
0.000000000000000
  0
LINE
  5
F102EF
330
F102F0
100
AcDbEntity
8
Geo
100
AcDbLine
10
-22.0438752783965
20
1.40158654287647
30
0.000000000000000
11
-21.9438752783965
21
1.34776451311728
31
0.000000000000000
  0
LINE
  5
F102F1
330
F102F2
100
AcDbEntity
8
Geo
100
AcDbLine
10
-21.9438752783965
20
1.34776451311728
30
0.000000000000000
11
-21.8438752783965
21
1.29530459877553
31
0.000000000000000
  0
LINE
  5
F102F3
330
F102F4
100
AcDbEntity
8
Geo
100
AcDbLine
10
-21.8438752783965
20
1.29530459877553
30
0.000000000000000
11
-21.7438752783965
21
1.24422988425854
31
0.000000000000000
  0
LINE
  5
F102F5
330
F102F6
100
AcDbEntity
8
Geo
100
AcDbLine
10
-21.7438752783965
20
1.24422988425854
30
0.000000000000000
11
-21.6438752783965
21
1.19456284443170
31
0.000000000000000
  0
LINE
  5
F102F7
330
F102F8
100
AcDbEntity
8
Geo
100
AcDbLine
10
-21.6438752783965
20
1.19456284443170
30
0.000000000000000
11
-21.5438752783965
21
1.14632533472867
31
0.000000000000000
  0
LINE
  5
F102F9
330
F102FA
100
AcDbEntity
8
Geo
100
AcDbLine
10
-21.5438752783965
20
1.14632533472867
30
0.000000000000000
11
-21.4438752783965
21
1.09953858153413
31
0.000000000000000
  0
LINE
  5
F102FB
330
F102FC
100
AcDbEntity
8
Geo
100
AcDbLine
10
-21.4438752783965
20
1.09953858153413
30
0.000000000000000
11
-21.3438752783965
21
1.05422317284333
31
0.000000000000000
  0
LINE
  5
F102FD
330
F102FE
100
AcDbEntity
8
Geo
100
AcDbLine
10
-21.3438752783965
20
1.05422317284333
30
0.000000000000000
11
-21.2438752783965
21
1.01039904920261
31
0.000000000000000
  0
LINE
  5
F102FF
330
F10300
100
AcDbEntity
8
Geo
100
AcDbLine
10
-21.2438752783965
20
1.01039904920261
30
0.000000000000000
11
-21.1438752783965
21
0.968085494934708
31
0.000000000000000
  0
LINE
  5
F10301
330
F10302
100
AcDbEntity
8
Geo
100
AcDbLine
10
-21.1438752783965
20
0.968085494934708
30
0.000000000000000
11
-21.0438752783965
21
0.927301129653008
31
0.000000000000000
  0
LINE
  5
F10303
330
F10304
100
AcDbEntity
8
Geo
100
AcDbLine
10
-21.0438752783965
20
0.927301129653008
30
0.000000000000000
11
-20.9438752783965
21
0.888063900068078
31
0.000000000000000
  0
LINE
  5
F10305
330
F10306
100
AcDbEntity
8
Geo
100
AcDbLine
10
-20.9438752783965
20
0.888063900068078
30
0.000000000000000
11
-20.8438752783965
21
0.850391072090508
31
0.000000000000000
  0
LINE
  5
F10307
330
F10308
100
AcDbEntity
8
Geo
100
AcDbLine
10
-20.8438752783965
20
0.850391072090508
30
0.000000000000000
11
-20.7438752783965
21
0.814299223233168
31
0.000000000000000
  0
LINE
  5
F10309
330
F1030A
100
AcDbEntity
8
Geo
100
AcDbLine
10
-20.7438752783965
20
0.814299223233168
30
0.000000000000000
11
-20.6438752783965
21
0.779804235316508
31
0.000000000000000
  0
LINE
  5
F1030B
330
F1030C
100
AcDbEntity
8
Geo
100
AcDbLine
10
-20.6438752783965
20
0.779804235316508
30
0.000000000000000
11
-20.5438752783965
21
0.746921287479888
31
0.000000000000000
  0
LINE
  5
F1030D
330
F1030E
100
AcDbEntity
8
Geo
100
AcDbLine
10
-20.5438752783965
20
0.746921287479888
30
0.000000000000000
11
-20.4438752783965
21
0.715664849502228
31
0.000000000000000
  0
LINE
  5
F1030F
330
F10310
100
AcDbEntity
8
Geo
100
AcDbLine
10
-20.4438752783965
20
0.715664849502228
30
0.000000000000000
11
-20.3438752783965
21
0.686048675434668
31
0.000000000000000
  0
LINE
  5
F10311
330
F10312
100
AcDbEntity
8
Geo
100
AcDbLine
10
-20.3438752783965
20
0.686048675434668
30
0.000000000000000
11
-20.2438752783965
21
0.658085797548318
31
0.000000000000000
  0
LINE
  5
F10313
330
F10314
100
AcDbEntity
8
Geo
100
AcDbLine
10
-20.2438752783965
20
0.658085797548318
30
0.000000000000000
11
-20.1438752783965
21
0.631788520599488
31
0.000000000000000
  0
LINE
  5
F10315
330
F10316
100
AcDbEntity
8
Geo
100
AcDbLine
10
-20.1438752783965
20
0.631788520599488
30
0.000000000000000
11
-20.0438752783965
21
0.607168416415178
31
0.000000000000000
  0
LINE
  5
F10317
330
F10318
100
AcDbEntity
8
Geo
100
AcDbLine
10
-20.0438752783965
20
0.607168416415178
30
0.000000000000000
11
-19.9438752783965
21
0.584236318800968
31
0.000000000000000
  0
LINE
  5
F10319
330
F1031A
100
AcDbEntity
8
Geo
100
AcDbLine
10
-19.9438752783965
20
0.584236318800968
30
0.000000000000000
11
-19.8438752783965
21
0.563002318773748
31
0.000000000000000
  0
LINE
  5
F1031B
330
F1031C
100
AcDbEntity
8
Geo
100
AcDbLine
10
-19.8438752783965
20
0.563002318773748
30
0.000000000000000
11
-19.7438752783965
21
0.543475760121298
31
0.000000000000000
  0
LINE
  5
F1031D
330
F1031E
100
AcDbEntity
8
Geo
100
AcDbLine
10
-19.7438752783965
20
0.543475760121298
30
0.000000000000000
11
-19.6438752783965
21
0.525665235290598
31
0.000000000000000
  0
LINE
  5
F1031F
330
F10320
100
AcDbEntity
8
Geo
100
AcDbLine
10
-19.6438752783965
20
0.525665235290598
30
0.000000000000000
11
-19.5438752783965
21
0.509578581606868
31
0.000000000000000
  0
LINE
  5
F10321
330
F10322
100
AcDbEntity
8
Geo
100
AcDbLine
10
-19.5438752783965
20
0.509578581606868
30
0.000000000000000
11
-19.4438752783965
21
0.495222877824828
31
0.000000000000000
  0
LINE
  5
F10323
330
F10324
100
AcDbEntity
8
Geo
100
AcDbLine
10
-19.4438752783965
20
0.495222877824828
30
0.000000000000000
11
-19.3438752783965
21
0.482604441013768
31
0.000000000000000
  0
LINE
  5
F10325
330
F10326
100
AcDbEntity
8
Geo
100
AcDbLine
10
-19.3438752783965
20
0.482604441013768
30
0.000000000000000
11
-19.2438752783965
21
0.471728823777758
31
0.000000000000000
  0
LINE
  5
F10327
330
F10328
100
AcDbEntity
8
Geo
100
AcDbLine
10
-19.2438752783965
20
0.471728823777758
30
0.000000000000000
11
-19.1438752783965
21
0.462600811812368
31
0.000000000000000
  0
LINE
  5
F10329
330
F1032A
100
AcDbEntity
8
Geo
100
AcDbLine
10
-19.1438752783965
20
0.462600811812368
30
0.000000000000000
11
-19.0438752783965
21
0.455224421798668
31
0.000000000000000
  0
LINE
  5
F1032B
330
F1032C
100
AcDbEntity
8
Geo
100
AcDbLine
10
-19.0438752783965
20
0.455224421798668
30
0.000000000000000
11
-18.9438752783965
21
0.449602899635818
31
0.000000000000000
  0
LINE
  5
F1032D
330
F1032E
100
AcDbEntity
8
Geo
100
AcDbLine
10
-18.9438752783965
20
0.449602899635818
30
0.000000000000000
11
-18.8438752783965
21
0.445738719012718
31
0.000000000000000
  0
LINE
  5
F1032F
330
F10330
100
AcDbEntity
8
Geo
100
AcDbLine
10
-18.8438752783965
20
0.445738719012718
30
0.000000000000000
11
-18.7438752783965
21
0.443633580319468
31
0.000000000000000
  0
LINE
  5
F10331
330
F10332
100
AcDbEntity
8
Geo
100
AcDbLine
10
-4.94387527839649
20
8.19193191474316
30
0.000000000000000
11
-4.84387527839649
21
8.19320482967483
31
0.000000000000000
  0
LINE
  5
F10333
330
F10334
100
AcDbEntity
8
Geo
100
AcDbLine
10
-4.84387527839649
20
8.19320482967483
30
0.000000000000000
11
-4.74387527839639
21
8.19171197571873
31
0.000000000000000
  0
LINE
  5
F10335
330
F10336
100
AcDbEntity
8
Geo
100
AcDbLine
10
-4.74387527839639
20
8.19171197571873
30
0.000000000000000
11
-4.64387527839639
21
8.18747094300457
31
0.000000000000000
  0
LINE
  5
F10337
330
F10338
100
AcDbEntity
8
Geo
100
AcDbLine
10
-4.64387527839639
20
8.18747094300457
30
0.000000000000000
11
-4.54387527839639
21
8.18050128684559
31
0.000000000000000
  0
LINE
  5
F10339
330
F1033A
100
AcDbEntity
8
Geo
100
AcDbLine
10
-4.54387527839639
20
8.18050128684559
30
0.000000000000000
11
-4.44387527839639
21
8.17082448544948
31
0.000000000000000
  0
LINE
  5
F1033B
330
F1033C
100
AcDbEntity
8
Geo
100
AcDbLine
10
-4.44387527839639
20
8.17082448544948
30
0.000000000000000
11
-4.34387527839639
21
8.15846389661160
31
0.000000000000000
  0
LINE
  5
F1033D
330
F1033E
100
AcDbEntity
8
Geo
100
AcDbLine
10
-4.34387527839639
20
8.15846389661160
30
0.000000000000000
11
-4.24387527839639
21
8.14344471345132
31
0.000000000000000
  0
LINE
  5
F1033F
330
F10340
100
AcDbEntity
8
Geo
100
AcDbLine
10
-4.24387527839639
20
8.14344471345132
30
0.000000000000000
11
-4.14387527839639
21
8.12579391925159
31
0.000000000000000
  0
LINE
  5
F10341
330
F10342
100
AcDbEntity
8
Geo
100
AcDbLine
10
-4.14387527839639
20
8.12579391925159
30
0.000000000000000
11
-4.04387527839639
21
8.10554024146188
31
0.000000000000000
  0
LINE
  5
F10343
330
F10344
100
AcDbEntity
8
Geo
100
AcDbLine
10
-4.04387527839639
20
8.10554024146188
30
0.000000000000000
11
-3.94387527839639
21
8.08271410492397
31
0.000000000000000
  0
LINE
  5
F10345
330
F10346
100
AcDbEntity
8
Geo
100
AcDbLine
10
-3.94387527839639
20
8.08271410492397
30
0.000000000000000
11
-3.84387527839639
21
8.05734758437950
31
0.000000000000000
  0
LINE
  5
F10347
330
F10348
100
AcDbEntity
8
Geo
100
AcDbLine
10
-3.84387527839639
20
8.05734758437950
30
0.000000000000000
11
-3.74387527839639
21
8.02947435631795
31
0.000000000000000
  0
LINE
  5
F10349
330
F1034A
100
AcDbEntity
8
Geo
100
AcDbLine
10
-3.74387527839639
20
8.02947435631795
30
0.000000000000000
11
-3.64387527839639
21
7.99912965022278
31
0.000000000000000
  0
LINE
  5
F1034B
330
F1034C
100
AcDbEntity
8
Geo
100
AcDbLine
10
-3.64387527839639
20
7.99912965022278
30
0.000000000000000
11
-3.54387527839639
21
7.96635019927302
31
0.000000000000000
  0
LINE
  5
F1034D
330
F1034E
100
AcDbEntity
8
Geo
100
AcDbLine
10
-3.54387527839639
20
7.96635019927302
30
0.000000000000000
11
-3.44387527839639
21
7.93117419055688
31
0.000000000000000
  0
LINE
  5
F1034F
330
F10350
100
AcDbEntity
8
Geo
100
AcDbLine
10
-3.44387527839639
20
7.93117419055688
30
0.000000000000000
11
-3.34387527839639
21
7.89364121485318
31
0.000000000000000
  0
LINE
  5
F10351
330
F10352
100
AcDbEntity
8
Geo
100
AcDbLine
10
-3.34387527839639
20
7.89364121485318
30
0.000000000000000
11
-3.24387527839649
21
7.85379221603566
31
0.000000000000000
  0
LINE
  5
F10353
330
F10354
100
AcDbEntity
8
Geo
100
AcDbLine
10
-27.2438752783965
20
0.685755662684298
30
0.000000000000000
11
-27.1438752783965
21
0.568349430876908
31
0.000000000000000
  0
LINE
  5
F10355
330
F10356
100
AcDbEntity
8
Geo
100
AcDbLine
10
-27.1438752783965
20
0.568349430876908
30
0.000000000000000
11
-27.0438752783965
21
0.539481556208578
31
0.000000000000000
  0
LINE
  5
F10357
330
F10358
100
AcDbEntity
8
Geo
100
AcDbLine
10
-27.0438752783965
20
0.539481556208578
30
0.000000000000000
11
-26.9438752783965
21
0.522042895764588
31
0.000000000000000
  0
LINE
  5
F10359
330
F1035A
100
AcDbEntity
8
Geo
100
AcDbLine
10
-26.9438752783965
20
0.522042895764588
30
0.000000000000000
11
-26.8438752783965
21
0.506329700438178
31
0.000000000000000
  0
LINE
  5
F1035B
330
F1035C
100
AcDbEntity
8
Geo
100
AcDbLine
10
-26.8438752783965
20
0.506329700438178
30
0.000000000000000
11
-26.7438752783965
21
0.492348884647808
31
0.000000000000000
  0
LINE
  5
F1035D
330
F1035E
100
AcDbEntity
8
Geo
100
AcDbLine
10
-26.7438752783965
20
0.492348884647808
30
0.000000000000000
11
-26.6438752783965
21
0.480106600497458
31
0.000000000000000
  0
LINE
  5
F1035F
330
F10360
100
AcDbEntity
8
Geo
100
AcDbLine
10
-26.6438752783965
20
0.480106600497458
30
0.000000000000000
11
-26.5438752783965
21
0.469608235069358
31
0.000000000000000
  0
LINE
  5
F10361
330
F10362
100
AcDbEntity
8
Geo
100
AcDbLine
10
-26.5438752783965
20
0.469608235069358
30
0.000000000000000
11
-26.4438752783965
21
0.460858408053568
31
0.000000000000000
  0
LINE
  5
F10363
330
F10364
100
AcDbEntity
8
Geo
100
AcDbLine
10
-26.4438752783965
20
0.460858408053568
30
0.000000000000000
11
-26.3438752783965
21
0.453860969715048
31
0.000000000000000
  0
LINE
  5
F10365
330
F10366
100
AcDbEntity
8
Geo
100
AcDbLine
10
-26.3438752783965
20
0.453860969715048
30
0.000000000000000
11
-26.2438752783965
21
0.448618999199458
31
0.000000000000000
  0
LINE
  5
F10367
330
F10368
100
AcDbEntity
8
Geo
100
AcDbLine
10
-26.2438752783965
20
0.448618999199458
30
0.000000000000000
11
-26.1438752783965
21
0.445134803178148
31
0.000000000000000
  0
LINE
  5
F10369
330
F1036A
100
AcDbEntity
8
Geo
100
AcDbLine
10
-26.1438752783965
20
0.445134803178148
30
0.000000000000000
11
-26.0438752783965
21
0.443409914833208
31
0.000000000000000
  0
LINE
  5
F1036B
330
F1036C
100
AcDbEntity
8
Geo
100
AcDbLine
10
-11.0438752783965
20
8.44315635338386
30
0.000000000000000
11
-10.9438752783965
21
8.44269903709065
31
0.000000000000000
  0
LINE
  5
F1036D
330
F1036E
100
AcDbEntity
8
Geo
100
AcDbLine
10
-10.9438752783965
20
8.44269903709065
30
0.000000000000000
11
-10.8438752783965
21
8.44048178844773
31
0.000000000000000
  0
LINE
  5
F1036F
330
F10370
100
AcDbEntity
8
Geo
100
AcDbLine
10
-10.8438752783965
20
8.44048178844773
30
0.000000000000000
11
-10.7438752783965
21
8.43650558313094
31
0.000000000000000
  0
LINE
  5
F10371
330
F10372
100
AcDbEntity
8
Geo
100
AcDbLine
10
-10.7438752783965
20
8.43650558313094
30
0.000000000000000
11
-10.6438752783965
21
8.43077217082563
31
0.000000000000000
  0
LINE
  5
F10373
330
F10374
100
AcDbEntity
8
Geo
100
AcDbLine
10
-10.6438752783965
20
8.43077217082563
30
0.000000000000000
11
-10.5438752783965
21
8.42328407445670
31
0.000000000000000
  0
LINE
  5
F10375
330
F10376
100
AcDbEntity
8
Geo
100
AcDbLine
10
-10.5438752783965
20
8.42328407445670
30
0.000000000000000
11
-10.4438752783965
21
8.41404458907846
31
0.000000000000000
  0
LINE
  5
F10377
330
F10378
100
AcDbEntity
8
Geo
100
AcDbLine
10
-10.4438752783965
20
8.41404458907846
30
0.000000000000000
11
-10.3438752783965
21
8.40305778042467
31
0.000000000000000
  0
LINE
  5
F10379
330
F1037A
100
AcDbEntity
8
Geo
100
AcDbLine
10
-10.3438752783965
20
8.40305778042467
30
0.000000000000000
11
-10.2438752783965
21
8.39032848311940
31
0.000000000000000
  0
LINE
  5
F1037B
330
F1037C
100
AcDbEntity
8
Geo
100
AcDbLine
10
-10.2438752783965
20
8.39032848311940
30
0.000000000000000
11
-10.1438752783965
21
8.37586229854970
31
0.000000000000000
  0
LINE
  5
F1037D
330
F1037E
100
AcDbEntity
8
Geo
100
AcDbLine
10
-10.1438752783965
20
8.37586229854970
30
0.000000000000000
11
-10.0438752783965
21
8.35966559240070
31
0.000000000000000
  0
LINE
  5
F1037F
330
F10380
100
AcDbEntity
8
Geo
100
AcDbLine
10
-10.0438752783965
20
8.35966559240070
30
0.000000000000000
11
-9.94387527839649
21
8.34174549185450
31
0.000000000000000
  0
LINE
  5
F10381
330
F10382
100
AcDbEntity
8
Geo
100
AcDbLine
10
-9.94387527839649
20
8.34174549185450
30
0.000000000000000
11
-9.84387527839649
21
8.32210988245389
31
0.000000000000000
  0
LINE
  5
F10383
330
F10384
100
AcDbEntity
8
Geo
100
AcDbLine
10
-9.84387527839649
20
8.32210988245389
30
0.000000000000000
11
-9.74387527839649
21
8.30076740463245
31
0.000000000000000
  0
LINE
  5
F10385
330
F10386
100
AcDbEntity
8
Geo
100
AcDbLine
10
-9.74387527839649
20
8.30076740463245
30
0.000000000000000
11
-9.64387527839649
21
8.27772744991240
31
0.000000000000000
  0
LINE
  5
F10387
330
F10388
100
AcDbEntity
8
Geo
100
AcDbLine
10
-9.64387527839649
20
8.27772744991240
30
0.000000000000000
11
-9.54387527839649
21
8.25300015677198
31
0.000000000000000
  0
LINE
  5
F10389
330
F1038A
100
AcDbEntity
8
Geo
100
AcDbLine
10
-9.54387527839649
20
8.25300015677198
30
0.000000000000000
11
-9.44387527839649
21
8.22659640618408
31
0.000000000000000
  0
LINE
  5
F1038B
330
F1038C
100
AcDbEntity
8
Geo
100
AcDbLine
10
-9.44387527839649
20
8.22659640618408
30
0.000000000000000
11
-9.34387527839649
21
8.19852781682824
31
0.000000000000000
  0
LINE
  5
F1038D
330
F1038E
100
AcDbEntity
8
Geo
100
AcDbLine
10
-9.34387527839649
20
8.19852781682824
30
0.000000000000000
11
-9.24387527839649
21
8.16880673997797
31
0.000000000000000
  0
LINE
  5
F1038F
330
F10390
100
AcDbEntity
8
Geo
100
AcDbLine
10
-9.24387527839649
20
8.16880673997797
30
0.000000000000000
11
-9.14387527839649
21
8.13744625406566
31
0.000000000000000
  0
LINE
  5
F10391
330
F10392
100
AcDbEntity
8
Geo
100
AcDbLine
10
-9.14387527839649
20
8.13744625406566
30
0.000000000000000
11
-9.04387527839649
21
8.10446015892761
31
0.000000000000000
  0
LINE
  5
F10393
330
F10394
100
AcDbEntity
8
Geo
100
AcDbLine
10
-9.04387527839649
20
8.10446015892761
30
0.000000000000000
11
-8.94387527839649
21
8.06986296973158
31
0.000000000000000
  0
LINE
  5
F10395
330
F10396
100
AcDbEntity
8
Geo
100
AcDbLine
10
-8.94387527839649
20
8.06986296973158
30
0.000000000000000
11
-8.84387527839649
21
8.03366991058946
31
0.000000000000000
  0
LINE
  5
F10397
330
F10398
100
AcDbEntity
8
Geo
100
AcDbLine
10
-8.84387527839649
20
8.03366991058946
30
0.000000000000000
11
-8.74387527839649
21
7.99589690785819
31
0.000000000000000
  0
LINE
  5
F10399
330
F1039A
100
AcDbEntity
8
Geo
100
AcDbLine
10
-8.74387527839649
20
7.99589690785819
30
0.000000000000000
11
-8.64387527839649
21
7.95656058313143
31
0.000000000000000
  0
LINE
  5
F1039B
330
F1039C
100
AcDbEntity
8
Geo
100
AcDbLine
10
-8.64387527839649
20
7.95656058313143
30
0.000000000000000
11
-8.54387527839649
21
7.91567824592549
31
0.000000000000000
  0
LINE
  5
F1039D
330
F1039E
100
AcDbEntity
8
Geo
100
AcDbLine
10
-8.54387527839649
20
7.91567824592549
30
0.000000000000000
11
-8.44387527839649
21
7.87326788606241
31
0.000000000000000
  0
LINE
  5
F1039F
330
F103A0
100
AcDbEntity
8
Geo
100
AcDbLine
10
-8.44387527839649
20
7.87326788606241
30
0.000000000000000
11
-8.34387527839649
21
7.82934816575380
31
0.000000000000000
  0
LINE
  5
F103A1
330
F103A2
100
AcDbEntity
8
Geo
100
AcDbLine
10
-8.34387527839649
20
7.82934816575380
30
0.000000000000000
11
-8.24387527839649
21
7.78393841138867
31
0.000000000000000
  0
LINE
  5
F103A3
330
F103A4
100
AcDbEntity
8
Geo
100
AcDbLine
10
-8.24387527839649
20
7.78393841138867
30
0.000000000000000
11
-8.24387527839649
21
7.78393841138867
31
0.000000000000000
  0
LINE
  5
F103A5
330
F103A6
100
AcDbEntity
8
Geo
100
AcDbLine
10
-8.24387527839649
20
7.78393841138867
30
0.000000000000000
11
-8.24387527839649
21
7.57514270611118
31
0.000000000000000
  0
LINE
  5
F103A7
330
F103A8
100
AcDbEntity
8
Geo
100
AcDbLine
10
-8.24387527839649
20
7.57514270611118
30
0.000000000000000
11
-8.24387527839649
21
7.78393841138867
31
0.000000000000000
  0
LINE
  5
F103A9
330
F103AA
100
AcDbEntity
8
Geo
100
AcDbLine
10
-8.24387527839649
20
7.78393841138867
30
0.000000000000000
11
-8.24387527839649
21
7.78393841138867
31
0.000000000000000
  0
LINE
  5
F103AB
330
F103AC
100
AcDbEntity
8
Geo
100
AcDbLine
10
-8.24387527839649
20
7.78393841138867
30
0.000000000000000
11
-8.14387527839649
21
7.58176513518519
31
0.000000000000000
  0
LINE
  5
F103AD
330
F103AE
100
AcDbEntity
8
Geo
100
AcDbLine
10
-8.14387527839649
20
7.58176513518519
30
0.000000000000000
11
-8.04387527839649
21
7.58834278054696
31
0.000000000000000
  0
LINE
  5
F103AF
330
F103B0
100
AcDbEntity
8
Geo
100
AcDbLine
10
-8.04387527839649
20
7.58834278054696
30
0.000000000000000
11
-7.94387527839649
21
7.59487575615611
31
0.000000000000000
  0
LINE
  5
F103B1
330
F103B2
100
AcDbEntity
8
Geo
100
AcDbLine
10
-7.94387527839649
20
7.59487575615611
30
0.000000000000000
11
-7.84387527839649
21
7.60136417672406
31
0.000000000000000
  0
LINE
  5
F103B3
330
F103B4
100
AcDbEntity
8
Geo
100
AcDbLine
10
-7.84387527839649
20
7.60136417672406
30
0.000000000000000
11
-7.74387527839649
21
7.60780815770496
31
0.000000000000000
  0
LINE
  5
F103B5
330
F103B6
100
AcDbEntity
8
Geo
100
AcDbLine
10
-7.74387527839649
20
7.60780815770496
30
0.000000000000000
11
-7.64387527839649
21
7.61420781528661
31
0.000000000000000
  0
LINE
  5
F103B7
330
F103B8
100
AcDbEntity
8
Geo
100
AcDbLine
10
-7.64387527839649
20
7.61420781528661
30
0.000000000000000
11
-7.54387527839649
21
7.62056326638152
31
0.000000000000000
  0
LINE
  5
F103B9
330
F103BA
100
AcDbEntity
8
Geo
100
AcDbLine
10
-7.54387527839649
20
7.62056326638152
30
0.000000000000000
11
-7.44387527839649
21
7.62687462861786
31
0.000000000000000
  0
LINE
  5
F103BB
330
F103BC
100
AcDbEntity
8
Geo
100
AcDbLine
10
-7.44387527839649
20
7.62687462861786
30
0.000000000000000
11
-7.34387527839649
21
7.63314202033060
31
0.000000000000000
  0
LINE
  5
F103BD
330
F103BE
100
AcDbEntity
8
Geo
100
AcDbLine
10
-7.34387527839649
20
7.63314202033060
30
0.000000000000000
11
-7.24387527839649
21
7.63936556055257
31
0.000000000000000
  0
LINE
  5
F103BF
330
F103C0
100
AcDbEntity
8
Geo
100
AcDbLine
10
-7.24387527839649
20
7.63936556055257
30
0.000000000000000
11
-7.14387527839649
21
7.64554536900564
31
0.000000000000000
  0
LINE
  5
F103C1
330
F103C2
100
AcDbEntity
8
Geo
100
AcDbLine
10
-7.14387527839649
20
7.64554536900564
30
0.000000000000000
11
-7.04387527839649
21
7.65168156609184
31
0.000000000000000
  0
LINE
  5
F103C3
330
F103C4
100
AcDbEntity
8
Geo
100
AcDbLine
10
-7.04387527839649
20
7.65168156609184
30
0.000000000000000
11
-6.94387527839649
21
7.65777427288463
31
0.000000000000000
  0
LINE
  5
F103C5
330
F103C6
100
AcDbEntity
8
Geo
100
AcDbLine
10
-6.94387527839649
20
7.65777427288463
30
0.000000000000000
11
-6.84387527839649
21
7.66382361112015
31
0.000000000000000
  0
LINE
  5
F103C7
330
F103C8
100
AcDbEntity
8
Geo
100
AcDbLine
10
-6.84387527839649
20
7.66382361112015
30
0.000000000000000
11
-6.74387527839649
21
7.66982970318849
31
0.000000000000000
  0
LINE
  5
F103C9
330
F103CA
100
AcDbEntity
8
Geo
100
AcDbLine
10
-6.74387527839649
20
7.66982970318849
30
0.000000000000000
11
-6.64387527839649
21
7.67579267212500
31
0.000000000000000
  0
LINE
  5
F103CB
330
F103CC
100
AcDbEntity
8
Geo
100
AcDbLine
10
-6.64387527839649
20
7.67579267212500
30
0.000000000000000
11
-6.54387527839649
21
7.68171264160174
31
0.000000000000000
  0
LINE
  5
F103CD
330
F103CE
100
AcDbEntity
8
Geo
100
AcDbLine
10
-6.54387527839649
20
7.68171264160174
30
0.000000000000000
11
-6.44387527839649
21
7.68758973591877
31
0.000000000000000
  0
LINE
  5
F103CF
330
F103D0
100
AcDbEntity
8
Geo
100
AcDbLine
10
-6.44387527839649
20
7.68758973591877
30
0.000000000000000
11
-6.34387527839649
21
7.69342407999571
31
0.000000000000000
  0
LINE
  5
F103D1
330
F103D2
100
AcDbEntity
8
Geo
100
AcDbLine
10
-6.34387527839649
20
7.69342407999571
30
0.000000000000000
11
-6.24387527839649
21
7.69921579936312
31
0.000000000000000
  0
LINE
  5
F103D3
330
F103D4
100
AcDbEntity
8
Geo
100
AcDbLine
10
-6.24387527839649
20
7.69921579936312
30
0.000000000000000
11
-6.14387527839649
21
7.70496502015410
31
0.000000000000000
  0
LINE
  5
F103D5
330
F103D6
100
AcDbEntity
8
Geo
100
AcDbLine
10
-6.14387527839649
20
7.70496502015410
30
0.000000000000000
11
-6.04387527839649
21
7.71067186909578
31
0.000000000000000
  0
LINE
  5
F103D7
330
F103D8
100
AcDbEntity
8
Geo
100
AcDbLine
10
-6.04387527839649
20
7.71067186909578
30
0.000000000000000
11
-5.94387527839649
21
7.71633647350098
31
0.000000000000000
  0
LINE
  5
F103D9
330
F103DA
100
AcDbEntity
8
Geo
100
AcDbLine
10
-5.94387527839649
20
7.71633647350098
30
0.000000000000000
11
-5.84387527839649
21
7.72195896125980
31
0.000000000000000
  0
LINE
  5
F103DB
330
F103DC
100
AcDbEntity
8
Geo
100
AcDbLine
10
-5.84387527839649
20
7.72195896125980
30
0.000000000000000
11
-5.74387527839649
21
7.72753946083131
31
0.000000000000000
  0
LINE
  5
F103DD
330
F103DE
100
AcDbEntity
8
Geo
100
AcDbLine
10
-5.74387527839649
20
7.72753946083131
30
0.000000000000000
11
-5.64387527839649
21
7.73307810123525
31
0.000000000000000
  0
LINE
  5
F103DF
330
F103E0
100
AcDbEntity
8
Geo
100
AcDbLine
10
-5.64387527839649
20
7.73307810123525
30
0.000000000000000
11
-5.54387527839649
21
7.73857501204382
31
0.000000000000000
  0
LINE
  5
F103E1
330
F103E2
100
AcDbEntity
8
Geo
100
AcDbLine
10
-5.54387527839649
20
7.73857501204382
30
0.000000000000000
11
-5.44387527839649
21
7.74403032337343
31
0.000000000000000
  0
LINE
  5
F103E3
330
F103E4
100
AcDbEntity
8
Geo
100
AcDbLine
10
-5.44387527839649
20
7.74403032337343
30
0.000000000000000
11
-5.34387527839649
21
7.74944416587652
31
0.000000000000000
  0
LINE
  5
F103E5
330
F103E6
100
AcDbEntity
8
Geo
100
AcDbLine
10
-5.34387527839649
20
7.74944416587652
30
0.000000000000000
11
-5.24387527839649
21
7.75481667073349
31
0.000000000000000
  0
LINE
  5
F103E7
330
F103E8
100
AcDbEntity
8
Geo
100
AcDbLine
10
-5.24387527839649
20
7.75481667073349
30
0.000000000000000
11
-5.14387527839649
21
7.76014796964455
31
0.000000000000000
  0
LINE
  5
F103E9
330
F103EA
100
AcDbEntity
8
Geo
100
AcDbLine
10
-5.14387527839649
20
7.76014796964455
30
0.000000000000000
11
-5.04387527839649
21
7.76543819482167
31
0.000000000000000
  0
LINE
  5
F103EB
330
F103EC
100
AcDbEntity
8
Geo
100
AcDbLine
10
-5.04387527839649
20
7.76543819482167
30
0.000000000000000
11
-4.94387527839649
21
7.77068747898059
31
0.000000000000000
  0
LINE
  5
F103ED
330
F103EE
100
AcDbEntity
8
Geo
100
AcDbLine
10
-4.94387527839649
20
7.77068747898059
30
0.000000000000000
11
-4.84387527839649
21
7.77589595533286
31
0.000000000000000
  0
LINE
  5
F103EF
330
F103F0
100
AcDbEntity
8
Geo
100
AcDbLine
10
-4.84387527839649
20
7.77589595533286
30
0.000000000000000
11
-4.74387527839639
21
7.78106375757784
31
0.000000000000000
  0
LINE
  5
F103F1
330
F103F2
100
AcDbEntity
8
Geo
100
AcDbLine
10
-4.74387527839639
20
7.78106375757784
30
0.000000000000000
11
-4.64387527839639
21
7.78619101989487
31
0.000000000000000
  0
LINE
  5
F103F3
330
F103F4
100
AcDbEntity
8
Geo
100
AcDbLine
10
-4.64387527839639
20
7.78619101989487
30
0.000000000000000
11
-4.54387527839639
21
7.79127787693538
31
0.000000000000000
  0
LINE
  5
F103F5
330
F103F6
100
AcDbEntity
8
Geo
100
AcDbLine
10
-4.54387527839639
20
7.79127787693538
30
0.000000000000000
11
-4.44387527839639
21
7.79632446381508
31
0.000000000000000
  0
LINE
  5
F103F7
330
F103F8
100
AcDbEntity
8
Geo
100
AcDbLine
10
-4.44387527839639
20
7.79632446381508
30
0.000000000000000
11
-4.34387527839639
21
7.80133091610619
31
0.000000000000000
  0
LINE
  5
F103F9
330
F103FA
100
AcDbEntity
8
Geo
100
AcDbLine
10
-4.34387527839639
20
7.80133091610619
30
0.000000000000000
11
-4.24387527839639
21
7.80629736982969
31
0.000000000000000
  0
LINE
  5
F103FB
330
F103FC
100
AcDbEntity
8
Geo
100
AcDbLine
10
-4.24387527839639
20
7.80629736982969
30
0.000000000000000
11
-4.14387527839639
21
7.81122396144761
31
0.000000000000000
  0
LINE
  5
F103FD
330
F103FE
100
AcDbEntity
8
Geo
100
AcDbLine
10
-4.14387527839639
20
7.81122396144761
30
0.000000000000000
11
-4.04387527839639
21
7.81611082785542
31
0.000000000000000
  0
LINE
  5
F103FF
330
F10400
100
AcDbEntity
8
Geo
100
AcDbLine
10
-4.04387527839639
20
7.81611082785542
30
0.000000000000000
11
-3.94387527839639
21
7.82095810637435
31
0.000000000000000
  0
LINE
  5
F10401
330
F10402
100
AcDbEntity
8
Geo
100
AcDbLine
10
-3.94387527839639
20
7.82095810637435
30
0.000000000000000
11
-3.84387527839639
21
7.82576593474387
31
0.000000000000000
  0
LINE
  5
F10403
330
F10404
100
AcDbEntity
8
Geo
100
AcDbLine
10
-3.84387527839639
20
7.82576593474387
30
0.000000000000000
11
-3.74387527839639
21
7.83053445111409
31
0.000000000000000
  0
LINE
  5
F10405
330
F10406
100
AcDbEntity
8
Geo
100
AcDbLine
10
-3.74387527839639
20
7.83053445111409
30
0.000000000000000
11
-3.64387527839639
21
7.83526379403832
31
0.000000000000000
  0
LINE
  5
F10407
330
F10408
100
AcDbEntity
8
Geo
100
AcDbLine
10
-3.64387527839639
20
7.83526379403832
30
0.000000000000000
11
-3.54387527839639
21
7.83995410246557
31
0.000000000000000
  0
LINE
  5
F10409
330
F1040A
100
AcDbEntity
8
Geo
100
AcDbLine
10
-3.54387527839639
20
7.83995410246557
30
0.000000000000000
11
-3.44387527839639
21
7.84460551573314
31
0.000000000000000
  0
LINE
  5
F1040B
330
F1040C
100
AcDbEntity
8
Geo
100
AcDbLine
10
-3.44387527839639
20
7.84460551573314
30
0.000000000000000
11
-3.34387527839639
21
7.84921817355924
31
0.000000000000000
  0
LINE
  5
F1040D
330
F1040E
100
AcDbEntity
8
Geo
100
AcDbLine
10
-3.34387527839639
20
7.84921817355924
30
0.000000000000000
11
-3.24387527839649
21
7.85379221603566
31
0.000000000000000
  0
LINE
  5
F1040F
330
F10410
100
AcDbEntity
8
Geo
100
AcDbLine
10
-13.7438752783965
20
8.44287299835050
30
0.000000000000000
11
-13.6438752783965
21
8.44307745613975
31
0.000000000000000
  0
LINE
  5
F10411
330
F10412
100
AcDbEntity
8
Geo
100
AcDbLine
10
-13.6438752783965
20
8.44307745613975
30
0.000000000000000
11
-13.5438752783965
21
8.44152181506016
31
0.000000000000000
  0
LINE
  5
F10413
330
F10414
100
AcDbEntity
8
Geo
100
AcDbLine
10
-13.5438752783965
20
8.44152181506016
30
0.000000000000000
11
-13.4438752783965
21
8.43820675965444
31
0.000000000000000
  0
LINE
  5
F10415
330
F10416
100
AcDbEntity
8
Geo
100
AcDbLine
10
-13.4438752783965
20
8.43820675965444
30
0.000000000000000
11
-13.3438752783965
21
8.43313374867622
31
0.000000000000000
  0
LINE
  5
F10417
330
F10418
100
AcDbEntity
8
Geo
100
AcDbLine
10
-13.3438752783965
20
8.43313374867622
30
0.000000000000000
11
-13.2438752783965
21
8.42630501444807
31
0.000000000000000
  0
LINE
  5
F10419
330
F1041A
100
AcDbEntity
8
Geo
100
AcDbLine
10
-13.2438752783965
20
8.42630501444807
30
0.000000000000000
11
-13.1438752783965
21
8.41772356187925
31
0.000000000000000
  0
LINE
  5
F1041B
330
F1041C
100
AcDbEntity
8
Geo
100
AcDbLine
10
-13.1438752783965
20
8.41772356187925
30
0.000000000000000
11
-13.0438752783965
21
8.40739316714343
31
0.000000000000000
  0
LINE
  5
F1041D
330
F1041E
100
AcDbEntity
8
Geo
100
AcDbLine
10
-13.0438752783965
20
8.40739316714343
30
0.000000000000000
11
-12.9438752783965
21
8.39531837601697
31
0.000000000000000
  0
LINE
  5
F1041F
330
F10420
100
AcDbEntity
8
Geo
100
AcDbLine
10
-12.9438752783965
20
8.39531837601697
30
0.000000000000000
11
-12.8438752783965
21
8.38150450187869
31
0.000000000000000
  0
LINE
  5
F10421
330
F10422
100
AcDbEntity
8
Geo
100
AcDbLine
10
-12.8438752783965
20
8.38150450187869
30
0.000000000000000
11
-12.7438752783965
21
8.36595762337170
31
0.000000000000000
  0
LINE
  5
F10423
330
F10424
100
AcDbEntity
8
Geo
100
AcDbLine
10
-12.7438752783965
20
8.36595762337170
30
0.000000000000000
11
-12.6438752783965
21
8.34868458172860
31
0.000000000000000
  0
LINE
  5
F10425
330
F10426
100
AcDbEntity
8
Geo
100
AcDbLine
10
-12.6438752783965
20
8.34868458172860
30
0.000000000000000
11
-12.5438752783965
21
8.32969297776105
31
0.000000000000000
  0
LINE
  5
F10427
330
F10428
100
AcDbEntity
8
Geo
100
AcDbLine
10
-12.5438752783965
20
8.32969297776105
30
0.000000000000000
11
-12.4438752783965
21
8.30899116851512
31
0.000000000000000
  0
LINE
  5
F10429
330
F1042A
100
AcDbEntity
8
Geo
100
AcDbLine
10
-12.4438752783965
20
8.30899116851512
30
0.000000000000000
11
-12.3438752783965
21
8.28658826359391
31
0.000000000000000
  0
LINE
  5
F1042B
330
F1042C
100
AcDbEntity
8
Geo
100
AcDbLine
10
-12.3438752783965
20
8.28658826359391
30
0.000000000000000
11
-12.2438752783965
21
8.26249412114888
31
0.000000000000000
  0
LINE
  5
F1042D
330
F1042E
100
AcDbEntity
8
Geo
100
AcDbLine
10
-12.2438752783965
20
8.26249412114888
30
0.000000000000000
11
-12.1438752783965
21
8.23671934354195
31
0.000000000000000
  0
LINE
  5
F1042F
330
F10430
100
AcDbEntity
8
Geo
100
AcDbLine
10
-12.1438752783965
20
8.23671934354195
30
0.000000000000000
11
-12.0438752783965
21
8.20927527268003
31
0.000000000000000
  0
LINE
  5
F10431
330
F10432
100
AcDbEntity
8
Geo
100
AcDbLine
10
-12.0438752783965
20
8.20927527268003
30
0.000000000000000
11
-11.9438752783965
21
8.18017398502414
31
0.000000000000000
  0
LINE
  5
F10433
330
F10434
100
AcDbEntity
8
Geo
100
AcDbLine
10
-11.9438752783965
20
8.18017398502414
30
0.000000000000000
11
-11.8438752783965
21
8.14942828627527
31
0.000000000000000
  0
LINE
  5
F10435
330
F10436
100
AcDbEntity
8
Geo
100
AcDbLine
10
-11.8438752783965
20
8.14942828627527
30
0.000000000000000
11
-11.7438752783965
21
8.11705170573941
31
0.000000000000000
  0
LINE
  5
F10437
330
F10438
100
AcDbEntity
8
Geo
100
AcDbLine
10
-11.7438752783965
20
8.11705170573941
30
0.000000000000000
11
-11.6438752783965
21
8.08305849037411
31
0.000000000000000
  0
LINE
  5
F10439
330
F1043A
100
AcDbEntity
8
Geo
100
AcDbLine
10
-11.6438752783965
20
8.08305849037411
30
0.000000000000000
11
-11.5438752783965
21
8.04746359851927
31
0.000000000000000
  0
LINE
  5
F1043B
330
F1043C
100
AcDbEntity
8
Geo
100
AcDbLine
10
-11.5438752783965
20
8.04746359851927
30
0.000000000000000
11
-11.4438752783965
21
8.01028269331486
31
0.000000000000000
  0
LINE
  5
F1043D
330
F1043E
100
AcDbEntity
8
Geo
100
AcDbLine
10
-11.4438752783965
20
8.01028269331486
30
0.000000000000000
11
-11.3438752783965
21
7.97153213580858
31
0.000000000000000
  0
LINE
  5
F1043F
330
F10440
100
AcDbEntity
8
Geo
100
AcDbLine
10
-11.3438752783965
20
7.97153213580858
30
0.000000000000000
11
-11.2438752783965
21
7.93122897775631
31
0.000000000000000
  0
LINE
  5
F10441
330
F10442
100
AcDbEntity
8
Geo
100
AcDbLine
10
-11.2438752783965
20
7.93122897775631
30
0.000000000000000
11
-11.1438752783965
21
7.88939095411870
31
0.000000000000000
  0
LINE
  5
F10443
330
F10444
100
AcDbEntity
8
Geo
100
AcDbLine
10
-11.1438752783965
20
7.88939095411870
30
0.000000000000000
11
-11.0438752783965
21
7.84603647525709
31
0.000000000000000
  0
LINE
  5
F10445
330
F10446
100
AcDbEntity
8
Geo
100
AcDbLine
10
-11.0438752783965
20
7.84603647525709
30
0.000000000000000
11
-10.9438752783965
21
7.80118461883224
31
0.000000000000000
  0
LINE
  5
F10447
330
F10448
100
AcDbEntity
8
Geo
100
AcDbLine
10
-10.9438752783965
20
7.80118461883224
30
0.000000000000000
11
-10.8438752783965
21
7.75485512140940
31
0.000000000000000
  0
LINE
  5
F10449
330
F1044A
100
AcDbEntity
8
Geo
100
AcDbLine
10
-10.8438752783965
20
7.75485512140940
30
0.000000000000000
11
-10.7438752783965
21
7.70706836977348
31
0.000000000000000
  0
LINE
  5
F1044B
330
F1044C
100
AcDbEntity
8
Geo
100
AcDbLine
10
-10.7438752783965
20
7.70706836977348
30
0.000000000000000
11
-10.6438752783965
21
7.65784539195801
31
0.000000000000000
  0
LINE
  5
F1044D
330
F1044E
100
AcDbEntity
8
Geo
100
AcDbLine
10
-10.6438752783965
20
7.65784539195801
30
0.000000000000000
11
-10.5438752783965
21
7.60720784799207
31
0.000000000000000
  0
LINE
  5
F1044F
330
F10450
100
AcDbEntity
8
Geo
100
AcDbLine
10
-10.5438752783965
20
7.60720784799207
30
0.000000000000000
11
-10.4438752783965
21
7.55517802036896
31
0.000000000000000
  0
LINE
  5
F10451
330
F10452
100
AcDbEntity
8
Geo
100
AcDbLine
10
-10.4438752783965
20
7.55517802036896
30
0.000000000000000
11
-10.3438752783965
21
7.50177880424108
31
0.000000000000000
  0
LINE
  5
F10453
330
F10454
100
AcDbEntity
8
Geo
100
AcDbLine
10
-10.3438752783965
20
7.50177880424108
30
0.000000000000000
11
-10.2438752783965
21
7.44703369734516
31
0.000000000000000
  0
LINE
  5
F10455
330
F10456
100
AcDbEntity
8
Geo
100
AcDbLine
10
-10.2438752783965
20
7.44703369734516
30
0.000000000000000
11
-10.1438752783965
21
7.39096678966230
31
0.000000000000000
  0
LINE
  5
F10457
330
F10458
100
AcDbEntity
8
Geo
100
AcDbLine
10
-10.1438752783965
20
7.39096678966230
30
0.000000000000000
11
-10.0438752783965
21
7.33360275281750
31
0.000000000000000
  0
LINE
  5
F10459
330
F1045A
100
AcDbEntity
8
Geo
100
AcDbLine
10
-10.0438752783965
20
7.33360275281750
30
0.000000000000000
11
-9.94387527839649
21
7.27496682922317
31
0.000000000000000
  0
LINE
  5
F1045B
330
F1045C
100
AcDbEntity
8
Geo
100
AcDbLine
10
-9.94387527839649
20
7.27496682922317
30
0.000000000000000
11
-9.84387527839649
21
7.21508482097143
31
0.000000000000000
  0
LINE
  5
F1045D
330
F1045E
100
AcDbEntity
8
Geo
100
AcDbLine
10
-9.84387527839649
20
7.21508482097143
30
0.000000000000000
11
-9.74387527839649
21
7.15398307848027
31
0.000000000000000
  0
LINE
  5
F1045F
330
F10460
100
AcDbEntity
8
Geo
100
AcDbLine
10
-9.74387527839649
20
7.15398307848027
30
0.000000000000000
11
-9.64387527839649
21
7.09168848889824
31
0.000000000000000
  0
LINE
  5
F10461
330
F10462
100
AcDbEntity
8
Geo
100
AcDbLine
10
-9.64387527839649
20
7.09168848889824
30
0.000000000000000
11
-9.54387527839649
21
7.02822846427317
31
0.000000000000000
  0
LINE
  5
F10463
330
F10464
100
AcDbEntity
8
Geo
100
AcDbLine
10
-9.54387527839649
20
7.02822846427317
30
0.000000000000000
11
-9.44387527839649
21
6.96363092948970
31
0.000000000000000
  0
LINE
  5
F10465
330
F10466
100
AcDbEntity
8
Geo
100
AcDbLine
10
-9.44387527839649
20
6.96363092948970
30
0.000000000000000
11
-9.34387527839649
21
6.89792430998128
31
0.000000000000000
  0
LINE
  5
F10467
330
F10468
100
AcDbEntity
8
Geo
100
AcDbLine
10
-9.34387527839649
20
6.89792430998128
30
0.000000000000000
11
-9.24387527839649
21
6.83113751922191
31
0.000000000000000
  0
LINE
  5
F10469
330
F1046A
100
AcDbEntity
8
Geo
100
AcDbLine
10
-9.24387527839649
20
6.83113751922191
30
0.000000000000000
11
-9.14387527839649
21
6.76329994600300
31
0.000000000000000
  0
LINE
  5
F1046B
330
F1046C
100
AcDbEntity
8
Geo
100
AcDbLine
10
-9.14387527839649
20
6.76329994600300
30
0.000000000000000
11
-9.04387527839649
21
6.69444144150124
31
0.000000000000000
  0
LINE
  5
F1046D
330
F1046E
100
AcDbEntity
8
Geo
100
AcDbLine
10
-9.04387527839649
20
6.69444144150124
30
0.000000000000000
11
-8.94387527839649
21
6.62459230614287
31
0.000000000000000
  0
LINE
  5
F1046F
330
F10470
100
AcDbEntity
8
Geo
100
AcDbLine
10
-8.94387527839649
20
6.62459230614287
30
0.000000000000000
11
-8.84387527839649
21
6.55378327627033
31
0.000000000000000
  0
LINE
  5
F10471
330
F10472
100
AcDbEntity
8
Geo
100
AcDbLine
10
-8.84387527839649
20
6.55378327627033
30
0.000000000000000
11
-8.74387527839649
21
6.48204551061706
31
0.000000000000000
  0
LINE
  5
F10473
330
F10474
100
AcDbEntity
8
Geo
100
AcDbLine
10
-8.74387527839649
20
6.48204551061706
30
0.000000000000000
11
-8.64387527839649
21
6.40941057659643
31
0.000000000000000
  0
LINE
  5
F10475
330
F10476
100
AcDbEntity
8
Geo
100
AcDbLine
10
-8.64387527839649
20
6.40941057659643
30
0.000000000000000
11
-8.54387527839649
21
6.33591043641091
31
0.000000000000000
  0
LINE
  5
F10477
330
F10478
100
AcDbEntity
8
Geo
100
AcDbLine
10
-8.54387527839649
20
6.33591043641091
30
0.000000000000000
11
-8.44387527839649
21
6.26157743298736
31
0.000000000000000
  0
LINE
  5
F10479
330
F1047A
100
AcDbEntity
8
Geo
100
AcDbLine
10
-8.44387527839649
20
6.26157743298736
30
0.000000000000000
11
-8.34387527839649
21
6.18644427574497
31
0.000000000000000
  0
LINE
  5
F1047B
330
F1047C
100
AcDbEntity
8
Geo
100
AcDbLine
10
-8.34387527839649
20
6.18644427574497
30
0.000000000000000
11
-8.24387527839649
21
6.11054402620178
31
0.000000000000000
  0
LINE
  5
F1047D
330
F1047E
100
AcDbEntity
8
Geo
100
AcDbLine
10
-8.24387527839649
20
6.11054402620178
30
0.000000000000000
11
-8.24387527839649
21
6.11054402620178
31
0.000000000000000
  0
LINE
  5
F1047F
330
F10480
100
AcDbEntity
8
Geo
100
AcDbLine
10
-8.24387527839649
20
6.11054402620178
30
0.000000000000000
11
-8.24387527839649
21
6.00633546999847
31
0.000000000000000
  0
LINE
  5
F10481
330
F10482
100
AcDbEntity
8
Geo
100
AcDbLine
10
-8.24387527839649
20
6.00633546999847
30
0.000000000000000
11
-8.24387527839649
21
6.11054402620178
31
0.000000000000000
  0
LINE
  5
F10483
330
F10484
100
AcDbEntity
8
Geo
100
AcDbLine
10
-8.24387527839649
20
6.11054402620178
30
0.000000000000000
11
-8.24387527839649
21
6.11054402620178
31
0.000000000000000
  0
LINE
  5
F10485
330
F10486
100
AcDbEntity
8
Geo
100
AcDbLine
10
-8.24387527839649
20
6.11054402620178
30
0.000000000000000
11
-8.14387527839649
21
5.90694318872409
31
0.000000000000000
  0
LINE
  5
F10487
330
F10488
100
AcDbEntity
8
Geo
100
AcDbLine
10
-8.14387527839649
20
5.90694318872409
30
0.000000000000000
11
-8.04387527839649
21
5.80651133363806
31
0.000000000000000
  0
LINE
  5
F10489
330
F1048A
100
AcDbEntity
8
Geo
100
AcDbLine
10
-8.04387527839649
20
5.80651133363806
30
0.000000000000000
11
-7.94387527839649
21
5.70513050062688
31
0.000000000000000
  0
LINE
  5
F1048B
330
F1048C
100
AcDbEntity
8
Geo
100
AcDbLine
10
-7.94387527839649
20
5.70513050062688
30
0.000000000000000
11
-7.84387527839649
21
5.60289127796310
31
0.000000000000000
  0
LINE
  5
F1048D
330
F1048E
100
AcDbEntity
8
Geo
100
AcDbLine
10
-7.84387527839649
20
5.60289127796310
30
0.000000000000000
11
-7.74387527839649
21
5.49988416334938
31
0.000000000000000
  0
LINE
  5
F1048F
330
F10490
100
AcDbEntity
8
Geo
100
AcDbLine
10
-7.74387527839649
20
5.49988416334938
30
0.000000000000000
11
-7.64387527839649
21
5.39619948234523
31
0.000000000000000
  0
LINE
  5
F10491
330
F10492
100
AcDbEntity
8
Geo
100
AcDbLine
10
-7.64387527839649
20
5.39619948234523
30
0.000000000000000
11
-7.54387527839649
21
5.29192730823552
31
0.000000000000000
  0
LINE
  5
F10493
330
F10494
100
AcDbEntity
8
Geo
100
AcDbLine
10
-7.54387527839649
20
5.29192730823552
30
0.000000000000000
11
-7.44387527839649
21
5.18715738339705
31
0.000000000000000
  0
LINE
  5
F10495
330
F10496
100
AcDbEntity
8
Geo
100
AcDbLine
10
-7.44387527839649
20
5.18715738339705
30
0.000000000000000
11
-7.34387527839649
21
5.08197904221662
31
0.000000000000000
  0
LINE
  5
F10497
330
F10498
100
AcDbEntity
8
Geo
100
AcDbLine
10
-7.34387527839649
20
5.08197904221662
30
0.000000000000000
11
-7.24387527839649
21
4.97648113561142
31
0.000000000000000
  0
LINE
  5
F10499
330
F1049A
100
AcDbEntity
8
Geo
100
AcDbLine
10
-7.24387527839649
20
4.97648113561142
30
0.000000000000000
11
-7.14387527839649
21
4.87075195719939
31
0.000000000000000
  0
LINE
  5
F1049B
330
F1049C
100
AcDbEntity
8
Geo
100
AcDbLine
10
-7.14387527839649
20
4.87075195719939
30
0.000000000000000
11
-7.04387527839649
21
4.76487917116480
31
0.000000000000000
  0
LINE
  5
F1049D
330
F1049E
100
AcDbEntity
8
Geo
100
AcDbLine
10
-7.04387527839649
20
4.76487917116480
30
0.000000000000000
11
-6.94387527839649
21
4.65894974186123
31
0.000000000000000
  0
LINE
  5
F1049F
330
F104A0
100
AcDbEntity
8
Geo
100
AcDbLine
10
-6.94387527839649
20
4.65894974186123
30
0.000000000000000
11
-6.84387527839649
21
4.55304986519154
31
0.000000000000000
  0
LINE
  5
F104A1
330
F104A2
100
AcDbEntity
8
Geo
100
AcDbLine
10
-6.84387527839649
20
4.55304986519154
30
0.000000000000000
11
-6.74387527839649
21
4.44726490180161
31
0.000000000000000
  0
LINE
  5
F104A3
330
F104A4
100
AcDbEntity
8
Geo
100
AcDbLine
10
-6.74387527839649
20
4.44726490180161
30
0.000000000000000
11
-6.64387527839649
21
4.34167931212174
31
0.000000000000000
  0
LINE
  5
F104A5
330
F104A6
100
AcDbEntity
8
Geo
100
AcDbLine
10
-6.64387527839649
20
4.34167931212174
30
0.000000000000000
11
-6.54387527839649
21
4.23637659328733
31
0.000000000000000
  0
LINE
  5
F104A7
330
F104A8
100
AcDbEntity
8
Geo
100
AcDbLine
10
-6.54387527839649
20
4.23637659328733
30
0.000000000000000
11
-6.44387527839649
21
4.13143921796719
31
0.000000000000000
  0
LINE
  5
F104A9
330
F104AA
100
AcDbEntity
8
Geo
100
AcDbLine
10
-6.44387527839649
20
4.13143921796719
30
0.000000000000000
11
-6.34387527839649
21
4.02694857512582
31
0.000000000000000
  0
LINE
  5
F104AB
330
F104AC
100
AcDbEntity
8
Geo
100
AcDbLine
10
-6.34387527839649
20
4.02694857512582
30
0.000000000000000
11
-6.24387527839649
21
3.92298491274271
31
0.000000000000000
  0
LINE
  5
F104AD
330
F104AE
100
AcDbEntity
8
Geo
100
AcDbLine
10
-6.24387527839649
20
3.92298491274271
30
0.000000000000000
11
-6.14387527839649
21
3.81962728250986
31
0.000000000000000
  0
LINE
  5
F104AF
330
F104B0
100
AcDbEntity
8
Geo
100
AcDbLine
10
-6.14387527839649
20
3.81962728250986
30
0.000000000000000
11
-6.04387527839649
21
3.71695348652540
31
0.000000000000000
  0
LINE
  5
F104B1
330
F104B2
100
AcDbEntity
8
Geo
100
AcDbLine
10
-6.04387527839649
20
3.71695348652540
30
0.000000000000000
11
-5.94387527839649
21
3.61504002599947
31
0.000000000000000
  0
LINE
  5
F104B3
330
F104B4
100
AcDbEntity
8
Geo
100
AcDbLine
10
-5.94387527839649
20
3.61504002599947
30
0.000000000000000
11
-5.84387527839649
21
3.51396205198535
31
0.000000000000000
  0
LINE
  5
F104B5
330
F104B6
100
AcDbEntity
8
Geo
100
AcDbLine
10
-5.84387527839649
20
3.51396205198535
30
0.000000000000000
11
-5.74387527839649
21
3.41379331814685
31
0.000000000000000
  0
LINE
  5
F104B7
330
F104B8
100
AcDbEntity
8
Geo
100
AcDbLine
10
-5.74387527839649
20
3.41379331814685
30
0.000000000000000
11
-5.64387527839649
21
3.31460613557053
31
0.000000000000000
  0
LINE
  5
F104B9
330
F104BA
100
AcDbEntity
8
Geo
100
AcDbLine
10
-5.64387527839649
20
3.31460613557053
30
0.000000000000000
11
-5.54387527839649
21
3.21647132962872
31
0.000000000000000
  0
LINE
  5
F104BB
330
F104BC
100
AcDbEntity
8
Geo
100
AcDbLine
10
-5.54387527839649
20
3.21647132962872
30
0.000000000000000
11
-5.44387527839649
21
3.11945819889746
31
0.000000000000000
  0
LINE
  5
F104BD
330
F104BE
100
AcDbEntity
8
Geo
100
AcDbLine
10
-5.44387527839649
20
3.11945819889746
30
0.000000000000000
11
-5.34387527839649
21
3.02363447613078
31
0.000000000000000
  0
LINE
  5
F104BF
330
F104C0
100
AcDbEntity
8
Geo
100
AcDbLine
10
-5.34387527839649
20
3.02363447613078
30
0.000000000000000
11
-5.24387527839649
21
2.92906629129094
31
0.000000000000000
  0
LINE
  5
F104C1
330
F104C2
100
AcDbEntity
8
Geo
100
AcDbLine
10
-5.24387527839649
20
2.92906629129094
30
0.000000000000000
11
-5.14387527839649
21
2.83581813663188
31
0.000000000000000
  0
LINE
  5
F104C3
330
F104C4
100
AcDbEntity
8
Geo
100
AcDbLine
10
-5.14387527839649
20
2.83581813663188
30
0.000000000000000
11
-5.04387527839649
21
2.74395283383112
31
0.000000000000000
  0
LINE
  5
F104C5
330
F104C6
100
AcDbEntity
8
Geo
100
AcDbLine
10
-5.04387527839649
20
2.74395283383112
30
0.000000000000000
11
-4.94387527839649
21
2.65353150316340
31
0.000000000000000
  0
LINE
  5
F104C7
330
F104C8
100
AcDbEntity
8
Geo
100
AcDbLine
10
-4.94387527839649
20
2.65353150316340
30
0.000000000000000
11
-4.84387527839649
21
2.56461353470714
31
0.000000000000000
  0
LINE
  5
F104C9
330
F104CA
100
AcDbEntity
8
Geo
100
AcDbLine
10
-4.84387527839649
20
2.56461353470714
30
0.000000000000000
11
-4.74387527839639
21
2.47725656157332
31
0.000000000000000
  0
LINE
  5
F104CB
330
F104CC
100
AcDbEntity
8
Geo
100
AcDbLine
10
-4.74387527839639
20
2.47725656157332
30
0.000000000000000
11
-4.64387527839639
21
2.39151643514388
31
0.000000000000000
  0
LINE
  5
F104CD
330
F104CE
100
AcDbEntity
8
Geo
100
AcDbLine
10
-4.64387527839639
20
2.39151643514388
30
0.000000000000000
11
-4.54387527839639
21
2.30744720230573
31
0.000000000000000
  0
LINE
  5
F104CF
330
F104D0
100
AcDbEntity
8
Geo
100
AcDbLine
10
-4.54387527839639
20
2.30744720230573
30
0.000000000000000
11
-4.44387527839639
21
2.22510108466393
31
0.000000000000000
  0
LINE
  5
F104D1
330
F104D2
100
AcDbEntity
8
Geo
100
AcDbLine
10
-4.44387527839639
20
2.22510108466393
30
0.000000000000000
11
-4.34387527839639
21
2.14452845971647
31
0.000000000000000
  0
LINE
  5
F104D3
330
F104D4
100
AcDbEntity
8
Geo
100
AcDbLine
10
-4.34387527839639
20
2.14452845971647
30
0.000000000000000
11
-4.24387527839639
21
2.06577784397123
31
0.000000000000000
  0
LINE
  5
F104D5
330
F104D6
100
AcDbEntity
8
Geo
100
AcDbLine
10
-4.24387527839639
20
2.06577784397123
30
0.000000000000000
11
-4.14387527839639
21
1.98889587798421
31
0.000000000000000
  0
LINE
  5
F104D7
330
F104D8
100
AcDbEntity
8
Geo
100
AcDbLine
10
-4.14387527839639
20
1.98889587798421
30
0.000000000000000
11
-4.04387527839639
21
1.91392731329643
31
0.000000000000000
  0
LINE
  5
F104D9
330
F104DA
100
AcDbEntity
8
Geo
100
AcDbLine
10
-4.04387527839639
20
1.91392731329643
30
0.000000000000000
11
-3.94387527839639
21
1.84091500124577
31
0.000000000000000
  0
LINE
  5
F104DB
330
F104DC
100
AcDbEntity
8
Geo
100
AcDbLine
10
-3.94387527839639
20
1.84091500124577
30
0.000000000000000
11
-3.84387527839639
21
1.76989988362839
31
0.000000000000000
  0
LINE
  5
F104DD
330
F104DE
100
AcDbEntity
8
Geo
100
AcDbLine
10
-3.84387527839639
20
1.76989988362839
30
0.000000000000000
11
-3.74387527839639
21
1.70092098518303
31
0.000000000000000
  0
LINE
  5
F104DF
330
F104E0
100
AcDbEntity
8
Geo
100
AcDbLine
10
-3.74387527839639
20
1.70092098518303
30
0.000000000000000
11
-3.64387527839639
21
1.63401540787054
31
0.000000000000000
  0
LINE
  5
F104E1
330
F104E2
100
AcDbEntity
8
Geo
100
AcDbLine
10
-3.64387527839639
20
1.63401540787054
30
0.000000000000000
11
-3.54387527839639
21
1.56921832691926
31
0.000000000000000
  0
LINE
  5
F104E3
330
F104E4
100
AcDbEntity
8
Geo
100
AcDbLine
10
-3.54387527839639
20
1.56921832691926
30
0.000000000000000
11
-3.44387527839639
21
1.50656298860623
31
0.000000000000000
  0
LINE
  5
F104E5
330
F104E6
100
AcDbEntity
8
Geo
100
AcDbLine
10
-3.44387527839639
20
1.50656298860623
30
0.000000000000000
11
-3.34387527839639
21
1.44608070974294
31
0.000000000000000
  0
LINE
  5
F104E7
330
F104E8
100
AcDbEntity
8
Geo
100
AcDbLine
10
-3.34387527839639
20
1.44608070974294
30
0.000000000000000
11
-3.24387527839649
21
1.38780087883307
31
0.000000000000000
  0
LINE
  5
F104E9
330
F104EA
100
AcDbEntity
8
Geo
100
AcDbLine
10
-21.0438752783965
20
8.44306625930488
30
0.000000000000000
11
-20.9438752783965
21
8.44289036768089
31
0.000000000000000
  0
LINE
  5
F104EB
330
F104EC
100
AcDbEntity
8
Geo
100
AcDbLine
10
-20.9438752783965
20
8.44289036768089
30
0.000000000000000
11
-20.8438752783965
21
8.44095445951428
31
0.000000000000000
  0
LINE
  5
F104ED
330
F104EE
100
AcDbEntity
8
Geo
100
AcDbLine
10
-20.8438752783965
20
8.44095445951428
30
0.000000000000000
11
-20.7438752783965
21
8.43725938668010
31
0.000000000000000
  0
LINE
  5
F104EF
330
F104F0
100
AcDbEntity
8
Geo
100
AcDbLine
10
-20.7438752783965
20
8.43725938668010
30
0.000000000000000
11
-20.6438752783965
21
8.43180677515445
31
0.000000000000000
  0
LINE
  5
F104F1
330
F104F2
100
AcDbEntity
8
Geo
100
AcDbLine
10
-20.6438752783965
20
8.43180677515445
30
0.000000000000000
11
-20.5438752783965
21
8.42459902429895
31
0.000000000000000
  0
LINE
  5
F104F3
330
F104F4
100
AcDbEntity
8
Geo
100
AcDbLine
10
-20.5438752783965
20
8.42459902429895
30
0.000000000000000
11
-20.4438752783965
21
8.41563930580495
31
0.000000000000000
  0
LINE
  5
F104F5
330
F104F6
100
AcDbEntity
8
Geo
100
AcDbLine
10
-20.4438752783965
20
8.41563930580495
30
0.000000000000000
11
-20.3438752783965
21
8.40493156229786
31
0.000000000000000
  0
LINE
  5
F104F7
330
F104F8
100
AcDbEntity
8
Geo
100
AcDbLine
10
-20.3438752783965
20
8.40493156229786
30
0.000000000000000
11
-20.2438752783965
21
8.39248050560224
31
0.000000000000000
  0
LINE
  5
F104F9
330
F104FA
100
AcDbEntity
8
Geo
100
AcDbLine
10
-20.2438752783965
20
8.39248050560224
30
0.000000000000000
11
-20.1438752783965
21
8.37829161466841
31
0.000000000000000
  0
LINE
  5
F104FB
330
F104FC
100
AcDbEntity
8
Geo
100
AcDbLine
10
-20.1438752783965
20
8.37829161466841
30
0.000000000000000
11
-20.0438752783965
21
8.36237113316148
31
0.000000000000000
  0
LINE
  5
F104FD
330
F104FE
100
AcDbEntity
8
Geo
100
AcDbLine
10
-20.0438752783965
20
8.36237113316148
30
0.000000000000000
11
-19.9438752783965
21
8.34472606671393
31
0.000000000000000
  0
LINE
  5
F104FF
330
F10500
100
AcDbEntity
8
Geo
100
AcDbLine
10
-19.9438752783965
20
8.34472606671393
30
0.000000000000000
11
-19.8438752783965
21
8.32536417984286
31
0.000000000000000
  0
LINE
  5
F10501
330
F10502
100
AcDbEntity
8
Geo
100
AcDbLine
10
-19.8438752783965
20
8.32536417984286
30
0.000000000000000
11
-19.7438752783965
21
8.30429399253325
31
0.000000000000000
  0
LINE
  5
F10503
330
F10504
100
AcDbEntity
8
Geo
100
AcDbLine
10
-19.7438752783965
20
8.30429399253325
30
0.000000000000000
11
-19.6438752783965
21
8.28152477648888
31
0.000000000000000
  0
LINE
  5
F10505
330
F10506
100
AcDbEntity
8
Geo
100
AcDbLine
10
-19.6438752783965
20
8.28152477648888
30
0.000000000000000
11
-19.5438752783965
21
8.25706655105241
31
0.000000000000000
  0
LINE
  5
F10507
330
F10508
100
AcDbEntity
8
Geo
100
AcDbLine
10
-19.5438752783965
20
8.25706655105241
30
0.000000000000000
11
-19.4438752783965
21
8.23093007879646
31
0.000000000000000
  0
LINE
  5
F10509
330
F1050A
100
AcDbEntity
8
Geo
100
AcDbLine
10
-19.4438752783965
20
8.23093007879646
30
0.000000000000000
11
-19.3438752783965
21
8.20312686078770
31
0.000000000000000
  0
LINE
  5
F1050B
330
F1050C
100
AcDbEntity
8
Geo
100
AcDbLine
10
-19.3438752783965
20
8.20312686078770
30
0.000000000000000
11
-19.2438752783965
21
8.17366913152586
31
0.000000000000000
  0
LINE
  5
F1050D
330
F1050E
100
AcDbEntity
8
Geo
100
AcDbLine
10
-19.2438752783965
20
8.17366913152586
30
0.000000000000000
11
-19.1438752783965
21
8.14256985356017
31
0.000000000000000
  0
LINE
  5
F1050F
330
F10510
100
AcDbEntity
8
Geo
100
AcDbLine
10
-19.1438752783965
20
8.14256985356017
30
0.000000000000000
11
-19.0438752783965
21
8.10984271178524
31
0.000000000000000
  0
LINE
  5
F10511
330
F10512
100
AcDbEntity
8
Geo
100
AcDbLine
10
-19.0438752783965
20
8.10984271178524
30
0.000000000000000
11
-18.9438752783965
21
8.07550210741923
31
0.000000000000000
  0
LINE
  5
F10513
330
F10514
100
AcDbEntity
8
Geo
100
AcDbLine
10
-18.9438752783965
20
8.07550210741923
30
0.000000000000000
11
-18.8438752783965
21
8.03956315166674
31
0.000000000000000
  0
LINE
  5
F10515
330
F10516
100
AcDbEntity
8
Geo
100
AcDbLine
10
-18.8438752783965
20
8.03956315166674
30
0.000000000000000
11
-18.7438752783965
21
8.00204165906927
31
0.000000000000000
  0
LINE
  5
F10517
330
F10518
100
AcDbEntity
8
Geo
100
AcDbLine
10
-18.7438752783965
20
8.00204165906927
30
0.000000000000000
11
-18.6438752783965
21
7.96295414054626
31
0.000000000000000
  0
LINE
  5
F10519
330
F1051A
100
AcDbEntity
8
Geo
100
AcDbLine
10
-18.6438752783965
20
7.96295414054626
30
0.000000000000000
11
-18.5438752783965
21
7.92231779612956
31
0.000000000000000
  0
LINE
  5
F1051B
330
F1051C
100
AcDbEntity
8
Geo
100
AcDbLine
10
-18.5438752783965
20
7.92231779612956
30
0.000000000000000
11
-18.4438752783965
21
7.88015050739482
31
0.000000000000000
  0
LINE
  5
F1051D
330
F1051E
100
AcDbEntity
8
Geo
100
AcDbLine
10
-18.4438752783965
20
7.88015050739482
30
0.000000000000000
11
-18.3438752783965
21
7.83647082959285
31
0.000000000000000
  0
LINE
  5
F1051F
330
F10520
100
AcDbEntity
8
Geo
100
AcDbLine
10
-18.3438752783965
20
7.83647082959285
30
0.000000000000000
11
-18.2438752783965
21
7.79129798348463
31
0.000000000000000
  0
LINE
  5
F10521
330
F10522
100
AcDbEntity
8
Geo
100
AcDbLine
10
-18.2438752783965
20
7.79129798348463
30
0.000000000000000
11
-18.1438752783965
21
7.74465184688337
31
0.000000000000000
  0
LINE
  5
F10523
330
F10524
100
AcDbEntity
8
Geo
100
AcDbLine
10
-18.1438752783965
20
7.74465184688337
30
0.000000000000000
11
-18.0438752783965
21
7.69655294590756
31
0.000000000000000
  0
LINE
  5
F10525
330
F10526
100
AcDbEntity
8
Geo
100
AcDbLine
10
-18.0438752783965
20
7.69655294590756
30
0.000000000000000
11
-17.9438752783965
21
7.64702244594863
31
0.000000000000000
  0
LINE
  5
F10527
330
F10528
100
AcDbEntity
8
Geo
100
AcDbLine
10
-17.9438752783965
20
7.64702244594863
30
0.000000000000000
11
-17.8438752783965
21
7.59608214235736
31
0.000000000000000
  0
LINE
  5
F10529
330
F1052A
100
AcDbEntity
8
Geo
100
AcDbLine
10
-17.8438752783965
20
7.59608214235736
30
0.000000000000000
11
-17.7438752783965
21
7.54375445085312
31
0.000000000000000
  0
LINE
  5
F1052B
330
F1052C
100
AcDbEntity
8
Geo
100
AcDbLine
10
-17.7438752783965
20
7.54375445085312
30
0.000000000000000
11
-17.6438752783965
21
7.49006239766001
31
0.000000000000000
  0
LINE
  5
F1052D
330
F1052E
100
AcDbEntity
8
Geo
100
AcDbLine
10
-17.6438752783965
20
7.49006239766001
30
0.000000000000000
11
-17.5438752783965
21
7.43502960937448
31
0.000000000000000
  0
LINE
  5
F1052F
330
F10530
100
AcDbEntity
8
Geo
100
AcDbLine
10
-17.5438752783965
20
7.43502960937448
30
0.000000000000000
11
-17.4438752783965
21
7.37868030256867
31
0.000000000000000
  0
LINE
  5
F10531
330
F10532
100
AcDbEntity
8
Geo
100
AcDbLine
10
-17.4438752783965
20
7.37868030256867
30
0.000000000000000
11
-17.3438752783965
21
7.32103927313420
31
0.000000000000000
  0
LINE
  5
F10533
330
F10534
100
AcDbEntity
8
Geo
100
AcDbLine
10
-17.3438752783965
20
7.32103927313420
30
0.000000000000000
11
-17.2438752783965
21
7.26213188537101
31
0.000000000000000
  0
LINE
  5
F10535
330
F10536
100
AcDbEntity
8
Geo
100
AcDbLine
10
-17.2438752783965
20
7.26213188537101
30
0.000000000000000
11
-17.1438752783965
21
7.20198406082605
31
0.000000000000000
  0
LINE
  5
F10537
330
F10538
100
AcDbEntity
8
Geo
100
AcDbLine
10
-17.1438752783965
20
7.20198406082605
30
0.000000000000000
11
-17.0438752783965
21
7.14062226688681
31
0.000000000000000
  0
LINE
  5
F10539
330
F1053A
100
AcDbEntity
8
Geo
100
AcDbLine
10
-17.0438752783965
20
7.14062226688681
30
0.000000000000000
11
-16.9438752783965
21
7.07807350513466
31
0.000000000000000
  0
LINE
  5
F1053B
330
F1053C
100
AcDbEntity
8
Geo
100
AcDbLine
10
-16.9438752783965
20
7.07807350513466
30
0.000000000000000
11
-16.8438752783965
21
7.01436529946305
31
0.000000000000000
  0
LINE
  5
F1053D
330
F1053E
100
AcDbEntity
8
Geo
100
AcDbLine
10
-16.8438752783965
20
7.01436529946305
30
0.000000000000000
11
-16.7438752783965
21
6.94952568396597
31
0.000000000000000
  0
LINE
  5
F1053F
330
F10540
100
AcDbEntity
8
Geo
100
AcDbLine
10
-16.7438752783965
20
6.94952568396597
30
0.000000000000000
11
-16.6438752783965
21
6.88358319060184
31
0.000000000000000
  0
LINE
  5
F10541
330
F10542
100
AcDbEntity
8
Geo
100
AcDbLine
10
-16.6438752783965
20
6.88358319060184
30
0.000000000000000
11
-16.5438752783965
21
6.81656683663833
31
0.000000000000000
  0
LINE
  5
F10543
330
F10544
100
AcDbEntity
8
Geo
100
AcDbLine
10
-16.5438752783965
20
6.81656683663833
30
0.000000000000000
11
-16.4438752783965
21
6.74850611188362
31
0.000000000000000
  0
LINE
  5
F10545
330
F10546
100
AcDbEntity
8
Geo
100
AcDbLine
10
-16.4438752783965
20
6.74850611188362
30
0.000000000000000
11
-16.3438752783965
21
6.67943096570976
31
0.000000000000000
  0
LINE
  5
F10547
330
F10548
100
AcDbEntity
8
Geo
100
AcDbLine
10
-16.3438752783965
20
6.67943096570976
30
0.000000000000000
11
-16.2438752783965
21
6.60937179387379
31
0.000000000000000
  0
LINE
  5
F10549
330
F1054A
100
AcDbEntity
8
Geo
100
AcDbLine
10
-16.2438752783965
20
6.60937179387379
30
0.000000000000000
11
-16.1438752783965
21
6.53835942514238
31
0.000000000000000
  0
LINE
  5
F1054B
330
F1054C
100
AcDbEntity
8
Geo
100
AcDbLine
10
-16.1438752783965
20
6.53835942514238
30
0.000000000000000
11
-16.0438752783965
21
6.46642510772598
31
0.000000000000000
  0
LINE
  5
F1054D
330
F1054E
100
AcDbEntity
8
Geo
100
AcDbLine
10
-16.0438752783965
20
6.46642510772598
30
0.000000000000000
11
-15.9438752783965
21
6.39360049552843
31
0.000000000000000
  0
LINE
  5
F1054F
330
F10550
100
AcDbEntity
8
Geo
100
AcDbLine
10
-15.9438752783965
20
6.39360049552843
30
0.000000000000000
11
-15.8438752783965
21
6.31991763421795
31
0.000000000000000
  0
LINE
  5
F10551
330
F10552
100
AcDbEntity
8
Geo
100
AcDbLine
10
-15.8438752783965
20
6.31991763421795
30
0.000000000000000
11
-15.7438752783965
21
6.24540894712586
31
0.000000000000000
  0
LINE
  5
F10553
330
F10554
100
AcDbEntity
8
Geo
100
AcDbLine
10
-15.7438752783965
20
6.24540894712586
30
0.000000000000000
11
-15.6438752783965
21
6.17010722097898
31
0.000000000000000
  0
LINE
  5
F10555
330
F10556
100
AcDbEntity
8
Geo
100
AcDbLine
10
-15.6438752783965
20
6.17010722097898
30
0.000000000000000
11
-15.5438752783965
21
6.09404559147226
31
0.000000000000000
  0
LINE
  5
F10557
330
F10558
100
AcDbEntity
8
Geo
100
AcDbLine
10
-15.5438752783965
20
6.09404559147226
30
0.000000000000000
11
-15.4438752783965
21
6.01725752868773
31
0.000000000000000
  0
LINE
  5
F10559
330
F1055A
100
AcDbEntity
8
Geo
100
AcDbLine
10
-15.4438752783965
20
6.01725752868773
30
0.000000000000000
11
-15.3438752783965
21
5.93977682236639
31
0.000000000000000
  0
LINE
  5
F1055B
330
F1055C
100
AcDbEntity
8
Geo
100
AcDbLine
10
-15.3438752783965
20
5.93977682236639
30
0.000000000000000
11
-15.2438752783965
21
5.86163756703940
31
0.000000000000000
  0
LINE
  5
F1055D
330
F1055E
100
AcDbEntity
8
Geo
100
AcDbLine
10
-15.2438752783965
20
5.86163756703940
30
0.000000000000000
11
-15.1438752783965
21
5.78287414702514
31
0.000000000000000
  0
LINE
  5
F1055F
330
F10560
100
AcDbEntity
8
Geo
100
AcDbLine
10
-15.1438752783965
20
5.78287414702514
30
0.000000000000000
11
-15.0438752783965
21
5.70352122129879
31
0.000000000000000
  0
LINE
  5
F10561
330
F10562
100
AcDbEntity
8
Geo
100
AcDbLine
10
-15.0438752783965
20
5.70352122129879
30
0.000000000000000
11
-14.9438752783965
21
5.62361370824103
31
0.000000000000000
  0
LINE
  5
F10563
330
F10564
100
AcDbEntity
8
Geo
100
AcDbLine
10
-14.9438752783965
20
5.62361370824103
30
0.000000000000000
11
-14.8438752783965
21
5.54318677027259
31
0.000000000000000
  0
LINE
  5
F10565
330
F10566
100
AcDbEntity
8
Geo
100
AcDbLine
10
-14.8438752783965
20
5.54318677027259
30
0.000000000000000
11
-14.7438752783965
21
5.46227579838139
31
0.000000000000000
  0
LINE
  5
F10567
330
F10568
100
AcDbEntity
8
Geo
100
AcDbLine
10
-14.7438752783965
20
5.46227579838139
30
0.000000000000000
11
-14.6438752783965
21
5.38091639654915
31
0.000000000000000
  0
LINE
  5
F10569
330
F1056A
100
AcDbEntity
8
Geo
100
AcDbLine
10
-14.6438752783965
20
5.38091639654915
30
0.000000000000000
11
-14.5438752783965
21
5.29914436608426
31
0.000000000000000
  0
LINE
  5
F1056B
330
F1056C
100
AcDbEntity
8
Geo
100
AcDbLine
10
-14.5438752783965
20
5.29914436608426
30
0.000000000000000
11
-14.4438752783965
21
5.21699568986779
31
0.000000000000000
  0
LINE
  5
F1056D
330
F1056E
100
AcDbEntity
8
Geo
100
AcDbLine
10
-14.4438752783965
20
5.21699568986779
30
0.000000000000000
11
-14.3438752783965
21
5.13450651651960
31
0.000000000000000
  0
LINE
  5
F1056F
330
F10570
100
AcDbEntity
8
Geo
100
AcDbLine
10
-14.3438752783965
20
5.13450651651960
30
0.000000000000000
11
-14.2438752783965
21
5.05171314449159
31
0.000000000000000
  0
LINE
  5
F10571
330
F10572
100
AcDbEntity
8
Geo
100
AcDbLine
10
-14.2438752783965
20
5.05171314449159
30
0.000000000000000
11
-14.1438752783965
21
4.96865200609491
31
0.000000000000000
  0
LINE
  5
F10573
330
F10574
100
AcDbEntity
8
Geo
100
AcDbLine
10
-14.1438752783965
20
4.96865200609491
30
0.000000000000000
11
-14.0438752783965
21
4.88535965146838
31
0.000000000000000
  0
LINE
  5
F10575
330
F10576
100
AcDbEntity
8
Geo
100
AcDbLine
10
-14.0438752783965
20
4.88535965146838
30
0.000000000000000
11
-13.9438752783965
21
4.80187273249496
31
0.000000000000000
  0
LINE
  5
F10577
330
F10578
100
AcDbEntity
8
Geo
100
AcDbLine
10
-13.9438752783965
20
4.80187273249496
30
0.000000000000000
11
-13.8438752783965
21
4.71822798667350
31
0.000000000000000
  0
LINE
  5
F10579
330
F1057A
100
AcDbEntity
8
Geo
100
AcDbLine
10
-13.8438752783965
20
4.71822798667350
30
0.000000000000000
11
-13.7438752783965
21
4.63446222095283
31
0.000000000000000
  0
LINE
  5
F1057B
330
F1057C
100
AcDbEntity
8
Geo
100
AcDbLine
10
-13.7438752783965
20
4.63446222095283
30
0.000000000000000
11
-13.6438752783965
21
4.55061229553524
31
0.000000000000000
  0
LINE
  5
F1057D
330
F1057E
100
AcDbEntity
8
Geo
100
AcDbLine
10
-13.6438752783965
20
4.55061229553524
30
0.000000000000000
11
-13.5438752783965
21
4.46671510765657
31
0.000000000000000
  0
LINE
  5
F1057F
330
F10580
100
AcDbEntity
8
Geo
100
AcDbLine
10
-13.5438752783965
20
4.46671510765657
30
0.000000000000000
11
-13.4438752783965
21
4.38280757535000
31
0.000000000000000
  0
LINE
  5
F10581
330
F10582
100
AcDbEntity
8
Geo
100
AcDbLine
10
-13.4438752783965
20
4.38280757535000
30
0.000000000000000
11
-13.3438752783965
21
4.29892662120064
31
0.000000000000000
  0
LINE
  5
F10583
330
F10584
100
AcDbEntity
8
Geo
100
AcDbLine
10
-13.3438752783965
20
4.29892662120064
30
0.000000000000000
11
-13.2438752783965
21
4.21510915609820
31
0.000000000000000
  0
LINE
  5
F10585
330
F10586
100
AcDbEntity
8
Geo
100
AcDbLine
10
-13.2438752783965
20
4.21510915609820
30
0.000000000000000
11
-13.1438752783965
21
4.13139206299470
31
0.000000000000000
  0
LINE
  5
F10587
330
F10588
100
AcDbEntity
8
Geo
100
AcDbLine
10
-13.1438752783965
20
4.13139206299470
30
0.000000000000000
11
-13.0438752783965
21
4.04781218067459
31
0.000000000000000
  0
LINE
  5
F10589
330
F1058A
100
AcDbEntity
8
Geo
100
AcDbLine
10
-13.0438752783965
20
4.04781218067459
30
0.000000000000000
11
-12.9438752783965
21
3.96440628754424
31
0.000000000000000
  0
LINE
  5
F1058B
330
F1058C
100
AcDbEntity
8
Geo
100
AcDbLine
10
-12.9438752783965
20
3.96440628754424
30
0.000000000000000
11
-12.8438752783965
21
3.88121108544797
31
0.000000000000000
  0
LINE
  5
F1058D
330
F1058E
100
AcDbEntity
8
Geo
100
AcDbLine
10
-12.8438752783965
20
3.88121108544797
30
0.000000000000000
11
-12.7438752783965
21
3.79826318351784
31
0.000000000000000
  0
LINE
  5
F1058F
330
F10590
100
AcDbEntity
8
Geo
100
AcDbLine
10
-12.7438752783965
20
3.79826318351784
30
0.000000000000000
11
-12.6438752783965
21
3.71559908206418
31
0.000000000000000
  0
LINE
  5
F10591
330
F10592
100
AcDbEntity
8
Geo
100
AcDbLine
10
-12.6438752783965
20
3.71559908206418
30
0.000000000000000
11
-12.5438752783965
21
3.63325515651408
31
0.000000000000000
  0
LINE
  5
F10593
330
F10594
100
AcDbEntity
8
Geo
100
AcDbLine
10
-12.5438752783965
20
3.63325515651408
30
0.000000000000000
11
-12.4438752783965
21
3.55126764140474
31
0.000000000000000
  0
LINE
  5
F10595
330
F10596
100
AcDbEntity
8
Geo
100
AcDbLine
10
-12.4438752783965
20
3.55126764140474
30
0.000000000000000
11
-12.3438752783965
21
3.46967261443885
31
0.000000000000000
  0
LINE
  5
F10597
330
F10598
100
AcDbEntity
8
Geo
100
AcDbLine
10
-12.3438752783965
20
3.46967261443885
30
0.000000000000000
11
-12.2438752783965
21
3.38850598060905
31
0.000000000000000
  0
LINE
  5
F10599
330
F1059A
100
AcDbEntity
8
Geo
100
AcDbLine
10
-12.2438752783965
20
3.38850598060905
30
0.000000000000000
11
-12.1438752783965
21
3.30780345639827
31
0.000000000000000
  0
LINE
  5
F1059B
330
F1059C
100
AcDbEntity
8
Geo
100
AcDbLine
10
-12.1438752783965
20
3.30780345639827
30
0.000000000000000
11
-12.0438752783965
21
3.22760055406314
31
0.000000000000000
  0
LINE
  5
F1059D
330
F1059E
100
AcDbEntity
8
Geo
100
AcDbLine
10
-12.0438752783965
20
3.22760055406314
30
0.000000000000000
11
-11.9438752783965
21
3.14793256600717
31
0.000000000000000
  0
LINE
  5
F1059F
330
F105A0
100
AcDbEntity
8
Geo
100
AcDbLine
10
-11.9438752783965
20
3.14793256600717
30
0.000000000000000
11
-11.8438752783965
21
3.06883454925075
31
0.000000000000000
  0
LINE
  5
F105A1
330
F105A2
100
AcDbEntity
8
Geo
100
AcDbLine
10
-11.8438752783965
20
3.06883454925075
30
0.000000000000000
11
-11.7438752783965
21
2.99034131000467
31
0.000000000000000
  0
LINE
  5
F105A3
330
F105A4
100
AcDbEntity
8
Geo
100
AcDbLine
10
-11.7438752783965
20
2.99034131000467
30
0.000000000000000
11
-11.6438752783965
21
2.91248738835403
31
0.000000000000000
  0
LINE
  5
F105A5
330
F105A6
100
AcDbEntity
8
Geo
100
AcDbLine
10
-11.6438752783965
20
2.91248738835403
30
0.000000000000000
11
-11.5438752783965
21
2.83530704305930
31
0.000000000000000
  0
LINE
  5
F105A7
330
F105A8
100
AcDbEntity
8
Geo
100
AcDbLine
10
-11.5438752783965
20
2.83530704305930
30
0.000000000000000
11
-11.4438752783965
21
2.75883423648106
31
0.000000000000000
  0
LINE
  5
F105A9
330
F105AA
100
AcDbEntity
8
Geo
100
AcDbLine
10
-11.4438752783965
20
2.75883423648106
30
0.000000000000000
11
-11.3438752783965
21
2.68310261963530
31
0.000000000000000
  0
LINE
  5
F105AB
330
F105AC
100
AcDbEntity
8
Geo
100
AcDbLine
10
-11.3438752783965
20
2.68310261963530
30
0.000000000000000
11
-11.2438752783965
21
2.60814551738561
31
0.000000000000000
  0
LINE
  5
F105AD
330
F105AE
100
AcDbEntity
8
Geo
100
AcDbLine
10
-11.2438752783965
20
2.60814551738561
30
0.000000000000000
11
-11.1438752783965
21
2.53399591377897
31
0.000000000000000
  0
LINE
  5
F105AF
330
F105B0
100
AcDbEntity
8
Geo
100
AcDbLine
10
-11.1438752783965
20
2.53399591377897
30
0.000000000000000
11
-11.0438752783965
21
2.46068643753151
31
0.000000000000000
  0
LINE
  5
F105B1
330
F105B2
100
AcDbEntity
8
Geo
100
AcDbLine
10
-11.0438752783965
20
2.46068643753151
30
0.000000000000000
11
-10.9438752783965
21
2.38824934767053
31
0.000000000000000
  0
LINE
  5
F105B3
330
F105B4
100
AcDbEntity
8
Geo
100
AcDbLine
10
-10.9438752783965
20
2.38824934767053
30
0.000000000000000
11
-10.8438752783965
21
2.31671651933933
31
0.000000000000000
  0
LINE
  5
F105B5
330
F105B6
100
AcDbEntity
8
Geo
100
AcDbLine
10
-10.8438752783965
20
2.31671651933933
30
0.000000000000000
11
-10.7438752783965
21
2.24611942977090
31
0.000000000000000
  0
LINE
  5
F105B7
330
F105B8
100
AcDbEntity
8
Geo
100
AcDbLine
10
-10.7438752783965
20
2.24611942977090
30
0.000000000000000
11
-10.6438752783965
21
2.17648914443667
31
0.000000000000000
  0
LINE
  5
F105B9
330
F105BA
100
AcDbEntity
8
Geo
100
AcDbLine
10
-10.6438752783965
20
2.17648914443667
30
0.000000000000000
11
-10.5438752783965
21
2.10785630337654
31
0.000000000000000
  0
LINE
  5
F105BB
330
F105BC
100
AcDbEntity
8
Geo
100
AcDbLine
10
-10.5438752783965
20
2.10785630337654
30
0.000000000000000
11
-10.4438752783965
21
2.04025110771604
31
0.000000000000000
  0
LINE
  5
F105BD
330
F105BE
100
AcDbEntity
8
Geo
100
AcDbLine
10
-10.4438752783965
20
2.04025110771604
30
0.000000000000000
11
-10.3438752783965
21
1.97370330637667
31
0.000000000000000
  0
LINE
  5
F105BF
330
F105C0
100
AcDbEntity
8
Geo
100
AcDbLine
10
-10.3438752783965
20
1.97370330637667
30
0.000000000000000
11
-10.2438752783965
21
1.90824218298520
31
0.000000000000000
  0
LINE
  5
F105C1
330
F105C2
100
AcDbEntity
8
Geo
100
AcDbLine
10
-10.2438752783965
20
1.90824218298520
30
0.000000000000000
11
-10.1438752783965
21
1.84389654298773
31
0.000000000000000
  0
LINE
  5
F105C3
330
F105C4
100
AcDbEntity
8
Geo
100
AcDbLine
10
-10.1438752783965
20
1.84389654298773
30
0.000000000000000
11
-10.0438752783965
21
1.78069470097422
31
0.000000000000000
  0
LINE
  5
F105C5
330
F105C6
100
AcDbEntity
8
Geo
100
AcDbLine
10
-10.0438752783965
20
1.78069470097422
30
0.000000000000000
11
-9.94387527839649
21
1.71866446821889
31
0.000000000000000
  0
LINE
  5
F105C7
330
F105C8
100
AcDbEntity
8
Geo
100
AcDbLine
10
-9.94387527839649
20
1.71866446821889
30
0.000000000000000
11
-9.84387527839649
21
1.65783314044224
31
0.000000000000000
  0
LINE
  5
F105C9
330
F105CA
100
AcDbEntity
8
Geo
100
AcDbLine
10
-9.84387527839649
20
1.65783314044224
30
0.000000000000000
11
-9.74387527839649
21
1.59822748579983
31
0.000000000000000
  0
LINE
  5
F105CB
330
F105CC
100
AcDbEntity
8
Geo
100
AcDbLine
10
-9.74387527839649
20
1.59822748579983
30
0.000000000000000
11
-9.64387527839649
21
1.53987373310328
31
0.000000000000000
  0
LINE
  5
F105CD
330
F105CE
100
AcDbEntity
8
Geo
100
AcDbLine
10
-9.64387527839649
20
1.53987373310328
30
0.000000000000000
11
-9.54387527839649
21
1.48279756027851
31
0.000000000000000
  0
LINE
  5
F105CF
330
F105D0
100
AcDbEntity
8
Geo
100
AcDbLine
10
-9.54387527839649
20
1.48279756027851
30
0.000000000000000
11
-9.44387527839649
21
1.42702408306654
31
0.000000000000000
  0
LINE
  5
F105D1
330
F105D2
100
AcDbEntity
8
Geo
100
AcDbLine
10
-9.44387527839649
20
1.42702408306654
30
0.000000000000000
11
-9.34387527839649
21
1.37257784397152
31
0.000000000000000
  0
LINE
  5
F105D3
330
F105D4
100
AcDbEntity
8
Geo
100
AcDbLine
10
-9.34387527839649
20
1.37257784397152
30
0.000000000000000
11
-9.24387527839649
21
1.31948280146109
31
0.000000000000000
  0
LINE
  5
F105D5
330
F105D6
100
AcDbEntity
8
Geo
100
AcDbLine
10
-9.24387527839649
20
1.31948280146109
30
0.000000000000000
11
-9.14387527839649
21
1.26776231942371
31
0.000000000000000
  0
LINE
  5
F105D7
330
F105D8
100
AcDbEntity
8
Geo
100
AcDbLine
10
-9.14387527839649
20
1.26776231942371
30
0.000000000000000
11
-9.04387527839649
21
1.21743915688766
31
0.000000000000000
  0
LINE
  5
F105D9
330
F105DA
100
AcDbEntity
8
Geo
100
AcDbLine
10
-9.04387527839649
20
1.21743915688766
30
0.000000000000000
11
-8.94387527839649
21
1.16853545800617
31
0.000000000000000
  0
LINE
  5
F105DB
330
F105DC
100
AcDbEntity
8
Geo
100
AcDbLine
10
-8.94387527839649
20
1.16853545800617
30
0.000000000000000
11
-8.84387527839649
21
1.12107274231313
31
0.000000000000000
  0
LINE
  5
F105DD
330
F105DE
100
AcDbEntity
8
Geo
100
AcDbLine
10
-8.84387527839649
20
1.12107274231313
30
0.000000000000000
11
-8.74387527839649
21
1.07507189525364
31
0.000000000000000
  0
LINE
  5
F105DF
330
F105E0
100
AcDbEntity
8
Geo
100
AcDbLine
10
-8.74387527839649
20
1.07507189525364
30
0.000000000000000
11
-8.64387527839649
21
1.03055315899363
31
0.000000000000000
  0
LINE
  5
F105E1
330
F105E2
100
AcDbEntity
8
Geo
100
AcDbLine
10
-8.64387527839649
20
1.03055315899363
30
0.000000000000000
11
-8.54387527839649
21
0.987536123512488
31
0.000000000000000
  0
LINE
  5
F105E3
330
F105E4
100
AcDbEntity
8
Geo
100
AcDbLine
10
-8.54387527839649
20
0.987536123512488
30
0.000000000000000
11
-8.44387527839649
21
0.946039717982728
31
0.000000000000000
  0
LINE
  5
F105E5
330
F105E6
100
AcDbEntity
8
Geo
100
AcDbLine
10
-8.44387527839649
20
0.946039717982728
30
0.000000000000000
11
-8.34387527839649
21
0.906082202440408
31
0.000000000000000
  0
LINE
  5
F105E7
330
F105E8
100
AcDbEntity
8
Geo
100
AcDbLine
10
-8.34387527839649
20
0.906082202440408
30
0.000000000000000
11
-8.24387527839649
21
0.867681159750018
31
0.000000000000000
  0
LINE
  5
F105E9
330
F105EA
100
AcDbEntity
8
Geo
100
AcDbLine
10
-8.24387527839649
20
0.867681159750018
30
0.000000000000000
11
-8.24387527839649
21
0.867681159750018
31
0.000000000000000
  0
LINE
  5
F105EB
330
F105EC
100
AcDbEntity
8
Geo
100
AcDbLine
10
-8.24387527839649
20
0.867681159750018
30
0.000000000000000
11
-8.24387527839649
21
1.09115153269994
31
0.000000000000000
  0
LINE
  5
F105ED
330
F105EE
100
AcDbEntity
8
Geo
100
AcDbLine
10
-8.24387527839649
20
1.09115153269994
30
0.000000000000000
11
-8.24387527839649
21
0.867681159750018
31
0.000000000000000
  0
LINE
  5
F105EF
330
F105F0
100
AcDbEntity
8
Geo
100
AcDbLine
10
-8.24387527839649
20
0.867681159750018
30
0.000000000000000
11
-8.24387527839649
21
0.867681159750018
31
0.000000000000000
  0
LINE
  5
F105F1
330
F105F2
100
AcDbEntity
8
Geo
100
AcDbLine
10
-8.24387527839649
20
0.867681159750018
30
0.000000000000000
11
-8.14387527839649
21
1.09658031733462
31
0.000000000000000
  0
LINE
  5
F105F3
330
F105F4
100
AcDbEntity
8
Geo
100
AcDbLine
10
-8.14387527839649
20
1.09658031733462
30
0.000000000000000
11
-8.04387527839649
21
1.10203355257644
31
0.000000000000000
  0
LINE
  5
F105F5
330
F105F6
100
AcDbEntity
8
Geo
100
AcDbLine
10
-8.04387527839649
20
1.10203355257644
30
0.000000000000000
11
-7.94387527839649
21
1.10751098857805
31
0.000000000000000
  0
LINE
  5
F105F7
330
F105F8
100
AcDbEntity
8
Geo
100
AcDbLine
10
-7.94387527839649
20
1.10751098857805
30
0.000000000000000
11
-7.84387527839649
21
1.11301237613095
31
0.000000000000000
  0
LINE
  5
F105F9
330
F105FA
100
AcDbEntity
8
Geo
100
AcDbLine
10
-7.84387527839649
20
1.11301237613095
30
0.000000000000000
11
-7.74387527839649
21
1.11853746666980
31
0.000000000000000
  0
LINE
  5
F105FB
330
F105FC
100
AcDbEntity
8
Geo
100
AcDbLine
10
-7.74387527839649
20
1.11853746666980
30
0.000000000000000
11
-7.64387527839649
21
1.12408601227649
31
0.000000000000000
  0
LINE
  5
F105FD
330
F105FE
100
AcDbEntity
8
Geo
100
AcDbLine
10
-7.64387527839649
20
1.12408601227649
30
0.000000000000000
11
-7.54387527839649
21
1.12965776568432
31
0.000000000000000
  0
LINE
  5
F105FF
330
F10600
100
AcDbEntity
8
Geo
100
AcDbLine
10
-7.54387527839649
20
1.12965776568432
30
0.000000000000000
11
-7.44387527839649
21
1.13525248028199
31
0.000000000000000
  0
LINE
  5
F10601
330
F10602
100
AcDbEntity
8
Geo
100
AcDbLine
10
-7.44387527839649
20
1.13525248028199
30
0.000000000000000
11
-7.34387527839649
21
1.14086991011761
31
0.000000000000000
  0
LINE
  5
F10603
330
F10604
100
AcDbEntity
8
Geo
100
AcDbLine
10
-7.34387527839649
20
1.14086991011761
30
0.000000000000000
11
-7.24387527839649
21
1.14650980990261
31
0.000000000000000
  0
LINE
  5
F10605
330
F10606
100
AcDbEntity
8
Geo
100
AcDbLine
10
-7.24387527839649
20
1.14650980990261
30
0.000000000000000
11
-7.14387527839649
21
1.15217193501559
31
0.000000000000000
  0
LINE
  5
F10607
330
F10608
100
AcDbEntity
8
Geo
100
AcDbLine
10
-7.14387527839649
20
1.15217193501559
30
0.000000000000000
11
-7.04387527839649
21
1.15785604150611
31
0.000000000000000
  0
LINE
  5
F10609
330
F1060A
100
AcDbEntity
8
Geo
100
AcDbLine
10
-7.04387527839649
20
1.15785604150611
30
0.000000000000000
11
-6.94387527839649
21
1.16356188609847
31
0.000000000000000
  0
LINE
  5
F1060B
330
F1060C
100
AcDbEntity
8
Geo
100
AcDbLine
10
-6.94387527839649
20
1.16356188609847
30
0.000000000000000
11
-6.84387527839649
21
1.16928922619533
31
0.000000000000000
  0
LINE
  5
F1060D
330
F1060E
100
AcDbEntity
8
Geo
100
AcDbLine
10
-6.84387527839649
20
1.16928922619533
30
0.000000000000000
11
-6.74387527839649
21
1.17503781988134
31
0.000000000000000
  0
LINE
  5
F1060F
330
F10610
100
AcDbEntity
8
Geo
100
AcDbLine
10
-6.74387527839649
20
1.17503781988134
30
0.000000000000000
11
-6.64387527839649
21
1.18080742592671
31
0.000000000000000
  0
LINE
  5
F10611
330
F10612
100
AcDbEntity
8
Geo
100
AcDbLine
10
-6.64387527839649
20
1.18080742592671
30
0.000000000000000
11
-6.54387527839649
21
1.18659780379073
31
0.000000000000000
  0
LINE
  5
F10613
330
F10614
100
AcDbEntity
8
Geo
100
AcDbLine
10
-6.54387527839649
20
1.18659780379073
30
0.000000000000000
11
-6.44387527839649
21
1.19240871362514
31
0.000000000000000
  0
LINE
  5
F10615
330
F10616
100
AcDbEntity
8
Geo
100
AcDbLine
10
-6.44387527839649
20
1.19240871362514
30
0.000000000000000
11
-6.34387527839649
21
1.19823991627758
31
0.000000000000000
  0
LINE
  5
F10617
330
F10618
100
AcDbEntity
8
Geo
100
AcDbLine
10
-6.34387527839649
20
1.19823991627758
30
0.000000000000000
11
-6.24387527839649
21
1.20409117329485
31
0.000000000000000
  0
LINE
  5
F10619
330
F1061A
100
AcDbEntity
8
Geo
100
AcDbLine
10
-6.24387527839649
20
1.20409117329485
30
0.000000000000000
11
-6.14387527839649
21
1.20996224692624
31
0.000000000000000
  0
LINE
  5
F1061B
330
F1061C
100
AcDbEntity
8
Geo
100
AcDbLine
10
-6.14387527839649
20
1.20996224692624
30
0.000000000000000
11
-6.04387527839649
21
1.21585290012667
31
0.000000000000000
  0
LINE
  5
F1061D
330
F1061E
100
AcDbEntity
8
Geo
100
AcDbLine
10
-6.04387527839649
20
1.21585290012667
30
0.000000000000000
11
-5.94387527839649
21
1.22176289655989
31
0.000000000000000
  0
LINE
  5
F1061F
330
F10620
100
AcDbEntity
8
Geo
100
AcDbLine
10
-5.94387527839649
20
1.22176289655989
30
0.000000000000000
11
-5.84387527839649
21
1.22769200060153
31
0.000000000000000
  0
LINE
  5
F10621
330
F10622
100
AcDbEntity
8
Geo
100
AcDbLine
10
-5.84387527839649
20
1.22769200060153
30
0.000000000000000
11
-5.74387527839649
21
1.23363997734217
31
0.000000000000000
  0
LINE
  5
F10623
330
F10624
100
AcDbEntity
8
Geo
100
AcDbLine
10
-5.74387527839649
20
1.23363997734217
30
0.000000000000000
11
-5.64387527839649
21
1.23960659259030
31
0.000000000000000
  0
LINE
  5
F10625
330
F10626
100
AcDbEntity
8
Geo
100
AcDbLine
10
-5.64387527839649
20
1.23960659259030
30
0.000000000000000
11
-5.54387527839649
21
1.24559161287523
31
0.000000000000000
  0
LINE
  5
F10627
330
F10628
100
AcDbEntity
8
Geo
100
AcDbLine
10
-5.54387527839649
20
1.24559161287523
30
0.000000000000000
11
-5.44387527839649
21
1.25159480545000
31
0.000000000000000
  0
LINE
  5
F10629
330
F1062A
100
AcDbEntity
8
Geo
100
AcDbLine
10
-5.44387527839649
20
1.25159480545000
30
0.000000000000000
11
-5.34387527839649
21
1.25761593829413
31
0.000000000000000
  0
LINE
  5
F1062B
330
F1062C
100
AcDbEntity
8
Geo
100
AcDbLine
10
-5.34387527839649
20
1.25761593829413
30
0.000000000000000
11
-5.24387527839649
21
1.26365478011645
31
0.000000000000000
  0
LINE
  5
F1062D
330
F1062E
100
AcDbEntity
8
Geo
100
AcDbLine
10
-5.24387527839649
20
1.26365478011645
30
0.000000000000000
11
-5.14387527839649
21
1.26971110035771
31
0.000000000000000
  0
LINE
  5
F1062F
330
F10630
100
AcDbEntity
8
Geo
100
AcDbLine
10
-5.14387527839649
20
1.26971110035771
30
0.000000000000000
11
-5.04387527839649
21
1.27578466919332
31
0.000000000000000
  0
LINE
  5
F10631
330
F10632
100
AcDbEntity
8
Geo
100
AcDbLine
10
-5.04387527839649
20
1.27578466919332
30
0.000000000000000
11
-4.94387527839649
21
1.28187525753589
31
0.000000000000000
  0
LINE
  5
F10633
330
F10634
100
AcDbEntity
8
Geo
100
AcDbLine
10
-4.94387527839649
20
1.28187525753589
30
0.000000000000000
11
-4.84387527839649
21
1.28798263703776
31
0.000000000000000
  0
LINE
  5
F10635
330
F10636
100
AcDbEntity
8
Geo
100
AcDbLine
10
-4.84387527839649
20
1.28798263703776
30
0.000000000000000
11
-4.74387527839639
21
1.29410658009355
31
0.000000000000000
  0
LINE
  5
F10637
330
F10638
100
AcDbEntity
8
Geo
100
AcDbLine
10
-4.74387527839639
20
1.29410658009355
30
0.000000000000000
11
-4.64387527839639
21
1.30024685984249
31
0.000000000000000
  0
LINE
  5
F10639
330
F1063A
100
AcDbEntity
8
Geo
100
AcDbLine
10
-4.64387527839639
20
1.30024685984249
30
0.000000000000000
11
-4.54387527839639
21
1.30640325017091
31
0.000000000000000
  0
LINE
  5
F1063B
330
F1063C
100
AcDbEntity
8
Geo
100
AcDbLine
10
-4.54387527839639
20
1.30640325017091
30
0.000000000000000
11
-4.44387527839639
21
1.31257552571448
31
0.000000000000000
  0
LINE
  5
F1063D
330
F1063E
100
AcDbEntity
8
Geo
100
AcDbLine
10
-4.44387527839639
20
1.31257552571448
30
0.000000000000000
11
-4.34387527839639
21
1.31876346186054
31
0.000000000000000
  0
LINE
  5
F1063F
330
F10640
100
AcDbEntity
8
Geo
100
AcDbLine
10
-4.34387527839639
20
1.31876346186054
30
0.000000000000000
11
-4.24387527839639
21
1.32496683475031
31
0.000000000000000
  0
LINE
  5
F10641
330
F10642
100
AcDbEntity
8
Geo
100
AcDbLine
10
-4.24387527839639
20
1.32496683475031
30
0.000000000000000
11
-4.14387527839639
21
1.33118542128103
31
0.000000000000000
  0
LINE
  5
F10643
330
F10644
100
AcDbEntity
8
Geo
100
AcDbLine
10
-4.14387527839639
20
1.33118542128103
30
0.000000000000000
11
-4.04387527839639
21
1.33741899910814
31
0.000000000000000
  0
LINE
  5
F10645
330
F10646
100
AcDbEntity
8
Geo
100
AcDbLine
10
-4.04387527839639
20
1.33741899910814
30
0.000000000000000
11
-3.94387527839639
21
1.34366734664728
31
0.000000000000000
  0
LINE
  5
F10647
330
F10648
100
AcDbEntity
8
Geo
100
AcDbLine
10
-3.94387527839639
20
1.34366734664728
30
0.000000000000000
11
-3.84387527839639
21
1.34993024307637
31
0.000000000000000
  0
LINE
  5
F10649
330
F1064A
100
AcDbEntity
8
Geo
100
AcDbLine
10
-3.84387527839639
20
1.34993024307637
30
0.000000000000000
11
-3.74387527839639
21
1.35620746833755
31
0.000000000000000
  0
LINE
  5
F1064B
330
F1064C
100
AcDbEntity
8
Geo
100
AcDbLine
10
-3.74387527839639
20
1.35620746833755
30
0.000000000000000
11
-3.64387527839639
21
1.36249880313911
31
0.000000000000000
  0
LINE
  5
F1064D
330
F1064E
100
AcDbEntity
8
Geo
100
AcDbLine
10
-3.64387527839639
20
1.36249880313911
30
0.000000000000000
11
-3.54387527839639
21
1.36880402895733
31
0.000000000000000
  0
LINE
  5
F1064F
330
F10650
100
AcDbEntity
8
Geo
100
AcDbLine
10
-3.54387527839639
20
1.36880402895733
30
0.000000000000000
11
-3.44387527839639
21
1.37512292803836
31
0.000000000000000
  0
LINE
  5
F10651
330
F10652
100
AcDbEntity
8
Geo
100
AcDbLine
10
-3.44387527839639
20
1.37512292803836
30
0.000000000000000
11
-3.34387527839639
21
1.38145528339992
31
0.000000000000000
  0
LINE
  5
F10653
330
F10654
100
AcDbEntity
8
Geo
100
AcDbLine
10
-3.34387527839639
20
1.38145528339992
30
0.000000000000000
11
-3.24387527839649
21
1.38780087883307
31
0.000000000000000
  0
LINE
  5
F10655
330
F10656
100
AcDbEntity
8
Geo
100
AcDbLine
10
-27.2438752783965
20
7.15887460797298
30
0.000000000000000
11
-27.1438752783965
21
7.16816588703098
31
0.000000000000000
  0
LINE
  5
F10657
330
F10658
100
AcDbEntity
8
Geo
100
AcDbLine
10
-27.2438752783965
20
0.673992210510768
30
0.000000000000000
11
-27.1438752783965
21
0.557301330789618
31
0.000000000000000
  0
LINE
  5
F10659
330
F1065A
100
AcDbEntity
8
Geo
100
AcDbLine
10
-27.1438752783965
20
7.16816588703098
30
0.000000000000000
11
-27.0438752783965
21
7.11312136022445
31
0.000000000000000
  0
LINE
  5
F1065B
330
F1065C
100
AcDbEntity
8
Geo
100
AcDbLine
10
-27.1438752783965
20
0.557301330789618
30
0.000000000000000
11
-27.0438752783965
21
0.529430945645328
31
0.000000000000000
  0
LINE
  5
F1065D
330
F1065E
100
AcDbEntity
8
Geo
100
AcDbLine
10
-27.0438752783965
20
7.11312136022445
30
0.000000000000000
11
-26.9438752783965
21
7.05007249649933
31
0.000000000000000
  0
LINE
  5
F1065F
330
F10660
100
AcDbEntity
8
Geo
100
AcDbLine
10
-27.0438752783965
20
0.529430945645328
30
0.000000000000000
11
-26.9438752783965
21
0.513021886859738
31
0.000000000000000
  0
LINE
  5
F10661
330
F10662
100
AcDbEntity
8
Geo
100
AcDbLine
10
-26.9438752783965
20
7.05007249649933
30
0.000000000000000
11
-26.8438752783965
21
6.98587651039010
31
0.000000000000000
  0
LINE
  5
F10663
330
F10664
100
AcDbEntity
8
Geo
100
AcDbLine
10
-26.9438752783965
20
0.513021886859738
30
0.000000000000000
11
-26.8438752783965
21
0.498342262787298
31
0.000000000000000
  0
LINE
  5
F10665
330
F10666
100
AcDbEntity
8
Geo
100
AcDbLine
10
-26.8438752783965
20
6.98587651039010
30
0.000000000000000
11
-26.7438752783965
21
6.92056165063315
31
0.000000000000000
  0
LINE
  5
F10667
330
F10668
100
AcDbEntity
8
Geo
100
AcDbLine
10
-26.8438752783965
20
0.498342262787298
30
0.000000000000000
11
-26.7438752783965
21
0.485398533034848
31
0.000000000000000
  0
LINE
  5
F10669
330
F1066A
100
AcDbEntity
8
Geo
100
AcDbLine
10
-26.7438752783965
20
6.92056165063315
30
0.000000000000000
11
-26.6438752783965
21
6.85415665831289
31
0.000000000000000
  0
LINE
  5
F1066B
330
F1066C
100
AcDbEntity
8
Geo
100
AcDbLine
10
-26.7438752783965
20
0.485398533034848
30
0.000000000000000
11
-26.6438752783965
21
0.474196393348048
31
0.000000000000000
  0
LINE
  5
F1066D
330
F1066E
100
AcDbEntity
8
Geo
100
AcDbLine
10
-26.6438752783965
20
6.85415665831289
30
0.000000000000000
11
-26.5438752783965
21
6.78669075421457
31
0.000000000000000
  0
LINE
  5
F1066F
330
F10670
100
AcDbEntity
8
Geo
100
AcDbLine
10
-26.6438752783965
20
0.474196393348048
30
0.000000000000000
11
-26.5438752783965
21
0.464740773105048
31
0.000000000000000
  0
LINE
  5
F10671
330
F10672
100
AcDbEntity
8
Geo
100
AcDbLine
10
-26.5438752783965
20
6.78669075421457
30
0.000000000000000
11
-26.4438752783965
21
6.71819362596596
31
0.000000000000000
  0
LINE
  5
F10673
330
F10674
100
AcDbEntity
8
Geo
100
AcDbLine
10
-26.5438752783965
20
0.464740773105048
30
0.000000000000000
11
-26.4438752783965
21
0.457035833147368
31
0.000000000000000
  0
LINE
  5
F10675
330
F10676
100
AcDbEntity
8
Geo
100
AcDbLine
10
-26.4438752783965
20
6.71819362596596
30
0.000000000000000
11
-26.3438752783965
21
6.64869541497366
31
0.000000000000000
  0
LINE
  5
F10677
330
F10678
100
AcDbEntity
8
Geo
100
AcDbLine
10
-26.4438752783965
20
0.457035833147368
30
0.000000000000000
11
-26.3438752783965
21
0.451084963948928
31
0.000000000000000
  0
LINE
  5
F10679
330
F1067A
100
AcDbEntity
8
Geo
100
AcDbLine
10
-26.3438752783965
20
6.64869541497366
30
0.000000000000000
11
-26.2438752783965
21
6.57822670315970
31
0.000000000000000
  0
LINE
  5
F1067B
330
F1067C
100
AcDbEntity
8
Geo
100
AcDbLine
10
-26.3438752783965
20
0.451084963948928
30
0.000000000000000
11
-26.2438752783965
21
0.446890784124158
31
0.000000000000000
  0
LINE
  5
F1067D
330
F1067E
100
AcDbEntity
8
Geo
100
AcDbLine
10
-26.2438752783965
20
6.57822670315970
30
0.000000000000000
11
-26.1438752783965
21
6.50681849950432
31
0.000000000000000
  0
LINE
  5
F1067F
330
F10680
100
AcDbEntity
8
Geo
100
AcDbLine
10
-26.2438752783965
20
0.446890784124158
30
0.000000000000000
11
-26.1438752783965
21
0.444455139275688
31
0.000000000000000
  0
LINE
  5
F10681
330
F10682
100
AcDbEntity
8
Geo
100
AcDbLine
10
-26.1438752783965
20
6.50681849950432
30
0.000000000000000
11
-26.0438752783965
21
6.43450222640078
31
0.000000000000000
  0
LINE
  5
F10683
330
F10684
100
AcDbEntity
8
Geo
100
AcDbLine
10
-26.0438752783965
20
6.43450222640078
30
0.000000000000000
11
-25.9438752783965
21
6.36130970582829
31
0.000000000000000
  0
LINE
  5
F10685
330
F10686
100
AcDbEntity
8
Geo
100
AcDbLine
10
-25.9438752783965
20
6.36130970582829
30
0.000000000000000
11
-25.8438752783965
21
6.28727314534911
31
0.000000000000000
  0
LINE
  5
F10687
330
F10688
100
AcDbEntity
8
Geo
100
AcDbLine
10
-25.8438752783965
20
6.28727314534911
30
0.000000000000000
11
-25.7438752783965
21
6.21242512393598
31
0.000000000000000
  0
LINE
  5
F10689
330
F1068A
100
AcDbEntity
8
Geo
100
AcDbLine
10
-25.7438752783965
20
6.21242512393598
30
0.000000000000000
11
-25.6438752783965
21
6.13679857763605
31
0.000000000000000
  0
LINE
  5
F1068B
330
F1068C
100
AcDbEntity
8
Geo
100
AcDbLine
10
-25.6438752783965
20
6.13679857763605
30
0.000000000000000
11
-25.5438752783965
21
6.06042678507779
31
0.000000000000000
  0
LINE
  5
F1068D
330
F1068E
100
AcDbEntity
8
Geo
100
AcDbLine
10
-25.5438752783965
20
6.06042678507779
30
0.000000000000000
11
-25.4438752783965
21
5.98334335282707
31
0.000000000000000
  0
LINE
  5
F1068F
330
F10690
100
AcDbEntity
8
Geo
100
AcDbLine
10
-25.4438752783965
20
5.98334335282707
30
0.000000000000000
11
-25.3438752783965
21
5.90558220059898
31
0.000000000000000
  0
LINE
  5
F10691
330
F10692
100
AcDbEntity
8
Geo
100
AcDbLine
10
-25.3438752783965
20
5.90558220059898
30
0.000000000000000
11
-25.2438752783965
21
5.82717754633179
31
0.000000000000000
  0
LINE
  5
F10693
330
F10694
100
AcDbEntity
8
Geo
100
AcDbLine
10
-25.2438752783965
20
5.82717754633179
30
0.000000000000000
11
-25.1438752783965
21
5.74816389112977
31
0.000000000000000
  0
LINE
  5
F10695
330
F10696
100
AcDbEntity
8
Geo
100
AcDbLine
10
-25.1438752783965
20
5.74816389112977
30
0.000000000000000
11
-25.0438752783965
21
5.66857600408135
31
0.000000000000000
  0
LINE
  5
F10697
330
F10698
100
AcDbEntity
8
Geo
100
AcDbLine
10
-25.0438752783965
20
5.66857600408135
30
0.000000000000000
11
-24.9438752783965
21
5.58844890695933
31
0.000000000000000
  0
LINE
  5
F10699
330
F1069A
100
AcDbEntity
8
Geo
100
AcDbLine
10
-24.9438752783965
20
5.58844890695933
30
0.000000000000000
11
-24.8438752783965
21
5.50781785881000
31
0.000000000000000
  0
LINE
  5
F1069B
330
F1069C
100
AcDbEntity
8
Geo
100
AcDbLine
10
-24.8438752783965
20
5.50781785881000
30
0.000000000000000
11
-24.7438752783965
21
5.42671834043771
31
0.000000000000000
  0
LINE
  5
F1069D
330
F1069E
100
AcDbEntity
8
Geo
100
AcDbLine
10
-24.7438752783965
20
5.42671834043771
30
0.000000000000000
11
-24.6438752783965
21
5.34518603879200
31
0.000000000000000
  0
LINE
  5
F1069F
330
F106A0
100
AcDbEntity
8
Geo
100
AcDbLine
10
-24.6438752783965
20
5.34518603879200
30
0.000000000000000
11
-24.5438752783965
21
5.26325683126389
31
0.000000000000000
  0
LINE
  5
F106A1
330
F106A2
100
AcDbEntity
8
Geo
100
AcDbLine
10
-24.5438752783965
20
5.26325683126389
30
0.000000000000000
11
-24.4438752783965
21
5.18096676989850
31
0.000000000000000
  0
LINE
  5
F106A3
330
F106A4
100
AcDbEntity
8
Geo
100
AcDbLine
10
-24.4438752783965
20
5.18096676989850
30
0.000000000000000
11
-24.3438752783965
21
5.09835206553067
31
0.000000000000000
  0
LINE
  5
F106A5
330
F106A6
100
AcDbEntity
8
Geo
100
AcDbLine
10
-24.3438752783965
20
5.09835206553067
30
0.000000000000000
11
-24.2438752783965
21
5.01544907185083
31
0.000000000000000
  0
LINE
  5
F106A7
330
F106A8
100
AcDbEntity
8
Geo
100
AcDbLine
10
-24.2438752783965
20
5.01544907185083
30
0.000000000000000
11
-24.1438752783965
21
4.93229426940794
31
0.000000000000000
  0
LINE
  5
F106A9
330
F106AA
100
AcDbEntity
8
Geo
100
AcDbLine
10
-24.1438752783965
20
4.93229426940794
30
0.000000000000000
11
-24.0438752783965
21
4.84892424955666
31
0.000000000000000
  0
LINE
  5
F106AB
330
F106AC
100
AcDbEntity
8
Geo
100
AcDbLine
10
-24.0438752783965
20
4.84892424955666
30
0.000000000000000
11
-23.9438752783965
21
4.76537569835565
31
0.000000000000000
  0
LINE
  5
F106AD
330
F106AE
100
AcDbEntity
8
Geo
100
AcDbLine
10
-23.9438752783965
20
4.76537569835565
30
0.000000000000000
11
-23.8438752783965
21
4.68168538042437
31
0.000000000000000
  0
LINE
  5
F106AF
330
F106B0
100
AcDbEntity
8
Geo
100
AcDbLine
10
-23.8438752783965
20
4.68168538042437
30
0.000000000000000
11
-23.7438752783965
21
4.59789012276513
31
0.000000000000000
  0
LINE
  5
F106B1
330
F106B2
100
AcDbEntity
8
Geo
100
AcDbLine
10
-23.7438752783965
20
4.59789012276513
30
0.000000000000000
11
-23.6438752783965
21
4.51402679855784
31
0.000000000000000
  0
LINE
  5
F106B3
330
F106B4
100
AcDbEntity
8
Geo
100
AcDbLine
10
-23.6438752783965
20
4.51402679855784
30
0.000000000000000
11
-23.5438752783965
21
4.43013231093434
31
0.000000000000000
  0
LINE
  5
F106B5
330
F106B6
100
AcDbEntity
8
Geo
100
AcDbLine
10
-23.5438752783965
20
4.43013231093434
30
0.000000000000000
11
-23.4438752783965
21
4.34624357673956
31
0.000000000000000
  0
LINE
  5
F106B7
330
F106B8
100
AcDbEntity
8
Geo
100
AcDbLine
10
-23.4438752783965
20
4.34624357673956
30
0.000000000000000
11
-23.3438752783965
21
4.26239751028674
31
0.000000000000000
  0
LINE
  5
F106B9
330
F106BA
100
AcDbEntity
8
Geo
100
AcDbLine
10
-23.3438752783965
20
4.26239751028674
30
0.000000000000000
11
-23.2438752783965
21
4.17863100711361
31
0.000000000000000
  0
LINE
  5
F106BB
330
F106BC
100
AcDbEntity
8
Geo
100
AcDbLine
10
-23.2438752783965
20
4.17863100711361
30
0.000000000000000
11
-23.1438752783965
21
4.09498092774699
31
0.000000000000000
  0
LINE
  5
F106BD
330
F106BE
100
AcDbEntity
8
Geo
100
AcDbLine
10
-23.1438752783965
20
4.09498092774699
30
0.000000000000000
11
-23.0438752783965
21
4.01148408148266
31
0.000000000000000
  0
LINE
  5
F106BF
330
F106C0
100
AcDbEntity
8
Geo
100
AcDbLine
10
-23.0438752783965
20
4.01148408148266
30
0.000000000000000
11
-22.9438752783965
21
3.92817721018788
31
0.000000000000000
  0
LINE
  5
F106C1
330
F106C2
100
AcDbEntity
8
Geo
100
AcDbLine
10
-22.9438752783965
20
3.92817721018788
30
0.000000000000000
11
-22.8438752783965
21
3.84509697213350
31
0.000000000000000
  0
LINE
  5
F106C3
330
F106C4
100
AcDbEntity
8
Geo
100
AcDbLine
10
-22.8438752783965
20
3.84509697213350
30
0.000000000000000
11
-22.7438752783965
21
3.76227992586293
31
0.000000000000000
  0
LINE
  5
F106C5
330
F106C6
100
AcDbEntity
8
Geo
100
AcDbLine
10
-22.7438752783965
20
3.76227992586293
30
0.000000000000000
11
-22.6438752783965
21
3.67976251410492
31
0.000000000000000
  0
LINE
  5
F106C7
330
F106C8
100
AcDbEntity
8
Geo
100
AcDbLine
10
-22.6438752783965
20
3.67976251410492
30
0.000000000000000
11
-22.5438752783965
21
3.59758104773736
31
0.000000000000000
  0
LINE
  5
F106C9
330
F106CA
100
AcDbEntity
8
Geo
100
AcDbLine
10
-22.5438752783965
20
3.59758104773736
30
0.000000000000000
11
-22.4438752783965
21
3.51577168980907
31
0.000000000000000
  0
LINE
  5
F106CB
330
F106CC
100
AcDbEntity
8
Geo
100
AcDbLine
10
-22.4438752783965
20
3.51577168980907
30
0.000000000000000
11
-22.3438752783965
21
3.43437043962666
31
0.000000000000000
  0
LINE
  5
F106CD
330
F106CE
100
AcDbEntity
8
Geo
100
AcDbLine
10
-22.3438752783965
20
3.43437043962666
30
0.000000000000000
11
-22.2438752783965
21
3.35341311691340
31
0.000000000000000
  0
LINE
  5
F106CF
330
F106D0
100
AcDbEntity
8
Geo
100
AcDbLine
10
-22.2438752783965
20
3.35341311691340
30
0.000000000000000
11
-22.1438752783965
21
3.27293534604719
31
0.000000000000000
  0
LINE
  5
F106D1
330
F106D2
100
AcDbEntity
8
Geo
100
AcDbLine
10
-22.1438752783965
20
3.27293534604719
30
0.000000000000000
11
-22.0438752783965
21
3.19297254038442
31
0.000000000000000
  0
LINE
  5
F106D3
330
F106D4
100
AcDbEntity
8
Geo
100
AcDbLine
10
-22.0438752783965
20
3.19297254038442
30
0.000000000000000
11
-21.9438752783965
21
3.11355988667671
31
0.000000000000000
  0
LINE
  5
F106D5
330
F106D6
100
AcDbEntity
8
Geo
100
AcDbLine
10
-21.9438752783965
20
3.11355988667671
30
0.000000000000000
11
-21.8438752783965
21
3.03473232958738
31
0.000000000000000
  0
LINE
  5
F106D7
330
F106D8
100
AcDbEntity
8
Geo
100
AcDbLine
10
-21.8438752783965
20
3.03473232958738
30
0.000000000000000
11
-21.7438752783965
21
2.95652455631442
31
0.000000000000000
  0
LINE
  5
F106D9
330
F106DA
100
AcDbEntity
8
Geo
100
AcDbLine
10
-21.7438752783965
20
2.95652455631442
30
0.000000000000000
11
-21.6438752783965
21
2.87897098132679
31
0.000000000000000
  0
LINE
  5
F106DB
330
F106DC
100
AcDbEntity
8
Geo
100
AcDbLine
10
-21.6438752783965
20
2.87897098132679
30
0.000000000000000
11
-21.5438752783965
21
2.80210573122070
31
0.000000000000000
  0
LINE
  5
F106DD
330
F106DE
100
AcDbEntity
8
Geo
100
AcDbLine
10
-21.5438752783965
20
2.80210573122070
30
0.000000000000000
11
-21.4438752783965
21
2.72596262970257
31
0.000000000000000
  0
LINE
  5
F106DF
330
F106E0
100
AcDbEntity
8
Geo
100
AcDbLine
10
-21.4438752783965
20
2.72596262970257
30
0.000000000000000
11
-21.3438752783965
21
2.65057518270531
31
0.000000000000000
  0
LINE
  5
F106E1
330
F106E2
100
AcDbEntity
8
Geo
100
AcDbLine
10
-21.3438752783965
20
2.65057518270531
30
0.000000000000000
11
-21.2438752783965
21
2.57597656364436
31
0.000000000000000
  0
LINE
  5
F106E3
330
F106E4
100
AcDbEntity
8
Geo
100
AcDbLine
10
-21.2438752783965
20
2.57597656364436
30
0.000000000000000
11
-21.1438752783965
21
2.50219959882013
31
0.000000000000000
  0
LINE
  5
F106E5
330
F106E6
100
AcDbEntity
8
Geo
100
AcDbLine
10
-21.1438752783965
20
2.50219959882013
30
0.000000000000000
11
-21.0438752783965
21
2.42927675297315
31
0.000000000000000
  0
LINE
  5
F106E7
330
F106E8
100
AcDbEntity
8
Geo
100
AcDbLine
10
-21.0438752783965
20
2.42927675297315
30
0.000000000000000
11
-20.9438752783965
21
2.35724011499828
31
0.000000000000000
  0
LINE
  5
F106E9
330
F106EA
100
AcDbEntity
8
Geo
100
AcDbLine
10
-21.0438752783965
20
8.44261322641133
30
0.000000000000000
11
-20.9438752783965
21
8.44138867990152
31
0.000000000000000
  0
LINE
  5
F106EB
330
F106EC
100
AcDbEntity
8
Geo
100
AcDbLine
10
-20.9438752783965
20
2.35724011499828
30
0.000000000000000
11
-20.8438752783965
21
2.28612138382438
31
0.000000000000000
  0
LINE
  5
F106ED
330
F106EE
100
AcDbEntity
8
Geo
100
AcDbLine
10
-20.9438752783965
20
8.44138867990152
30
0.000000000000000
11
-20.8438752783965
21
8.43840477765024
31
0.000000000000000
  0
LINE
  5
F106EF
330
F106F0
100
AcDbEntity
8
Geo
100
AcDbLine
10
-20.8438752783965
20
2.28612138382438
30
0.000000000000000
11
-20.7438752783965
21
2.21595185446554
31
0.000000000000000
  0
LINE
  5
F106F1
330
F106F2
100
AcDbEntity
8
Geo
100
AcDbLine
10
-20.8438752783965
20
8.43840477765024
30
0.000000000000000
11
-20.7438752783965
21
8.43366283269082
31
0.000000000000000
  0
LINE
  5
F106F3
330
F106F4
100
AcDbEntity
8
Geo
100
AcDbLine
10
-20.7438752783965
20
2.21595185446554
30
0.000000000000000
11
-20.6438752783965
21
2.14676240425004
31
0.000000000000000
  0
LINE
  5
F106F5
330
F106F6
100
AcDbEntity
8
Geo
100
AcDbLine
10
-20.7438752783965
20
8.43366283269082
30
0.000000000000000
11
-20.6438752783965
21
8.42716493166388
31
0.000000000000000
  0
LINE
  5
F106F7
330
F106F8
100
AcDbEntity
8
Geo
100
AcDbLine
10
-20.6438752783965
20
2.14676240425004
30
0.000000000000000
11
-20.5438752783965
21
2.07858347923313
31
0.000000000000000
  0
LINE
  5
F106F9
330
F106FA
100
AcDbEntity
8
Geo
100
AcDbLine
10
-20.6438752783965
20
8.42716493166388
30
0.000000000000000
11
-20.5438752783965
21
8.41891393389918
31
0.000000000000000
  0
LINE
  5
F106FB
330
F106FC
100
AcDbEntity
8
Geo
100
AcDbLine
10
-20.5438752783965
20
2.07858347923313
30
0.000000000000000
11
-20.4438752783965
21
2.01144508079960
31
0.000000000000000
  0
LINE
  5
F106FD
330
F106FE
100
AcDbEntity
8
Geo
100
AcDbLine
10
-20.5438752783965
20
8.41891393389918
30
0.000000000000000
11
-20.4438752783965
21
8.40891347015738
31
0.000000000000000
  0
LINE
  5
F106FF
330
F10700
100
AcDbEntity
8
Geo
100
AcDbLine
10
-20.4438752783965
20
2.01144508079960
30
0.000000000000000
11
-20.3438752783965
21
1.94537675246196
31
0.000000000000000
  0
LINE
  5
F10701
330
F10702
100
AcDbEntity
8
Geo
100
AcDbLine
10
-20.4438752783965
20
8.40891347015738
30
0.000000000000000
11
-20.3438752783965
21
8.39716794103235
31
0.000000000000000
  0
LINE
  5
F10703
330
F10704
100
AcDbEntity
8
Geo
100
AcDbLine
10
-20.3438752783965
20
1.94537675246196
30
0.000000000000000
11
-20.2438752783965
21
1.88040756686018
31
0.000000000000000
  0
LINE
  5
F10705
330
F10706
100
AcDbEntity
8
Geo
100
AcDbLine
10
-20.3438752783965
20
8.39716794103235
30
0.000000000000000
11
-20.2438752783965
21
8.38368251501480
31
0.000000000000000
  0
LINE
  5
F10707
330
F10708
100
AcDbEntity
8
Geo
100
AcDbLine
10
-20.2438752783965
20
1.88040756686018
30
0.000000000000000
11
-20.1438752783965
21
1.81656611296856
31
0.000000000000000
  0
LINE
  5
F10709
330
F1070A
100
AcDbEntity
8
Geo
100
AcDbLine
10
-20.2438752783965
20
8.38368251501480
30
0.000000000000000
11
-20.1438752783965
21
8.36846312621785
31
0.000000000000000
  0
LINE
  5
F1070B
330
F1070C
100
AcDbEntity
8
Geo
100
AcDbLine
10
-20.1438752783965
20
1.81656611296856
30
0.000000000000000
11
-20.0438752783965
21
1.75388048351549
31
0.000000000000000
  0
LINE
  5
F1070D
330
F1070E
100
AcDbEntity
8
Geo
100
AcDbLine
10
-20.1438752783965
20
8.36846312621785
30
0.000000000000000
11
-20.0438752783965
21
8.35151647176586
31
0.000000000000000
  0
LINE
  5
F1070F
330
F10710
100
AcDbEntity
8
Geo
100
AcDbLine
10
-20.0438752783965
20
1.75388048351549
30
0.000000000000000
11
-19.9438752783965
21
1.69237826262158
31
0.000000000000000
  0
LINE
  5
F10711
330
F10712
100
AcDbEntity
8
Geo
100
AcDbLine
10
-20.0438752783965
20
8.35151647176586
30
0.000000000000000
11
-19.9438752783965
21
8.33285000884742
31
0.000000000000000
  0
LINE
  5
F10713
330
F10714
100
AcDbEntity
8
Geo
100
AcDbLine
10
-19.9438752783965
20
1.69237826262158
30
0.000000000000000
11
-19.8438752783965
21
1.63208651366150
31
0.000000000000000
  0
LINE
  5
F10715
330
F10716
100
AcDbEntity
8
Geo
100
AcDbLine
10
-19.9438752783965
20
8.33285000884742
30
0.000000000000000
11
-19.8438752783965
21
8.31247195143386
31
0.000000000000000
  0
LINE
  5
F10717
330
F10718
100
AcDbEntity
8
Geo
100
AcDbLine
10
-19.8438752783965
20
1.63208651366150
30
0.000000000000000
11
-19.7438752783965
21
1.57303176735511
31
0.000000000000000
  0
LINE
  5
F10719
330
F1071A
100
AcDbEntity
8
Geo
100
AcDbLine
10
-19.8438752783965
20
8.31247195143386
30
0.000000000000000
11
-19.7438752783965
21
8.29039126666483
31
0.000000000000000
  0
LINE
  5
F1071B
330
F1071C
100
AcDbEntity
8
Geo
100
AcDbLine
10
-19.7438752783965
20
1.57303176735511
30
0.000000000000000
11
-19.6438752783965
21
1.51524001009286
31
0.000000000000000
  0
LINE
  5
F1071D
330
F1071E
100
AcDbEntity
8
Geo
100
AcDbLine
10
-19.7438752783965
20
8.29039126666483
30
0.000000000000000
11
-19.6438752783965
21
8.26661767090239
31
0.000000000000000
  0
LINE
  5
F1071F
330
F10720
100
AcDbEntity
8
Geo
100
AcDbLine
10
-19.6438752783965
20
1.51524001009286
30
0.000000000000000
11
-19.5438752783965
21
1.45873667250082
31
0.000000000000000
  0
LINE
  5
F10721
330
F10722
100
AcDbEntity
8
Geo
100
AcDbLine
10
-19.6438752783965
20
8.26661767090239
30
0.000000000000000
11
-19.5438752783965
21
8.24116162545541
31
0.000000000000000
  0
LINE
  5
F10723
330
F10724
100
AcDbEntity
8
Geo
100
AcDbLine
10
-19.5438752783965
20
1.45873667250082
30
0.000000000000000
11
-19.4438752783965
21
1.40354661825014
31
0.000000000000000
  0
LINE
  5
F10725
330
F10726
100
AcDbEntity
8
Geo
100
AcDbLine
10
-19.5438752783965
20
8.24116162545541
30
0.000000000000000
11
-19.4438752783965
21
8.21403433197624
31
0.000000000000000
  0
LINE
  5
F10727
330
F10728
100
AcDbEntity
8
Geo
100
AcDbLine
10
-19.4438752783965
20
1.40354661825014
30
0.000000000000000
11
-19.3438752783965
21
1.34969413311613
31
0.000000000000000
  0
LINE
  5
F10729
330
F1072A
100
AcDbEntity
8
Geo
100
AcDbLine
10
-19.4438752783965
20
8.21403433197624
30
0.000000000000000
11
-19.3438752783965
21
8.18524772753147
31
0.000000000000000
  0
LINE
  5
F1072B
330
F1072C
100
AcDbEntity
8
Geo
100
AcDbLine
10
-19.3438752783965
20
1.34969413311613
30
0.000000000000000
11
-19.2438752783965
21
1.29720291429155
31
0.000000000000000
  0
LINE
  5
F1072D
330
F1072E
100
AcDbEntity
8
Geo
100
AcDbLine
10
-19.3438752783965
20
8.18524772753147
30
0.000000000000000
11
-19.2438752783965
21
8.15481447934924
31
0.000000000000000
  0
LINE
  5
F1072F
330
F10730
100
AcDbEntity
8
Geo
100
AcDbLine
10
-19.2438752783965
20
1.29720291429155
30
0.000000000000000
11
-19.1438752783965
21
1.24609605995889
31
0.000000000000000
  0
LINE
  5
F10731
330
F10732
100
AcDbEntity
8
Geo
100
AcDbLine
10
-19.2438752783965
20
8.15481447934924
30
0.000000000000000
11
-19.1438752783965
21
8.12274797924511
31
0.000000000000000
  0
LINE
  5
F10733
330
F10734
100
AcDbEntity
8
Geo
100
AcDbLine
10
-19.1438752783965
20
1.24609605995889
30
0.000000000000000
11
-19.0438752783965
21
1.19639605912633
31
0.000000000000000
  0
LINE
  5
F10735
330
F10736
100
AcDbEntity
8
Geo
100
AcDbLine
10
-19.1438752783965
20
8.12274797924511
30
0.000000000000000
11
-19.0438752783965
21
8.08906233772914
31
0.000000000000000
  0
LINE
  5
F10737
330
F10738
100
AcDbEntity
8
Geo
100
AcDbLine
10
-19.0438752783965
20
1.19639605912633
30
0.000000000000000
11
-18.9438752783965
21
1.14812478173166
31
0.000000000000000
  0
LINE
  5
F10739
330
F1073A
100
AcDbEntity
8
Geo
100
AcDbLine
10
-19.0438752783965
20
8.08906233772914
30
0.000000000000000
11
-18.9438752783965
21
8.05377237779674
31
0.000000000000000
  0
LINE
  5
F1073B
330
F1073C
100
AcDbEntity
8
Geo
100
AcDbLine
10
-18.9438752783965
20
1.14812478173166
30
0.000000000000000
11
-18.8438752783965
21
1.10130346901864
31
0.000000000000000
  0
LINE
  5
F1073D
330
F1073E
100
AcDbEntity
8
Geo
100
AcDbLine
10
-18.9438752783965
20
8.05377237779674
30
0.000000000000000
11
-18.8438752783965
21
8.01689362840597
31
0.000000000000000
  0
LINE
  5
F1073F
330
F10740
100
AcDbEntity
8
Geo
100
AcDbLine
10
-18.8438752783965
20
1.10130346901864
30
0.000000000000000
11
-18.7438752783965
21
1.05595272419007
31
0.000000000000000
  0
LINE
  5
F10741
330
F10742
100
AcDbEntity
8
Geo
100
AcDbLine
10
-18.8438752783965
20
8.01689362840597
30
0.000000000000000
11
-18.7438752783965
21
7.97844231764417
31
0.000000000000000
  0
LINE
  5
F10743
330
F10744
100
AcDbEntity
8
Geo
100
AcDbLine
10
-18.7438752783965
20
1.05595272419007
30
0.000000000000000
11
-18.6438752783965
21
1.01209250334156
31
0.000000000000000
  0
LINE
  5
F10745
330
F10746
100
AcDbEntity
8
Geo
100
AcDbLine
10
-18.7438752783965
20
7.97844231764417
30
0.000000000000000
11
-18.6438752783965
21
7.93843536558700
31
0.000000000000000
  0
LINE
  5
F10747
330
F10748
100
AcDbEntity
8
Geo
100
AcDbLine
10
-18.6438752783965
20
1.01209250334156
30
0.000000000000000
11
-18.5438752783965
21
0.969742106680048
31
0.000000000000000
  0
LINE
  5
F10749
330
F1074A
100
AcDbEntity
8
Geo
100
AcDbLine
10
-18.6438752783965
20
7.93843536558700
30
0.000000000000000
11
-18.5438752783965
21
7.89689037685292
31
0.000000000000000
  0
LINE
  5
F1074B
330
F1074C
100
AcDbEntity
8
Geo
100
AcDbLine
10
-18.5438752783965
20
0.969742106680048
30
0.000000000000000
11
-18.4438752783965
21
0.928920170030978
31
0.000000000000000
  0
LINE
  5
F1074D
330
F1074E
100
AcDbEntity
8
Geo
100
AcDbLine
10
-18.5438752783965
20
7.89689037685292
30
0.000000000000000
11
-18.4438752783965
21
7.85382563285651
31
0.000000000000000
  0
LINE
  5
F1074F
330
F10750
100
AcDbEntity
8
Geo
100
AcDbLine
10
-18.4438752783965
20
0.928920170030978
30
0.000000000000000
11
-18.3438752783965
21
0.889644656637808
31
0.000000000000000
  0
LINE
  5
F10751
330
F10752
100
AcDbEntity
8
Geo
100
AcDbLine
10
-18.4438752783965
20
7.85382563285651
30
0.000000000000000
11
-18.3438752783965
21
7.80926008376387
31
0.000000000000000
  0
LINE
  5
F10753
330
F10754
100
AcDbEntity
8
Geo
100
AcDbLine
10
-18.3438752783965
20
0.889644656637808
30
0.000000000000000
11
-18.2438752783965
21
0.851932849257478
31
0.000000000000000
  0
LINE
  5
F10755
330
F10756
100
AcDbEntity
8
Geo
100
AcDbLine
10
-18.3438752783965
20
7.80926008376387
30
0.000000000000000
11
-18.2438752783965
21
7.76321334015386
31
0.000000000000000
  0
LINE
  5
F10757
330
F10758
100
AcDbEntity
8
Geo
100
AcDbLine
10
-18.2438752783965
20
0.851932849257478
30
0.000000000000000
11
-18.1438752783965
21
0.815801342555328
31
0.000000000000000
  0
LINE
  5
F10759
330
F1075A
100
AcDbEntity
8
Geo
100
AcDbLine
10
-18.2438752783965
20
7.76321334015386
30
0.000000000000000
11
-18.1438752783965
21
7.71570566438870
31
0.000000000000000
  0
LINE
  5
F1075B
330
F1075C
100
AcDbEntity
8
Geo
100
AcDbLine
10
-18.1438752783965
20
0.815801342555328
30
0.000000000000000
11
-18.0438752783965
21
0.781266035802788
31
0.000000000000000
  0
LINE
  5
F1075D
330
F1075E
100
AcDbEntity
8
Geo
100
AcDbLine
10
-18.1438752783965
20
7.71570566438870
30
0.000000000000000
11
-18.0438752783965
21
7.66675796169767
31
0.000000000000000
  0
LINE
  5
F1075F
330
F10760
100
AcDbEntity
8
Geo
100
AcDbLine
10
-18.0438752783965
20
0.781266035802788
30
0.000000000000000
11
-17.9438752783965
21
0.748342125881108
31
0.000000000000000
  0
LINE
  5
F10761
330
F10762
100
AcDbEntity
8
Geo
100
AcDbLine
10
-18.0438752783965
20
7.66675796169767
30
0.000000000000000
11
-17.9438752783965
21
7.61639177097805
31
0.000000000000000
  0
LINE
  5
F10763
330
F10764
100
AcDbEntity
8
Geo
100
AcDbLine
10
-17.9438752783965
20
0.748342125881108
30
0.000000000000000
11
-17.8438752783965
21
0.717044100594088
31
0.000000000000000
  0
LINE
  5
F10765
330
F10766
100
AcDbEntity
8
Geo
100
AcDbLine
10
-17.9438752783965
20
7.61639177097805
30
0.000000000000000
11
-17.8438752783965
21
7.56462925531713
31
0.000000000000000
  0
LINE
  5
F10767
330
F10768
100
AcDbEntity
8
Geo
100
AcDbLine
10
-17.8438752783965
20
0.717044100594088
30
0.000000000000000
11
-17.7438752783965
21
0.687385732292938
31
0.000000000000000
  0
LINE
  5
F10769
330
F1076A
100
AcDbEntity
8
Geo
100
AcDbLine
10
-17.8438752783965
20
7.56462925531713
30
0.000000000000000
11
-17.7438752783965
21
7.51149319223964
31
0.000000000000000
  0
LINE
  5
F1076B
330
F1076C
100
AcDbEntity
8
Geo
100
AcDbLine
10
-17.7438752783965
20
0.687385732292938
30
0.000000000000000
11
-17.6438752783965
21
0.659380071815838
31
0.000000000000000
  0
LINE
  5
F1076D
330
F1076E
100
AcDbEntity
8
Geo
100
AcDbLine
10
-17.7438752783965
20
7.51149319223964
30
0.000000000000000
11
-17.6438752783965
21
7.45700696368469
31
0.000000000000000
  0
LINE
  5
F1076F
330
F10770
100
AcDbEntity
8
Geo
100
AcDbLine
10
-17.6438752783965
20
0.659380071815838
30
0.000000000000000
11
-17.5438752783965
21
0.633039442745148
31
0.000000000000000
  0
LINE
  5
F10771
330
F10772
100
AcDbEntity
8
Geo
100
AcDbLine
10
-17.6438752783965
20
7.45700696368469
30
0.000000000000000
11
-17.5438752783965
21
7.40119454571684
31
0.000000000000000
  0
LINE
  5
F10773
330
F10774
100
AcDbEntity
8
Geo
100
AcDbLine
10
-17.5438752783965
20
0.633039442745148
30
0.000000000000000
11
-17.4438752783965
21
0.608375435984458
31
0.000000000000000
  0
LINE
  5
F10775
330
F10776
100
AcDbEntity
8
Geo
100
AcDbLine
10
-17.5438752783965
20
7.40119454571684
30
0.000000000000000
11
-17.4438752783965
21
7.34408049797569
31
0.000000000000000
  0
LINE
  5
F10777
330
F10778
100
AcDbEntity
8
Geo
100
AcDbLine
10
-17.4438752783965
20
0.608375435984458
30
0.000000000000000
11
-17.3438752783965
21
0.585398904658198
31
0.000000000000000
  0
LINE
  5
F10779
330
F1077A
100
AcDbEntity
8
Geo
100
AcDbLine
10
-17.4438752783965
20
7.34408049797569
30
0.000000000000000
11
-17.3438752783965
21
7.28568995286868
31
0.000000000000000
  0
LINE
  5
F1077B
330
F1077C
100
AcDbEntity
8
Geo
100
AcDbLine
10
-17.3438752783965
20
0.585398904658198
30
0.000000000000000
11
-17.2438752783965
21
0.564119959335848
31
0.000000000000000
  0
LINE
  5
F1077D
330
F1077E
100
AcDbEntity
8
Geo
100
AcDbLine
10
-17.3438752783965
20
7.28568995286868
30
0.000000000000000
11
-17.2438752783965
21
7.22604860451186
31
0.000000000000000
  0
LINE
  5
F1077F
330
F10780
100
AcDbEntity
8
Geo
100
AcDbLine
10
-17.2438752783965
20
0.564119959335848
30
0.000000000000000
11
-17.1438752783965
21
0.544547963582838
31
0.000000000000000
  0
LINE
  5
F10781
330
F10782
100
AcDbEntity
8
Geo
100
AcDbLine
10
-17.2438752783965
20
7.22604860451186
30
0.000000000000000
11
-17.1438752783965
21
7.16518269742345
31
0.000000000000000
  0
LINE
  5
F10783
330
F10784
100
AcDbEntity
8
Geo
100
AcDbLine
10
-17.1438752783965
20
0.544547963582838
30
0.000000000000000
11
-17.0438752783965
21
0.526691529840258
31
0.000000000000000
  0
LINE
  5
F10785
330
F10786
100
AcDbEntity
8
Geo
100
AcDbLine
10
-17.1438752783965
20
7.16518269742345
30
0.000000000000000
11
-17.0438752783965
21
7.10311901497527
31
0.000000000000000
  0
LINE
  5
F10787
330
F10788
100
AcDbEntity
8
Geo
100
AcDbLine
10
-17.0438752783965
20
0.526691529840258
30
0.000000000000000
11
-16.9438752783965
21
0.510558515635048
31
0.000000000000000
  0
LINE
  5
F10789
330
F1078A
100
AcDbEntity
8
Geo
100
AcDbLine
10
-17.0438752783965
20
7.10311901497527
30
0.000000000000000
11
-16.9438752783965
21
7.03988486760697
31
0.000000000000000
  0
LINE
  5
F1078B
330
F1078C
100
AcDbEntity
8
Geo
100
AcDbLine
10
-16.9438752783965
20
0.510558515635048
30
0.000000000000000
11
-16.8438752783965
21
0.496156020122358
31
0.000000000000000
  0
LINE
  5
F1078D
330
F1078E
100
AcDbEntity
8
Geo
100
AcDbLine
10
-16.9438752783965
20
7.03988486760697
30
0.000000000000000
11
-16.8438752783965
21
6.97550808080841
31
0.000000000000000
  0
LINE
  5
F1078F
330
F10790
100
AcDbEntity
8
Geo
100
AcDbLine
10
-16.8438752783965
20
0.496156020122358
30
0.000000000000000
11
-16.7438752783965
21
0.483490380961648
31
0.000000000000000
  0
LINE
  5
F10791
330
F10792
100
AcDbEntity
8
Geo
100
AcDbLine
10
-16.8438752783965
20
6.97550808080841
30
0.000000000000000
11
-16.7438752783965
21
6.91001698287534
31
0.000000000000000
  0
LINE
  5
F10793
330
F10794
100
AcDbEntity
8
Geo
100
AcDbLine
10
-16.7438752783965
20
0.483490380961648
30
0.000000000000000
11
-16.6438752783965
21
0.472567171527888
31
0.000000000000000
  0
LINE
  5
F10795
330
F10796
100
AcDbEntity
8
Geo
100
AcDbLine
10
-16.7438752783965
20
6.91001698287534
30
0.000000000000000
11
-16.6438752783965
21
6.84344039244383
31
0.000000000000000
  0
LINE
  5
F10797
330
F10798
100
AcDbEntity
8
Geo
100
AcDbLine
10
-16.6438752783965
20
0.472567171527888
30
0.000000000000000
11
-16.5438752783965
21
0.463391198459048
31
0.000000000000000
  0
LINE
  5
F10799
330
F1079A
100
AcDbEntity
8
Geo
100
AcDbLine
10
-16.6438752783965
20
6.84344039244383
30
0.000000000000000
11
-16.5438752783965
21
6.77580760580898
31
0.000000000000000
  0
LINE
  5
F1079B
330
F1079C
100
AcDbEntity
8
Geo
100
AcDbLine
10
-16.5438752783965
20
0.463391198459048
30
0.000000000000000
11
-16.4438752783965
21
0.455966499540968
31
0.000000000000000
  0
LINE
  5
F1079D
330
F1079E
100
AcDbEntity
8
Geo
100
AcDbLine
10
-16.5438752783965
20
6.77580760580898
30
0.000000000000000
11
-16.4438752783965
21
6.70714838403338
31
0.000000000000000
  0
LINE
  5
F1079F
330
F107A0
100
AcDbEntity
8
Geo
100
AcDbLine
10
-16.4438752783965
20
0.455966499540968
30
0.000000000000000
11
-16.3438752783965
21
0.450296341930598
31
0.000000000000000
  0
LINE
  5
F107A1
330
F107A2
100
AcDbEntity
8
Geo
100
AcDbLine
10
-16.4438752783965
20
6.70714838403338
30
0.000000000000000
11
-16.3438752783965
21
6.63749293985112
31
0.000000000000000
  0
LINE
  5
F107A3
330
F107A4
100
AcDbEntity
8
Geo
100
AcDbLine
10
-16.3438752783965
20
0.450296341930598
30
0.000000000000000
11
-16.2438752783965
21
0.446383220718348
31
0.000000000000000
  0
LINE
  5
F107A5
330
F107A6
100
AcDbEntity
8
Geo
100
AcDbLine
10
-16.3438752783965
20
6.63749293985112
30
0.000000000000000
11
-16.2438752783965
21
6.56687192437295
31
0.000000000000000
  0
LINE
  5
F107A7
330
F107A8
100
AcDbEntity
8
Geo
100
AcDbLine
10
-16.2438752783965
20
0.446383220718348
30
0.000000000000000
11
-16.1438752783965
21
0.444228857830068
31
0.000000000000000
  0
LINE
  5
F107A9
330
F107AA
100
AcDbEntity
8
Geo
100
AcDbLine
10
-16.2438752783965
20
6.56687192437295
30
0.000000000000000
11
-16.1438752783965
21
6.49531641359866
31
0.000000000000000
  0
LINE
  5
F107AB
330
F107AC
100
AcDbEntity
8
Geo
100
AcDbLine
10
-16.1438752783965
20
6.49531641359866
30
0.000000000000000
11
-16.0438752783965
21
6.42285789474239
31
0.000000000000000
  0
LINE
  5
F107AD
330
F107AE
100
AcDbEntity
8
Geo
100
AcDbLine
10
-16.0438752783965
20
6.42285789474239
30
0.000000000000000
11
-15.9438752783965
21
6.34952825237701
31
0.000000000000000
  0
LINE
  5
F107AF
330
F107B0
100
AcDbEntity
8
Geo
100
AcDbLine
10
-15.9438752783965
20
6.34952825237701
30
0.000000000000000
11
-15.8438752783965
21
6.27535975440374
31
0.000000000000000
  0
LINE
  5
F107B1
330
F107B2
100
AcDbEntity
8
Geo
100
AcDbLine
10
-15.8438752783965
20
6.27535975440374
30
0.000000000000000
11
-15.7438752783965
21
6.20038503785294
31
0.000000000000000
  0
LINE
  5
F107B3
330
F107B4
100
AcDbEntity
8
Geo
100
AcDbLine
10
-15.7438752783965
20
6.20038503785294
30
0.000000000000000
11
-15.6438752783965
21
6.12463709452257
31
0.000000000000000
  0
LINE
  5
F107B5
330
F107B6
100
AcDbEntity
8
Geo
100
AcDbLine
10
-15.6438752783965
20
6.12463709452257
30
0.000000000000000
11
-15.5438752783965
21
6.04814925646052
31
0.000000000000000
  0
LINE
  5
F107B7
330
F107B8
100
AcDbEntity
8
Geo
100
AcDbLine
10
-15.5438752783965
20
6.04814925646052
30
0.000000000000000
11
-15.4438752783965
21
5.97095518129721
31
0.000000000000000
  0
LINE
  5
F107B9
330
F107BA
100
AcDbEntity
8
Geo
100
AcDbLine
10
-15.4438752783965
20
5.97095518129721
30
0.000000000000000
11
-15.3438752783965
21
5.89308883743491
31
0.000000000000000
  0
LINE
  5
F107BB
330
F107BC
100
AcDbEntity
8
Geo
100
AcDbLine
10
-15.3438752783965
20
5.89308883743491
30
0.000000000000000
11
-15.2438752783965
21
5.81458448910033
31
0.000000000000000
  0
LINE
  5
F107BD
330
F107BE
100
AcDbEntity
8
Geo
100
AcDbLine
10
-15.2438752783965
20
5.81458448910033
30
0.000000000000000
11
-15.1438752783965
21
5.73547668126701
31
0.000000000000000
  0
LINE
  5
F107BF
330
F107C0
100
AcDbEntity
8
Geo
100
AcDbLine
10
-15.1438752783965
20
5.73547668126701
30
0.000000000000000
11
-15.0438752783965
21
5.65580022445420
31
0.000000000000000
  0
LINE
  5
F107C1
330
F107C2
100
AcDbEntity
8
Geo
100
AcDbLine
10
-15.0438752783965
20
5.65580022445420
30
0.000000000000000
11
-14.9438752783965
21
5.57559017940886
31
0.000000000000000
  0
LINE
  5
F107C3
330
F107C4
100
AcDbEntity
8
Geo
100
AcDbLine
10
-14.9438752783965
20
5.57559017940886
30
0.000000000000000
11
-14.8438752783965
21
5.49488184167760
31
0.000000000000000
  0
LINE
  5
F107C5
330
F107C6
100
AcDbEntity
8
Geo
100
AcDbLine
10
-14.8438752783965
20
5.49488184167760
30
0.000000000000000
11
-14.7438752783965
21
5.41371072607519
31
0.000000000000000
  0
LINE
  5
F107C7
330
F107C8
100
AcDbEntity
8
Geo
100
AcDbLine
10
-14.7438752783965
20
5.41371072607519
30
0.000000000000000
11
-14.6438752783965
21
5.33211255105674
31
0.000000000000000
  0
LINE
  5
F107C9
330
F107CA
100
AcDbEntity
8
Geo
100
AcDbLine
10
-14.6438752783965
20
5.33211255105674
30
0.000000000000000
11
-14.5438752783965
21
5.25012322300013
31
0.000000000000000
  0
LINE
  5
F107CB
330
F107CC
100
AcDbEntity
8
Geo
100
AcDbLine
10
-14.5438752783965
20
5.25012322300013
30
0.000000000000000
11
-14.4438752783965
21
5.16777882040585
31
0.000000000000000
  0
LINE
  5
F107CD
330
F107CE
100
AcDbEntity
8
Geo
100
AcDbLine
10
-14.4438752783965
20
5.16777882040585
30
0.000000000000000
11
-14.3438752783965
21
5.08511557802101
31
0.000000000000000
  0
LINE
  5
F107CF
330
F107D0
100
AcDbEntity
8
Geo
100
AcDbLine
10
-14.3438752783965
20
5.08511557802101
30
0.000000000000000
11
-14.2438752783965
21
5.00216987089465
31
0.000000000000000
  0
LINE
  5
F107D1
330
F107D2
100
AcDbEntity
8
Geo
100
AcDbLine
10
-14.2438752783965
20
5.00216987089465
30
0.000000000000000
11
-14.1438752783965
21
4.91897819837132
31
0.000000000000000
  0
LINE
  5
F107D3
330
F107D4
100
AcDbEntity
8
Geo
100
AcDbLine
10
-14.1438752783965
20
4.91897819837132
30
0.000000000000000
11
-14.0438752783965
21
4.83557716802993
31
0.000000000000000
  0
LINE
  5
F107D5
330
F107D6
100
AcDbEntity
8
Geo
100
AcDbLine
10
-14.0438752783965
20
4.83557716802993
30
0.000000000000000
11
-13.9438752783965
21
4.75200347957499
31
0.000000000000000
  0
LINE
  5
F107D7
330
F107D8
100
AcDbEntity
8
Geo
100
AcDbLine
10
-13.9438752783965
20
4.75200347957499
30
0.000000000000000
11
-13.8438752783965
21
4.66829390868732
31
0.000000000000000
  0
LINE
  5
F107D9
330
F107DA
100
AcDbEntity
8
Geo
100
AcDbLine
10
-13.8438752783965
20
4.66829390868732
30
0.000000000000000
11
-13.7438752783965
21
4.58448529084130
31
0.000000000000000
  0
LINE
  5
F107DB
330
F107DC
100
AcDbEntity
8
Geo
100
AcDbLine
10
-13.7438752783965
20
4.58448529084130
30
0.000000000000000
11
-13.6438752783965
21
4.50061450509581
31
0.000000000000000
  0
LINE
  5
F107DD
330
F107DE
100
AcDbEntity
8
Geo
100
AcDbLine
10
-13.6438752783965
20
4.50061450509581
30
0.000000000000000
11
-13.5438752783965
21
4.41671845786608
31
0.000000000000000
  0
LINE
  5
F107DF
330
F107E0
100
AcDbEntity
8
Geo
100
AcDbLine
10
-13.5438752783965
20
4.41671845786608
30
0.000000000000000
11
-13.4438752783965
21
4.33283406668332
31
0.000000000000000
  0
LINE
  5
F107E1
330
F107E2
100
AcDbEntity
8
Geo
100
AcDbLine
10
-13.4438752783965
20
4.33283406668332
30
0.000000000000000
11
-13.3438752783965
21
4.24899824394968
31
0.000000000000000
  0
LINE
  5
F107E3
330
F107E4
100
AcDbEntity
8
Geo
100
AcDbLine
10
-13.3438752783965
20
4.24899824394968
30
0.000000000000000
11
-13.2438752783965
21
4.16524788069526
31
0.000000000000000
  0
LINE
  5
F107E5
330
F107E6
100
AcDbEntity
8
Geo
100
AcDbLine
10
-13.2438752783965
20
4.16524788069526
30
0.000000000000000
11
-13.1438752783965
21
4.08161983034466
31
0.000000000000000
  0
LINE
  5
F107E7
330
F107E8
100
AcDbEntity
8
Geo
100
AcDbLine
10
-13.1438752783965
20
4.08161983034466
30
0.000000000000000
11
-13.0438752783965
21
3.99815089250007
31
0.000000000000000
  0
LINE
  5
F107E9
330
F107EA
100
AcDbEntity
8
Geo
100
AcDbLine
10
-13.0438752783965
20
3.99815089250007
30
0.000000000000000
11
-12.9438752783965
21
3.91487779674793
31
0.000000000000000
  0
LINE
  5
F107EB
330
F107EC
100
AcDbEntity
8
Geo
100
AcDbLine
10
-12.9438752783965
20
3.91487779674793
30
0.000000000000000
11
-12.8438752783965
21
3.83183718649656
31
0.000000000000000
  0
LINE
  5
F107ED
330
F107EE
100
AcDbEntity
8
Geo
100
AcDbLine
10
-12.8438752783965
20
3.83183718649656
30
0.000000000000000
11
-12.7438752783965
21
3.74906560285157
31
0.000000000000000
  0
LINE
  5
F107EF
330
F107F0
100
AcDbEntity
8
Geo
100
AcDbLine
10
-12.7438752783965
20
3.74906560285157
30
0.000000000000000
11
-12.6438752783965
21
3.66659946853637
31
0.000000000000000
  0
LINE
  5
F107F1
330
F107F2
100
AcDbEntity
8
Geo
100
AcDbLine
10
-12.6438752783965
20
3.66659946853637
30
0.000000000000000
11
-12.5438752783965
21
3.58447507186481
31
0.000000000000000
  0
LINE
  5
F107F3
330
F107F4
100
AcDbEntity
8
Geo
100
AcDbLine
10
-12.5438752783965
20
3.58447507186481
30
0.000000000000000
11
-12.4438752783965
21
3.50272855077281
31
0.000000000000000
  0
LINE
  5
F107F5
330
F107F6
100
AcDbEntity
8
Geo
100
AcDbLine
10
-12.4438752783965
20
3.50272855077281
30
0.000000000000000
11
-12.3438752783965
21
3.42139587691630
31
0.000000000000000
  0
LINE
  5
F107F7
330
F107F8
100
AcDbEntity
8
Geo
100
AcDbLine
10
-12.3438752783965
20
3.42139587691630
30
0.000000000000000
11
-12.2438752783965
21
3.34051283984233
31
0.000000000000000
  0
LINE
  5
F107F9
330
F107FA
100
AcDbEntity
8
Geo
100
AcDbLine
10
-12.2438752783965
20
3.34051283984233
30
0.000000000000000
11
-12.1438752783965
21
3.26011503124020
31
0.000000000000000
  0
LINE
  5
F107FB
330
F107FC
100
AcDbEntity
8
Geo
100
AcDbLine
10
-12.1438752783965
20
3.26011503124020
30
0.000000000000000
11
-12.0438752783965
21
3.18023782927978
31
0.000000000000000
  0
LINE
  5
F107FD
330
F107FE
100
AcDbEntity
8
Geo
100
AcDbLine
10
-12.0438752783965
20
3.18023782927978
30
0.000000000000000
11
-11.9438752783965
21
3.10091638304374
31
0.000000000000000
  0
LINE
  5
F107FF
330
F10800
100
AcDbEntity
8
Geo
100
AcDbLine
10
-11.9438752783965
20
3.10091638304374
30
0.000000000000000
11
-11.8438752783965
21
3.02218559706055
31
0.000000000000000
  0
LINE
  5
F10801
330
F10802
100
AcDbEntity
8
Geo
100
AcDbLine
10
-11.8438752783965
20
3.02218559706055
30
0.000000000000000
11
-11.7438752783965
21
2.94408011594514
31
0.000000000000000
  0
LINE
  5
F10803
330
F10804
100
AcDbEntity
8
Geo
100
AcDbLine
10
-11.7438752783965
20
2.94408011594514
30
0.000000000000000
11
-11.6438752783965
21
2.86663430915394
31
0.000000000000000
  0
LINE
  5
F10805
330
F10806
100
AcDbEntity
8
Geo
100
AcDbLine
10
-11.6438752783965
20
2.86663430915394
30
0.000000000000000
11
-11.5438752783965
21
2.78988225586093
31
0.000000000000000
  0
LINE
  5
F10807
330
F10808
100
AcDbEntity
8
Geo
100
AcDbLine
10
-11.5438752783965
20
2.78988225586093
30
0.000000000000000
11
-11.4438752783965
21
2.71385772996157
31
0.000000000000000
  0
LINE
  5
F10809
330
F1080A
100
AcDbEntity
8
Geo
100
AcDbLine
10
-11.4438752783965
20
2.71385772996157
30
0.000000000000000
11
-11.3438752783965
21
2.63859418521081
31
0.000000000000000
  0
LINE
  5
F1080B
330
F1080C
100
AcDbEntity
8
Geo
100
AcDbLine
10
-11.3438752783965
20
2.63859418521081
30
0.000000000000000
11
-11.2438752783965
21
2.56412474050232
31
0.000000000000000
  0
LINE
  5
F1080D
330
F1080E
100
AcDbEntity
8
Geo
100
AcDbLine
10
-11.2438752783965
20
2.56412474050232
30
0.000000000000000
11
-11.1438752783965
21
2.49048216529475
31
0.000000000000000
  0
LINE
  5
F1080F
330
F10810
100
AcDbEntity
8
Geo
100
AcDbLine
10
-11.1438752783965
20
2.49048216529475
30
0.000000000000000
11
-11.0438752783965
21
2.41769886519194
31
0.000000000000000
  0
LINE
  5
F10811
330
F10812
100
AcDbEntity
8
Geo
100
AcDbLine
10
-11.0438752783965
20
8.44253563145912
30
0.000000000000000
11
-10.9438752783965
21
8.44102973494582
31
0.000000000000000
  0
LINE
  5
F10813
330
F10814
100
AcDbEntity
8
Geo
100
AcDbLine
10
-11.0438752783965
20
2.41769886519194
30
0.000000000000000
11
-10.9438752783965
21
2.34580686768320
31
0.000000000000000
  0
LINE
  5
F10815
330
F10816
100
AcDbEntity
8
Geo
100
AcDbLine
10
-10.9438752783965
20
8.44102973494582
30
0.000000000000000
11
-10.8438752783965
21
8.43776464064084
31
0.000000000000000
  0
LINE
  5
F10817
330
F10818
100
AcDbEntity
8
Geo
100
AcDbLine
10
-10.9438752783965
20
2.34580686768320
30
0.000000000000000
11
-10.8438752783965
21
2.27483780804994
31
0.000000000000000
  0
LINE
  5
F10819
330
F1081A
100
AcDbEntity
8
Geo
100
AcDbLine
10
-10.8438752783965
20
8.43776464064084
30
0.000000000000000
11
-10.7438752783965
21
8.43274178531294
31
0.000000000000000
  0
LINE
  5
F1081B
330
F1081C
100
AcDbEntity
8
Geo
100
AcDbLine
10
-10.8438752783965
20
2.27483780804994
30
0.000000000000000
11
-10.7438752783965
21
2.20482291544493
31
0.000000000000000
  0
LINE
  5
F1081D
330
F1081E
100
AcDbEntity
8
Geo
100
AcDbLine
10
-10.7438752783965
20
8.43274178531294
30
0.000000000000000
11
-10.6438752783965
21
8.42596337921428
31
0.000000000000000
  0
LINE
  5
F1081F
330
F10820
100
AcDbEntity
8
Geo
100
AcDbLine
10
-10.7438752783965
20
2.20482291544493
30
0.000000000000000
11
-10.6438752783965
21
2.13579299915027
31
0.000000000000000
  0
LINE
  5
F10821
330
F10822
100
AcDbEntity
8
Geo
100
AcDbLine
10
-10.6438752783965
20
8.42596337921428
30
0.000000000000000
11
-10.5438752783965
21
8.41743240510777
31
0.000000000000000
  0
LINE
  5
F10823
330
F10824
100
AcDbEntity
8
Geo
100
AcDbLine
10
-10.6438752783965
20
2.13579299915027
30
0.000000000000000
11
-10.5438752783965
21
2.06777843502007
31
0.000000000000000
  0
LINE
  5
F10825
330
F10826
100
AcDbEntity
8
Geo
100
AcDbLine
10
-10.5438752783965
20
8.41743240510777
30
0.000000000000000
11
-10.4438752783965
21
8.40715261695457
31
0.000000000000000
  0
LINE
  5
F10827
330
F10828
100
AcDbEntity
8
Geo
100
AcDbLine
10
-10.5438752783965
20
2.06777843502007
30
0.000000000000000
11
-10.4438752783965
21
2.00080915211390
31
0.000000000000000
  0
LINE
  5
F10829
330
F1082A
100
AcDbEntity
8
Geo
100
AcDbLine
10
-10.4438752783965
20
8.40715261695457
30
0.000000000000000
11
-10.3438752783965
21
8.39512853826222
31
0.000000000000000
  0
LINE
  5
F1082B
330
F1082C
100
AcDbEntity
8
Geo
100
AcDbLine
10
-10.4438752783965
20
2.00080915211390
30
0.000000000000000
11
-10.3438752783965
21
1.93491461952684
31
0.000000000000000
  0
LINE
  5
F1082D
330
F1082E
100
AcDbEntity
8
Geo
100
AcDbLine
10
-10.3438752783965
20
8.39512853826222
30
0.000000000000000
11
-10.2438752783965
21
8.38136546009405
31
0.000000000000000
  0
LINE
  5
F1082F
330
F10830
100
AcDbEntity
8
Geo
100
AcDbLine
10
-10.3438752783965
20
1.93491461952684
30
0.000000000000000
11
-10.2438752783965
21
1.87012383342198
31
0.000000000000000
  0
LINE
  5
F10831
330
F10832
100
AcDbEntity
8
Geo
100
AcDbLine
10
-10.2438752783965
20
8.38136546009405
30
0.000000000000000
11
-10.1438752783965
21
8.36586943874097
31
0.000000000000000
  0
LINE
  5
F10833
330
F10834
100
AcDbEntity
8
Geo
100
AcDbLine
10
-10.2438752783965
20
1.87012383342198
30
0.000000000000000
11
-10.1438752783965
21
1.80646530427088
31
0.000000000000000
  0
LINE
  5
F10835
330
F10836
100
AcDbEntity
8
Geo
100
AcDbLine
10
-10.1438752783965
20
8.36586943874097
30
0.000000000000000
11
-10.0438752783965
21
8.34864729305646
31
0.000000000000000
  0
LINE
  5
F10837
330
F10838
100
AcDbEntity
8
Geo
100
AcDbLine
10
-10.1438752783965
20
1.80646530427088
30
0.000000000000000
11
-10.0438752783965
21
1.74396704430791
31
0.000000000000000
  0
LINE
  5
F10839
330
F1083A
100
AcDbEntity
8
Geo
100
AcDbLine
10
-10.0438752783965
20
8.34864729305646
30
0.000000000000000
11
-9.94387527839649
21
8.32970660145596
31
0.000000000000000
  0
LINE
  5
F1083B
330
F1083C
100
AcDbEntity
8
Geo
100
AcDbLine
10
-10.0438752783965
20
1.74396704430791
30
0.000000000000000
11
-9.94387527839649
21
1.68265655520378
31
0.000000000000000
  0
LINE
  5
F1083D
330
F1083E
100
AcDbEntity
8
Geo
100
AcDbLine
10
-9.94387527839649
20
8.32970660145596
30
0.000000000000000
11
-9.84387527839649
21
8.30905569858214
31
0.000000000000000
  0
LINE
  5
F1083F
330
F10840
100
AcDbEntity
8
Geo
100
AcDbLine
10
-9.94387527839649
20
1.68265655520378
30
0.000000000000000
11
-9.84387527839649
21
1.62256081596374
31
0.000000000000000
  0
LINE
  5
F10841
330
F10842
100
AcDbEntity
8
Geo
100
AcDbLine
10
-9.84387527839649
20
8.30905569858214
30
0.000000000000000
11
-9.74387527839649
21
8.28670367163728
31
0.000000000000000
  0
LINE
  5
F10843
330
F10844
100
AcDbEntity
8
Geo
100
AcDbLine
10
-9.84387527839649
20
1.62256081596374
30
0.000000000000000
11
-9.74387527839649
21
1.56370627105570
31
0.000000000000000
  0
LINE
  5
F10845
330
F10846
100
AcDbEntity
8
Geo
100
AcDbLine
10
-9.74387527839649
20
8.28670367163728
30
0.000000000000000
11
-9.64387527839649
21
8.26266035638457
31
0.000000000000000
  0
LINE
  5
F10847
330
F10848
100
AcDbEntity
8
Geo
100
AcDbLine
10
-9.74387527839649
20
1.56370627105570
30
0.000000000000000
11
-9.64387527839649
21
1.50611881877371
31
0.000000000000000
  0
LINE
  5
F10849
330
F1084A
100
AcDbEntity
8
Geo
100
AcDbLine
10
-9.64387527839649
20
8.26266035638457
30
0.000000000000000
11
-9.54387527839649
21
8.23693633281997
31
0.000000000000000
  0
LINE
  5
F1084B
330
F1084C
100
AcDbEntity
8
Geo
100
AcDbLine
10
-9.64387527839649
20
1.50611881877371
30
0.000000000000000
11
-9.54387527839649
21
1.44982379984167
31
0.000000000000000
  0
LINE
  5
F1084D
330
F1084E
100
AcDbEntity
8
Geo
100
AcDbLine
10
-9.54387527839649
20
8.23693633281997
30
0.000000000000000
11
-9.44387527839649
21
8.20954292051665
31
0.000000000000000
  0
LINE
  5
F1084F
330
F10850
100
AcDbEntity
8
Geo
100
AcDbLine
10
-9.54387527839649
20
1.44982379984167
30
0.000000000000000
11
-9.44387527839649
21
1.39484598626241
31
0.000000000000000
  0
LINE
  5
F10851
330
F10852
100
AcDbEntity
8
Geo
100
AcDbLine
10
-9.44387527839649
20
8.20954292051665
30
0.000000000000000
11
-9.34387527839649
21
8.18049217364387
31
0.000000000000000
  0
LINE
  5
F10853
330
F10854
100
AcDbEntity
8
Geo
100
AcDbLine
10
-9.44387527839649
20
1.39484598626241
30
0.000000000000000
11
-9.34387527839649
21
1.34120957041705
31
0.000000000000000
  0
LINE
  5
F10855
330
F10856
100
AcDbEntity
8
Geo
100
AcDbLine
10
-9.34387527839649
20
8.18049217364387
30
0.000000000000000
11
-9.24387527839649
21
8.14979687566271
31
0.000000000000000
  0
LINE
  5
F10857
330
F10858
100
AcDbEntity
8
Geo
100
AcDbLine
10
-9.34387527839649
20
1.34120957041705
30
0.000000000000000
11
-9.24387527839649
21
1.28893815441946
31
0.000000000000000
  0
LINE
  5
F10859
330
F1085A
100
AcDbEntity
8
Geo
100
AcDbLine
10
-9.24387527839649
20
8.14979687566271
30
0.000000000000000
11
-9.14387527839649
21
8.11747053370087
31
0.000000000000000
  0
LINE
  5
F1085B
330
F1085C
100
AcDbEntity
8
Geo
100
AcDbLine
10
-9.24387527839649
20
1.28893815441946
30
0.000000000000000
11
-9.14387527839649
21
1.23805473973032
31
0.000000000000000
  0
LINE
  5
F1085D
330
F1085E
100
AcDbEntity
8
Geo
100
AcDbLine
10
-9.14387527839649
20
8.11747053370087
30
0.000000000000000
11
-9.04387527839649
21
8.08352737260896
31
0.000000000000000
  0
LINE
  5
F1085F
330
F10860
100
AcDbEntity
8
Geo
100
AcDbLine
10
-9.14387527839649
20
1.23805473973032
30
0.000000000000000
11
-9.04387527839649
21
1.18858171703565
31
0.000000000000000
  0
LINE
  5
F10861
330
F10862
100
AcDbEntity
8
Geo
100
AcDbLine
10
-9.04387527839649
20
8.08352737260896
30
0.000000000000000
11
-8.94387527839649
21
8.04798232870104
31
0.000000000000000
  0
LINE
  5
F10863
330
F10864
100
AcDbEntity
8
Geo
100
AcDbLine
10
-9.04387527839649
20
1.18858171703565
30
0.000000000000000
11
-8.94387527839649
21
1.14054085639400
31
0.000000000000000
  0
LINE
  5
F10865
330
F10866
100
AcDbEntity
8
Geo
100
AcDbLine
10
-8.94387527839649
20
8.04798232870104
30
0.000000000000000
11
-8.84387527839649
21
8.01085104318206
31
0.000000000000000
  0
LINE
  5
F10867
330
F10868
100
AcDbEntity
8
Geo
100
AcDbLine
10
-8.94387527839649
20
1.14054085639400
30
0.000000000000000
11
-8.84387527839649
21
1.09395329765680
31
0.000000000000000
  0
LINE
  5
F10869
330
F1086A
100
AcDbEntity
8
Geo
100
AcDbLine
10
-8.84387527839649
20
8.01085104318206
30
0.000000000000000
11
-8.74387527839649
21
7.97214985526510
31
0.000000000000000
  0
LINE
  5
F1086B
330
F1086C
100
AcDbEntity
8
Geo
100
AcDbLine
10
-8.84387527839649
20
1.09395329765680
30
0.000000000000000
11
-8.74387527839649
21
1.04883954116597
31
0.000000000000000
  0
LINE
  5
F1086D
330
F1086E
100
AcDbEntity
8
Geo
100
AcDbLine
10
-8.74387527839649
20
7.97214985526510
30
0.000000000000000
11
-8.64387527839649
21
7.93189579498151
31
0.000000000000000
  0
LINE
  5
F1086F
330
F10870
100
AcDbEntity
8
Geo
100
AcDbLine
10
-8.74387527839649
20
1.04883954116597
30
0.000000000000000
11
-8.64387527839649
21
1.00521943873302
31
0.000000000000000
  0
LINE
  5
F10871
330
F10872
100
AcDbEntity
8
Geo
100
AcDbLine
10
-8.64387527839649
20
7.93189579498151
30
0.000000000000000
11
-8.54387527839649
21
7.89010657568702
31
0.000000000000000
  0
LINE
  5
F10873
330
F10874
100
AcDbEntity
8
Geo
100
AcDbLine
10
-8.64387527839649
20
1.00521943873302
30
0.000000000000000
11
-8.54387527839649
21
0.963112184903418
31
0.000000000000000
  0
LINE
  5
F10875
330
F10876
100
AcDbEntity
8
Geo
100
AcDbLine
10
-8.54387527839649
20
7.89010657568702
30
0.000000000000000
11
-8.44387527839649
21
7.84680058626713
31
0.000000000000000
  0
LINE
  5
F10877
330
F10878
100
AcDbEntity
8
Geo
100
AcDbLine
10
-8.54387527839649
20
0.963112184903418
30
0.000000000000000
11
-8.44387527839649
21
0.922536308510298
31
0.000000000000000
  0
LINE
  5
F10879
330
F1087A
100
AcDbEntity
8
Geo
100
AcDbLine
10
-8.44387527839649
20
7.84680058626713
30
0.000000000000000
11
-8.34387527839649
21
7.80199688304538
31
0.000000000000000
  0
LINE
  5
F1087B
330
F1087C
100
AcDbEntity
8
Geo
100
AcDbLine
10
-8.44387527839649
20
0.922536308510298
30
0.000000000000000
11
-8.34387527839649
21
0.883509664520988
31
0.000000000000000
  0
LINE
  5
F1087D
330
F1087E
100
AcDbEntity
8
Geo
100
AcDbLine
10
-8.34387527839649
20
7.80199688304538
30
0.000000000000000
11
-8.24387527839649
21
7.75571518139772
31
0.000000000000000
  0
LINE
  5
F1087F
330
F10880
100
AcDbEntity
8
Geo
100
AcDbLine
10
-8.34387527839649
20
0.883509664520988
30
0.000000000000000
11
-8.24387527839649
21
0.846049426180218
31
0.000000000000000
  0
LINE
  5
F10881
330
F10882
100
AcDbEntity
8
Geo
100
AcDbLine
10
-8.24387527839649
20
7.75571518139772
30
0.000000000000000
11
-8.24387527839649
21
7.78393841138867
31
0.000000000000000
  0
LINE
  5
F10883
330
F10884
100
AcDbEntity
8
Geo
100
AcDbLine
10
-8.24387527839649
20
7.75571518139772
30
0.000000000000000
11
-8.24387527839649
21
6.11054402620178
31
0.000000000000000
  0
LINE
  5
F10885
330
F10886
100
AcDbEntity
8
Geo
100
AcDbLine
10
-8.24387527839649
20
0.846049426180218
30
0.000000000000000
11
-8.24387527839649
21
0.867681159750008
31
0.000000000000000
  0
LINE
  5
F10887
330
F10888
100
AcDbEntity
8
Geo
100
AcDbLine
10
-8.24387527839649
20
0.846049426180218
30
0.000000000000000
11
-8.24387527839649
21
0.460730847636248
31
0.000000000000000
  0
LINE
  5
F10889
330
F1088A
100
AcDbEntity
8
Geo
100
AcDbLine
10
-27.2438752783965
20
4.44320712694878
30
0.000000000000000
11
-27.2438752783965
21
4.44320712694878
31
0.000000000000000
  0
LINE
  5
F1088B
330
F1088C
100
AcDbEntity
8
Geo
100
AcDbLine
10
-27.2438752783965
20
4.44320712694878
30
0.000000000000000
11
-27.2438752783965
21
4.44320712694878
31
0.000000000000000
  0
LINE
  5
F1088D
330
F1088E
100
AcDbEntity
8
Geo
100
AcDbLine
10
35.7561247216035
20
7.74320712694878
30
0.000000000000000
11
35.7561247216035
21
4.44320712694878
31
0.000000000000000
  0
LINE
  5
F1088F
330
F10890
100
AcDbEntity
8
Geo
100
AcDbLine
10
-27.2438752783965
20
4.44320712694878
30
0.000000000000000
11
-27.2438752783965
21
0.553207126948778
31
0.000000000000000
  0
LINE
  5
F10891
330
F10892
100
AcDbEntity
8
Geo
100
AcDbLine
10
-27.2438752783965
20
0.553207126948778
30
0.000000000000000
11
-27.1338752783965
21
0.443207126948778
31
0.000000000000000
  0
LINE
  5
F10893
330
F10894
100
AcDbEntity
8
Geo
100
AcDbLine
10
-27.1338752783965
20
0.443207126948778
30
0.000000000000000
11
-8.24387527839649
21
0.443207126948778
31
0.000000000000000
  0
LINE
  5
F10895
330
F10896
100
AcDbEntity
8
Geo
100
AcDbLine
10
-8.24387527839649
20
0.443207126948778
30
0.000000000000000
11
-8.24387527839649
21
0.693207126948778
31
0.000000000000000
  0
LINE
  5
F10897
330
F10898
100
AcDbEntity
8
Geo
100
AcDbLine
10
-8.24387527839649
20
0.693207126948778
30
0.000000000000000
11
-0.243875278396487
21
0.693207126948778
31
0.000000000000000
  0
LINE
  5
F10899
330
F1089A
100
AcDbEntity
8
Geo
100
AcDbLine
10
-0.243875278396487
20
0.693207126948778
30
0.000000000000000
11
-0.243875278396487
21
0.443207126948778
31
0.000000000000000
  0
LINE
  5
F1089B
330
F1089C
100
AcDbEntity
8
Geo
100
AcDbLine
10
-0.243875278396487
20
0.443207126948778
30
0.000000000000000
11
35.0561247216035
21
0.443207126948778
31
0.000000000000000
  0
LINE
  5
F1089D
330
F1089E
100
AcDbEntity
8
Geo
100
AcDbLine
10
35.0561247216035
20
0.443207126948778
30
0.000000000000000
11
35.7561247216035
21
1.14320712694878
31
0.000000000000000
  0
LINE
  5
F1089F
330
F108A0
100
AcDbEntity
8
Geo
100
AcDbLine
10
-27.2438752783965
20
8.33320712694878
30
0.000000000000000
11
-27.2438752783965
21
0.553207126948778
31
0.000000000000000
  0
LINE
  5
F108A1
330
F108A2
100
AcDbEntity
8
Geo
100
AcDbLine
10
-27.1338752783965
20
8.44320712694878
30
0.000000000000000
11
-27.1338752783965
21
0.443207126948778
31
0.000000000000000
  0
LINE
  5
F108A3
330
F108A4
100
AcDbEntity
8
Geo
100
AcDbLine
10
-8.24387527839649
20
8.44320712694878
30
0.000000000000000
11
-8.24387527839649
21
0.443207126948778
31
0.000000000000000
  0
LINE
  5
F108A5
330
F108A6
100
AcDbEntity
8
Geo
100
AcDbLine
10
-8.24387527839649
20
8.19320712694878
30
0.000000000000000
11
-8.24387527839649
21
0.693207126948778
31
0.000000000000000
  0
LINE
  5
F108A7
330
F108A8
100
AcDbEntity
8
Geo
100
AcDbLine
10
-0.243875278396487
20
8.19320712694878
30
0.000000000000000
11
-0.243875278396487
21
0.693207126948778
31
0.000000000000000
  0
LINE
  5
F108A9
330
F108AA
100
AcDbEntity
8
Geo
100
AcDbLine
10
-0.243875278396487
20
8.44320712694878
30
0.000000000000000
11
-0.243875278396487
21
0.443207126948778
31
0.000000000000000
  0
LINE
  5
F108AB
330
F108AC
100
AcDbEntity
8
Geo
100
AcDbLine
10
35.0561247216035
20
8.44320712694878
30
0.000000000000000
11
35.0561247216035
21
0.443207126948778
31
0.000000000000000
  0
LINE
  5
F108AD
330
F108AE
100
AcDbEntity
8
Geo
100
AcDbLine
10
35.7561247216035
20
7.74320712694878
30
0.000000000000000
11
35.7561247216035
21
1.14320712694878
31
0.000000000000000
  0
LWPOLYLINE
  5
F108AF
330
F108B0
100
AcDbEntity
8
Rahmen
100
AcDbPolyline
90
   4
70
   1
43
   0.0
 10
-233.385300668152
 20
108.040089086860
 10
-233.385300668152
 20
108.040089086860
 10
-233.385300668152
 20
108.040089086860
 10
-233.385300668152
 20
108.040089086860
  0
TEXT
  5
F108B1
330
F108B2
 100
AcDbEntity
8
Text
100
AcDbText
10
-233.385300668152
20
108.540089086860
30
0.000000000000000
40
1.00000000000000
1
 -       
100
AcDbText
  0
LWPOLYLINE
  5
F108B3
330
F108B4
100
AcDbEntity
8
Rahmen
100
AcDbPolyline
90
   4
70
   1
43
   0.0
 10
-134.699331848552
 20
99.8552338530067
 10
143.351893095768
 20
99.8552338530067
 10
143.351893095768
 20
-100.089086859688
 10
-134.699331848552
 20
-100.089086859688
  0
TEXT
  5
F108B5
330
F108B6
 100
AcDbEntity
8
Text
100
AcDbText
10
-133.530066815145
20
-99.5890868596882
30
0.000000000000000
40
1.00000000000000
1
ISBESketcher
100
AcDbText
  0
LWPOLYLINE
  5
F108B7
330
F108B8
100
AcDbEntity
8
Rahmen
100
AcDbPolyline
90
   4
70
   1
43
   0.0
 10
103.363028953229
 20
-97.0489977728285
 10
143.351893095768
 20
-97.0489977728285
 10
143.351893095768
 20
-100.089086859688
 10
103.363028953229
 20
-100.089086859688
  0
TEXT
  5
F108B9
330
F108BA
 100
AcDbEntity
8
Text
100
AcDbText
10
104.298440979955
20
-98.0489977728285
30
0.000000000000000
40
0.750000000000000
1
Ers. durch:
100
AcDbText
  0
TEXT
  5
F108BB
330
F108BC
 100
AcDbEntity
8
Text
100
AcDbText
10
130.957683741648
20
-98.0489977728285
30
0.000000000000000
40
0.750000000000000
1
 
100
AcDbText
  0
LWPOLYLINE
  5
F108BD
330
F108BE
100
AcDbEntity
8
Rahmen
100
AcDbPolyline
90
   4
70
   1
43
   0.0
 10
63.3741648106904
 20
-97.0489977728285
 10
103.363028953229
 20
-97.0489977728285
 10
103.363028953229
 20
-100.089086859688
 10
63.3741648106904
 20
-100.089086859688
  0
TEXT
  5
F108BF
330
F108C0
 100
AcDbEntity
8
Text
100
AcDbText
10
64.3095768374164
20
-98.0489977728285
30
0.000000000000000
40
0.750000000000000
1
Ers. für:
100
AcDbText
  0
TEXT
  5
F108C1
330
F108C2
 100
AcDbEntity
8
Text
100
AcDbText
10
91.2026726057906
20
-99.4521158129176
30
0.000000000000000
40
0.750000000000000
1

100
AcDbText
  0
LWPOLYLINE
  5
F108C3
330
F108C4
100
AcDbEntity
8
Rahmen
100
AcDbPolyline
90
   4
70
   1
43
   0.0
 10
130.022271714922
 20
-94.0089086859688
 10
143.351893095768
 20
-94.0089086859688
 10
143.351893095768
 20
-97.0489977728285
 10
130.022271714922
 20
-97.0489977728285
  0
TEXT
  5
F108C5
330
F108C6
 100
AcDbEntity
8
Text
100
AcDbText
10
130.957683741648
20
-95.0089086859688
30
0.000000000000000
40
0.750000000000000
1
Blätter
100
AcDbText
  0
TEXT
  5
F108C7
330
F108C8
 100
AcDbEntity
8
Text
100
AcDbText
10
141.247216035635
20
-96.4120267260579
30
0.000000000000000
40
0.750000000000000
1

100
AcDbText
  0
LWPOLYLINE
  5
F108C9
330
F108CA
100
AcDbEntity
8
Rahmen
100
AcDbPolyline
90
   4
70
   1
43
   0.0
 10
130.022271714922
 20
-91.2026726057907
 10
143.351893095768
 20
-91.2026726057907
 10
143.351893095768
 20
-94.0089086859688
 10
130.022271714922
 20
-94.0089086859688
  0
TEXT
  5
F108CB
330
F108CC
 100
AcDbEntity
8
Text
100
AcDbText
10
130.957683741648
20
-92.2026726057907
30
0.000000000000000
40
0.750000000000000
1
Blatt
100
AcDbText
  0
TEXT
  5
F108CD
330
F108CE
 100
AcDbEntity
8
Text
100
AcDbText
10
141.247216035635
20
-93.6057906458797
30
0.000000000000000
40
0.750000000000000
1

100
AcDbText
  0
LWPOLYLINE
  5
F108CF
330
F108D0
100
AcDbEntity
8
Rahmen
100
AcDbPolyline
90
   4
70
   1
43
   0.0
 10
63.3741648106904
 20
-91.2026726057907
 10
130.022271714922
 20
-91.2026726057907
 10
130.022271714922
 20
-97.0489977728285
 10
63.3741648106904
 20
-97.0489977728285
  0
TEXT
  5
F108D1
330
F108D2
 100
AcDbEntity
8
Text
100
AcDbText
10
64.3095768374164
20
-92.2026726057907
30
0.000000000000000
40
0.750000000000000
1
Datum:
100
AcDbText
  0
TEXT
  5
F108D3
330
F108D4
 100
AcDbEntity
8
Text
100
AcDbText
10
90.2672605790645
20
-95.0089086859688
30
0.000000000000000
40
0.750000000000000
1
06.11.2012
100
AcDbText
  0
LWPOLYLINE
  5
F108D5
330
F108D6
100
AcDbEntity
8
Rahmen
100
AcDbPolyline
90
   4
70
   1
43
   0.0
 10
63.3741648106904
 20
-85.1224944320713
 10
143.351893095768
 20
-85.1224944320713
 10
143.351893095768
 20
-91.2026726057907
 10
63.3741648106904
 20
-91.2026726057907
  0
TEXT
  5
F108D7
330
F108D8
 100
AcDbEntity
8
Text
100
AcDbText
10
-233.385300668152
20
106.040089086860
30
0.000000000000000
40
1.50000000000000
1

100
AcDbText
  0
TEXT
  5
F108D9
330
F108DA
 100
AcDbEntity
8
Text
100
AcDbText
10
92.3719376391981
20
-88.9235337787676
30
0.000000000000000
40
2.50000000000000
1
1835-080W
100
AcDbText
  0
LWPOLYLINE
  5
F108DB
330
F108DC
100
AcDbEntity
8
Rahmen
100
AcDbPolyline
90
   4
70
   1
43
   0.0
 10
103.363028953229
 20
-79.0423162583519
 10
143.351893095768
 20
-79.0423162583519
 10
143.351893095768
 20
-85.1224944320713
 10
103.363028953229
 20
-85.1224944320713
  0
TEXT
  5
F108DD
330
F108DE
 100
AcDbEntity
8
Text
100
AcDbText
10
104.298440979955
20
-80.0423162583519
30
0.000000000000000
40
0.750000000000000
1
Zu bearb. Material:
100
AcDbText
  0
TEXT
  5
F108DF
330
F108E0
 100
AcDbEntity
8
Text
100
AcDbText
10
123.240534521158
20
-84.4855233853007
30
0.000000000000000
40
0.750000000000000
1

100
AcDbText
  0
LWPOLYLINE
  5
F108E1
330
F108E2
100
AcDbEntity
8
Rahmen
100
AcDbPolyline
90
   4
70
   1
43
   0.0
 10
63.3741648106904
 20
-79.0423162583519
 10
103.363028953229
 20
-79.0423162583519
 10
103.363028953229
 20
-85.1224944320713
 10
63.3741648106904
 20
-85.1224944320713
  0
TEXT
  5
F108E3
330
F108E4
 100
AcDbEntity
8
Text
100
AcDbText
10
64.3095768374164
20
-80.0423162583519
30
0.000000000000000
40
0.750000000000000
1
Werkstoff:
100
AcDbText
  0
TEXT
  5
F108E5
330
F108E6
 100
AcDbEntity
8
Text
100
AcDbText
10
83.2516703786191
20
-84.4855233853007
30
0.000000000000000
40
0.750000000000000
1

100
AcDbText
  0
LWPOLYLINE
  5
F108E7
330
F108E8
100
AcDbEntity
8
Rahmen
100
AcDbPolyline
90
   4
70
   1
43
   0.0
 10
103.363028953229
 20
-76.0022271714922
 10
143.351893095768
 20
-76.0022271714922
 10
143.351893095768
 20
-79.0423162583519
 10
103.363028953229
 20
-79.0423162583519
  0
TEXT
  5
F108E9
330
F108EA
 100
AcDbEntity
8
Text
100
AcDbText
10
-233.385300668152
20
106.040089086860
30
0.000000000000000
40
1.50000000000000
1

100
AcDbText
  0
TEXT
  5
F108EB
330
F108EC
 100
AcDbEntity
8
Text
100
AcDbText
10
123.240534521158
20
-78.4053452115813
30
0.000000000000000
40
0.750000000000000
1

100
AcDbText
  0
LWPOLYLINE
  5
F108ED
330
F108EE
100
AcDbEntity
8
Rahmen
100
AcDbPolyline
90
   4
70
   1
43
   0.0
 10
63.3741648106904
 20
-76.0022271714922
 10
103.363028953229
 20
-76.0022271714922
 10
103.363028953229
 20
-79.0423162583519
 10
63.3741648106904
 20
-79.0423162583519
  0
TEXT
  5
F108EF
330
F108F0
 100
AcDbEntity
8
Text
100
AcDbText
10
64.3095768374164
20
-77.0022271714922
30
0.000000000000000
40
0.750000000000000
1
Maßstab:
100
AcDbText
  0
TEXT
  5
F108F1
330
F108F2
 100
AcDbEntity
8
Text
100
AcDbText
10
88.6302895322939
20
-77.0022271714922
30
0.000000000000000
40
0.750000000000000
1
1 : 1
100
AcDbText
0
VIEWPORT
5
294
102
{ACAD_XDICTIONARY
360
58A
102
}
330
25D
100
AcDbEntity
67
1
8
0
60
1
100
AcDbViewport
10
0.0
20
0.0
30
0.0
40
10.0
41
10.0
68
-1
69
1
12
0.0
22
0.0
13
0.0
23
0.0
14
1.0
24
1.0
15
0.0
25
0.0
16
0.0
26
0.0
36
1.0
17
0.0
27
0.0
37
0.0
42
0.0
43
0.0
44
0.0
45
10.0
50
0.0
51
0.0000000000007958
72
100
90
32800
1

281
0
71
0
74
0
110
0.0
120
0.0
130
0.0
111
1.0
121
0.0
131
0.0
112
0.0
122
1.0
132
0.0
79
0
146
0.0
1001
VD_INVISIBLE_NOT_FOR_READ
1000
VD_INVISIBLE_NOT_FOR_READ
0
VIEWPORT
5
295
102
{ACAD_XDICTIONARY
360
58C
102
}
330
25D
100
AcDbEntity
67
1
8
0
60
1
100
AcDbViewport
10
0.0
20
0.0
30
0.0
40
10.0
41
10.0
68
0
69
2
12
0.0
22
0.0
13
0.0
23
0.0
14
1.0
24
1.0
15
0.0
25
0.0
16
0.0
26
0.0
36
1.0
17
0.0
27
0.0
37
0.0
42
0.0
43
0.0
44
0.0
45
10.0
50
0.0
51
0.0000000000007958
72
100
90
163872
1

281
0
71
0
74
0
110
0.0
120
0.0
130
0.0
111
1.0
121
0.0
131
0.0
112
0.0
122
1.0
132
0.0
79
0
146
0.0
1001
VD_INVISIBLE_NOT_FOR_READ
1000
VD_INVISIBLE_NOT_FOR_READ
0
ENDSEC
0
SECTION
2
OBJECTS
0
DICTIONARY
5
13
330
0
100
AcDbDictionary
281
1
3
ACAD_COLOR
350
FA7
3
ACAD_GROUP
350
14
3
ACAD_LAYOUT
350
FCF
3
ACAD_MATERIAL
350
F7A
3
ACAD_MLEADERSTYLE
350
FCD
3
ACAD_MLINESTYLE
350
16
3
ACAD_PLOTSETTINGS
350
17
3
ACAD_PLOTSTYLENAME
350
18
3
ACAD_SCALELIST
350
FAB
3
ACAD_TABLESTYLE
350
FA8
3
ACAD_VISUALSTYLE
350
F93
3
ACDB_RECOMPOSE_DATA
350
107E
3
AcDbVariableDictionary
350
FF0
3
DWGPROPS
350
107F
0
DICTIONARY
5
F1000F
330
F1000E
100
AcDbDictionary
280
1
281
1
3
ACAD_MTEXT_2008_RT
360
F10010
0
DICTIONARY
5
F10019
330
F10018
100
AcDbDictionary
280
1
281
1
3
ACAD_MTEXT_2008_RT
360
F1001A
0
DICTIONARY
5
F1001E
330
F1001D
100
AcDbDictionary
280
1
281
1
3
ACAD_MTEXT_2008_RT
360
F1001F
0
DICTIONARY
5
F10023
330
F10022
100
AcDbDictionary
280
1
281
1
3
ACAD_MTEXT_2008_RT
360
F10024
0
DICTIONARY
5
F10005
330
F10004
100
AcDbDictionary
280
1
281
1
3
ACAD_MTEXT_2008_RT
360
F10006
0
DICTIONARY
5
F1000A
330
F10009
100
AcDbDictionary
280
1
281
1
3
ACAD_MTEXT_2008_RT
360
F1000B
0
DICTIONARY
5
F10014
330
F10013
100
AcDbDictionary
280
1
281
1
3
ACAD_MTEXT_2008_RT
360
F10015
0
DICTIONARY
5
FA7
102
{ACAD_REACTORS
330
13
102
}
330
13
100
AcDbDictionary
281
1
0
DICTIONARY
5
14
330
13
100
AcDbDictionary
281
1
0
DICTIONARY
5
FCF
102
{ACAD_REACTORS
330
13
102
}
330
13
100
AcDbDictionary
281
1
3
Layout1
350
FD1
3
Model
350
FD0
0
DICTIONARY
5
F7A
102
{ACAD_REACTORS
330
13
102
}
330
13
100
AcDbDictionary
281
1
3
ByBlock
350
F83
3
ByLayer
350
F7B
3
Global
350
F8B
0
DICTIONARY
5
FCD
102
{ACAD_REACTORS
330
13
102
}
330
13
100
AcDbDictionary
281
1
3
Standard
350
FCE
0
DICTIONARY
5
16
330
13
100
AcDbDictionary
281
1
3
Standard
350
FAA
0
DICTIONARY
5
17
102
{ACAD_REACTORS
330
13
102
}
330
13
100
AcDbDictionary
281
1
0
ACDBDICTIONARYWDFLT
5
18
102
{ACAD_REACTORS
330
13
102
}
330
13
100
AcDbDictionary
281
1
3
Normal
350
19
100
AcDbDictionaryWithDefault
340
19
0
DICTIONARY
5
FAB
102
{ACAD_REACTORS
330
13
102
}
330
13
100
AcDbDictionary
281
1
3
A0
350
FAC
3
A1
350
FAD
3
A2
350
FAE
3
A3
350
FAF
3
A4
350
FB0
3
A5
350
FB1
3
A6
350
FB2
3
A7
350
FB3
3
A8
350
FB4
3
A9
350
FB5
3
B0
350
FB6
3
B1
350
FB7
3
B2
350
FB8
3
B3
350
FB9
3
B4
350
FBA
3
B5
350
FBB
3
B6
350
FBC
3
B7
350
FBD
3
B8
350
FBE
3
B9
350
FBF
3
C0
350
FC0
3
C1
350
FC1
3
C2
350
FC2
3
C3
350
FC3
3
C4
350
FC4
3
C5
350
FC5
3
C6
350
FC6
3
C7
350
FC7
3
C8
350
FC8
3
C9
350
FC9
3
D0
350
FCA
3
D1
350
FCB
3
D2
350
FCC
0
DICTIONARY
5
FA8
102
{ACAD_REACTORS
330
13
102
}
330
13
100
AcDbDictionary
281
1
3
Standard
350
FA9
0
DICTIONARY
5
F93
102
{ACAD_REACTORS
330
13
102
}
330
13
100
AcDbDictionary
281
1
3
2dWireframe
350
F99
3
3D Hidden
350
F9B
3
3dWireframe
350
F9A
3
Basic
350
F98
3
Brighten
350
F9F
3
ColorChange
350
FA3
3
Conceptual
350
F9C
3
Dim
350
F9E
3
EdgeColorOff
350
FA6
3
Facepattern
350
FA2
3
Flat
350
F94
3
FlatWithEdges
350
F95
3
Gouraud
350
F96
3
GouraudWithEdges
350
F97
3
JitterOff
350
FA4
3
Linepattern
350
FA1
3
OverhangOff
350
FA5
3
Realistic
350
F9D
3
Thicken
350
FA0
0
XRECORD
5
107E
102
{ACAD_REACTORS
330
13
102
}
330
13
100
AcDbXrecord
280
1
90
1
330
FA9
330
F1000E
330
F10018
330
F1001D
330
F10022
330
F10004
330
F10009
330
F10013
0
XRECORD
5
F10010
102
{ACAD_REACTORS
330
F1000F
102
}
330
F1000F
100
AcDbXrecord
280
1
40
48458.0
1
\A1;36
0
XRECORD
5
F1001A
102
{ACAD_REACTORS
330
F10019
102
}
330
F10019
100
AcDbXrecord
280
1
40
48458.0
1
\A1;19
0
XRECORD
5
F1001F
102
{ACAD_REACTORS
330
F1001E
102
}
330
F1001E
100
AcDbXrecord
280
1
40
48458.0
1
\A1;63
0
XRECORD
5
F10024
102
{ACAD_REACTORS
330
F10023
102
}
330
F10023
100
AcDbXrecord
280
1
40
48458.0
1
\A1;27
0
XRECORD
5
F10006
102
{ACAD_REACTORS
330
F10005
102
}
330
F10005
100
AcDbXrecord
280
1
40
48458.0
1
\A1;8
0
XRECORD
5
F1000B
102
{ACAD_REACTORS
330
F1000A
102
}
330
F1000A
100
AcDbXrecord
280
1
40
48458.0
1
\A1;7.5
0
LAYOUT
5
FD1
102
{ACAD_XDICTIONARY
360
10A9
102
}
102
{ACAD_REACTORS
330
FCF
102
}
330
FCF
100
AcDbPlotSettings
1

2
Microsoft XPS Document Writer
4

6

40
0.0
41
0.0
42
0.0
43
0.0
44
0.0
45
0.0
46
0.0
47
0.0
48
0.0
49
0.0
140
0.0
141
0.0
142
1.0
143
1.0
70
688
72
0
73
0
74
5
7

75
16
147
1.0
148
0.0
149
0.0
100
AcDbLayout
1
Layout1
70
1
71
1
10
0.0
20
0.0
11
12.0
21
9.0
12
0.0
22
0.0
32
0.0
14
1.000000000000000E+20
24
1.000000000000000E+20
34
1.000000000000000E+20
15
-1.000000000000000E+20
25
-1.000000000000000E+20
35
-1.000000000000000E+20
146
0.0
13
0.0
23
0.0
33
0.0
16
1.0
26
0.0
36
0.0
17
0.0
27
1.0
37
0.0
76
0
330
25D
0
LAYOUT
5
FD0
102
{ACAD_XDICTIONARY
360
10A7
102
}
102
{ACAD_REACTORS
330
FCF
102
}
330
FCF
100
AcDbPlotSettings
1

2
Microsoft XPS Document Writer
4

6

40
0.0
41
0.0
42
0.0
43
0.0
44
0.0
45
0.0
46
0.0
47
0.0
48
0.0
49
0.0
140
0.0
141
0.0
142
1.0
143
1.0
70
1712
72
0
73
0
74
0
7

75
0
147
1.0
148
0.0
149
0.0
100
AcDbLayout
1
Model
70
1
71
0
10
0.0
20
0.0
11
12.0
21
9.0
12
0.0
22
0.0
32
0.0
14
0.0
24
0.0
34
0.0
15
0.0
25
0.0
35
0.0
146
0.0
13
0.0
23
0.0
33
0.0
16
1.0
26
0.0
36
0.0
17
0.0
27
1.0
37
0.0
76
0
330
261
331
26B
0
MATERIAL
5
F83
102
{ACAD_XDICTIONARY
360
F84
102
}
102
{ACAD_REACTORS
330
F7A
102
}
330
F7A
100
AcDbMaterial
1
ByBlock
72
0
43
0.0208333333333333
43
0.0
43
0.0
43
0.0
43
0.0
43
0.0208333333333333
43
0.0
43
0.0
43
0.0
43
0.0
43
1.0
43
0.0
43
0.0
43
0.0
43
0.0
43
1.0
77
0
47
0.0208333333333333
47
0.0
47
0.0
47
0.0
47
0.0
47
0.0208333333333333
47
0.0
47
0.0
47
0.0
47
0.0
47
1.0
47
0.0
47
0.0
47
0.0
47
0.0
47
1.0
171
0
49
0.0208333333333333
49
0.0
49
0.0
49
0.0
49
0.0
49
0.0208333333333333
49
0.0
49
0.0
49
0.0
49
0.0
49
1.0
49
0.0
49
0.0
49
0.0
49
0.0
49
1.0
175
0
142
0.0208333333333333
142
0.0
142
0.0
142
0.0
142
0.0
142
0.0208333333333333
142
0.0
142
0.0
142
0.0
142
0.0
142
1.0
142
0.0
142
0.0
142
0.0
142
0.0
142
1.0
179
0
144
0.0208333333333333
144
0.0
144
0.0
144
0.0
144
0.0
144
0.0208333333333333
144
0.0
144
0.0
144
0.0
144
0.0
144
1.0
144
0.0
144
0.0
144
0.0
144
0.0
144
1.0
147
0.0208333333333333
147
0.0
147
0.0
147
0.0
147
0.0
147
0.0208333333333333
147
0.0
147
0.0
147
0.0
147
0.0
147
1.0
147
0.0
147
0.0
147
0.0
147
0.0
147
1.0
0
MATERIAL
5
F7B
102
{ACAD_XDICTIONARY
360
F7C
102
}
102
{ACAD_REACTORS
330
F7A
102
}
330
F7A
100
AcDbMaterial
1
ByLayer
72
0
43
0.0208333333333333
43
0.0
43
0.0
43
0.0
43
0.0
43
0.0208333333333333
43
0.0
43
0.0
43
0.0
43
0.0
43
1.0
43
0.0
43
0.0
43
0.0
43
0.0
43
1.0
77
0
47
0.0208333333333333
47
0.0
47
0.0
47
0.0
47
0.0
47
0.0208333333333333
47
0.0
47
0.0
47
0.0
47
0.0
47
1.0
47
0.0
47
0.0
47
0.0
47
0.0
47
1.0
171
0
49
0.0208333333333333
49
0.0
49
0.0
49
0.0
49
0.0
49
0.0208333333333333
49
0.0
49
0.0
49
0.0
49
0.0
49
1.0
49
0.0
49
0.0
49
0.0
49
0.0
49
1.0
175
0
142
0.0208333333333333
142
0.0
142
0.0
142
0.0
142
0.0
142
0.0208333333333333
142
0.0
142
0.0
142
0.0
142
0.0
142
1.0
142
0.0
142
0.0
142
0.0
142
0.0
142
1.0
179
0
144
0.0208333333333333
144
0.0
144
0.0
144
0.0
144
0.0
144
0.0208333333333333
144
0.0
144
0.0
144
0.0
144
0.0
144
1.0
144
0.0
144
0.0
144
0.0
144
0.0
144
1.0
147
0.0208333333333333
147
0.0
147
0.0
147
0.0
147
0.0
147
0.0208333333333333
147
0.0
147
0.0
147
0.0
147
0.0
147
1.0
147
0.0
147
0.0
147
0.0
147
0.0
147
1.0
0
MATERIAL
5
F8B
102
{ACAD_XDICTIONARY
360
F8C
102
}
102
{ACAD_REACTORS
330
F7A
102
}
330
F7A
100
AcDbMaterial
1
Global
72
0
43
0.0208333333333333
43
0.0
43
0.0
43
0.0
43
0.0
43
0.0208333333333333
43
0.0
43
0.0
43
0.0
43
0.0
43
1.0
43
0.0
43
0.0
43
0.0
43
0.0
43
1.0
77
0
47
0.0208333333333333
47
0.0
47
0.0
47
0.0
47
0.0
47
0.0208333333333333
47
0.0
47
0.0
47
0.0
47
0.0
47
1.0
47
0.0
47
0.0
47
0.0
47
0.0
47
1.0
171
0
49
0.0208333333333333
49
0.0
49
0.0
49
0.0
49
0.0
49
0.0208333333333333
49
0.0
49
0.0
49
0.0
49
0.0
49
1.0
49
0.0
49
0.0
49
0.0
49
0.0
49
1.0
175
0
142
0.0208333333333333
142
0.0
142
0.0
142
0.0
142
0.0
142
0.0208333333333333
142
0.0
142
0.0
142
0.0
142
0.0
142
1.0
142
0.0
142
0.0
142
0.0
142
0.0
142
1.0
179
0
144
0.0208333333333333
144
0.0
144
0.0
144
0.0
144
0.0
144
0.0208333333333333
144
0.0
144
0.0
144
0.0
144
0.0
144
1.0
144
0.0
144
0.0
144
0.0
144
0.0
144
1.0
147
0.0208333333333333
147
0.0
147
0.0
147
0.0
147
0.0
147
0.0208333333333333
147
0.0
147
0.0
147
0.0
147
0.0
147
1.0
147
0.0
147
0.0
147
0.0
147
0.0
147
1.0
0
MLEADERSTYLE
5
FCE
102
{ACAD_REACTORS
330
FCD
102
}
330
FCD
100
AcDbMLeaderStyle
170
2
171
1
172
0
90
2
40
0.0
41
0.0
173
1
91
-1056964608
340
256
92
-2
290
1
42
0.09
291
1
43
0.36
3
Standard
44
0.18
300

342
253
174
1
178
6
175
1
176
0
93
-1056964608
45
0.18
292
0
297
0
46
0.18
94
-1056964608
47
1.0
49
1.0
140
1.0
293
1
141
0.0
294
1
177
0
142
1.0
295
0
296
0
143
0.125
1001
ACAD_MLEADERVER
1070
2
0
MLINESTYLE
5
FAA
102
{ACAD_REACTORS
330
16
102
}
330
16
100
AcDbMlineStyle
2
STANDARD
70
0
3

62
256
51
90.0
52
90.0
71
2
49
0.5
62
256
6
BYLAYER
49
-0.5
62
256
6
BYLAYER
0
ACDBPLACEHOLDER
5
19
102
{ACAD_REACTORS
330
18
102
}
330
18
0
SCALE
5
FAC
102
{ACAD_REACTORS
330
FAB
102
}
330
FAB
100
AcDbScale
70
0
300
1:1
140
1.0
141
1.0
290
1
0
SCALE
5
FAD
102
{ACAD_REACTORS
330
FAB
102
}
330
FAB
100
AcDbScale
70
0
300
1:2
140
1.0
141
2.0
290
0
0
SCALE
5
FAE
102
{ACAD_REACTORS
330
FAB
102
}
330
FAB
100
AcDbScale
70
0
300
1:4
140
1.0
141
4.0
290
0
0
SCALE
5
FAF
102
{ACAD_REACTORS
330
FAB
102
}
330
FAB
100
AcDbScale
70
0
300
1:5
140
1.0
141
5.0
290
0
0
SCALE
5
FB0
102
{ACAD_REACTORS
330
FAB
102
}
330
FAB
100
AcDbScale
70
0
300
1:8
140
1.0
141
8.0
290
0
0
SCALE
5
FB1
102
{ACAD_REACTORS
330
FAB
102
}
330
FAB
100
AcDbScale
70
0
300
1:10
140
1.0
141
10.0
290
0
0
SCALE
5
FB2
102
{ACAD_REACTORS
330
FAB
102
}
330
FAB
100
AcDbScale
70
0
300
1:16
140
1.0
141
16.0
290
0
0
SCALE
5
FB3
102
{ACAD_REACTORS
330
FAB
102
}
330
FAB
100
AcDbScale
70
0
300
1:20
140
1.0
141
20.0
290
0
0
SCALE
5
FB4
102
{ACAD_REACTORS
330
FAB
102
}
330
FAB
100
AcDbScale
70
0
300
1:30
140
1.0
141
30.0
290
0
0
SCALE
5
FB5
102
{ACAD_REACTORS
330
FAB
102
}
330
FAB
100
AcDbScale
70
0
300
1:40
140
1.0
141
40.0
290
0
0
SCALE
5
FB6
102
{ACAD_REACTORS
330
FAB
102
}
330
FAB
100
AcDbScale
70
0
300
1:50
140
1.0
141
50.0
290
0
0
SCALE
5
FB7
102
{ACAD_REACTORS
330
FAB
102
}
330
FAB
100
AcDbScale
70
0
300
1:100
140
1.0
141
100.0
290
0
0
SCALE
5
FB8
102
{ACAD_REACTORS
330
FAB
102
}
330
FAB
100
AcDbScale
70
0
300
2:1
140
2.0
141
1.0
290
0
0
SCALE
5
FB9
102
{ACAD_REACTORS
330
FAB
102
}
330
FAB
100
AcDbScale
70
0
300
4:1
140
4.0
141
1.0
290
0
0
SCALE
5
FBA
102
{ACAD_REACTORS
330
FAB
102
}
330
FAB
100
AcDbScale
70
0
300
8:1
140
8.0
141
1.0
290
0
0
SCALE
5
FBB
102
{ACAD_REACTORS
330
FAB
102
}
330
FAB
100
AcDbScale
70
0
300
10:1
140
10.0
141
1.0
290
0
0
SCALE
5
FBC
102
{ACAD_REACTORS
330
FAB
102
}
330
FAB
100
AcDbScale
70
0
300
100:1
140
100.0
141
1.0
290
0
0
SCALE
5
FBD
102
{ACAD_REACTORS
330
FAB
102
}
330
FAB
100
AcDbScale
70
0
300
1/128" = 1'-0"
140
0.0078125
141
12.0
290
0
0
SCALE
5
FBE
102
{ACAD_REACTORS
330
FAB
102
}
330
FAB
100
AcDbScale
70
0
300
1/64" = 1'-0"
140
0.015625
141
12.0
290
0
0
SCALE
5
FBF
102
{ACAD_REACTORS
330
FAB
102
}
330
FAB
100
AcDbScale
70
0
300
1/32" = 1'-0"
140
0.03125
141
12.0
290
0
0
SCALE
5
FC0
102
{ACAD_REACTORS
330
FAB
102
}
330
FAB
100
AcDbScale
70
0
300
1/16" = 1'-0"
140
0.0625
141
12.0
290
0
0
SCALE
5
FC1
102
{ACAD_REACTORS
330
FAB
102
}
330
FAB
100
AcDbScale
70
0
300
3/32" = 1'-0"
140
0.09375
141
12.0
290
0
0
SCALE
5
FC2
102
{ACAD_REACTORS
330
FAB
102
}
330
FAB
100
AcDbScale
70
0
300
1/8" = 1'-0"
140
0.125
141
12.0
290
0
0
SCALE
5
FC3
102
{ACAD_REACTORS
330
FAB
102
}
330
FAB
100
AcDbScale
70
0
300
3/16" = 1'-0"
140
0.1875
141
12.0
290
0
0
SCALE
5
FC4
102
{ACAD_REACTORS
330
FAB
102
}
330
FAB
100
AcDbScale
70
0
300
1/4" = 1'-0"
140
0.25
141
12.0
290
0
0
SCALE
5
FC5
102
{ACAD_REACTORS
330
FAB
102
}
330
FAB
100
AcDbScale
70
0
300
3/8" = 1'-0"
140
0.375
141
12.0
290
0
0
SCALE
5
FC6
102
{ACAD_REACTORS
330
FAB
102
}
330
FAB
100
AcDbScale
70
0
300
1/2" = 1'-0"
140
0.5
141
12.0
290
0
0
SCALE
5
FC7
102
{ACAD_REACTORS
330
FAB
102
}
330
FAB
100
AcDbScale
70
0
300
3/4" = 1'-0"
140
0.75
141
12.0
290
0
0
SCALE
5
FC8
102
{ACAD_REACTORS
330
FAB
102
}
330
FAB
100
AcDbScale
70
0
300
1" = 1'-0"
140
1.0
141
12.0
290
0
0
SCALE
5
FC9
102
{ACAD_REACTORS
330
FAB
102
}
330
FAB
100
AcDbScale
70
0
300
1-1/2" = 1'-0"
140
1.5
141
12.0
290
0
0
SCALE
5
FCA
102
{ACAD_REACTORS
330
FAB
102
}
330
FAB
100
AcDbScale
70
0
300
3" = 1'-0"
140
3.0
141
12.0
290
0
0
SCALE
5
FCB
102
{ACAD_REACTORS
330
FAB
102
}
330
FAB
100
AcDbScale
70
0
300
6" = 1'-0"
140
6.0
141
12.0
290
0
0
SCALE
5
FCC
102
{ACAD_REACTORS
330
FAB
102
}
330
FAB
100
AcDbScale
70
0
300
1'-0" = 1'-0"
140
12.0
141
12.0
290
0
0
TABLESTYLE
5
FA9
102
{ACAD_XDICTIONARY
360
FF8
102
}
102
{ACAD_REACTORS
330
FA8
102
}
330
FA8
100
AcDbTableStyle
3
Standard
70
0
71
0
40
0.06
41
0.06
280
0
281
0
7
Standard
140
0.18
170
2
62
0
63
7
283
0
274
-2
284
1
64
0
275
-2
285
1
65
0
276
-2
286
1
66
0
277
-2
287
1
67
0
278
-2
288
1
68
0
279
-2
289
1
69
0
7
Standard
140
0.25
170
5
62
0
63
7
283
0
274
-2
284
1
64
0
275
-2
285
1
65
0
276
-2
286
1
66
0
277
-2
287
1
67
0
278
-2
288
1
68
0
279
-2
289
1
69
0
7
Standard
140
0.18
170
5
62
0
63
7
283
0
274
-2
284
1
64
0
275
-2
285
1
65
0
276
-2
286
1
66
0
277
-2
287
1
67
0
278
-2
288
1
68
0
279
-2
289
1
69
0
0
VISUALSTYLE
5
F99
102
{ACAD_XDICTIONARY
360
108A
102
}
102
{ACAD_REACTORS
330
F93
102
}
330
F93
100
AcDbVisualStyle
2

70
4
71
0
72
2
73
0
90
0
40
-0.6
41
-30.0
62
5
63
7
74
1
91
4
64
7
65
257
75
1
175
1
42
1.0
92
0
66
257
43
1.0
76
1
77
6
78
2
67
7
79
5
170
0
171
0
290
0
174
0
93
1
44
0.0
173
0
291
0
45
0.0
1001
ACAD
1000
AcDbSavedByObjectVersion
1070
0
0
VISUALSTYLE
5
F9B
102
{ACAD_XDICTIONARY
360
108E
102
}
102
{ACAD_REACTORS
330
F93
102
}
330
F93
100
AcDbVisualStyle
2

70
6
71
1
72
2
73
2
90
0
40
-0.6
41
-30.0
62
5
63
7
74
2
91
2
64
7
65
257
75
2
175
1
42
179.0
92
0
66
257
43
1.0
76
1
77
6
78
2
67
7
79
3
170
0
171
0
290
0
174
0
93
1
44
0.0
173
0
291
0
45
0.0
1001
ACAD
1000
AcDbSavedByObjectVersion
1070
0
0
VISUALSTYLE
5
F9A
102
{ACAD_XDICTIONARY
360
108C
102
}
102
{ACAD_REACTORS
330
F93
102
}
330
F93
100
AcDbVisualStyle
2

70
5
71
0
72
2
73
0
90
0
40
-0.6
41
-30.0
62
5
63
7
74
1
91
4
64
7
65
257
75
1
175
1
42
1.0
92
0
66
257
43
1.0
76
1
77
6
78
2
67
7
79
5
170
0
171
0
290
0
174
0
93
1
44
0.0
173
0
291
0
45
0.0
1001
ACAD
1000
AcDbSavedByObjectVersion
1070
0
0
VISUALSTYLE
5
F98
102
{ACAD_XDICTIONARY
360
1088
102
}
102
{ACAD_REACTORS
330
F93
102
}
330
F93
100
AcDbVisualStyle
2

70
7
71
1
72
0
73
1
90
0
40
-0.6
41
-30.0
62
5
63
7
74
0
91
4
64
7
65
257
75
1
175
1
42
1.0
92
8
66
7
43
1.0
76
1
77
6
78
2
67
7
79
5
170
0
171
0
290
0
174
0
93
1
44
0.0
173
0
291
1
45
0.0
1001
ACAD
1000
AcDbSavedByObjectVersion
1070
0
0
VISUALSTYLE
5
F9F
102
{ACAD_XDICTIONARY
360
1096
102
}
102
{ACAD_REACTORS
330
F93
102
}
330
F93
100
AcDbVisualStyle
2

70
12
71
2
72
2
73
0
90
0
40
-0.6
41
-30.0
62
5
63
7
74
1
91
4
64
7
65
257
75
1
175
1
42
1.0
92
8
66
7
43
1.0
76
1
77
6
78
2
67
7
79
5
170
0
171
0
290
0
174
0
93
1
44
50.0
173
0
291
1
45
0.0
1001
ACAD
1000
AcDbSavedByObjectVersion
1070
0
0
VISUALSTYLE
5
FA3
102
{ACAD_XDICTIONARY
360
109E
102
}
102
{ACAD_REACTORS
330
F93
102
}
330
F93
100
AcDbVisualStyle
2

70
16
71
2
72
2
73
3
90
0
40
-0.6
41
-30.0
62
5
63
8
74
1
91
4
64
7
65
257
75
1
175
1
42
1.0
92
8
66
8
43
1.0
76
1
77
6
78
2
67
7
79
5
170
0
171
0
290
0
174
0
93
1
44
0.0
173
0
291
1
45
0.0
1001
ACAD
1000
AcDbSavedByObjectVersion
1070
0
0
VISUALSTYLE
5
F9C
102
{ACAD_XDICTIONARY
360
1090
102
}
102
{ACAD_REACTORS
330
F93
102
}
330
F93
100
AcDbVisualStyle
2

70
9
71
3
72
2
73
0
90
0
40
-0.6
41
-30.0
62
5
63
7
74
2
91
2
64
7
65
257
75
1
175
1
42
179.0
92
8
66
7
43
1.0
76
1
77
6
78
2
67
7
79
3
170
0
171
0
290
0
174
0
93
1
44
0.0
173
0
291
0
45
0.0
1001
ACAD
1000
AcDbSavedByObjectVersion
1070
0
0
VISUALSTYLE
5
F9E
102
{ACAD_XDICTIONARY
360
1094
102
}
102
{ACAD_REACTORS
330
F93
102
}
330
F93
100
AcDbVisualStyle
2

70
11
71
2
72
2
73
0
90
0
40
-0.6
41
-30.0
62
5
63
7
74
1
91
4
64
7
65
257
75
1
175
1
42
1.0
92
8
66
7
43
1.0
76
1
77
6
78
2
67
7
79
5
170
0
171
0
290
0
174
0
93
1
44
-50.0
173
0
291
1
45
0.0
1001
ACAD
1000
AcDbSavedByObjectVersion
1070
0
0
VISUALSTYLE
5
FA6
102
{ACAD_XDICTIONARY
360
10A4
102
}
102
{ACAD_REACTORS
330
F93
102
}
330
F93
100
AcDbVisualStyle
2

70
22
71
2
72
2
73
0
90
0
40
-0.6
41
-30.0
62
5
63
7
74
1
91
4
64
7
65
257
75
1
175
1
42
1.0
92
8
66
7
43
1.0
76
1
77
6
78
2
67
7
79
5
170
0
171
0
290
0
174
0
93
1
44
0.0
173
0
291
1
45
0.0
1001
ACAD
1000
AcDbSavedByObjectVersion
1070
0
0
VISUALSTYLE
5
FA2
102
{ACAD_XDICTIONARY
360
109C
102
}
102
{ACAD_REACTORS
330
F93
102
}
330
F93
100
AcDbVisualStyle
2

70
15
71
2
72
2
73
0
90
0
40
-0.6
41
-30.0
62
5
63
7
74
1
91
4
64
7
65
257
75
1
175
1
42
1.0
92
8
66
7
43
1.0
76
1
77
6
78
2
67
7
79
5
170
0
171
0
290
0
174
0
93
1
44
0.0
173
0
291
1
45
0.0
1001
ACAD
1000
AcDbSavedByObjectVersion
1070
0
0
VISUALSTYLE
5
F94
102
{ACAD_XDICTIONARY
360
1080
102
}
102
{ACAD_REACTORS
330
F93
102
}
330
F93
100
AcDbVisualStyle
2

70
0
71
2
72
1
73
1
90
2
40
-0.6
41
30.0
62
5
63
7
74
0
91
4
64
7
65
257
75
1
175
1
42
1.0
92
8
66
7
43
1.0
76
1
77
6
78
2
67
7
79
5
170
0
171
0
290
0
174
0
93
13
44
0.0
173
0
291
1
45
0.0
1001
ACAD
1000
AcDbSavedByObjectVersion
1070
0
0
VISUALSTYLE
5
F95
102
{ACAD_XDICTIONARY
360
1082
102
}
102
{ACAD_REACTORS
330
F93
102
}
330
F93
100
AcDbVisualStyle
2

70
1
71
2
72
1
73
1
90
2
40
-0.6
41
30.0
62
5
63
7
74
1
91
4
64
7
65
257
75
1
175
1
42
1.0
92
0
66
257
43
1.0
76
1
77
6
78
2
67
7
79
5
170
0
171
0
290
0
174
0
93
13
44
0.0
173
0
291
1
45
0.0
1001
ACAD
1000
AcDbSavedByObjectVersion
1070
0
0
VISUALSTYLE
5
F96
102
{ACAD_XDICTIONARY
360
1084
102
}
102
{ACAD_REACTORS
330
F93
102
}
330
F93
100
AcDbVisualStyle
2

70
2
71
2
72
2
73
1
90
2
40
-0.6
41
30.0
62
5
63
7
74
0
91
4
64
7
65
257
75
1
175
1
42
1.0
92
0
66
7
43
1.0
76
1
77
6
78
2
67
7
79
5
170
0
171
0
290
0
174
0
93
13
44
0.0
173
0
291
1
45
0.0
1001
ACAD
1000
AcDbSavedByObjectVersion
1070
0
0
VISUALSTYLE
5
F97
102
{ACAD_XDICTIONARY
360
1086
102
}
102
{ACAD_REACTORS
330
F93
102
}
330
F93
100
AcDbVisualStyle
2

70
3
71
2
72
2
73
1
90
2
40
-0.6
41
30.0
62
5
63
7
74
1
91
4
64
7
65
257
75
1
175
1
42
1.0
92
0
66
257
43
1.0
76
1
77
6
78
2
67
7
79
5
170
0
171
0
290
0
174
0
93
13
44
0.0
173
0
291
1
45
0.0
1001
ACAD
1000
AcDbSavedByObjectVersion
1070
0
0
VISUALSTYLE
5
FA4
102
{ACAD_XDICTIONARY
360
10A0
102
}
102
{ACAD_REACTORS
330
F93
102
}
330
F93
100
AcDbVisualStyle
2

70
20
71
2
72
2
73
0
90
0
40
-0.6
41
-30.0
62
5
63
7
74
1
91
4
64
7
65
257
75
1
175
1
42
1.0
92
10
66
7
43
1.0
76
1
77
6
78
2
67
7
79
5
170
0
171
0
290
0
174
0
93
1
44
0.0
173
0
291
1
45
0.0
1001
ACAD
1000
AcDbSavedByObjectVersion
1070
0
0
VISUALSTYLE
5
FA1
102
{ACAD_XDICTIONARY
360
109A
102
}
102
{ACAD_REACTORS
330
F93
102
}
330
F93
100
AcDbVisualStyle
2

70
14
71
2
72
2
73
0
90
0
40
-0.6
41
-30.0
62
5
63
7
74
1
91
4
64
7
65
257
75
7
175
7
42
1.0
92
8
66
7
43
1.0
76
1
77
6
78
2
67
7
79
5
170
0
171
0
290
0
174
0
93
1
44
0.0
173
0
291
1
45
0.0
1001
ACAD
1000
AcDbSavedByObjectVersion
1070
0
0
VISUALSTYLE
5
FA5
102
{ACAD_XDICTIONARY
360
10A2
102
}
102
{ACAD_REACTORS
330
F93
102
}
330
F93
100
AcDbVisualStyle
2

70
21
71
2
72
2
73
0
90
0
40
-0.6
41
-30.0
62
5
63
7
74
1
91
4
64
7
65
257
75
1
175
1
42
1.0
92
9
66
7
43
1.0
76
1
77
6
78
2
67
7
79
5
170
0
171
0
290
0
174
0
93
1
44
0.0
173
0
291
1
45
0.0
1001
ACAD
1000
AcDbSavedByObjectVersion
1070
0
0
VISUALSTYLE
5
F9D
102
{ACAD_XDICTIONARY
360
1092
102
}
102
{ACAD_REACTORS
330
F93
102
}
330
F93
100
AcDbVisualStyle
2

70
8
71
2
72
2
73
0
90
0
40
-0.6
41
-30.0
62
5
63
7
74
1
91
0
64
7
65
257
75
1
175
1
42
1.0
92
8
66
8
43
1.0
76
1
77
6
78
2
67
7
79
5
170
0
171
0
290
0
174
0
93
13
44
0.0
173
0
291
0
45
0.0
1001
ACAD
1000
AcDbSavedByObjectVersion
1070
0
0
VISUALSTYLE
5
FA0
102
{ACAD_XDICTIONARY
360
1098
102
}
102
{ACAD_REACTORS
330
F93
102
}
330
F93
100
AcDbVisualStyle
2

70
13
71
2
72
2
73
0
90
0
40
-0.6
41
-30.0
62
5
63
7
74
1
91
4
64
7
65
257
75
1
175
1
42
1.0
92
12
66
7
43
1.0
76
1
77
6
78
2
67
7
79
5
170
0
171
0
290
0
174
0
93
1
44
0.0
173
0
291
1
45
0.0
1001
ACAD
1000
AcDbSavedByObjectVersion
1070
0
0
DICTIONARYVAR
5
FF3
102
{ACAD_REACTORS
330
FF0
102
}
330
FF0
100
DictionaryVariables
280
0
1
1:1
0
DICTIONARYVAR
5
FF2
102
{ACAD_REACTORS
330
FF0
102
}
330
FF0
100
DictionaryVariables
280
0
1
STANDARD
0
DICTIONARYVAR
5
FF1
102
{ACAD_REACTORS
330
FF0
102
}
330
FF0
100
DictionaryVariables
280
0
1
STANDARD
0
DICTIONARYVAR
5
FF6
102
{ACAD_REACTORS
330
FF0
102
}
330
FF0
100
DictionaryVariables
280
0
1
1
0
DICTIONARYVAR
5
FF5
102
{ACAD_REACTORS
330
FF0
102
}
330
FF0
100
DictionaryVariables
280
0
1
0
0
DICTIONARYVAR
5
FF4
102
{ACAD_REACTORS
330
FF0
102
}
330
FF0
100
DictionaryVariables
280
0
1
127
0
DICTIONARYVAR
5
1078
102
{ACAD_REACTORS
330
FF0
102
}
330
FF0
100
DictionaryVariables
280
0
1
2
0
DICTIONARY
5
10A9
330
FD1
100
AcDbDictionary
280
1
281
1
3
ACAD_XREC_ROUNDTRIP
360
10AA
0
DICTIONARY
5
10A7
330
FD0
100
AcDbDictionary
280
1
281
1
3
ACAD_XREC_ROUNDTRIP
360
10A8
0
DICTIONARY
5
F84
330
F83
100
AcDbDictionary
280
1
281
1
3
ACAD_XREC_ROUNDTRIP
360
FFF
3
BUMPTILE
360
F86
3
DIFFUSETILE
360
F85
3
OPACITYTILE
360
F89
3
REFLECTIONTILE
360
F88
3
REFRACTIONTILE
360
F8A
3
SPECULARTILE
360
F87
0
DICTIONARY
5
F7C
330
F7B
100
AcDbDictionary
280
1
281
1
3
ACAD_XREC_ROUNDTRIP
360
FFE
3
BUMPTILE
360
F7E
3
DIFFUSETILE
360
F7D
3
OPACITYTILE
360
F81
3
REFLECTIONTILE
360
F80
3
REFRACTIONTILE
360
F82
3
SPECULARTILE
360
F7F
0
DICTIONARY
5
F8C
330
F8B
100
AcDbDictionary
280
1
281
1
3
ACAD_XREC_ROUNDTRIP
360
1000
3
BUMPTILE
360
F8E
3
DIFFUSETILE
360
F8D
3
OPACITYTILE
360
F91
3
REFLECTIONTILE
360
F90
3
REFRACTIONTILE
360
F92
3
SPECULARTILE
360
F8F
0
DICTIONARY
5
FF8
330
FA9
100
AcDbDictionary
280
1
281
1
3
ACAD_ROUNDTRIP_2008_TABLESTYLE_CELLSTYLEMAP
360
1079
3
ACAD_XREC_ROUNDTRIP
360
10A6
0
DICTIONARY
5
108A
330
F99
100
AcDbDictionary
280
1
281
1
3
ACAD_XREC_ROUNDTRIP
360
108B
0
DICTIONARY
5
108E
330
F9B
100
AcDbDictionary
280
1
281
1
3
ACAD_XREC_ROUNDTRIP
360
108F
0
DICTIONARY
5
108C
330
F9A
100
AcDbDictionary
280
1
281
1
3
ACAD_XREC_ROUNDTRIP
360
108D
0
DICTIONARY
5
1088
330
F98
100
AcDbDictionary
280
1
281
1
3
ACAD_XREC_ROUNDTRIP
360
1089
0
DICTIONARY
5
1096
330
F9F
100
AcDbDictionary
280
1
281
1
3
ACAD_XREC_ROUNDTRIP
360
1097
0
DICTIONARY
5
109E
330
FA3
100
AcDbDictionary
280
1
281
1
3
ACAD_XREC_ROUNDTRIP
360
109F
0
DICTIONARY
5
1090
330
F9C
100
AcDbDictionary
280
1
281
1
3
ACAD_XREC_ROUNDTRIP
360
1091
0
DICTIONARY
5
1094
330
F9E
100
AcDbDictionary
280
1
281
1
3
ACAD_XREC_ROUNDTRIP
360
1095
0
DICTIONARY
5
10A4
330
FA6
100
AcDbDictionary
280
1
281
1
3
ACAD_XREC_ROUNDTRIP
360
10A5
0
DICTIONARY
5
109C
330
FA2
100
AcDbDictionary
280
1
281
1
3
ACAD_XREC_ROUNDTRIP
360
109D
0
DICTIONARY
5
1080
330
F94
100
AcDbDictionary
280
1
281
1
3
ACAD_XREC_ROUNDTRIP
360
1081
0
DICTIONARY
5
1082
330
F95
100
AcDbDictionary
280
1
281
1
3
ACAD_XREC_ROUNDTRIP
360
1083
0
DICTIONARY
5
1084
330
F96
100
AcDbDictionary
280
1
281
1
3
ACAD_XREC_ROUNDTRIP
360
1085
0
DICTIONARY
5
1086
330
F97
100
AcDbDictionary
280
1
281
1
3
ACAD_XREC_ROUNDTRIP
360
1087
0
DICTIONARY
5
10A0
330
FA4
100
AcDbDictionary
280
1
281
1
3
ACAD_XREC_ROUNDTRIP
360
10A1
0
DICTIONARY
5
109A
330
FA1
100
AcDbDictionary
280
1
281
1
3
ACAD_XREC_ROUNDTRIP
360
109B
0
DICTIONARY
5
10A2
330
FA5
100
AcDbDictionary
280
1
281
1
3
ACAD_XREC_ROUNDTRIP
360
10A3
0
DICTIONARY
5
1092
330
F9D
100
AcDbDictionary
280
1
281
1
3
ACAD_XREC_ROUNDTRIP
360
1093
0
DICTIONARY
5
1098
330
FA0
100
AcDbDictionary
280
1
281
1
3
ACAD_XREC_ROUNDTRIP
360
1099
0
XRECORD
5
10AA
102
{ACAD_REACTORS
330
10A9
102
}
330
10A9
100
AcDbXrecord
280
1
102
SHADEPLOT
70
0
102
SHADEPLOTRESLEVEL
70
2
102
SHADEPLOTCUSTOMDPI
70
300
0
XRECORD
5
10A8
102
{ACAD_REACTORS
330
10A7
102
}
330
10A7
100
AcDbXrecord
280
1
102
SHADEPLOT
70
0
102
SHADEPLOTRESLEVEL
70
2
102
SHADEPLOTCUSTOMDPI
70
300
0
XRECORD
5
FFF
102
{ACAD_REACTORS
330
F84
102
}
330
F84
100
AcDbXrecord
280
1
102
MATERIAL
148
0.0
149
0.0
149
0.0
93
0
94
127
282
0
72
0
77
0
171
0
175
0
179
0
273
0
0
XRECORD
5
F86
102
{ACAD_REACTORS
330
F84
102
}
330
F84
100
AcDbXrecord
280
1
270
1
271
1
0
XRECORD
5
F85
102
{ACAD_REACTORS
330
F84
102
}
330
F84
100
AcDbXrecord
280
1
270
1
271
1
0
XRECORD
5
F89
102
{ACAD_REACTORS
330
F84
102
}
330
F84
100
AcDbXrecord
280
1
270
1
271
1
0
XRECORD
5
F88
102
{ACAD_REACTORS
330
F84
102
}
330
F84
100
AcDbXrecord
280
1
270
1
271
1
0
XRECORD
5
F8A
102
{ACAD_REACTORS
330
F84
102
}
330
F84
100
AcDbXrecord
280
1
270
1
271
1
0
XRECORD
5
F87
102
{ACAD_REACTORS
330
F84
102
}
330
F84
100
AcDbXrecord
280
1
270
1
271
1
0
XRECORD
5
FFE
102
{ACAD_REACTORS
330
F7C
102
}
330
F7C
100
AcDbXrecord
280
1
102
MATERIAL
148
0.0
149
0.0
149
0.0
93
0
94
127
282
0
72
0
77
0
171
0
175
0
179
0
273
0
0
XRECORD
5
F7E
102
{ACAD_REACTORS
330
F7C
102
}
330
F7C
100
AcDbXrecord
280
1
270
1
271
1
0
XRECORD
5
F7D
102
{ACAD_REACTORS
330
F7C
102
}
330
F7C
100
AcDbXrecord
280
1
270
1
271
1
0
XRECORD
5
F81
102
{ACAD_REACTORS
330
F7C
102
}
330
F7C
100
AcDbXrecord
280
1
270
1
271
1
0
XRECORD
5
F80
102
{ACAD_REACTORS
330
F7C
102
}
330
F7C
100
AcDbXrecord
280
1
270
1
271
1
0
XRECORD
5
F82
102
{ACAD_REACTORS
330
F7C
102
}
330
F7C
100
AcDbXrecord
280
1
270
1
271
1
0
XRECORD
5
F7F
102
{ACAD_REACTORS
330
F7C
102
}
330
F7C
100
AcDbXrecord
280
1
270
1
271
1
0
XRECORD
5
1000
102
{ACAD_REACTORS
330
F8C
102
}
330
F8C
100
AcDbXrecord
280
1
102
MATERIAL
148
0.0
149
0.0
149
0.0
93
0
94
127
282
0
72
0
77
0
171
0
175
0
179
0
273
0
0
XRECORD
5
F8E
102
{ACAD_REACTORS
330
F8C
102
}
330
F8C
100
AcDbXrecord
280
1
270
1
271
1
0
XRECORD
5
F8D
102
{ACAD_REACTORS
330
F8C
102
}
330
F8C
100
AcDbXrecord
280
1
270
1
271
1
0
XRECORD
5
F91
102
{ACAD_REACTORS
330
F8C
102
}
330
F8C
100
AcDbXrecord
280
1
270
1
271
1
0
XRECORD
5
F90
102
{ACAD_REACTORS
330
F8C
102
}
330
F8C
100
AcDbXrecord
280
1
270
1
271
1
0
XRECORD
5
F92
102
{ACAD_REACTORS
330
F8C
102
}
330
F8C
100
AcDbXrecord
280
1
270
1
271
1
0
XRECORD
5
F8F
102
{ACAD_REACTORS
330
F8C
102
}
330
F8C
100
AcDbXrecord
280
1
270
1
271
1
0
CELLSTYLEMAP
5
1079
102
{ACAD_REACTORS
330
FF8
102
}
330
FF8
100
AcDbCellStyleMap
90
3
300
CELLSTYLE
1
TABLEFORMAT_BEGIN
90
5
170
1
91
0
92
32768
62
257
93
1
300
CONTENTFORMAT
1
CONTENTFORMAT_BEGIN
90
0
91
0
92
512
93
0
300

40
0.0
140
1.0
94
5
62
0
340
253
144
0.25
309
CONTENTFORMAT_END
171
1
301
MARGIN
1
CELLMARGIN_BEGIN
40
0.06
40
0.06
40
0.06
40
0.06
40
0.18
40
0.18
309
CELLMARGIN_END
94
6
95
1
302
GRIDFORMAT
1
GRIDFORMAT_BEGIN
90
0
91
1
62
0
92
-2
340
0
93
0
40
0.045
309
GRIDFORMAT_END
95
2
302
GRIDFORMAT
1
GRIDFORMAT_BEGIN
90
0
91
1
62
0
92
-2
340
0
93
0
40
0.045
309
GRIDFORMAT_END
95
4
302
GRIDFORMAT
1
GRIDFORMAT_BEGIN
90
0
91
1
62
0
92
-2
340
0
93
0
40
0.045
309
GRIDFORMAT_END
95
8
302
GRIDFORMAT
1
GRIDFORMAT_BEGIN
90
0
91
1
62
0
92
-2
340
0
93
0
40
0.045
309
GRIDFORMAT_END
95
16
302
GRIDFORMAT
1
GRIDFORMAT_BEGIN
90
0
91
1
62
0
92
-2
340
0
93
0
40
0.045
309
GRIDFORMAT_END
95
32
302
GRIDFORMAT
1
GRIDFORMAT_BEGIN
90
0
91
1
62
0
92
-2
340
0
93
0
40
0.045
309
GRIDFORMAT_END
309
TABLEFORMAT_END
1
CELLSTYLE_BEGIN
90
1
91
1
300
_TITLE
309
CELLSTYLE_END
300
CELLSTYLE
1
TABLEFORMAT_BEGIN
90
5
170
1
91
0
92
0
62
257
93
1
300
CONTENTFORMAT
1
CONTENTFORMAT_BEGIN
90
0
91
0
92
512
93
0
300

40
0.0
140
1.0
94
5
62
0
340
253
144
0.18
309
CONTENTFORMAT_END
171
1
301
MARGIN
1
CELLMARGIN_BEGIN
40
0.06
40
0.06
40
0.06
40
0.06
40
0.18
40
0.18
309
CELLMARGIN_END
94
6
95
1
302
GRIDFORMAT
1
GRIDFORMAT_BEGIN
90
0
91
1
62
0
92
-2
340
0
93
0
40
0.045
309
GRIDFORMAT_END
95
2
302
GRIDFORMAT
1
GRIDFORMAT_BEGIN
90
0
91
1
62
0
92
-2
340
0
93
0
40
0.045
309
GRIDFORMAT_END
95
4
302
GRIDFORMAT
1
GRIDFORMAT_BEGIN
90
0
91
1
62
0
92
-2
340
0
93
0
40
0.045
309
GRIDFORMAT_END
95
8
302
GRIDFORMAT
1
GRIDFORMAT_BEGIN
90
0
91
1
62
0
92
-2
340
0
93
0
40
0.045
309
GRIDFORMAT_END
95
16
302
GRIDFORMAT
1
GRIDFORMAT_BEGIN
90
0
91
1
62
0
92
-2
340
0
93
0
40
0.045
309
GRIDFORMAT_END
95
32
302
GRIDFORMAT
1
GRIDFORMAT_BEGIN
90
0
91
1
62
0
92
-2
340
0
93
0
40
0.045
309
GRIDFORMAT_END
309
TABLEFORMAT_END
1
CELLSTYLE_BEGIN
90
2
91
1
300
_HEADER
309
CELLSTYLE_END
300
CELLSTYLE
1
TABLEFORMAT_BEGIN
90
5
170
1
91
0
92
0
62
257
93
1
300
CONTENTFORMAT
1
CONTENTFORMAT_BEGIN
90
0
91
0
92
512
93
0
300

40
0.0
140
1.0
94
2
62
0
340
253
144
0.18
309
CONTENTFORMAT_END
171
1
301
MARGIN
1
CELLMARGIN_BEGIN
40
0.06
40
0.06
40
0.06
40
0.06
40
0.18
40
0.18
309
CELLMARGIN_END
94
6
95
1
302
GRIDFORMAT
1
GRIDFORMAT_BEGIN
90
0
91
1
62
0
92
-2
340
0
93
0
40
0.045
309
GRIDFORMAT_END
95
2
302
GRIDFORMAT
1
GRIDFORMAT_BEGIN
90
0
91
1
62
0
92
-2
340
0
93
0
40
0.045
309
GRIDFORMAT_END
95
4
302
GRIDFORMAT
1
GRIDFORMAT_BEGIN
90
0
91
1
62
0
92
-2
340
0
93
0
40
0.045
309
GRIDFORMAT_END
95
8
302
GRIDFORMAT
1
GRIDFORMAT_BEGIN
90
0
91
1
62
0
92
-2
340
0
93
0
40
0.045
309
GRIDFORMAT_END
95
16
302
GRIDFORMAT
1
GRIDFORMAT_BEGIN
90
0
91
1
62
0
92
-2
340
0
93
0
40
0.045
309
GRIDFORMAT_END
95
32
302
GRIDFORMAT
1
GRIDFORMAT_BEGIN
90
0
91
1
62
0
92
-2
340
0
93
0
40
0.045
309
GRIDFORMAT_END
309
TABLEFORMAT_END
1
CELLSTYLE_BEGIN
90
3
91
2
300
_DATA
309
CELLSTYLE_END
0
XRECORD
5
10A6
102
{ACAD_REACTORS
330
FF8
102
}
330
FF8
100
AcDbXrecord
280
1
102
ACAD_ROUNDTRIP_PRE2007_TABLESTYLE
90
512
91
0
1

92
512
93
0
2

94
512
95
0
3

0
XRECORD
5
108B
102
{ACAD_REACTORS
330
108A
102
}
330
108A
100
AcDbXrecord
280
1
102
RTVSPropertyOp0
70
1
102
RTVSPropertyOp1
70
1
102
RTVSPropertyOp2
70
1
102
RTVSPropertyOp3
70
1
102
RTVSPropertyOp4
70
1
102
RTVSPropertyOp5
70
1
102
RTVSPropertyOp6
70
1
102
RTVSPropertyOp7
70
1
102
RTVSPropertyOp8
70
1
102
RTVSPropertyOp9
70
1
102
RTVSPropertyOp10
70
1
102
RTVSPropertyOp11
70
1
102
RTVSPropertyOp12
70
1
102
RTVSPropertyOp13
70
1
102
RTVSPropertyOp14
70
1
102
RTVSPropertyOp15
70
1
102
RTVSPropertyOp16
70
1
102
RTVSPropertyOp17
70
1
102
RTVSPropertyOp18
70
1
102
RTVSPropertyOp19
70
1
102
RTVSPropertyOp20
70
1
102
RTVSPropertyOp21
70
1
102
RTVSPropertyOp22
70
1
102
RTVSPropertyOp23
70
1
102
RTVSPropertyOp24
70
1
102
RTVSPropertyOp25
70
1
102
RTVSPropertyOp26
70
1
102
RTVSPropertyOp27
70
1
0
XRECORD
5
108F
102
{ACAD_REACTORS
330
108E
102
}
330
108E
100
AcDbXrecord
280
1
102
RTVSPropertyOp0
70
1
102
RTVSPropertyOp1
70
1
102
RTVSPropertyOp2
70
1
102
RTVSPropertyOp3
70
1
102
RTVSPropertyOp4
70
1
102
RTVSPropertyOp5
70
1
102
RTVSPropertyOp6
70
1
102
RTVSPropertyOp7
70
1
102
RTVSPropertyOp8
70
1
102
RTVSPropertyOp9
70
1
102
RTVSPropertyOp10
70
1
102
RTVSPropertyOp11
70
1
102
RTVSPropertyOp12
70
1
102
RTVSPropertyOp13
70
1
102
RTVSPropertyOp14
70
1
102
RTVSPropertyOp15
70
1
102
RTVSPropertyOp16
70
1
102
RTVSPropertyOp17
70
1
102
RTVSPropertyOp18
70
1
102
RTVSPropertyOp19
70
1
102
RTVSPropertyOp20
70
1
102
RTVSPropertyOp21
70
1
102
RTVSPropertyOp22
70
1
102
RTVSPropertyOp23
70
1
102
RTVSPropertyOp24
70
1
102
RTVSPropertyOp25
70
1
102
RTVSPropertyOp26
70
1
102
RTVSPropertyOp27
70
1
0
XRECORD
5
108D
102
{ACAD_REACTORS
330
108C
102
}
330
108C
100
AcDbXrecord
280
1
102
RTVSPropertyOp0
70
1
102
RTVSPropertyOp1
70
1
102
RTVSPropertyOp2
70
1
102
RTVSPropertyOp3
70
1
102
RTVSPropertyOp4
70
1
102
RTVSPropertyOp5
70
1
102
RTVSPropertyOp6
70
1
102
RTVSPropertyOp7
70
1
102
RTVSPropertyOp8
70
1
102
RTVSPropertyOp9
70
1
102
RTVSPropertyOp10
70
1
102
RTVSPropertyOp11
70
1
102
RTVSPropertyOp12
70
1
102
RTVSPropertyOp13
70
1
102
RTVSPropertyOp14
70
1
102
RTVSPropertyOp15
70
1
102
RTVSPropertyOp16
70
1
102
RTVSPropertyOp17
70
1
102
RTVSPropertyOp18
70
1
102
RTVSPropertyOp19
70
1
102
RTVSPropertyOp20
70
1
102
RTVSPropertyOp21
70
1
102
RTVSPropertyOp22
70
1
102
RTVSPropertyOp23
70
1
102
RTVSPropertyOp24
70
1
102
RTVSPropertyOp25
70
1
102
RTVSPropertyOp26
70
1
102
RTVSPropertyOp27
70
1
0
XRECORD
5
1089
102
{ACAD_REACTORS
330
1088
102
}
330
1088
100
AcDbXrecord
280
1
102
RTVSPropertyOp0
70
1
102
RTVSPropertyOp1
70
1
102
RTVSPropertyOp2
70
1
102
RTVSPropertyOp3
70
1
102
RTVSPropertyOp4
70
1
102
RTVSPropertyOp5
70
1
102
RTVSPropertyOp6
70
1
102
RTVSPropertyOp7
70
1
102
RTVSPropertyOp8
70
1
102
RTVSPropertyOp9
70
1
102
RTVSPropertyOp10
70
1
102
RTVSPropertyOp11
70
1
102
RTVSPropertyOp12
70
1
102
RTVSPropertyOp13
70
1
102
RTVSPropertyOp14
70
1
102
RTVSPropertyOp15
70
1
102
RTVSPropertyOp16
70
1
102
RTVSPropertyOp17
70
1
102
RTVSPropertyOp18
70
1
102
RTVSPropertyOp19
70
1
102
RTVSPropertyOp20
70
1
102
RTVSPropertyOp21
70
1
102
RTVSPropertyOp22
70
1
102
RTVSPropertyOp23
70
1
102
RTVSPropertyOp24
70
1
102
RTVSPropertyOp25
70
1
102
RTVSPropertyOp26
70
1
102
RTVSPropertyOp27
70
1
0
XRECORD
5
1097
102
{ACAD_REACTORS
330
1096
102
}
330
1096
100
AcDbXrecord
280
1
102
RTVSPropertyOp0
70
1
102
RTVSPropertyOp1
70
1
102
RTVSPropertyOp2
70
1
102
RTVSPropertyOp3
70
1
102
RTVSPropertyOp4
70
1
102
RTVSPropertyOp5
70
1
102
RTVSPropertyOp6
70
1
102
RTVSPropertyOp7
70
1
102
RTVSPropertyOp8
70
1
102
RTVSPropertyOp9
70
1
102
RTVSPropertyOp10
70
1
102
RTVSPropertyOp11
70
1
102
RTVSPropertyOp12
70
1
102
RTVSPropertyOp13
70
1
102
RTVSPropertyOp14
70
1
102
RTVSPropertyOp15
70
1
102
RTVSPropertyOp16
70
1
102
RTVSPropertyOp17
70
1
102
RTVSPropertyOp18
70
1
102
RTVSPropertyOp19
70
1
102
RTVSPropertyOp20
70
1
102
RTVSPropertyOp21
70
1
102
RTVSPropertyOp22
70
1
102
RTVSPropertyOp23
70
1
102
RTVSPropertyOp24
70
1
102
RTVSPropertyOp25
70
1
102
RTVSPropertyOp26
70
1
102
RTVSPropertyOp27
70
1
0
XRECORD
5
109F
102
{ACAD_REACTORS
330
109E
102
}
330
109E
100
AcDbXrecord
280
1
102
RTVSPropertyOp0
70
1
102
RTVSPropertyOp1
70
1
102
RTVSPropertyOp2
70
1
102
RTVSPropertyOp3
70
1
102
RTVSPropertyOp4
70
1
102
RTVSPropertyOp5
70
1
102
RTVSPropertyOp6
70
1
102
RTVSPropertyOp7
70
1
102
RTVSPropertyOp8
70
1
102
RTVSPropertyOp9
70
1
102
RTVSPropertyOp10
70
1
102
RTVSPropertyOp11
70
1
102
RTVSPropertyOp12
70
1
102
RTVSPropertyOp13
70
1
102
RTVSPropertyOp14
70
1
102
RTVSPropertyOp15
70
1
102
RTVSPropertyOp16
70
1
102
RTVSPropertyOp17
70
1
102
RTVSPropertyOp18
70
1
102
RTVSPropertyOp19
70
1
102
RTVSPropertyOp20
70
1
102
RTVSPropertyOp21
70
1
102
RTVSPropertyOp22
70
1
102
RTVSPropertyOp23
70
1
102
RTVSPropertyOp24
70
1
102
RTVSPropertyOp25
70
1
102
RTVSPropertyOp26
70
1
102
RTVSPropertyOp27
70
1
0
XRECORD
5
1091
102
{ACAD_REACTORS
330
1090
102
}
330
1090
100
AcDbXrecord
280
1
102
RTVSPropertyOp0
70
1
102
RTVSPropertyOp1
70
1
102
RTVSPropertyOp2
70
1
102
RTVSPropertyOp3
70
1
102
RTVSPropertyOp4
70
1
102
RTVSPropertyOp5
70
1
102
RTVSPropertyOp6
70
1
102
RTVSPropertyOp7
70
1
102
RTVSPropertyOp8
70
1
102
RTVSPropertyOp9
70
1
102
RTVSPropertyOp10
70
1
102
RTVSPropertyOp11
70
1
102
RTVSPropertyOp12
70
1
102
RTVSPropertyOp13
70
1
102
RTVSPropertyOp14
70
1
102
RTVSPropertyOp15
70
1
102
RTVSPropertyOp16
70
1
102
RTVSPropertyOp17
70
1
102
RTVSPropertyOp18
70
1
102
RTVSPropertyOp19
70
1
102
RTVSPropertyOp20
70
1
102
RTVSPropertyOp21
70
1
102
RTVSPropertyOp22
70
1
102
RTVSPropertyOp23
70
1
102
RTVSPropertyOp24
70
1
102
RTVSPropertyOp25
70
1
102
RTVSPropertyOp26
70
1
102
RTVSPropertyOp27
70
1
0
XRECORD
5
1095
102
{ACAD_REACTORS
330
1094
102
}
330
1094
100
AcDbXrecord
280
1
102
RTVSPropertyOp0
70
1
102
RTVSPropertyOp1
70
1
102
RTVSPropertyOp2
70
1
102
RTVSPropertyOp3
70
1
102
RTVSPropertyOp4
70
1
102
RTVSPropertyOp5
70
1
102
RTVSPropertyOp6
70
1
102
RTVSPropertyOp7
70
1
102
RTVSPropertyOp8
70
1
102
RTVSPropertyOp9
70
1
102
RTVSPropertyOp10
70
1
102
RTVSPropertyOp11
70
1
102
RTVSPropertyOp12
70
1
102
RTVSPropertyOp13
70
1
102
RTVSPropertyOp14
70
1
102
RTVSPropertyOp15
70
1
102
RTVSPropertyOp16
70
1
102
RTVSPropertyOp17
70
1
102
RTVSPropertyOp18
70
1
102
RTVSPropertyOp19
70
1
102
RTVSPropertyOp20
70
1
102
RTVSPropertyOp21
70
1
102
RTVSPropertyOp22
70
1
102
RTVSPropertyOp23
70
1
102
RTVSPropertyOp24
70
1
102
RTVSPropertyOp25
70
1
102
RTVSPropertyOp26
70
1
102
RTVSPropertyOp27
70
1
0
XRECORD
5
10A5
102
{ACAD_REACTORS
330
10A4
102
}
330
10A4
100
AcDbXrecord
280
1
102
RTVSPropertyOp0
70
0
102
RTVSPropertyOp1
70
0
102
RTVSPropertyOp2
70
0
102
RTVSPropertyOp3
70
0
102
RTVSPropertyOp4
70
0
102
RTVSPropertyOp5
70
0
102
RTVSPropertyOp6
70
0
102
RTVSPropertyOp7
70
0
102
RTVSPropertyOp8
70
0
102
RTVSPropertyOp9
70
0
102
RTVSPropertyOp10
70
0
102
RTVSPropertyOp11
70
0
102
RTVSPropertyOp12
70
0
102
RTVSPropertyOp13
70
0
102
RTVSPropertyOp14
70
2
102
RTVSPropertyOp15
70
0
102
RTVSPropertyOp16
70
0
102
RTVSPropertyOp17
70
0
102
RTVSPropertyOp18
70
0
102
RTVSPropertyOp19
70
0
102
RTVSPropertyOp20
70
0
102
RTVSPropertyOp21
70
0
102
RTVSPropertyOp22
70
0
102
RTVSPropertyOp23
70
0
102
RTVSPropertyOp24
70
0
102
RTVSPropertyOp25
70
0
102
RTVSPropertyOp26
70
0
102
RTVSPropertyOp27
70
0
0
XRECORD
5
109D
102
{ACAD_REACTORS
330
109C
102
}
330
109C
100
AcDbXrecord
280
1
102
RTVSPropertyOp0
70
1
102
RTVSPropertyOp1
70
1
102
RTVSPropertyOp2
70
1
102
RTVSPropertyOp3
70
1
102
RTVSPropertyOp4
70
1
102
RTVSPropertyOp5
70
1
102
RTVSPropertyOp6
70
1
102
RTVSPropertyOp7
70
1
102
RTVSPropertyOp8
70
1
102
RTVSPropertyOp9
70
1
102
RTVSPropertyOp10
70
1
102
RTVSPropertyOp11
70
1
102
RTVSPropertyOp12
70
1
102
RTVSPropertyOp13
70
1
102
RTVSPropertyOp14
70
1
102
RTVSPropertyOp15
70
1
102
RTVSPropertyOp16
70
1
102
RTVSPropertyOp17
70
1
102
RTVSPropertyOp18
70
1
102
RTVSPropertyOp19
70
1
102
RTVSPropertyOp20
70
1
102
RTVSPropertyOp21
70
1
102
RTVSPropertyOp22
70
1
102
RTVSPropertyOp23
70
1
102
RTVSPropertyOp24
70
1
102
RTVSPropertyOp25
70
1
102
RTVSPropertyOp26
70
1
102
RTVSPropertyOp27
70
1
0
XRECORD
5
1081
102
{ACAD_REACTORS
330
1080
102
}
330
1080
100
AcDbXrecord
280
1
102
RTVSPropertyOp0
70
1
102
RTVSPropertyOp1
70
1
102
RTVSPropertyOp2
70
1
102
RTVSPropertyOp3
70
1
102
RTVSPropertyOp4
70
1
102
RTVSPropertyOp5
70
1
102
RTVSPropertyOp6
70
1
102
RTVSPropertyOp7
70
1
102
RTVSPropertyOp8
70
1
102
RTVSPropertyOp9
70
1
102
RTVSPropertyOp10
70
1
102
RTVSPropertyOp11
70
1
102
RTVSPropertyOp12
70
1
102
RTVSPropertyOp13
70
1
102
RTVSPropertyOp14
70
1
102
RTVSPropertyOp15
70
1
102
RTVSPropertyOp16
70
1
102
RTVSPropertyOp17
70
1
102
RTVSPropertyOp18
70
1
102
RTVSPropertyOp19
70
1
102
RTVSPropertyOp20
70
1
102
RTVSPropertyOp21
70
1
102
RTVSPropertyOp22
70
1
102
RTVSPropertyOp23
70
1
102
RTVSPropertyOp24
70
1
102
RTVSPropertyOp25
70
1
102
RTVSPropertyOp26
70
1
102
RTVSPropertyOp27
70
1
0
XRECORD
5
1083
102
{ACAD_REACTORS
330
1082
102
}
330
1082
100
AcDbXrecord
280
1
102
RTVSPropertyOp0
70
1
102
RTVSPropertyOp1
70
1
102
RTVSPropertyOp2
70
1
102
RTVSPropertyOp3
70
1
102
RTVSPropertyOp4
70
1
102
RTVSPropertyOp5
70
1
102
RTVSPropertyOp6
70
1
102
RTVSPropertyOp7
70
1
102
RTVSPropertyOp8
70
1
102
RTVSPropertyOp9
70
1
102
RTVSPropertyOp10
70
1
102
RTVSPropertyOp11
70
1
102
RTVSPropertyOp12
70
1
102
RTVSPropertyOp13
70
1
102
RTVSPropertyOp14
70
1
102
RTVSPropertyOp15
70
1
102
RTVSPropertyOp16
70
1
102
RTVSPropertyOp17
70
1
102
RTVSPropertyOp18
70
1
102
RTVSPropertyOp19
70
1
102
RTVSPropertyOp20
70
1
102
RTVSPropertyOp21
70
1
102
RTVSPropertyOp22
70
1
102
RTVSPropertyOp23
70
1
102
RTVSPropertyOp24
70
1
102
RTVSPropertyOp25
70
1
102
RTVSPropertyOp26
70
1
102
RTVSPropertyOp27
70
1
0
XRECORD
5
1085
102
{ACAD_REACTORS
330
1084
102
}
330
1084
100
AcDbXrecord
280
1
102
RTVSPropertyOp0
70
1
102
RTVSPropertyOp1
70
1
102
RTVSPropertyOp2
70
1
102
RTVSPropertyOp3
70
1
102
RTVSPropertyOp4
70
1
102
RTVSPropertyOp5
70
1
102
RTVSPropertyOp6
70
1
102
RTVSPropertyOp7
70
1
102
RTVSPropertyOp8
70
1
102
RTVSPropertyOp9
70
1
102
RTVSPropertyOp10
70
1
102
RTVSPropertyOp11
70
1
102
RTVSPropertyOp12
70
1
102
RTVSPropertyOp13
70
1
102
RTVSPropertyOp14
70
1
102
RTVSPropertyOp15
70
1
102
RTVSPropertyOp16
70
1
102
RTVSPropertyOp17
70
1
102
RTVSPropertyOp18
70
1
102
RTVSPropertyOp19
70
1
102
RTVSPropertyOp20
70
1
102
RTVSPropertyOp21
70
1
102
RTVSPropertyOp22
70
1
102
RTVSPropertyOp23
70
1
102
RTVSPropertyOp24
70
1
102
RTVSPropertyOp25
70
1
102
RTVSPropertyOp26
70
1
102
RTVSPropertyOp27
70
1
0
XRECORD
5
1087
102
{ACAD_REACTORS
330
1086
102
}
330
1086
100
AcDbXrecord
280
1
102
RTVSPropertyOp0
70
1
102
RTVSPropertyOp1
70
1
102
RTVSPropertyOp2
70
1
102
RTVSPropertyOp3
70
1
102
RTVSPropertyOp4
70
1
102
RTVSPropertyOp5
70
1
102
RTVSPropertyOp6
70
1
102
RTVSPropertyOp7
70
1
102
RTVSPropertyOp8
70
1
102
RTVSPropertyOp9
70
1
102
RTVSPropertyOp10
70
1
102
RTVSPropertyOp11
70
1
102
RTVSPropertyOp12
70
1
102
RTVSPropertyOp13
70
1
102
RTVSPropertyOp14
70
1
102
RTVSPropertyOp15
70
1
102
RTVSPropertyOp16
70
1
102
RTVSPropertyOp17
70
1
102
RTVSPropertyOp18
70
1
102
RTVSPropertyOp19
70
1
102
RTVSPropertyOp20
70
1
102
RTVSPropertyOp21
70
1
102
RTVSPropertyOp22
70
1
102
RTVSPropertyOp23
70
1
102
RTVSPropertyOp24
70
1
102
RTVSPropertyOp25
70
1
102
RTVSPropertyOp26
70
1
102
RTVSPropertyOp27
70
1
0
XRECORD
5
10A1
102
{ACAD_REACTORS
330
10A0
102
}
330
10A0
100
AcDbXrecord
280
1
102
RTVSPropertyOp0
70
0
102
RTVSPropertyOp1
70
0
102
RTVSPropertyOp2
70
0
102
RTVSPropertyOp3
70
0
102
RTVSPropertyOp4
70
0
102
RTVSPropertyOp5
70
0
102
RTVSPropertyOp6
70
0
102
RTVSPropertyOp7
70
0
102
RTVSPropertyOp8
70
0
102
RTVSPropertyOp9
70
0
102
RTVSPropertyOp10
70
0
102
RTVSPropertyOp11
70
0
102
RTVSPropertyOp12
70
0
102
RTVSPropertyOp13
70
0
102
RTVSPropertyOp14
70
2
102
RTVSPropertyOp15
70
0
102
RTVSPropertyOp16
70
0
102
RTVSPropertyOp17
70
0
102
RTVSPropertyOp18
70
0
102
RTVSPropertyOp19
70
0
102
RTVSPropertyOp20
70
0
102
RTVSPropertyOp21
70
0
102
RTVSPropertyOp22
70
0
102
RTVSPropertyOp23
70
0
102
RTVSPropertyOp24
70
0
102
RTVSPropertyOp25
70
0
102
RTVSPropertyOp26
70
0
102
RTVSPropertyOp27
70
0
0
XRECORD
5
109B
102
{ACAD_REACTORS
330
109A
102
}
330
109A
100
AcDbXrecord
280
1
102
RTVSPropertyOp0
70
1
102
RTVSPropertyOp1
70
1
102
RTVSPropertyOp2
70
1
102
RTVSPropertyOp3
70
1
102
RTVSPropertyOp4
70
1
102
RTVSPropertyOp5
70
1
102
RTVSPropertyOp6
70
1
102
RTVSPropertyOp7
70
1
102
RTVSPropertyOp8
70
1
102
RTVSPropertyOp9
70
1
102
RTVSPropertyOp10
70
1
102
RTVSPropertyOp11
70
1
102
RTVSPropertyOp12
70
1
102
RTVSPropertyOp13
70
1
102
RTVSPropertyOp14
70
1
102
RTVSPropertyOp15
70
1
102
RTVSPropertyOp16
70
1
102
RTVSPropertyOp17
70
1
102
RTVSPropertyOp18
70
1
102
RTVSPropertyOp19
70
1
102
RTVSPropertyOp20
70
1
102
RTVSPropertyOp21
70
1
102
RTVSPropertyOp22
70
1
102
RTVSPropertyOp23
70
1
102
RTVSPropertyOp24
70
1
102
RTVSPropertyOp25
70
1
102
RTVSPropertyOp26
70
1
102
RTVSPropertyOp27
70
1
0
XRECORD
5
10A3
102
{ACAD_REACTORS
330
10A2
102
}
330
10A2
100
AcDbXrecord
280
1
102
RTVSPropertyOp0
70
0
102
RTVSPropertyOp1
70
0
102
RTVSPropertyOp2
70
0
102
RTVSPropertyOp3
70
0
102
RTVSPropertyOp4
70
0
102
RTVSPropertyOp5
70
0
102
RTVSPropertyOp6
70
0
102
RTVSPropertyOp7
70
0
102
RTVSPropertyOp8
70
0
102
RTVSPropertyOp9
70
0
102
RTVSPropertyOp10
70
0
102
RTVSPropertyOp11
70
0
102
RTVSPropertyOp12
70
0
102
RTVSPropertyOp13
70
0
102
RTVSPropertyOp14
70
2
102
RTVSPropertyOp15
70
0
102
RTVSPropertyOp16
70
0
102
RTVSPropertyOp17
70
0
102
RTVSPropertyOp18
70
0
102
RTVSPropertyOp19
70
0
102
RTVSPropertyOp20
70
0
102
RTVSPropertyOp21
70
0
102
RTVSPropertyOp22
70
0
102
RTVSPropertyOp23
70
0
102
RTVSPropertyOp24
70
0
102
RTVSPropertyOp25
70
0
102
RTVSPropertyOp26
70
0
102
RTVSPropertyOp27
70
0
0
XRECORD
5
1093
102
{ACAD_REACTORS
330
1092
102
}
330
1092
100
AcDbXrecord
280
1
102
RTVSPropertyOp0
70
1
102
RTVSPropertyOp1
70
1
102
RTVSPropertyOp2
70
1
102
RTVSPropertyOp3
70
1
102
RTVSPropertyOp4
70
1
102
RTVSPropertyOp5
70
1
102
RTVSPropertyOp6
70
1
102
RTVSPropertyOp7
70
1
102
RTVSPropertyOp8
70
1
102
RTVSPropertyOp9
70
1
102
RTVSPropertyOp10
70
1
102
RTVSPropertyOp11
70
1
102
RTVSPropertyOp12
70
1
102
RTVSPropertyOp13
70
1
102
RTVSPropertyOp14
70
1
102
RTVSPropertyOp15
70
1
102
RTVSPropertyOp16
70
1
102
RTVSPropertyOp17
70
1
102
RTVSPropertyOp18
70
1
102
RTVSPropertyOp19
70
1
102
RTVSPropertyOp20
70
1
102
RTVSPropertyOp21
70
1
102
RTVSPropertyOp22
70
1
102
RTVSPropertyOp23
70
1
102
RTVSPropertyOp24
70
1
102
RTVSPropertyOp25
70
1
102
RTVSPropertyOp26
70
1
102
RTVSPropertyOp27
70
1
0
XRECORD
5
1099
102
{ACAD_REACTORS
330
1098
102
}
330
1098
100
AcDbXrecord
280
1
102
RTVSPropertyOp0
70
1
102
RTVSPropertyOp1
70
1
102
RTVSPropertyOp2
70
1
102
RTVSPropertyOp3
70
1
102
RTVSPropertyOp4
70
1
102
RTVSPropertyOp5
70
1
102
RTVSPropertyOp6
70
1
102
RTVSPropertyOp7
70
1
102
RTVSPropertyOp8
70
1
102
RTVSPropertyOp9
70
1
102
RTVSPropertyOp10
70
1
102
RTVSPropertyOp11
70
1
102
RTVSPropertyOp12
70
1
102
RTVSPropertyOp13
70
1
102
RTVSPropertyOp14
70
1
102
RTVSPropertyOp15
70
1
102
RTVSPropertyOp16
70
1
102
RTVSPropertyOp17
70
1
102
RTVSPropertyOp18
70
1
102
RTVSPropertyOp19
70
1
102
RTVSPropertyOp20
70
1
102
RTVSPropertyOp21
70
1
102
RTVSPropertyOp22
70
1
102
RTVSPropertyOp23
70
1
102
RTVSPropertyOp24
70
1
102
RTVSPropertyOp25
70
1
102
RTVSPropertyOp26
70
1
102
RTVSPropertyOp27
70
1
0
ENDSEC
0
EOF
