0
SECTION
2
HEADER
9
$ACADVER
1
AC1015
9
$ACADMAINTVER
70
20
9
$DWGCODEPAGE
3
ANSI_1252
9
$INSBASE
10
0.0
20
0.0
30
0.0
9
$EXTMIN
10
-150.000000000000
20
-105.000000000000
30
0.0
9
$EXTMAX
10
150.000000000000
20
105.000000000000
30
0.0
9
$LIMMIN
10
0.0
20
0.0
9
$LIMMAX
10
12.0
20
9.0
9
$ORTHOMODE
70
0
9
$REGENMODE
70
1
9
$FILLMODE
70
1
9
$QTEXTMODE
70
0
9
$MIRRTEXT
70
1
9
$LTSCALE
40
1.0
9
$ATTMODE
70
1
9
$TEXTSIZE
40
0.2
9
$TRACEWID
40
0.05
9
$TEXTSTYLE
7
Standard
9
$CLAYER
8
0
9
$CELTYPE
6
ByLayer
9
$CECOLOR
62
256
9
$CELTSCALE
40
1.0
9
$DISPSILH
70
0
9
$DIMSCALE
40
1.0
9
$DIMASZ
40
2.5
9
$DIMEXO
40
0.625
9
$DIMDLI
40
0.38
9
$DIMRND
40
0.0
9
$DIMDLE
40
0.0
9
$DIMEXE
40
1.25
9
$DIMTP
40
0.0
9
$DIMTM
40
0.000000001
9
$DIMTXT
40
2.5
9
$DIMCEN
40
0.09
9
$DIMTSZ
40
0.0
9
$DIMTOL
70
1
9
$DIMLIM
70
0
9
$DIMTIH
70
0
9
$DIMTOH
70
0
9
$DIMSE1
70
0
9
$DIMSE2
70
0
9
$DIMTAD
70
1
9
$DIMZIN
70
0
9
$DIMBLK
1
VDDIM_DEFAULT
9
$DIMASO
70
1
9
$DIMSHO
70
1
9
$DIMPOST
1

9
$DIMAPOST
1

9
$DIMALT
70
0
9
$DIMALTD
70
2
9
$DIMALTF
40
25.4
9
$DIMLFAC
40
1.00000000000000
9
$DIMTOFL
70
0
9
$DIMTVP
40
0.0
9
$DIMTIX
70
0
9
$DIMSOXD
70
0
9
$DIMSAH
70
0
9
$DIMBLK1
1

9
$DIMBLK2
1

9
$DIMSTYLE
2
BEM-ISBE
9
$DIMCLRD
70
0
9
$DIMCLRE
70
0
9
$DIMCLRT
70
0
9
$DIMTFAC
40
0.5
9
$DIMGAP
40
0.625
9
$DIMJUST
70
0
9
$DIMSD1
70
0
9
$DIMSD2
70
0
9
$DIMTOLJ
70
1
9
$DIMTZIN
70
0
9
$DIMALTZ
70
0
9
$DIMALTTZ
70
0
9
$DIMUPT
70
0
9
$DIMDEC
70
3
9
$DIMTDEC
70
3
9
$DIMALTU
70
2
9
$DIMALTTD
70
2
9
$DIMTXSTY
7
Standard
9
$DIMAUNIT
70
0
9
$DIMADEC
70
3
9
$DIMALTRND
40
0.0
9
$DIMAZIN
70
0
9
$DIMDSEP
70
46
9
$DIMATFIT
70
3
9
$DIMFRAC
70
0
9
$DIMLDRBLK
1

9
$DIMLUNIT
70
2
9
$DIMLWD
70
-2
9
$DIMLWE
70
-2
9
$DIMTMOVE
70
0
9
$LUNITS
70
2
9
$LUPREC
70
4
9
$SKETCHINC
40
0.1
9
$FILLETRAD
40
0.5
9
$AUNITS
70
0
9
$AUPREC
70
0
9
$MENU
1
.
9
$ELEVATION
40
0.0
9
$PELEVATION
40
0.0
9
$THICKNESS
40
0.0
9
$LIMCHECK
70
0
9
$CHAMFERA
40
0.5
9
$CHAMFERB
40
0.5
9
$CHAMFERC
40
1.0
9
$CHAMFERD
40
0.0
9
$SKPOLY
70
0
9
$TDCREATE
40
0.0
9
$TDUCREATE
40
0.0
9
$TDUPDATE
40
0.0
9
$TDUUPDATE
40
0.0
9
$TDINDWG
40
0.0
9
$TDUSRTIMER
40
0.0
9
$USRTIMER
70
1
9
$ANGBASE
50
0.0
9
$ANGDIR
70
0
9
$PDMODE
70
0
9
$PDSIZE
40
0.0
9
$PLINEWID
40
0.0
9
$SPLFRAME
70
0
9
$SPLINETYPE
70
6
9
$SPLINESEGS
70
8
9
$HANDSEED
5
10AB
9
$SURFTAB1
70
6
9
$SURFTAB2
70
6
9
$SURFTYPE
70
6
9
$SURFU
70
6
9
$SURFV
70
6
9
$UCSBASE
2

9
$UCSNAME
2

9
$UCSORG
10
0.0
20
0.0
30
0.0
9
$UCSXDIR
10
1.0
20
0.0
30
0.0
9
$UCSYDIR
10
0.0
20
1.0
30
0.0
9
$UCSORTHOREF
2

9
$UCSORTHOVIEW
70
0
9
$UCSORGTOP
10
0.0
20
0.0
30
0.0
9
$UCSORGBOTTOM
10
0.0
20
0.0
30
0.0
9
$UCSORGLEFT
10
0.0
20
0.0
30
0.0
9
$UCSORGRIGHT
10
0.0
20
0.0
30
0.0
9
$UCSORGFRONT
10
0.0
20
0.0
30
0.0
9
$UCSORGBACK
10
0.0
20
0.0
30
0.0
9
$PUCSBASE
2

9
$PUCSNAME
2

9
$PUCSORG
10
0.0
20
0.0
30
0.0
9
$PUCSXDIR
10
1.0
20
0.0
30
0.0
9
$PUCSYDIR
10
0.0
20
1.0
30
0.0
9
$PUCSORTHOREF
2

9
$PUCSORTHOVIEW
70
0
9
$PUCSORGTOP
10
0.0
20
0.0
30
0.0
9
$PUCSORGBOTTOM
10
0.0
20
0.0
30
0.0
9
$PUCSORGLEFT
10
0.0
20
0.0
30
0.0
9
$PUCSORGRIGHT
10
0.0
20
0.0
30
0.0
9
$PUCSORGFRONT
10
0.0
20
0.0
30
0.0
9
$PUCSORGBACK
10
0.0
20
0.0
30
0.0
9
$USERI1
70
0
9
$USERI2
70
0
9
$USERI3
70
0
9
$USERI4
70
0
9
$USERI5
70
0
9
$USERR1
40
0.0
9
$USERR2
40
0.0
9
$USERR3
40
0.0
9
$USERR4
40
0.0
9
$USERR5
40
0.0
9
$WORLDVIEW
70
1
9
$SHADEDGE
70
3
9
$SHADEDIF
70
70
9
$TILEMODE
70
1
9
$MAXACTVP
70
64
9
$PINSBASE
10
0.0
20
0.0
30
0.0
9
$PLIMCHECK
70
0
9
$PEXTMIN
10
1.000000000000000E+20
20
1.000000000000000E+20
30
1.000000000000000E+20
9
$PEXTMAX
10
-1.000000000000000E+20
20
-1.000000000000000E+20
30
-1.000000000000000E+20
9
$PLIMMIN
10
0.0
20
0.0
9
$PLIMMAX
10
12.0
20
9.0
9
$UNITMODE
70
0
9
$VISRETAIN
70
1
9
$PLINEGEN
70
0
9
$PSLTSCALE
70
1
9
$TREEDEPTH
70
3020
9
$CMLSTYLE
2
Standard
9
$CMLJUST
70
0
9
$CMLSCALE
40
1.0
9
$PROXYGRAPHICS
70
1
9
$MEASUREMENT
70
0
9
$CELWEIGHT
370
-1
9
$ENDCAPS
280
0
9
$JOINSTYLE
280
0
9
$LWDISPLAY
290
0
9
$INSUNITS
70
4
9
$HYPERLINKBASE
1

9
$STYLESHEET
1

9
$XEDIT
290
1
9
$CEPSNTYPE
380
0
9
$PSTYLEMODE
290
0
9
$FINGERPRINTGUID
2
{FAEB1C30-E019-11D5-929B-00C0DF256EC4}
9
$VERSIONGUID
2
{04C5C4E4-4947-4D90-8812-D401569E61F7}
9
$EXTNAMES
290
1
9
$PSVPSCALE
40
0.0
9
$OLESTARTUP
290
0
0
ENDSEC
0
SECTION
2
TABLES
0
TABLE
2
VPORT
5
24A
330
0
100
AcDbSymbolTable
70
1
0
VPORT
5
26B
330
24A
100
AcDbSymbolTableRecord
100
AcDbViewportTableRecord
2
*Active
70
0
10
0.0
20
0.0
11
1.0
21
1.0
12
0.000000000000000
22
0.000000000000000
13
0.0
23
0.0
14
10.0
24
10.0
15
10.0
25
10.0
16
0.0
26
0.0
36
1.0
17
0.0
27
0.0
37
0.0
40
210.000000000000
41
1.42857142857143
42
1.0
43
0.0
44
0.0
50
0.0
51
0.0000000000007958
71
0
72
100
73
1
74
3
75
0
76
0
77
0
78
1
281
0
65
1
110
0.0
120
0.0
130
0.0
111
1.0
121
0.0
131
0.0
112
0.0
122
1.0
132
0.0
79
0
146
0.0
0
ENDTAB
0
TABLE
2
LTYPE
5
247
330
0
100
AcDbSymbolTable
70
25
0
LTYPE
5
256
330
247
100
AcDbSymbolTableRecord
100
AcDbLinetypeTableRecord
2
ByBlock
70
0
3

72
65
73
0
40
0.0
0
LTYPE
5
257
330
247
100
AcDbSymbolTableRecord
100
AcDbLinetypeTableRecord
2
ByLayer
70
0
3

72
65
73
0
40
0.0
0
LTYPE
5
258
330
247
100
AcDbSymbolTableRecord
100
AcDbLinetypeTableRecord
2
Continuous
70
0
3
Solid line
72
65
73
0
40
0.0
0
LTYPE
5
273
330
247
100
AcDbSymbolTableRecord
100
AcDbLinetypeTableRecord
2
CENTER
70
0
3
Center ____ _ ____ _ ____ _ ____ _ ____ _ ____
72
65
73
4
40
2.0
49
1.25
74
0
49
-0.25
74
0
49
0.25
74
0
49
-0.25
74
0
0
LTYPE
5
274
330
247
100
AcDbSymbolTableRecord
100
AcDbLinetypeTableRecord
2
DASHDOT
70
0
3
Dashdot __ . __ . __ . __ . __ . __ . __ . __
72
65
73
4
40
1.0
49
0.5
74
0
49
-0.25
74
0
49
0.0
74
0
49
-0.25
74
0
0
LTYPE
5
275
330
247
100
AcDbSymbolTableRecord
100
AcDbLinetypeTableRecord
2
DASHED
70
0
3
Dashed __ __ __ __ __ __ __ __ __ __ __ __ __ _
72
65
73
2
40
0.75
49
0.5
74
0
49
-0.25
74
0
0
LTYPE
5
276
330
247
100
AcDbSymbolTableRecord
100
AcDbLinetypeTableRecord
2
HIDDEN
70
0
3
Hidden __ __ __ __ __ __ __ __ __ __ __ __ __ __
72
65
73
2
40
0.375
49
0.25
74
0
49
-0.125
74
0
0
LTYPE
5
277
330
247
100
AcDbSymbolTableRecord
100
AcDbLinetypeTableRecord
2
HIDDEN2
70
0
3
Hidden2 _ _ _ _ _ _ _ _ _ _ _ _ _ _ _ _ _
72
65
73
2
40
0.1875
49
0.125
74
0
49
-0.0625
74
0
0
LTYPE
5
278
330
247
100
AcDbSymbolTableRecord
100
AcDbLinetypeTableRecord
2
BORDER
70
0
3
Border __ __ . __ __ . __ __ . __ __ . __ __ .
72
65
73
6
40
1.75
49
0.5
74
0
49
-0.25
74
0
49
0.5
74
0
49
-0.25
74
0
49
0.0
74
0
49
-0.25
74
0
0
LTYPE
5
279
330
247
100
AcDbSymbolTableRecord
100
AcDbLinetypeTableRecord
2
BORDER2
70
0
3
Border2 __.__.__.__.__.__.__.__.__.__.__.
72
65
73
6
40
0.875
49
0.25
74
0
49
-0.125
74
0
49
0.25
74
0
49
-0.125
74
0
49
0.0
74
0
49
-0.125
74
0
0
LTYPE
5
27A
330
247
100
AcDbSymbolTableRecord
100
AcDbLinetypeTableRecord
2
BORDERX2
70
0
3
Borderx2  ____  ____  .  ____  ____  .  ___
72
65
73
6
40
3.5
49
1.0
74
0
49
-0.5
74
0
49
1.0
74
0
49
-0.5
74
0
49
0.0
74
0
49
-0.5
74
0
0
LTYPE
5
27B
330
247
100
AcDbSymbolTableRecord
100
AcDbLinetypeTableRecord
2
CENTER2
70
0
3
Center2  ___ _ ___ _ ___ _ ___ _ ___ _ ___
72
65
73
4
40
1.125
49
0.75
74
0
49
-0.125
74
0
49
0.125
74
0
49
-0.125
74
0
0
LTYPE
5
27C
330
247
100
AcDbSymbolTableRecord
100
AcDbLinetypeTableRecord
2
CENTERX2
70
0
3
Centerx2  ________  __  ________  __  _____
72
65
73
4
40
4.0
49
2.5
74
0
49
-0.5
74
0
49
0.5
74
0
49
-0.5
74
0
0
LTYPE
5
27D
330
247
100
AcDbSymbolTableRecord
100
AcDbLinetypeTableRecord
2
DASHDOT2
70
0
3
Dashdot2  _._._._._._._._._._._._._._._.
72
65
73
4
40
0.5
49
0.25
74
0
49
-0.125
74
0
49
0.0
74
0
49
-0.125
74
0
0
LTYPE
5
27E
330
247
100
AcDbSymbolTableRecord
100
AcDbLinetypeTableRecord
2
DASHDOTX2
70
0
3
Dashdotx2 ____  .  ____  .  ____  .  ___
72
65
73
4
40
2.0
49
1.0
74
0
49
-0.5
74
0
49
0.0
74
0
49
-0.5
74
0
0
LTYPE
5
27F
330
247
100
AcDbSymbolTableRecord
100
AcDbLinetypeTableRecord
2
DASHED2
70
0
3
Dashed2 _ _ _ _ _ _ _ _ _ _ _ _ _ _ _ _ _
72
65
73
2
40
0.375
49
0.25
74
0
49
-0.125
74
0
0
LTYPE
5
280
330
247
100
AcDbSymbolTableRecord
100
AcDbLinetypeTableRecord
2
DASHEDX2
70
0
3
Dashedx2 ____  ____  ____  ____  ____  ___
72
65
73
2
40
1.5
49
1.0
74
0
49
-0.5
74
0
0
LTYPE
5
281
330
247
100
AcDbSymbolTableRecord
100
AcDbLinetypeTableRecord
2
DIVIDE
70
0
3
Divide ____ . . ____ . . ____ . . ____ . . ____
72
65
73
6
40
1.25
49
0.5
74
0
49
-0.25
74
0
49
0.0
74
0
49
-0.25
74
0
49
0.0
74
0
49
-0.25
74
0
0
LTYPE
5
282
330
247
100
AcDbSymbolTableRecord
100
AcDbLinetypeTableRecord
2
DIVIDE2
70
0
3
Divide2 __..__..__..__..__..__..__..__.._
72
65
73
6
40
0.625
49
0.25
74
0
49
-0.125
74
0
49
0.0
74
0
49
-0.125
74
0
49
0.0
74
0
49
-0.125
74
0
0
LTYPE
5
283
330
247
100
AcDbSymbolTableRecord
100
AcDbLinetypeTableRecord
2
DIVIDEX2
70
0
3
Dividex2 ________  .  .  ________  .  .  _
72
65
73
6
40
2.5
49
1.0
74
0
49
-0.5
74
0
49
0.0
74
0
49
-0.5
74
0
49
0.0
74
0
49
-0.5
74
0
0
LTYPE
5
284
330
247
100
AcDbSymbolTableRecord
100
AcDbLinetypeTableRecord
2
DOT
70
0
3
Dot . . . . . . . . . . . . . . . . . . . . . . . .
72
65
73
2
40
0.25
49
0.0
74
0
49
-0.25
74
0
0
LTYPE
5
285
330
247
100
AcDbSymbolTableRecord
100
AcDbLinetypeTableRecord
2
DOT2
70
0
3
Dot2 ........................................
72
65
73
2
40
0.125
49
0.0
74
0
49
-0.125
74
0
0
LTYPE
5
286
330
247
100
AcDbSymbolTableRecord
100
AcDbLinetypeTableRecord
2
DOTX2
70
0
3
Dotx2 .  .  .  .  .  .  .  .  .  .  .  .  .  .
72
65
73
2
40
0.5
49
0.0
74
0
49
-0.5
74
0
0
LTYPE
5
287
330
247
100
AcDbSymbolTableRecord
100
AcDbLinetypeTableRecord
2
HIDDENX2
70
0
3
Hiddenx2 ____ ____ ____ ____ ____ ____ ____
72
65
73
2
40
0.75
49
0.5
74
0
49
-0.25
74
0
0
LTYPE
5
288
330
247
100
AcDbSymbolTableRecord
100
AcDbLinetypeTableRecord
2
PHANTOM
70
0
3
Phantom ______  __  __  ______  __  __  ______
72
65
73
6
40
2.5
49
1.25
74
0
49
-0.25
74
0
49
0.25
74
0
49
-0.25
74
0
49
0.25
74
0
49
-0.25
74
0
0
LTYPE
5
289
330
247
100
AcDbSymbolTableRecord
100
AcDbLinetypeTableRecord
2
PHANTOM2
70
0
3
Phantom2 ___ _ _ ___ _ _ ___ _ _ ___ _ _
72
65
73
6
40
1.25
49
0.625
74
0
49
-0.125
74
0
49
0.125
74
0
49
-0.125
74
0
49
0.125
74
0
49
-0.125
74
0
0
LTYPE
5
28A
330
247
100
AcDbSymbolTableRecord
100
AcDbLinetypeTableRecord
2
PHANTOMX2
70
0
3
Phantomx2 ____________    ____    ____   _
72
65
73
6
40
5.0
49
2.5
74
0
49
-0.5
74
0
49
0.5
74
0
49
-0.5
74
0
49
0.5
74
0
49
-0.5
74
0
0
ENDTAB
0
TABLE
2
LAYER
5
244
330
0
100
AcDbSymbolTable
70
6
0
LAYER
5
252
330
244
100
AcDbSymbolTableRecord
100
AcDbLayerTableRecord
2
0
70
0
62
7
6
Continuous
370
0
390
251
0
LAYER
5
23F
330
244
100
AcDbSymbolTableRecord
100
AcDbLayerTableRecord
2
Bemassung
70
0
 62
   7
6
Continuous
370
0
390
251
0
LAYER
5
240
330
244
100
AcDbSymbolTableRecord
100
AcDbLayerTableRecord
2
Rahmen
70
0
 62
   7
6
Continuous
370
0
390
251
0
LAYER
5
241
330
244
100
AcDbSymbolTableRecord
100
AcDbLayerTableRecord
2
Geo
70
0
 62
   7
6
Continuous
370
0
390
251
0
LAYER
5
33A
330
244
100
AcDbSymbolTableRecord
100
AcDbLayerTableRecord
2
Defpoints
70
0
62
7
6
Continuous
290
0
370
-3
390
251
0
LAYER
5
57E
330
244
100
AcDbSymbolTableRecord
100
AcDbLayerTableRecord
2
Text
70
0
 62
   7
6
Continuous
370
0
390
251
1001
AcAecLayerStandard
1000

1000

0
ENDTAB
0
TABLE
2
STYLE
5
245
330
0
100
AcDbSymbolTable
70
2
0
STYLE
5
253
330
245
100
AcDbSymbolTableRecord
100
AcDbTextStyleTableRecord
2
Standard
70
0
40
0.0
41
1.0
50
0.0
71
0
42
0.2
3
Arial
4

1001
ACAD
1000
Arial
1071
0
0
STYLE
5
132
330
245
100
AcDbSymbolTableRecord
100
AcDbTextStyleTableRecord
2
Beschriftung
70
0
40
0.0
41
1.0
50
0.0
71
0
42
0.2
3
Arial
4

1001
ACAD
1000
Arial
1071
0
1001
AcadAnnotative
1000
AnnotativeData
1070
1
1070
1
0
ENDTAB
0
TABLE
2
VIEW
5
248
330
0
100
AcDbSymbolTable
70
0
0
ENDTAB
0
TABLE
2
UCS
5
249
330
0
100
AcDbSymbolTable
70
0
0
ENDTAB
0
TABLE
2
APPID
5
24B
330
0
100
AcDbSymbolTable
70
13
0
APPID
5
254
330
24B
100
AcDbSymbolTableRecord
100
AcDbRegAppTableRecord
2
ACAD
70
0
0
APPID
5
26C
330
24B
100
AcDbSymbolTableRecord
100
AcDbRegAppTableRecord
2
VD_INVISIBLE_NOT_FOR_READ
70
0
0
APPID
5
26D
330
24B
100
AcDbSymbolTableRecord
100
AcDbRegAppTableRecord
2
VD_TEMPHATCH
70
0
0
APPID
5
26E
330
24B
100
AcDbSymbolTableRecord
100
AcDbRegAppTableRecord
2
VDEXTRAPARAM
70
0
0
APPID
5
26F
330
24B
100
AcDbSymbolTableRecord
100
AcDbRegAppTableRecord
2
PE_URL
70
0
0
APPID
5
270
330
24B
100
AcDbSymbolTableRecord
100
AcDbRegAppTableRecord
2
VD_UNKNOWN
70
0
0
APPID
5
28F
330
24B
100
AcDbSymbolTableRecord
100
AcDbRegAppTableRecord
2
AcadAnnotative
70
0
0
APPID
5
290
330
24B
100
AcDbSymbolTableRecord
100
AcDbRegAppTableRecord
2
ACAD_DSTYLE_DIMJAG
70
0
0
APPID
5
291
330
24B
100
AcDbSymbolTableRecord
100
AcDbRegAppTableRecord
2
ACAD_DSTYLE_DIMTALN
70
0
0
APPID
5
293
330
24B
100
AcDbSymbolTableRecord
100
AcDbRegAppTableRecord
2
ACAD_PSEXT
70
0
0
APPID
5
42A
330
24B
100
AcDbSymbolTableRecord
100
AcDbRegAppTableRecord
2
ACAD_MLEADERVER
70
0
0
APPID
5
532
330
24B
100
AcDbSymbolTableRecord
100
AcDbRegAppTableRecord
2
ACAD_EXEMPT_FROM_CAD_STANDARDS
70
0
0
APPID
5
57F
330
24B
100
AcDbSymbolTableRecord
100
AcDbRegAppTableRecord
2
AcAecLayerStandard
70
0
0
ENDTAB
0
TABLE
2
DIMSTYLE
5
24C
330
0
100
AcDbSymbolTable
70
3
100
AcDbDimStyleTable
71
2
340
27
340
269
0
DIMSTYLE
105
269
330
24C
100
AcDbSymbolTableRecord
100
AcDbDimStyleTableRecord
2
Standard
70
0
172
1
174
1
288
1
340
253
342
23C
0
DIMSTYLE
105
137
330
24C
100
AcDbSymbolTableRecord
100
AcDbDimStyleTableRecord
2
Beschriftung
70
0
41
2.5
42
0.625
44
1.25
73
0
74
0
77
1
140
2.5
147
0.625
172
1
174
1
271
2
288
1
340
253
342
23C
1001
AcadAnnotative
1000
AnnotativeData
1070
1
1070
1
1001
ACAD_DSTYLE_DIMJAG
1070
388
1040
1.5
1001
ACAD_DSTYLE_DIMTALN
1070
392
1070
0
0
DIMSTYLE
105
27
102
{ACAD_REACTORS
330
F1000D
330
F10017
330
F1001C
330
F10021
330
F10003
330
F10008
330
F10012
102
}
330
24C
100
AcDbSymbolTableRecord
100
AcDbDimStyleTableRecord
2
BEM-ISBE
70
0
41
2.5
42
0.625
44
1.25
48
0.000000001
71
1
73
0
74
0
77
1
140
2.5
144
1.00000000000000
146
0.5
147
0.625
171
 3
172
 1
179
 3
271
 3
272
 3
274
 3
340
253
342
23C
1001
ACAD_DSTYLE_DIMJAG
1070
388
1040
1.5
1001
ACAD_DSTYLE_DIMTALN
1070
392
1070
1
0
ENDTAB
0
TABLE
2
BLOCK_RECORD
5
243
330
0
100
AcDbSymbolTable
70
5
0
BLOCK_RECORD
5
261
330
243
100
AcDbSymbolTableRecord
100
AcDbBlockTableRecord
2
*Model_Space
340
FD0
0
BLOCK_RECORD
5
25D
330
243
100
AcDbSymbolTableRecord
100
AcDbBlockTableRecord
2
*Paper_Space
340
FD1
0
BLOCK_RECORD
5
265
330
243
100
AcDbSymbolTableRecord
100
AcDbBlockTableRecord
2
*Paper_Space0
340
0
0
BLOCK_RECORD
5
23C
330
243
100
AcDbSymbolTableRecord
100
AcDbBlockTableRecord
2
VDDIM_DEFAULT
340
0
102
{BLKREFS
102
}
0
BLOCK_RECORD
5
23E
330
243
100
AcDbSymbolTableRecord
100
AcDbBlockTableRecord
2
VDDIM_NONE
340
0
0
BLOCK_RECORD
5
F1000C
330
243
100
AcDbSymbolTableRecord
100
AcDbBlockTableRecord
2
*D5
340
0
0
BLOCK_RECORD
5
F10016
330
243
100
AcDbSymbolTableRecord
100
AcDbBlockTableRecord
2
*D7
340
0
0
BLOCK_RECORD
5
F1001B
330
243
100
AcDbSymbolTableRecord
100
AcDbBlockTableRecord
2
*D8
340
0
0
BLOCK_RECORD
5
F10020
330
243
100
AcDbSymbolTableRecord
100
AcDbBlockTableRecord
2
*D9
340
0
0
BLOCK_RECORD
5
F10002
330
243
100
AcDbSymbolTableRecord
100
AcDbBlockTableRecord
2
*D3
340
0
0
BLOCK_RECORD
5
F10007
330
243
100
AcDbSymbolTableRecord
100
AcDbBlockTableRecord
2
*D4
340
0
0
BLOCK_RECORD
5
F10011
330
243
100
AcDbSymbolTableRecord
100
AcDbBlockTableRecord
2
*D6
340
0
0
ENDTAB
0
ENDSEC
0
SECTION
2
BLOCKS
0
BLOCK
5
262
330
261
100
AcDbEntity
8
0
100
AcDbBlockBegin
2
*Model_Space
70
0
10
0.0
20
0.0
30
0.0
3
*Model_Space
1

0
ENDBLK
5
263
330
261
100
AcDbEntity
8
0
100
AcDbBlockEnd
0
BLOCK
5
25E
330
25D
100
AcDbEntity
67
1
8
0
100
AcDbBlockBegin
2
*Paper_Space
70
0
10
0.0
20
0.0
30
0.0
3
*Paper_Space
1

0
ENDBLK
5
25F
330
25D
100
AcDbEntity
67
1
8
0
100
AcDbBlockEnd
0
BLOCK
5
266
330
265
100
AcDbEntity
8
0
100
AcDbBlockBegin
2
*Paper_Space0
70
0
10
0.0
20
0.0
30
0.0
3
*Paper_Space0
1

0
VIEWPORT
5
296
102
{ACAD_XDICTIONARY
360
58E
102
}
330
265
100
AcDbEntity
8
0
60
1
100
AcDbViewport
10
0.0
20
0.0
30
0.0
40
10.0
41
10.0
69
0
12
0.0
22
0.0
13
0.0
23
0.0
14
1.0
24
1.0
15
0.0
25
0.0
16
0.0
26
0.0
36
1.0
17
0.0
27
0.0
37
0.0
42
0.0
43
0.0
44
0.0
45
10.0
50
0.0
51
0.0000000000007958
72
100
90
163872
1

281
0
71
0
74
0
110
0.0
120
0.0
130
0.0
111
1.0
121
0.0
131
0.0
112
0.0
122
1.0
132
0.0
79
0
146
0.0
1001
VD_INVISIBLE_NOT_FOR_READ
1000
VD_INVISIBLE_NOT_FOR_READ
0
VIEWPORT
5
297
102
{ACAD_XDICTIONARY
360
590
102
}
330
265
100
AcDbEntity
8
0
60
1
100
AcDbViewport
10
0.0
20
0.0
30
0.0
40
10.0
41
10.0
69
0
12
0.0
22
0.0
13
0.0
23
0.0
14
1.0
24
1.0
15
0.0
25
0.0
16
0.0
26
0.0
36
1.0
17
0.0
27
0.0
37
0.0
42
0.0
43
0.0
44
0.0
45
10.0
50
0.0
51
0.0000000000007958
72
100
90
163872
1

281
0
71
0
74
0
110
0.0
120
0.0
130
0.0
111
1.0
121
0.0
131
0.0
112
0.0
122
1.0
132
0.0
79
0
146
0.0
1001
VD_INVISIBLE_NOT_FOR_READ
1000
VD_INVISIBLE_NOT_FOR_READ
0
ENDBLK
5
267
330
265
100
AcDbEntity
8
0
100
AcDbBlockEnd
0
BLOCK
5
28B
330
23C
100
AcDbEntity
8
0
100
AcDbBlockBegin
2
VDDIM_DEFAULT
70
0
10
0.0
20
0.0
30
0.0
3
VDDIM_DEFAULT
1

0
LWPOLYLINE
5
23D
330
23C
100
AcDbEntity
8
0
6
Continuous
62
0
100
AcDbPolyline
90
4
70
0
43
0.0
10
0.0
20
0.0
10
-1.0
20
-0.1665
10
-1.0
20
0.1665
10
0.0
20
0.0
1001
VDEXTRAPARAM
1071
1
1071
0
1071
0
1040
1.0
1000

1000

1040
0.0
1040
0.0
0
HATCH
5
292
330
23C
100
AcDbEntity
8
0
6
Continuous
62
0
100
AcDbHatch
10
0.0
20
0.0
30
0.0
210
0.0
220
0.0
230
1.0
2
SOLID
70
1
71
0
91
1
92
2
72
0
73
1
93
3
10
0.0
20
0.0
10
-1.0
20
-0.1665
10
-1.0
20
0.1665
97
0
75
0
76
1
98
1
10
0.0
20
0.0
1001
VDEXTRAPARAM
1071
1
1071
0
1071
0
1040
1.0
1000

1000

1040
0.0
1040
0.0
1001
VD_TEMPHATCH
1000
VD_TEMPHATCH
0
ENDBLK
5
28C
330
23C
100
AcDbEntity
8
0
100
AcDbBlockEnd
0
BLOCK
5
28D
330
23E
100
AcDbEntity
8
0
100
AcDbBlockBegin
2
VDDIM_NONE
70
0
10
0.0
20
0.0
30
0.0
3
VDDIM_NONE
1

0
ENDBLK
5
28E
330
23E
100
AcDbEntity
8
0
100
AcDbBlockEnd
  0
BLOCK
  5
F10025
330
F1000C
100
AcDbEntity
  8
0
100
AcDbBlockBegin
  2
*D5
 70
     1
 10
0.0
 20
0.0
 30
0.0
  3
*D5
  1

  0
LINE
  5
F10026
330
F1000C
100
AcDbEntity
  8
Bemassung
 62
     0
370
    -2
100
AcDbLine
10
2.65144766146990
20
6.87082405345211
30
0.000000000000000
11
2.65144766146990
21
28.8708240534521
31
0.000000000000000
  0
LINE
  5
F10027
330
F1000C
100
AcDbEntity
  8
Bemassung
 62
     0
370
    -2
100
AcDbLine
10
42.6514476614699
20
6.17082405345211
30
0.000000000000000
11
42.6514476614699
21
43.8708240534521
31
0.000000000000000
  0
LINE
  5
F10028
330
F1000C
100
AcDbEntity
  8
Bemassung
 62
     0
370
    -2
100
AcDbLine
10
2.65144766146990
20
26.8708240534521
30
0.000000000000000
11
42.6514476614699
21
26.8708240534521
31
0.000000000000000
  0
INSERT
  5
F10029
330
F1000C
100
AcDbEntity
  8
Bemassung
 62
     0
370
    -2
100
AcDbBlockReference
  2
VDDIM_DEFAULT
10
2.65144766146990
20
26.8708240534521
30
0.000000000000000
 41
2.50000000000000
 42
2.50000000000000
 43
2.50000000000000
 50
180.000000000000
  0
INSERT
  5
F1002A
330
F1000C
100
AcDbEntity
  8
Bemassung
 62
     0
370
    -2
100
AcDbBlockReference
  2
VDDIM_DEFAULT
10
42.6514476614699
20
26.8708240534521
30
0.000000000000000
 41
2.50000000000000
 42
2.50000000000000
 43
2.50000000000000
  0
MTEXT
  5
F1002B
102
{ACAD_XDICTIONARY
360
F1000F
102
}
330
F1000C
100
AcDbEntity
  8
Bemassung
 62
     0
100
AcDbMText
10
20.3063149181071
20
26.2041573867854
30
0.000000000000000
 40
2.50000000000000
 41
0.0
 71
     8
 72
     1
  1
\A1;40
 11
1.00000000000000
 21
0.000000000000000
 31
0.0
 73
     1
 44
1.0
1001
ACAD
1000
MTEXTBEGIN
1070
73
1070
1
1070
44
1040
1.0
1070
74
1070
0
1000
MTEXTEND
  0
POINT
  5
F1002C
330
F1000C
100
AcDbEntity
  8
Bemassung
 62
     0
100
AcDbPoint
10
2.65144766146990
20
6.87082405345211
30
0.000000000000000
  0
POINT
  5
F1002D
330
F1000C
100
AcDbEntity
  8
Bemassung
 62
     0
100
AcDbPoint
10
42.6514476614699
20
6.17082405345211
30
0.000000000000000
  0
ENDBLK
  5
F1002E
330
F1000C
100
AcDbEntity
  8
0
100
AcDbBlockEnd
  0
BLOCK
  5
F1002F
330
F10016
100
AcDbEntity
  8
0
100
AcDbBlockBegin
  2
*D7
 70
     1
 10
0.0
 20
0.0
 30
0.0
  3
*D7
  1

  0
LINE
  5
F10030
330
F10016
100
AcDbEntity
  8
Bemassung
 62
     0
370
    -2
100
AcDbLine
10
-7.34855233853010
20
-2.87917594654789
30
0.000000000000000
11
-7.34855233853010
21
-20.1291759465479
31
0.000000000000000
  0
LINE
  5
F10031
330
F10016
100
AcDbEntity
  8
Bemassung
 62
     0
370
    -2
100
AcDbLine
10
-29.3485523385301
20
-20.1291759465479
30
0.000000000000000
11
-29.3485523385301
21
43.8708240534521
31
0.000000000000000
  0
LINE
  5
F10032
330
F10016
100
AcDbEntity
  8
Bemassung
 62
     0
370
    -2
100
AcDbLine
10
-7.34855233853010
20
-18.1291759465479
30
0.000000000000000
11
-29.3485523385301
21
-18.1291759465479
31
0.000000000000000
  0
INSERT
  5
F10033
330
F10016
100
AcDbEntity
  8
Bemassung
 62
     0
370
    -2
100
AcDbBlockReference
  2
VDDIM_DEFAULT
10
-7.34855233853010
20
-18.1291759465479
30
0.000000000000000
 41
2.50000000000000
 42
2.50000000000000
 43
2.50000000000000
  0
INSERT
  5
F10034
330
F10016
100
AcDbEntity
  8
Bemassung
 62
     0
370
    -2
100
AcDbBlockReference
  2
VDDIM_DEFAULT
10
-29.3485523385301
20
-18.1291759465479
30
0.000000000000000
 41
2.50000000000000
 42
2.50000000000000
 43
2.50000000000000
 50
180.000000000000
  0
MTEXT
  5
F10035
102
{ACAD_XDICTIONARY
360
F10019
102
}
330
F10016
100
AcDbEntity
  8
Bemassung
 62
     0
100
AcDbMText
10
-18.5653664978222
20
-17.4625092798812
30
0.000000000000000
 40
2.50000000000000
 41
0.0
 71
     8
 72
     1
  1
\A1;22
 11
1.00000000000000
 21
0.000000000000000
 31
0.0
 73
     1
 44
1.0
1001
ACAD
1000
MTEXTBEGIN
1070
73
1070
1
1070
44
1040
1.0
1070
74
1070
0
1000
MTEXTEND
  0
POINT
  5
F10036
330
F10016
100
AcDbEntity
  8
Bemassung
 62
     0
100
AcDbPoint
10
-7.34855233853010
20
-2.87917594654789
30
0.000000000000000
  0
POINT
  5
F10037
330
F10016
100
AcDbEntity
  8
Bemassung
 62
     0
100
AcDbPoint
10
-29.3485523385301
20
-20.1291759465479
30
0.000000000000000
  0
ENDBLK
  5
F10038
330
F10016
100
AcDbEntity
  8
0
100
AcDbBlockEnd
  0
BLOCK
  5
F10039
330
F1001B
100
AcDbEntity
  8
0
100
AcDbBlockBegin
  2
*D8
 70
     1
 10
0.0
 20
0.0
 30
0.0
  3
*D8
  1

  0
LINE
  5
F1003A
330
F1001B
100
AcDbEntity
  8
Bemassung
 62
     0
370
    -2
100
AcDbLine
10
42.6514476614699
20
6.17082405345211
30
0.000000000000000
11
42.6514476614699
21
43.8708240534521
31
0.000000000000000
  0
LINE
  5
F1003B
330
F1001B
100
AcDbEntity
  8
Bemassung
 62
     0
370
    -2
100
AcDbLine
10
-29.3485523385301
20
-20.1291759465479
30
0.000000000000000
11
-29.3485523385301
21
43.8708240534521
31
0.000000000000000
  0
LINE
  5
F1003C
330
F1001B
100
AcDbEntity
  8
Bemassung
 62
     0
370
    -2
100
AcDbLine
10
42.6514476614699
20
41.8708240534521
30
0.000000000000000
11
-29.3485523385301
21
41.8708240534521
31
0.000000000000000
  0
INSERT
  5
F1003D
330
F1001B
100
AcDbEntity
  8
Bemassung
 62
     0
370
    -2
100
AcDbBlockReference
  2
VDDIM_DEFAULT
10
42.6514476614699
20
41.8708240534521
30
0.000000000000000
 41
2.50000000000000
 42
2.50000000000000
 43
2.50000000000000
  0
INSERT
  5
F1003E
330
F1001B
100
AcDbEntity
  8
Bemassung
 62
     0
370
    -2
100
AcDbBlockReference
  2
VDDIM_DEFAULT
10
-29.3485523385301
20
41.8708240534521
30
0.000000000000000
 41
2.50000000000000
 42
2.50000000000000
 43
2.50000000000000
 50
180.000000000000
  0
MTEXT
  5
F1003F
102
{ACAD_XDICTIONARY
360
F1001E
102
}
330
F1001B
100
AcDbEntity
  8
Bemassung
 62
     0
100
AcDbMText
10
4.81958925439020
20
42.5374907201188
30
0.000000000000000
 40
2.50000000000000
 41
0.0
 71
     8
 72
     1
  1
\A1;72
 11
1.00000000000000
 21
0.000000000000000
 31
0.0
 73
     1
 44
1.0
1001
ACAD
1000
MTEXTBEGIN
1070
73
1070
1
1070
44
1040
1.0
1070
74
1070
0
1000
MTEXTEND
  0
POINT
  5
F10040
330
F1001B
100
AcDbEntity
  8
Bemassung
 62
     0
100
AcDbPoint
10
42.6514476614699
20
6.17082405345211
30
0.000000000000000
  0
POINT
  5
F10041
330
F1001B
100
AcDbEntity
  8
Bemassung
 62
     0
100
AcDbPoint
10
-29.3485523385301
20
-20.1291759465479
30
0.000000000000000
  0
ENDBLK
  5
F10042
330
F1001B
100
AcDbEntity
  8
0
100
AcDbBlockEnd
  0
BLOCK
  5
F10043
330
F10020
100
AcDbEntity
  8
0
100
AcDbBlockBegin
  2
*D9
 70
     1
 10
0.0
 20
0.0
 30
0.0
  3
*D9
  1

  0
LINE
  5
F10044
330
F10020
100
AcDbEntity
  8
Bemassung
 62
     0
370
    -2
100
AcDbLine
10
-29.3485523385301
20
1.87082405345211
30
0.000000000000000
11
-29.3485523385301
21
28.7978152038945
31
0.000000000000000
  0
LINE
  5
F10045
330
F10020
100
AcDbEntity
  8
Bemassung
 62
     0
370
    -2
100
AcDbLine
10
2.65144766146990
20
-3.12917594654789
30
0.000000000000000
11
2.65144766146990
21
28.7978152038945
31
0.000000000000000
  0
LINE
  5
F10046
330
F10020
100
AcDbEntity
  8
Bemassung
 62
     0
370
    -2
100
AcDbLine
10
-29.3485523385301
20
26.7978152038945
30
0.000000000000000
11
2.65144766146990
21
26.7978152038945
31
0.000000000000000
  0
INSERT
  5
F10047
330
F10020
100
AcDbEntity
  8
Bemassung
 62
     0
370
    -2
100
AcDbBlockReference
  2
VDDIM_DEFAULT
10
-29.3485523385301
20
26.7978152038945
30
0.000000000000000
 41
2.50000000000000
 42
2.50000000000000
 43
2.50000000000000
 50
180.000000000000
  0
INSERT
  5
F10048
330
F10020
100
AcDbEntity
  8
Bemassung
 62
     0
370
    -2
100
AcDbBlockReference
  2
VDDIM_DEFAULT
10
2.65144766146990
20
26.7978152038945
30
0.000000000000000
 41
2.50000000000000
 42
2.50000000000000
 43
2.50000000000000
  0
MTEXT
  5
F10049
102
{ACAD_XDICTIONARY
360
F10023
102
}
330
F10020
100
AcDbEntity
  8
Bemassung
 62
     0
100
AcDbMText
10
-14.4613841969372
20
26.1311485372278
30
0.000000000000000
 40
2.50000000000000
 41
0.0
 71
     8
 72
     1
  1
\A1;32
 11
1.00000000000000
 21
0.000000000000000
 31
0.0
 73
     1
 44
1.0
1001
ACAD
1000
MTEXTBEGIN
1070
73
1070
1
1070
44
1040
1.0
1070
74
1070
0
1000
MTEXTEND
  0
POINT
  5
F1004A
330
F10020
100
AcDbEntity
  8
Bemassung
 62
     0
100
AcDbPoint
10
-29.3485523385301
20
1.87082405345211
30
0.000000000000000
  0
POINT
  5
F1004B
330
F10020
100
AcDbEntity
  8
Bemassung
 62
     0
100
AcDbPoint
10
2.65144766146990
20
-3.12917594654789
30
0.000000000000000
  0
ENDBLK
  5
F1004C
330
F10020
100
AcDbEntity
  8
0
100
AcDbBlockEnd
  0
BLOCK
  5
F1004D
330
F10002
100
AcDbEntity
  8
0
100
AcDbBlockBegin
  2
*D3
 70
     1
 10
0.0
 20
0.0
 30
0.0
  3
*D3
  1

  0
LINE
  5
F1004E
330
F10002
100
AcDbEntity
  8
Bemassung
 62
     0
370
    -2
100
AcDbLine
10
-29.1985523385301
20
-3.12917594654789
30
0.000000000000000
11
-46.3485523385301
21
-3.12917594654789
31
0.000000000000000
  0
LINE
  5
F1004F
330
F10002
100
AcDbEntity
  8
Bemassung
 62
     0
370
    -2
100
AcDbLine
10
-29.1985523385301
20
6.87082405345211
30
0.000000000000000
11
-46.3485523385301
21
6.87082405345211
31
0.000000000000000
  0
LINE
  5
F10050
330
F10002
100
AcDbEntity
  8
Bemassung
 62
     0
370
    -2
100
AcDbLine
10
-44.3485523385301
20
-3.12917594654789
30
0.000000000000000
11
-44.3485523385301
21
6.87082405345211
31
0.000000000000000
  0
INSERT
  5
F10051
330
F10002
100
AcDbEntity
  8
Bemassung
 62
     0
370
    -2
100
AcDbBlockReference
  2
VDDIM_DEFAULT
10
-44.3485523385301
20
-3.12917594654789
30
0.000000000000000
 41
2.50000000000000
 42
2.50000000000000
 43
2.50000000000000
 50
90.0000000000000
  0
INSERT
  5
F10052
330
F10002
100
AcDbEntity
  8
Bemassung
 62
     0
370
    -2
100
AcDbBlockReference
  2
VDDIM_DEFAULT
10
-44.3485523385301
20
6.87082405345211
30
0.000000000000000
 41
2.50000000000000
 42
2.50000000000000
 43
2.50000000000000
 50
270.000000000000
  0
MTEXT
  5
F10053
102
{ACAD_XDICTIONARY
360
F10005
102
}
330
F10002
100
AcDbEntity
  8
Bemassung
 62
     0
100
AcDbMText
10
-45.0152190051968
20
1.40622228354057
30
0.000000000000000
 40
2.50000000000000
 41
0.0
 71
     8
 72
     1
  1
\A1;%%c10
 11
6.12323399573677e-017
 21
1.00000000000000
 31
0.0
 73
     1
 44
1.0
1001
ACAD
1000
MTEXTBEGIN
1070
73
1070
1
1070
44
1040
1.0
1070
74
1070
0
1000
MTEXTEND
  0
POINT
  5
F10054
330
F10002
100
AcDbEntity
  8
Bemassung
 62
     0
100
AcDbPoint
10
-29.1985523385301
20
-3.12917594654789
30
0.000000000000000
  0
POINT
  5
F10055
330
F10002
100
AcDbEntity
  8
Bemassung
 62
     0
100
AcDbPoint
10
-29.1985523385301
20
6.87082405345211
30
0.000000000000000
  0
ENDBLK
  5
F10056
330
F10002
100
AcDbEntity
  8
0
100
AcDbBlockEnd
  0
BLOCK
  5
F10057
330
F10007
100
AcDbEntity
  8
0
100
AcDbBlockBegin
  2
*D4
 70
     1
 10
0.0
 20
0.0
 30
0.0
  3
*D4
  1

  0
LINE
  5
F10058
330
F10007
100
AcDbEntity
  8
Bemassung
 62
     0
370
    -2
100
AcDbLine
10
-1.95806561286637
20
-2.87917594654789
30
0.000000000000000
11
2.65144766146990
21
-2.87917594654789
31
0.000000000000000
  0
LINE
  5
F10059
330
F10007
100
AcDbEntity
  8
Bemassung
 62
     0
370
    -2
100
AcDbLine
10
-1.95806561286637
20
6.62082405345211
30
0.000000000000000
11
2.65144766146990
21
6.62082405345211
31
0.000000000000000
  0
LINE
  5
F1005A
330
F10007
100
AcDbEntity
  8
Bemassung
 62
     0
370
    -2
100
AcDbLine
10
0.0419343871336331
20
-2.87917594654789
30
0.000000000000000
11
0.0419343871336331
21
6.62082405345211
31
0.000000000000000
  0
INSERT
  5
F1005B
330
F10007
100
AcDbEntity
  8
Bemassung
 62
     0
370
    -2
100
AcDbBlockReference
  2
VDDIM_DEFAULT
10
0.0419343871336331
20
-2.87917594654789
30
0.000000000000000
 41
2.50000000000000
 42
2.50000000000000
 43
2.50000000000000
 50
90.0000000000000
  0
INSERT
  5
F1005C
330
F10007
100
AcDbEntity
  8
Bemassung
 62
     0
370
    -2
100
AcDbBlockReference
  2
VDDIM_DEFAULT
10
0.0419343871336331
20
6.62082405345211
30
0.000000000000000
 41
2.50000000000000
 42
2.50000000000000
 43
2.50000000000000
 50
270.000000000000
  0
MTEXT
  5
F1005D
102
{ACAD_XDICTIONARY
360
F1000A
102
}
330
F10007
100
AcDbEntity
  8
Bemassung
 62
     0
100
AcDbMText
10
-0.624732279533034
20
-4.42674231822930
30
0.000000000000000
 40
2.50000000000000
 41
0.0
 71
     8
 72
     1
  1
\A1;%%c9.5
 11
6.12323399573677e-017
 21
1.00000000000000
 31
0.0
 73
     1
 44
1.0
1001
ACAD
1000
MTEXTBEGIN
1070
73
1070
1
1070
44
1040
1.0
1070
74
1070
0
1000
MTEXTEND
  0
POINT
  5
F1005E
330
F10007
100
AcDbEntity
  8
Bemassung
 62
     0
100
AcDbPoint
10
-1.95806561286637
20
-2.87917594654789
30
0.000000000000000
  0
POINT
  5
F1005F
330
F10007
100
AcDbEntity
  8
Bemassung
 62
     0
100
AcDbPoint
10
-1.95806561286637
20
6.62082405345211
30
0.000000000000000
  0
ENDBLK
  5
F10060
330
F10007
100
AcDbEntity
  8
0
100
AcDbBlockEnd
  0
BLOCK
  5
F10061
330
F10011
100
AcDbEntity
  8
0
100
AcDbBlockBegin
  2
*D6
 70
     1
 10
0.0
 20
0.0
 30
0.0
  3
*D6
  1

  0
LINE
  5
F10062
330
F10011
100
AcDbEntity
  8
Bemassung
 62
     0
370
    -2
100
AcDbLine
10
41.9514476614699
20
-3.12917594654789
30
0.000000000000000
11
54.6514476614699
21
-3.12917594654789
31
0.000000000000000
  0
LINE
  5
F10063
330
F10011
100
AcDbEntity
  8
Bemassung
 62
     0
370
    -2
100
AcDbLine
10
41.9514476614699
20
6.87082405345211
30
0.000000000000000
11
54.6514476614699
21
6.87082405345211
31
0.000000000000000
  0
LINE
  5
F10064
330
F10011
100
AcDbEntity
  8
Bemassung
 62
     0
370
    -2
100
AcDbLine
10
52.6514476614699
20
-3.12917594654789
30
0.000000000000000
11
52.6514476614699
21
6.87082405345211
31
0.000000000000000
  0
INSERT
  5
F10065
330
F10011
100
AcDbEntity
  8
Bemassung
 62
     0
370
    -2
100
AcDbBlockReference
  2
VDDIM_DEFAULT
10
52.6514476614699
20
-3.12917594654789
30
0.000000000000000
 41
2.50000000000000
 42
2.50000000000000
 43
2.50000000000000
 50
90.0000000000000
  0
INSERT
  5
F10066
330
F10011
100
AcDbEntity
  8
Bemassung
 62
     0
370
    -2
100
AcDbBlockReference
  2
VDDIM_DEFAULT
10
52.6514476614699
20
6.87082405345211
30
0.000000000000000
 41
2.50000000000000
 42
2.50000000000000
 43
2.50000000000000
 50
270.000000000000
  0
MTEXT
  5
F10067
330
F10011
100
AcDbEntity
  8
Bemassung
 62
     0
100
AcDbMText
10
51.9847809948032
20
1.87082405345211
30
0.000000000000000
 40
2.50000000000000
 41
0.0
 71
     8
 72
     1
  1
\A1;%%c10 h6
 11
6.12323399573677e-017
 21
1.00000000000000
 31
0.0
 73
     1
 44
1.0
  0
POINT
  5
F10068
330
F10011
100
AcDbEntity
  8
Bemassung
 62
     0
100
AcDbPoint
10
41.9514476614699
20
-3.12917594654789
30
0.000000000000000
  0
POINT
  5
F10069
330
F10011
100
AcDbEntity
  8
Bemassung
 62
     0
100
AcDbPoint
10
41.9514476614699
20
6.87082405345211
30
0.000000000000000
  0
ENDBLK
  5
F1006A
330
F10011
100
AcDbEntity
  8
0
100
AcDbBlockEnd
0
ENDSEC
0
SECTION
2
ENTITIES
  0
DIMENSION
  5
F1000D
330
261
100
AcDbEntity
  8
Bemassung
100
AcDbDimension
  2
*D5
10
42.6514476614699
20
26.8708240534521
30
0.000000000000000
11
20.3063149181071
21
26.2041573867854
31
0.000000000000000
 70
32
 1
<>
 71
     8
  3
BEM-ISBE
100
AcDbAlignedDimension
13
2.65144766146990
23
6.87082405345211
33
0.000000000000000
14
42.6514476614699
24
6.17082405345211
34
0.000000000000000
100
AcDbRotatedDimension
1001
ACAD
1000
DSTYLE
1002
{
1070
284
1070
8
1070
78
1070
8
1070
144
1040
1.00000000000000
1070
147
1040
0.625
1070
 72
1070
 0
1070
 71
1070
 0
1002
}
  0
DIMENSION
  5
F10017
330
261
100
AcDbEntity
  8
Bemassung
100
AcDbDimension
  2
*D7
10
-29.3485523385301
20
-18.1291759465479
30
0.000000000000000
11
-18.5653664978222
21
-17.4625092798812
31
0.000000000000000
 70
32
 1
<>
 71
     8
  3
BEM-ISBE
100
AcDbAlignedDimension
13
-7.34855233853010
23
-2.87917594654789
33
0.000000000000000
14
-29.3485523385301
24
-20.1291759465479
34
0.000000000000000
100
AcDbRotatedDimension
1001
ACAD
1000
DSTYLE
1002
{
1070
284
1070
8
1070
78
1070
8
1070
144
1040
1.00000000000000
1070
147
1040
0.625
1070
 72
1070
 0
1070
 71
1070
 0
1002
}
  0
DIMENSION
  5
F1001C
330
261
100
AcDbEntity
  8
Bemassung
100
AcDbDimension
  2
*D8
10
-29.3485523385301
20
41.8708240534521
30
0.000000000000000
11
4.81958925439020
21
42.5374907201188
31
0.000000000000000
 70
32
 1
<>
 71
     8
  3
BEM-ISBE
100
AcDbAlignedDimension
13
42.6514476614699
23
6.17082405345211
33
0.000000000000000
14
-29.3485523385301
24
-20.1291759465479
34
0.000000000000000
100
AcDbRotatedDimension
1001
ACAD
1000
DSTYLE
1002
{
1070
284
1070
8
1070
78
1070
8
1070
144
1040
1.00000000000000
1070
147
1040
0.625
1070
 72
1070
 0
1070
 71
1070
 0
1002
}
  0
DIMENSION
  5
F10021
330
261
100
AcDbEntity
  8
Bemassung
100
AcDbDimension
  2
*D9
10
2.65144766146990
20
26.7978152038945
30
0.000000000000000
11
-14.4613841969372
21
26.1311485372278
31
0.000000000000000
 70
32
 1
<>
 71
     8
  3
BEM-ISBE
100
AcDbAlignedDimension
13
-29.3485523385301
23
1.87082405345211
33
0.000000000000000
14
2.65144766146990
24
-3.12917594654789
34
0.000000000000000
100
AcDbRotatedDimension
1001
ACAD
1000
DSTYLE
1002
{
1070
284
1070
8
1070
78
1070
8
1070
144
1040
1.00000000000000
1070
147
1040
0.625
1070
 72
1070
 0
1070
 71
1070
 0
1002
}
  0
DIMENSION
  5
F10003
330
261
100
AcDbEntity
  8
Bemassung
100
AcDbDimension
  2
*D3
10
-44.3485523385301
20
6.87082405345211
30
0.000000000000000
11
-45.0152190051968
21
1.40622228354057
31
0.000000000000000
 70
32
 1
%%c<>
 71
     8
  3
BEM-ISBE
100
AcDbAlignedDimension
13
-29.1985523385301
23
-3.12917594654789
33
0.000000000000000
14
-29.1985523385301
24
6.87082405345211
34
0.000000000000000
50
90.0000000000000
100
AcDbRotatedDimension
1001
ACAD
1000
DSTYLE
1002
{
1070
284
1070
8
1070
78
1070
8
1070
144
1040
1.00000000000000
1070
147
1040
0.625
1070
 72
1070
 0
1070
 71
1070
 0
1002
}
  0
DIMENSION
  5
F10008
330
261
100
AcDbEntity
  8
Bemassung
100
AcDbDimension
  2
*D4
10
0.0419343871336331
20
6.62082405345211
30
0.000000000000000
11
-0.624732279533034
21
-4.42674231822930
31
0.000000000000000
 70
32
 1
%%c<>
 71
     8
  3
BEM-ISBE
100
AcDbAlignedDimension
13
-1.95806561286637
23
-2.87917594654789
33
0.000000000000000
14
-1.95806561286637
24
6.62082405345211
34
0.000000000000000
50
90.0000000000000
100
AcDbRotatedDimension
1001
ACAD
1000
DSTYLE
1002
{
1070
284
1070
8
1070
78
1070
8
1070
144
1040
1.00000000000000
1070
147
1040
0.625
1070
 72
1070
 0
1070
 71
1070
 0
1002
}
  0
DIMENSION
  5
F10012
330
261
100
AcDbEntity
  8
Bemassung
100
AcDbDimension
  2
*D6
10
52.6514476614699
20
6.87082405345211
30
0.000000000000000
11
51.9847809948032
21
1.87082405345211
31
0.000000000000000
 70
32
 1
%%c<> h6
 71
     8
  3
BEM-ISBE
100
AcDbAlignedDimension
13
41.9514476614699
23
-3.12917594654789
33
0.000000000000000
14
41.9514476614699
24
6.87082405345211
34
0.000000000000000
50
90.0000000000000
100
AcDbRotatedDimension
1001
ACAD
1000
DSTYLE
1002
{
1070
284
1070
8
1070
78
1070
8
1070
144
1040
1.00000000000000
1070
147
1040
0.625
1070
 72
1070
 0
1070
 71
1070
 0
1002
}
  0
LINE
  5
F1006B
330
F1006C
100
AcDbEntity
8
Geo
100
AcDbLine
10
-29.3485523385301
20
1.87082405345211
30
0.000000000000000
11
-29.3485523385301
21
6.72082405345211
31
0.000000000000000
  0
LINE
  5
F1006D
330
F1006E
100
AcDbEntity
8
Geo
100
AcDbLine
10
-29.3485523385301
20
6.72082405345211
30
0.000000000000000
11
-29.1985523385301
21
6.87082405345211
31
0.000000000000000
  0
LINE
  5
F1006F
330
F10070
100
AcDbEntity
8
Geo
100
AcDbLine
10
-29.1985523385301
20
6.87082405345211
30
0.000000000000000
11
-7.34855233853010
21
6.87082405345211
31
0.000000000000000
  0
LINE
  5
F10071
330
F10072
100
AcDbEntity
8
Geo
100
AcDbLine
10
-7.34855233853010
20
6.87082405345211
30
0.000000000000000
11
-7.34855233853010
21
6.62082405345211
31
0.000000000000000
  0
LINE
  5
F10073
330
F10074
100
AcDbEntity
8
Geo
100
AcDbLine
10
-7.34855233853010
20
6.62082405345211
30
0.000000000000000
11
2.65144766146990
21
6.62082405345211
31
0.000000000000000
  0
LINE
  5
F10075
330
F10076
100
AcDbEntity
8
Geo
100
AcDbLine
10
2.65144766146990
20
6.62082405345211
30
0.000000000000000
11
2.65144766146990
21
6.87082405345211
31
0.000000000000000
  0
LINE
  5
F10077
330
F10078
100
AcDbEntity
8
Geo
100
AcDbLine
10
2.65144766146990
20
6.87082405345211
30
0.000000000000000
11
41.9514476614699
21
6.87082405345211
31
0.000000000000000
  0
LINE
  5
F10079
330
F1007A
100
AcDbEntity
8
Geo
100
AcDbLine
10
41.9514476614699
20
6.87082405345211
30
0.000000000000000
11
42.6514476614699
21
6.17082405345211
31
0.000000000000000
  0
LINE
  5
F1007B
330
F1007C
100
AcDbEntity
8
Geo
100
AcDbLine
10
-24.1485523385301
20
6.87081665018890
30
0.000000000000000
11
-24.0485523385301
21
6.87025696871978
31
0.000000000000000
  0
LINE
  5
F1007D
330
F1007E
100
AcDbEntity
8
Geo
100
AcDbLine
10
-24.0485523385301
20
6.87025696871978
30
0.000000000000000
11
-23.9485523385301
21
6.86828930362493
31
0.000000000000000
  0
LINE
  5
F1007F
330
F10080
100
AcDbEntity
8
Geo
100
AcDbLine
10
-23.9485523385301
20
6.86828930362493
30
0.000000000000000
11
-23.8485523385301
21
6.86491420905525
31
0.000000000000000
  0
LINE
  5
F10081
330
F10082
100
AcDbEntity
8
Geo
100
AcDbLine
10
-23.8485523385301
20
6.86491420905525
30
0.000000000000000
11
-23.7485523385301
21
6.86013263553411
31
0.000000000000000
  0
LINE
  5
F10083
330
F10084
100
AcDbEntity
8
Geo
100
AcDbLine
10
-23.7485523385301
20
6.86013263553411
30
0.000000000000000
11
-23.6485523385301
21
6.85394592968970
31
0.000000000000000
  0
LINE
  5
F10085
330
F10086
100
AcDbEntity
8
Geo
100
AcDbLine
10
-23.6485523385301
20
6.85394592968970
30
0.000000000000000
11
-23.5485523385301
21
6.84635583387573
31
0.000000000000000
  0
LINE
  5
F10087
330
F10088
100
AcDbEntity
8
Geo
100
AcDbLine
10
-23.5485523385301
20
6.84635583387573
30
0.000000000000000
11
-23.4485523385301
21
6.83736448568076
31
0.000000000000000
  0
LINE
  5
F10089
330
F1008A
100
AcDbEntity
8
Geo
100
AcDbLine
10
-23.4485523385301
20
6.83736448568076
30
0.000000000000000
11
-23.3485523385301
21
6.82697441732620
31
0.000000000000000
  0
LINE
  5
F1008B
330
F1008C
100
AcDbEntity
8
Geo
100
AcDbLine
10
-23.3485523385301
20
6.82697441732620
30
0.000000000000000
11
-23.2485523385301
21
6.81518855495315
31
0.000000000000000
  0
LINE
  5
F1008D
330
F1008E
100
AcDbEntity
8
Geo
100
AcDbLine
10
-23.2485523385301
20
6.81518855495315
30
0.000000000000000
11
-23.1485523385301
21
6.80201021779831
31
0.000000000000000
  0
LINE
  5
F1008F
330
F10090
100
AcDbEntity
8
Geo
100
AcDbLine
10
-23.1485523385301
20
6.80201021779831
30
0.000000000000000
11
-23.0485523385301
21
6.78744311725920
31
0.000000000000000
  0
LINE
  5
F10091
330
F10092
100
AcDbEntity
8
Geo
100
AcDbLine
10
-23.0485523385301
20
6.78744311725920
30
0.000000000000000
11
-22.9485523385301
21
6.77149135584892
31
0.000000000000000
  0
LINE
  5
F10093
330
F10094
100
AcDbEntity
8
Geo
100
AcDbLine
10
-22.9485523385301
20
6.77149135584892
30
0.000000000000000
11
-22.8485523385301
21
6.75415942604077
31
0.000000000000000
  0
LINE
  5
F10095
330
F10096
100
AcDbEntity
8
Geo
100
AcDbLine
10
-22.8485523385301
20
6.75415942604077
30
0.000000000000000
11
-22.7485523385301
21
6.73545220900303
31
0.000000000000000
  0
LINE
  5
F10097
330
F10098
100
AcDbEntity
8
Geo
100
AcDbLine
10
-22.7485523385301
20
6.73545220900303
30
0.000000000000000
11
-22.6485523385301
21
6.71537497322428
31
0.000000000000000
  0
LINE
  5
F10099
330
F1009A
100
AcDbEntity
8
Geo
100
AcDbLine
10
-22.6485523385301
20
6.71537497322428
30
0.000000000000000
11
-22.5485523385301
21
6.69393337302968
31
0.000000000000000
  0
LINE
  5
F1009B
330
F1009C
100
AcDbEntity
8
Geo
100
AcDbLine
10
-22.5485523385301
20
6.69393337302968
30
0.000000000000000
11
-22.4485523385301
21
6.67113344698850
31
0.000000000000000
  0
LINE
  5
F1009D
330
F1009E
100
AcDbEntity
8
Geo
100
AcDbLine
10
-22.4485523385301
20
6.67113344698850
30
0.000000000000000
11
-22.3485523385301
21
6.64698161621350
31
0.000000000000000
  0
LINE
  5
F1009F
330
F100A0
100
AcDbEntity
8
Geo
100
AcDbLine
10
-22.3485523385301
20
6.64698161621350
30
0.000000000000000
11
-22.2485523385301
21
6.62148468255258
31
0.000000000000000
  0
LINE
  5
F100A1
330
F100A2
100
AcDbEntity
8
Geo
100
AcDbLine
10
-22.2485523385301
20
6.62148468255258
30
0.000000000000000
11
-22.1485523385301
21
6.59464982667317
31
0.000000000000000
  0
LINE
  5
F100A3
330
F100A4
100
AcDbEntity
8
Geo
100
AcDbLine
10
-22.1485523385301
20
6.59464982667317
30
0.000000000000000
11
-22.0485523385301
21
6.56648460603995
31
0.000000000000000
  0
LINE
  5
F100A5
330
F100A6
100
AcDbEntity
8
Geo
100
AcDbLine
10
-22.0485523385301
20
6.56648460603995
30
0.000000000000000
11
-21.9485523385301
21
6.53699695278646
31
0.000000000000000
  0
LINE
  5
F100A7
330
F100A8
100
AcDbEntity
8
Geo
100
AcDbLine
10
-21.9485523385301
20
6.53699695278646
30
0.000000000000000
11
-21.8485523385301
21
6.50619517148115
31
0.000000000000000
  0
LINE
  5
F100A9
330
F100AA
100
AcDbEntity
8
Geo
100
AcDbLine
10
-21.8485523385301
20
6.50619517148115
30
0.000000000000000
11
-21.7485523385301
21
6.47408793678864
31
0.000000000000000
  0
LINE
  5
F100AB
330
F100AC
100
AcDbEntity
8
Geo
100
AcDbLine
10
-21.7485523385301
20
6.47408793678864
30
0.000000000000000
11
-21.6485523385301
21
6.44068429102661
31
0.000000000000000
  0
LINE
  5
F100AD
330
F100AE
100
AcDbEntity
8
Geo
100
AcDbLine
10
-21.6485523385301
20
6.44068429102661
30
0.000000000000000
11
-21.5485523385301
21
6.40599364161927
31
0.000000000000000
  0
LINE
  5
F100AF
330
F100B0
100
AcDbEntity
8
Geo
100
AcDbLine
10
-21.5485523385301
20
6.40599364161927
30
0.000000000000000
11
-21.4485523385301
21
6.37002575844797
31
0.000000000000000
  0
LINE
  5
F100B1
330
F100B2
100
AcDbEntity
8
Geo
100
AcDbLine
10
-21.4485523385301
20
6.37002575844797
30
0.000000000000000
11
-21.3485523385301
21
6.33279077109969
31
0.000000000000000
  0
LINE
  5
F100B3
330
F100B4
100
AcDbEntity
8
Geo
100
AcDbLine
10
-21.3485523385301
20
6.33279077109969
30
0.000000000000000
11
-21.2485523385301
21
6.29429916601426
31
0.000000000000000
  0
LINE
  5
F100B5
330
F100B6
100
AcDbEntity
8
Geo
100
AcDbLine
10
-21.2485523385301
20
6.29429916601426
30
0.000000000000000
11
-21.1485523385301
21
6.25456178353109
31
0.000000000000000
  0
LINE
  5
F100B7
330
F100B8
100
AcDbEntity
8
Geo
100
AcDbLine
10
-21.1485523385301
20
6.25456178353109
30
0.000000000000000
11
-21.0485523385301
21
6.21358981483624
31
0.000000000000000
  0
LINE
  5
F100B9
330
F100BA
100
AcDbEntity
8
Geo
100
AcDbLine
10
-21.0485523385301
20
6.21358981483624
30
0.000000000000000
11
-20.9485523385301
21
6.17139479881061
31
0.000000000000000
  0
LINE
  5
F100BB
330
F100BC
100
AcDbEntity
8
Geo
100
AcDbLine
10
-20.9485523385301
20
6.17139479881061
30
0.000000000000000
11
-20.8485523385301
21
6.12798861878031
31
0.000000000000000
  0
LINE
  5
F100BD
330
F100BE
100
AcDbEntity
8
Geo
100
AcDbLine
10
-20.8485523385301
20
6.12798861878031
30
0.000000000000000
11
-20.7485523385301
21
6.08338349916993
31
0.000000000000000
  0
LINE
  5
F100BF
330
F100C0
100
AcDbEntity
8
Geo
100
AcDbLine
10
-20.7485523385301
20
6.08338349916993
30
0.000000000000000
11
-20.6485523385301
21
6.03759200205984
31
0.000000000000000
  0
LINE
  5
F100C1
330
F100C2
100
AcDbEntity
8
Geo
100
AcDbLine
10
-20.6485523385301
20
6.03759200205984
30
0.000000000000000
11
-20.5485523385301
21
5.99062702364831
31
0.000000000000000
  0
LINE
  5
F100C3
330
F100C4
100
AcDbEntity
8
Geo
100
AcDbLine
10
-20.5485523385301
20
5.99062702364831
30
0.000000000000000
11
-20.4485523385301
21
5.94250179061959
31
0.000000000000000
  0
LINE
  5
F100C5
330
F100C6
100
AcDbEntity
8
Geo
100
AcDbLine
10
-20.4485523385301
20
5.94250179061959
30
0.000000000000000
11
-20.3485523385301
21
5.89322985641889
31
0.000000000000000
  0
LINE
  5
F100C7
330
F100C8
100
AcDbEntity
8
Geo
100
AcDbLine
10
-20.3485523385301
20
5.89322985641889
30
0.000000000000000
11
-20.2485523385301
21
5.84282509743534
31
0.000000000000000
  0
LINE
  5
F100C9
330
F100CA
100
AcDbEntity
8
Geo
100
AcDbLine
10
-20.2485523385301
20
5.84282509743534
30
0.000000000000000
11
-20.1485523385301
21
5.79130170909399
31
0.000000000000000
  0
LINE
  5
F100CB
330
F100CC
100
AcDbEntity
8
Geo
100
AcDbLine
10
-20.1485523385301
20
5.79130170909399
30
0.000000000000000
11
-20.0485523385301
21
5.73867420185802
31
0.000000000000000
  0
LINE
  5
F100CD
330
F100CE
100
AcDbEntity
8
Geo
100
AcDbLine
10
-20.0485523385301
20
5.73867420185802
30
0.000000000000000
11
-19.9485523385301
21
5.68495739714210
31
0.000000000000000
  0
LINE
  5
F100CF
330
F100D0
100
AcDbEntity
8
Geo
100
AcDbLine
10
-19.9485523385301
20
5.68495739714210
30
0.000000000000000
11
-19.8485523385301
21
5.63016642313833
31
0.000000000000000
  0
LINE
  5
F100D1
330
F100D2
100
AcDbEntity
8
Geo
100
AcDbLine
10
-19.8485523385301
20
5.63016642313833
30
0.000000000000000
11
-19.7485523385301
21
5.57431671055565
31
0.000000000000000
  0
LINE
  5
F100D3
330
F100D4
100
AcDbEntity
8
Geo
100
AcDbLine
10
-19.7485523385301
20
5.57431671055565
30
0.000000000000000
11
-19.6485523385301
21
5.51742398827416
31
0.000000000000000
  0
LINE
  5
F100D5
330
F100D6
100
AcDbEntity
8
Geo
100
AcDbLine
10
-19.6485523385301
20
5.51742398827416
30
0.000000000000000
11
-19.5485523385301
21
5.45950427891536
31
0.000000000000000
  0
LINE
  5
F100D7
330
F100D8
100
AcDbEntity
8
Geo
100
AcDbLine
10
-19.5485523385301
20
5.45950427891536
30
0.000000000000000
11
-19.4485523385301
21
5.40057389432978
31
0.000000000000000
  0
LINE
  5
F100D9
330
F100DA
100
AcDbEntity
8
Geo
100
AcDbLine
10
-19.4485523385301
20
5.40057389432978
30
0.000000000000000
11
-19.3485523385301
21
5.34064943100304
31
0.000000000000000
  0
LINE
  5
F100DB
330
F100DC
100
AcDbEntity
8
Geo
100
AcDbLine
10
-19.3485523385301
20
5.34064943100304
30
0.000000000000000
11
-19.2485523385301
21
5.27974776538186
31
0.000000000000000
  0
LINE
  5
F100DD
330
F100DE
100
AcDbEntity
8
Geo
100
AcDbLine
10
-19.2485523385301
20
5.27974776538186
30
0.000000000000000
11
-19.1485523385301
21
5.21788604912111
31
0.000000000000000
  0
LINE
  5
F100DF
330
F100E0
100
AcDbEntity
8
Geo
100
AcDbLine
10
-19.1485523385301
20
5.21788604912111
30
0.000000000000000
11
-19.0485523385301
21
5.15508170425346
31
0.000000000000000
  0
LINE
  5
F100E1
330
F100E2
100
AcDbEntity
8
Geo
100
AcDbLine
10
-19.0485523385301
20
5.15508170425346
30
0.000000000000000
11
-18.9485523385301
21
5.09135241828281
31
0.000000000000000
  0
LINE
  5
F100E3
330
F100E4
100
AcDbEntity
8
Geo
100
AcDbLine
10
-18.9485523385301
20
5.09135241828281
30
0.000000000000000
11
-18.8485523385301
21
5.02671613920299
31
0.000000000000000
  0
LINE
  5
F100E5
330
F100E6
100
AcDbEntity
8
Geo
100
AcDbLine
10
-18.8485523385301
20
5.02671613920299
30
0.000000000000000
11
-18.7485523385301
21
4.96119107044311
31
0.000000000000000
  0
LINE
  5
F100E7
330
F100E8
100
AcDbEntity
8
Geo
100
AcDbLine
10
-18.7485523385301
20
4.96119107044311
30
0.000000000000000
11
-18.6485523385301
21
4.89479566574089
31
0.000000000000000
  0
LINE
  5
F100E9
330
F100EA
100
AcDbEntity
8
Geo
100
AcDbLine
10
-18.6485523385301
20
4.89479566574089
30
0.000000000000000
11
-18.5485523385301
21
4.82754862394564
31
0.000000000000000
  0
LINE
  5
F100EB
330
F100EC
100
AcDbEntity
8
Geo
100
AcDbLine
10
-18.5485523385301
20
4.82754862394564
30
0.000000000000000
11
-18.4485523385301
21
4.75946888375206
31
0.000000000000000
  0
LINE
  5
F100ED
330
F100EE
100
AcDbEntity
8
Geo
100
AcDbLine
10
-18.4485523385301
20
4.75946888375206
30
0.000000000000000
11
-18.3485523385301
21
4.69057561836663
31
0.000000000000000
  0
LINE
  5
F100EF
330
F100F0
100
AcDbEntity
8
Geo
100
AcDbLine
10
-18.3485523385301
20
4.69057561836663
30
0.000000000000000
11
-18.2485523385301
21
4.62088823010779
31
0.000000000000000
  0
LINE
  5
F100F1
330
F100F2
100
AcDbEntity
8
Geo
100
AcDbLine
10
-18.2485523385301
20
4.62088823010779
30
0.000000000000000
11
-18.1485523385301
21
4.55042634494179
31
0.000000000000000
  0
LINE
  5
F100F3
330
F100F4
100
AcDbEntity
8
Geo
100
AcDbLine
10
-18.1485523385301
20
4.55042634494179
30
0.000000000000000
11
-18.0485523385301
21
4.47920980695540
31
0.000000000000000
  0
LINE
  5
F100F5
330
F100F6
100
AcDbEntity
8
Geo
100
AcDbLine
10
-18.0485523385301
20
4.47920980695540
30
0.000000000000000
11
-17.9485523385301
21
4.40725867276724
31
0.000000000000000
  0
LINE
  5
F100F7
330
F100F8
100
AcDbEntity
8
Geo
100
AcDbLine
10
-17.9485523385301
20
4.40725867276724
30
0.000000000000000
11
-17.8485523385301
21
4.33459320587930
31
0.000000000000000
  0
LINE
  5
F100F9
330
F100FA
100
AcDbEntity
8
Geo
100
AcDbLine
10
-17.8485523385301
20
4.33459320587930
30
0.000000000000000
11
-17.7485523385301
21
4.26123387097013
31
0.000000000000000
  0
LINE
  5
F100FB
330
F100FC
100
AcDbEntity
8
Geo
100
AcDbLine
10
-17.7485523385301
20
4.26123387097013
30
0.000000000000000
11
-17.6485523385301
21
4.18720132813140
31
0.000000000000000
  0
LINE
  5
F100FD
330
F100FE
100
AcDbEntity
8
Geo
100
AcDbLine
10
-17.6485523385301
20
4.18720132813140
30
0.000000000000000
11
-17.5485523385301
21
4.11251642704943
31
0.000000000000000
  0
LINE
  5
F100FF
330
F10100
100
AcDbEntity
8
Geo
100
AcDbLine
10
-17.5485523385301
20
4.11251642704943
30
0.000000000000000
11
-17.4485523385301
21
4.03720020113335
31
0.000000000000000
  0
LINE
  5
F10101
330
F10102
100
AcDbEntity
8
Geo
100
AcDbLine
10
-17.4485523385301
20
4.03720020113335
30
0.000000000000000
11
-17.3485523385301
21
3.96127386159141
31
0.000000000000000
  0
LINE
  5
F10103
330
F10104
100
AcDbEntity
8
Geo
100
AcDbLine
10
-17.3485523385301
20
3.96127386159141
30
0.000000000000000
11
-17.2485523385301
21
3.88475879145740
31
0.000000000000000
  0
LINE
  5
F10105
330
F10106
100
AcDbEntity
8
Geo
100
AcDbLine
10
-17.2485523385301
20
3.88475879145740
30
0.000000000000000
11
-17.1485523385301
21
3.80767653956848
31
0.000000000000000
  0
LINE
  5
F10107
330
F10108
100
AcDbEntity
8
Geo
100
AcDbLine
10
-17.1485523385301
20
3.80767653956848
30
0.000000000000000
11
-17.0485523385301
21
3.73004881449648
31
0.000000000000000
  0
LINE
  5
F10109
330
F1010A
100
AcDbEntity
8
Geo
100
AcDbLine
10
-17.0485523385301
20
3.73004881449648
30
0.000000000000000
11
-16.9485523385301
21
3.65189747843409
31
0.000000000000000
  0
LINE
  5
F1010B
330
F1010C
100
AcDbEntity
8
Geo
100
AcDbLine
10
-16.9485523385301
20
3.65189747843409
30
0.000000000000000
11
-16.8485523385301
21
3.57324454103790
31
0.000000000000000
  0
LINE
  5
F1010D
330
F1010E
100
AcDbEntity
8
Geo
100
AcDbLine
10
-16.8485523385301
20
3.57324454103790
30
0.000000000000000
11
-16.7485523385301
21
3.49411215322977
31
0.000000000000000
  0
LINE
  5
F1010F
330
F10110
100
AcDbEntity
8
Geo
100
AcDbLine
10
-16.7485523385301
20
3.49411215322977
30
0.000000000000000
11
-16.6485523385301
21
3.41452260095859
31
0.000000000000000
  0
LINE
  5
F10111
330
F10112
100
AcDbEntity
8
Geo
100
AcDbLine
10
-16.6485523385301
20
3.41452260095859
30
0.000000000000000
11
-16.5485523385301
21
3.33449829892382
31
0.000000000000000
  0
LINE
  5
F10113
330
F10114
100
AcDbEntity
8
Geo
100
AcDbLine
10
-16.5485523385301
20
3.33449829892382
30
0.000000000000000
11
-16.4485523385301
21
3.25406178426294
31
0.000000000000000
  0
LINE
  5
F10115
330
F10116
100
AcDbEntity
8
Geo
100
AcDbLine
10
-16.4485523385301
20
3.25406178426294
30
0.000000000000000
11
-16.3485523385301
21
3.17323571020434
31
0.000000000000000
  0
LINE
  5
F10117
330
F10118
100
AcDbEntity
8
Geo
100
AcDbLine
10
-16.3485523385301
20
3.17323571020434
30
0.000000000000000
11
-16.2485523385301
21
3.09204283968747
31
0.000000000000000
  0
LINE
  5
F10119
330
F1011A
100
AcDbEntity
8
Geo
100
AcDbLine
10
-16.2485523385301
20
3.09204283968747
30
0.000000000000000
11
-16.1485523385301
21
3.01050603895219
31
0.000000000000000
  0
LINE
  5
F1011B
330
F1011C
100
AcDbEntity
8
Geo
100
AcDbLine
10
-16.1485523385301
20
3.01050603895219
30
0.000000000000000
11
-16.0485523385301
21
2.92864827109897
31
0.000000000000000
  0
LINE
  5
F1011D
330
F1011E
100
AcDbEntity
8
Geo
100
AcDbLine
10
-16.0485523385301
20
2.92864827109897
30
0.000000000000000
11
-15.9485523385301
21
2.84649258962184
31
0.000000000000000
  0
LINE
  5
F1011F
330
F10120
100
AcDbEntity
8
Geo
100
AcDbLine
10
-15.9485523385301
20
2.84649258962184
30
0.000000000000000
11
-15.8485523385301
21
2.76406213191581
31
0.000000000000000
  0
LINE
  5
F10121
330
F10122
100
AcDbEntity
8
Geo
100
AcDbLine
10
-15.8485523385301
20
2.76406213191581
30
0.000000000000000
11
-15.7485523385301
21
2.68138011276077
31
0.000000000000000
  0
LINE
  5
F10123
330
F10124
100
AcDbEntity
8
Geo
100
AcDbLine
10
-15.7485523385301
20
2.68138011276077
30
0.000000000000000
11
-15.6485523385301
21
2.59846981778354
31
0.000000000000000
  0
LINE
  5
F10125
330
F10126
100
AcDbEntity
8
Geo
100
AcDbLine
10
-15.6485523385301
20
2.59846981778354
30
0.000000000000000
11
-15.5485523385301
21
2.51535459689994
31
0.000000000000000
  0
LINE
  5
F10127
330
F10128
100
AcDbEntity
8
Geo
100
AcDbLine
10
-15.5485523385301
20
2.51535459689994
30
0.000000000000000
11
-15.4485523385301
21
2.43205785773879
31
0.000000000000000
  0
LINE
  5
F10129
330
F1012A
100
AcDbEntity
8
Geo
100
AcDbLine
10
-15.4485523385301
20
2.43205785773879
30
0.000000000000000
11
-15.3485523385301
21
2.34860305904969
31
0.000000000000000
  0
LINE
  5
F1012B
330
F1012C
100
AcDbEntity
8
Geo
100
AcDbLine
10
-15.3485523385301
20
2.34860305904969
30
0.000000000000000
11
-15.2485523385301
21
2.26501370409631
31
0.000000000000000
  0
LINE
  5
F1012D
330
F1012E
100
AcDbEntity
8
Geo
100
AcDbLine
10
-15.2485523385301
20
2.26501370409631
30
0.000000000000000
11
-15.1485523385301
21
2.18131333403723
31
0.000000000000000
  0
LINE
  5
F1012F
330
F10130
100
AcDbEntity
8
Geo
100
AcDbLine
10
-15.1485523385301
20
2.18131333403723
30
0.000000000000000
11
-15.0485523385301
21
2.09752552129605
31
0.000000000000000
  0
LINE
  5
F10131
330
F10132
100
AcDbEntity
8
Geo
100
AcDbLine
10
-15.0485523385301
20
2.09752552129605
30
0.000000000000000
11
-14.9485523385301
21
2.01367386292277
31
0.000000000000000
  0
LINE
  5
F10133
330
F10134
100
AcDbEntity
8
Geo
100
AcDbLine
10
-14.9485523385301
20
2.01367386292277
30
0.000000000000000
11
-14.8485523385301
21
1.92978197394813
31
0.000000000000000
  0
LINE
  5
F10135
330
F10136
100
AcDbEntity
8
Geo
100
AcDbLine
10
-14.8485523385301
20
1.92978197394813
30
0.000000000000000
11
-14.7485523385301
21
1.84587348073295
31
0.000000000000000
  0
LINE
  5
F10137
330
F10138
100
AcDbEntity
8
Geo
100
AcDbLine
10
-14.7485523385301
20
1.84587348073295
30
0.000000000000000
11
-14.6485523385301
21
1.76197201431429
31
0.000000000000000
  0
LINE
  5
F10139
330
F1013A
100
AcDbEntity
8
Geo
100
AcDbLine
10
-14.6485523385301
20
1.76197201431429
30
0.000000000000000
11
-14.5485523385301
21
1.67810120375028
31
0.000000000000000
  0
LINE
  5
F1013B
330
F1013C
100
AcDbEntity
8
Geo
100
AcDbLine
10
-14.5485523385301
20
1.67810120375028
30
0.000000000000000
11
-14.4485523385301
21
1.59428466946545
31
0.000000000000000
  0
LINE
  5
F1013D
330
F1013E
100
AcDbEntity
8
Geo
100
AcDbLine
10
-14.4485523385301
20
1.59428466946545
30
0.000000000000000
11
-14.3485523385301
21
1.51054601659860
31
0.000000000000000
  0
LINE
  5
F1013F
330
F10140
100
AcDbEntity
8
Geo
100
AcDbLine
10
-14.3485523385301
20
1.51054601659860
30
0.000000000000000
11
-14.2485523385301
21
1.42690882835487
31
0.000000000000000
  0
LINE
  5
F10141
330
F10142
100
AcDbEntity
8
Geo
100
AcDbLine
10
-14.2485523385301
20
1.42690882835487
30
0.000000000000000
11
-14.1485523385301
21
1.34339665936408
31
0.000000000000000
  0
LINE
  5
F10143
330
F10144
100
AcDbEntity
8
Geo
100
AcDbLine
10
-14.1485523385301
20
1.34339665936408
30
0.000000000000000
11
-14.0485523385301
21
1.26003302904702
31
0.000000000000000
  0
LINE
  5
F10145
330
F10146
100
AcDbEntity
8
Geo
100
AcDbLine
10
-14.0485523385301
20
1.26003302904702
30
0.000000000000000
11
-13.9485523385301
21
1.17684141499174
31
0.000000000000000
  0
LINE
  5
F10147
330
F10148
100
AcDbEntity
8
Geo
100
AcDbLine
10
-13.9485523385301
20
1.17684141499174
30
0.000000000000000
11
-13.8485523385301
21
1.09384524634158
31
0.000000000000000
  0
LINE
  5
F10149
330
F1014A
100
AcDbEntity
8
Geo
100
AcDbLine
10
-13.8485523385301
20
1.09384524634158
30
0.000000000000000
11
-13.7485523385301
21
1.01106789719685
31
0.000000000000000
  0
LINE
  5
F1014B
330
F1014C
100
AcDbEntity
8
Geo
100
AcDbLine
10
-13.7485523385301
20
1.01106789719685
30
0.000000000000000
11
-13.6485523385301
21
0.928532680032016
31
0.000000000000000
  0
LINE
  5
F1014D
330
F1014E
100
AcDbEntity
8
Geo
100
AcDbLine
10
-13.6485523385301
20
0.928532680032016
30
0.000000000000000
11
-13.5485523385301
21
0.846262839130231
31
0.000000000000000
  0
LINE
  5
F1014F
330
F10150
100
AcDbEntity
8
Geo
100
AcDbLine
10
-13.5485523385301
20
0.846262839130231
30
0.000000000000000
11
-13.4485523385301
21
0.764281544037101
31
0.000000000000000
  0
LINE
  5
F10151
330
F10152
100
AcDbEntity
8
Geo
100
AcDbLine
10
-13.4485523385301
20
0.764281544037101
30
0.000000000000000
11
-13.3485523385301
21
0.682611883035441
31
0.000000000000000
  0
LINE
  5
F10153
330
F10154
100
AcDbEntity
8
Geo
100
AcDbLine
10
-13.3485523385301
20
0.682611883035441
30
0.000000000000000
11
-13.2485523385301
21
0.601276856642991
31
0.000000000000000
  0
LINE
  5
F10155
330
F10156
100
AcDbEntity
8
Geo
100
AcDbLine
10
-13.2485523385301
20
0.601276856642991
30
0.000000000000000
11
-13.1485523385301
21
0.520299371134771
31
0.000000000000000
  0
LINE
  5
F10157
330
F10158
100
AcDbEntity
8
Geo
100
AcDbLine
10
-13.1485523385301
20
0.520299371134771
30
0.000000000000000
11
-13.0485523385301
21
0.439702232092061
31
0.000000000000000
  0
LINE
  5
F10159
330
F1015A
100
AcDbEntity
8
Geo
100
AcDbLine
10
-13.0485523385301
20
0.439702232092061
30
0.000000000000000
11
-12.9485523385301
21
0.359508137979651
31
0.000000000000000
  0
LINE
  5
F1015B
330
F1015C
100
AcDbEntity
8
Geo
100
AcDbLine
10
-12.9485523385301
20
0.359508137979651
30
0.000000000000000
11
-12.8485523385301
21
0.279739673753341
31
0.000000000000000
  0
LINE
  5
F1015D
330
F1015E
100
AcDbEntity
8
Geo
100
AcDbLine
10
-12.8485523385301
20
0.279739673753341
30
0.000000000000000
11
-12.7485523385301
21
0.200419304499351
31
0.000000000000000
  0
LINE
  5
F1015F
330
F10160
100
AcDbEntity
8
Geo
100
AcDbLine
10
-12.7485523385301
20
0.200419304499351
30
0.000000000000000
11
-12.6485523385301
21
0.121569369107501
31
0.000000000000000
  0
LINE
  5
F10161
330
F10162
100
AcDbEntity
8
Geo
100
AcDbLine
10
-12.6485523385301
20
0.121569369107501
30
0.000000000000000
11
-12.5485523385301
21
0.0432120739799711
31
0.000000000000000
  0
LINE
  5
F10163
330
F10164
100
AcDbEntity
8
Geo
100
AcDbLine
10
-12.5485523385301
20
0.0432120739799711
30
0.000000000000000
11
-12.4485523385301
21
-0.0346305132226989
31
0.000000000000000
  0
LINE
  5
F10165
330
F10166
100
AcDbEntity
8
Geo
100
AcDbLine
10
-12.4485523385301
20
-0.0346305132226989
30
0.000000000000000
11
-12.3485523385301
21
-0.111936469796469
31
0.000000000000000
  0
LINE
  5
F10167
330
F10168
100
AcDbEntity
8
Geo
100
AcDbLine
10
-12.3485523385301
20
-0.111936469796469
30
0.000000000000000
11
-12.2485523385301
21
-0.188684024167879
31
0.000000000000000
  0
LINE
  5
F10169
330
F1016A
100
AcDbEntity
8
Geo
100
AcDbLine
10
-12.2485523385301
20
-0.188684024167879
30
0.000000000000000
11
-12.1485523385301
21
-0.264851562025519
31
0.000000000000000
  0
LINE
  5
F1016B
330
F1016C
100
AcDbEntity
8
Geo
100
AcDbLine
10
-12.1485523385301
20
-0.264851562025519
30
0.000000000000000
11
-12.0485523385301
21
-0.340417632407249
31
0.000000000000000
  0
LINE
  5
F1016D
330
F1016E
100
AcDbEntity
8
Geo
100
AcDbLine
10
-12.0485523385301
20
-0.340417632407249
30
0.000000000000000
11
-11.9485523385301
21
-0.415360953741449
31
0.000000000000000
  0
LINE
  5
F1016F
330
F10170
100
AcDbEntity
8
Geo
100
AcDbLine
10
-11.9485523385301
20
-0.415360953741449
30
0.000000000000000
11
-11.8485523385301
21
-0.489660419840439
31
0.000000000000000
  0
LINE
  5
F10171
330
F10172
100
AcDbEntity
8
Geo
100
AcDbLine
10
-11.8485523385301
20
-0.489660419840439
30
0.000000000000000
11
-11.7485523385301
21
-0.563295105844669
31
0.000000000000000
  0
LINE
  5
F10173
330
F10174
100
AcDbEntity
8
Geo
100
AcDbLine
10
-11.7485523385301
20
-0.563295105844669
30
0.000000000000000
11
-11.6485523385301
21
-0.636244274115699
31
0.000000000000000
  0
LINE
  5
F10175
330
F10176
100
AcDbEntity
8
Geo
100
AcDbLine
10
-11.6485523385301
20
-0.636244274115699
30
0.000000000000000
11
-11.5485523385301
21
-0.708487380076539
31
0.000000000000000
  0
LINE
  5
F10177
330
F10178
100
AcDbEntity
8
Geo
100
AcDbLine
10
-11.5485523385301
20
-0.708487380076539
30
0.000000000000000
11
-11.4485523385301
21
-0.780004077997579
31
0.000000000000000
  0
LINE
  5
F10179
330
F1017A
100
AcDbEntity
8
Geo
100
AcDbLine
10
-11.4485523385301
20
-0.780004077997579
30
0.000000000000000
11
-11.3485523385301
21
-0.850774226726549
31
0.000000000000000
  0
LINE
  5
F1017B
330
F1017C
100
AcDbEntity
8
Geo
100
AcDbLine
10
-11.3485523385301
20
-0.850774226726549
30
0.000000000000000
11
-11.2485523385301
21
-0.920777895360819
31
0.000000000000000
  0
LINE
  5
F1017D
330
F1017E
100
AcDbEntity
8
Geo
100
AcDbLine
10
-11.2485523385301
20
-0.920777895360819
30
0.000000000000000
11
-11.1485523385301
21
-0.989995368860549
31
0.000000000000000
  0
LINE
  5
F1017F
330
F10180
100
AcDbEntity
8
Geo
100
AcDbLine
10
-11.1485523385301
20
-0.989995368860549
30
0.000000000000000
11
-11.0485523385301
21
-1.05840715360095
31
0.000000000000000
  0
LINE
  5
F10181
330
F10182
100
AcDbEntity
8
Geo
100
AcDbLine
10
-11.0485523385301
20
-1.05840715360095
30
0.000000000000000
11
-10.9485523385301
21
-1.12599398286233
31
0.000000000000000
  0
LINE
  5
F10183
330
F10184
100
AcDbEntity
8
Geo
100
AcDbLine
10
-10.9485523385301
20
-1.12599398286233
30
0.000000000000000
11
-10.8485523385301
21
-1.19273682225606
31
0.000000000000000
  0
LINE
  5
F10185
330
F10186
100
AcDbEntity
8
Geo
100
AcDbLine
10
-10.8485523385301
20
-1.19273682225606
30
0.000000000000000
11
-10.7485523385301
21
-1.25861687508529
31
0.000000000000000
  0
LINE
  5
F10187
330
F10188
100
AcDbEntity
8
Geo
100
AcDbLine
10
-10.7485523385301
20
-1.25861687508529
30
0.000000000000000
11
-10.6485523385301
21
-1.32361558763859
31
0.000000000000000
  0
LINE
  5
F10189
330
F1018A
100
AcDbEntity
8
Geo
100
AcDbLine
10
-10.6485523385301
20
-1.32361558763859
30
0.000000000000000
11
-10.5485523385301
21
-1.38771465441520
31
0.000000000000000
  0
LINE
  5
F1018B
330
F1018C
100
AcDbEntity
8
Geo
100
AcDbLine
10
-10.5485523385301
20
-1.38771465441520
30
0.000000000000000
11
-10.4485523385301
21
-1.45089602328041
31
0.000000000000000
  0
LINE
  5
F1018D
330
F1018E
100
AcDbEntity
8
Geo
100
AcDbLine
10
-10.4485523385301
20
-1.45089602328041
30
0.000000000000000
11
-10.3485523385301
21
-1.51314190054956
31
0.000000000000000
  0
LINE
  5
F1018F
330
F10190
100
AcDbEntity
8
Geo
100
AcDbLine
10
-10.3485523385301
20
-1.51314190054956
30
0.000000000000000
11
-10.2485523385301
21
-1.57443475599924
31
0.000000000000000
  0
LINE
  5
F10191
330
F10192
100
AcDbEntity
8
Geo
100
AcDbLine
10
-10.2485523385301
20
-1.57443475599924
30
0.000000000000000
11
-10.1485523385301
21
-1.63475732780429
31
0.000000000000000
  0
LINE
  5
F10193
330
F10194
100
AcDbEntity
8
Geo
100
AcDbLine
10
-10.1485523385301
20
-1.63475732780429
30
0.000000000000000
11
-10.0485523385301
21
-1.69409262739923
31
0.000000000000000
  0
LINE
  5
F10195
330
F10196
100
AcDbEntity
8
Geo
100
AcDbLine
10
-10.0485523385301
20
-1.69409262739923
30
0.000000000000000
11
-9.94855233853010
21
-1.75242394426278
31
0.000000000000000
  0
LINE
  5
F10197
330
F10198
100
AcDbEntity
8
Geo
100
AcDbLine
10
-9.94855233853010
20
-1.75242394426278
30
0.000000000000000
11
-9.84855233853010
21
-1.80973485062394
31
0.000000000000000
  0
LINE
  5
F10199
330
F1019A
100
AcDbEntity
8
Geo
100
AcDbLine
10
-9.84855233853010
20
-1.80973485062394
30
0.000000000000000
11
-9.74855233853010
21
-1.86600920608856
31
0.000000000000000
  0
LINE
  5
F1019B
330
F1019C
100
AcDbEntity
8
Geo
100
AcDbLine
10
-9.74855233853010
20
-1.86600920608856
30
0.000000000000000
11
-9.64855233853010
21
-1.92123116218495
31
0.000000000000000
  0
LINE
  5
F1019D
330
F1019E
100
AcDbEntity
8
Geo
100
AcDbLine
10
-9.64855233853010
20
-1.92123116218495
30
0.000000000000000
11
-9.54855233853010
21
-1.97538516682725
31
0.000000000000000
  0
LINE
  5
F1019F
330
F101A0
100
AcDbEntity
8
Geo
100
AcDbLine
10
-9.54855233853010
20
-1.97538516682725
30
0.000000000000000
11
-9.44855233853010
21
-2.02845596869535
31
0.000000000000000
  0
LINE
  5
F101A1
330
F101A2
100
AcDbEntity
8
Geo
100
AcDbLine
10
-9.44855233853010
20
-2.02845596869535
30
0.000000000000000
11
-9.34855233853010
21
-2.08042862153007
31
0.000000000000000
  0
LINE
  5
F101A3
330
F101A4
100
AcDbEntity
8
Geo
100
AcDbLine
10
-9.34855233853010
20
-2.08042862153007
30
0.000000000000000
11
-9.24855233853010
21
-2.13128848834249
31
0.000000000000000
  0
LINE
  5
F101A5
330
F101A6
100
AcDbEntity
8
Geo
100
AcDbLine
10
-9.24855233853010
20
-2.13128848834249
30
0.000000000000000
11
-9.14855233853010
21
-2.18102124553615
31
0.000000000000000
  0
LINE
  5
F101A7
330
F101A8
100
AcDbEntity
8
Geo
100
AcDbLine
10
-9.14855233853010
20
-2.18102124553615
30
0.000000000000000
11
-9.04855233853010
21
-2.22961288694094
31
0.000000000000000
  0
LINE
  5
F101A9
330
F101AA
100
AcDbEntity
8
Geo
100
AcDbLine
10
-9.04855233853010
20
-2.22961288694094
30
0.000000000000000
11
-8.94855233853010
21
-2.27704972775770
31
0.000000000000000
  0
LINE
  5
F101AB
330
F101AC
100
AcDbEntity
8
Geo
100
AcDbLine
10
-8.94855233853010
20
-2.27704972775770
30
0.000000000000000
11
-8.84855233853010
21
-2.32331840841218
31
0.000000000000000
  0
LINE
  5
F101AD
330
F101AE
100
AcDbEntity
8
Geo
100
AcDbLine
10
-8.84855233853010
20
-2.32331840841218
30
0.000000000000000
11
-8.74855233853010
21
-2.36840589831756
31
0.000000000000000
  0
LINE
  5
F101AF
330
F101B0
100
AcDbEntity
8
Geo
100
AcDbLine
10
-8.74855233853010
20
-2.36840589831756
30
0.000000000000000
11
-8.64855233853010
21
-2.41229949954418
31
0.000000000000000
  0
LINE
  5
F101B1
330
F101B2
100
AcDbEntity
8
Geo
100
AcDbLine
10
-8.64855233853010
20
-2.41229949954418
30
0.000000000000000
11
-8.54855233853010
21
-2.45498685039563
31
0.000000000000000
  0
LINE
  5
F101B3
330
F101B4
100
AcDbEntity
8
Geo
100
AcDbLine
10
-8.54855233853010
20
-2.45498685039563
30
0.000000000000000
11
-8.44855233853010
21
-2.49645592889023
31
0.000000000000000
  0
LINE
  5
F101B5
330
F101B6
100
AcDbEntity
8
Geo
100
AcDbLine
10
-8.44855233853010
20
-2.49645592889023
30
0.000000000000000
11
-8.34855233853010
21
-2.53669505614669
31
0.000000000000000
  0
LINE
  5
F101B7
330
F101B8
100
AcDbEntity
8
Geo
100
AcDbLine
10
-8.34855233853010
20
-2.53669505614669
30
0.000000000000000
11
-8.24855233853010
21
-2.57569289967326
31
0.000000000000000
  0
LINE
  5
F101B9
330
F101BA
100
AcDbEntity
8
Geo
100
AcDbLine
10
-8.24855233853010
20
-2.57569289967326
30
0.000000000000000
11
-8.14855233853010
21
-2.61343847655926
31
0.000000000000000
  0
LINE
  5
F101BB
330
F101BC
100
AcDbEntity
8
Geo
100
AcDbLine
10
-8.14855233853010
20
-2.61343847655926
30
0.000000000000000
11
-8.04855233853010
21
-2.64992115656821
31
0.000000000000000
  0
LINE
  5
F101BD
330
F101BE
100
AcDbEntity
8
Geo
100
AcDbLine
10
-8.04855233853010
20
-2.64992115656821
30
0.000000000000000
11
-7.94855233853010
21
-2.68513066513158
31
0.000000000000000
  0
LINE
  5
F101BF
330
F101C0
100
AcDbEntity
8
Geo
100
AcDbLine
10
-7.94855233853010
20
-2.68513066513158
30
0.000000000000000
11
-7.84855233853010
21
-2.71905708624242
31
0.000000000000000
  0
LINE
  5
F101C1
330
F101C2
100
AcDbEntity
8
Geo
100
AcDbLine
10
-7.84855233853010
20
-2.71905708624242
30
0.000000000000000
11
-7.74855233853010
21
-2.75169086524799
31
0.000000000000000
  0
LINE
  5
F101C3
330
F101C4
100
AcDbEntity
8
Geo
100
AcDbLine
10
-7.74855233853010
20
-2.75169086524799
30
0.000000000000000
11
-7.64855233853010
21
-2.78302281154062
31
0.000000000000000
  0
LINE
  5
F101C5
330
F101C6
100
AcDbEntity
8
Geo
100
AcDbLine
10
-7.64855233853010
20
-2.78302281154062
30
0.000000000000000
11
-7.54855233853010
21
-2.81304410114605
31
0.000000000000000
  0
LINE
  5
F101C7
330
F101C8
100
AcDbEntity
8
Geo
100
AcDbLine
10
-7.54855233853010
20
-2.81304410114605
30
0.000000000000000
11
-7.44855233853010
21
-2.84174627920854
31
0.000000000000000
  0
LINE
  5
F101C9
330
F101CA
100
AcDbEntity
8
Geo
100
AcDbLine
10
-7.44855233853010
20
-2.84174627920854
30
0.000000000000000
11
-7.34855233853010
21
-2.86912126237192
31
0.000000000000000
  0
LINE
  5
F101CB
330
F101CC
100
AcDbEntity
8
Geo
100
AcDbLine
10
-7.34855233853010
20
-2.86912126237192
30
0.000000000000000
11
-7.34855233853010
21
-2.86912126237192
31
0.000000000000000
  0
LINE
  5
F101CD
330
F101CE
100
AcDbEntity
8
Geo
100
AcDbLine
10
-7.34855233853010
20
-2.86912126237192
30
0.000000000000000
11
-7.24855233853010
21
-2.66874240524662
31
0.000000000000000
  0
LINE
  5
F101CF
330
F101D0
100
AcDbEntity
8
Geo
100
AcDbLine
10
-7.24855233853010
20
-2.66874240524662
30
0.000000000000000
11
-7.14855233853010
21
-2.70273283384490
31
0.000000000000000
  0
LINE
  5
F101D1
330
F101D2
100
AcDbEntity
8
Geo
100
AcDbLine
10
-7.14855233853010
20
-2.70273283384490
30
0.000000000000000
11
-7.04855233853010
21
-2.73400678585439
31
0.000000000000000
  0
LINE
  5
F101D3
330
F101D4
100
AcDbEntity
8
Geo
100
AcDbLine
10
-7.04855233853010
20
-2.73400678585439
30
0.000000000000000
11
-6.94855233853010
21
-2.76247621938472
31
0.000000000000000
  0
LINE
  5
F101D5
330
F101D6
100
AcDbEntity
8
Geo
100
AcDbLine
10
-6.94855233853010
20
-2.76247621938472
30
0.000000000000000
11
-6.84855233853010
21
-2.78805369033588
31
0.000000000000000
  0
LINE
  5
F101D7
330
F101D8
100
AcDbEntity
8
Geo
100
AcDbLine
10
-6.84855233853010
20
-2.78805369033588
30
0.000000000000000
11
-6.74855233853010
21
-2.81065250061307
31
0.000000000000000
  0
LINE
  5
F101D9
330
F101DA
100
AcDbEntity
8
Geo
100
AcDbLine
10
-6.74855233853010
20
-2.81065250061307
30
0.000000000000000
11
-6.64855233853010
21
-2.83018685133939
31
0.000000000000000
  0
LINE
  5
F101DB
330
F101DC
100
AcDbEntity
8
Geo
100
AcDbLine
10
-6.64855233853010
20
-2.83018685133939
30
0.000000000000000
11
-6.54855233853010
21
-2.84657200099506
31
0.000000000000000
  0
LINE
  5
F101DD
330
F101DE
100
AcDbEntity
8
Geo
100
AcDbLine
10
-6.54855233853010
20
-2.84657200099506
30
0.000000000000000
11
-6.44855233853010
21
-2.85972442839732
31
0.000000000000000
  0
LINE
  5
F101DF
330
F101E0
100
AcDbEntity
8
Geo
100
AcDbLine
10
-6.44855233853010
20
-2.85972442839732
30
0.000000000000000
11
-6.34855233853010
21
-2.86956200041965
31
0.000000000000000
  0
LINE
  5
F101E1
330
F101E2
100
AcDbEntity
8
Geo
100
AcDbLine
10
-6.34855233853010
20
-2.86956200041965
30
0.000000000000000
11
-6.24855233853010
21
-2.87600414433350
31
0.000000000000000
  0
LINE
  5
F101E3
330
F101E4
100
AcDbEntity
8
Geo
100
AcDbLine
10
-6.24855233853010
20
-2.87600414433350
30
0.000000000000000
11
-6.14855233853010
21
-2.87897202463902
31
0.000000000000000
  0
LINE
  5
F101E5
330
F101E6
100
AcDbEntity
8
Geo
100
AcDbLine
10
-29.3485523385301
20
5.30029194220687
30
0.000000000000000
11
-29.2485523385301
21
5.31177253129298
31
0.000000000000000
  0
LINE
  5
F101E7
330
F101E8
100
AcDbEntity
8
Geo
100
AcDbLine
10
-29.2485523385301
20
5.31177253129298
30
0.000000000000000
11
-29.1485523385301
21
5.28572235554973
31
0.000000000000000
  0
LINE
  5
F101E9
330
F101EA
100
AcDbEntity
8
Geo
100
AcDbLine
10
-29.1485523385301
20
5.28572235554973
30
0.000000000000000
11
-29.0485523385301
21
5.22395339121932
31
0.000000000000000
  0
LINE
  5
F101EB
330
F101EC
100
AcDbEntity
8
Geo
100
AcDbLine
10
-29.0485523385301
20
5.22395339121932
30
0.000000000000000
11
-28.9485523385301
21
5.16124008954455
31
0.000000000000000
  0
LINE
  5
F101ED
330
F101EE
100
AcDbEntity
8
Geo
100
AcDbLine
10
-28.9485523385301
20
5.16124008954455
30
0.000000000000000
11
-28.8485523385301
21
5.09760011238895
31
0.000000000000000
  0
LINE
  5
F101EF
330
F101F0
100
AcDbEntity
8
Geo
100
AcDbLine
10
-28.8485523385301
20
5.09760011238895
30
0.000000000000000
11
-28.7485523385301
21
5.03305138259441
31
0.000000000000000
  0
LINE
  5
F101F1
330
F101F2
100
AcDbEntity
8
Geo
100
AcDbLine
10
-28.7485523385301
20
5.03305138259441
30
0.000000000000000
11
-28.6485523385301
21
4.96761207893366
31
0.000000000000000
  0
LINE
  5
F101F3
330
F101F4
100
AcDbEntity
8
Geo
100
AcDbLine
10
-28.6485523385301
20
4.96761207893366
30
0.000000000000000
11
-28.5485523385301
21
4.90130063099051
31
0.000000000000000
  0
LINE
  5
F101F5
330
F101F6
100
AcDbEntity
8
Geo
100
AcDbLine
10
-28.5485523385301
20
4.90130063099051
30
0.000000000000000
11
-28.4485523385301
21
4.83413571396964
31
0.000000000000000
  0
LINE
  5
F101F7
330
F101F8
100
AcDbEntity
8
Geo
100
AcDbLine
10
-28.4485523385301
20
4.83413571396964
30
0.000000000000000
11
-28.3485523385301
21
4.76613624343707
31
0.000000000000000
  0
LINE
  5
F101F9
330
F101FA
100
AcDbEntity
8
Geo
100
AcDbLine
10
-28.3485523385301
20
4.76613624343707
30
0.000000000000000
11
-28.2485523385301
21
4.69732136999302
31
0.000000000000000
  0
LINE
  5
F101FB
330
F101FC
100
AcDbEntity
8
Geo
100
AcDbLine
10
-28.2485523385301
20
4.69732136999302
30
0.000000000000000
11
-28.1485523385301
21
4.62771047387853
31
0.000000000000000
  0
LINE
  5
F101FD
330
F101FE
100
AcDbEntity
8
Geo
100
AcDbLine
10
-28.1485523385301
20
4.62771047387853
30
0.000000000000000
11
-28.0485523385301
21
4.55732315951747
31
0.000000000000000
  0
LINE
  5
F101FF
330
F10200
100
AcDbEntity
8
Geo
100
AcDbLine
10
-28.0485523385301
20
4.55732315951747
30
0.000000000000000
11
-27.9485523385301
21
4.48617924999531
31
0.000000000000000
  0
LINE
  5
F10201
330
F10202
100
AcDbEntity
8
Geo
100
AcDbLine
10
-27.9485523385301
20
4.48617924999531
30
0.000000000000000
11
-27.8485523385301
21
4.41429878147644
31
0.000000000000000
  0
LINE
  5
F10203
330
F10204
100
AcDbEntity
8
Geo
100
AcDbLine
10
-27.8485523385301
20
4.41429878147644
30
0.000000000000000
11
-27.7485523385301
21
4.34170199756136
31
0.000000000000000
  0
LINE
  5
F10205
330
F10206
100
AcDbEntity
8
Geo
100
AcDbLine
10
-27.7485523385301
20
4.34170199756136
30
0.000000000000000
11
-27.6485523385301
21
4.26840934358553
31
0.000000000000000
  0
LINE
  5
F10207
330
F10208
100
AcDbEntity
8
Geo
100
AcDbLine
10
-27.6485523385301
20
4.26840934358553
30
0.000000000000000
11
-27.5485523385301
21
4.19444146086135
31
0.000000000000000
  0
LINE
  5
F10209
330
F1020A
100
AcDbEntity
8
Geo
100
AcDbLine
10
-27.5485523385301
20
4.19444146086135
30
0.000000000000000
11
-27.4485523385301
21
4.11981918086502
31
0.000000000000000
  0
LINE
  5
F1020B
330
F1020C
100
AcDbEntity
8
Geo
100
AcDbLine
10
-27.4485523385301
20
4.11981918086502
30
0.000000000000000
11
-27.3485523385301
21
4.04456351936974
31
0.000000000000000
  0
LINE
  5
F1020D
330
F1020E
100
AcDbEntity
8
Geo
100
AcDbLine
10
-27.3485523385301
20
4.04456351936974
30
0.000000000000000
11
-27.2485523385301
21
3.96869567052711
31
0.000000000000000
  0
LINE
  5
F1020F
330
F10210
100
AcDbEntity
8
Geo
100
AcDbLine
10
-27.2485523385301
20
3.96869567052711
30
0.000000000000000
11
-27.1485523385301
21
3.89223700089825
31
0.000000000000000
  0
LINE
  5
F10211
330
F10212
100
AcDbEntity
8
Geo
100
AcDbLine
10
-27.1485523385301
20
3.89223700089825
30
0.000000000000000
11
-27.0485523385301
21
3.81520904343633
31
0.000000000000000
  0
LINE
  5
F10213
330
F10214
100
AcDbEntity
8
Geo
100
AcDbLine
10
-27.0485523385301
20
3.81520904343633
30
0.000000000000000
11
-26.9485523385301
21
3.73763349142231
31
0.000000000000000
  0
LINE
  5
F10215
330
F10216
100
AcDbEntity
8
Geo
100
AcDbLine
10
-26.9485523385301
20
3.73763349142231
30
0.000000000000000
11
-26.8485523385301
21
3.65953219235546
31
0.000000000000000
  0
LINE
  5
F10217
330
F10218
100
AcDbEntity
8
Geo
100
AcDbLine
10
-26.8485523385301
20
3.65953219235546
30
0.000000000000000
11
-26.7485523385301
21
3.58092714180049
31
0.000000000000000
  0
LINE
  5
F10219
330
F1021A
100
AcDbEntity
8
Geo
100
AcDbLine
10
-26.7485523385301
20
3.58092714180049
30
0.000000000000000
11
-26.6485523385301
21
3.50184047719299
31
0.000000000000000
  0
LINE
  5
F1021B
330
F1021C
100
AcDbEntity
8
Geo
100
AcDbLine
10
-26.6485523385301
20
3.50184047719299
30
0.000000000000000
11
-26.5485523385301
21
3.42229447160486
31
0.000000000000000
  0
LINE
  5
F1021D
330
F1021E
100
AcDbEntity
8
Geo
100
AcDbLine
10
-26.5485523385301
20
3.42229447160486
30
0.000000000000000
11
-26.4485523385301
21
3.34231152747157
31
0.000000000000000
  0
LINE
  5
F1021F
330
F10220
100
AcDbEntity
8
Geo
100
AcDbLine
10
-26.4485523385301
20
3.34231152747157
30
0.000000000000000
11
-26.3485523385301
21
3.26191417028304
31
0.000000000000000
  0
LINE
  5
F10221
330
F10222
100
AcDbEntity
8
Geo
100
AcDbLine
10
-26.3485523385301
20
3.26191417028304
30
0.000000000000000
11
-26.2485523385301
21
3.18112504223977
31
0.000000000000000
  0
LINE
  5
F10223
330
F10224
100
AcDbEntity
8
Geo
100
AcDbLine
10
-26.2485523385301
20
3.18112504223977
30
0.000000000000000
11
-26.1485523385301
21
3.09996689587618
31
0.000000000000000
  0
LINE
  5
F10225
330
F10226
100
AcDbEntity
8
Geo
100
AcDbLine
10
-26.1485523385301
20
3.09996689587618
30
0.000000000000000
11
-26.0485523385301
21
3.01846258765280
31
0.000000000000000
  0
LINE
  5
F10227
330
F10228
100
AcDbEntity
8
Geo
100
AcDbLine
10
-26.0485523385301
20
3.01846258765280
30
0.000000000000000
11
-25.9485523385301
21
2.93663507151928
31
0.000000000000000
  0
LINE
  5
F10229
330
F1022A
100
AcDbEntity
8
Geo
100
AcDbLine
10
-25.9485523385301
20
2.93663507151928
30
0.000000000000000
11
-25.8485523385301
21
2.85450739244989
31
0.000000000000000
  0
LINE
  5
F1022B
330
F1022C
100
AcDbEntity
8
Geo
100
AcDbLine
10
-25.8485523385301
20
2.85450739244989
30
0.000000000000000
11
-25.7485523385301
21
2.77210267995337
31
0.000000000000000
  0
LINE
  5
F1022D
330
F1022E
100
AcDbEntity
8
Geo
100
AcDbLine
10
-25.7485523385301
20
2.77210267995337
30
0.000000000000000
11
-25.6485523385301
21
2.68944414155902
31
0.000000000000000
  0
LINE
  5
F1022F
330
F10230
100
AcDbEntity
8
Geo
100
AcDbLine
10
-25.6485523385301
20
2.68944414155902
30
0.000000000000000
11
-25.5485523385301
21
2.60655505628080
31
0.000000000000000
  0
LINE
  5
F10231
330
F10232
100
AcDbEntity
8
Geo
100
AcDbLine
10
-25.5485523385301
20
2.60655505628080
30
0.000000000000000
11
-25.4485523385301
21
2.52345876806127
31
0.000000000000000
  0
LINE
  5
F10233
330
F10234
100
AcDbEntity
8
Geo
100
AcDbLine
10
-25.4485523385301
20
2.52345876806127
30
0.000000000000000
11
-25.3485523385301
21
2.44017867919728
31
0.000000000000000
  0
LINE
  5
F10235
330
F10236
100
AcDbEntity
8
Geo
100
AcDbLine
10
-25.3485523385301
20
2.44017867919728
30
0.000000000000000
11
-25.2485523385301
21
2.35673824374922
31
0.000000000000000
  0
LINE
  5
F10237
330
F10238
100
AcDbEntity
8
Geo
100
AcDbLine
10
-25.2485523385301
20
2.35673824374922
30
0.000000000000000
11
-25.1485523385301
21
2.27316096093565
31
0.000000000000000
  0
LINE
  5
F10239
330
F1023A
100
AcDbEntity
8
Geo
100
AcDbLine
10
-25.1485523385301
20
2.27316096093565
30
0.000000000000000
11
-25.0485523385301
21
2.18947036851531
31
0.000000000000000
  0
LINE
  5
F1023B
330
F1023C
100
AcDbEntity
8
Geo
100
AcDbLine
10
-25.0485523385301
20
2.18947036851531
30
0.000000000000000
11
-24.9485523385301
21
2.10569003615813
31
0.000000000000000
  0
LINE
  5
F1023D
330
F1023E
100
AcDbEntity
8
Geo
100
AcDbLine
10
-24.9485523385301
20
2.10569003615813
30
0.000000000000000
11
-24.8485523385301
21
2.02184355880741
31
0.000000000000000
  0
LINE
  5
F1023F
330
F10240
100
AcDbEntity
8
Geo
100
AcDbLine
10
-24.8485523385301
20
2.02184355880741
30
0.000000000000000
11
-24.7485523385301
21
1.93795455003476
31
0.000000000000000
  0
LINE
  5
F10241
330
F10242
100
AcDbEntity
8
Geo
100
AcDbLine
10
-24.7485523385301
20
1.93795455003476
30
0.000000000000000
11
-24.6485523385301
21
1.85404663538988
31
0.000000000000000
  0
LINE
  5
F10243
330
F10244
100
AcDbEntity
8
Geo
100
AcDbLine
10
-24.6485523385301
20
1.85404663538988
30
0.000000000000000
11
-24.5485523385301
21
1.77014344574687
31
0.000000000000000
  0
LINE
  5
F10245
330
F10246
100
AcDbEntity
8
Geo
100
AcDbLine
10
-24.5485523385301
20
1.77014344574687
30
0.000000000000000
11
-24.4485523385301
21
1.68626861064916
31
0.000000000000000
  0
LINE
  5
F10247
330
F10248
100
AcDbEntity
8
Geo
100
AcDbLine
10
-24.4485523385301
20
1.68626861064916
30
0.000000000000000
11
-24.3485523385301
21
1.60244575165472
31
0.000000000000000
  0
LINE
  5
F10249
330
F1024A
100
AcDbEntity
8
Geo
100
AcDbLine
10
-24.3485523385301
20
1.60244575165472
30
0.000000000000000
11
-24.2485523385301
21
1.51869847568357
31
0.000000000000000
  0
LINE
  5
F1024B
330
F1024C
100
AcDbEntity
8
Geo
100
AcDbLine
10
-24.2485523385301
20
1.51869847568357
30
0.000000000000000
11
-24.1485523385301
21
1.43505036836936
31
0.000000000000000
  0
LINE
  5
F1024D
330
F1024E
100
AcDbEntity
8
Geo
100
AcDbLine
10
-24.1485523385301
20
1.43505036836936
30
0.000000000000000
11
-24.0485523385301
21
1.35152498741703
31
0.000000000000000
  0
LINE
  5
F1024F
330
F10250
100
AcDbEntity
8
Geo
100
AcDbLine
10
-24.0485523385301
20
1.35152498741703
30
0.000000000000000
11
-23.9485523385301
21
1.26814585596824
31
0.000000000000000
  0
LINE
  5
F10251
330
F10252
100
AcDbEntity
8
Geo
100
AcDbLine
10
-23.9485523385301
20
1.26814585596824
30
0.000000000000000
11
-23.8485523385301
21
1.18493645597659
31
0.000000000000000
  0
LINE
  5
F10253
330
F10254
100
AcDbEntity
8
Geo
100
AcDbLine
10
-23.8485523385301
20
1.18493645597659
30
0.000000000000000
11
-23.7485523385301
21
1.10192022159447
31
0.000000000000000
  0
LINE
  5
F10255
330
F10256
100
AcDbEntity
8
Geo
100
AcDbLine
10
-23.7485523385301
20
1.10192022159447
30
0.000000000000000
11
-23.6485523385301
21
1.01912053257327
31
0.000000000000000
  0
LINE
  5
F10257
330
F10258
100
AcDbEntity
8
Geo
100
AcDbLine
10
-23.6485523385301
20
1.01912053257327
30
0.000000000000000
11
-23.5485523385301
21
0.936560707678997
31
0.000000000000000
  0
LINE
  5
F10259
330
F1025A
100
AcDbEntity
8
Geo
100
AcDbLine
10
-23.5485523385301
20
0.936560707678997
30
0.000000000000000
11
-23.4485523385301
21
0.854263998125061
31
0.000000000000000
  0
LINE
  5
F1025B
330
F1025C
100
AcDbEntity
8
Geo
100
AcDbLine
10
-23.4485523385301
20
0.854263998125061
30
0.000000000000000
11
-23.3485523385301
21
0.772253581024031
31
0.000000000000000
  0
LINE
  5
F1025D
330
F1025E
100
AcDbEntity
8
Geo
100
AcDbLine
10
-23.3485523385301
20
0.772253581024031
30
0.000000000000000
11
-23.2485523385301
21
0.690552552860321
31
0.000000000000000
  0
LINE
  5
F1025F
330
F10260
100
AcDbEntity
8
Geo
100
AcDbLine
10
-23.2485523385301
20
0.690552552860321
30
0.000000000000000
11
-23.1485523385301
21
0.609183922985571
31
0.000000000000000
  0
LINE
  5
F10261
330
F10262
100
AcDbEntity
8
Geo
100
AcDbLine
10
-23.1485523385301
20
0.609183922985571
30
0.000000000000000
11
-23.0485523385301
21
0.528170607138501
31
0.000000000000000
  0
LINE
  5
F10263
330
F10264
100
AcDbEntity
8
Geo
100
AcDbLine
10
-23.0485523385301
20
0.528170607138501
30
0.000000000000000
11
-22.9485523385301
21
0.447535420991241
31
0.000000000000000
  0
LINE
  5
F10265
330
F10266
100
AcDbEntity
8
Geo
100
AcDbLine
10
-22.9485523385301
20
0.447535420991241
30
0.000000000000000
11
-22.8485523385301
21
0.367301073723731
31
0.000000000000000
  0
LINE
  5
F10267
330
F10268
100
AcDbEntity
8
Geo
100
AcDbLine
10
-22.8485523385301
20
0.367301073723731
30
0.000000000000000
11
-22.7485523385301
21
0.287490161628231
31
0.000000000000000
  0
LINE
  5
F10269
330
F1026A
100
AcDbEntity
8
Geo
100
AcDbLine
10
-22.7485523385301
20
0.287490161628231
30
0.000000000000000
11
-22.6485523385301
21
0.208125161745471
31
0.000000000000000
  0
LINE
  5
F1026B
330
F1026C
100
AcDbEntity
8
Geo
100
AcDbLine
10
-22.6485523385301
20
0.208125161745471
30
0.000000000000000
11
-22.5485523385301
21
0.129228425534571
31
0.000000000000000
  0
LINE
  5
F1026D
330
F1026E
100
AcDbEntity
8
Geo
100
AcDbLine
10
-22.5485523385301
20
0.129228425534571
30
0.000000000000000
11
-22.4485523385301
21
0.0508221725781211
31
0.000000000000000
  0
LINE
  5
F1026F
330
F10270
100
AcDbEntity
8
Geo
100
AcDbLine
10
-22.4485523385301
20
0.0508221725781211
30
0.000000000000000
11
-22.3485523385301
21
-0.0270715156753889
31
0.000000000000000
  0
LINE
  5
F10271
330
F10272
100
AcDbEntity
8
Geo
100
AcDbLine
10
-22.3485523385301
20
-0.0270715156753889
30
0.000000000000000
11
-22.2485523385301
21
-0.104430702130399
31
0.000000000000000
  0
LINE
  5
F10273
330
F10274
100
AcDbEntity
8
Geo
100
AcDbLine
10
-22.2485523385301
20
-0.104430702130399
30
0.000000000000000
11
-22.1485523385301
21
-0.181233600222379
31
0.000000000000000
  0
LINE
  5
F10275
330
F10276
100
AcDbEntity
8
Geo
100
AcDbLine
10
-22.1485523385301
20
-0.181233600222379
30
0.000000000000000
11
-22.0485523385301
21
-0.257458580053539
31
0.000000000000000
  0
LINE
  5
F10277
330
F10278
100
AcDbEntity
8
Geo
100
AcDbLine
10
-22.0485523385301
20
-0.257458580053539
30
0.000000000000000
11
-21.9485523385301
21
-0.333084174484469
31
0.000000000000000
  0
LINE
  5
F10279
330
F1027A
100
AcDbEntity
8
Geo
100
AcDbLine
10
-21.9485523385301
20
-0.333084174484469
30
0.000000000000000
11
-21.8485523385301
21
-0.408089085179829
31
0.000000000000000
  0
LINE
  5
F1027B
330
F1027C
100
AcDbEntity
8
Geo
100
AcDbLine
10
-21.8485523385301
20
-0.408089085179829
30
0.000000000000000
11
-21.7485523385301
21
-0.482452188606649
31
0.000000000000000
  0
LINE
  5
F1027D
330
F1027E
100
AcDbEntity
8
Geo
100
AcDbLine
10
-21.7485523385301
20
-0.482452188606649
30
0.000000000000000
11
-21.6485523385301
21
-0.556152541983239
31
0.000000000000000
  0
LINE
  5
F1027F
330
F10280
100
AcDbEntity
8
Geo
100
AcDbLine
10
-21.6485523385301
20
-0.556152541983239
30
0.000000000000000
11
-21.5485523385301
21
-0.629169389177369
31
0.000000000000000
  0
LINE
  5
F10281
330
F10282
100
AcDbEntity
8
Geo
100
AcDbLine
10
-21.5485523385301
20
-0.629169389177369
30
0.000000000000000
11
-21.4485523385301
21
-0.701482166551719
31
0.000000000000000
  0
LINE
  5
F10283
330
F10284
100
AcDbEntity
8
Geo
100
AcDbLine
10
-21.4485523385301
20
-0.701482166551719
30
0.000000000000000
11
-21.3485523385301
21
-0.773070508755219
31
0.000000000000000
  0
LINE
  5
F10285
330
F10286
100
AcDbEntity
8
Geo
100
AcDbLine
10
-21.3485523385301
20
-0.773070508755219
30
0.000000000000000
11
-21.2485523385301
21
-0.843914254458499
31
0.000000000000000
  0
LINE
  5
F10287
330
F10288
100
AcDbEntity
8
Geo
100
AcDbLine
10
-21.2485523385301
20
-0.843914254458499
30
0.000000000000000
11
-21.1485523385301
21
-0.913993452031939
31
0.000000000000000
  0
LINE
  5
F10289
330
F1028A
100
AcDbEntity
8
Geo
100
AcDbLine
10
-21.1485523385301
20
-0.913993452031939
30
0.000000000000000
11
-21.0485523385301
21
-0.983288365164549
31
0.000000000000000
  0
LINE
  5
F1028B
330
F1028C
100
AcDbEntity
8
Geo
100
AcDbLine
10
-21.0485523385301
20
-0.983288365164549
30
0.000000000000000
11
-20.9485523385301
21
-1.05177947842236
31
0.000000000000000
  0
LINE
  5
F1028D
330
F1028E
100
AcDbEntity
8
Geo
100
AcDbLine
10
-20.9485523385301
20
-1.05177947842236
30
0.000000000000000
11
-20.8485523385301
21
-1.11944750274445
31
0.000000000000000
  0
LINE
  5
F1028F
330
F10290
100
AcDbEntity
8
Geo
100
AcDbLine
10
-20.8485523385301
20
-1.11944750274445
30
0.000000000000000
11
-20.7485523385301
21
-1.18627338087537
31
0.000000000000000
  0
LINE
  5
F10291
330
F10292
100
AcDbEntity
8
Geo
100
AcDbLine
10
-20.7485523385301
20
-1.18627338087537
30
0.000000000000000
11
-20.6485523385301
21
-1.25223829273217
31
0.000000000000000
  0
LINE
  5
F10293
330
F10294
100
AcDbEntity
8
Geo
100
AcDbLine
10
-20.6485523385301
20
-1.25223829273217
30
0.000000000000000
11
-20.5485523385301
21
-1.31732366070467
31
0.000000000000000
  0
LINE
  5
F10295
330
F10296
100
AcDbEntity
8
Geo
100
AcDbLine
10
-20.5485523385301
20
-1.31732366070467
30
0.000000000000000
11
-20.4485523385301
21
-1.38151115488748
31
0.000000000000000
  0
LINE
  5
F10297
330
F10298
100
AcDbEntity
8
Geo
100
AcDbLine
10
-20.4485523385301
20
-1.38151115488748
30
0.000000000000000
11
-20.3485523385301
21
-1.44478269824220
31
0.000000000000000
  0
LINE
  5
F10299
330
F1029A
100
AcDbEntity
8
Geo
100
AcDbLine
10
-20.3485523385301
20
-1.44478269824220
30
0.000000000000000
11
-20.2485523385301
21
-1.50712047168843
31
0.000000000000000
  0
LINE
  5
F1029B
330
F1029C
100
AcDbEntity
8
Geo
100
AcDbLine
10
-20.2485523385301
20
-1.50712047168843
30
0.000000000000000
11
-20.1485523385301
21
-1.56850691912217
31
0.000000000000000
  0
LINE
  5
F1029D
330
F1029E
100
AcDbEntity
8
Geo
100
AcDbLine
10
-20.1485523385301
20
-1.56850691912217
30
0.000000000000000
11
-20.0485523385301
21
-1.62892475236007
31
0.000000000000000
  0
LINE
  5
F1029F
330
F102A0
100
AcDbEntity
8
Geo
100
AcDbLine
10
-20.0485523385301
20
-1.62892475236007
30
0.000000000000000
11
-19.9485523385301
21
-1.68835695600832
31
0.000000000000000
  0
LINE
  5
F102A1
330
F102A2
100
AcDbEntity
8
Geo
100
AcDbLine
10
-19.9485523385301
20
-1.68835695600832
30
0.000000000000000
11
-19.8485523385301
21
-1.74678679225466
31
0.000000000000000
  0
LINE
  5
F102A3
330
F102A4
100
AcDbEntity
8
Geo
100
AcDbLine
10
-19.8485523385301
20
-1.74678679225466
30
0.000000000000000
11
-19.7485523385301
21
-1.80419780558220
31
0.000000000000000
  0
LINE
  5
F102A5
330
F102A6
100
AcDbEntity
8
Geo
100
AcDbLine
10
-19.7485523385301
20
-1.80419780558220
30
0.000000000000000
11
-19.6485523385301
21
-1.86057382740383
31
0.000000000000000
  0
LINE
  5
F102A7
330
F102A8
100
AcDbEntity
8
Geo
100
AcDbLine
10
-19.6485523385301
20
-1.86057382740383
30
0.000000000000000
11
-19.5485523385301
21
-1.91589898061568
31
0.000000000000000
  0
LINE
  5
F102A9
330
F102AA
100
AcDbEntity
8
Geo
100
AcDbLine
10
-19.5485523385301
20
-1.91589898061568
30
0.000000000000000
11
-19.4485523385301
21
-1.97015768406862
31
0.000000000000000
  0
LINE
  5
F102AB
330
F102AC
100
AcDbEntity
8
Geo
100
AcDbLine
10
-19.4485523385301
20
-1.97015768406862
30
0.000000000000000
11
-19.3485523385301
21
-2.02333465695635
31
0.000000000000000
  0
LINE
  5
F102AD
330
F102AE
100
AcDbEntity
8
Geo
100
AcDbLine
10
-19.3485523385301
20
-2.02333465695635
30
0.000000000000000
11
-19.2485523385301
21
-2.07541492311891
31
0.000000000000000
  0
LINE
  5
F102AF
330
F102B0
100
AcDbEntity
8
Geo
100
AcDbLine
10
-19.2485523385301
20
-2.07541492311891
30
0.000000000000000
11
-19.1485523385301
21
-2.12638381526037
31
0.000000000000000
  0
LINE
  5
F102B1
330
F102B2
100
AcDbEntity
8
Geo
100
AcDbLine
10
-19.1485523385301
20
-2.12638381526037
30
0.000000000000000
11
-19.0485523385301
21
-2.17622697907960
31
0.000000000000000
  0
LINE
  5
F102B3
330
F102B4
100
AcDbEntity
8
Geo
100
AcDbLine
10
-19.0485523385301
20
-2.17622697907960
30
0.000000000000000
11
-18.9485523385301
21
-2.22493037731284
31
0.000000000000000
  0
LINE
  5
F102B5
330
F102B6
100
AcDbEntity
8
Geo
100
AcDbLine
10
-18.9485523385301
20
-2.22493037731284
30
0.000000000000000
11
-18.8485523385301
21
-2.27248029368698
31
0.000000000000000
  0
LINE
  5
F102B7
330
F102B8
100
AcDbEntity
8
Geo
100
AcDbLine
10
-18.8485523385301
20
-2.27248029368698
30
0.000000000000000
11
-18.7485523385301
21
-2.31886333678248
31
0.000000000000000
  0
LINE
  5
F102B9
330
F102BA
100
AcDbEntity
8
Geo
100
AcDbLine
10
-18.7485523385301
20
-2.31886333678248
30
0.000000000000000
11
-18.6485523385301
21
-2.36406644380476
31
0.000000000000000
  0
LINE
  5
F102BB
330
F102BC
100
AcDbEntity
8
Geo
100
AcDbLine
10
-18.6485523385301
20
-2.36406644380476
30
0.000000000000000
11
-18.5485523385301
21
-2.40807688426305
31
0.000000000000000
  0
LINE
  5
F102BD
330
F102BE
100
AcDbEntity
8
Geo
100
AcDbLine
10
-18.5485523385301
20
-2.40807688426305
30
0.000000000000000
11
-18.4485523385301
21
-2.45088226355570
31
0.000000000000000
  0
LINE
  5
F102BF
330
F102C0
100
AcDbEntity
8
Geo
100
AcDbLine
10
-18.4485523385301
20
-2.45088226355570
30
0.000000000000000
11
-18.3485523385301
21
-2.49247052646082
31
0.000000000000000
  0
LINE
  5
F102C1
330
F102C2
100
AcDbEntity
8
Geo
100
AcDbLine
10
-18.3485523385301
20
-2.49247052646082
30
0.000000000000000
11
-18.2485523385301
21
-2.53282996053136
31
0.000000000000000
  0
LINE
  5
F102C3
330
F102C4
100
AcDbEntity
8
Geo
100
AcDbLine
10
-18.2485523385301
20
-2.53282996053136
30
0.000000000000000
11
-18.1485523385301
21
-2.57194919939374
31
0.000000000000000
  0
LINE
  5
F102C5
330
F102C6
100
AcDbEntity
8
Geo
100
AcDbLine
10
-18.1485523385301
20
-2.57194919939374
30
0.000000000000000
11
-18.0485523385301
21
-2.60981722594887
31
0.000000000000000
  0
LINE
  5
F102C7
330
F102C8
100
AcDbEntity
8
Geo
100
AcDbLine
10
-18.0485523385301
20
-2.60981722594887
30
0.000000000000000
11
-17.9485523385301
21
-2.64642337547493
31
0.000000000000000
  0
LINE
  5
F102C9
330
F102CA
100
AcDbEntity
8
Geo
100
AcDbLine
10
-17.9485523385301
20
-2.64642337547493
30
0.000000000000000
11
-17.8485523385301
21
-2.68175733863083
31
0.000000000000000
  0
LINE
  5
F102CB
330
F102CC
100
AcDbEntity
8
Geo
100
AcDbLine
10
-17.8485523385301
20
-2.68175733863083
30
0.000000000000000
11
-17.7485523385301
21
-2.71580916435965
31
0.000000000000000
  0
LINE
  5
F102CD
330
F102CE
100
AcDbEntity
8
Geo
100
AcDbLine
10
-17.7485523385301
20
-2.71580916435965
30
0.000000000000000
11
-17.6485523385301
21
-2.74856926269110
31
0.000000000000000
  0
LINE
  5
F102CF
330
F102D0
100
AcDbEntity
8
Geo
100
AcDbLine
10
-17.6485523385301
20
-2.74856926269110
30
0.000000000000000
11
-17.5485523385301
21
-2.78002840744239
31
0.000000000000000
  0
LINE
  5
F102D1
330
F102D2
100
AcDbEntity
8
Geo
100
AcDbLine
10
-17.5485523385301
20
-2.78002840744239
30
0.000000000000000
11
-17.4485523385301
21
-2.81017773881651
31
0.000000000000000
  0
LINE
  5
F102D3
330
F102D4
100
AcDbEntity
8
Geo
100
AcDbLine
10
-17.4485523385301
20
-2.81017773881651
30
0.000000000000000
11
-17.3485523385301
21
-2.83900876589748
31
0.000000000000000
  0
LINE
  5
F102D5
330
F102D6
100
AcDbEntity
8
Geo
100
AcDbLine
10
-17.3485523385301
20
-2.83900876589748
30
0.000000000000000
11
-17.2485523385301
21
-2.86651336904159
31
0.000000000000000
  0
LINE
  5
F102D7
330
F102D8
100
AcDbEntity
8
Geo
100
AcDbLine
10
-17.2485523385301
20
-2.86651336904159
30
0.000000000000000
11
-17.1485523385301
21
-2.89268380216411
31
0.000000000000000
  0
LINE
  5
F102D9
330
F102DA
100
AcDbEntity
8
Geo
100
AcDbLine
10
-17.1485523385301
20
-2.89268380216411
30
0.000000000000000
11
-17.0485523385301
21
-2.91751269492088
31
0.000000000000000
  0
LINE
  5
F102DB
330
F102DC
100
AcDbEntity
8
Geo
100
AcDbLine
10
-17.0485523385301
20
-2.91751269492088
30
0.000000000000000
11
-16.9485523385301
21
-2.94099305478392
31
0.000000000000000
  0
LINE
  5
F102DD
330
F102DE
100
AcDbEntity
8
Geo
100
AcDbLine
10
-16.9485523385301
20
-2.94099305478392
30
0.000000000000000
11
-16.8485523385301
21
-2.96311826901080
31
0.000000000000000
  0
LINE
  5
F102DF
330
F102E0
100
AcDbEntity
8
Geo
100
AcDbLine
10
-16.8485523385301
20
-2.96311826901080
30
0.000000000000000
11
-16.7485523385301
21
-2.98388210650693
31
0.000000000000000
  0
LINE
  5
F102E1
330
F102E2
100
AcDbEntity
8
Geo
100
AcDbLine
10
-16.7485523385301
20
-2.98388210650693
30
0.000000000000000
11
-16.6485523385301
21
-3.00327871958046
31
0.000000000000000
  0
LINE
  5
F102E3
330
F102E4
100
AcDbEntity
8
Geo
100
AcDbLine
10
-16.6485523385301
20
-3.00327871958046
30
0.000000000000000
11
-16.5485523385301
21
-3.02130264558909
31
0.000000000000000
  0
LINE
  5
F102E5
330
F102E6
100
AcDbEntity
8
Geo
100
AcDbLine
10
-16.5485523385301
20
-3.02130264558909
30
0.000000000000000
11
-16.4485523385301
21
-3.03794880847859
31
0.000000000000000
  0
LINE
  5
F102E7
330
F102E8
100
AcDbEntity
8
Geo
100
AcDbLine
10
-16.4485523385301
20
-3.03794880847859
30
0.000000000000000
11
-16.3485523385301
21
-3.05321252021230
31
0.000000000000000
  0
LINE
  5
F102E9
330
F102EA
100
AcDbEntity
8
Geo
100
AcDbLine
10
-16.3485523385301
20
-3.05321252021230
30
0.000000000000000
11
-16.2485523385301
21
-3.06708948209142
31
0.000000000000000
  0
LINE
  5
F102EB
330
F102EC
100
AcDbEntity
8
Geo
100
AcDbLine
10
-16.2485523385301
20
-3.06708948209142
30
0.000000000000000
11
-16.1485523385301
21
-3.07957578596570
31
0.000000000000000
  0
LINE
  5
F102ED
330
F102EE
100
AcDbEntity
8
Geo
100
AcDbLine
10
-16.1485523385301
20
-3.07957578596570
30
0.000000000000000
11
-16.0485523385301
21
-3.09066791533401
31
0.000000000000000
  0
LINE
  5
F102EF
330
F102F0
100
AcDbEntity
8
Geo
100
AcDbLine
10
-16.0485523385301
20
-3.09066791533401
30
0.000000000000000
11
-15.9485523385301
21
-3.10036274633476
31
0.000000000000000
  0
LINE
  5
F102F1
330
F102F2
100
AcDbEntity
8
Geo
100
AcDbLine
10
-15.9485523385301
20
-3.10036274633476
30
0.000000000000000
11
-15.8485523385301
21
-3.10865754862563
31
0.000000000000000
  0
LINE
  5
F102F3
330
F102F4
100
AcDbEntity
8
Geo
100
AcDbLine
10
-15.8485523385301
20
-3.10865754862563
30
0.000000000000000
11
-15.7485523385301
21
-3.11554998615248
31
0.000000000000000
  0
LINE
  5
F102F5
330
F102F6
100
AcDbEntity
8
Geo
100
AcDbLine
10
-15.7485523385301
20
-3.11554998615248
30
0.000000000000000
11
-15.6485523385301
21
-3.12103811780735
31
0.000000000000000
  0
LINE
  5
F102F7
330
F102F8
100
AcDbEntity
8
Geo
100
AcDbLine
10
-15.6485523385301
20
-3.12103811780735
30
0.000000000000000
11
-15.5485523385301
21
-3.12512039797503
31
0.000000000000000
  0
LINE
  5
F102F9
330
F102FA
100
AcDbEntity
8
Geo
100
AcDbLine
10
-15.5485523385301
20
-3.12512039797503
30
0.000000000000000
11
-15.4485523385301
21
-3.12779567696840
31
0.000000000000000
  0
LINE
  5
F102FB
330
F102FC
100
AcDbEntity
8
Geo
100
AcDbLine
10
-15.4485523385301
20
-3.12779567696840
30
0.000000000000000
11
-15.3485523385301
21
-3.12906320135219
31
0.000000000000000
  0
LINE
  5
F102FD
330
F102FE
100
AcDbEntity
8
Geo
100
AcDbLine
10
-29.3485523385301
20
3.53745745531033
30
0.000000000000000
11
-29.2485523385301
21
3.49357306942169
31
0.000000000000000
  0
LINE
  5
F102FF
330
F10300
100
AcDbEntity
8
Geo
100
AcDbLine
10
-29.2485523385301
20
3.49357306942169
30
0.000000000000000
11
-29.1485523385301
21
3.43046450006148
31
0.000000000000000
  0
LINE
  5
F10301
330
F10302
100
AcDbEntity
8
Geo
100
AcDbLine
10
-29.1485523385301
20
3.43046450006148
30
0.000000000000000
11
-29.0485523385301
21
3.35052528704020
31
0.000000000000000
  0
LINE
  5
F10303
330
F10304
100
AcDbEntity
8
Geo
100
AcDbLine
10
-29.0485523385301
20
3.35052528704020
30
0.000000000000000
11
-28.9485523385301
21
3.27016934773352
31
0.000000000000000
  0
LINE
  5
F10305
330
F10306
100
AcDbEntity
8
Geo
100
AcDbLine
10
-28.9485523385301
20
3.27016934773352
30
0.000000000000000
11
-28.8485523385301
21
3.18941931267749
31
0.000000000000000
  0
LINE
  5
F10307
330
F10308
100
AcDbEntity
8
Geo
100
AcDbLine
10
-28.8485523385301
20
3.18941931267749
30
0.000000000000000
11
-28.7485523385301
21
3.10829792339680
31
0.000000000000000
  0
LINE
  5
F10309
330
F1030A
100
AcDbEntity
8
Geo
100
AcDbLine
10
-28.7485523385301
20
3.10829792339680
30
0.000000000000000
11
-28.6485523385301
21
3.02682802600015
31
0.000000000000000
  0
LINE
  5
F1030B
330
F1030C
100
AcDbEntity
8
Geo
100
AcDbLine
10
-28.6485523385301
20
3.02682802600015
30
0.000000000000000
11
-28.5485523385301
21
2.94503256474612
31
0.000000000000000
  0
LINE
  5
F1030D
330
F1030E
100
AcDbEntity
8
Geo
100
AcDbLine
10
-28.5485523385301
20
2.94503256474612
30
0.000000000000000
11
-28.4485523385301
21
2.86293457558140
31
0.000000000000000
  0
LINE
  5
F1030F
330
F10310
100
AcDbEntity
8
Geo
100
AcDbLine
10
-28.4485523385301
20
2.86293457558140
30
0.000000000000000
11
-28.3485523385301
21
2.78055717965320
31
0.000000000000000
  0
LINE
  5
F10311
330
F10312
100
AcDbEntity
8
Geo
100
AcDbLine
10
-28.3485523385301
20
2.78055717965320
30
0.000000000000000
11
-28.2485523385301
21
2.69792357679769
31
0.000000000000000
  0
LINE
  5
F10313
330
F10314
100
AcDbEntity
8
Geo
100
AcDbLine
10
-28.2485523385301
20
2.69792357679769
30
0.000000000000000
11
-28.1485523385301
21
2.61505703900627
31
0.000000000000000
  0
LINE
  5
F10315
330
F10316
100
AcDbEntity
8
Geo
100
AcDbLine
10
-28.1485523385301
20
2.61505703900627
30
0.000000000000000
11
-28.0485523385301
21
2.53198090387149
31
0.000000000000000
  0
LINE
  5
F10317
330
F10318
100
AcDbEntity
8
Geo
100
AcDbLine
10
-28.0485523385301
20
2.53198090387149
30
0.000000000000000
11
-27.9485523385301
21
2.44871856801449
31
0.000000000000000
  0
LINE
  5
F10319
330
F1031A
100
AcDbEntity
8
Geo
100
AcDbLine
10
-27.9485523385301
20
2.44871856801449
30
0.000000000000000
11
-27.8485523385301
21
2.36529348049593
31
0.000000000000000
  0
LINE
  5
F1031B
330
F1031C
100
AcDbEntity
8
Geo
100
AcDbLine
10
-27.8485523385301
20
2.36529348049593
30
0.000000000000000
11
-27.7485523385301
21
2.28172913621194
31
0.000000000000000
  0
LINE
  5
F1031D
330
F1031E
100
AcDbEntity
8
Geo
100
AcDbLine
10
-27.7485523385301
20
2.28172913621194
30
0.000000000000000
11
-27.6485523385301
21
2.19804906927740
31
0.000000000000000
  0
LINE
  5
F1031F
330
F10320
100
AcDbEntity
8
Geo
100
AcDbLine
10
-27.6485523385301
20
2.19804906927740
30
0.000000000000000
11
-27.5485523385301
21
2.11427684639796
31
0.000000000000000
  0
LINE
  5
F10321
330
F10322
100
AcDbEntity
8
Geo
100
AcDbLine
10
-27.5485523385301
20
2.11427684639796
30
0.000000000000000
11
-27.4485523385301
21
2.03043606023307
31
0.000000000000000
  0
LINE
  5
F10323
330
F10324
100
AcDbEntity
8
Geo
100
AcDbLine
10
-27.4485523385301
20
2.03043606023307
30
0.000000000000000
11
-27.3485523385301
21
1.94655032275153
31
0.000000000000000
  0
LINE
  5
F10325
330
F10326
100
AcDbEntity
8
Geo
100
AcDbLine
10
-27.3485523385301
20
1.94655032275153
30
0.000000000000000
11
-27.2485523385301
21
1.86264325858174
31
0.000000000000000
  0
LINE
  5
F10327
330
F10328
100
AcDbEntity
8
Geo
100
AcDbLine
10
-27.2485523385301
20
1.86264325858174
30
0.000000000000000
11
-27.1485523385301
21
1.77873849835830
31
0.000000000000000
  0
LINE
  5
F10329
330
F1032A
100
AcDbEntity
8
Geo
100
AcDbLine
10
-27.1485523385301
20
1.77873849835830
30
0.000000000000000
11
-27.0485523385301
21
1.69485967206696
31
0.000000000000000
  0
LINE
  5
F1032B
330
F1032C
100
AcDbEntity
8
Geo
100
AcDbLine
10
-27.0485523385301
20
1.69485967206696
30
0.000000000000000
11
-26.9485523385301
21
1.61103040238972
31
0.000000000000000
  0
LINE
  5
F1032D
330
F1032E
100
AcDbEntity
8
Geo
100
AcDbLine
10
-26.9485523385301
20
1.61103040238972
30
0.000000000000000
11
-26.8485523385301
21
1.52727429805201
31
0.000000000000000
  0
LINE
  5
F1032F
330
F10330
100
AcDbEntity
8
Geo
100
AcDbLine
10
-26.8485523385301
20
1.52727429805201
30
0.000000000000000
11
-26.7485523385301
21
1.44361494717384
31
0.000000000000000
  0
LINE
  5
F10331
330
F10332
100
AcDbEntity
8
Geo
100
AcDbLine
10
-26.7485523385301
20
1.44361494717384
30
0.000000000000000
11
-26.6485523385301
21
1.36007591062663
31
0.000000000000000
  0
LINE
  5
F10333
330
F10334
100
AcDbEntity
8
Geo
100
AcDbLine
10
-26.6485523385301
20
1.36007591062663
30
0.000000000000000
11
-26.5485523385301
21
1.27668071539786
31
0.000000000000000
  0
LINE
  5
F10335
330
F10336
100
AcDbEntity
8
Geo
100
AcDbLine
10
-26.5485523385301
20
1.27668071539786
30
0.000000000000000
11
-26.4485523385301
21
1.19345284796516
31
0.000000000000000
  0
LINE
  5
F10337
330
F10338
100
AcDbEntity
8
Geo
100
AcDbLine
10
-26.4485523385301
20
1.19345284796516
30
0.000000000000000
11
-26.3485523385301
21
1.11041574768186
31
0.000000000000000
  0
LINE
  5
F10339
330
F1033A
100
AcDbEntity
8
Geo
100
AcDbLine
10
-26.3485523385301
20
1.11041574768186
30
0.000000000000000
11
-26.2485523385301
21
1.02759280017580
31
0.000000000000000
  0
LINE
  5
F1033B
330
F1033C
100
AcDbEntity
8
Geo
100
AcDbLine
10
-26.2485523385301
20
1.02759280017580
30
0.000000000000000
11
-26.1485523385301
21
0.945007330763238
31
0.000000000000000
  0
LINE
  5
F1033D
330
F1033E
100
AcDbEntity
8
Geo
100
AcDbLine
10
-26.1485523385301
20
0.945007330763238
30
0.000000000000000
11
-26.0485523385301
21
0.862682597879811
31
0.000000000000000
  0
LINE
  5
F1033F
330
F10340
100
AcDbEntity
8
Geo
100
AcDbLine
10
-26.0485523385301
20
0.862682597879811
30
0.000000000000000
11
-25.9485523385301
21
0.780641786530271
31
0.000000000000000
  0
LINE
  5
F10341
330
F10342
100
AcDbEntity
8
Geo
100
AcDbLine
10
-25.9485523385301
20
0.780641786530271
30
0.000000000000000
11
-25.8485523385301
21
0.698908001758931
31
0.000000000000000
  0
LINE
  5
F10343
330
F10344
100
AcDbEntity
8
Geo
100
AcDbLine
10
-25.8485523385301
20
0.698908001758931
30
0.000000000000000
11
-25.7485523385301
21
0.617504262142601
31
0.000000000000000
  0
LINE
  5
F10345
330
F10346
100
AcDbEntity
8
Geo
100
AcDbLine
10
-25.7485523385301
20
0.617504262142601
30
0.000000000000000
11
-25.6485523385301
21
0.536453493307941
31
0.000000000000000
  0
LINE
  5
F10347
330
F10348
100
AcDbEntity
8
Geo
100
AcDbLine
10
-25.6485523385301
20
0.536453493307941
30
0.000000000000000
11
-25.5485523385301
21
0.455778521474891
31
0.000000000000000
  0
LINE
  5
F10349
330
F1034A
100
AcDbEntity
8
Geo
100
AcDbLine
10
-25.5485523385301
20
0.455778521474891
30
0.000000000000000
11
-25.4485523385301
21
0.375502067028201
31
0.000000000000000
  0
LINE
  5
F1034B
330
F1034C
100
AcDbEntity
8
Geo
100
AcDbLine
10
-25.4485523385301
20
0.375502067028201
30
0.000000000000000
11
-25.3485523385301
21
0.295646738118701
31
0.000000000000000
  0
LINE
  5
F1034D
330
F1034E
100
AcDbEntity
8
Geo
100
AcDbLine
10
-25.3485523385301
20
0.295646738118701
30
0.000000000000000
11
-25.2485523385301
21
0.216235024296201
31
0.000000000000000
  0
LINE
  5
F1034F
330
F10350
100
AcDbEntity
8
Geo
100
AcDbLine
10
-25.2485523385301
20
0.216235024296201
30
0.000000000000000
11
-25.1485523385301
21
0.137289290175761
31
0.000000000000000
  0
LINE
  5
F10351
330
F10352
100
AcDbEntity
8
Geo
100
AcDbLine
10
-25.1485523385301
20
0.137289290175761
30
0.000000000000000
11
-25.0485523385301
21
0.0588317691392310
31
0.000000000000000
  0
LINE
  5
F10353
330
F10354
100
AcDbEntity
8
Geo
100
AcDbLine
10
-25.0485523385301
20
0.0588317691392310
30
0.000000000000000
11
-24.9485523385301
21
-0.0191154429263689
31
0.000000000000000
  0
LINE
  5
F10355
330
F10356
100
AcDbEntity
8
Geo
100
AcDbLine
10
-24.9485523385301
20
-0.0191154429263689
30
0.000000000000000
11
-24.8485523385301
21
-0.0965303938516291
31
0.000000000000000
  0
LINE
  5
F10357
330
F10358
100
AcDbEntity
8
Geo
100
AcDbLine
10
-24.8485523385301
20
-0.0965303938516291
30
0.000000000000000
11
-24.7485523385301
21
-0.173391281367139
31
0.000000000000000
  0
LINE
  5
F10359
330
F1035A
100
AcDbEntity
8
Geo
100
AcDbLine
10
-24.7485523385301
20
-0.173391281367139
30
0.000000000000000
11
-24.6485523385301
21
-0.249676459243649
31
0.000000000000000
  0
LINE
  5
F1035B
330
F1035C
100
AcDbEntity
8
Geo
100
AcDbLine
10
-24.6485523385301
20
-0.249676459243649
30
0.000000000000000
11
-24.5485523385301
21
-0.325364443388219
31
0.000000000000000
  0
LINE
  5
F1035D
330
F1035E
100
AcDbEntity
8
Geo
100
AcDbLine
10
-24.5485523385301
20
-0.325364443388219
30
0.000000000000000
11
-24.4485523385301
21
-0.400433917894799
31
0.000000000000000
  0
LINE
  5
F1035F
330
F10360
100
AcDbEntity
8
Geo
100
AcDbLine
10
-24.4485523385301
20
-0.400433917894799
30
0.000000000000000
11
-24.3485523385301
21
-0.474863741047389
31
0.000000000000000
  0
LINE
  5
F10361
330
F10362
100
AcDbEntity
8
Geo
100
AcDbLine
10
-24.3485523385301
20
-0.474863741047389
30
0.000000000000000
11
-24.2485523385301
21
-0.548632951274119
31
0.000000000000000
  0
LINE
  5
F10363
330
F10364
100
AcDbEntity
8
Geo
100
AcDbLine
10
-24.2485523385301
20
-0.548632951274119
30
0.000000000000000
11
-24.1485523385301
21
-0.621720773050699
31
0.000000000000000
  0
LINE
  5
F10365
330
F10366
100
AcDbEntity
8
Geo
100
AcDbLine
10
-24.1485523385301
20
-0.621720773050699
30
0.000000000000000
11
-24.0485523385301
21
-0.694106622751329
31
0.000000000000000
  0
LINE
  5
F10367
330
F10368
100
AcDbEntity
8
Geo
100
AcDbLine
10
-24.0485523385301
20
-0.694106622751329
30
0.000000000000000
11
-23.9485523385301
21
-0.765770114445659
31
0.000000000000000
  0
LINE
  5
F10369
330
F1036A
100
AcDbEntity
8
Geo
100
AcDbLine
10
-23.9485523385301
20
-0.765770114445659
30
0.000000000000000
11
-23.8485523385301
21
-0.836691065640109
31
0.000000000000000
  0
LINE
  5
F1036B
330
F1036C
100
AcDbEntity
8
Geo
100
AcDbLine
10
-23.8485523385301
20
-0.836691065640109
30
0.000000000000000
11
-23.7485523385301
21
-0.906849502961729
31
0.000000000000000
  0
LINE
  5
F1036D
330
F1036E
100
AcDbEntity
8
Geo
100
AcDbLine
10
-23.7485523385301
20
-0.906849502961729
30
0.000000000000000
11
-23.6485523385301
21
-0.976225667783389
31
0.000000000000000
  0
LINE
  5
F1036F
330
F10370
100
AcDbEntity
8
Geo
100
AcDbLine
10
-23.6485523385301
20
-0.976225667783389
30
0.000000000000000
11
-23.5485523385301
21
-1.04480002178828
31
0.000000000000000
  0
LINE
  5
F10371
330
F10372
100
AcDbEntity
8
Geo
100
AcDbLine
10
-23.5485523385301
20
-1.04480002178828
30
0.000000000000000
11
-23.4485523385301
21
-1.11255325247253
31
0.000000000000000
  0
LINE
  5
F10373
330
F10374
100
AcDbEntity
8
Geo
100
AcDbLine
10
-23.4485523385301
20
-1.11255325247253
30
0.000000000000000
11
-23.3485523385301
21
-1.17946627858412
31
0.000000000000000
  0
LINE
  5
F10375
330
F10376
100
AcDbEntity
8
Geo
100
AcDbLine
10
-23.3485523385301
20
-1.17946627858412
30
0.000000000000000
11
-23.2485523385301
21
-1.24552025549673
31
0.000000000000000
  0
LINE
  5
F10377
330
F10378
100
AcDbEntity
8
Geo
100
AcDbLine
10
-23.2485523385301
20
-1.24552025549673
30
0.000000000000000
11
-23.1485523385301
21
-1.31069658051690
31
0.000000000000000
  0
LINE
  5
F10379
330
F1037A
100
AcDbEntity
8
Geo
100
AcDbLine
10
-23.1485523385301
20
-1.31069658051690
30
0.000000000000000
11
-23.0485523385301
21
-1.37497689812315
31
0.000000000000000
  0
LINE
  5
F1037B
330
F1037C
100
AcDbEntity
8
Geo
100
AcDbLine
10
-23.0485523385301
20
-1.37497689812315
30
0.000000000000000
11
-22.9485523385301
21
-1.43834310513531
31
0.000000000000000
  0
LINE
  5
F1037D
330
F1037E
100
AcDbEntity
8
Geo
100
AcDbLine
10
-22.9485523385301
20
-1.43834310513531
30
0.000000000000000
11
-22.8485523385301
21
-1.50077735581302
31
0.000000000000000
  0
LINE
  5
F1037F
330
F10380
100
AcDbEntity
8
Geo
100
AcDbLine
10
-22.8485523385301
20
-1.50077735581302
30
0.000000000000000
11
-22.7485523385301
21
-1.56226206688150
31
0.000000000000000
  0
LINE
  5
F10381
330
F10382
100
AcDbEntity
8
Geo
100
AcDbLine
10
-22.7485523385301
20
-1.56226206688150
30
0.000000000000000
11
-22.6485523385301
21
-1.62277992248355
31
0.000000000000000
  0
LINE
  5
F10383
330
F10384
100
AcDbEntity
8
Geo
100
AcDbLine
10
-22.6485523385301
20
-1.62277992248355
30
0.000000000000000
11
-22.5485523385301
21
-1.68231387905619
31
0.000000000000000
  0
LINE
  5
F10385
330
F10386
100
AcDbEntity
8
Geo
100
AcDbLine
10
-22.5485523385301
20
-1.68231387905619
30
0.000000000000000
11
-22.4485523385301
21
-1.74084717013063
31
0.000000000000000
  0
LINE
  5
F10387
330
F10388
100
AcDbEntity
8
Geo
100
AcDbLine
10
-22.4485523385301
20
-1.74084717013063
30
0.000000000000000
11
-22.3485523385301
21
-1.79836331105413
31
0.000000000000000
  0
LINE
  5
F10389
330
F1038A
100
AcDbEntity
8
Geo
100
AcDbLine
10
-22.3485523385301
20
-1.79836331105413
30
0.000000000000000
11
-22.2485523385301
21
-1.85484610363263
31
0.000000000000000
  0
LINE
  5
F1038B
330
F1038C
100
AcDbEntity
8
Geo
100
AcDbLine
10
-22.2485523385301
20
-1.85484610363263
30
0.000000000000000
11
-22.1485523385301
21
-1.91027964069255
31
0.000000000000000
  0
LINE
  5
F1038D
330
F1038E
100
AcDbEntity
8
Geo
100
AcDbLine
10
-22.1485523385301
20
-1.91027964069255
30
0.000000000000000
11
-22.0485523385301
21
-1.96464831056079
31
0.000000000000000
  0
LINE
  5
F1038F
330
F10390
100
AcDbEntity
8
Geo
100
AcDbLine
10
-22.0485523385301
20
-1.96464831056079
30
0.000000000000000
11
-21.9485523385301
21
-2.01793680146133
31
0.000000000000000
  0
LINE
  5
F10391
330
F10392
100
AcDbEntity
8
Geo
100
AcDbLine
10
-21.9485523385301
20
-2.01793680146133
30
0.000000000000000
11
-21.8485523385301
21
-2.07013010582753
31
0.000000000000000
  0
LINE
  5
F10393
330
F10394
100
AcDbEntity
8
Geo
100
AcDbLine
10
-21.8485523385301
20
-2.07013010582753
30
0.000000000000000
11
-21.7485523385301
21
-2.12121352452869
31
0.000000000000000
  0
LINE
  5
F10395
330
F10396
100
AcDbEntity
8
Geo
100
AcDbLine
10
-21.7485523385301
20
-2.12121352452869
30
0.000000000000000
11
-21.6485523385301
21
-2.17117267100970
31
0.000000000000000
  0
LINE
  5
F10397
330
F10398
100
AcDbEntity
8
Geo
100
AcDbLine
10
-21.6485523385301
20
-2.17117267100970
30
0.000000000000000
11
-21.5485523385301
21
-2.21999347534276
31
0.000000000000000
  0
LINE
  5
F10399
330
F1039A
100
AcDbEntity
8
Geo
100
AcDbLine
10
-21.5485523385301
20
-2.21999347534276
30
0.000000000000000
11
-21.4485523385301
21
-2.26766218818985
31
0.000000000000000
  0
LINE
  5
F1039B
330
F1039C
100
AcDbEntity
8
Geo
100
AcDbLine
10
-21.4485523385301
20
-2.26766218818985
30
0.000000000000000
11
-21.3485523385301
21
-2.31416538467492
31
0.000000000000000
  0
LINE
  5
F1039D
330
F1039E
100
AcDbEntity
8
Geo
100
AcDbLine
10
-21.3485523385301
20
-2.31416538467492
30
0.000000000000000
11
-21.2485523385301
21
-2.35948996816475
31
0.000000000000000
  0
LINE
  5
F1039F
330
F103A0
100
AcDbEntity
8
Geo
100
AcDbLine
10
-21.2485523385301
20
-2.35948996816475
30
0.000000000000000
11
-21.1485523385301
21
-2.40362317395734
31
0.000000000000000
  0
LINE
  5
F103A1
330
F103A2
100
AcDbEntity
8
Geo
100
AcDbLine
10
-21.1485523385301
20
-2.40362317395734
30
0.000000000000000
11
-21.0485523385301
21
-2.44655257287677
31
0.000000000000000
  0
LINE
  5
F103A3
330
F103A4
100
AcDbEntity
8
Geo
100
AcDbLine
10
-21.0485523385301
20
-2.44655257287677
30
0.000000000000000
11
-20.9485523385301
21
-2.48826607477368
31
0.000000000000000
  0
LINE
  5
F103A5
330
F103A6
100
AcDbEntity
8
Geo
100
AcDbLine
10
-20.9485523385301
20
-2.48826607477368
30
0.000000000000000
11
-20.8485523385301
21
-2.52875193193015
31
0.000000000000000
  0
LINE
  5
F103A7
330
F103A8
100
AcDbEntity
8
Geo
100
AcDbLine
10
-20.8485523385301
20
-2.52875193193015
30
0.000000000000000
11
-20.7485523385301
21
-2.56799874236821
31
0.000000000000000
  0
LINE
  5
F103A9
330
F103AA
100
AcDbEntity
8
Geo
100
AcDbLine
10
-20.7485523385301
20
-2.56799874236821
30
0.000000000000000
11
-20.6485523385301
21
-2.60599545306096
31
0.000000000000000
  0
LINE
  5
F103AB
330
F103AC
100
AcDbEntity
8
Geo
100
AcDbLine
10
-20.6485523385301
20
-2.60599545306096
30
0.000000000000000
11
-20.5485523385301
21
-2.64273136304544
31
0.000000000000000
  0
LINE
  5
F103AD
330
F103AE
100
AcDbEntity
8
Geo
100
AcDbLine
10
-20.5485523385301
20
-2.64273136304544
30
0.000000000000000
11
-20.4485523385301
21
-2.67819612643630
31
0.000000000000000
  0
LINE
  5
F103AF
330
F103B0
100
AcDbEntity
8
Geo
100
AcDbLine
10
-20.4485523385301
20
-2.67819612643630
30
0.000000000000000
11
-20.3485523385301
21
-2.71237975533952
31
0.000000000000000
  0
LINE
  5
F103B1
330
F103B2
100
AcDbEntity
8
Geo
100
AcDbLine
10
-20.3485523385301
20
-2.71237975533952
30
0.000000000000000
11
-20.2485523385301
21
-2.74527262266527
31
0.000000000000000
  0
LINE
  5
F103B3
330
F103B4
100
AcDbEntity
8
Geo
100
AcDbLine
10
-20.2485523385301
20
-2.74527262266527
30
0.000000000000000
11
-20.1485523385301
21
-2.77686546483919
31
0.000000000000000
  0
LINE
  5
F103B5
330
F103B6
100
AcDbEntity
8
Geo
100
AcDbLine
10
-20.1485523385301
20
-2.77686546483919
30
0.000000000000000
11
-20.0485523385301
21
-2.80714938441125
31
0.000000000000000
  0
LINE
  5
F103B7
330
F103B8
100
AcDbEntity
8
Geo
100
AcDbLine
10
-20.0485523385301
20
-2.80714938441125
30
0.000000000000000
11
-19.9485523385301
21
-2.83611585256157
31
0.000000000000000
  0
LINE
  5
F103B9
330
F103BA
100
AcDbEntity
8
Geo
100
AcDbLine
10
-19.9485523385301
20
-2.83611585256157
30
0.000000000000000
11
-19.8485523385301
21
-2.86375671150235
31
0.000000000000000
  0
LINE
  5
F103BB
330
F103BC
100
AcDbEntity
8
Geo
100
AcDbLine
10
-19.8485523385301
20
-2.86375671150235
30
0.000000000000000
11
-19.7485523385301
21
-2.89006417677533
31
0.000000000000000
  0
LINE
  5
F103BD
330
F103BE
100
AcDbEntity
8
Geo
100
AcDbLine
10
-19.7485523385301
20
-2.89006417677533
30
0.000000000000000
11
-19.6485523385301
21
-2.91503083944416
31
0.000000000000000
  0
LINE
  5
F103BF
330
F103C0
100
AcDbEntity
8
Geo
100
AcDbLine
10
-19.6485523385301
20
-2.91503083944416
30
0.000000000000000
11
-19.5485523385301
21
-2.93864966818092
31
0.000000000000000
  0
LINE
  5
F103C1
330
F103C2
100
AcDbEntity
8
Geo
100
AcDbLine
10
-19.5485523385301
20
-2.93864966818092
30
0.000000000000000
11
-19.4485523385301
21
-2.96091401124636
31
0.000000000000000
  0
LINE
  5
F103C3
330
F103C4
100
AcDbEntity
8
Geo
100
AcDbLine
10
-19.4485523385301
20
-2.96091401124636
30
0.000000000000000
11
-19.3485523385301
21
-2.98181759836323
31
0.000000000000000
  0
LINE
  5
F103C5
330
F103C6
100
AcDbEntity
8
Geo
100
AcDbLine
10
-19.3485523385301
20
-2.98181759836323
30
0.000000000000000
11
-19.2485523385301
21
-3.00135454248217
31
0.000000000000000
  0
LINE
  5
F103C7
330
F103C8
100
AcDbEntity
8
Geo
100
AcDbLine
10
-19.2485523385301
20
-3.00135454248217
30
0.000000000000000
11
-19.1485523385301
21
-3.01951934143964
31
0.000000000000000
  0
LINE
  5
F103C9
330
F103CA
100
AcDbEntity
8
Geo
100
AcDbLine
10
-19.1485523385301
20
-3.01951934143964
30
0.000000000000000
11
-19.0485523385301
21
-3.03630687950755
31
0.000000000000000
  0
LINE
  5
F103CB
330
F103CC
100
AcDbEntity
8
Geo
100
AcDbLine
10
-19.0485523385301
20
-3.03630687950755
30
0.000000000000000
11
-18.9485523385301
21
-3.05171242883393
31
0.000000000000000
  0
LINE
  5
F103CD
330
F103CE
100
AcDbEntity
8
Geo
100
AcDbLine
10
-18.9485523385301
20
-3.05171242883393
30
0.000000000000000
11
-18.8485523385301
21
-3.06573165077447
31
0.000000000000000
  0
LINE
  5
F103CF
330
F103D0
100
AcDbEntity
8
Geo
100
AcDbLine
10
-18.8485523385301
20
-3.06573165077447
30
0.000000000000000
11
-18.7485523385301
21
-3.07836059711438
31
0.000000000000000
  0
LINE
  5
F103D1
330
F103D2
100
AcDbEntity
8
Geo
100
AcDbLine
10
-18.7485523385301
20
-3.07836059711438
30
0.000000000000000
11
-18.6485523385301
21
-3.08959571118035
31
0.000000000000000
  0
LINE
  5
F103D3
330
F103D4
100
AcDbEntity
8
Geo
100
AcDbLine
10
-18.6485523385301
20
-3.08959571118035
30
0.000000000000000
11
-18.5485523385301
21
-3.09943382884218
31
0.000000000000000
  0
LINE
  5
F103D5
330
F103D6
100
AcDbEntity
8
Geo
100
AcDbLine
10
-18.5485523385301
20
-3.09943382884218
30
0.000000000000000
11
-18.4485523385301
21
-3.10787217940392
31
0.000000000000000
  0
LINE
  5
F103D7
330
F103D8
100
AcDbEntity
8
Geo
100
AcDbLine
10
-18.4485523385301
20
-3.10787217940392
30
0.000000000000000
11
-18.3485523385301
21
-3.11490838638413
31
0.000000000000000
  0
LINE
  5
F103D9
330
F103DA
100
AcDbEntity
8
Geo
100
AcDbLine
10
-18.3485523385301
20
-3.11490838638413
30
0.000000000000000
11
-18.2485523385301
21
-3.12054046818525
31
0.000000000000000
  0
LINE
  5
F103DB
330
F103DC
100
AcDbEntity
8
Geo
100
AcDbLine
10
-18.2485523385301
20
-3.12054046818525
30
0.000000000000000
11
-18.1485523385301
21
-3.12476683865157
31
0.000000000000000
  0
LINE
  5
F103DD
330
F103DE
100
AcDbEntity
8
Geo
100
AcDbLine
10
-18.1485523385301
20
-3.12476683865157
30
0.000000000000000
11
-18.0485523385301
21
-3.12758630751602
31
0.000000000000000
  0
LINE
  5
F103DF
330
F103E0
100
AcDbEntity
8
Geo
100
AcDbLine
10
-18.0485523385301
20
-3.12758630751602
30
0.000000000000000
11
-17.9485523385301
21
-3.12899808073535
31
0.000000000000000
  0
LINE
  5
F103E1
330
F103E2
100
AcDbEntity
8
Geo
100
AcDbLine
10
-2.74855233853000
20
6.62032290505086
30
0.000000000000000
11
-2.64855233853000
21
6.61992248215716
31
0.000000000000000
  0
LINE
  5
F103E3
330
F103E4
100
AcDbEntity
8
Geo
100
AcDbLine
10
-2.64855233853000
20
6.61992248215716
30
0.000000000000000
11
-2.54855233853000
21
6.61398042320922
31
0.000000000000000
  0
LINE
  5
F103E5
330
F103E6
100
AcDbEntity
8
Geo
100
AcDbLine
10
-2.54855233853000
20
6.61398042320922
30
0.000000000000000
11
-2.44855233853000
21
6.60241006690323
31
0.000000000000000
  0
LINE
  5
F103E7
330
F103E8
100
AcDbEntity
8
Geo
100
AcDbLine
10
-2.44855233853000
20
6.60241006690323
30
0.000000000000000
11
-2.34855233853010
21
6.58513113592504
31
0.000000000000000
  0
LINE
  5
F103E9
330
F103EA
100
AcDbEntity
8
Geo
100
AcDbLine
10
-29.3485523385301
20
-2.81391620404988
30
0.000000000000000
11
-29.2485523385301
21
-2.93133481885207
31
0.000000000000000
  0
LINE
  5
F103EB
330
F103EC
100
AcDbEntity
8
Geo
100
AcDbLine
10
-29.2485523385301
20
-2.93133481885207
30
0.000000000000000
11
-29.1485523385301
21
-2.99951178379779
31
0.000000000000000
  0
LINE
  5
F103ED
330
F103EE
100
AcDbEntity
8
Geo
100
AcDbLine
10
-29.1485523385301
20
-2.99951178379779
30
0.000000000000000
11
-29.0485523385301
21
-3.01781046727993
31
0.000000000000000
  0
LINE
  5
F103EF
330
F103F0
100
AcDbEntity
8
Geo
100
AcDbLine
10
-29.0485523385301
20
-3.01781046727993
30
0.000000000000000
11
-28.9485523385301
21
-3.03473237114046
31
0.000000000000000
  0
LINE
  5
F103F1
330
F103F2
100
AcDbEntity
8
Geo
100
AcDbLine
10
-28.9485523385301
20
-3.03473237114046
30
0.000000000000000
11
-28.8485523385301
21
-3.05027272968615
31
0.000000000000000
  0
LINE
  5
F103F3
330
F103F4
100
AcDbEntity
8
Geo
100
AcDbLine
10
-28.8485523385301
20
-3.05027272968615
30
0.000000000000000
11
-28.7485523385301
21
-3.06442716630654
31
0.000000000000000
  0
LINE
  5
F103F5
330
F103F6
100
AcDbEntity
8
Geo
100
AcDbLine
10
-28.7485523385301
20
-3.06442716630654
30
0.000000000000000
11
-28.6485523385301
21
-3.07719169470653
31
0.000000000000000
  0
LINE
  5
F103F7
330
F103F8
100
AcDbEntity
8
Geo
100
AcDbLine
10
-28.6485523385301
20
-3.07719169470653
30
0.000000000000000
11
-28.5485523385301
21
-3.08856272002901
31
0.000000000000000
  0
LINE
  5
F103F9
330
F103FA
100
AcDbEntity
8
Geo
100
AcDbLine
10
-28.5485523385301
20
-3.08856272002901
30
0.000000000000000
11
-28.4485523385301
21
-3.09853703986726
31
0.000000000000000
  0
LINE
  5
F103FB
330
F103FC
100
AcDbEntity
8
Geo
100
AcDbLine
10
-28.4485523385301
20
-3.09853703986726
30
0.000000000000000
11
-28.3485523385301
21
-3.10711184516690
31
0.000000000000000
  0
LINE
  5
F103FD
330
F103FE
100
AcDbEntity
8
Geo
100
AcDbLine
10
-28.3485523385301
20
-3.10711184516690
30
0.000000000000000
11
-28.2485523385301
21
-3.11428472101695
31
0.000000000000000
  0
LINE
  5
F103FF
330
F10400
100
AcDbEntity
8
Geo
100
AcDbLine
10
-28.2485523385301
20
-3.11428472101695
30
0.000000000000000
11
-28.1485523385301
21
-3.12005364732993
31
0.000000000000000
  0
LINE
  5
F10401
330
F10402
100
AcDbEntity
8
Geo
100
AcDbLine
10
-28.1485523385301
20
-3.12005364732993
30
0.000000000000000
11
-28.0485523385301
21
-3.12441699941084
31
0.000000000000000
  0
LINE
  5
F10403
330
F10404
100
AcDbEntity
8
Geo
100
AcDbLine
10
-28.0485523385301
20
-3.12441699941084
30
0.000000000000000
11
-27.9485523385301
21
-3.12737354841463
31
0.000000000000000
  0
LINE
  5
F10405
330
F10406
100
AcDbEntity
8
Geo
100
AcDbLine
10
-27.9485523385301
20
-3.12737354841463
30
0.000000000000000
11
-27.8485523385301
21
-3.12892246169235
31
0.000000000000000
  0
LINE
  5
F10407
330
F10408
100
AcDbEntity
8
Geo
100
AcDbLine
10
-9.14855233853010
20
6.87037317944226
30
0.000000000000000
11
-9.04855233853010
21
6.87079595598834
31
0.000000000000000
  0
LINE
  5
F10409
330
F1040A
100
AcDbEntity
8
Geo
100
AcDbLine
10
-9.04855233853010
20
6.87079595598834
30
0.000000000000000
11
-8.94855233853010
21
6.86981059711441
31
0.000000000000000
  0
LINE
  5
F1040B
330
F1040C
100
AcDbEntity
8
Geo
100
AcDbLine
10
-8.94855233853010
20
6.86981059711441
30
0.000000000000000
11
-8.84855233853010
21
6.86741738032580
31
0.000000000000000
  0
LINE
  5
F1040D
330
F1040E
100
AcDbEntity
8
Geo
100
AcDbLine
10
-8.84855233853010
20
6.86741738032580
30
0.000000000000000
11
-8.74855233853010
21
6.86361697962094
31
0.000000000000000
  0
LINE
  5
F1040F
330
F10410
100
AcDbEntity
8
Geo
100
AcDbLine
10
-8.74855233853010
20
6.86361697962094
30
0.000000000000000
11
-8.64855233853010
21
6.85841046530163
31
0.000000000000000
  0
LINE
  5
F10411
330
F10412
100
AcDbEntity
8
Geo
100
AcDbLine
10
-8.64855233853010
20
6.85841046530163
30
0.000000000000000
11
-8.54855233853010
21
6.85179930367155
31
0.000000000000000
  0
LINE
  5
F10413
330
F10414
100
AcDbEntity
8
Geo
100
AcDbLine
10
-8.54855233853010
20
6.85179930367155
30
0.000000000000000
11
-8.44855233853010
21
6.84378535662334
31
0.000000000000000
  0
LINE
  5
F10415
330
F10416
100
AcDbEntity
8
Geo
100
AcDbLine
10
-8.44855233853010
20
6.84378535662334
30
0.000000000000000
11
-8.34855233853010
21
6.83437088111421
31
0.000000000000000
  0
LINE
  5
F10417
330
F10418
100
AcDbEntity
8
Geo
100
AcDbLine
10
-8.34855233853010
20
6.83437088111421
30
0.000000000000000
11
-8.24855233853010
21
6.82355852853035
31
0.000000000000000
  0
LINE
  5
F10419
330
F1041A
100
AcDbEntity
8
Geo
100
AcDbLine
10
-8.24855233853010
20
6.82355852853035
30
0.000000000000000
11
-8.14855233853010
21
6.81135134394020
31
0.000000000000000
  0
LINE
  5
F1041B
330
F1041C
100
AcDbEntity
8
Geo
100
AcDbLine
10
-8.14855233853010
20
6.81135134394020
30
0.000000000000000
11
-8.04855233853010
21
6.79775276523689
31
0.000000000000000
  0
LINE
  5
F1041D
330
F1041E
100
AcDbEntity
8
Geo
100
AcDbLine
10
-8.04855233853010
20
6.79775276523689
30
0.000000000000000
11
-7.94855233853010
21
6.78276662216999
31
0.000000000000000
  0
LINE
  5
F1041F
330
F10420
100
AcDbEntity
8
Geo
100
AcDbLine
10
-7.94855233853010
20
6.78276662216999
30
0.000000000000000
11
-7.84855233853010
21
6.76639713526700
31
0.000000000000000
  0
LINE
  5
F10421
330
F10422
100
AcDbEntity
8
Geo
100
AcDbLine
10
-7.84855233853010
20
6.76639713526700
30
0.000000000000000
11
-7.74855233853010
21
6.74864891464469
31
0.000000000000000
  0
LINE
  5
F10423
330
F10424
100
AcDbEntity
8
Geo
100
AcDbLine
10
-7.74855233853010
20
6.74864891464469
30
0.000000000000000
11
-7.64855233853010
21
6.72952695871077
31
0.000000000000000
  0
LINE
  5
F10425
330
F10426
100
AcDbEntity
8
Geo
100
AcDbLine
10
-7.64855233853010
20
6.72952695871077
30
0.000000000000000
11
-7.54855233853010
21
6.70903665275619
31
0.000000000000000
  0
LINE
  5
F10427
330
F10428
100
AcDbEntity
8
Geo
100
AcDbLine
10
-7.54855233853010
20
6.70903665275619
30
0.000000000000000
11
-7.44855233853010
21
6.68718376743848
31
0.000000000000000
  0
LINE
  5
F10429
330
F1042A
100
AcDbEntity
8
Geo
100
AcDbLine
10
-7.44855233853010
20
6.68718376743848
30
0.000000000000000
11
-7.34855233853010
21
6.66397445715663
31
0.000000000000000
  0
LINE
  5
F1042B
330
F1042C
100
AcDbEntity
8
Geo
100
AcDbLine
10
-7.34855233853010
20
6.66397445715663
30
0.000000000000000
11
-7.34855233853010
21
6.66397445715663
31
0.000000000000000
  0
LINE
  5
F1042D
330
F1042E
100
AcDbEntity
8
Geo
100
AcDbLine
10
-7.34855233853010
20
6.66397445715663
30
0.000000000000000
11
-7.24855233853010
21
6.42807980595686
31
0.000000000000000
  0
LINE
  5
F1042F
330
F10430
100
AcDbEntity
8
Geo
100
AcDbLine
10
-7.24855233853010
20
6.42807980595686
30
0.000000000000000
11
-7.14855233853010
21
6.43183538681917
31
0.000000000000000
  0
LINE
  5
F10431
330
F10432
100
AcDbEntity
8
Geo
100
AcDbLine
10
-7.14855233853010
20
6.43183538681917
30
0.000000000000000
11
-7.04855233853010
21
6.43558282643217
31
0.000000000000000
  0
LINE
  5
F10433
330
F10434
100
AcDbEntity
8
Geo
100
AcDbLine
10
-7.04855233853010
20
6.43558282643217
30
0.000000000000000
11
-6.94855233853010
21
6.43932126435582
31
0.000000000000000
  0
LINE
  5
F10435
330
F10436
100
AcDbEntity
8
Geo
100
AcDbLine
10
-6.94855233853010
20
6.43932126435582
30
0.000000000000000
11
-6.84855233853010
21
6.44304983283304
31
0.000000000000000
  0
LINE
  5
F10437
330
F10438
100
AcDbEntity
8
Geo
100
AcDbLine
10
-6.84855233853010
20
6.44304983283304
30
0.000000000000000
11
-6.74855233853010
21
6.44676765678729
31
0.000000000000000
  0
LINE
  5
F10439
330
F1043A
100
AcDbEntity
8
Geo
100
AcDbLine
10
-6.74855233853010
20
6.44676765678729
30
0.000000000000000
11
-6.64855233853010
21
6.45047385382054
31
0.000000000000000
  0
LINE
  5
F1043B
330
F1043C
100
AcDbEntity
8
Geo
100
AcDbLine
10
-6.64855233853010
20
6.45047385382054
30
0.000000000000000
11
-6.54855233853010
21
6.45416753421213
31
0.000000000000000
  0
LINE
  5
F1043D
330
F1043E
100
AcDbEntity
8
Geo
100
AcDbLine
10
-6.54855233853010
20
6.45416753421213
30
0.000000000000000
11
-6.44855233853010
21
6.45784780091798
31
0.000000000000000
  0
LINE
  5
F1043F
330
F10440
100
AcDbEntity
8
Geo
100
AcDbLine
10
-6.44855233853010
20
6.45784780091798
30
0.000000000000000
11
-6.34855233853010
21
6.46151374957073
31
0.000000000000000
  0
LINE
  5
F10441
330
F10442
100
AcDbEntity
8
Geo
100
AcDbLine
10
-6.34855233853010
20
6.46151374957073
30
0.000000000000000
11
-6.24855233853010
21
6.46516446848034
31
0.000000000000000
  0
LINE
  5
F10443
330
F10444
100
AcDbEntity
8
Geo
100
AcDbLine
10
-6.24855233853010
20
6.46516446848034
30
0.000000000000000
11
-6.14855233853010
21
6.46879903863546
31
0.000000000000000
  0
LINE
  5
F10445
330
F10446
100
AcDbEntity
8
Geo
100
AcDbLine
10
-6.14855233853010
20
6.46879903863546
30
0.000000000000000
11
-6.04855233853010
21
6.47241653370551
31
0.000000000000000
  0
LINE
  5
F10447
330
F10448
100
AcDbEntity
8
Geo
100
AcDbLine
10
-6.04855233853010
20
6.47241653370551
30
0.000000000000000
11
-5.94855233853010
21
6.47601602004344
31
0.000000000000000
  0
LINE
  5
F10449
330
F1044A
100
AcDbEntity
8
Geo
100
AcDbLine
10
-5.94855233853010
20
6.47601602004344
30
0.000000000000000
11
-5.84855233853010
21
6.47959655668924
31
0.000000000000000
  0
LINE
  5
F1044B
330
F1044C
100
AcDbEntity
8
Geo
100
AcDbLine
10
-5.84855233853010
20
6.47959655668924
30
0.000000000000000
11
-5.74855233853010
21
6.48315719537415
31
0.000000000000000
  0
LINE
  5
F1044D
330
F1044E
100
AcDbEntity
8
Geo
100
AcDbLine
10
-5.74855233853010
20
6.48315719537415
30
0.000000000000000
11
-5.64855233853010
21
6.48669698052572
31
0.000000000000000
  0
LINE
  5
F1044F
330
F10450
100
AcDbEntity
8
Geo
100
AcDbLine
10
-5.64855233853010
20
6.48669698052572
30
0.000000000000000
11
-5.54855233853010
21
6.49021494927354
31
0.000000000000000
  0
LINE
  5
F10451
330
F10452
100
AcDbEntity
8
Geo
100
AcDbLine
10
-5.54855233853010
20
6.49021494927354
30
0.000000000000000
11
-5.44855233853010
21
6.49371013145583
31
0.000000000000000
  0
LINE
  5
F10453
330
F10454
100
AcDbEntity
8
Geo
100
AcDbLine
10
-5.44855233853010
20
6.49371013145583
30
0.000000000000000
11
-5.34855233853010
21
6.49718154962682
31
0.000000000000000
  0
LINE
  5
F10455
330
F10456
100
AcDbEntity
8
Geo
100
AcDbLine
10
-5.34855233853010
20
6.49718154962682
30
0.000000000000000
11
-5.24855233853010
21
6.50062821906494
31
0.000000000000000
  0
LINE
  5
F10457
330
F10458
100
AcDbEntity
8
Geo
100
AcDbLine
10
-5.24855233853010
20
6.50062821906494
30
0.000000000000000
11
-5.14855233853010
21
6.50404914778188
31
0.000000000000000
  0
LINE
  5
F10459
330
F1045A
100
AcDbEntity
8
Geo
100
AcDbLine
10
-5.14855233853010
20
6.50404914778188
30
0.000000000000000
11
-5.04855233853010
21
6.50744333653244
31
0.000000000000000
  0
LINE
  5
F1045B
330
F1045C
100
AcDbEntity
8
Geo
100
AcDbLine
10
-5.04855233853010
20
6.50744333653244
30
0.000000000000000
11
-4.94855233853010
21
6.51080977882534
31
0.000000000000000
  0
LINE
  5
F1045D
330
F1045E
100
AcDbEntity
8
Geo
100
AcDbLine
10
-4.94855233853010
20
6.51080977882534
30
0.000000000000000
11
-4.84855233853010
21
6.51414746093486
31
0.000000000000000
  0
LINE
  5
F1045F
330
F10460
100
AcDbEntity
8
Geo
100
AcDbLine
10
-4.84855233853010
20
6.51414746093486
30
0.000000000000000
11
-4.74855233853010
21
6.51745536191337
31
0.000000000000000
  0
LINE
  5
F10461
330
F10462
100
AcDbEntity
8
Geo
100
AcDbLine
10
-4.74855233853010
20
6.51745536191337
30
0.000000000000000
11
-4.64855233853010
21
6.52073245360486
31
0.000000000000000
  0
LINE
  5
F10463
330
F10464
100
AcDbEntity
8
Geo
100
AcDbLine
10
-4.64855233853010
20
6.52073245360486
30
0.000000000000000
11
-4.54855233853010
21
6.52397770065928
31
0.000000000000000
  0
LINE
  5
F10465
330
F10466
100
AcDbEntity
8
Geo
100
AcDbLine
10
-4.54855233853010
20
6.52397770065928
30
0.000000000000000
11
-4.44855233853010
21
6.52719006054799
31
0.000000000000000
  0
LINE
  5
F10467
330
F10468
100
AcDbEntity
8
Geo
100
AcDbLine
10
-4.44855233853010
20
6.52719006054799
30
0.000000000000000
11
-4.34855233853010
21
6.53036848358006
31
0.000000000000000
  0
LINE
  5
F10469
330
F1046A
100
AcDbEntity
8
Geo
100
AcDbLine
10
-4.34855233853010
20
6.53036848358006
30
0.000000000000000
11
-4.24855233853010
21
6.53351191291957
31
0.000000000000000
  0
LINE
  5
F1046B
330
F1046C
100
AcDbEntity
8
Geo
100
AcDbLine
10
-4.24855233853010
20
6.53351191291957
30
0.000000000000000
11
-4.14855233853010
21
6.53661928460400
31
0.000000000000000
  0
LINE
  5
F1046D
330
F1046E
100
AcDbEntity
8
Geo
100
AcDbLine
10
-4.14855233853010
20
6.53661928460400
30
0.000000000000000
11
-4.04855233853010
21
6.53968952756355
31
0.000000000000000
  0
LINE
  5
F1046F
330
F10470
100
AcDbEntity
8
Geo
100
AcDbLine
10
-4.04855233853010
20
6.53968952756355
30
0.000000000000000
11
-3.94855233853010
21
6.54272156364153
31
0.000000000000000
  0
LINE
  5
F10471
330
F10472
100
AcDbEntity
8
Geo
100
AcDbLine
10
-3.94855233853010
20
6.54272156364153
30
0.000000000000000
11
-3.84855233853000
21
6.54571430761584
31
0.000000000000000
  0
LINE
  5
F10473
330
F10474
100
AcDbEntity
8
Geo
100
AcDbLine
10
-3.84855233853000
20
6.54571430761584
30
0.000000000000000
11
-3.74855233853000
21
6.54866666722144
31
0.000000000000000
  0
LINE
  5
F10475
330
F10476
100
AcDbEntity
8
Geo
100
AcDbLine
10
-3.74855233853000
20
6.54866666722144
30
0.000000000000000
11
-3.64855233853000
21
6.55157754317403
31
0.000000000000000
  0
LINE
  5
F10477
330
F10478
100
AcDbEntity
8
Geo
100
AcDbLine
10
-3.64855233853000
20
6.55157754317403
30
0.000000000000000
11
-3.54855233853000
21
6.55444582919471
31
0.000000000000000
  0
LINE
  5
F10479
330
F1047A
100
AcDbEntity
8
Geo
100
AcDbLine
10
-3.54855233853000
20
6.55444582919471
30
0.000000000000000
11
-3.44855233853000
21
6.55727041203589
31
0.000000000000000
  0
LINE
  5
F1047B
330
F1047C
100
AcDbEntity
8
Geo
100
AcDbLine
10
-3.44855233853000
20
6.55727041203589
30
0.000000000000000
11
-3.34855233853000
21
6.56005017150823
31
0.000000000000000
  0
LINE
  5
F1047D
330
F1047E
100
AcDbEntity
8
Geo
100
AcDbLine
10
-3.34855233853000
20
6.56005017150823
30
0.000000000000000
11
-3.24855233853000
21
6.56278398050883
31
0.000000000000000
  0
LINE
  5
F1047F
330
F10480
100
AcDbEntity
8
Geo
100
AcDbLine
10
-3.24855233853000
20
6.56278398050883
30
0.000000000000000
11
-3.14855233853000
21
6.56547070505053
31
0.000000000000000
  0
LINE
  5
F10481
330
F10482
100
AcDbEntity
8
Geo
100
AcDbLine
10
-3.14855233853000
20
6.56547070505053
30
0.000000000000000
11
-3.04855233853000
21
6.56810920429248
31
0.000000000000000
  0
LINE
  5
F10483
330
F10484
100
AcDbEntity
8
Geo
100
AcDbLine
10
-3.04855233853000
20
6.56810920429248
30
0.000000000000000
11
-2.94855233853000
21
6.57069833057188
31
0.000000000000000
  0
LINE
  5
F10485
330
F10486
100
AcDbEntity
8
Geo
100
AcDbLine
10
-2.94855233853000
20
6.57069833057188
30
0.000000000000000
11
-2.84855233853000
21
6.57323692943691
31
0.000000000000000
  0
LINE
  5
F10487
330
F10488
100
AcDbEntity
8
Geo
100
AcDbLine
10
-2.84855233853000
20
6.57323692943691
30
0.000000000000000
11
-2.74855233853000
21
6.57572383968102
31
0.000000000000000
  0
LINE
  5
F10489
330
F1048A
100
AcDbEntity
8
Geo
100
AcDbLine
10
-2.74855233853000
20
6.57572383968102
30
0.000000000000000
11
-2.64855233853000
21
6.57815789337842
31
0.000000000000000
  0
LINE
  5
F1048B
330
F1048C
100
AcDbEntity
8
Geo
100
AcDbLine
10
-2.64855233853000
20
6.57815789337842
30
0.000000000000000
11
-2.54855233853000
21
6.58053791592081
31
0.000000000000000
  0
LINE
  5
F1048D
330
F1048E
100
AcDbEntity
8
Geo
100
AcDbLine
10
-2.54855233853000
20
6.58053791592081
30
0.000000000000000
11
-2.44855233853000
21
6.58286272605555
31
0.000000000000000
  0
LINE
  5
F1048F
330
F10490
100
AcDbEntity
8
Geo
100
AcDbLine
10
-2.44855233853000
20
6.58286272605555
30
0.000000000000000
11
-2.34855233853010
21
6.58513113592504
31
0.000000000000000
  0
LINE
  5
F10491
330
F10492
100
AcDbEntity
8
Geo
100
AcDbLine
10
-11.7485523385301
20
6.87025034440154
30
0.000000000000000
11
-11.6485523385301
21
6.87081738566155
31
0.000000000000000
  0
LINE
  5
F10493
330
F10494
100
AcDbEntity
8
Geo
100
AcDbLine
10
-11.6485523385301
20
6.87081738566155
30
0.000000000000000
11
-11.5485523385301
21
6.86997628546635
31
0.000000000000000
  0
LINE
  5
F10495
330
F10496
100
AcDbEntity
8
Geo
100
AcDbLine
10
-11.5485523385301
20
6.86997628546635
30
0.000000000000000
11
-11.4485523385301
21
6.86772728069387
31
0.000000000000000
  0
LINE
  5
F10497
330
F10498
100
AcDbEntity
8
Geo
100
AcDbLine
10
-11.4485523385301
20
6.86772728069387
30
0.000000000000000
11
-11.3485523385301
21
6.86407100472833
31
0.000000000000000
  0
LINE
  5
F10499
330
F1049A
100
AcDbEntity
8
Geo
100
AcDbLine
10
-11.3485523385301
20
6.86407100472833
30
0.000000000000000
11
-11.2485523385301
21
6.85900848728184
31
0.000000000000000
  0
LINE
  5
F1049B
330
F1049C
100
AcDbEntity
8
Geo
100
AcDbLine
10
-11.2485523385301
20
6.85900848728184
30
0.000000000000000
11
-11.1485523385301
21
6.85254115410445
31
0.000000000000000
  0
LINE
  5
F1049D
330
F1049E
100
AcDbEntity
8
Geo
100
AcDbLine
10
-11.1485523385301
20
6.85254115410445
30
0.000000000000000
11
-11.0485523385301
21
6.84467082658258
31
0.000000000000000
  0
LINE
  5
F1049F
330
F104A0
100
AcDbEntity
8
Geo
100
AcDbLine
10
-11.0485523385301
20
6.84467082658258
30
0.000000000000000
11
-10.9485523385301
21
6.83539972122607
31
0.000000000000000
  0
LINE
  5
F104A1
330
F104A2
100
AcDbEntity
8
Geo
100
AcDbLine
10
-10.9485523385301
20
6.83539972122607
30
0.000000000000000
11
-10.8485523385301
21
6.82473044904396
31
0.000000000000000
  0
LINE
  5
F104A3
330
F104A4
100
AcDbEntity
8
Geo
100
AcDbLine
10
-10.8485523385301
20
6.82473044904396
30
0.000000000000000
11
-10.7485523385301
21
6.81266601480916
31
0.000000000000000
  0
LINE
  5
F104A5
330
F104A6
100
AcDbEntity
8
Geo
100
AcDbLine
10
-10.7485523385301
20
6.81266601480916
30
0.000000000000000
11
-10.6485523385301
21
6.79920981621218
31
0.000000000000000
  0
LINE
  5
F104A7
330
F104A8
100
AcDbEntity
8
Geo
100
AcDbLine
10
-10.6485523385301
20
6.79920981621218
30
0.000000000000000
11
-10.5485523385301
21
6.78436564290429
31
0.000000000000000
  0
LINE
  5
F104A9
330
F104AA
100
AcDbEntity
8
Geo
100
AcDbLine
10
-10.5485523385301
20
6.78436564290429
30
0.000000000000000
11
-10.4485523385301
21
6.76813767543023
31
0.000000000000000
  0
LINE
  5
F104AB
330
F104AC
100
AcDbEntity
8
Geo
100
AcDbLine
10
-10.4485523385301
20
6.76813767543023
30
0.000000000000000
11
-10.3485523385301
21
6.75053048405085
31
0.000000000000000
  0
LINE
  5
F104AD
330
F104AE
100
AcDbEntity
8
Geo
100
AcDbLine
10
-10.3485523385301
20
6.75053048405085
30
0.000000000000000
11
-10.2485523385301
21
6.73154902745597
31
0.000000000000000
  0
LINE
  5
F104AF
330
F104B0
100
AcDbEntity
8
Geo
100
AcDbLine
10
-10.2485523385301
20
6.73154902745597
30
0.000000000000000
11
-10.1485523385301
21
6.71119865136791
31
0.000000000000000
  0
LINE
  5
F104B1
330
F104B2
100
AcDbEntity
8
Geo
100
AcDbLine
10
-10.1485523385301
20
6.71119865136791
30
0.000000000000000
11
-10.0485523385301
21
6.68948508703595
31
0.000000000000000
  0
LINE
  5
F104B3
330
F104B4
100
AcDbEntity
8
Geo
100
AcDbLine
10
-10.0485523385301
20
6.68948508703595
30
0.000000000000000
11
-9.94855233853010
21
6.66641444962225
31
0.000000000000000
  0
LINE
  5
F104B5
330
F104B6
100
AcDbEntity
8
Geo
100
AcDbLine
10
-9.94855233853010
20
6.66641444962225
30
0.000000000000000
11
-9.84855233853010
21
6.64199323647967
31
0.000000000000000
  0
LINE
  5
F104B7
330
F104B8
100
AcDbEntity
8
Geo
100
AcDbLine
10
-9.84855233853010
20
6.64199323647967
30
0.000000000000000
11
-9.74855233853010
21
6.61622832532190
31
0.000000000000000
  0
LINE
  5
F104B9
330
F104BA
100
AcDbEntity
8
Geo
100
AcDbLine
10
-9.74855233853010
20
6.61622832532190
30
0.000000000000000
11
-9.64855233853010
21
6.58912697228653
31
0.000000000000000
  0
LINE
  5
F104BB
330
F104BC
100
AcDbEntity
8
Geo
100
AcDbLine
10
-9.64855233853010
20
6.58912697228653
30
0.000000000000000
11
-9.54855233853010
21
6.56069680989146
31
0.000000000000000
  0
LINE
  5
F104BD
330
F104BE
100
AcDbEntity
8
Geo
100
AcDbLine
10
-9.54855233853010
20
6.56069680989146
30
0.000000000000000
11
-9.44855233853010
21
6.53094584488543
31
0.000000000000000
  0
LINE
  5
F104BF
330
F104C0
100
AcDbEntity
8
Geo
100
AcDbLine
10
-9.44855233853010
20
6.53094584488543
30
0.000000000000000
11
-9.34855233853010
21
6.49988245599304
31
0.000000000000000
  0
LINE
  5
F104C1
330
F104C2
100
AcDbEntity
8
Geo
100
AcDbLine
10
-9.34855233853010
20
6.49988245599304
30
0.000000000000000
11
-9.24855233853010
21
6.46751539155508
31
0.000000000000000
  0
LINE
  5
F104C3
330
F104C4
100
AcDbEntity
8
Geo
100
AcDbLine
10
-9.24855233853010
20
6.46751539155508
30
0.000000000000000
11
-9.14855233853010
21
6.43385376706476
31
0.000000000000000
  0
LINE
  5
F104C5
330
F104C6
100
AcDbEntity
8
Geo
100
AcDbLine
10
-9.14855233853010
20
6.43385376706476
30
0.000000000000000
11
-9.04855233853010
21
6.39890706260049
31
0.000000000000000
  0
LINE
  5
F104C7
330
F104C8
100
AcDbEntity
8
Geo
100
AcDbLine
10
-9.04855233853010
20
6.39890706260049
30
0.000000000000000
11
-8.94855233853010
21
6.36268512015605
31
0.000000000000000
  0
LINE
  5
F104C9
330
F104CA
100
AcDbEntity
8
Geo
100
AcDbLine
10
-8.94855233853010
20
6.36268512015605
30
0.000000000000000
11
-8.84855233853010
21
6.32519814086880
31
0.000000000000000
  0
LINE
  5
F104CB
330
F104CC
100
AcDbEntity
8
Geo
100
AcDbLine
10
-8.84855233853010
20
6.32519814086880
30
0.000000000000000
11
-8.74855233853010
21
6.28645668214674
31
0.000000000000000
  0
LINE
  5
F104CD
330
F104CE
100
AcDbEntity
8
Geo
100
AcDbLine
10
-8.74855233853010
20
6.28645668214674
30
0.000000000000000
11
-8.64855233853010
21
6.24647165469521
31
0.000000000000000
  0
LINE
  5
F104CF
330
F104D0
100
AcDbEntity
8
Geo
100
AcDbLine
10
-8.64855233853010
20
6.24647165469521
30
0.000000000000000
11
-8.54855233853010
21
6.20525431944420
31
0.000000000000000
  0
LINE
  5
F104D1
330
F104D2
100
AcDbEntity
8
Geo
100
AcDbLine
10
-8.54855233853010
20
6.20525431944420
30
0.000000000000000
11
-8.44855233853010
21
6.16281628437686
31
0.000000000000000
  0
LINE
  5
F104D3
330
F104D4
100
AcDbEntity
8
Geo
100
AcDbLine
10
-8.44855233853010
20
6.16281628437686
30
0.000000000000000
11
-8.34855233853010
21
6.11916950126042
31
0.000000000000000
  0
LINE
  5
F104D5
330
F104D6
100
AcDbEntity
8
Geo
100
AcDbLine
10
-8.34855233853010
20
6.11916950126042
30
0.000000000000000
11
-8.24855233853010
21
6.07432626228022
31
0.000000000000000
  0
LINE
  5
F104D7
330
F104D8
100
AcDbEntity
8
Geo
100
AcDbLine
10
-8.24855233853010
20
6.07432626228022
30
0.000000000000000
11
-8.14855233853010
21
6.02829919657786
31
0.000000000000000
  0
LINE
  5
F104D9
330
F104DA
100
AcDbEntity
8
Geo
100
AcDbLine
10
-8.14855233853010
20
6.02829919657786
30
0.000000000000000
11
-8.04855233853010
21
5.98110126669448
31
0.000000000000000
  0
LINE
  5
F104DB
330
F104DC
100
AcDbEntity
8
Geo
100
AcDbLine
10
-8.04855233853010
20
5.98110126669448
30
0.000000000000000
11
-7.94855233853010
21
5.93274576492013
31
0.000000000000000
  0
LINE
  5
F104DD
330
F104DE
100
AcDbEntity
8
Geo
100
AcDbLine
10
-7.94855233853010
20
5.93274576492013
30
0.000000000000000
11
-7.84855233853010
21
5.88324630955031
31
0.000000000000000
  0
LINE
  5
F104DF
330
F104E0
100
AcDbEntity
8
Geo
100
AcDbLine
10
-7.84855233853010
20
5.88324630955031
30
0.000000000000000
11
-7.74855233853010
21
5.83261684105063
31
0.000000000000000
  0
LINE
  5
F104E1
330
F104E2
100
AcDbEntity
8
Geo
100
AcDbLine
10
-7.74855233853010
20
5.83261684105063
30
0.000000000000000
11
-7.64855233853010
21
5.78087161813080
31
0.000000000000000
  0
LINE
  5
F104E3
330
F104E4
100
AcDbEntity
8
Geo
100
AcDbLine
10
-7.64855233853010
20
5.78087161813080
30
0.000000000000000
11
-7.54855233853010
21
5.72802521372894
31
0.000000000000000
  0
LINE
  5
F104E5
330
F104E6
100
AcDbEntity
8
Geo
100
AcDbLine
10
-7.54855233853010
20
5.72802521372894
30
0.000000000000000
11
-7.44855233853010
21
5.67409251090747
31
0.000000000000000
  0
LINE
  5
F104E7
330
F104E8
100
AcDbEntity
8
Geo
100
AcDbLine
10
-7.44855233853010
20
5.67409251090747
30
0.000000000000000
11
-7.34855233853010
21
5.61908869866159
31
0.000000000000000
  0
LINE
  5
F104E9
330
F104EA
100
AcDbEntity
8
Geo
100
AcDbLine
10
-7.34855233853010
20
5.61908869866159
30
0.000000000000000
11
-7.34855233853010
21
5.61908869866159
31
0.000000000000000
  0
LINE
  5
F104EB
330
F104EC
100
AcDbEntity
8
Geo
100
AcDbLine
10
-7.34855233853010
20
5.61908869866159
30
0.000000000000000
11
-7.24855233853010
21
5.35144471007779
31
0.000000000000000
  0
LINE
  5
F104ED
330
F104EE
100
AcDbEntity
8
Geo
100
AcDbLine
10
-7.24855233853010
20
5.35144471007779
30
0.000000000000000
11
-7.14855233853010
21
5.26837162207375
31
0.000000000000000
  0
LINE
  5
F104EF
330
F104F0
100
AcDbEntity
8
Geo
100
AcDbLine
10
-7.14855233853010
20
5.26837162207375
30
0.000000000000000
11
-7.04855233853010
21
5.18245932330096
31
0.000000000000000
  0
LINE
  5
F104F1
330
F104F2
100
AcDbEntity
8
Geo
100
AcDbLine
10
-7.04855233853010
20
5.18245932330096
30
0.000000000000000
11
-6.94855233853010
21
5.09371446501703
31
0.000000000000000
  0
LINE
  5
F104F3
330
F104F4
100
AcDbEntity
8
Geo
100
AcDbLine
10
-6.94855233853010
20
5.09371446501703
30
0.000000000000000
11
-6.84855233853010
21
5.00214734739688
31
0.000000000000000
  0
LINE
  5
F104F5
330
F104F6
100
AcDbEntity
8
Geo
100
AcDbLine
10
-6.84855233853010
20
5.00214734739688
30
0.000000000000000
11
-6.74855233853010
21
4.90777203689757
31
0.000000000000000
  0
LINE
  5
F104F7
330
F104F8
100
AcDbEntity
8
Geo
100
AcDbLine
10
-6.74855233853010
20
4.90777203689757
30
0.000000000000000
11
-6.64855233853010
21
4.81060648212773
31
0.000000000000000
  0
LINE
  5
F104F9
330
F104FA
100
AcDbEntity
8
Geo
100
AcDbLine
10
-6.64855233853010
20
4.81060648212773
30
0.000000000000000
11
-6.54855233853010
21
4.71067262792123
31
0.000000000000000
  0
LINE
  5
F104FB
330
F104FC
100
AcDbEntity
8
Geo
100
AcDbLine
10
-6.54855233853010
20
4.71067262792123
30
0.000000000000000
11
-6.44855233853010
21
4.60799652730355
31
0.000000000000000
  0
LINE
  5
F104FD
330
F104FE
100
AcDbEntity
8
Geo
100
AcDbLine
10
-6.44855233853010
20
4.60799652730355
30
0.000000000000000
11
-6.34855233853010
21
4.50260845102849
31
0.000000000000000
  0
LINE
  5
F104FF
330
F10500
100
AcDbEntity
8
Geo
100
AcDbLine
10
-6.34855233853010
20
4.50260845102849
30
0.000000000000000
11
-6.24855233853010
21
4.39454299435133
31
0.000000000000000
  0
LINE
  5
F10501
330
F10502
100
AcDbEntity
8
Geo
100
AcDbLine
10
-6.24855233853010
20
4.39454299435133
30
0.000000000000000
11
-6.14855233853010
21
4.28383918069445
31
0.000000000000000
  0
LINE
  5
F10503
330
F10504
100
AcDbEntity
8
Geo
100
AcDbLine
10
-6.14855233853010
20
4.28383918069445
30
0.000000000000000
11
-6.04855233853010
21
4.17054056185071
31
0.000000000000000
  0
LINE
  5
F10505
330
F10506
100
AcDbEntity
8
Geo
100
AcDbLine
10
-6.04855233853010
20
4.17054056185071
30
0.000000000000000
11
-5.94855233853010
21
4.05469531435976
31
0.000000000000000
  0
LINE
  5
F10507
330
F10508
100
AcDbEntity
8
Geo
100
AcDbLine
10
-5.94855233853010
20
4.05469531435976
30
0.000000000000000
11
-5.84855233853010
21
3.93635633168295
31
0.000000000000000
  0
LINE
  5
F10509
330
F1050A
100
AcDbEntity
8
Geo
100
AcDbLine
10
-5.84855233853010
20
3.93635633168295
30
0.000000000000000
11
-5.74855233853010
21
3.81558131179317
31
0.000000000000000
  0
LINE
  5
F1050B
330
F1050C
100
AcDbEntity
8
Geo
100
AcDbLine
10
-5.74855233853010
20
3.81558131179317
30
0.000000000000000
11
-5.64855233853010
21
3.69243283978689
31
0.000000000000000
  0
LINE
  5
F1050D
330
F1050E
100
AcDbEntity
8
Geo
100
AcDbLine
10
-5.64855233853010
20
3.69243283978689
30
0.000000000000000
11
-5.54855233853010
21
3.56697846511786
31
0.000000000000000
  0
LINE
  5
F1050F
330
F10510
100
AcDbEntity
8
Geo
100
AcDbLine
10
-5.54855233853010
20
3.56697846511786
30
0.000000000000000
11
-5.44855233853010
21
3.43929077304379
31
0.000000000000000
  0
LINE
  5
F10511
330
F10512
100
AcDbEntity
8
Geo
100
AcDbLine
10
-5.44855233853010
20
3.43929077304379
30
0.000000000000000
11
-5.34855233853010
21
3.30944744987048
31
0.000000000000000
  0
LINE
  5
F10513
330
F10514
100
AcDbEntity
8
Geo
100
AcDbLine
10
-5.34855233853010
20
3.30944744987048
30
0.000000000000000
11
-5.24855233853010
21
3.17753134157152
31
0.000000000000000
  0
LINE
  5
F10515
330
F10516
100
AcDbEntity
8
Geo
100
AcDbLine
10
-5.24855233853010
20
3.17753134157152
30
0.000000000000000
11
-5.14855233853010
21
3.04363050535595
31
0.000000000000000
  0
LINE
  5
F10517
330
F10518
100
AcDbEntity
8
Geo
100
AcDbLine
10
-5.14855233853010
20
3.04363050535595
30
0.000000000000000
11
-5.04855233853010
21
2.90783825375158
31
0.000000000000000
  0
LINE
  5
F10519
330
F1051A
100
AcDbEntity
8
Geo
100
AcDbLine
10
-5.04855233853010
20
2.90783825375158
30
0.000000000000000
11
-4.94855233853010
21
2.77025319076753
31
0.000000000000000
  0
LINE
  5
F1051B
330
F1051C
100
AcDbEntity
8
Geo
100
AcDbLine
10
-4.94855233853010
20
2.77025319076753
30
0.000000000000000
11
-4.84855233853010
21
2.63097923969693
31
0.000000000000000
  0
LINE
  5
F1051D
330
F1051E
100
AcDbEntity
8
Geo
100
AcDbLine
10
-4.84855233853010
20
2.63097923969693
30
0.000000000000000
11
-4.74855233853010
21
2.49012566211823
31
0.000000000000000
  0
LINE
  5
F1051F
330
F10520
100
AcDbEntity
8
Geo
100
AcDbLine
10
-4.74855233853010
20
2.49012566211823
30
0.000000000000000
11
-4.64855233853010
21
2.34780706765308
31
0.000000000000000
  0
LINE
  5
F10521
330
F10522
100
AcDbEntity
8
Geo
100
AcDbLine
10
-4.64855233853010
20
2.34780706765308
30
0.000000000000000
11
-4.54855233853010
21
2.20414341403853
31
0.000000000000000
  0
LINE
  5
F10523
330
F10524
100
AcDbEntity
8
Geo
100
AcDbLine
10
-4.54855233853010
20
2.20414341403853
30
0.000000000000000
11
-4.44855233853010
21
2.05925999707300
31
0.000000000000000
  0
LINE
  5
F10525
330
F10526
100
AcDbEntity
8
Geo
100
AcDbLine
10
-4.44855233853010
20
2.05925999707300
30
0.000000000000000
11
-4.34855233853010
21
1.91328742999783
31
0.000000000000000
  0
LINE
  5
F10527
330
F10528
100
AcDbEntity
8
Geo
100
AcDbLine
10
-4.34855233853010
20
1.91328742999783
30
0.000000000000000
11
-4.24855233853010
21
1.76636161188033
31
0.000000000000000
  0
LINE
  5
F10529
330
F1052A
100
AcDbEntity
8
Geo
100
AcDbLine
10
-4.24855233853010
20
1.76636161188033
30
0.000000000000000
11
-4.14855233853010
21
1.61862368456943
31
0.000000000000000
  0
LINE
  5
F1052B
330
F1052C
100
AcDbEntity
8
Geo
100
AcDbLine
10
-4.14855233853010
20
1.61862368456943
30
0.000000000000000
11
-4.04855233853010
21
1.47021997780193
31
0.000000000000000
  0
LINE
  5
F1052D
330
F1052E
100
AcDbEntity
8
Geo
100
AcDbLine
10
-4.04855233853010
20
1.47021997780193
30
0.000000000000000
11
-3.94855233853010
21
1.32130194204548
31
0.000000000000000
  0
LINE
  5
F1052F
330
F10530
100
AcDbEntity
8
Geo
100
AcDbLine
10
-3.94855233853010
20
1.32130194204548
30
0.000000000000000
11
-3.84855233853000
21
1.17202606867437
31
0.000000000000000
  0
LINE
  5
F10531
330
F10532
100
AcDbEntity
8
Geo
100
AcDbLine
10
-3.84855233853000
20
1.17202606867437
30
0.000000000000000
11
-3.74855233853000
21
1.02255379708559
31
0.000000000000000
  0
LINE
  5
F10533
330
F10534
100
AcDbEntity
8
Geo
100
AcDbLine
10
-3.74855233853000
20
1.02255379708559
30
0.000000000000000
11
-3.64855233853000
21
0.873051408375876
31
0.000000000000000
  0
LINE
  5
F10535
330
F10536
100
AcDbEntity
8
Geo
100
AcDbLine
10
-3.64855233853000
20
0.873051408375876
30
0.000000000000000
11
-3.54855233853000
21
0.723689905215191
31
0.000000000000000
  0
LINE
  5
F10537
330
F10538
100
AcDbEntity
8
Geo
100
AcDbLine
10
-3.54855233853000
20
0.723689905215191
30
0.000000000000000
11
-3.44855233853000
21
0.574644877569031
31
0.000000000000000
  0
LINE
  5
F10539
330
F1053A
100
AcDbEntity
8
Geo
100
AcDbLine
10
-3.44855233853000
20
0.574644877569031
30
0.000000000000000
11
-3.34855233853000
21
0.426096353940211
31
0.000000000000000
  0
LINE
  5
F1053B
330
F1053C
100
AcDbEntity
8
Geo
100
AcDbLine
10
-3.34855233853000
20
0.426096353940211
30
0.000000000000000
11
-3.24855233853000
21
0.278228637821621
31
0.000000000000000
  0
LINE
  5
F1053D
330
F1053E
100
AcDbEntity
8
Geo
100
AcDbLine
10
-3.24855233853000
20
0.278228637821621
30
0.000000000000000
11
-3.14855233853000
21
0.131230129073301
31
0.000000000000000
  0
LINE
  5
F1053F
330
F10540
100
AcDbEntity
8
Geo
100
AcDbLine
10
-3.14855233853000
20
0.131230129073301
30
0.000000000000000
11
-3.04855233853000
21
-0.0147068700377291
31
0.000000000000000
  0
LINE
  5
F10541
330
F10542
100
AcDbEntity
8
Geo
100
AcDbLine
10
-3.04855233853000
20
-0.0147068700377291
30
0.000000000000000
11
-2.94855233853000
21
-0.159386364370709
31
0.000000000000000
  0
LINE
  5
F10543
330
F10544
100
AcDbEntity
8
Geo
100
AcDbLine
10
-2.94855233853000
20
-0.159386364370709
30
0.000000000000000
11
-2.84855233853000
21
-0.302608891224259
31
0.000000000000000
  0
LINE
  5
F10545
330
F10546
100
AcDbEntity
8
Geo
100
AcDbLine
10
-2.84855233853000
20
-0.302608891224259
30
0.000000000000000
11
-2.74855233853000
21
-0.444171761605979
31
0.000000000000000
  0
LINE
  5
F10547
330
F10548
100
AcDbEntity
8
Geo
100
AcDbLine
10
-2.74855233853000
20
-0.444171761605979
30
0.000000000000000
11
-2.64855233853000
21
-0.583869317602159
31
0.000000000000000
  0
LINE
  5
F10549
330
F1054A
100
AcDbEntity
8
Geo
100
AcDbLine
10
-2.64855233853000
20
-0.583869317602159
30
0.000000000000000
11
-2.54855233853000
21
-0.721493205956569
31
0.000000000000000
  0
LINE
  5
F1054B
330
F1054C
100
AcDbEntity
8
Geo
100
AcDbLine
10
-2.54855233853000
20
-0.721493205956569
30
0.000000000000000
11
-2.44855233853000
21
-0.856832667930329
31
0.000000000000000
  0
LINE
  5
F1054D
330
F1054E
100
AcDbEntity
8
Geo
100
AcDbLine
10
-2.44855233853000
20
-0.856832667930329
30
0.000000000000000
11
-2.34855233853010
21
-0.989674845475459
31
0.000000000000000
  0
LINE
  5
F1054F
330
F10550
100
AcDbEntity
8
Geo
100
AcDbLine
10
-21.5485523385301
20
6.87082405344638
30
0.000000000000000
11
-21.4485523385301
21
6.87012010884371
31
0.000000000000000
  0
LINE
  5
F10551
330
F10552
100
AcDbEntity
8
Geo
100
AcDbLine
10
-21.4485523385301
20
6.87012010884371
30
0.000000000000000
11
-21.3485523385301
21
6.86800821915898
31
0.000000000000000
  0
LINE
  5
F10553
330
F10554
100
AcDbEntity
8
Geo
100
AcDbLine
10
-21.3485523385301
20
6.86800821915898
30
0.000000000000000
11
-21.2485523385301
21
6.86448897916086
31
0.000000000000000
  0
LINE
  5
F10555
330
F10556
100
AcDbEntity
8
Geo
100
AcDbLine
10
-21.2485523385301
20
6.86448897916086
30
0.000000000000000
11
-21.1485523385301
21
6.85956337996821
31
0.000000000000000
  0
LINE
  5
F10557
330
F10558
100
AcDbEntity
8
Geo
100
AcDbLine
10
-21.1485523385301
20
6.85956337996821
30
0.000000000000000
11
-21.0485523385301
21
6.85323280877098
31
0.000000000000000
  0
LINE
  5
F10559
330
F1055A
100
AcDbEntity
8
Geo
100
AcDbLine
10
-21.0485523385301
20
6.85323280877098
30
0.000000000000000
11
-20.9485523385301
21
6.84549904843948
31
0.000000000000000
  0
LINE
  5
F1055B
330
F1055C
100
AcDbEntity
8
Geo
100
AcDbLine
10
-20.9485523385301
20
6.84549904843948
30
0.000000000000000
11
-20.8485523385301
21
6.83636427702232
31
0.000000000000000
  0
LINE
  5
F1055D
330
F1055E
100
AcDbEntity
8
Geo
100
AcDbLine
10
-20.8485523385301
20
6.83636427702232
30
0.000000000000000
11
-20.7485523385301
21
6.82583106713301
31
0.000000000000000
  0
LINE
  5
F1055F
330
F10560
100
AcDbEntity
8
Geo
100
AcDbLine
10
-20.7485523385301
20
6.82583106713301
30
0.000000000000000
11
-20.6485523385301
21
6.81390238522539
31
0.000000000000000
  0
LINE
  5
F10561
330
F10562
100
AcDbEntity
8
Geo
100
AcDbLine
10
-20.6485523385301
20
6.81390238522539
30
0.000000000000000
11
-20.5485523385301
21
6.80058159075824
31
0.000000000000000
  0
LINE
  5
F10563
330
F10564
100
AcDbEntity
8
Geo
100
AcDbLine
10
-20.5485523385301
20
6.80058159075824
30
0.000000000000000
11
-20.4485523385301
21
6.78587243524915
31
0.000000000000000
  0
LINE
  5
F10565
330
F10566
100
AcDbEntity
8
Geo
100
AcDbLine
10
-20.4485523385301
20
6.78587243524915
30
0.000000000000000
11
-20.3485523385301
21
6.76977906121798
31
0.000000000000000
  0
LINE
  5
F10567
330
F10568
100
AcDbEntity
8
Geo
100
AcDbLine
10
-20.3485523385301
20
6.76977906121798
30
0.000000000000000
11
-20.2485523385301
21
6.75230600102019
31
0.000000000000000
  0
LINE
  5
F10569
330
F1056A
100
AcDbEntity
8
Geo
100
AcDbLine
10
-20.2485523385301
20
6.75230600102019
30
0.000000000000000
11
-20.1485523385301
21
6.73345817557042
31
0.000000000000000
  0
LINE
  5
F1056B
330
F1056C
100
AcDbEntity
8
Geo
100
AcDbLine
10
-20.1485523385301
20
6.73345817557042
30
0.000000000000000
11
-20.0485523385301
21
6.71324089295663
31
0.000000000000000
  0
LINE
  5
F1056D
330
F1056E
100
AcDbEntity
8
Geo
100
AcDbLine
10
-20.0485523385301
20
6.71324089295663
30
0.000000000000000
11
-19.9485523385301
21
6.69165984694517
31
0.000000000000000
  0
LINE
  5
F1056F
330
F10570
100
AcDbEntity
8
Geo
100
AcDbLine
10
-19.9485523385301
20
6.69165984694517
30
0.000000000000000
11
-19.8485523385301
21
6.66872111537723
31
0.000000000000000
  0
LINE
  5
F10571
330
F10572
100
AcDbEntity
8
Geo
100
AcDbLine
10
-19.8485523385301
20
6.66872111537723
30
0.000000000000000
11
-19.7485523385301
21
6.64443115845722
31
0.000000000000000
  0
LINE
  5
F10573
330
F10574
100
AcDbEntity
8
Geo
100
AcDbLine
10
-19.7485523385301
20
6.64443115845722
30
0.000000000000000
11
-19.6485523385301
21
6.61879681693331
31
0.000000000000000
  0
LINE
  5
F10575
330
F10576
100
AcDbEntity
8
Geo
100
AcDbLine
10
-19.6485523385301
20
6.61879681693331
30
0.000000000000000
11
-19.5485523385301
21
6.59182531017092
31
0.000000000000000
  0
LINE
  5
F10577
330
F10578
100
AcDbEntity
8
Geo
100
AcDbLine
10
-19.5485523385301
20
6.59182531017092
30
0.000000000000000
11
-19.4485523385301
21
6.56352423411953
31
0.000000000000000
  0
LINE
  5
F10579
330
F1057A
100
AcDbEntity
8
Geo
100
AcDbLine
10
-19.4485523385301
20
6.56352423411953
30
0.000000000000000
11
-19.3485523385301
21
6.53390155917346
31
0.000000000000000
  0
LINE
  5
F1057B
330
F1057C
100
AcDbEntity
8
Geo
100
AcDbLine
10
-19.3485523385301
20
6.53390155917346
30
0.000000000000000
11
-19.2485523385301
21
6.50296562792716
31
0.000000000000000
  0
LINE
  5
F1057D
330
F1057E
100
AcDbEntity
8
Geo
100
AcDbLine
10
-19.2485523385301
20
6.50296562792716
30
0.000000000000000
11
-19.1485523385301
21
6.47072515282570
31
0.000000000000000
  0
LINE
  5
F1057F
330
F10580
100
AcDbEntity
8
Geo
100
AcDbLine
10
-19.1485523385301
20
6.47072515282570
30
0.000000000000000
11
-19.0485523385301
21
6.43718921371108
31
0.000000000000000
  0
LINE
  5
F10581
330
F10582
100
AcDbEntity
8
Geo
100
AcDbLine
10
-19.0485523385301
20
6.43718921371108
30
0.000000000000000
11
-18.9485523385301
21
6.40236725526512
31
0.000000000000000
  0
LINE
  5
F10583
330
F10584
100
AcDbEntity
8
Geo
100
AcDbLine
10
-18.9485523385301
20
6.40236725526512
30
0.000000000000000
11
-18.8485523385301
21
6.36626908434956
31
0.000000000000000
  0
LINE
  5
F10585
330
F10586
100
AcDbEntity
8
Geo
100
AcDbLine
10
-18.8485523385301
20
6.36626908434956
30
0.000000000000000
11
-18.7485523385301
21
6.32890486724412
31
0.000000000000000
  0
LINE
  5
F10587
330
F10588
100
AcDbEntity
8
Geo
100
AcDbLine
10
-18.7485523385301
20
6.32890486724412
30
0.000000000000000
11
-18.6485523385301
21
6.29028512678346
31
0.000000000000000
  0
LINE
  5
F10589
330
F1058A
100
AcDbEntity
8
Geo
100
AcDbLine
10
-18.6485523385301
20
6.29028512678346
30
0.000000000000000
11
-18.5485523385301
21
6.25042073939358
31
0.000000000000000
  0
LINE
  5
F1058B
330
F1058C
100
AcDbEntity
8
Geo
100
AcDbLine
10
-18.5485523385301
20
6.25042073939358
30
0.000000000000000
11
-18.4485523385301
21
6.20932293202875
31
0.000000000000000
  0
LINE
  5
F1058D
330
F1058E
100
AcDbEntity
8
Geo
100
AcDbLine
10
-18.4485523385301
20
6.20932293202875
30
0.000000000000000
11
-18.3485523385301
21
6.16700327900966
31
0.000000000000000
  0
LINE
  5
F1058F
330
F10590
100
AcDbEntity
8
Geo
100
AcDbLine
10
-18.3485523385301
20
6.16700327900966
30
0.000000000000000
11
-18.2485523385301
21
6.12347369876376
31
0.000000000000000
  0
LINE
  5
F10591
330
F10592
100
AcDbEntity
8
Geo
100
AcDbLine
10
-18.2485523385301
20
6.12347369876376
30
0.000000000000000
11
-18.1485523385301
21
6.07874645046869
31
0.000000000000000
  0
LINE
  5
F10593
330
F10594
100
AcDbEntity
8
Geo
100
AcDbLine
10
-18.1485523385301
20
6.07874645046869
30
0.000000000000000
11
-18.0485523385301
21
6.03283413059975
31
0.000000000000000
  0
LINE
  5
F10595
330
F10596
100
AcDbEntity
8
Geo
100
AcDbLine
10
-18.0485523385301
20
6.03283413059975
30
0.000000000000000
11
-17.9485523385301
21
5.98574966938238
31
0.000000000000000
  0
LINE
  5
F10597
330
F10598
100
AcDbEntity
8
Geo
100
AcDbLine
10
-17.9485523385301
20
5.98574966938238
30
0.000000000000000
11
-17.8485523385301
21
5.93750632715058
31
0.000000000000000
  0
LINE
  5
F10599
330
F1059A
100
AcDbEntity
8
Geo
100
AcDbLine
10
-17.8485523385301
20
5.93750632715058
30
0.000000000000000
11
-17.7485523385301
21
5.88811769061253
31
0.000000000000000
  0
LINE
  5
F1059B
330
F1059C
100
AcDbEntity
8
Geo
100
AcDbLine
10
-17.7485523385301
20
5.88811769061253
30
0.000000000000000
11
-17.6485523385301
21
5.83759766902405
31
0.000000000000000
  0
LINE
  5
F1059D
330
F1059E
100
AcDbEntity
8
Geo
100
AcDbLine
10
-17.6485523385301
20
5.83759766902405
30
0.000000000000000
11
-17.5485523385301
21
5.78596049027148
31
0.000000000000000
  0
LINE
  5
F1059F
330
F105A0
100
AcDbEntity
8
Geo
100
AcDbLine
10
-17.5485523385301
20
5.78596049027148
30
0.000000000000000
11
-17.4485523385301
21
5.73322069686462
31
0.000000000000000
  0
LINE
  5
F105A1
330
F105A2
100
AcDbEntity
8
Geo
100
AcDbLine
10
-17.4485523385301
20
5.73322069686462
30
0.000000000000000
11
-17.3485523385301
21
5.67939314184115
31
0.000000000000000
  0
LINE
  5
F105A3
330
F105A4
100
AcDbEntity
8
Geo
100
AcDbLine
10
-17.3485523385301
20
5.67939314184115
30
0.000000000000000
11
-17.2485523385301
21
5.62449298458363
31
0.000000000000000
  0
LINE
  5
F105A5
330
F105A6
100
AcDbEntity
8
Geo
100
AcDbLine
10
-17.2485523385301
20
5.62449298458363
30
0.000000000000000
11
-17.1485523385301
21
5.56853568655014
31
0.000000000000000
  0
LINE
  5
F105A7
330
F105A8
100
AcDbEntity
8
Geo
100
AcDbLine
10
-17.1485523385301
20
5.56853568655014
30
0.000000000000000
11
-17.0485523385301
21
5.51153700691991
31
0.000000000000000
  0
LINE
  5
F105A9
330
F105AA
100
AcDbEntity
8
Geo
100
AcDbLine
10
-17.0485523385301
20
5.51153700691991
30
0.000000000000000
11
-16.9485523385301
21
5.45351299815509
31
0.000000000000000
  0
LINE
  5
F105AB
330
F105AC
100
AcDbEntity
8
Geo
100
AcDbLine
10
-16.9485523385301
20
5.45351299815509
30
0.000000000000000
11
-16.8485523385301
21
5.39448000147990
31
0.000000000000000
  0
LINE
  5
F105AD
330
F105AE
100
AcDbEntity
8
Geo
100
AcDbLine
10
-16.8485523385301
20
5.39448000147990
30
0.000000000000000
11
-16.7485523385301
21
5.33445464227847
31
0.000000000000000
  0
LINE
  5
F105AF
330
F105B0
100
AcDbEntity
8
Geo
100
AcDbLine
10
-16.7485523385301
20
5.33445464227847
30
0.000000000000000
11
-16.6485523385301
21
5.27345382541268
31
0.000000000000000
  0
LINE
  5
F105B1
330
F105B2
100
AcDbEntity
8
Geo
100
AcDbLine
10
-16.6485523385301
20
5.27345382541268
30
0.000000000000000
11
-16.5485523385301
21
5.21149473046125
31
0.000000000000000
  0
LINE
  5
F105B3
330
F105B4
100
AcDbEntity
8
Geo
100
AcDbLine
10
-16.5485523385301
20
5.21149473046125
30
0.000000000000000
11
-16.4485523385301
21
5.14859480688147
31
0.000000000000000
  0
LINE
  5
F105B5
330
F105B6
100
AcDbEntity
8
Geo
100
AcDbLine
10
-16.4485523385301
20
5.14859480688147
30
0.000000000000000
11
-16.3485523385301
21
5.08477176909495
31
0.000000000000000
  0
LINE
  5
F105B7
330
F105B8
100
AcDbEntity
8
Geo
100
AcDbLine
10
-16.3485523385301
20
5.08477176909495
30
0.000000000000000
11
-16.2485523385301
21
5.02004359149872
31
0.000000000000000
  0
LINE
  5
F105B9
330
F105BA
100
AcDbEntity
8
Geo
100
AcDbLine
10
-16.2485523385301
20
5.02004359149872
30
0.000000000000000
11
-16.1485523385301
21
4.95442850340312
31
0.000000000000000
  0
LINE
  5
F105BB
330
F105BC
100
AcDbEntity
8
Geo
100
AcDbLine
10
-16.1485523385301
20
4.95442850340312
30
0.000000000000000
11
-16.0485523385301
21
4.88794498389794
31
0.000000000000000
  0
LINE
  5
F105BD
330
F105BE
100
AcDbEntity
8
Geo
100
AcDbLine
10
-16.0485523385301
20
4.88794498389794
30
0.000000000000000
11
-15.9485523385301
21
4.82061175664811
31
0.000000000000000
  0
LINE
  5
F105BF
330
F105C0
100
AcDbEntity
8
Geo
100
AcDbLine
10
-15.9485523385301
20
4.82061175664811
30
0.000000000000000
11
-15.8485523385301
21
4.75244778462065
31
0.000000000000000
  0
LINE
  5
F105C1
330
F105C2
100
AcDbEntity
8
Geo
100
AcDbLine
10
-15.8485523385301
20
4.75244778462065
30
0.000000000000000
11
-15.7485523385301
21
4.68347226474412
31
0.000000000000000
  0
LINE
  5
F105C3
330
F105C4
100
AcDbEntity
8
Geo
100
AcDbLine
10
-15.7485523385301
20
4.68347226474412
30
0.000000000000000
11
-15.6485523385301
21
4.61370462250219
31
0.000000000000000
  0
LINE
  5
F105C5
330
F105C6
100
AcDbEntity
8
Geo
100
AcDbLine
10
-15.6485523385301
20
4.61370462250219
30
0.000000000000000
11
-15.5485523385301
21
4.54316450646293
31
0.000000000000000
  0
LINE
  5
F105C7
330
F105C8
100
AcDbEntity
8
Geo
100
AcDbLine
10
-15.5485523385301
20
4.54316450646293
30
0.000000000000000
11
-15.4485523385301
21
4.47187178274516
31
0.000000000000000
  0
LINE
  5
F105C9
330
F105CA
100
AcDbEntity
8
Geo
100
AcDbLine
10
-15.4485523385301
20
4.47187178274516
30
0.000000000000000
11
-15.3485523385301
21
4.39984652942361
31
0.000000000000000
  0
LINE
  5
F105CB
330
F105CC
100
AcDbEntity
8
Geo
100
AcDbLine
10
-15.3485523385301
20
4.39984652942361
30
0.000000000000000
11
-15.2485523385301
21
4.32710903087432
31
0.000000000000000
  0
LINE
  5
F105CD
330
F105CE
100
AcDbEntity
8
Geo
100
AcDbLine
10
-15.2485523385301
20
4.32710903087432
30
0.000000000000000
11
-15.1485523385301
21
4.25367977206202
31
0.000000000000000
  0
LINE
  5
F105CF
330
F105D0
100
AcDbEntity
8
Geo
100
AcDbLine
10
-15.1485523385301
20
4.25367977206202
30
0.000000000000000
11
-15.0485523385301
21
4.17957943277097
31
0.000000000000000
  0
LINE
  5
F105D1
330
F105D2
100
AcDbEntity
8
Geo
100
AcDbLine
10
-15.0485523385301
20
4.17957943277097
30
0.000000000000000
11
-14.9485523385301
21
4.10482888178092
31
0.000000000000000
  0
LINE
  5
F105D3
330
F105D4
100
AcDbEntity
8
Geo
100
AcDbLine
10
-14.9485523385301
20
4.10482888178092
30
0.000000000000000
11
-14.8485523385301
21
4.02944917098986
31
0.000000000000000
  0
LINE
  5
F105D5
330
F105D6
100
AcDbEntity
8
Geo
100
AcDbLine
10
-14.8485523385301
20
4.02944917098986
30
0.000000000000000
11
-14.7485523385301
21
3.95346152948524
31
0.000000000000000
  0
LINE
  5
F105D7
330
F105D8
100
AcDbEntity
8
Geo
100
AcDbLine
10
-14.7485523385301
20
3.95346152948524
30
0.000000000000000
11
-14.6485523385301
21
3.87688735756521
31
0.000000000000000
  0
LINE
  5
F105D9
330
F105DA
100
AcDbEntity
8
Geo
100
AcDbLine
10
-14.6485523385301
20
3.87688735756521
30
0.000000000000000
11
-14.5485523385301
21
3.79974822071171
31
0.000000000000000
  0
LINE
  5
F105DB
330
F105DC
100
AcDbEntity
8
Geo
100
AcDbLine
10
-14.5485523385301
20
3.79974822071171
30
0.000000000000000
11
-14.4485523385301
21
3.72206584351700
31
0.000000000000000
  0
LINE
  5
F105DD
330
F105DE
100
AcDbEntity
8
Geo
100
AcDbLine
10
-14.4485523385301
20
3.72206584351700
30
0.000000000000000
11
-14.3485523385301
21
3.64386210356538
31
0.000000000000000
  0
LINE
  5
F105DF
330
F105E0
100
AcDbEntity
8
Geo
100
AcDbLine
10
-14.3485523385301
20
3.64386210356538
30
0.000000000000000
11
-14.2485523385301
21
3.56515902527185
31
0.000000000000000
  0
LINE
  5
F105E1
330
F105E2
100
AcDbEntity
8
Geo
100
AcDbLine
10
-14.2485523385301
20
3.56515902527185
30
0.000000000000000
11
-14.1485523385301
21
3.48597877367942
31
0.000000000000000
  0
LINE
  5
F105E3
330
F105E4
100
AcDbEntity
8
Geo
100
AcDbLine
10
-14.1485523385301
20
3.48597877367942
30
0.000000000000000
11
-14.0485523385301
21
3.40634364821677
31
0.000000000000000
  0
LINE
  5
F105E5
330
F105E6
100
AcDbEntity
8
Geo
100
AcDbLine
10
-14.0485523385301
20
3.40634364821677
30
0.000000000000000
11
-13.9485523385301
21
3.32627607641809
31
0.000000000000000
  0
LINE
  5
F105E7
330
F105E8
100
AcDbEntity
8
Geo
100
AcDbLine
10
-13.9485523385301
20
3.32627607641809
30
0.000000000000000
11
-13.8485523385301
21
3.24579860760687
31
0.000000000000000
  0
LINE
  5
F105E9
330
F105EA
100
AcDbEntity
8
Geo
100
AcDbLine
10
-13.8485523385301
20
3.24579860760687
30
0.000000000000000
11
-13.7485523385301
21
3.16493390654533
31
0.000000000000000
  0
LINE
  5
F105EB
330
F105EC
100
AcDbEntity
8
Geo
100
AcDbLine
10
-13.7485523385301
20
3.16493390654533
30
0.000000000000000
11
-13.6485523385301
21
3.08370474705143
31
0.000000000000000
  0
LINE
  5
F105ED
330
F105EE
100
AcDbEntity
8
Geo
100
AcDbLine
10
-13.6485523385301
20
3.08370474705143
30
0.000000000000000
11
-13.5485523385301
21
3.00213400558503
31
0.000000000000000
  0
LINE
  5
F105EF
330
F105F0
100
AcDbEntity
8
Geo
100
AcDbLine
10
-13.5485523385301
20
3.00213400558503
30
0.000000000000000
11
-13.4485523385301
21
2.92024465480529
31
0.000000000000000
  0
LINE
  5
F105F1
330
F105F2
100
AcDbEntity
8
Geo
100
AcDbLine
10
-13.4485523385301
20
2.92024465480529
30
0.000000000000000
11
-13.3485523385301
21
2.83805975710087
31
0.000000000000000
  0
LINE
  5
F105F3
330
F105F4
100
AcDbEntity
8
Geo
100
AcDbLine
10
-13.3485523385301
20
2.83805975710087
30
0.000000000000000
11
-13.2485523385301
21
2.75560245809494
31
0.000000000000000
  0
LINE
  5
F105F5
330
F105F6
100
AcDbEntity
8
Geo
100
AcDbLine
10
-13.2485523385301
20
2.75560245809494
30
0.000000000000000
11
-13.1485523385301
21
2.67289598012667
31
0.000000000000000
  0
LINE
  5
F105F7
330
F105F8
100
AcDbEntity
8
Geo
100
AcDbLine
10
-13.1485523385301
20
2.67289598012667
30
0.000000000000000
11
-13.0485523385301
21
2.58996361571116
31
0.000000000000000
  0
LINE
  5
F105F9
330
F105FA
100
AcDbEntity
8
Geo
100
AcDbLine
10
-13.0485523385301
20
2.58996361571116
30
0.000000000000000
11
-12.9485523385301
21
2.50682872097962
31
0.000000000000000
  0
LINE
  5
F105FB
330
F105FC
100
AcDbEntity
8
Geo
100
AcDbLine
10
-12.9485523385301
20
2.50682872097962
30
0.000000000000000
11
-12.8485523385301
21
2.42351470910161
31
0.000000000000000
  0
LINE
  5
F105FD
330
F105FE
100
AcDbEntity
8
Geo
100
AcDbLine
10
-12.8485523385301
20
2.42351470910161
30
0.000000000000000
11
-12.7485523385301
21
2.34004504369121
31
0.000000000000000
  0
LINE
  5
F105FF
330
F10600
100
AcDbEntity
8
Geo
100
AcDbLine
10
-12.7485523385301
20
2.34004504369121
30
0.000000000000000
11
-12.6485523385301
21
2.25644323219897
31
0.000000000000000
  0
LINE
  5
F10601
330
F10602
100
AcDbEntity
8
Geo
100
AcDbLine
10
-12.6485523385301
20
2.25644323219897
30
0.000000000000000
11
-12.5485523385301
21
2.17273281929161
31
0.000000000000000
  0
LINE
  5
F10603
330
F10604
100
AcDbEntity
8
Geo
100
AcDbLine
10
-12.5485523385301
20
2.17273281929161
30
0.000000000000000
11
-12.4485523385301
21
2.08893738022108
31
0.000000000000000
  0
LINE
  5
F10605
330
F10606
100
AcDbEntity
8
Geo
100
AcDbLine
10
-12.4485523385301
20
2.08893738022108
30
0.000000000000000
11
-12.3485523385301
21
2.00508051418517
31
0.000000000000000
  0
LINE
  5
F10607
330
F10608
100
AcDbEntity
8
Geo
100
AcDbLine
10
-12.3485523385301
20
2.00508051418517
30
0.000000000000000
11
-12.2485523385301
21
1.92118583768124
31
0.000000000000000
  0
LINE
  5
F10609
330
F1060A
100
AcDbEntity
8
Geo
100
AcDbLine
10
-12.2485523385301
20
1.92118583768124
30
0.000000000000000
11
-12.1485523385301
21
1.83727697785516
31
0.000000000000000
  0
LINE
  5
F1060B
330
F1060C
100
AcDbEntity
8
Geo
100
AcDbLine
10
-12.1485523385301
20
1.83727697785516
30
0.000000000000000
11
-12.0485523385301
21
1.75337756584726
31
0.000000000000000
  0
LINE
  5
F1060D
330
F1060E
100
AcDbEntity
8
Geo
100
AcDbLine
10
-12.0485523385301
20
1.75337756584726
30
0.000000000000000
11
-11.9485523385301
21
1.66951123013706
31
0.000000000000000
  0
LINE
  5
F1060F
330
F10610
100
AcDbEntity
8
Geo
100
AcDbLine
10
-11.9485523385301
20
1.66951123013706
30
0.000000000000000
11
-11.8485523385301
21
1.58570158988886
31
0.000000000000000
  0
LINE
  5
F10611
330
F10612
100
AcDbEntity
8
Geo
100
AcDbLine
10
-11.8485523385301
20
1.58570158988886
30
0.000000000000000
11
-11.7485523385301
21
1.50197224829989
31
0.000000000000000
  0
LINE
  5
F10613
330
F10614
100
AcDbEntity
8
Geo
100
AcDbLine
10
-11.7485523385301
20
1.50197224829989
30
0.000000000000000
11
-11.6485523385301
21
1.41834678595299
31
0.000000000000000
  0
LINE
  5
F10615
330
F10616
100
AcDbEntity
8
Geo
100
AcDbLine
10
-11.6485523385301
20
1.41834678595299
30
0.000000000000000
11
-11.5485523385301
21
1.33484875417560
31
0.000000000000000
  0
LINE
  5
F10617
330
F10618
100
AcDbEntity
8
Geo
100
AcDbLine
10
-11.5485523385301
20
1.33484875417560
30
0.000000000000000
11
-11.4485523385301
21
1.25150166840709
31
0.000000000000000
  0
LINE
  5
F10619
330
F1061A
100
AcDbEntity
8
Geo
100
AcDbLine
10
-11.4485523385301
20
1.25150166840709
30
0.000000000000000
11
-11.3485523385301
21
1.16832900157607
31
0.000000000000000
  0
LINE
  5
F1061B
330
F1061C
100
AcDbEntity
8
Geo
100
AcDbLine
10
-11.3485523385301
20
1.16832900157607
30
0.000000000000000
11
-11.2485523385301
21
1.08535417748982
31
0.000000000000000
  0
LINE
  5
F1061D
330
F1061E
100
AcDbEntity
8
Geo
100
AcDbLine
10
-11.2485523385301
20
1.08535417748982
30
0.000000000000000
11
-11.1485523385301
21
1.00260056423739
31
0.000000000000000
  0
LINE
  5
F1061F
330
F10620
100
AcDbEntity
8
Geo
100
AcDbLine
10
-11.1485523385301
20
1.00260056423739
30
0.000000000000000
11
-11.0485523385301
21
0.920091467608553
31
0.000000000000000
  0
LINE
  5
F10621
330
F10622
100
AcDbEntity
8
Geo
100
AcDbLine
10
-11.0485523385301
20
0.920091467608553
30
0.000000000000000
11
-10.9485523385301
21
0.837850124530171
31
0.000000000000000
  0
LINE
  5
F10623
330
F10624
100
AcDbEntity
8
Geo
100
AcDbLine
10
-10.9485523385301
20
0.837850124530171
30
0.000000000000000
11
-10.8485523385301
21
0.755899696522031
31
0.000000000000000
  0
LINE
  5
F10625
330
F10626
100
AcDbEntity
8
Geo
100
AcDbLine
10
-10.8485523385301
20
0.755899696522031
30
0.000000000000000
11
-10.7485523385301
21
0.674263263173901
31
0.000000000000000
  0
LINE
  5
F10627
330
F10628
100
AcDbEntity
8
Geo
100
AcDbLine
10
-10.7485523385301
20
0.674263263173901
30
0.000000000000000
11
-10.6485523385301
21
0.592963815645651
31
0.000000000000000
  0
LINE
  5
F10629
330
F1062A
100
AcDbEntity
8
Geo
100
AcDbLine
10
-10.6485523385301
20
0.592963815645651
30
0.000000000000000
11
-10.5485523385301
21
0.512024250192301
31
0.000000000000000
  0
LINE
  5
F1062B
330
F1062C
100
AcDbEntity
8
Geo
100
AcDbLine
10
-10.5485523385301
20
0.512024250192301
30
0.000000000000000
11
-10.4485523385301
21
0.431467361715721
31
0.000000000000000
  0
LINE
  5
F1062D
330
F1062E
100
AcDbEntity
8
Geo
100
AcDbLine
10
-10.4485523385301
20
0.431467361715721
30
0.000000000000000
11
-10.3485523385301
21
0.351315837345011
31
0.000000000000000
  0
LINE
  5
F1062F
330
F10630
100
AcDbEntity
8
Geo
100
AcDbLine
10
-10.3485523385301
20
0.351315837345011
30
0.000000000000000
11
-10.2485523385301
21
0.271592250047111
31
0.000000000000000
  0
LINE
  5
F10631
330
F10632
100
AcDbEntity
8
Geo
100
AcDbLine
10
-10.2485523385301
20
0.271592250047111
30
0.000000000000000
11
-10.1485523385301
21
0.192319052269601
31
0.000000000000000
  0
LINE
  5
F10633
330
F10634
100
AcDbEntity
8
Geo
100
AcDbLine
10
-10.1485523385301
20
0.192319052269601
30
0.000000000000000
11
-10.0485523385301
21
0.113518569617471
31
0.000000000000000
  0
LINE
  5
F10635
330
F10636
100
AcDbEntity
8
Geo
100
AcDbLine
10
-10.0485523385301
20
0.113518569617471
30
0.000000000000000
11
-9.94855233853010
21
0.0352129945655910
31
0.000000000000000
  0
LINE
  5
F10637
330
F10638
100
AcDbEntity
8
Geo
100
AcDbLine
10
-9.94855233853010
20
0.0352129945655910
30
0.000000000000000
11
-9.84855233853010
21
-0.0425756197913789
31
0.000000000000000
  0
LINE
  5
F10639
330
F1063A
100
AcDbEntity
8
Geo
100
AcDbLine
10
-9.84855233853010
20
-0.0425756197913789
30
0.000000000000000
11
-9.74855233853010
21
-0.119825365949669
31
0.000000000000000
  0
LINE
  5
F1063B
330
F1063C
100
AcDbEntity
8
Geo
100
AcDbLine
10
-9.74855233853010
20
-0.119825365949669
30
0.000000000000000
11
-9.64855233853010
21
-0.196514488166279
31
0.000000000000000
  0
LINE
  5
F1063D
330
F1063E
100
AcDbEntity
8
Geo
100
AcDbLine
10
-9.64855233853010
20
-0.196514488166279
30
0.000000000000000
11
-9.54855233853010
21
-0.272621388585999
31
0.000000000000000
  0
LINE
  5
F1063F
330
F10640
100
AcDbEntity
8
Geo
100
AcDbLine
10
-9.54855233853010
20
-0.272621388585999
30
0.000000000000000
11
-9.44855233853010
21
-0.348124633323919
31
0.000000000000000
  0
LINE
  5
F10641
330
F10642
100
AcDbEntity
8
Geo
100
AcDbLine
10
-9.44855233853010
20
-0.348124633323919
30
0.000000000000000
11
-9.34855233853010
21
-0.423002958501909
31
0.000000000000000
  0
LINE
  5
F10643
330
F10644
100
AcDbEntity
8
Geo
100
AcDbLine
10
-9.34855233853010
20
-0.423002958501909
30
0.000000000000000
11
-9.24855233853010
21
-0.497235276237089
31
0.000000000000000
  0
LINE
  5
F10645
330
F10646
100
AcDbEntity
8
Geo
100
AcDbLine
10
-9.24855233853010
20
-0.497235276237089
30
0.000000000000000
11
-9.14855233853010
21
-0.570800680580799
31
0.000000000000000
  0
LINE
  5
F10647
330
F10648
100
AcDbEntity
8
Geo
100
AcDbLine
10
-9.14855233853010
20
-0.570800680580799
30
0.000000000000000
11
-9.04855233853010
21
-0.643678453406299
31
0.000000000000000
  0
LINE
  5
F10649
330
F1064A
100
AcDbEntity
8
Geo
100
AcDbLine
10
-9.04855233853010
20
-0.643678453406299
30
0.000000000000000
11
-8.94855233853010
21
-0.715848070243599
31
0.000000000000000
  0
LINE
  5
F1064B
330
F1064C
100
AcDbEntity
8
Geo
100
AcDbLine
10
-8.94855233853010
20
-0.715848070243599
30
0.000000000000000
11
-8.84855233853010
21
-0.787289206059759
31
0.000000000000000
  0
LINE
  5
F1064D
330
F1064E
100
AcDbEntity
8
Geo
100
AcDbLine
10
-8.84855233853010
20
-0.787289206059759
30
0.000000000000000
11
-8.74855233853010
21
-0.857981740982939
31
0.000000000000000
  0
LINE
  5
F1064F
330
F10650
100
AcDbEntity
8
Geo
100
AcDbLine
10
-8.74855233853010
20
-0.857981740982939
30
0.000000000000000
11
-8.64855233853010
21
-0.927905765968789
31
0.000000000000000
  0
LINE
  5
F10651
330
F10652
100
AcDbEntity
8
Geo
100
AcDbLine
10
-8.64855233853010
20
-0.927905765968789
30
0.000000000000000
11
-8.54855233853010
21
-0.997041588407399
31
0.000000000000000
  0
LINE
  5
F10653
330
F10654
100
AcDbEntity
8
Geo
100
AcDbLine
10
-8.54855233853010
20
-0.997041588407399
30
0.000000000000000
11
-8.44855233853010
21
-1.06536973766927
31
0.000000000000000
  0
LINE
  5
F10655
330
F10656
100
AcDbEntity
8
Geo
100
AcDbLine
10
-8.44855233853010
20
-1.06536973766927
30
0.000000000000000
11
-8.34855233853010
21
-1.13287097058885
31
0.000000000000000
  0
LINE
  5
F10657
330
F10658
100
AcDbEntity
8
Geo
100
AcDbLine
10
-8.34855233853010
20
-1.13287097058885
30
0.000000000000000
11
-8.24855233853010
21
-1.19952627688391
31
0.000000000000000
  0
LINE
  5
F10659
330
F1065A
100
AcDbEntity
8
Geo
100
AcDbLine
10
-8.24855233853010
20
-1.19952627688391
30
0.000000000000000
11
-8.14855233853010
21
-1.26531688450940
31
0.000000000000000
  0
LINE
  5
F1065B
330
F1065C
100
AcDbEntity
8
Geo
100
AcDbLine
10
-8.14855233853010
20
-1.26531688450940
30
0.000000000000000
11
-8.04855233853010
21
-1.33022426494424
31
0.000000000000000
  0
LINE
  5
F1065D
330
F1065E
100
AcDbEntity
8
Geo
100
AcDbLine
10
-8.04855233853010
20
-1.33022426494424
30
0.000000000000000
11
-7.94855233853010
21
-1.39423013840942
31
0.000000000000000
  0
LINE
  5
F1065F
330
F10660
100
AcDbEntity
8
Geo
100
AcDbLine
10
-7.94855233853010
20
-1.39423013840942
30
0.000000000000000
11
-7.84855233853010
21
-1.45731647901613
31
0.000000000000000
  0
LINE
  5
F10661
330
F10662
100
AcDbEntity
8
Geo
100
AcDbLine
10
-7.84855233853010
20
-1.45731647901613
30
0.000000000000000
11
-7.74855233853010
21
-1.51946551984240
31
0.000000000000000
  0
LINE
  5
F10663
330
F10664
100
AcDbEntity
8
Geo
100
AcDbLine
10
-7.74855233853010
20
-1.51946551984240
30
0.000000000000000
11
-7.64855233853010
21
-1.58065975793671
31
0.000000000000000
  0
LINE
  5
F10665
330
F10666
100
AcDbEntity
8
Geo
100
AcDbLine
10
-7.64855233853010
20
-1.58065975793671
30
0.000000000000000
11
-7.54855233853010
21
-1.64088195924740
31
0.000000000000000
  0
LINE
  5
F10667
330
F10668
100
AcDbEntity
8
Geo
100
AcDbLine
10
-7.54855233853010
20
-1.64088195924740
30
0.000000000000000
11
-7.44855233853010
21
-1.70011516347621
31
0.000000000000000
  0
LINE
  5
F10669
330
F1066A
100
AcDbEntity
8
Geo
100
AcDbLine
10
-7.44855233853010
20
-1.70011516347621
30
0.000000000000000
11
-7.34855233853010
21
-1.75834268885479
31
0.000000000000000
  0
LINE
  5
F1066B
330
F1066C
100
AcDbEntity
8
Geo
100
AcDbLine
10
-7.34855233853010
20
-1.75834268885479
30
0.000000000000000
11
-7.34855233853010
21
-1.75834268885479
31
0.000000000000000
  0
LINE
  5
F1066D
330
F1066E
100
AcDbEntity
8
Geo
100
AcDbLine
10
-7.34855233853010
20
-1.75834268885479
30
0.000000000000000
11
-7.24855233853010
21
-1.56773485725736
31
0.000000000000000
  0
LINE
  5
F1066F
330
F10670
100
AcDbEntity
8
Geo
100
AcDbLine
10
-7.24855233853010
20
-1.56773485725736
30
0.000000000000000
11
-7.14855233853010
21
-1.55848826044098
31
0.000000000000000
  0
LINE
  5
F10671
330
F10672
100
AcDbEntity
8
Geo
100
AcDbLine
10
-7.14855233853010
20
-1.55848826044098
30
0.000000000000000
11
-7.04855233853010
21
-1.54914401458152
31
0.000000000000000
  0
LINE
  5
F10673
330
F10674
100
AcDbEntity
8
Geo
100
AcDbLine
10
-7.04855233853010
20
-1.54914401458152
30
0.000000000000000
11
-6.94855233853010
21
-1.53970157186375
31
0.000000000000000
  0
LINE
  5
F10675
330
F10676
100
AcDbEntity
8
Geo
100
AcDbLine
10
-6.94855233853010
20
-1.53970157186375
30
0.000000000000000
11
-6.84855233853010
21
-1.53016038344604
31
0.000000000000000
  0
LINE
  5
F10677
330
F10678
100
AcDbEntity
8
Geo
100
AcDbLine
10
-6.84855233853010
20
-1.53016038344604
30
0.000000000000000
11
-6.74855233853010
21
-1.52051989954153
31
0.000000000000000
  0
LINE
  5
F10679
330
F1067A
100
AcDbEntity
8
Geo
100
AcDbLine
10
-6.74855233853010
20
-1.52051989954153
30
0.000000000000000
11
-6.64855233853010
21
-1.51077956950013
31
0.000000000000000
  0
LINE
  5
F1067B
330
F1067C
100
AcDbEntity
8
Geo
100
AcDbLine
10
-6.64855233853010
20
-1.51077956950013
30
0.000000000000000
11
-6.54855233853010
21
-1.50093884189166
31
0.000000000000000
  0
LINE
  5
F1067D
330
F1067E
100
AcDbEntity
8
Geo
100
AcDbLine
10
-6.54855233853010
20
-1.50093884189166
30
0.000000000000000
11
-6.44855233853010
21
-1.49099716458989
31
0.000000000000000
  0
LINE
  5
F1067F
330
F10680
100
AcDbEntity
8
Geo
100
AcDbLine
10
-6.44855233853010
20
-1.49099716458989
30
0.000000000000000
11
-6.34855233853010
21
-1.48095398485762
31
0.000000000000000
  0
LINE
  5
F10681
330
F10682
100
AcDbEntity
8
Geo
100
AcDbLine
10
-6.34855233853010
20
-1.48095398485762
30
0.000000000000000
11
-6.24855233853010
21
-1.47080874943277
31
0.000000000000000
  0
LINE
  5
F10683
330
F10684
100
AcDbEntity
8
Geo
100
AcDbLine
10
-6.24855233853010
20
-1.47080874943277
30
0.000000000000000
11
-6.14855233853010
21
-1.46056090461548
31
0.000000000000000
  0
LINE
  5
F10685
330
F10686
100
AcDbEntity
8
Geo
100
AcDbLine
10
-6.14855233853010
20
-1.46056090461548
30
0.000000000000000
11
-6.04855233853010
21
-1.45020989635625
31
0.000000000000000
  0
LINE
  5
F10687
330
F10688
100
AcDbEntity
8
Geo
100
AcDbLine
10
-6.04855233853010
20
-1.45020989635625
30
0.000000000000000
11
-5.94855233853010
21
-1.43975517034508
31
0.000000000000000
  0
LINE
  5
F10689
330
F1068A
100
AcDbEntity
8
Geo
100
AcDbLine
10
-5.94855233853010
20
-1.43975517034508
30
0.000000000000000
11
-5.84855233853010
21
-1.42919617210166
31
0.000000000000000
  0
LINE
  5
F1068B
330
F1068C
100
AcDbEntity
8
Geo
100
AcDbLine
10
-5.84855233853010
20
-1.42919617210166
30
0.000000000000000
11
-5.74855233853010
21
-1.41853234706658
31
0.000000000000000
  0
LINE
  5
F1068D
330
F1068E
100
AcDbEntity
8
Geo
100
AcDbLine
10
-5.74855233853010
20
-1.41853234706658
30
0.000000000000000
11
-5.64855233853010
21
-1.40776314069362
31
0.000000000000000
  0
LINE
  5
F1068F
330
F10690
100
AcDbEntity
8
Geo
100
AcDbLine
10
-5.64855233853010
20
-1.40776314069362
30
0.000000000000000
11
-5.54855233853010
21
-1.39688799854308
31
0.000000000000000
  0
LINE
  5
F10691
330
F10692
100
AcDbEntity
8
Geo
100
AcDbLine
10
-5.54855233853010
20
-1.39688799854308
30
0.000000000000000
11
-5.44855233853010
21
-1.38590636637609
31
0.000000000000000
  0
LINE
  5
F10693
330
F10694
100
AcDbEntity
8
Geo
100
AcDbLine
10
-5.44855233853010
20
-1.38590636637609
30
0.000000000000000
11
-5.34855233853010
21
-1.37481769025010
31
0.000000000000000
  0
LINE
  5
F10695
330
F10696
100
AcDbEntity
8
Geo
100
AcDbLine
10
-5.34855233853010
20
-1.37481769025010
30
0.000000000000000
11
-5.24855233853010
21
-1.36362141661534
31
0.000000000000000
  0
LINE
  5
F10697
330
F10698
100
AcDbEntity
8
Geo
100
AcDbLine
10
-5.24855233853010
20
-1.36362141661534
30
0.000000000000000
11
-5.14855233853010
21
-1.35231699241242
31
0.000000000000000
  0
LINE
  5
F10699
330
F1069A
100
AcDbEntity
8
Geo
100
AcDbLine
10
-5.14855233853010
20
-1.35231699241242
30
0.000000000000000
11
-5.04855233853010
21
-1.34090386517090
31
0.000000000000000
  0
LINE
  5
F1069B
330
F1069C
100
AcDbEntity
8
Geo
100
AcDbLine
10
-5.04855233853010
20
-1.34090386517090
30
0.000000000000000
11
-4.94855233853010
21
-1.32938148310908
31
0.000000000000000
  0
LINE
  5
F1069D
330
F1069E
100
AcDbEntity
8
Geo
100
AcDbLine
10
-4.94855233853010
20
-1.32938148310908
30
0.000000000000000
11
-4.84855233853010
21
-1.31774929523472
31
0.000000000000000
  0
LINE
  5
F1069F
330
F106A0
100
AcDbEntity
8
Geo
100
AcDbLine
10
-4.84855233853010
20
-1.31774929523472
30
0.000000000000000
11
-4.74855233853010
21
-1.30600675144700
31
0.000000000000000
  0
LINE
  5
F106A1
330
F106A2
100
AcDbEntity
8
Geo
100
AcDbLine
10
-4.74855233853010
20
-1.30600675144700
30
0.000000000000000
11
-4.64855233853010
21
-1.29415330263942
31
0.000000000000000
  0
LINE
  5
F106A3
330
F106A4
100
AcDbEntity
8
Geo
100
AcDbLine
10
-4.64855233853010
20
-1.29415330263942
30
0.000000000000000
11
-4.54855233853010
21
-1.28218840080394
31
0.000000000000000
  0
LINE
  5
F106A5
330
F106A6
100
AcDbEntity
8
Geo
100
AcDbLine
10
-4.54855233853010
20
-1.28218840080394
30
0.000000000000000
11
-4.44855233853010
21
-1.27011149913609
31
0.000000000000000
  0
LINE
  5
F106A7
330
F106A8
100
AcDbEntity
8
Geo
100
AcDbLine
10
-4.44855233853010
20
-1.27011149913609
30
0.000000000000000
11
-4.34855233853010
21
-1.25792205214127
31
0.000000000000000
  0
LINE
  5
F106A9
330
F106AA
100
AcDbEntity
8
Geo
100
AcDbLine
10
-4.34855233853010
20
-1.25792205214127
30
0.000000000000000
11
-4.24855233853010
21
-1.24561951574215
31
0.000000000000000
  0
LINE
  5
F106AB
330
F106AC
100
AcDbEntity
8
Geo
100
AcDbLine
10
-4.24855233853010
20
-1.24561951574215
30
0.000000000000000
11
-4.14855233853010
21
-1.23320334738711
31
0.000000000000000
  0
LINE
  5
F106AD
330
F106AE
100
AcDbEntity
8
Geo
100
AcDbLine
10
-4.14855233853010
20
-1.23320334738711
30
0.000000000000000
11
-4.04855233853010
21
-1.22067300615988
31
0.000000000000000
  0
LINE
  5
F106AF
330
F106B0
100
AcDbEntity
8
Geo
100
AcDbLine
10
-4.04855233853010
20
-1.22067300615988
30
0.000000000000000
11
-3.94855233853010
21
-1.20802795289028
31
0.000000000000000
  0
LINE
  5
F106B1
330
F106B2
100
AcDbEntity
8
Geo
100
AcDbLine
10
-3.94855233853010
20
-1.20802795289028
30
0.000000000000000
11
-3.84855233853000
21
-1.19526765026600
31
0.000000000000000
  0
LINE
  5
F106B3
330
F106B4
100
AcDbEntity
8
Geo
100
AcDbLine
10
-3.84855233853000
20
-1.19526765026600
30
0.000000000000000
11
-3.74855233853000
21
-1.18239156294563
31
0.000000000000000
  0
LINE
  5
F106B5
330
F106B6
100
AcDbEntity
8
Geo
100
AcDbLine
10
-3.74855233853000
20
-1.18239156294563
30
0.000000000000000
11
-3.64855233853000
21
-1.16939915767273
31
0.000000000000000
  0
LINE
  5
F106B7
330
F106B8
100
AcDbEntity
8
Geo
100
AcDbLine
10
-3.64855233853000
20
-1.16939915767273
30
0.000000000000000
11
-3.54855233853000
21
-1.15628990339105
31
0.000000000000000
  0
LINE
  5
F106B9
330
F106BA
100
AcDbEntity
8
Geo
100
AcDbLine
10
-3.54855233853000
20
-1.15628990339105
30
0.000000000000000
11
-3.44855233853000
21
-1.14306327136090
31
0.000000000000000
  0
LINE
  5
F106BB
330
F106BC
100
AcDbEntity
8
Geo
100
AcDbLine
10
-3.44855233853000
20
-1.14306327136090
30
0.000000000000000
11
-3.34855233853000
21
-1.12971873527663
31
0.000000000000000
  0
LINE
  5
F106BD
330
F106BE
100
AcDbEntity
8
Geo
100
AcDbLine
10
-3.34855233853000
20
-1.12971873527663
30
0.000000000000000
11
-3.24855233853000
21
-1.11625577138525
31
0.000000000000000
  0
LINE
  5
F106BF
330
F106C0
100
AcDbEntity
8
Geo
100
AcDbLine
10
-3.24855233853000
20
-1.11625577138525
30
0.000000000000000
11
-3.14855233853000
21
-1.10267385860623
31
0.000000000000000
  0
LINE
  5
F106C1
330
F106C2
100
AcDbEntity
8
Geo
100
AcDbLine
10
-3.14855233853000
20
-1.10267385860623
30
0.000000000000000
11
-3.04855233853000
21
-1.08897247865237
31
0.000000000000000
  0
LINE
  5
F106C3
330
F106C4
100
AcDbEntity
8
Geo
100
AcDbLine
10
-3.04855233853000
20
-1.08897247865237
30
0.000000000000000
11
-2.94855233853000
21
-1.07515111615187
31
0.000000000000000
  0
LINE
  5
F106C5
330
F106C6
100
AcDbEntity
8
Geo
100
AcDbLine
10
-2.94855233853000
20
-1.07515111615187
30
0.000000000000000
11
-2.84855233853000
21
-1.06120925877155
31
0.000000000000000
  0
LINE
  5
F106C7
330
F106C8
100
AcDbEntity
8
Geo
100
AcDbLine
10
-2.84855233853000
20
-1.06120925877155
30
0.000000000000000
11
-2.74855233853000
21
-1.04714639734112
31
0.000000000000000
  0
LINE
  5
F106C9
330
F106CA
100
AcDbEntity
8
Geo
100
AcDbLine
10
-2.74855233853000
20
-1.04714639734112
30
0.000000000000000
11
-2.64855233853000
21
-1.03296202597876
31
0.000000000000000
  0
LINE
  5
F106CB
330
F106CC
100
AcDbEntity
8
Geo
100
AcDbLine
10
-2.64855233853000
20
-1.03296202597876
30
0.000000000000000
11
-2.54855233853000
21
-1.01865564221769
31
0.000000000000000
  0
LINE
  5
F106CD
330
F106CE
100
AcDbEntity
8
Geo
100
AcDbLine
10
-2.54855233853000
20
-1.01865564221769
30
0.000000000000000
11
-2.44855233853000
21
-1.00422674713397
31
0.000000000000000
  0
LINE
  5
F106CF
330
F106D0
100
AcDbEntity
8
Geo
100
AcDbLine
10
-2.44855233853000
20
-1.00422674713397
30
0.000000000000000
11
-2.34855233853010
21
-0.989674845475459
31
0.000000000000000
  0
LINE
  5
F106D1
330
F106D2
100
AcDbEntity
8
Geo
100
AcDbLine
10
-29.3485523385301
20
5.26540396189044
30
0.000000000000000
11
-29.2485523385301
21
5.27559319357694
31
0.000000000000000
  0
LINE
  5
F106D3
330
F106D4
100
AcDbEntity
8
Geo
100
AcDbLine
10
-29.3485523385301
20
-2.82564941598646
30
0.000000000000000
11
-29.2485523385301
21
-2.94250227120960
31
0.000000000000000
  0
LINE
  5
F106D5
330
F106D6
100
AcDbEntity
8
Geo
100
AcDbLine
10
-29.2485523385301
20
5.27559319357694
30
0.000000000000000
11
-29.1485523385301
21
5.24861006648237
31
0.000000000000000
  0
LINE
  5
F106D7
330
F106D8
100
AcDbEntity
8
Geo
100
AcDbLine
10
-29.2485523385301
20
-2.94250227120960
30
0.000000000000000
11
-29.1485523385301
21
-3.00997302198785
31
0.000000000000000
  0
LINE
  5
F106D9
330
F106DA
100
AcDbEntity
8
Geo
100
AcDbLine
10
-29.1485523385301
20
5.24861006648237
30
0.000000000000000
11
-29.0485523385301
21
5.18628405054086
31
0.000000000000000
  0
LINE
  5
F106DB
330
F106DC
100
AcDbEntity
8
Geo
100
AcDbLine
10
-29.1485523385301
20
-3.00997302198785
30
0.000000000000000
11
-29.0485523385301
21
-3.02744974256889
31
0.000000000000000
  0
LINE
  5
F106DD
330
F106DE
100
AcDbEntity
8
Geo
100
AcDbLine
10
-29.0485523385301
20
5.18628405054086
30
0.000000000000000
11
-28.9485523385301
21
5.12302430602117
31
0.000000000000000
  0
LINE
  5
F106DF
330
F106E0
100
AcDbEntity
8
Geo
100
AcDbLine
10
-29.0485523385301
20
-3.02744974256889
30
0.000000000000000
11
-28.9485523385301
21
-3.04354696883207
31
0.000000000000000
  0
LINE
  5
F106E1
330
F106E2
100
AcDbEntity
8
Geo
100
AcDbLine
10
-28.9485523385301
20
5.12302430602117
30
0.000000000000000
11
-28.8485523385301
21
5.05884864868079
31
0.000000000000000
  0
LINE
  5
F106E3
330
F106E4
100
AcDbEntity
8
Geo
100
AcDbLine
10
-28.9485523385301
20
-3.04354696883207
30
0.000000000000000
11
-28.8485523385301
21
-3.05826016733702
31
0.000000000000000
  0
LINE
  5
F106E5
330
F106E6
100
AcDbEntity
8
Geo
100
AcDbLine
10
-28.8485523385301
20
5.05884864868079
30
0.000000000000000
11
-28.7485523385301
21
4.99377515222455
31
0.000000000000000
  0
LINE
  5
F106E7
330
F106E8
100
AcDbEntity
8
Geo
100
AcDbLine
10
-28.8485523385301
20
-3.05826016733702
30
0.000000000000000
11
-28.7485523385301
21
-3.07158519442526
31
0.000000000000000
  0
LINE
  5
F106E9
330
F106EA
100
AcDbEntity
8
Geo
100
AcDbLine
10
-28.7485523385301
20
4.99377515222455
30
0.000000000000000
11
-28.6485523385301
21
4.92782214321447
31
0.000000000000000
  0
LINE
  5
F106EB
330
F106EC
100
AcDbEntity
8
Geo
100
AcDbLine
10
-28.7485523385301
20
-3.07158519442526
30
0.000000000000000
11
-28.6485523385301
21
-3.08351829738718
31
0.000000000000000
  0
LINE
  5
F106ED
330
F106EE
100
AcDbEntity
8
Geo
100
AcDbLine
10
-28.6485523385301
20
4.92782214321447
30
0.000000000000000
11
-28.5485523385301
21
4.86100819590854
31
0.000000000000000
  0
LINE
  5
F106EF
330
F106F0
100
AcDbEntity
8
Geo
100
AcDbLine
10
-28.6485523385301
20
-3.08351829738718
30
0.000000000000000
11
-28.5485523385301
21
-3.09405611551891
31
0.000000000000000
  0
LINE
  5
F106F1
330
F106F2
100
AcDbEntity
8
Geo
100
AcDbLine
10
-28.5485523385301
20
4.86100819590854
30
0.000000000000000
11
-28.4485523385301
21
4.79335212702966
31
0.000000000000000
  0
LINE
  5
F106F3
330
F106F4
100
AcDbEntity
8
Geo
100
AcDbLine
10
-28.5485523385301
20
-3.09405611551891
30
0.000000000000000
11
-28.4485523385301
21
-3.10319568106877
31
0.000000000000000
  0
LINE
  5
F106F5
330
F106F6
100
AcDbEntity
8
Geo
100
AcDbLine
10
-28.4485523385301
20
4.79335212702966
30
0.000000000000000
11
-28.3485523385301
21
4.72487299046628
31
0.000000000000000
  0
LINE
  5
F106F7
330
F106F8
100
AcDbEntity
8
Geo
100
AcDbLine
10
-28.4485523385301
20
-3.10319568106877
30
0.000000000000000
11
-28.3485523385301
21
-3.11093442007311
31
0.000000000000000
  0
LINE
  5
F106F9
330
F106FA
100
AcDbEntity
8
Geo
100
AcDbLine
10
-28.3485523385301
20
4.72487299046628
30
0.000000000000000
11
-28.2485523385301
21
4.65559007190633
31
0.000000000000000
  0
LINE
  5
F106FB
330
F106FC
100
AcDbEntity
8
Geo
100
AcDbLine
10
-28.3485523385301
20
-3.11093442007311
30
0.000000000000000
11
-28.2485523385301
21
-3.11727015308117
31
0.000000000000000
  0
LINE
  5
F106FD
330
F106FE
100
AcDbEntity
8
Geo
100
AcDbLine
10
-28.2485523385301
20
4.65559007190633
30
0.000000000000000
11
-28.1485523385301
21
4.58552288340579
31
0.000000000000000
  0
LINE
  5
F106FF
330
F10700
100
AcDbEntity
8
Geo
100
AcDbLine
10
-28.2485523385301
20
-3.11727015308117
30
0.000000000000000
11
-28.1485523385301
21
-3.12220109576893
31
0.000000000000000
  0
LINE
  5
F10701
330
F10702
100
AcDbEntity
8
Geo
100
AcDbLine
10
-28.1485523385301
20
4.58552288340579
30
0.000000000000000
11
-28.0485523385301
21
4.51469115789352
31
0.000000000000000
  0
LINE
  5
F10703
330
F10704
100
AcDbEntity
8
Geo
100
AcDbLine
10
-28.1485523385301
20
-3.12220109576893
30
0.000000000000000
11
-28.0485523385301
21
-3.12572585944157
31
0.000000000000000
  0
LINE
  5
F10705
330
F10706
100
AcDbEntity
8
Geo
100
AcDbLine
10
-28.0485523385301
20
4.51469115789352
30
0.000000000000000
11
-27.9485523385301
21
4.44311484361393
31
0.000000000000000
  0
LINE
  5
F10707
330
F10708
100
AcDbEntity
8
Geo
100
AcDbLine
10
-28.0485523385301
20
-3.12572585944157
30
0.000000000000000
11
-27.9485523385301
21
-3.12784345142458
31
0.000000000000000
  0
LINE
  5
F10709
330
F1070A
100
AcDbEntity
8
Geo
100
AcDbLine
10
-27.9485523385301
20
4.44311484361393
30
0.000000000000000
11
-27.8485523385301
21
4.37081409850898
31
0.000000000000000
  0
LINE
  5
F1070B
330
F1070C
100
AcDbEntity
8
Geo
100
AcDbLine
10
-27.9485523385301
20
-3.12784345142458
30
0.000000000000000
11
-27.8485523385301
21
-3.12855327534338
31
0.000000000000000
  0
LINE
  5
F1070D
330
F1070E
100
AcDbEntity
8
Geo
100
AcDbLine
10
-27.8485523385301
20
4.37081409850898
30
0.000000000000000
11
-27.7485523385301
21
4.29780928454109
31
0.000000000000000
  0
LINE
  5
F1070F
330
F10710
100
AcDbEntity
8
Geo
100
AcDbLine
10
-27.7485523385301
20
4.29780928454109
30
0.000000000000000
11
-27.6485523385301
21
4.22412096195870
31
0.000000000000000
  0
LINE
  5
F10711
330
F10712
100
AcDbEntity
8
Geo
100
AcDbLine
10
-27.6485523385301
20
4.22412096195870
30
0.000000000000000
11
-27.5485523385301
21
4.14976988350583
31
0.000000000000000
  0
LINE
  5
F10713
330
F10714
100
AcDbEntity
8
Geo
100
AcDbLine
10
-27.5485523385301
20
4.14976988350583
30
0.000000000000000
11
-27.4485523385301
21
4.07477698857756
31
0.000000000000000
  0
LINE
  5
F10715
330
F10716
100
AcDbEntity
8
Geo
100
AcDbLine
10
-27.4485523385301
20
4.07477698857756
30
0.000000000000000
11
-27.3485523385301
21
3.99916339732290
31
0.000000000000000
  0
LINE
  5
F10717
330
F10718
100
AcDbEntity
8
Geo
100
AcDbLine
10
-27.3485523385301
20
3.99916339732290
30
0.000000000000000
11
-27.2485523385301
21
3.92295040469674
31
0.000000000000000
  0
LINE
  5
F10719
330
F1071A
100
AcDbEntity
8
Geo
100
AcDbLine
10
-27.2485523385301
20
3.92295040469674
30
0.000000000000000
11
-27.1485523385301
21
3.84615947446256
31
0.000000000000000
  0
LINE
  5
F1071B
330
F1071C
100
AcDbEntity
8
Geo
100
AcDbLine
10
-27.1485523385301
20
3.84615947446256
30
0.000000000000000
11
-27.0485523385301
21
3.76881223314765
31
0.000000000000000
  0
LINE
  5
F1071D
330
F1071E
100
AcDbEntity
8
Geo
100
AcDbLine
10
-27.0485523385301
20
3.76881223314765
30
0.000000000000000
11
-26.9485523385301
21
3.69093046395246
31
0.000000000000000
  0
LINE
  5
F1071F
330
F10720
100
AcDbEntity
8
Geo
100
AcDbLine
10
-26.9485523385301
20
3.69093046395246
30
0.000000000000000
11
-26.8485523385301
21
3.61253610061579
31
0.000000000000000
  0
LINE
  5
F10721
330
F10722
100
AcDbEntity
8
Geo
100
AcDbLine
10
-26.8485523385301
20
3.61253610061579
30
0.000000000000000
11
-26.7485523385301
21
3.53365122123765
31
0.000000000000000
  0
LINE
  5
F10723
330
F10724
100
AcDbEntity
8
Geo
100
AcDbLine
10
-26.7485523385301
20
3.53365122123765
30
0.000000000000000
11
-26.6485523385301
21
3.45429804206146
31
0.000000000000000
  0
LINE
  5
F10725
330
F10726
100
AcDbEntity
8
Geo
100
AcDbLine
10
-26.6485523385301
20
3.45429804206146
30
0.000000000000000
11
-26.5485523385301
21
3.37449891121723
31
0.000000000000000
  0
LINE
  5
F10727
330
F10728
100
AcDbEntity
8
Geo
100
AcDbLine
10
-26.5485523385301
20
3.37449891121723
30
0.000000000000000
11
-26.4485523385301
21
3.29427630242781
31
0.000000000000000
  0
LINE
  5
F10729
330
F1072A
100
AcDbEntity
8
Geo
100
AcDbLine
10
-26.4485523385301
20
3.29427630242781
30
0.000000000000000
11
-26.3485523385301
21
3.21365280867951
31
0.000000000000000
  0
LINE
  5
F1072B
330
F1072C
100
AcDbEntity
8
Geo
100
AcDbLine
10
-26.3485523385301
20
3.21365280867951
30
0.000000000000000
11
-26.2485523385301
21
3.13265113585940
31
0.000000000000000
  0
LINE
  5
F1072D
330
F1072E
100
AcDbEntity
8
Geo
100
AcDbLine
10
-26.2485523385301
20
3.13265113585940
30
0.000000000000000
11
-26.1485523385301
21
3.05129409636058
31
0.000000000000000
  0
LINE
  5
F1072F
330
F10730
100
AcDbEntity
8
Geo
100
AcDbLine
10
-26.1485523385301
20
3.05129409636058
30
0.000000000000000
11
-26.0485523385301
21
2.96960460265761
31
0.000000000000000
  0
LINE
  5
F10731
330
F10732
100
AcDbEntity
8
Geo
100
AcDbLine
10
-26.0485523385301
20
2.96960460265761
30
0.000000000000000
11
-25.9485523385301
21
2.88760566085366
31
0.000000000000000
  0
LINE
  5
F10733
330
F10734
100
AcDbEntity
8
Geo
100
AcDbLine
10
-25.9485523385301
20
2.88760566085366
30
0.000000000000000
11
-25.8485523385301
21
2.80532036420139
31
0.000000000000000
  0
LINE
  5
F10735
330
F10736
100
AcDbEntity
8
Geo
100
AcDbLine
10
-25.8485523385301
20
2.80532036420139
30
0.000000000000000
11
-25.7485523385301
21
2.72277188659917
31
0.000000000000000
  0
LINE
  5
F10737
330
F10738
100
AcDbEntity
8
Geo
100
AcDbLine
10
-25.7485523385301
20
2.72277188659917
30
0.000000000000000
11
-25.6485523385301
21
2.63998347606468
31
0.000000000000000
  0
LINE
  5
F10739
330
F1073A
100
AcDbEntity
8
Geo
100
AcDbLine
10
-25.6485523385301
20
2.63998347606468
30
0.000000000000000
11
-25.5485523385301
21
2.55697844818758
31
0.000000000000000
  0
LINE
  5
F1073B
330
F1073C
100
AcDbEntity
8
Geo
100
AcDbLine
10
-25.5485523385301
20
2.55697844818758
30
0.000000000000000
11
-25.4485523385301
21
2.47378017956322
31
0.000000000000000
  0
LINE
  5
F1073D
330
F1073E
100
AcDbEntity
8
Geo
100
AcDbLine
10
-25.4485523385301
20
2.47378017956322
30
0.000000000000000
11
-25.3485523385301
21
2.39041210120903
31
0.000000000000000
  0
LINE
  5
F1073F
330
F10740
100
AcDbEntity
8
Geo
100
AcDbLine
10
-25.3485523385301
20
2.39041210120903
30
0.000000000000000
11
-25.2485523385301
21
2.30689769196576
31
0.000000000000000
  0
LINE
  5
F10741
330
F10742
100
AcDbEntity
8
Geo
100
AcDbLine
10
-25.2485523385301
20
2.30689769196576
30
0.000000000000000
11
-25.1485523385301
21
2.22326047188514
31
0.000000000000000
  0
LINE
  5
F10743
330
F10744
100
AcDbEntity
8
Geo
100
AcDbLine
10
-25.1485523385301
20
2.22326047188514
30
0.000000000000000
11
-25.0485523385301
21
2.13952399560592
31
0.000000000000000
  0
LINE
  5
F10745
330
F10746
100
AcDbEntity
8
Geo
100
AcDbLine
10
-25.0485523385301
20
2.13952399560592
30
0.000000000000000
11
-24.9485523385301
21
2.05571184572029
31
0.000000000000000
  0
LINE
  5
F10747
330
F10748
100
AcDbEntity
8
Geo
100
AcDbLine
10
-24.9485523385301
20
2.05571184572029
30
0.000000000000000
11
-24.8485523385301
21
1.97184762613224
31
0.000000000000000
  0
LINE
  5
F10749
330
F1074A
100
AcDbEntity
8
Geo
100
AcDbLine
10
-24.8485523385301
20
1.97184762613224
30
0.000000000000000
11
-24.7485523385301
21
1.88795495541012
31
0.000000000000000
  0
LINE
  5
F1074B
330
F1074C
100
AcDbEntity
8
Geo
100
AcDbLine
10
-24.7485523385301
20
1.88795495541012
30
0.000000000000000
11
-24.6485523385301
21
1.80405746013492
31
0.000000000000000
  0
LINE
  5
F1074D
330
F1074E
100
AcDbEntity
8
Geo
100
AcDbLine
10
-24.6485523385301
20
1.80405746013492
30
0.000000000000000
11
-24.5485523385301
21
1.72017876824638
31
0.000000000000000
  0
LINE
  5
F1074F
330
F10750
100
AcDbEntity
8
Geo
100
AcDbLine
10
-24.5485523385301
20
1.72017876824638
30
0.000000000000000
11
-24.4485523385301
21
1.63634250238864
31
0.000000000000000
  0
LINE
  5
F10751
330
F10752
100
AcDbEntity
8
Geo
100
AcDbLine
10
-24.4485523385301
20
1.63634250238864
30
0.000000000000000
11
-24.3485523385301
21
1.55257227325747
31
0.000000000000000
  0
LINE
  5
F10753
330
F10754
100
AcDbEntity
8
Geo
100
AcDbLine
10
-24.3485523385301
20
1.55257227325747
30
0.000000000000000
11
-24.2485523385301
21
1.46889167295080
31
0.000000000000000
  0
LINE
  5
F10755
330
F10756
100
AcDbEntity
8
Geo
100
AcDbLine
10
-24.2485523385301
20
1.46889167295080
30
0.000000000000000
11
-24.1485523385301
21
1.38532426832452
31
0.000000000000000
  0
LINE
  5
F10757
330
F10758
100
AcDbEntity
8
Geo
100
AcDbLine
10
-24.1485523385301
20
1.38532426832452
30
0.000000000000000
11
-24.0485523385301
21
1.30189359435537
31
0.000000000000000
  0
LINE
  5
F10759
330
F1075A
100
AcDbEntity
8
Geo
100
AcDbLine
10
-24.0485523385301
20
1.30189359435537
30
0.000000000000000
11
-23.9485523385301
21
1.21862314751280
31
0.000000000000000
  0
LINE
  5
F1075B
330
F1075C
100
AcDbEntity
8
Geo
100
AcDbLine
10
-23.9485523385301
20
1.21862314751280
30
0.000000000000000
11
-23.8485523385301
21
1.13553637914174
31
0.000000000000000
  0
LINE
  5
F1075D
330
F1075E
100
AcDbEntity
8
Geo
100
AcDbLine
10
-23.8485523385301
20
1.13553637914174
30
0.000000000000000
11
-23.7485523385301
21
1.05265668885796
31
0.000000000000000
  0
LINE
  5
F1075F
330
F10760
100
AcDbEntity
8
Geo
100
AcDbLine
10
-23.7485523385301
20
1.05265668885796
30
0.000000000000000
11
-23.6485523385301
21
0.970007417958141
31
0.000000000000000
  0
LINE
  5
F10761
330
F10762
100
AcDbEntity
8
Geo
100
AcDbLine
10
-23.6485523385301
20
0.970007417958141
30
0.000000000000000
11
-23.5485523385301
21
0.887611842846235
31
0.000000000000000
  0
LINE
  5
F10763
330
F10764
100
AcDbEntity
8
Geo
100
AcDbLine
10
-23.5485523385301
20
0.887611842846235
30
0.000000000000000
11
-23.4485523385301
21
0.805493168478201
31
0.000000000000000
  0
LINE
  5
F10765
330
F10766
100
AcDbEntity
8
Geo
100
AcDbLine
10
-23.4485523385301
20
0.805493168478201
30
0.000000000000000
11
-23.3485523385301
21
0.723674521826791
31
0.000000000000000
  0
LINE
  5
F10767
330
F10768
100
AcDbEntity
8
Geo
100
AcDbLine
10
-23.3485523385301
20
0.723674521826791
30
0.000000000000000
11
-23.2485523385301
21
0.642178945368381
31
0.000000000000000
  0
LINE
  5
F10769
330
F1076A
100
AcDbEntity
8
Geo
100
AcDbLine
10
-23.2485523385301
20
0.642178945368381
30
0.000000000000000
11
-23.1485523385301
21
0.561029390593491
31
0.000000000000000
  0
LINE
  5
F1076B
330
F1076C
100
AcDbEntity
8
Geo
100
AcDbLine
10
-23.1485523385301
20
0.561029390593491
30
0.000000000000000
11
-23.0485523385301
21
0.480248711543041
31
0.000000000000000
  0
LINE
  5
F1076D
330
F1076E
100
AcDbEntity
8
Geo
100
AcDbLine
10
-23.0485523385301
20
0.480248711543041
30
0.000000000000000
11
-22.9485523385301
21
0.399859658371951
31
0.000000000000000
  0
LINE
  5
F1076F
330
F10770
100
AcDbEntity
8
Geo
100
AcDbLine
10
-22.9485523385301
20
0.399859658371951
30
0.000000000000000
11
-22.8485523385301
21
0.319884870942081
31
0.000000000000000
  0
LINE
  5
F10771
330
F10772
100
AcDbEntity
8
Geo
100
AcDbLine
10
-22.8485523385301
20
0.319884870942081
30
0.000000000000000
11
-22.7485523385301
21
0.240346872446171
31
0.000000000000000
  0
LINE
  5
F10773
330
F10774
100
AcDbEntity
8
Geo
100
AcDbLine
10
-22.7485523385301
20
0.240346872446171
30
0.000000000000000
11
-22.6485523385301
21
0.161268063064681
31
0.000000000000000
  0
LINE
  5
F10775
330
F10776
100
AcDbEntity
8
Geo
100
AcDbLine
10
-22.6485523385301
20
0.161268063064681
30
0.000000000000000
11
-22.5485523385301
21
0.0826707136572611
31
0.000000000000000
  0
LINE
  5
F10777
330
F10778
100
AcDbEntity
8
Geo
100
AcDbLine
10
-22.5485523385301
20
0.0826707136572611
30
0.000000000000000
11
-22.4485523385301
21
0.00457695949063108
31
0.000000000000000
  0
LINE
  5
F10779
330
F1077A
100
AcDbEntity
8
Geo
100
AcDbLine
10
-22.4485523385301
20
0.00457695949063108
30
0.000000000000000
11
-22.3485523385301
21
-0.0729912059953790
31
0.000000000000000
  0
LINE
  5
F1077B
330
F1077C
100
AcDbEntity
8
Geo
100
AcDbLine
10
-22.3485523385301
20
-0.0729912059953790
30
0.000000000000000
11
-22.2485523385301
21
-0.150011937381719
31
0.000000000000000
  0
LINE
  5
F1077D
330
F1077E
100
AcDbEntity
8
Geo
100
AcDbLine
10
-22.2485523385301
20
-0.150011937381719
30
0.000000000000000
11
-22.1485523385301
21
-0.226463543422539
31
0.000000000000000
  0
LINE
  5
F1077F
330
F10780
100
AcDbEntity
8
Geo
100
AcDbLine
10
-22.1485523385301
20
-0.226463543422539
30
0.000000000000000
11
-22.0485523385301
21
-0.302324493153939
31
0.000000000000000
  0
LINE
  5
F10781
330
F10782
100
AcDbEntity
8
Geo
100
AcDbLine
10
-22.0485523385301
20
-0.302324493153939
30
0.000000000000000
11
-21.9485523385301
21
-0.377573421957829
31
0.000000000000000
  0
LINE
  5
F10783
330
F10784
100
AcDbEntity
8
Geo
100
AcDbLine
10
-21.9485523385301
20
-0.377573421957829
30
0.000000000000000
11
-21.8485523385301
21
-0.452189137578699
31
0.000000000000000
  0
LINE
  5
F10785
330
F10786
100
AcDbEntity
8
Geo
100
AcDbLine
10
-21.8485523385301
20
-0.452189137578699
30
0.000000000000000
11
-21.7485523385301
21
-0.526150626092069
31
0.000000000000000
  0
LINE
  5
F10787
330
F10788
100
AcDbEntity
8
Geo
100
AcDbLine
10
-21.7485523385301
20
-0.526150626092069
30
0.000000000000000
11
-21.6485523385301
21
-0.599437057822529
31
0.000000000000000
  0
LINE
  5
F10789
330
F1078A
100
AcDbEntity
8
Geo
100
AcDbLine
10
-21.6485523385301
20
-0.599437057822529
30
0.000000000000000
11
-21.5485523385301
21
-0.672027793210059
31
0.000000000000000
  0
LINE
  5
F1078B
330
F1078C
100
AcDbEntity
8
Geo
100
AcDbLine
10
-21.5485523385301
20
-0.672027793210059
30
0.000000000000000
11
-21.4485523385301
21
-0.743902388622619
31
0.000000000000000
  0
LINE
  5
F1078D
330
F1078E
100
AcDbEntity
8
Geo
100
AcDbLine
10
-21.5485523385301
20
6.86995143313025
30
0.000000000000000
11
-21.4485523385301
21
6.86840875462077
31
0.000000000000000
  0
LINE
  5
F1078F
330
F10790
100
AcDbEntity
8
Geo
100
AcDbLine
10
-21.4485523385301
20
-0.743902388622619
30
0.000000000000000
11
-21.3485523385301
21
-0.815040602113749
31
0.000000000000000
  0
LINE
  5
F10791
330
F10792
100
AcDbEntity
8
Geo
100
AcDbLine
10
-21.4485523385301
20
6.86840875462077
30
0.000000000000000
11
-21.3485523385301
21
6.86545853729495
31
0.000000000000000
  0
LINE
  5
F10793
330
F10794
100
AcDbEntity
8
Geo
100
AcDbLine
10
-21.3485523385301
20
-0.815040602113749
30
0.000000000000000
11
-21.2485523385301
21
-0.885422399123239
31
0.000000000000000
  0
LINE
  5
F10795
330
F10796
100
AcDbEntity
8
Geo
100
AcDbLine
10
-21.3485523385301
20
6.86545853729495
30
0.000000000000000
11
-21.2485523385301
21
6.86110168771923
31
0.000000000000000
  0
LINE
  5
F10797
330
F10798
100
AcDbEntity
8
Geo
100
AcDbLine
10
-21.2485523385301
20
-0.885422399123239
30
0.000000000000000
11
-21.1485523385301
21
-0.955027958119449
31
0.000000000000000
  0
LINE
  5
F10799
330
F1079A
100
AcDbEntity
8
Geo
100
AcDbLine
10
-21.2485523385301
20
6.86110168771923
30
0.000000000000000
11
-21.1485523385301
21
6.85533943290737
31
0.000000000000000
  0
LINE
  5
F1079B
330
F1079C
100
AcDbEntity
8
Geo
100
AcDbLine
10
-21.1485523385301
20
-0.955027958119449
30
0.000000000000000
11
-21.0485523385301
21
-1.02383767618159
31
0.000000000000000
  0
LINE
  5
F1079D
330
F1079E
100
AcDbEntity
8
Geo
100
AcDbLine
10
-21.1485523385301
20
6.85533943290737
30
0.000000000000000
11
-21.0485523385301
21
6.84817339567549
31
0.000000000000000
  0
LINE
  5
F1079F
330
F107A0
100
AcDbEntity
8
Geo
100
AcDbLine
10
-21.0485523385301
20
-1.02383767618159
30
0.000000000000000
11
-20.9485523385301
21
-1.09183217452054
31
0.000000000000000
  0
LINE
  5
F107A1
330
F107A2
100
AcDbEntity
8
Geo
100
AcDbLine
10
-21.0485523385301
20
6.84817339567549
30
0.000000000000000
11
-20.9485523385301
21
6.83960559418512
31
0.000000000000000
  0
LINE
  5
F107A3
330
F107A4
100
AcDbEntity
8
Geo
100
AcDbLine
10
-20.9485523385301
20
-1.09183217452054
30
0.000000000000000
11
-20.8485523385301
21
-1.15899230393638
31
0.000000000000000
  0
LINE
  5
F107A5
330
F107A6
100
AcDbEntity
8
Geo
100
AcDbLine
10
-20.9485523385301
20
6.83960559418512
30
0.000000000000000
11
-20.8485523385301
21
6.82963844137475
31
0.000000000000000
  0
LINE
  5
F107A7
330
F107A8
100
AcDbEntity
8
Geo
100
AcDbLine
10
-20.8485523385301
20
-1.15899230393638
30
0.000000000000000
11
-20.7485523385301
21
-1.22529915021141
31
0.000000000000000
  0
LINE
  5
F107A9
330
F107AA
100
AcDbEntity
8
Geo
100
AcDbLine
10
-20.8485523385301
20
6.82963844137475
30
0.000000000000000
11
-20.7485523385301
21
6.81827474428034
31
0.000000000000000
  0
LINE
  5
F107AB
330
F107AC
100
AcDbEntity
8
Geo
100
AcDbLine
10
-20.7485523385301
20
-1.22529915021141
30
0.000000000000000
11
-20.6485523385301
21
-1.29073403943694
31
0.000000000000000
  0
LINE
  5
F107AD
330
F107AE
100
AcDbEntity
8
Geo
100
AcDbLine
10
-20.7485523385301
20
6.81827474428034
30
0.000000000000000
11
-20.6485523385301
21
6.80551770324476
31
0.000000000000000
  0
LINE
  5
F107AF
330
F107B0
100
AcDbEntity
8
Geo
100
AcDbLine
10
-20.6485523385301
20
-1.29073403943694
30
0.000000000000000
11
-20.5485523385301
21
-1.35527854327236
31
0.000000000000000
  0
LINE
  5
F107B1
330
F107B2
100
AcDbEntity
8
Geo
100
AcDbLine
10
-20.6485523385301
20
6.80551770324476
30
0.000000000000000
11
-20.5485523385301
21
6.79137091101647
31
0.000000000000000
  0
LINE
  5
F107B3
330
F107B4
100
AcDbEntity
8
Geo
100
AcDbLine
10
-20.5485523385301
20
-1.35527854327236
30
0.000000000000000
11
-20.4485523385301
21
-1.41891448413512
31
0.000000000000000
  0
LINE
  5
F107B5
330
F107B6
100
AcDbEntity
8
Geo
100
AcDbLine
10
-20.5485523385301
20
6.79137091101647
30
0.000000000000000
11
-20.4485523385301
21
6.77583835173768
31
0.000000000000000
  0
LINE
  5
F107B7
330
F107B8
100
AcDbEntity
8
Geo
100
AcDbLine
10
-20.4485523385301
20
-1.41891448413512
30
0.000000000000000
11
-20.3485523385301
21
-1.48162394032004
31
0.000000000000000
  0
LINE
  5
F107B9
330
F107BA
100
AcDbEntity
8
Geo
100
AcDbLine
10
-20.4485523385301
20
6.77583835173768
30
0.000000000000000
11
-20.3485523385301
21
6.75892439982237
31
0.000000000000000
  0
LINE
  5
F107BB
330
F107BC
100
AcDbEntity
8
Geo
100
AcDbLine
10
-20.3485523385301
20
-1.48162394032004
30
0.000000000000000
11
-20.2485523385301
21
-1.54338925104659
31
0.000000000000000
  0
LINE
  5
F107BD
330
F107BE
100
AcDbEntity
8
Geo
100
AcDbLine
10
-20.3485523385301
20
6.75892439982237
30
0.000000000000000
11
-20.2485523385301
21
6.74063381872425
31
0.000000000000000
  0
LINE
  5
F107BF
330
F107C0
100
AcDbEntity
8
Geo
100
AcDbLine
10
-20.2485523385301
20
-1.54338925104659
30
0.000000000000000
11
-20.1485523385301
21
-1.60419302143268
31
0.000000000000000
  0
LINE
  5
F107C1
330
F107C2
100
AcDbEntity
8
Geo
100
AcDbLine
10
-20.2485523385301
20
6.74063381872425
30
0.000000000000000
11
-20.1485523385301
21
6.72097175959530
31
0.000000000000000
  0
LINE
  5
F107C3
330
F107C4
100
AcDbEntity
8
Geo
100
AcDbLine
10
-20.1485523385301
20
-1.60419302143268
30
0.000000000000000
11
-20.0485523385301
21
-1.66401812739353
31
0.000000000000000
  0
LINE
  5
F107C5
330
F107C6
100
AcDbEntity
8
Geo
100
AcDbLine
10
-20.1485523385301
20
6.72097175959530
30
0.000000000000000
11
-20.0485523385301
21
6.69994375983501
31
0.000000000000000
  0
LINE
  5
F107C7
330
F107C8
100
AcDbEntity
8
Geo
100
AcDbLine
10
-20.0485523385301
20
-1.66401812739353
30
0.000000000000000
11
-19.9485523385301
21
-1.72284772046430
31
0.000000000000000
  0
LINE
  5
F107C9
330
F107CA
100
AcDbEntity
8
Geo
100
AcDbLine
10
-20.0485523385301
20
6.69994375983501
30
0.000000000000000
11
-19.9485523385301
21
6.67755574153091
31
0.000000000000000
  0
LINE
  5
F107CB
330
F107CC
100
AcDbEntity
8
Geo
100
AcDbLine
10
-19.9485523385301
20
-1.72284772046430
30
0.000000000000000
11
-19.8485523385301
21
-1.78066523254516
31
0.000000000000000
  0
LINE
  5
F107CD
330
F107CE
100
AcDbEntity
8
Geo
100
AcDbLine
10
-19.9485523385301
20
6.67755574153091
30
0.000000000000000
11
-19.8485523385301
21
6.65381400979074
31
0.000000000000000
  0
LINE
  5
F107CF
330
F107D0
100
AcDbEntity
8
Geo
100
AcDbLine
10
-19.8485523385301
20
-1.78066523254516
30
0.000000000000000
11
-19.7485523385301
21
-1.83745438056726
31
0.000000000000000
  0
LINE
  5
F107D1
330
F107D2
100
AcDbEntity
8
Geo
100
AcDbLine
10
-19.8485523385301
20
6.65381400979074
30
0.000000000000000
11
-19.7485523385301
21
6.62872525096677
31
0.000000000000000
  0
LINE
  5
F107D3
330
F107D4
100
AcDbEntity
8
Geo
100
AcDbLine
10
-19.7485523385301
20
-1.83745438056726
30
0.000000000000000
11
-19.6485523385301
21
-1.89319917107857
31
0.000000000000000
  0
LINE
  5
F107D5
330
F107D6
100
AcDbEntity
8
Geo
100
AcDbLine
10
-19.7485523385301
20
6.62872525096677
30
0.000000000000000
11
-19.6485523385301
21
6.60229653077268
31
0.000000000000000
  0
LINE
  5
F107D7
330
F107D8
100
AcDbEntity
8
Geo
100
AcDbLine
10
-19.6485523385301
20
-1.89319917107857
30
0.000000000000000
11
-19.5485523385301
21
-1.94788390474807
31
0.000000000000000
  0
LINE
  5
F107D9
330
F107DA
100
AcDbEntity
8
Geo
100
AcDbLine
10
-19.6485523385301
20
6.60229653077268
30
0.000000000000000
11
-19.5485523385301
21
6.57453529229369
31
0.000000000000000
  0
LINE
  5
F107DB
330
F107DC
100
AcDbEntity
8
Geo
100
AcDbLine
10
-19.5485523385301
20
-1.94788390474807
30
0.000000000000000
11
-19.4485523385301
21
-2.00149318078713
31
0.000000000000000
  0
LINE
  5
F107DD
330
F107DE
100
AcDbEntity
8
Geo
100
AcDbLine
10
-19.5485523385301
20
6.57453529229369
30
0.000000000000000
11
-19.4485523385301
21
6.54544935389040
31
0.000000000000000
  0
LINE
  5
F107DF
330
F107E0
100
AcDbEntity
8
Geo
100
AcDbLine
10
-19.4485523385301
20
-2.00149318078713
30
0.000000000000000
11
-19.3485523385301
21
-2.05401190128681
31
0.000000000000000
  0
LINE
  5
F107E1
330
F107E2
100
AcDbEntity
8
Geo
100
AcDbLine
10
-19.4485523385301
20
6.54544935389040
30
0.000000000000000
11
-19.3485523385301
21
6.51504690699685
31
0.000000000000000
  0
LINE
  5
F107E3
330
F107E4
100
AcDbEntity
8
Geo
100
AcDbLine
10
-19.3485523385301
20
-2.05401190128681
30
0.000000000000000
11
-19.2485523385301
21
-2.10542527546991
31
0.000000000000000
  0
LINE
  5
F107E5
330
F107E6
100
AcDbEntity
8
Geo
100
AcDbLine
10
-19.3485523385301
20
6.51504690699685
30
0.000000000000000
11
-19.2485523385301
21
6.48333651381361
31
0.000000000000000
  0
LINE
  5
F107E7
330
F107E8
100
AcDbEntity
8
Geo
100
AcDbLine
10
-19.2485523385301
20
-2.10542527546991
30
0.000000000000000
11
-19.1485523385301
21
-2.15571882385639
31
0.000000000000000
  0
LINE
  5
F107E9
330
F107EA
100
AcDbEntity
8
Geo
100
AcDbLine
10
-19.2485523385301
20
6.48333651381361
30
0.000000000000000
11
-19.1485523385301
21
6.45032710489644
31
0.000000000000000
  0
LINE
  5
F107EB
330
F107EC
100
AcDbEntity
8
Geo
100
AcDbLine
10
-19.1485523385301
20
-2.15571882385639
30
0.000000000000000
11
-19.0485523385301
21
-2.20487838234129
31
0.000000000000000
  0
LINE
  5
F107ED
330
F107EE
100
AcDbEntity
8
Geo
100
AcDbLine
10
-19.1485523385301
20
6.45032710489644
30
0.000000000000000
11
-19.0485523385301
21
6.41602797664116
31
0.000000000000000
  0
LINE
  5
F107EF
330
F107F0
100
AcDbEntity
8
Geo
100
AcDbLine
10
-19.0485523385301
20
-2.20487838234129
30
0.000000000000000
11
-18.9485523385301
21
-2.25289010618370
31
0.000000000000000
  0
LINE
  5
F107F1
330
F107F2
100
AcDbEntity
8
Geo
100
AcDbLine
10
-19.0485523385301
20
6.41602797664116
30
0.000000000000000
11
-18.9485523385301
21
6.38044878866551
31
0.000000000000000
  0
LINE
  5
F107F3
330
F107F4
100
AcDbEntity
8
Geo
100
AcDbLine
10
-18.9485523385301
20
-2.25289010618370
30
0.000000000000000
11
-18.8485523385301
21
-2.29974047390585
31
0.000000000000000
  0
LINE
  5
F107F5
330
F107F6
100
AcDbEntity
8
Geo
100
AcDbLine
10
-18.9485523385301
20
6.38044878866551
30
0.000000000000000
11
-18.8485523385301
21
6.34359956108879
31
0.000000000000000
  0
LINE
  5
F107F7
330
F107F8
100
AcDbEntity
8
Geo
100
AcDbLine
10
-18.8485523385301
20
-2.29974047390585
30
0.000000000000000
11
-18.7485523385301
21
-2.34541629110115
31
0.000000000000000
  0
LINE
  5
F107F9
330
F107FA
100
AcDbEntity
8
Geo
100
AcDbLine
10
-18.8485523385301
20
6.34359956108879
30
0.000000000000000
11
-18.7485523385301
21
6.30549067170980
31
0.000000000000000
  0
LINE
  5
F107FB
330
F107FC
100
AcDbEntity
8
Geo
100
AcDbLine
10
-18.7485523385301
20
-2.34541629110115
30
0.000000000000000
11
-18.6485523385301
21
-2.38990469415011
31
0.000000000000000
  0
LINE
  5
F107FD
330
F107FE
100
AcDbEntity
8
Geo
100
AcDbLine
10
-18.7485523385301
20
6.30549067170980
30
0.000000000000000
11
-18.6485523385301
21
6.26613285308425
31
0.000000000000000
  0
LINE
  5
F107FF
330
F10800
100
AcDbEntity
8
Geo
100
AcDbLine
10
-18.6485523385301
20
-2.38990469415011
30
0.000000000000000
11
-18.5485523385301
21
-2.43319315384309
31
0.000000000000000
  0
LINE
  5
F10801
330
F10802
100
AcDbEntity
8
Geo
100
AcDbLine
10
-18.6485523385301
20
6.26613285308425
30
0.000000000000000
11
-18.5485523385301
21
6.22553718950212
31
0.000000000000000
  0
LINE
  5
F10803
330
F10804
100
AcDbEntity
8
Geo
100
AcDbLine
10
-18.5485523385301
20
-2.43319315384309
30
0.000000000000000
11
-18.4485523385301
21
-2.47526947890892
31
0.000000000000000
  0
LINE
  5
F10805
330
F10806
100
AcDbEntity
8
Geo
100
AcDbLine
10
-18.5485523385301
20
6.22553718950212
30
0.000000000000000
11
-18.4485523385301
21
6.18371511386603
31
0.000000000000000
  0
LINE
  5
F10807
330
F10808
100
AcDbEntity
8
Geo
100
AcDbLine
10
-18.4485523385301
20
-2.47526947890892
30
0.000000000000000
11
-18.3485523385301
21
-2.51612181944827
31
0.000000000000000
  0
LINE
  5
F10809
330
F1080A
100
AcDbEntity
8
Geo
100
AcDbLine
10
-18.4485523385301
20
6.18371511386603
30
0.000000000000000
11
-18.3485523385301
21
6.14067840447135
31
0.000000000000000
  0
LINE
  5
F1080B
330
F1080C
100
AcDbEntity
8
Geo
100
AcDbLine
10
-18.3485523385301
20
-2.51612181944827
30
0.000000000000000
11
-18.2485523385301
21
-2.55573867027095
31
0.000000000000000
  0
LINE
  5
F1080D
330
F1080E
100
AcDbEntity
8
Geo
100
AcDbLine
10
-18.3485523385301
20
6.14067840447135
30
0.000000000000000
11
-18.2485523385301
21
6.09643918168917
31
0.000000000000000
  0
LINE
  5
F1080F
330
F10810
100
AcDbEntity
8
Geo
100
AcDbLine
10
-18.2485523385301
20
-2.55573867027095
30
0.000000000000000
11
-18.1485523385301
21
-2.59410887413608
31
0.000000000000000
  0
LINE
  5
F10811
330
F10812
100
AcDbEntity
8
Geo
100
AcDbLine
10
-18.2485523385301
20
6.09643918168917
30
0.000000000000000
11
-18.1485523385301
21
6.05100990455283
31
0.000000000000000
  0
LINE
  5
F10813
330
F10814
100
AcDbEntity
8
Geo
100
AcDbLine
10
-18.1485523385301
20
-2.59410887413608
30
0.000000000000000
11
-18.0485523385301
21
-2.63122162489431
31
0.000000000000000
  0
LINE
  5
F10815
330
F10816
100
AcDbEntity
8
Geo
100
AcDbLine
10
-18.1485523385301
20
6.05100990455283
30
0.000000000000000
11
-18.0485523385301
21
6.00440336724906
31
0.000000000000000
  0
LINE
  5
F10817
330
F10818
100
AcDbEntity
8
Geo
100
AcDbLine
10
-18.0485523385301
20
-2.63122162489431
30
0.000000000000000
11
-17.9485523385301
21
-2.66706647053113
31
0.000000000000000
  0
LINE
  5
F10819
330
F1081A
100
AcDbEntity
8
Geo
100
AcDbLine
10
-18.0485523385301
20
6.00440336724906
30
0.000000000000000
11
-17.9485523385301
21
5.95663269551482
31
0.000000000000000
  0
LINE
  5
F1081B
330
F1081C
100
AcDbEntity
8
Geo
100
AcDbLine
10
-17.9485523385301
20
-2.66706647053113
30
0.000000000000000
11
-17.8485523385301
21
-2.70163331611046
31
0.000000000000000
  0
LINE
  5
F1081D
330
F1081E
100
AcDbEntity
8
Geo
100
AcDbLine
10
-17.9485523385301
20
5.95663269551482
30
0.000000000000000
11
-17.8485523385301
21
5.90771134294070
31
0.000000000000000
  0
LINE
  5
F1081F
330
F10820
100
AcDbEntity
8
Geo
100
AcDbLine
10
-17.8485523385301
20
-2.70163331611046
30
0.000000000000000
11
-17.7485523385301
21
-2.73491242661768
31
0.000000000000000
  0
LINE
  5
F10821
330
F10822
100
AcDbEntity
8
Geo
100
AcDbLine
10
-17.8485523385301
20
5.90771134294070
30
0.000000000000000
11
-17.7485523385301
21
5.85765308718198
31
0.000000000000000
  0
LINE
  5
F10823
330
F10824
100
AcDbEntity
8
Geo
100
AcDbLine
10
-17.7485523385301
20
-2.73491242661768
30
0.000000000000000
11
-17.6485523385301
21
-2.76689442970125
31
0.000000000000000
  0
LINE
  5
F10825
330
F10826
100
AcDbEntity
8
Geo
100
AcDbLine
10
-17.7485523385301
20
5.85765308718198
30
0.000000000000000
11
-17.6485523385301
21
5.80647202607849
31
0.000000000000000
  0
LINE
  5
F10827
330
F10828
100
AcDbEntity
8
Geo
100
AcDbLine
10
-17.6485523385301
20
-2.76689442970125
30
0.000000000000000
11
-17.5485523385301
21
-2.79757031831230
31
0.000000000000000
  0
LINE
  5
F10829
330
F1082A
100
AcDbEntity
8
Geo
100
AcDbLine
10
-17.6485523385301
20
5.80647202607849
30
0.000000000000000
11
-17.5485523385301
21
5.75418257368423
31
0.000000000000000
  0
LINE
  5
F1082B
330
F1082C
100
AcDbEntity
8
Geo
100
AcDbLine
10
-17.5485523385301
20
-2.79757031831230
30
0.000000000000000
11
-17.4485523385301
21
-2.82693145324123
31
0.000000000000000
  0
LINE
  5
F1082D
330
F1082E
100
AcDbEntity
8
Geo
100
AcDbLine
10
-17.5485523385301
20
5.75418257368423
30
0.000000000000000
11
-17.4485523385301
21
5.70079945620794
31
0.000000000000000
  0
LINE
  5
F1082F
330
F10830
100
AcDbEntity
8
Geo
100
AcDbLine
10
-17.4485523385301
20
-2.82693145324123
30
0.000000000000000
11
-17.3485523385301
21
-2.85496956555075
31
0.000000000000000
  0
LINE
  5
F10831
330
F10832
100
AcDbEntity
8
Geo
100
AcDbLine
10
-17.4485523385301
20
5.70079945620794
30
0.000000000000000
11
-17.3485523385301
21
5.64633770786583
31
0.000000000000000
  0
LINE
  5
F10833
330
F10834
100
AcDbEntity
8
Geo
100
AcDbLine
10
-17.3485523385301
20
-2.85496956555075
30
0.000000000000000
11
-17.2485523385301
21
-2.88167675890467
31
0.000000000000000
  0
LINE
  5
F10835
330
F10836
100
AcDbEntity
8
Geo
100
AcDbLine
10
-17.3485523385301
20
5.64633770786583
30
0.000000000000000
11
-17.2485523385301
21
5.59081266664746
31
0.000000000000000
  0
LINE
  5
F10837
330
F10838
100
AcDbEntity
8
Geo
100
AcDbLine
10
-17.2485523385301
20
-2.88167675890467
30
0.000000000000000
11
-17.1485523385301
21
-2.90704551179175
31
0.000000000000000
  0
LINE
  5
F10839
330
F1083A
100
AcDbEntity
8
Geo
100
AcDbLine
10
-17.2485523385301
20
5.59081266664746
30
0.000000000000000
11
-17.1485523385301
21
5.53423996999615
31
0.000000000000000
  0
LINE
  5
F1083B
330
F1083C
100
AcDbEntity
8
Geo
100
AcDbLine
10
-17.1485523385301
20
-2.90704551179175
30
0.000000000000000
11
-17.0485523385301
21
-2.93106867964393
31
0.000000000000000
  0
LINE
  5
F1083D
330
F1083E
100
AcDbEntity
8
Geo
100
AcDbLine
10
-17.1485523385301
20
5.53423996999615
30
0.000000000000000
11
-17.0485523385301
21
5.47663555040503
31
0.000000000000000
  0
LINE
  5
F1083F
330
F10840
100
AcDbEntity
8
Geo
100
AcDbLine
10
-17.0485523385301
20
-2.93106867964393
30
0.000000000000000
11
-16.9485523385301
21
-2.95373949684849
31
0.000000000000000
  0
LINE
  5
F10841
330
F10842
100
AcDbEntity
8
Geo
100
AcDbLine
10
-17.0485523385301
20
5.47663555040503
30
0.000000000000000
11
-16.9485523385301
21
5.41801563092997
31
0.000000000000000
  0
LINE
  5
F10843
330
F10844
100
AcDbEntity
8
Geo
100
AcDbLine
10
-16.9485523385301
20
-2.95373949684849
30
0.000000000000000
11
-16.8485523385301
21
-2.97505157865340
31
0.000000000000000
  0
LINE
  5
F10845
330
F10846
100
AcDbEntity
8
Geo
100
AcDbLine
10
-16.9485523385301
20
5.41801563092997
30
0.000000000000000
11
-16.8485523385301
21
5.35839672062075
31
0.000000000000000
  0
LINE
  5
F10847
330
F10848
100
AcDbEntity
8
Geo
100
AcDbLine
10
-16.8485523385301
20
-2.97505157865340
30
0.000000000000000
11
-16.7485523385301
21
-2.99499892296549
31
0.000000000000000
  0
LINE
  5
F10849
330
F1084A
100
AcDbEntity
8
Geo
100
AcDbLine
10
-16.8485523385301
20
5.35839672062075
30
0.000000000000000
11
-16.7485523385301
21
5.29779560987156
31
0.000000000000000
  0
LINE
  5
F1084B
330
F1084C
100
AcDbEntity
8
Geo
100
AcDbLine
10
-16.7485523385301
20
-2.99499892296549
30
0.000000000000000
11
-16.6485523385301
21
-3.01357591204077
31
0.000000000000000
  0
LINE
  5
F1084D
330
F1084E
100
AcDbEntity
8
Geo
100
AcDbLine
10
-16.7485523385301
20
5.29779560987156
30
0.000000000000000
11
-16.6485523385301
21
5.23622936569243
31
0.000000000000000
  0
LINE
  5
F1084F
330
F10850
100
AcDbEntity
8
Geo
100
AcDbLine
10
-16.6485523385301
20
-3.01357591204077
30
0.000000000000000
11
-16.5485523385301
21
-3.03077731406658
31
0.000000000000000
  0
LINE
  5
F10851
330
F10852
100
AcDbEntity
8
Geo
100
AcDbLine
10
-16.6485523385301
20
5.23622936569243
30
0.000000000000000
11
-16.5485523385301
21
5.17371532690261
31
0.000000000000000
  0
LINE
  5
F10853
330
F10854
100
AcDbEntity
8
Geo
100
AcDbLine
10
-16.5485523385301
20
-3.03077731406658
30
0.000000000000000
11
-16.4485523385301
21
-3.04659828463500
31
0.000000000000000
  0
LINE
  5
F10855
330
F10856
100
AcDbEntity
8
Geo
100
AcDbLine
10
-16.5485523385301
20
5.17371532690261
30
0.000000000000000
11
-16.4485523385301
21
5.11027109924749
31
0.000000000000000
  0
LINE
  5
F10857
330
F10858
100
AcDbEntity
8
Geo
100
AcDbLine
10
-16.4485523385301
20
-3.04659828463500
30
0.000000000000000
11
-16.3485523385301
21
-3.06103436810719
31
0.000000000000000
  0
LINE
  5
F10859
330
F1085A
100
AcDbEntity
8
Geo
100
AcDbLine
10
-16.4485523385301
20
5.11027109924749
30
0.000000000000000
11
-16.3485523385301
21
5.04591455044032
31
0.000000000000000
  0
LINE
  5
F1085B
330
F1085C
100
AcDbEntity
8
Geo
100
AcDbLine
10
-16.3485523385301
20
-3.06103436810719
30
0.000000000000000
11
-16.2485523385301
21
-3.07408149886821
31
0.000000000000000
  0
LINE
  5
F1085D
330
F1085E
100
AcDbEntity
8
Geo
100
AcDbLine
10
-16.3485523385301
20
5.04591455044032
30
0.000000000000000
11
-16.2485523385301
21
4.98066380513011
31
0.000000000000000
  0
LINE
  5
F1085F
330
F10860
100
AcDbEntity
8
Geo
100
AcDbLine
10
-16.2485523385301
20
-3.07408149886821
30
0.000000000000000
11
-16.1485523385301
21
-3.08573600247202
31
0.000000000000000
  0
LINE
  5
F10861
330
F10862
100
AcDbEntity
8
Geo
100
AcDbLine
10
-16.2485523385301
20
4.98066380513011
30
0.000000000000000
11
-16.1485523385301
21
4.91453723979726
31
0.000000000000000
  0
LINE
  5
F10863
330
F10864
100
AcDbEntity
8
Geo
100
AcDbLine
10
-16.1485523385301
20
-3.08573600247202
30
0.000000000000000
11
-16.0485523385301
21
-3.09599459667631
31
0.000000000000000
  0
LINE
  5
F10865
330
F10866
100
AcDbEntity
8
Geo
100
AcDbLine
10
-16.1485523385301
20
4.91453723979726
30
0.000000000000000
11
-16.0485523385301
21
4.84755347757820
31
0.000000000000000
  0
LINE
  5
F10867
330
F10868
100
AcDbEntity
8
Geo
100
AcDbLine
10
-16.0485523385301
20
-3.09599459667631
30
0.000000000000000
11
-15.9485523385301
21
-3.10485439236686
31
0.000000000000000
  0
LINE
  5
F10869
330
F1086A
100
AcDbEntity
8
Geo
100
AcDbLine
10
-16.0485523385301
20
4.84755347757820
30
0.000000000000000
11
-15.9485523385301
21
4.77973138302057
31
0.000000000000000
  0
LINE
  5
F1086B
330
F1086C
100
AcDbEntity
8
Geo
100
AcDbLine
10
-15.9485523385301
20
-3.10485439236686
30
0.000000000000000
11
-15.8485523385301
21
-3.11231289437125
31
0.000000000000000
  0
LINE
  5
F1086D
330
F1086E
100
AcDbEntity
8
Geo
100
AcDbLine
10
-15.9485523385301
20
4.77973138302057
30
0.000000000000000
11
-15.8485523385301
21
4.71109005677042
31
0.000000000000000
  0
LINE
  5
F1086F
330
F10870
100
AcDbEntity
8
Geo
100
AcDbLine
10
-15.8485523385301
20
-3.11231289437125
30
0.000000000000000
11
-15.7485523385301
21
-3.11836800216149
31
0.000000000000000
  0
LINE
  5
F10871
330
F10872
100
AcDbEntity
8
Geo
100
AcDbLine
10
-15.8485523385301
20
4.71109005677042
30
0.000000000000000
11
-15.7485523385301
21
4.64164883019294
31
0.000000000000000
  0
LINE
  5
F10873
330
F10874
100
AcDbEntity
8
Geo
100
AcDbLine
10
-15.7485523385301
20
-3.11836800216149
30
0.000000000000000
11
-15.6485523385301
21
-3.12301801044564
31
0.000000000000000
  0
LINE
  5
F10875
330
F10876
100
AcDbEntity
8
Geo
100
AcDbLine
10
-15.7485523385301
20
4.64164883019294
30
0.000000000000000
11
-15.6485523385301
21
4.57142725992818
31
0.000000000000000
  0
LINE
  5
F10877
330
F10878
100
AcDbEntity
8
Geo
100
AcDbLine
10
-15.6485523385301
20
-3.12301801044564
30
0.000000000000000
11
-15.5485523385301
21
-3.12626160964808
31
0.000000000000000
  0
LINE
  5
F10879
330
F1087A
100
AcDbEntity
8
Geo
100
AcDbLine
10
-15.6485523385301
20
4.57142725992818
30
0.000000000000000
11
-15.5485523385301
21
4.50044512238333
31
0.000000000000000
  0
LINE
  5
F1087B
330
F1087C
100
AcDbEntity
8
Geo
100
AcDbLine
10
-15.5485523385301
20
-3.12626160964808
30
0.000000000000000
11
-15.4485523385301
21
-3.12809788627828
31
0.000000000000000
  0
LINE
  5
F1087D
330
F1087E
100
AcDbEntity
8
Geo
100
AcDbLine
10
-15.5485523385301
20
4.50044512238333
30
0.000000000000000
11
-15.4485523385301
21
4.42872240816316
31
0.000000000000000
  0
LINE
  5
F1087F
330
F10880
100
AcDbEntity
8
Geo
100
AcDbLine
10
-15.4485523385301
20
4.42872240816316
30
0.000000000000000
11
-15.3485523385301
21
4.35627931644002
31
0.000000000000000
  0
LINE
  5
F10881
330
F10882
100
AcDbEntity
8
Geo
100
AcDbLine
10
-15.3485523385301
20
4.35627931644002
30
0.000000000000000
11
-15.2485523385301
21
4.28313624926524
31
0.000000000000000
  0
LINE
  5
F10883
330
F10884
100
AcDbEntity
8
Geo
100
AcDbLine
10
-15.2485523385301
20
4.28313624926524
30
0.000000000000000
11
-15.1485523385301
21
4.20931380582332
31
0.000000000000000
  0
LINE
  5
F10885
330
F10886
100
AcDbEntity
8
Geo
100
AcDbLine
10
-15.1485523385301
20
4.20931380582332
30
0.000000000000000
11
-15.0485523385301
21
4.13483277663056
31
0.000000000000000
  0
LINE
  5
F10887
330
F10888
100
AcDbEntity
8
Geo
100
AcDbLine
10
-15.0485523385301
20
4.13483277663056
30
0.000000000000000
11
-14.9485523385301
21
4.05971413767989
31
0.000000000000000
  0
LINE
  5
F10889
330
F1088A
100
AcDbEntity
8
Geo
100
AcDbLine
10
-14.9485523385301
20
4.05971413767989
30
0.000000000000000
11
-14.8485523385301
21
3.98397904453345
31
0.000000000000000
  0
LINE
  5
F1088B
330
F1088C
100
AcDbEntity
8
Geo
100
AcDbLine
10
-14.8485523385301
20
3.98397904453345
30
0.000000000000000
11
-14.7485523385301
21
3.90764882636452
31
0.000000000000000
  0
LINE
  5
F1088D
330
F1088E
100
AcDbEntity
8
Geo
100
AcDbLine
10
-14.7485523385301
20
3.90764882636452
30
0.000000000000000
11
-14.6485523385301
21
3.83074497995069
31
0.000000000000000
  0
LINE
  5
F1088F
330
F10890
100
AcDbEntity
8
Geo
100
AcDbLine
10
-14.6485523385301
20
3.83074497995069
30
0.000000000000000
11
-14.5485523385301
21
3.75328916361967
31
0.000000000000000
  0
LINE
  5
F10891
330
F10892
100
AcDbEntity
8
Geo
100
AcDbLine
10
-14.5485523385301
20
3.75328916361967
30
0.000000000000000
11
-14.4485523385301
21
3.67530319114973
31
0.000000000000000
  0
LINE
  5
F10893
330
F10894
100
AcDbEntity
8
Geo
100
AcDbLine
10
-14.4485523385301
20
3.67530319114973
30
0.000000000000000
11
-14.3485523385301
21
3.59680902562631
31
0.000000000000000
  0
LINE
  5
F10895
330
F10896
100
AcDbEntity
8
Geo
100
AcDbLine
10
-14.3485523385301
20
3.59680902562631
30
0.000000000000000
11
-14.2485523385301
21
3.51782877325660
31
0.000000000000000
  0
LINE
  5
F10897
330
F10898
100
AcDbEntity
8
Geo
100
AcDbLine
10
-14.2485523385301
20
3.51782877325660
30
0.000000000000000
11
-14.1485523385301
21
3.43838467714375
31
0.000000000000000
  0
LINE
  5
F10899
330
F1089A
100
AcDbEntity
8
Geo
100
AcDbLine
10
-14.1485523385301
20
3.43838467714375
30
0.000000000000000
11
-14.0485523385301
21
3.35849911102261
31
0.000000000000000
  0
LINE
  5
F1089B
330
F1089C
100
AcDbEntity
8
Geo
100
AcDbLine
10
-14.0485523385301
20
3.35849911102261
30
0.000000000000000
11
-13.9485523385301
21
3.27819457295866
31
0.000000000000000
  0
LINE
  5
F1089D
330
F1089E
100
AcDbEntity
8
Geo
100
AcDbLine
10
-13.9485523385301
20
3.27819457295866
30
0.000000000000000
11
-13.8485523385301
21
3.19749367901188
31
0.000000000000000
  0
LINE
  5
F1089F
330
F108A0
100
AcDbEntity
8
Geo
100
AcDbLine
10
-13.8485523385301
20
3.19749367901188
30
0.000000000000000
11
-13.7485523385301
21
3.11641915686742
31
0.000000000000000
  0
LINE
  5
F108A1
330
F108A2
100
AcDbEntity
8
Geo
100
AcDbLine
10
-13.7485523385301
20
3.11641915686742
30
0.000000000000000
11
-13.6485523385301
21
3.03499383943485
31
0.000000000000000
  0
LINE
  5
F108A3
330
F108A4
100
AcDbEntity
8
Geo
100
AcDbLine
10
-13.6485523385301
20
3.03499383943485
30
0.000000000000000
11
-13.5485523385301
21
2.95324065841775
31
0.000000000000000
  0
LINE
  5
F108A5
330
F108A6
100
AcDbEntity
8
Geo
100
AcDbLine
10
-13.5485523385301
20
2.95324065841775
30
0.000000000000000
11
-13.4485523385301
21
2.87118263785547
31
0.000000000000000
  0
LINE
  5
F108A7
330
F108A8
100
AcDbEntity
8
Geo
100
AcDbLine
10
-13.4485523385301
20
2.87118263785547
30
0.000000000000000
11
-13.3485523385301
21
2.78884288763894
31
0.000000000000000
  0
LINE
  5
F108A9
330
F108AA
100
AcDbEntity
8
Geo
100
AcDbLine
10
-13.3485523385301
20
2.78884288763894
30
0.000000000000000
11
-13.2485523385301
21
2.70624459700221
31
0.000000000000000
  0
LINE
  5
F108AB
330
F108AC
100
AcDbEntity
8
Geo
100
AcDbLine
10
-13.2485523385301
20
2.70624459700221
30
0.000000000000000
11
-13.1485523385301
21
2.62341102799174
31
0.000000000000000
  0
LINE
  5
F108AD
330
F108AE
100
AcDbEntity
8
Geo
100
AcDbLine
10
-13.1485523385301
20
2.62341102799174
30
0.000000000000000
11
-13.0485523385301
21
2.54036550891513
31
0.000000000000000
  0
LINE
  5
F108AF
330
F108B0
100
AcDbEntity
8
Geo
100
AcDbLine
10
-13.0485523385301
20
2.54036550891513
30
0.000000000000000
11
-12.9485523385301
21
2.45713142777117
31
0.000000000000000
  0
LINE
  5
F108B1
330
F108B2
100
AcDbEntity
8
Geo
100
AcDbLine
10
-12.9485523385301
20
2.45713142777117
30
0.000000000000000
11
-12.8485523385301
21
2.37373222566316
31
0.000000000000000
  0
LINE
  5
F108B3
330
F108B4
100
AcDbEntity
8
Geo
100
AcDbLine
10
-12.8485523385301
20
2.37373222566316
30
0.000000000000000
11
-12.7485523385301
21
2.29019139019718
31
0.000000000000000
  0
LINE
  5
F108B5
330
F108B6
100
AcDbEntity
8
Geo
100
AcDbLine
10
-12.7485523385301
20
2.29019139019718
30
0.000000000000000
11
-12.6485523385301
21
2.20653244886734
31
0.000000000000000
  0
LINE
  5
F108B7
330
F108B8
100
AcDbEntity
8
Geo
100
AcDbLine
10
-12.6485523385301
20
2.20653244886734
30
0.000000000000000
11
-12.5485523385301
21
2.12277896242972
31
0.000000000000000
  0
LINE
  5
F108B9
330
F108BA
100
AcDbEntity
8
Geo
100
AcDbLine
10
-12.5485523385301
20
2.12277896242972
30
0.000000000000000
11
-12.4485523385301
21
2.03895451826704
31
0.000000000000000
  0
LINE
  5
F108BB
330
F108BC
100
AcDbEntity
8
Geo
100
AcDbLine
10
-12.4485523385301
20
2.03895451826704
30
0.000000000000000
11
-12.3485523385301
21
1.95508272374575
31
0.000000000000000
  0
LINE
  5
F108BD
330
F108BE
100
AcDbEntity
8
Geo
100
AcDbLine
10
-12.3485523385301
20
1.95508272374575
30
0.000000000000000
11
-12.2485523385301
21
1.87118719956749
31
0.000000000000000
  0
LINE
  5
F108BF
330
F108C0
100
AcDbEntity
8
Geo
100
AcDbLine
10
-12.2485523385301
20
1.87118719956749
30
0.000000000000000
11
-12.1485523385301
21
1.78729157311687
31
0.000000000000000
  0
LINE
  5
F108C1
330
F108C2
100
AcDbEntity
8
Geo
100
AcDbLine
10
-12.1485523385301
20
1.78729157311687
30
0.000000000000000
11
-12.0485523385301
21
1.70341947180730
31
0.000000000000000
  0
LINE
  5
F108C3
330
F108C4
100
AcDbEntity
8
Geo
100
AcDbLine
10
-12.0485523385301
20
1.70341947180730
30
0.000000000000000
11
-11.9485523385301
21
1.61959451642685
31
0.000000000000000
  0
LINE
  5
F108C5
330
F108C6
100
AcDbEntity
8
Geo
100
AcDbLine
10
-11.9485523385301
20
1.61959451642685
30
0.000000000000000
11
-11.8485523385301
21
1.53584031448593
31
0.000000000000000
  0
LINE
  5
F108C7
330
F108C8
100
AcDbEntity
8
Geo
100
AcDbLine
10
-11.8485523385301
20
1.53584031448593
30
0.000000000000000
11
-11.7485523385301
21
1.45218045356874
31
0.000000000000000
  0
LINE
  5
F108C9
330
F108CA
100
AcDbEntity
8
Geo
100
AcDbLine
10
-11.7485523385301
20
1.45218045356874
30
0.000000000000000
11
-11.6485523385301
21
1.36863849469038
31
0.000000000000000
  0
LINE
  5
F108CB
330
F108CC
100
AcDbEntity
8
Geo
100
AcDbLine
10
-11.6485523385301
20
1.36863849469038
30
0.000000000000000
11
-11.5485523385301
21
1.28523796566132
31
0.000000000000000
  0
LINE
  5
F108CD
330
F108CE
100
AcDbEntity
8
Geo
100
AcDbLine
10
-11.5485523385301
20
1.28523796566132
30
0.000000000000000
11
-11.4485523385301
21
1.20200235446134
31
0.000000000000000
  0
LINE
  5
F108CF
330
F108D0
100
AcDbEntity
8
Geo
100
AcDbLine
10
-11.4485523385301
20
1.20200235446134
30
0.000000000000000
11
-11.3485523385301
21
1.11895510262466
31
0.000000000000000
  0
LINE
  5
F108D1
330
F108D2
100
AcDbEntity
8
Geo
100
AcDbLine
10
-11.3485523385301
20
1.11895510262466
30
0.000000000000000
11
-11.2485523385301
21
1.03611959863807
31
0.000000000000000
  0
LINE
  5
F108D3
330
F108D4
100
AcDbEntity
8
Geo
100
AcDbLine
10
-11.2485523385301
20
1.03611959863807
30
0.000000000000000
11
-11.1485523385301
21
0.953519171354091
31
0.000000000000000
  0
LINE
  5
F108D5
330
F108D6
100
AcDbEntity
8
Geo
100
AcDbLine
10
-11.1485523385301
20
0.953519171354091
30
0.000000000000000
11
-11.0485523385301
21
0.871177083420935
31
0.000000000000000
  0
LINE
  5
F108D7
330
F108D8
100
AcDbEntity
8
Geo
100
AcDbLine
10
-11.0485523385301
20
0.871177083420935
30
0.000000000000000
11
-10.9485523385301
21
0.789116524731031
31
0.000000000000000
  0
LINE
  5
F108D9
330
F108DA
100
AcDbEntity
8
Geo
100
AcDbLine
10
-10.9485523385301
20
0.789116524731031
30
0.000000000000000
11
-10.8485523385301
21
0.707360605890101
31
0.000000000000000
  0
LINE
  5
F108DB
330
F108DC
100
AcDbEntity
8
Geo
100
AcDbLine
10
-10.8485523385301
20
0.707360605890101
30
0.000000000000000
11
-10.7485523385301
21
0.625932351708561
31
0.000000000000000
  0
LINE
  5
F108DD
330
F108DE
100
AcDbEntity
8
Geo
100
AcDbLine
10
-10.7485523385301
20
0.625932351708561
30
0.000000000000000
11
-10.6485523385301
21
0.544854694717051
31
0.000000000000000
  0
LINE
  5
F108DF
330
F108E0
100
AcDbEntity
8
Geo
100
AcDbLine
10
-10.6485523385301
20
0.544854694717051
30
0.000000000000000
11
-10.5485523385301
21
0.464150468708001
31
0.000000000000000
  0
LINE
  5
F108E1
330
F108E2
100
AcDbEntity
8
Geo
100
AcDbLine
10
-10.5485523385301
20
0.464150468708001
30
0.000000000000000
11
-10.4485523385301
21
0.383842402304991
31
0.000000000000000
  0
LINE
  5
F108E3
330
F108E4
100
AcDbEntity
8
Geo
100
AcDbLine
10
-10.4485523385301
20
0.383842402304991
30
0.000000000000000
11
-10.3485523385301
21
0.303953112561661
31
0.000000000000000
  0
LINE
  5
F108E5
330
F108E6
100
AcDbEntity
8
Geo
100
AcDbLine
10
-10.3485523385301
20
0.303953112561661
30
0.000000000000000
11
-10.2485523385301
21
0.224505098592161
31
0.000000000000000
  0
LINE
  5
F108E7
330
F108E8
100
AcDbEntity
8
Geo
100
AcDbLine
10
-10.2485523385301
20
0.224505098592161
30
0.000000000000000
11
-10.1485523385301
21
0.145520735234741
31
0.000000000000000
  0
LINE
  5
F108E9
330
F108EA
100
AcDbEntity
8
Geo
100
AcDbLine
10
-10.1485523385301
20
0.145520735234741
30
0.000000000000000
11
-10.0485523385301
21
0.0670222667503211
31
0.000000000000000
  0
LINE
  5
F108EB
330
F108EC
100
AcDbEntity
8
Geo
100
AcDbLine
10
-10.0485523385301
20
0.0670222667503211
30
0.000000000000000
11
-9.94855233853010
21
-0.0109681994420889
31
0.000000000000000
  0
LINE
  5
F108ED
330
F108EE
100
AcDbEntity
8
Geo
100
AcDbLine
10
-9.94855233853010
20
-0.0109681994420889
30
0.000000000000000
11
-9.84855233853010
21
-0.0884286989914691
31
0.000000000000000
  0
LINE
  5
F108EF
330
F108F0
100
AcDbEntity
8
Geo
100
AcDbLine
10
-9.84855233853010
20
-0.0884286989914691
30
0.000000000000000
11
-9.74855233853010
21
-0.165337416800629
31
0.000000000000000
  0
LINE
  5
F108F1
330
F108F2
100
AcDbEntity
8
Geo
100
AcDbLine
10
-9.74855233853010
20
-0.165337416800629
30
0.000000000000000
11
-9.64855233853010
21
-0.241672693169919
31
0.000000000000000
  0
LINE
  5
F108F3
330
F108F4
100
AcDbEntity
8
Geo
100
AcDbLine
10
-9.64855233853010
20
-0.241672693169919
30
0.000000000000000
11
-9.54855233853010
21
-0.317413029897239
31
0.000000000000000
  0
LINE
  5
F108F5
330
F108F6
100
AcDbEntity
8
Geo
100
AcDbLine
10
-9.54855233853010
20
-0.317413029897239
30
0.000000000000000
11
-9.44855233853010
21
-0.392537096332559
31
0.000000000000000
  0
LINE
  5
F108F7
330
F108F8
100
AcDbEntity
8
Geo
100
AcDbLine
10
-9.44855233853010
20
-0.392537096332559
30
0.000000000000000
11
-9.34855233853010
21
-0.467023735385199
31
0.000000000000000
  0
LINE
  5
F108F9
330
F108FA
100
AcDbEntity
8
Geo
100
AcDbLine
10
-9.34855233853010
20
-0.467023735385199
30
0.000000000000000
11
-9.24855233853010
21
-0.540851969482329
31
0.000000000000000
  0
LINE
  5
F108FB
330
F108FC
100
AcDbEntity
8
Geo
100
AcDbLine
10
-9.24855233853010
20
-0.540851969482329
30
0.000000000000000
11
-9.14855233853010
21
-0.614001006476829
31
0.000000000000000
  0
LINE
  5
F108FD
330
F108FE
100
AcDbEntity
8
Geo
100
AcDbLine
10
-9.14855233853010
20
-0.614001006476829
30
0.000000000000000
11
-9.04855233853010
21
-0.686450245502949
31
0.000000000000000
  0
LINE
  5
F108FF
330
F10900
100
AcDbEntity
8
Geo
100
AcDbLine
10
-9.04855233853010
20
6.86975574335436
30
0.000000000000000
11
-8.94855233853010
21
6.86793165231162
31
0.000000000000000
  0
LINE
  5
F10901
330
F10902
100
AcDbEntity
8
Geo
100
AcDbLine
10
-9.04855233853010
20
-0.686450245502949
30
0.000000000000000
11
-8.94855233853010
21
-0.758179282778099
31
0.000000000000000
  0
LINE
  5
F10903
330
F10904
100
AcDbEntity
8
Geo
100
AcDbLine
10
-8.94855233853010
20
6.86793165231162
30
0.000000000000000
11
-8.84855233853010
21
6.86470023251890
31
0.000000000000000
  0
LINE
  5
F10905
330
F10906
100
AcDbEntity
8
Geo
100
AcDbLine
10
-8.94855233853010
20
-0.758179282778099
30
0.000000000000000
11
-8.84855233853010
21
-0.829167917349139
31
0.000000000000000
  0
LINE
  5
F10907
330
F10908
100
AcDbEntity
8
Geo
100
AcDbLine
10
-8.84855233853010
20
6.86470023251890
30
0.000000000000000
11
-8.74855233853010
21
6.86006239403667
31
0.000000000000000
  0
LINE
  5
F10909
330
F1090A
100
AcDbEntity
8
Geo
100
AcDbLine
10
-8.84855233853010
20
-0.829167917349139
30
0.000000000000000
11
-8.74855233853010
21
-0.899396156781589
31
0.000000000000000
  0
LINE
  5
F1090B
330
F1090C
100
AcDbEntity
8
Geo
100
AcDbLine
10
-8.74855233853010
20
6.86006239403667
30
0.000000000000000
11
-8.64855233853010
21
6.85401944301317
31
0.000000000000000
  0
LINE
  5
F1090D
330
F1090E
100
AcDbEntity
8
Geo
100
AcDbLine
10
-8.74855233853010
20
-0.899396156781589
30
0.000000000000000
11
-8.64855233853010
21
-0.968844222790029
31
0.000000000000000
  0
LINE
  5
F1090F
330
F10910
100
AcDbEntity
8
Geo
100
AcDbLine
10
-8.64855233853010
20
6.85401944301317
30
0.000000000000000
11
-8.54855233853010
21
6.84657308131666
31
0.000000000000000
  0
LINE
  5
F10911
330
F10912
100
AcDbEntity
8
Geo
100
AcDbLine
10
-8.64855233853010
20
-0.968844222790029
30
0.000000000000000
11
-8.54855233853010
21
-1.03749255680821
31
0.000000000000000
  0
LINE
  5
F10913
330
F10914
100
AcDbEntity
8
Geo
100
AcDbLine
10
-8.54855233853010
20
6.84657308131666
30
0.000000000000000
11
-8.44855233853010
21
6.83772540605605
31
0.000000000000000
  0
LINE
  5
F10915
330
F10916
100
AcDbEntity
8
Geo
100
AcDbLine
10
-8.54855233853010
20
-1.03749255680821
30
0.000000000000000
11
-8.44855233853010
21
-1.10532182549737
31
0.000000000000000
  0
LINE
  5
F10917
330
F10918
100
AcDbEntity
8
Geo
100
AcDbLine
10
-8.44855233853010
20
6.83772540605605
30
0.000000000000000
11
-8.34855233853010
21
6.82747890899032
31
0.000000000000000
  0
LINE
  5
F10919
330
F1091A
100
AcDbEntity
8
Geo
100
AcDbLine
10
-8.44855233853010
20
-1.10532182549737
30
0.000000000000000
11
-8.34855233853010
21
-1.17231292619100
31
0.000000000000000
  0
LINE
  5
F1091B
330
F1091C
100
AcDbEntity
8
Geo
100
AcDbLine
10
-8.34855233853010
20
6.82747890899032
30
0.000000000000000
11
-8.24855233853010
21
6.81583647582678
31
0.000000000000000
  0
LINE
  5
F1091D
330
F1091E
100
AcDbEntity
8
Geo
100
AcDbLine
10
-8.34855233853010
20
-1.17231292619100
30
0.000000000000000
11
-8.24855233853010
21
-1.23844699227474
31
0.000000000000000
  0
LINE
  5
F1091F
330
F10920
100
AcDbEntity
8
Geo
100
AcDbLine
10
-8.24855233853010
20
6.81583647582678
30
0.000000000000000
11
-8.14855233853010
21
6.80280138540836
31
0.000000000000000
  0
LINE
  5
F10921
330
F10922
100
AcDbEntity
8
Geo
100
AcDbLine
10
-8.24855233853010
20
-1.23844699227474
30
0.000000000000000
11
-8.14855233853010
21
-1.30370539849975
31
0.000000000000000
  0
LINE
  5
F10923
330
F10924
100
AcDbEntity
8
Geo
100
AcDbLine
10
-8.14855233853010
20
6.80280138540836
30
0.000000000000000
11
-8.04855233853010
21
6.78837730879019
31
0.000000000000000
  0
LINE
  5
F10925
330
F10926
100
AcDbEntity
8
Geo
100
AcDbLine
10
-8.14855233853010
20
-1.30370539849975
30
0.000000000000000
11
-8.04855233853010
21
-1.36806976622809
31
0.000000000000000
  0
LINE
  5
F10927
330
F10928
100
AcDbEntity
8
Geo
100
AcDbLine
10
-8.04855233853010
20
6.78837730879019
30
0.000000000000000
11
-7.94855233853010
21
6.77256830820573
31
0.000000000000000
  0
LINE
  5
F10929
330
F1092A
100
AcDbEntity
8
Geo
100
AcDbLine
10
-8.04855233853010
20
-1.36806976622809
30
0.000000000000000
11
-7.94855233853010
21
-1.43152196860871
31
0.000000000000000
  0
LINE
  5
F1092B
330
F1092C
100
AcDbEntity
8
Geo
100
AcDbLine
10
-7.94855233853010
20
6.77256830820573
30
0.000000000000000
11
-7.84855233853010
21
6.75537883592275
31
0.000000000000000
  0
LINE
  5
F1092D
330
F1092E
100
AcDbEntity
8
Geo
100
AcDbLine
10
-7.94855233853010
20
-1.43152196860871
30
0.000000000000000
11
-7.84855233853010
21
-1.49404413568244
31
0.000000000000000
  0
LINE
  5
F1092F
330
F10930
100
AcDbEntity
8
Geo
100
AcDbLine
10
-7.84855233853010
20
6.75537883592275
30
0.000000000000000
11
-7.74855233853010
21
6.73681373298940
31
0.000000000000000
  0
LINE
  5
F10931
330
F10932
100
AcDbEntity
8
Geo
100
AcDbLine
10
-7.84855233853010
20
-1.49404413568244
30
0.000000000000000
11
-7.74855233853010
21
-1.55561865941476
31
0.000000000000000
  0
LINE
  5
F10933
330
F10934
100
AcDbEntity
8
Geo
100
AcDbLine
10
-7.74855233853010
20
6.73681373298940
30
0.000000000000000
11
-7.64855233853010
21
6.71687822787087
31
0.000000000000000
  0
LINE
  5
F10935
330
F10936
100
AcDbEntity
8
Geo
100
AcDbLine
10
-7.74855233853010
20
-1.55561865941476
30
0.000000000000000
11
-7.64855233853010
21
-1.61622819865463
31
0.000000000000000
  0
LINE
  5
F10937
330
F10938
100
AcDbEntity
8
Geo
100
AcDbLine
10
-7.64855233853010
20
6.71687822787087
30
0.000000000000000
11
-7.54855233853010
21
6.69557793497688
31
0.000000000000000
  0
LINE
  5
F10939
330
F1093A
100
AcDbEntity
8
Geo
100
AcDbLine
10
-7.64855233853010
20
-1.61622819865463
30
0.000000000000000
11
-7.54855233853010
21
-1.67585568401834
31
0.000000000000000
  0
LINE
  5
F1093B
330
F1093C
100
AcDbEntity
8
Geo
100
AcDbLine
10
-7.54855233853010
20
6.69557793497688
30
0.000000000000000
11
-7.44855233853010
21
6.67291885308051
31
0.000000000000000
  0
LINE
  5
F1093D
330
F1093E
100
AcDbEntity
8
Geo
100
AcDbLine
10
-7.54855233853010
20
-1.67585568401834
30
0.000000000000000
11
-7.44855233853010
21
-1.73448432269670
31
0.000000000000000
  0
LINE
  5
F1093F
330
F10940
100
AcDbEntity
8
Geo
100
AcDbLine
10
-7.44855233853010
20
6.67291885308051
30
0.000000000000000
11
-7.44855233853010
21
6.68718376743848
31
0.000000000000000
  0
LINE
  5
F10941
330
F10942
100
AcDbEntity
8
Geo
100
AcDbLine
10
-7.44855233853010
20
6.67291885308051
30
0.000000000000000
11
-7.44855233853010
21
5.67409251090747
31
0.000000000000000
  0
LINE
  5
F10943
330
F10944
100
AcDbEntity
8
Geo
100
AcDbLine
10
-7.44855233853010
20
-1.73448432269670
30
0.000000000000000
11
-7.44855233853010
21
-1.70011516347621
31
0.000000000000000
  0
LINE
  5
F10945
330
F10946
100
AcDbEntity
8
Geo
100
AcDbLine
10
-7.44855233853010
20
-1.73448432269670
30
0.000000000000000
11
-7.44855233853010
21
-2.84174627920854
31
0.000000000000000
  0
LINE
  5
F10947
330
F10948
100
AcDbEntity
8
Geo
100
AcDbLine
10
-29.3485523385301
20
1.87082405345211
30
0.000000000000000
11
-29.3485523385301
21
1.87082405345211
31
0.000000000000000
  0
LINE
  5
F10949
330
F1094A
100
AcDbEntity
8
Geo
100
AcDbLine
10
-29.3485523385301
20
1.87082405345211
30
0.000000000000000
11
-29.3485523385301
21
1.87082405345211
31
0.000000000000000
  0
LINE
  5
F1094B
330
F1094C
100
AcDbEntity
8
Geo
100
AcDbLine
10
42.6514476614699
20
6.17082405345211
30
0.000000000000000
11
42.6514476614699
21
1.87082405345211
31
0.000000000000000
  0
LINE
  5
F1094D
330
F1094E
100
AcDbEntity
8
Geo
100
AcDbLine
10
-29.3485523385301
20
1.87082405345211
30
0.000000000000000
11
-29.3485523385301
21
-2.97917594654789
31
0.000000000000000
  0
LINE
  5
F1094F
330
F10950
100
AcDbEntity
8
Geo
100
AcDbLine
10
-29.3485523385301
20
-2.97917594654789
30
0.000000000000000
11
-29.1985523385301
21
-3.12917594654789
31
0.000000000000000
  0
LINE
  5
F10951
330
F10952
100
AcDbEntity
8
Geo
100
AcDbLine
10
-29.1985523385301
20
-3.12917594654789
30
0.000000000000000
11
-7.34855233853010
21
-3.12917594654789
31
0.000000000000000
  0
LINE
  5
F10953
330
F10954
100
AcDbEntity
8
Geo
100
AcDbLine
10
-7.34855233853010
20
-3.12917594654789
30
0.000000000000000
11
-7.34855233853010
21
-2.87917594654789
31
0.000000000000000
  0
LINE
  5
F10955
330
F10956
100
AcDbEntity
8
Geo
100
AcDbLine
10
-7.34855233853010
20
-2.87917594654789
30
0.000000000000000
11
2.65144766146990
21
-2.87917594654789
31
0.000000000000000
  0
LINE
  5
F10957
330
F10958
100
AcDbEntity
8
Geo
100
AcDbLine
10
2.65144766146990
20
-2.87917594654789
30
0.000000000000000
11
2.65144766146990
21
-3.12917594654789
31
0.000000000000000
  0
LINE
  5
F10959
330
F1095A
100
AcDbEntity
8
Geo
100
AcDbLine
10
2.65144766146990
20
-3.12917594654789
30
0.000000000000000
11
41.9514476614699
21
-3.12917594654789
31
0.000000000000000
  0
LINE
  5
F1095B
330
F1095C
100
AcDbEntity
8
Geo
100
AcDbLine
10
41.9514476614699
20
-3.12917594654789
30
0.000000000000000
11
42.6514476614699
21
-2.42917594654789
31
0.000000000000000
  0
LINE
  5
F1095D
330
F1095E
100
AcDbEntity
8
Geo
100
AcDbLine
10
-29.3485523385301
20
6.72082405345211
30
0.000000000000000
11
-29.3485523385301
21
-2.97917594654789
31
0.000000000000000
  0
LINE
  5
F1095F
330
F10960
100
AcDbEntity
8
Geo
100
AcDbLine
10
-29.1985523385301
20
6.87082405345211
30
0.000000000000000
11
-29.1985523385301
21
-3.12917594654789
31
0.000000000000000
  0
LINE
  5
F10961
330
F10962
100
AcDbEntity
8
Geo
100
AcDbLine
10
-7.34855233853010
20
6.87082405345211
30
0.000000000000000
11
-7.34855233853010
21
-3.12917594654789
31
0.000000000000000
  0
LINE
  5
F10963
330
F10964
100
AcDbEntity
8
Geo
100
AcDbLine
10
-7.34855233853010
20
6.62082405345211
30
0.000000000000000
11
-7.34855233853010
21
-2.87917594654789
31
0.000000000000000
  0
LINE
  5
F10965
330
F10966
100
AcDbEntity
8
Geo
100
AcDbLine
10
2.65144766146990
20
6.62082405345211
30
0.000000000000000
11
2.65144766146990
21
-2.87917594654789
31
0.000000000000000
  0
LINE
  5
F10967
330
F10968
100
AcDbEntity
8
Geo
100
AcDbLine
10
2.65144766146990
20
6.87082405345211
30
0.000000000000000
11
2.65144766146990
21
-3.12917594654789
31
0.000000000000000
  0
LINE
  5
F10969
330
F1096A
100
AcDbEntity
8
Geo
100
AcDbLine
10
41.9514476614699
20
6.87082405345211
30
0.000000000000000
11
41.9514476614699
21
-3.12917594654789
31
0.000000000000000
  0
LINE
  5
F1096B
330
F1096C
100
AcDbEntity
8
Geo
100
AcDbLine
10
42.6514476614699
20
6.17082405345211
30
0.000000000000000
11
42.6514476614699
21
-2.42917594654789
31
0.000000000000000
  0
LWPOLYLINE
  5
F1096D
330
F1096E
100
AcDbEntity
8
Rahmen
100
AcDbPolyline
90
   4
70
   1
43
   0.0
 10
-238.530066815145
 20
108.507795100223
 10
-238.530066815145
 20
108.507795100223
 10
-238.530066815145
 20
108.507795100223
 10
-238.530066815145
 20
108.507795100223
  0
TEXT
  5
F1096F
330
F10970
 100
AcDbEntity
8
Text
100
AcDbText
10
-238.530066815145
20
109.007795100223
30
0.000000000000000
40
1.00000000000000
1
 -       
100
AcDbText
  0
LWPOLYLINE
  5
F10971
330
F10972
100
AcDbEntity
8
Rahmen
100
AcDbPolyline
90
   4
70
   1
43
   0.0
 10
-134.699331848552
 20
99.8552338530066
 10
143.351893095768
 20
99.8552338530066
 10
143.351893095768
 20
-100.089086859688
 10
-134.699331848552
 20
-100.089086859688
  0
TEXT
  5
F10973
330
F10974
 100
AcDbEntity
8
Text
100
AcDbText
10
-133.530066815145
20
-99.5890868596883
30
0.000000000000000
40
1.00000000000000
1
ISBESketcher
100
AcDbText
  0
LWPOLYLINE
  5
F10975
330
F10976
100
AcDbEntity
8
Rahmen
100
AcDbPolyline
90
   4
70
   1
43
   0.0
 10
103.363028953229
 20
-97.0489977728286
 10
143.351893095768
 20
-97.0489977728286
 10
143.351893095768
 20
-100.089086859688
 10
103.363028953229
 20
-100.089086859688
  0
TEXT
  5
F10977
330
F10978
 100
AcDbEntity
8
Text
100
AcDbText
10
104.298440979955
20
-98.0489977728286
30
0.000000000000000
40
0.750000000000000
1
Ers. durch:
100
AcDbText
  0
TEXT
  5
F10979
330
F1097A
 100
AcDbEntity
8
Text
100
AcDbText
10
130.957683741648
20
-98.0489977728286
30
0.000000000000000
40
0.750000000000000
1
 
100
AcDbText
  0
LWPOLYLINE
  5
F1097B
330
F1097C
100
AcDbEntity
8
Rahmen
100
AcDbPolyline
90
   4
70
   1
43
   0.0
 10
63.3741648106904
 20
-97.0489977728286
 10
103.363028953229
 20
-97.0489977728286
 10
103.363028953229
 20
-100.089086859688
 10
63.3741648106904
 20
-100.089086859688
  0
TEXT
  5
F1097D
330
F1097E
 100
AcDbEntity
8
Text
100
AcDbText
10
64.3095768374165
20
-98.0489977728286
30
0.000000000000000
40
0.750000000000000
1
Ers. für:
100
AcDbText
  0
TEXT
  5
F1097F
330
F10980
 100
AcDbEntity
8
Text
100
AcDbText
10
91.2026726057906
20
-99.4521158129177
30
0.000000000000000
40
0.750000000000000
1

100
AcDbText
  0
LWPOLYLINE
  5
F10981
330
F10982
100
AcDbEntity
8
Rahmen
100
AcDbPolyline
90
   4
70
   1
43
   0.0
 10
130.022271714922
 20
-94.0089086859689
 10
143.351893095768
 20
-94.0089086859689
 10
143.351893095768
 20
-97.0489977728286
 10
130.022271714922
 20
-97.0489977728286
  0
TEXT
  5
F10983
330
F10984
 100
AcDbEntity
8
Text
100
AcDbText
10
130.957683741648
20
-95.0089086859689
30
0.000000000000000
40
0.750000000000000
1
Blätter
100
AcDbText
  0
TEXT
  5
F10985
330
F10986
 100
AcDbEntity
8
Text
100
AcDbText
10
141.247216035635
20
-96.4120267260580
30
0.000000000000000
40
0.750000000000000
1

100
AcDbText
  0
LWPOLYLINE
  5
F10987
330
F10988
100
AcDbEntity
8
Rahmen
100
AcDbPolyline
90
   4
70
   1
43
   0.0
 10
130.022271714922
 20
-91.2026726057907
 10
143.351893095768
 20
-91.2026726057907
 10
143.351893095768
 20
-94.0089086859689
 10
130.022271714922
 20
-94.0089086859689
  0
TEXT
  5
F10989
330
F1098A
 100
AcDbEntity
8
Text
100
AcDbText
10
130.957683741648
20
-92.2026726057907
30
0.000000000000000
40
0.750000000000000
1
Blatt
100
AcDbText
  0
TEXT
  5
F1098B
330
F1098C
 100
AcDbEntity
8
Text
100
AcDbText
10
141.247216035635
20
-93.6057906458798
30
0.000000000000000
40
0.750000000000000
1

100
AcDbText
  0
LWPOLYLINE
  5
F1098D
330
F1098E
100
AcDbEntity
8
Rahmen
100
AcDbPolyline
90
   4
70
   1
43
   0.0
 10
63.3741648106904
 20
-91.2026726057907
 10
130.022271714922
 20
-91.2026726057907
 10
130.022271714922
 20
-97.0489977728286
 10
63.3741648106904
 20
-97.0489977728286
  0
TEXT
  5
F1098F
330
F10990
 100
AcDbEntity
8
Text
100
AcDbText
10
64.3095768374165
20
-92.2026726057907
30
0.000000000000000
40
0.750000000000000
1
Datum:
100
AcDbText
  0
TEXT
  5
F10991
330
F10992
 100
AcDbEntity
8
Text
100
AcDbText
10
90.2672605790645
20
-95.0089086859689
30
0.000000000000000
40
0.750000000000000
1
06.11.2012
100
AcDbText
  0
LWPOLYLINE
  5
F10993
330
F10994
100
AcDbEntity
8
Rahmen
100
AcDbPolyline
90
   4
70
   1
43
   0.0
 10
63.3741648106904
 20
-85.1224944320713
 10
143.351893095768
 20
-85.1224944320713
 10
143.351893095768
 20
-91.2026726057907
 10
63.3741648106904
 20
-91.2026726057907
  0
TEXT
  5
F10995
330
F10996
 100
AcDbEntity
8
Text
100
AcDbText
10
-238.530066815145
20
106.507795100223
30
0.000000000000000
40
1.50000000000000
1

100
AcDbText
  0
TEXT
  5
F10997
330
F10998
 100
AcDbEntity
8
Text
100
AcDbText
10
92.3719376391981
20
-88.9235337787677
30
0.000000000000000
40
2.50000000000000
1
1835-100W
100
AcDbText
  0
LWPOLYLINE
  5
F10999
330
F1099A
100
AcDbEntity
8
Rahmen
100
AcDbPolyline
90
   4
70
   1
43
   0.0
 10
103.363028953229
 20
-79.0423162583520
 10
143.351893095768
 20
-79.0423162583520
 10
143.351893095768
 20
-85.1224944320713
 10
103.363028953229
 20
-85.1224944320713
  0
TEXT
  5
F1099B
330
F1099C
 100
AcDbEntity
8
Text
100
AcDbText
10
104.298440979955
20
-80.0423162583520
30
0.000000000000000
40
0.750000000000000
1
Zu bearb. Material:
100
AcDbText
  0
TEXT
  5
F1099D
330
F1099E
 100
AcDbEntity
8
Text
100
AcDbText
10
123.240534521158
20
-84.4855233853007
30
0.000000000000000
40
0.750000000000000
1

100
AcDbText
  0
LWPOLYLINE
  5
F1099F
330
F109A0
100
AcDbEntity
8
Rahmen
100
AcDbPolyline
90
   4
70
   1
43
   0.0
 10
63.3741648106904
 20
-79.0423162583520
 10
103.363028953229
 20
-79.0423162583520
 10
103.363028953229
 20
-85.1224944320713
 10
63.3741648106904
 20
-85.1224944320713
  0
TEXT
  5
F109A1
330
F109A2
 100
AcDbEntity
8
Text
100
AcDbText
10
64.3095768374165
20
-80.0423162583520
30
0.000000000000000
40
0.750000000000000
1
Werkstoff:
100
AcDbText
  0
TEXT
  5
F109A3
330
F109A4
 100
AcDbEntity
8
Text
100
AcDbText
10
83.2516703786191
20
-84.4855233853007
30
0.000000000000000
40
0.750000000000000
1

100
AcDbText
  0
LWPOLYLINE
  5
F109A5
330
F109A6
100
AcDbEntity
8
Rahmen
100
AcDbPolyline
90
   4
70
   1
43
   0.0
 10
103.363028953229
 20
-76.0022271714923
 10
143.351893095768
 20
-76.0022271714923
 10
143.351893095768
 20
-79.0423162583520
 10
103.363028953229
 20
-79.0423162583520
  0
TEXT
  5
F109A7
330
F109A8
 100
AcDbEntity
8
Text
100
AcDbText
10
-238.530066815145
20
106.507795100223
30
0.000000000000000
40
1.50000000000000
1

100
AcDbText
  0
TEXT
  5
F109A9
330
F109AA
 100
AcDbEntity
8
Text
100
AcDbText
10
123.240534521158
20
-78.4053452115814
30
0.000000000000000
40
0.750000000000000
1

100
AcDbText
  0
LWPOLYLINE
  5
F109AB
330
F109AC
100
AcDbEntity
8
Rahmen
100
AcDbPolyline
90
   4
70
   1
43
   0.0
 10
63.3741648106904
 20
-76.0022271714923
 10
103.363028953229
 20
-76.0022271714923
 10
103.363028953229
 20
-79.0423162583520
 10
63.3741648106904
 20
-79.0423162583520
  0
TEXT
  5
F109AD
330
F109AE
 100
AcDbEntity
8
Text
100
AcDbText
10
64.3095768374165
20
-77.0022271714923
30
0.000000000000000
40
0.750000000000000
1
Maßstab:
100
AcDbText
  0
TEXT
  5
F109AF
330
F109B0
 100
AcDbEntity
8
Text
100
AcDbText
10
88.6302895322940
20
-77.0022271714923
30
0.000000000000000
40
0.750000000000000
1
1 : 1
100
AcDbText
0
VIEWPORT
5
294
102
{ACAD_XDICTIONARY
360
58A
102
}
330
25D
100
AcDbEntity
67
1
8
0
60
1
100
AcDbViewport
10
0.0
20
0.0
30
0.0
40
10.0
41
10.0
68
-1
69
1
12
0.0
22
0.0
13
0.0
23
0.0
14
1.0
24
1.0
15
0.0
25
0.0
16
0.0
26
0.0
36
1.0
17
0.0
27
0.0
37
0.0
42
0.0
43
0.0
44
0.0
45
10.0
50
0.0
51
0.0000000000007958
72
100
90
32800
1

281
0
71
0
74
0
110
0.0
120
0.0
130
0.0
111
1.0
121
0.0
131
0.0
112
0.0
122
1.0
132
0.0
79
0
146
0.0
1001
VD_INVISIBLE_NOT_FOR_READ
1000
VD_INVISIBLE_NOT_FOR_READ
0
VIEWPORT
5
295
102
{ACAD_XDICTIONARY
360
58C
102
}
330
25D
100
AcDbEntity
67
1
8
0
60
1
100
AcDbViewport
10
0.0
20
0.0
30
0.0
40
10.0
41
10.0
68
0
69
2
12
0.0
22
0.0
13
0.0
23
0.0
14
1.0
24
1.0
15
0.0
25
0.0
16
0.0
26
0.0
36
1.0
17
0.0
27
0.0
37
0.0
42
0.0
43
0.0
44
0.0
45
10.0
50
0.0
51
0.0000000000007958
72
100
90
163872
1

281
0
71
0
74
0
110
0.0
120
0.0
130
0.0
111
1.0
121
0.0
131
0.0
112
0.0
122
1.0
132
0.0
79
0
146
0.0
1001
VD_INVISIBLE_NOT_FOR_READ
1000
VD_INVISIBLE_NOT_FOR_READ
0
ENDSEC
0
SECTION
2
OBJECTS
0
DICTIONARY
5
13
330
0
100
AcDbDictionary
281
1
3
ACAD_COLOR
350
FA7
3
ACAD_GROUP
350
14
3
ACAD_LAYOUT
350
FCF
3
ACAD_MATERIAL
350
F7A
3
ACAD_MLEADERSTYLE
350
FCD
3
ACAD_MLINESTYLE
350
16
3
ACAD_PLOTSETTINGS
350
17
3
ACAD_PLOTSTYLENAME
350
18
3
ACAD_SCALELIST
350
FAB
3
ACAD_TABLESTYLE
350
FA8
3
ACAD_VISUALSTYLE
350
F93
3
ACDB_RECOMPOSE_DATA
350
107E
3
AcDbVariableDictionary
350
FF0
3
DWGPROPS
350
107F
0
DICTIONARY
5
F1000F
330
F1000E
100
AcDbDictionary
280
1
281
1
3
ACAD_MTEXT_2008_RT
360
F10010
0
DICTIONARY
5
F10019
330
F10018
100
AcDbDictionary
280
1
281
1
3
ACAD_MTEXT_2008_RT
360
F1001A
0
DICTIONARY
5
F1001E
330
F1001D
100
AcDbDictionary
280
1
281
1
3
ACAD_MTEXT_2008_RT
360
F1001F
0
DICTIONARY
5
F10023
330
F10022
100
AcDbDictionary
280
1
281
1
3
ACAD_MTEXT_2008_RT
360
F10024
0
DICTIONARY
5
F10005
330
F10004
100
AcDbDictionary
280
1
281
1
3
ACAD_MTEXT_2008_RT
360
F10006
0
DICTIONARY
5
F1000A
330
F10009
100
AcDbDictionary
280
1
281
1
3
ACAD_MTEXT_2008_RT
360
F1000B
0
DICTIONARY
5
F10014
330
F10013
100
AcDbDictionary
280
1
281
1
3
ACAD_MTEXT_2008_RT
360
F10015
0
DICTIONARY
5
FA7
102
{ACAD_REACTORS
330
13
102
}
330
13
100
AcDbDictionary
281
1
0
DICTIONARY
5
14
330
13
100
AcDbDictionary
281
1
0
DICTIONARY
5
FCF
102
{ACAD_REACTORS
330
13
102
}
330
13
100
AcDbDictionary
281
1
3
Layout1
350
FD1
3
Model
350
FD0
0
DICTIONARY
5
F7A
102
{ACAD_REACTORS
330
13
102
}
330
13
100
AcDbDictionary
281
1
3
ByBlock
350
F83
3
ByLayer
350
F7B
3
Global
350
F8B
0
DICTIONARY
5
FCD
102
{ACAD_REACTORS
330
13
102
}
330
13
100
AcDbDictionary
281
1
3
Standard
350
FCE
0
DICTIONARY
5
16
330
13
100
AcDbDictionary
281
1
3
Standard
350
FAA
0
DICTIONARY
5
17
102
{ACAD_REACTORS
330
13
102
}
330
13
100
AcDbDictionary
281
1
0
ACDBDICTIONARYWDFLT
5
18
102
{ACAD_REACTORS
330
13
102
}
330
13
100
AcDbDictionary
281
1
3
Normal
350
19
100
AcDbDictionaryWithDefault
340
19
0
DICTIONARY
5
FAB
102
{ACAD_REACTORS
330
13
102
}
330
13
100
AcDbDictionary
281
1
3
A0
350
FAC
3
A1
350
FAD
3
A2
350
FAE
3
A3
350
FAF
3
A4
350
FB0
3
A5
350
FB1
3
A6
350
FB2
3
A7
350
FB3
3
A8
350
FB4
3
A9
350
FB5
3
B0
350
FB6
3
B1
350
FB7
3
B2
350
FB8
3
B3
350
FB9
3
B4
350
FBA
3
B5
350
FBB
3
B6
350
FBC
3
B7
350
FBD
3
B8
350
FBE
3
B9
350
FBF
3
C0
350
FC0
3
C1
350
FC1
3
C2
350
FC2
3
C3
350
FC3
3
C4
350
FC4
3
C5
350
FC5
3
C6
350
FC6
3
C7
350
FC7
3
C8
350
FC8
3
C9
350
FC9
3
D0
350
FCA
3
D1
350
FCB
3
D2
350
FCC
0
DICTIONARY
5
FA8
102
{ACAD_REACTORS
330
13
102
}
330
13
100
AcDbDictionary
281
1
3
Standard
350
FA9
0
DICTIONARY
5
F93
102
{ACAD_REACTORS
330
13
102
}
330
13
100
AcDbDictionary
281
1
3
2dWireframe
350
F99
3
3D Hidden
350
F9B
3
3dWireframe
350
F9A
3
Basic
350
F98
3
Brighten
350
F9F
3
ColorChange
350
FA3
3
Conceptual
350
F9C
3
Dim
350
F9E
3
EdgeColorOff
350
FA6
3
Facepattern
350
FA2
3
Flat
350
F94
3
FlatWithEdges
350
F95
3
Gouraud
350
F96
3
GouraudWithEdges
350
F97
3
JitterOff
350
FA4
3
Linepattern
350
FA1
3
OverhangOff
350
FA5
3
Realistic
350
F9D
3
Thicken
350
FA0
0
XRECORD
5
107E
102
{ACAD_REACTORS
330
13
102
}
330
13
100
AcDbXrecord
280
1
90
1
330
FA9
330
F1000E
330
F10018
330
F1001D
330
F10022
330
F10004
330
F10009
330
F10013
0
XRECORD
5
F10010
102
{ACAD_REACTORS
330
F1000F
102
}
330
F1000F
100
AcDbXrecord
280
1
40
48458.0
1
\A1;40
0
XRECORD
5
F1001A
102
{ACAD_REACTORS
330
F10019
102
}
330
F10019
100
AcDbXrecord
280
1
40
48458.0
1
\A1;22
0
XRECORD
5
F1001F
102
{ACAD_REACTORS
330
F1001E
102
}
330
F1001E
100
AcDbXrecord
280
1
40
48458.0
1
\A1;72
0
XRECORD
5
F10024
102
{ACAD_REACTORS
330
F10023
102
}
330
F10023
100
AcDbXrecord
280
1
40
48458.0
1
\A1;32
0
XRECORD
5
F10006
102
{ACAD_REACTORS
330
F10005
102
}
330
F10005
100
AcDbXrecord
280
1
40
48458.0
1
\A1;10
0
XRECORD
5
F1000B
102
{ACAD_REACTORS
330
F1000A
102
}
330
F1000A
100
AcDbXrecord
280
1
40
48458.0
1
\A1;9.5
0
LAYOUT
5
FD1
102
{ACAD_XDICTIONARY
360
10A9
102
}
102
{ACAD_REACTORS
330
FCF
102
}
330
FCF
100
AcDbPlotSettings
1

2
Microsoft XPS Document Writer
4

6

40
0.0
41
0.0
42
0.0
43
0.0
44
0.0
45
0.0
46
0.0
47
0.0
48
0.0
49
0.0
140
0.0
141
0.0
142
1.0
143
1.0
70
688
72
0
73
0
74
5
7

75
16
147
1.0
148
0.0
149
0.0
100
AcDbLayout
1
Layout1
70
1
71
1
10
0.0
20
0.0
11
12.0
21
9.0
12
0.0
22
0.0
32
0.0
14
1.000000000000000E+20
24
1.000000000000000E+20
34
1.000000000000000E+20
15
-1.000000000000000E+20
25
-1.000000000000000E+20
35
-1.000000000000000E+20
146
0.0
13
0.0
23
0.0
33
0.0
16
1.0
26
0.0
36
0.0
17
0.0
27
1.0
37
0.0
76
0
330
25D
0
LAYOUT
5
FD0
102
{ACAD_XDICTIONARY
360
10A7
102
}
102
{ACAD_REACTORS
330
FCF
102
}
330
FCF
100
AcDbPlotSettings
1

2
Microsoft XPS Document Writer
4

6

40
0.0
41
0.0
42
0.0
43
0.0
44
0.0
45
0.0
46
0.0
47
0.0
48
0.0
49
0.0
140
0.0
141
0.0
142
1.0
143
1.0
70
1712
72
0
73
0
74
0
7

75
0
147
1.0
148
0.0
149
0.0
100
AcDbLayout
1
Model
70
1
71
0
10
0.0
20
0.0
11
12.0
21
9.0
12
0.0
22
0.0
32
0.0
14
0.0
24
0.0
34
0.0
15
0.0
25
0.0
35
0.0
146
0.0
13
0.0
23
0.0
33
0.0
16
1.0
26
0.0
36
0.0
17
0.0
27
1.0
37
0.0
76
0
330
261
331
26B
0
MATERIAL
5
F83
102
{ACAD_XDICTIONARY
360
F84
102
}
102
{ACAD_REACTORS
330
F7A
102
}
330
F7A
100
AcDbMaterial
1
ByBlock
72
0
43
0.0208333333333333
43
0.0
43
0.0
43
0.0
43
0.0
43
0.0208333333333333
43
0.0
43
0.0
43
0.0
43
0.0
43
1.0
43
0.0
43
0.0
43
0.0
43
0.0
43
1.0
77
0
47
0.0208333333333333
47
0.0
47
0.0
47
0.0
47
0.0
47
0.0208333333333333
47
0.0
47
0.0
47
0.0
47
0.0
47
1.0
47
0.0
47
0.0
47
0.0
47
0.0
47
1.0
171
0
49
0.0208333333333333
49
0.0
49
0.0
49
0.0
49
0.0
49
0.0208333333333333
49
0.0
49
0.0
49
0.0
49
0.0
49
1.0
49
0.0
49
0.0
49
0.0
49
0.0
49
1.0
175
0
142
0.0208333333333333
142
0.0
142
0.0
142
0.0
142
0.0
142
0.0208333333333333
142
0.0
142
0.0
142
0.0
142
0.0
142
1.0
142
0.0
142
0.0
142
0.0
142
0.0
142
1.0
179
0
144
0.0208333333333333
144
0.0
144
0.0
144
0.0
144
0.0
144
0.0208333333333333
144
0.0
144
0.0
144
0.0
144
0.0
144
1.0
144
0.0
144
0.0
144
0.0
144
0.0
144
1.0
147
0.0208333333333333
147
0.0
147
0.0
147
0.0
147
0.0
147
0.0208333333333333
147
0.0
147
0.0
147
0.0
147
0.0
147
1.0
147
0.0
147
0.0
147
0.0
147
0.0
147
1.0
0
MATERIAL
5
F7B
102
{ACAD_XDICTIONARY
360
F7C
102
}
102
{ACAD_REACTORS
330
F7A
102
}
330
F7A
100
AcDbMaterial
1
ByLayer
72
0
43
0.0208333333333333
43
0.0
43
0.0
43
0.0
43
0.0
43
0.0208333333333333
43
0.0
43
0.0
43
0.0
43
0.0
43
1.0
43
0.0
43
0.0
43
0.0
43
0.0
43
1.0
77
0
47
0.0208333333333333
47
0.0
47
0.0
47
0.0
47
0.0
47
0.0208333333333333
47
0.0
47
0.0
47
0.0
47
0.0
47
1.0
47
0.0
47
0.0
47
0.0
47
0.0
47
1.0
171
0
49
0.0208333333333333
49
0.0
49
0.0
49
0.0
49
0.0
49
0.0208333333333333
49
0.0
49
0.0
49
0.0
49
0.0
49
1.0
49
0.0
49
0.0
49
0.0
49
0.0
49
1.0
175
0
142
0.0208333333333333
142
0.0
142
0.0
142
0.0
142
0.0
142
0.0208333333333333
142
0.0
142
0.0
142
0.0
142
0.0
142
1.0
142
0.0
142
0.0
142
0.0
142
0.0
142
1.0
179
0
144
0.0208333333333333
144
0.0
144
0.0
144
0.0
144
0.0
144
0.0208333333333333
144
0.0
144
0.0
144
0.0
144
0.0
144
1.0
144
0.0
144
0.0
144
0.0
144
0.0
144
1.0
147
0.0208333333333333
147
0.0
147
0.0
147
0.0
147
0.0
147
0.0208333333333333
147
0.0
147
0.0
147
0.0
147
0.0
147
1.0
147
0.0
147
0.0
147
0.0
147
0.0
147
1.0
0
MATERIAL
5
F8B
102
{ACAD_XDICTIONARY
360
F8C
102
}
102
{ACAD_REACTORS
330
F7A
102
}
330
F7A
100
AcDbMaterial
1
Global
72
0
43
0.0208333333333333
43
0.0
43
0.0
43
0.0
43
0.0
43
0.0208333333333333
43
0.0
43
0.0
43
0.0
43
0.0
43
1.0
43
0.0
43
0.0
43
0.0
43
0.0
43
1.0
77
0
47
0.0208333333333333
47
0.0
47
0.0
47
0.0
47
0.0
47
0.0208333333333333
47
0.0
47
0.0
47
0.0
47
0.0
47
1.0
47
0.0
47
0.0
47
0.0
47
0.0
47
1.0
171
0
49
0.0208333333333333
49
0.0
49
0.0
49
0.0
49
0.0
49
0.0208333333333333
49
0.0
49
0.0
49
0.0
49
0.0
49
1.0
49
0.0
49
0.0
49
0.0
49
0.0
49
1.0
175
0
142
0.0208333333333333
142
0.0
142
0.0
142
0.0
142
0.0
142
0.0208333333333333
142
0.0
142
0.0
142
0.0
142
0.0
142
1.0
142
0.0
142
0.0
142
0.0
142
0.0
142
1.0
179
0
144
0.0208333333333333
144
0.0
144
0.0
144
0.0
144
0.0
144
0.0208333333333333
144
0.0
144
0.0
144
0.0
144
0.0
144
1.0
144
0.0
144
0.0
144
0.0
144
0.0
144
1.0
147
0.0208333333333333
147
0.0
147
0.0
147
0.0
147
0.0
147
0.0208333333333333
147
0.0
147
0.0
147
0.0
147
0.0
147
1.0
147
0.0
147
0.0
147
0.0
147
0.0
147
1.0
0
MLEADERSTYLE
5
FCE
102
{ACAD_REACTORS
330
FCD
102
}
330
FCD
100
AcDbMLeaderStyle
170
2
171
1
172
0
90
2
40
0.0
41
0.0
173
1
91
-1056964608
340
256
92
-2
290
1
42
0.09
291
1
43
0.36
3
Standard
44
0.18
300

342
253
174
1
178
6
175
1
176
0
93
-1056964608
45
0.18
292
0
297
0
46
0.18
94
-1056964608
47
1.0
49
1.0
140
1.0
293
1
141
0.0
294
1
177
0
142
1.0
295
0
296
0
143
0.125
1001
ACAD_MLEADERVER
1070
2
0
MLINESTYLE
5
FAA
102
{ACAD_REACTORS
330
16
102
}
330
16
100
AcDbMlineStyle
2
STANDARD
70
0
3

62
256
51
90.0
52
90.0
71
2
49
0.5
62
256
6
BYLAYER
49
-0.5
62
256
6
BYLAYER
0
ACDBPLACEHOLDER
5
19
102
{ACAD_REACTORS
330
18
102
}
330
18
0
SCALE
5
FAC
102
{ACAD_REACTORS
330
FAB
102
}
330
FAB
100
AcDbScale
70
0
300
1:1
140
1.0
141
1.0
290
1
0
SCALE
5
FAD
102
{ACAD_REACTORS
330
FAB
102
}
330
FAB
100
AcDbScale
70
0
300
1:2
140
1.0
141
2.0
290
0
0
SCALE
5
FAE
102
{ACAD_REACTORS
330
FAB
102
}
330
FAB
100
AcDbScale
70
0
300
1:4
140
1.0
141
4.0
290
0
0
SCALE
5
FAF
102
{ACAD_REACTORS
330
FAB
102
}
330
FAB
100
AcDbScale
70
0
300
1:5
140
1.0
141
5.0
290
0
0
SCALE
5
FB0
102
{ACAD_REACTORS
330
FAB
102
}
330
FAB
100
AcDbScale
70
0
300
1:8
140
1.0
141
8.0
290
0
0
SCALE
5
FB1
102
{ACAD_REACTORS
330
FAB
102
}
330
FAB
100
AcDbScale
70
0
300
1:10
140
1.0
141
10.0
290
0
0
SCALE
5
FB2
102
{ACAD_REACTORS
330
FAB
102
}
330
FAB
100
AcDbScale
70
0
300
1:16
140
1.0
141
16.0
290
0
0
SCALE
5
FB3
102
{ACAD_REACTORS
330
FAB
102
}
330
FAB
100
AcDbScale
70
0
300
1:20
140
1.0
141
20.0
290
0
0
SCALE
5
FB4
102
{ACAD_REACTORS
330
FAB
102
}
330
FAB
100
AcDbScale
70
0
300
1:30
140
1.0
141
30.0
290
0
0
SCALE
5
FB5
102
{ACAD_REACTORS
330
FAB
102
}
330
FAB
100
AcDbScale
70
0
300
1:40
140
1.0
141
40.0
290
0
0
SCALE
5
FB6
102
{ACAD_REACTORS
330
FAB
102
}
330
FAB
100
AcDbScale
70
0
300
1:50
140
1.0
141
50.0
290
0
0
SCALE
5
FB7
102
{ACAD_REACTORS
330
FAB
102
}
330
FAB
100
AcDbScale
70
0
300
1:100
140
1.0
141
100.0
290
0
0
SCALE
5
FB8
102
{ACAD_REACTORS
330
FAB
102
}
330
FAB
100
AcDbScale
70
0
300
2:1
140
2.0
141
1.0
290
0
0
SCALE
5
FB9
102
{ACAD_REACTORS
330
FAB
102
}
330
FAB
100
AcDbScale
70
0
300
4:1
140
4.0
141
1.0
290
0
0
SCALE
5
FBA
102
{ACAD_REACTORS
330
FAB
102
}
330
FAB
100
AcDbScale
70
0
300
8:1
140
8.0
141
1.0
290
0
0
SCALE
5
FBB
102
{ACAD_REACTORS
330
FAB
102
}
330
FAB
100
AcDbScale
70
0
300
10:1
140
10.0
141
1.0
290
0
0
SCALE
5
FBC
102
{ACAD_REACTORS
330
FAB
102
}
330
FAB
100
AcDbScale
70
0
300
100:1
140
100.0
141
1.0
290
0
0
SCALE
5
FBD
102
{ACAD_REACTORS
330
FAB
102
}
330
FAB
100
AcDbScale
70
0
300
1/128" = 1'-0"
140
0.0078125
141
12.0
290
0
0
SCALE
5
FBE
102
{ACAD_REACTORS
330
FAB
102
}
330
FAB
100
AcDbScale
70
0
300
1/64" = 1'-0"
140
0.015625
141
12.0
290
0
0
SCALE
5
FBF
102
{ACAD_REACTORS
330
FAB
102
}
330
FAB
100
AcDbScale
70
0
300
1/32" = 1'-0"
140
0.03125
141
12.0
290
0
0
SCALE
5
FC0
102
{ACAD_REACTORS
330
FAB
102
}
330
FAB
100
AcDbScale
70
0
300
1/16" = 1'-0"
140
0.0625
141
12.0
290
0
0
SCALE
5
FC1
102
{ACAD_REACTORS
330
FAB
102
}
330
FAB
100
AcDbScale
70
0
300
3/32" = 1'-0"
140
0.09375
141
12.0
290
0
0
SCALE
5
FC2
102
{ACAD_REACTORS
330
FAB
102
}
330
FAB
100
AcDbScale
70
0
300
1/8" = 1'-0"
140
0.125
141
12.0
290
0
0
SCALE
5
FC3
102
{ACAD_REACTORS
330
FAB
102
}
330
FAB
100
AcDbScale
70
0
300
3/16" = 1'-0"
140
0.1875
141
12.0
290
0
0
SCALE
5
FC4
102
{ACAD_REACTORS
330
FAB
102
}
330
FAB
100
AcDbScale
70
0
300
1/4" = 1'-0"
140
0.25
141
12.0
290
0
0
SCALE
5
FC5
102
{ACAD_REACTORS
330
FAB
102
}
330
FAB
100
AcDbScale
70
0
300
3/8" = 1'-0"
140
0.375
141
12.0
290
0
0
SCALE
5
FC6
102
{ACAD_REACTORS
330
FAB
102
}
330
FAB
100
AcDbScale
70
0
300
1/2" = 1'-0"
140
0.5
141
12.0
290
0
0
SCALE
5
FC7
102
{ACAD_REACTORS
330
FAB
102
}
330
FAB
100
AcDbScale
70
0
300
3/4" = 1'-0"
140
0.75
141
12.0
290
0
0
SCALE
5
FC8
102
{ACAD_REACTORS
330
FAB
102
}
330
FAB
100
AcDbScale
70
0
300
1" = 1'-0"
140
1.0
141
12.0
290
0
0
SCALE
5
FC9
102
{ACAD_REACTORS
330
FAB
102
}
330
FAB
100
AcDbScale
70
0
300
1-1/2" = 1'-0"
140
1.5
141
12.0
290
0
0
SCALE
5
FCA
102
{ACAD_REACTORS
330
FAB
102
}
330
FAB
100
AcDbScale
70
0
300
3" = 1'-0"
140
3.0
141
12.0
290
0
0
SCALE
5
FCB
102
{ACAD_REACTORS
330
FAB
102
}
330
FAB
100
AcDbScale
70
0
300
6" = 1'-0"
140
6.0
141
12.0
290
0
0
SCALE
5
FCC
102
{ACAD_REACTORS
330
FAB
102
}
330
FAB
100
AcDbScale
70
0
300
1'-0" = 1'-0"
140
12.0
141
12.0
290
0
0
TABLESTYLE
5
FA9
102
{ACAD_XDICTIONARY
360
FF8
102
}
102
{ACAD_REACTORS
330
FA8
102
}
330
FA8
100
AcDbTableStyle
3
Standard
70
0
71
0
40
0.06
41
0.06
280
0
281
0
7
Standard
140
0.18
170
2
62
0
63
7
283
0
274
-2
284
1
64
0
275
-2
285
1
65
0
276
-2
286
1
66
0
277
-2
287
1
67
0
278
-2
288
1
68
0
279
-2
289
1
69
0
7
Standard
140
0.25
170
5
62
0
63
7
283
0
274
-2
284
1
64
0
275
-2
285
1
65
0
276
-2
286
1
66
0
277
-2
287
1
67
0
278
-2
288
1
68
0
279
-2
289
1
69
0
7
Standard
140
0.18
170
5
62
0
63
7
283
0
274
-2
284
1
64
0
275
-2
285
1
65
0
276
-2
286
1
66
0
277
-2
287
1
67
0
278
-2
288
1
68
0
279
-2
289
1
69
0
0
VISUALSTYLE
5
F99
102
{ACAD_XDICTIONARY
360
108A
102
}
102
{ACAD_REACTORS
330
F93
102
}
330
F93
100
AcDbVisualStyle
2

70
4
71
0
72
2
73
0
90
0
40
-0.6
41
-30.0
62
5
63
7
74
1
91
4
64
7
65
257
75
1
175
1
42
1.0
92
0
66
257
43
1.0
76
1
77
6
78
2
67
7
79
5
170
0
171
0
290
0
174
0
93
1
44
0.0
173
0
291
0
45
0.0
1001
ACAD
1000
AcDbSavedByObjectVersion
1070
0
0
VISUALSTYLE
5
F9B
102
{ACAD_XDICTIONARY
360
108E
102
}
102
{ACAD_REACTORS
330
F93
102
}
330
F93
100
AcDbVisualStyle
2

70
6
71
1
72
2
73
2
90
0
40
-0.6
41
-30.0
62
5
63
7
74
2
91
2
64
7
65
257
75
2
175
1
42
179.0
92
0
66
257
43
1.0
76
1
77
6
78
2
67
7
79
3
170
0
171
0
290
0
174
0
93
1
44
0.0
173
0
291
0
45
0.0
1001
ACAD
1000
AcDbSavedByObjectVersion
1070
0
0
VISUALSTYLE
5
F9A
102
{ACAD_XDICTIONARY
360
108C
102
}
102
{ACAD_REACTORS
330
F93
102
}
330
F93
100
AcDbVisualStyle
2

70
5
71
0
72
2
73
0
90
0
40
-0.6
41
-30.0
62
5
63
7
74
1
91
4
64
7
65
257
75
1
175
1
42
1.0
92
0
66
257
43
1.0
76
1
77
6
78
2
67
7
79
5
170
0
171
0
290
0
174
0
93
1
44
0.0
173
0
291
0
45
0.0
1001
ACAD
1000
AcDbSavedByObjectVersion
1070
0
0
VISUALSTYLE
5
F98
102
{ACAD_XDICTIONARY
360
1088
102
}
102
{ACAD_REACTORS
330
F93
102
}
330
F93
100
AcDbVisualStyle
2

70
7
71
1
72
0
73
1
90
0
40
-0.6
41
-30.0
62
5
63
7
74
0
91
4
64
7
65
257
75
1
175
1
42
1.0
92
8
66
7
43
1.0
76
1
77
6
78
2
67
7
79
5
170
0
171
0
290
0
174
0
93
1
44
0.0
173
0
291
1
45
0.0
1001
ACAD
1000
AcDbSavedByObjectVersion
1070
0
0
VISUALSTYLE
5
F9F
102
{ACAD_XDICTIONARY
360
1096
102
}
102
{ACAD_REACTORS
330
F93
102
}
330
F93
100
AcDbVisualStyle
2

70
12
71
2
72
2
73
0
90
0
40
-0.6
41
-30.0
62
5
63
7
74
1
91
4
64
7
65
257
75
1
175
1
42
1.0
92
8
66
7
43
1.0
76
1
77
6
78
2
67
7
79
5
170
0
171
0
290
0
174
0
93
1
44
50.0
173
0
291
1
45
0.0
1001
ACAD
1000
AcDbSavedByObjectVersion
1070
0
0
VISUALSTYLE
5
FA3
102
{ACAD_XDICTIONARY
360
109E
102
}
102
{ACAD_REACTORS
330
F93
102
}
330
F93
100
AcDbVisualStyle
2

70
16
71
2
72
2
73
3
90
0
40
-0.6
41
-30.0
62
5
63
8
74
1
91
4
64
7
65
257
75
1
175
1
42
1.0
92
8
66
8
43
1.0
76
1
77
6
78
2
67
7
79
5
170
0
171
0
290
0
174
0
93
1
44
0.0
173
0
291
1
45
0.0
1001
ACAD
1000
AcDbSavedByObjectVersion
1070
0
0
VISUALSTYLE
5
F9C
102
{ACAD_XDICTIONARY
360
1090
102
}
102
{ACAD_REACTORS
330
F93
102
}
330
F93
100
AcDbVisualStyle
2

70
9
71
3
72
2
73
0
90
0
40
-0.6
41
-30.0
62
5
63
7
74
2
91
2
64
7
65
257
75
1
175
1
42
179.0
92
8
66
7
43
1.0
76
1
77
6
78
2
67
7
79
3
170
0
171
0
290
0
174
0
93
1
44
0.0
173
0
291
0
45
0.0
1001
ACAD
1000
AcDbSavedByObjectVersion
1070
0
0
VISUALSTYLE
5
F9E
102
{ACAD_XDICTIONARY
360
1094
102
}
102
{ACAD_REACTORS
330
F93
102
}
330
F93
100
AcDbVisualStyle
2

70
11
71
2
72
2
73
0
90
0
40
-0.6
41
-30.0
62
5
63
7
74
1
91
4
64
7
65
257
75
1
175
1
42
1.0
92
8
66
7
43
1.0
76
1
77
6
78
2
67
7
79
5
170
0
171
0
290
0
174
0
93
1
44
-50.0
173
0
291
1
45
0.0
1001
ACAD
1000
AcDbSavedByObjectVersion
1070
0
0
VISUALSTYLE
5
FA6
102
{ACAD_XDICTIONARY
360
10A4
102
}
102
{ACAD_REACTORS
330
F93
102
}
330
F93
100
AcDbVisualStyle
2

70
22
71
2
72
2
73
0
90
0
40
-0.6
41
-30.0
62
5
63
7
74
1
91
4
64
7
65
257
75
1
175
1
42
1.0
92
8
66
7
43
1.0
76
1
77
6
78
2
67
7
79
5
170
0
171
0
290
0
174
0
93
1
44
0.0
173
0
291
1
45
0.0
1001
ACAD
1000
AcDbSavedByObjectVersion
1070
0
0
VISUALSTYLE
5
FA2
102
{ACAD_XDICTIONARY
360
109C
102
}
102
{ACAD_REACTORS
330
F93
102
}
330
F93
100
AcDbVisualStyle
2

70
15
71
2
72
2
73
0
90
0
40
-0.6
41
-30.0
62
5
63
7
74
1
91
4
64
7
65
257
75
1
175
1
42
1.0
92
8
66
7
43
1.0
76
1
77
6
78
2
67
7
79
5
170
0
171
0
290
0
174
0
93
1
44
0.0
173
0
291
1
45
0.0
1001
ACAD
1000
AcDbSavedByObjectVersion
1070
0
0
VISUALSTYLE
5
F94
102
{ACAD_XDICTIONARY
360
1080
102
}
102
{ACAD_REACTORS
330
F93
102
}
330
F93
100
AcDbVisualStyle
2

70
0
71
2
72
1
73
1
90
2
40
-0.6
41
30.0
62
5
63
7
74
0
91
4
64
7
65
257
75
1
175
1
42
1.0
92
8
66
7
43
1.0
76
1
77
6
78
2
67
7
79
5
170
0
171
0
290
0
174
0
93
13
44
0.0
173
0
291
1
45
0.0
1001
ACAD
1000
AcDbSavedByObjectVersion
1070
0
0
VISUALSTYLE
5
F95
102
{ACAD_XDICTIONARY
360
1082
102
}
102
{ACAD_REACTORS
330
F93
102
}
330
F93
100
AcDbVisualStyle
2

70
1
71
2
72
1
73
1
90
2
40
-0.6
41
30.0
62
5
63
7
74
1
91
4
64
7
65
257
75
1
175
1
42
1.0
92
0
66
257
43
1.0
76
1
77
6
78
2
67
7
79
5
170
0
171
0
290
0
174
0
93
13
44
0.0
173
0
291
1
45
0.0
1001
ACAD
1000
AcDbSavedByObjectVersion
1070
0
0
VISUALSTYLE
5
F96
102
{ACAD_XDICTIONARY
360
1084
102
}
102
{ACAD_REACTORS
330
F93
102
}
330
F93
100
AcDbVisualStyle
2

70
2
71
2
72
2
73
1
90
2
40
-0.6
41
30.0
62
5
63
7
74
0
91
4
64
7
65
257
75
1
175
1
42
1.0
92
0
66
7
43
1.0
76
1
77
6
78
2
67
7
79
5
170
0
171
0
290
0
174
0
93
13
44
0.0
173
0
291
1
45
0.0
1001
ACAD
1000
AcDbSavedByObjectVersion
1070
0
0
VISUALSTYLE
5
F97
102
{ACAD_XDICTIONARY
360
1086
102
}
102
{ACAD_REACTORS
330
F93
102
}
330
F93
100
AcDbVisualStyle
2

70
3
71
2
72
2
73
1
90
2
40
-0.6
41
30.0
62
5
63
7
74
1
91
4
64
7
65
257
75
1
175
1
42
1.0
92
0
66
257
43
1.0
76
1
77
6
78
2
67
7
79
5
170
0
171
0
290
0
174
0
93
13
44
0.0
173
0
291
1
45
0.0
1001
ACAD
1000
AcDbSavedByObjectVersion
1070
0
0
VISUALSTYLE
5
FA4
102
{ACAD_XDICTIONARY
360
10A0
102
}
102
{ACAD_REACTORS
330
F93
102
}
330
F93
100
AcDbVisualStyle
2

70
20
71
2
72
2
73
0
90
0
40
-0.6
41
-30.0
62
5
63
7
74
1
91
4
64
7
65
257
75
1
175
1
42
1.0
92
10
66
7
43
1.0
76
1
77
6
78
2
67
7
79
5
170
0
171
0
290
0
174
0
93
1
44
0.0
173
0
291
1
45
0.0
1001
ACAD
1000
AcDbSavedByObjectVersion
1070
0
0
VISUALSTYLE
5
FA1
102
{ACAD_XDICTIONARY
360
109A
102
}
102
{ACAD_REACTORS
330
F93
102
}
330
F93
100
AcDbVisualStyle
2

70
14
71
2
72
2
73
0
90
0
40
-0.6
41
-30.0
62
5
63
7
74
1
91
4
64
7
65
257
75
7
175
7
42
1.0
92
8
66
7
43
1.0
76
1
77
6
78
2
67
7
79
5
170
0
171
0
290
0
174
0
93
1
44
0.0
173
0
291
1
45
0.0
1001
ACAD
1000
AcDbSavedByObjectVersion
1070
0
0
VISUALSTYLE
5
FA5
102
{ACAD_XDICTIONARY
360
10A2
102
}
102
{ACAD_REACTORS
330
F93
102
}
330
F93
100
AcDbVisualStyle
2

70
21
71
2
72
2
73
0
90
0
40
-0.6
41
-30.0
62
5
63
7
74
1
91
4
64
7
65
257
75
1
175
1
42
1.0
92
9
66
7
43
1.0
76
1
77
6
78
2
67
7
79
5
170
0
171
0
290
0
174
0
93
1
44
0.0
173
0
291
1
45
0.0
1001
ACAD
1000
AcDbSavedByObjectVersion
1070
0
0
VISUALSTYLE
5
F9D
102
{ACAD_XDICTIONARY
360
1092
102
}
102
{ACAD_REACTORS
330
F93
102
}
330
F93
100
AcDbVisualStyle
2

70
8
71
2
72
2
73
0
90
0
40
-0.6
41
-30.0
62
5
63
7
74
1
91
0
64
7
65
257
75
1
175
1
42
1.0
92
8
66
8
43
1.0
76
1
77
6
78
2
67
7
79
5
170
0
171
0
290
0
174
0
93
13
44
0.0
173
0
291
0
45
0.0
1001
ACAD
1000
AcDbSavedByObjectVersion
1070
0
0
VISUALSTYLE
5
FA0
102
{ACAD_XDICTIONARY
360
1098
102
}
102
{ACAD_REACTORS
330
F93
102
}
330
F93
100
AcDbVisualStyle
2

70
13
71
2
72
2
73
0
90
0
40
-0.6
41
-30.0
62
5
63
7
74
1
91
4
64
7
65
257
75
1
175
1
42
1.0
92
12
66
7
43
1.0
76
1
77
6
78
2
67
7
79
5
170
0
171
0
290
0
174
0
93
1
44
0.0
173
0
291
1
45
0.0
1001
ACAD
1000
AcDbSavedByObjectVersion
1070
0
0
DICTIONARYVAR
5
FF3
102
{ACAD_REACTORS
330
FF0
102
}
330
FF0
100
DictionaryVariables
280
0
1
1:1
0
DICTIONARYVAR
5
FF2
102
{ACAD_REACTORS
330
FF0
102
}
330
FF0
100
DictionaryVariables
280
0
1
STANDARD
0
DICTIONARYVAR
5
FF1
102
{ACAD_REACTORS
330
FF0
102
}
330
FF0
100
DictionaryVariables
280
0
1
STANDARD
0
DICTIONARYVAR
5
FF6
102
{ACAD_REACTORS
330
FF0
102
}
330
FF0
100
DictionaryVariables
280
0
1
1
0
DICTIONARYVAR
5
FF5
102
{ACAD_REACTORS
330
FF0
102
}
330
FF0
100
DictionaryVariables
280
0
1
0
0
DICTIONARYVAR
5
FF4
102
{ACAD_REACTORS
330
FF0
102
}
330
FF0
100
DictionaryVariables
280
0
1
127
0
DICTIONARYVAR
5
1078
102
{ACAD_REACTORS
330
FF0
102
}
330
FF0
100
DictionaryVariables
280
0
1
2
0
DICTIONARY
5
10A9
330
FD1
100
AcDbDictionary
280
1
281
1
3
ACAD_XREC_ROUNDTRIP
360
10AA
0
DICTIONARY
5
10A7
330
FD0
100
AcDbDictionary
280
1
281
1
3
ACAD_XREC_ROUNDTRIP
360
10A8
0
DICTIONARY
5
F84
330
F83
100
AcDbDictionary
280
1
281
1
3
ACAD_XREC_ROUNDTRIP
360
FFF
3
BUMPTILE
360
F86
3
DIFFUSETILE
360
F85
3
OPACITYTILE
360
F89
3
REFLECTIONTILE
360
F88
3
REFRACTIONTILE
360
F8A
3
SPECULARTILE
360
F87
0
DICTIONARY
5
F7C
330
F7B
100
AcDbDictionary
280
1
281
1
3
ACAD_XREC_ROUNDTRIP
360
FFE
3
BUMPTILE
360
F7E
3
DIFFUSETILE
360
F7D
3
OPACITYTILE
360
F81
3
REFLECTIONTILE
360
F80
3
REFRACTIONTILE
360
F82
3
SPECULARTILE
360
F7F
0
DICTIONARY
5
F8C
330
F8B
100
AcDbDictionary
280
1
281
1
3
ACAD_XREC_ROUNDTRIP
360
1000
3
BUMPTILE
360
F8E
3
DIFFUSETILE
360
F8D
3
OPACITYTILE
360
F91
3
REFLECTIONTILE
360
F90
3
REFRACTIONTILE
360
F92
3
SPECULARTILE
360
F8F
0
DICTIONARY
5
FF8
330
FA9
100
AcDbDictionary
280
1
281
1
3
ACAD_ROUNDTRIP_2008_TABLESTYLE_CELLSTYLEMAP
360
1079
3
ACAD_XREC_ROUNDTRIP
360
10A6
0
DICTIONARY
5
108A
330
F99
100
AcDbDictionary
280
1
281
1
3
ACAD_XREC_ROUNDTRIP
360
108B
0
DICTIONARY
5
108E
330
F9B
100
AcDbDictionary
280
1
281
1
3
ACAD_XREC_ROUNDTRIP
360
108F
0
DICTIONARY
5
108C
330
F9A
100
AcDbDictionary
280
1
281
1
3
ACAD_XREC_ROUNDTRIP
360
108D
0
DICTIONARY
5
1088
330
F98
100
AcDbDictionary
280
1
281
1
3
ACAD_XREC_ROUNDTRIP
360
1089
0
DICTIONARY
5
1096
330
F9F
100
AcDbDictionary
280
1
281
1
3
ACAD_XREC_ROUNDTRIP
360
1097
0
DICTIONARY
5
109E
330
FA3
100
AcDbDictionary
280
1
281
1
3
ACAD_XREC_ROUNDTRIP
360
109F
0
DICTIONARY
5
1090
330
F9C
100
AcDbDictionary
280
1
281
1
3
ACAD_XREC_ROUNDTRIP
360
1091
0
DICTIONARY
5
1094
330
F9E
100
AcDbDictionary
280
1
281
1
3
ACAD_XREC_ROUNDTRIP
360
1095
0
DICTIONARY
5
10A4
330
FA6
100
AcDbDictionary
280
1
281
1
3
ACAD_XREC_ROUNDTRIP
360
10A5
0
DICTIONARY
5
109C
330
FA2
100
AcDbDictionary
280
1
281
1
3
ACAD_XREC_ROUNDTRIP
360
109D
0
DICTIONARY
5
1080
330
F94
100
AcDbDictionary
280
1
281
1
3
ACAD_XREC_ROUNDTRIP
360
1081
0
DICTIONARY
5
1082
330
F95
100
AcDbDictionary
280
1
281
1
3
ACAD_XREC_ROUNDTRIP
360
1083
0
DICTIONARY
5
1084
330
F96
100
AcDbDictionary
280
1
281
1
3
ACAD_XREC_ROUNDTRIP
360
1085
0
DICTIONARY
5
1086
330
F97
100
AcDbDictionary
280
1
281
1
3
ACAD_XREC_ROUNDTRIP
360
1087
0
DICTIONARY
5
10A0
330
FA4
100
AcDbDictionary
280
1
281
1
3
ACAD_XREC_ROUNDTRIP
360
10A1
0
DICTIONARY
5
109A
330
FA1
100
AcDbDictionary
280
1
281
1
3
ACAD_XREC_ROUNDTRIP
360
109B
0
DICTIONARY
5
10A2
330
FA5
100
AcDbDictionary
280
1
281
1
3
ACAD_XREC_ROUNDTRIP
360
10A3
0
DICTIONARY
5
1092
330
F9D
100
AcDbDictionary
280
1
281
1
3
ACAD_XREC_ROUNDTRIP
360
1093
0
DICTIONARY
5
1098
330
FA0
100
AcDbDictionary
280
1
281
1
3
ACAD_XREC_ROUNDTRIP
360
1099
0
XRECORD
5
10AA
102
{ACAD_REACTORS
330
10A9
102
}
330
10A9
100
AcDbXrecord
280
1
102
SHADEPLOT
70
0
102
SHADEPLOTRESLEVEL
70
2
102
SHADEPLOTCUSTOMDPI
70
300
0
XRECORD
5
10A8
102
{ACAD_REACTORS
330
10A7
102
}
330
10A7
100
AcDbXrecord
280
1
102
SHADEPLOT
70
0
102
SHADEPLOTRESLEVEL
70
2
102
SHADEPLOTCUSTOMDPI
70
300
0
XRECORD
5
FFF
102
{ACAD_REACTORS
330
F84
102
}
330
F84
100
AcDbXrecord
280
1
102
MATERIAL
148
0.0
149
0.0
149
0.0
93
0
94
127
282
0
72
0
77
0
171
0
175
0
179
0
273
0
0
XRECORD
5
F86
102
{ACAD_REACTORS
330
F84
102
}
330
F84
100
AcDbXrecord
280
1
270
1
271
1
0
XRECORD
5
F85
102
{ACAD_REACTORS
330
F84
102
}
330
F84
100
AcDbXrecord
280
1
270
1
271
1
0
XRECORD
5
F89
102
{ACAD_REACTORS
330
F84
102
}
330
F84
100
AcDbXrecord
280
1
270
1
271
1
0
XRECORD
5
F88
102
{ACAD_REACTORS
330
F84
102
}
330
F84
100
AcDbXrecord
280
1
270
1
271
1
0
XRECORD
5
F8A
102
{ACAD_REACTORS
330
F84
102
}
330
F84
100
AcDbXrecord
280
1
270
1
271
1
0
XRECORD
5
F87
102
{ACAD_REACTORS
330
F84
102
}
330
F84
100
AcDbXrecord
280
1
270
1
271
1
0
XRECORD
5
FFE
102
{ACAD_REACTORS
330
F7C
102
}
330
F7C
100
AcDbXrecord
280
1
102
MATERIAL
148
0.0
149
0.0
149
0.0
93
0
94
127
282
0
72
0
77
0
171
0
175
0
179
0
273
0
0
XRECORD
5
F7E
102
{ACAD_REACTORS
330
F7C
102
}
330
F7C
100
AcDbXrecord
280
1
270
1
271
1
0
XRECORD
5
F7D
102
{ACAD_REACTORS
330
F7C
102
}
330
F7C
100
AcDbXrecord
280
1
270
1
271
1
0
XRECORD
5
F81
102
{ACAD_REACTORS
330
F7C
102
}
330
F7C
100
AcDbXrecord
280
1
270
1
271
1
0
XRECORD
5
F80
102
{ACAD_REACTORS
330
F7C
102
}
330
F7C
100
AcDbXrecord
280
1
270
1
271
1
0
XRECORD
5
F82
102
{ACAD_REACTORS
330
F7C
102
}
330
F7C
100
AcDbXrecord
280
1
270
1
271
1
0
XRECORD
5
F7F
102
{ACAD_REACTORS
330
F7C
102
}
330
F7C
100
AcDbXrecord
280
1
270
1
271
1
0
XRECORD
5
1000
102
{ACAD_REACTORS
330
F8C
102
}
330
F8C
100
AcDbXrecord
280
1
102
MATERIAL
148
0.0
149
0.0
149
0.0
93
0
94
127
282
0
72
0
77
0
171
0
175
0
179
0
273
0
0
XRECORD
5
F8E
102
{ACAD_REACTORS
330
F8C
102
}
330
F8C
100
AcDbXrecord
280
1
270
1
271
1
0
XRECORD
5
F8D
102
{ACAD_REACTORS
330
F8C
102
}
330
F8C
100
AcDbXrecord
280
1
270
1
271
1
0
XRECORD
5
F91
102
{ACAD_REACTORS
330
F8C
102
}
330
F8C
100
AcDbXrecord
280
1
270
1
271
1
0
XRECORD
5
F90
102
{ACAD_REACTORS
330
F8C
102
}
330
F8C
100
AcDbXrecord
280
1
270
1
271
1
0
XRECORD
5
F92
102
{ACAD_REACTORS
330
F8C
102
}
330
F8C
100
AcDbXrecord
280
1
270
1
271
1
0
XRECORD
5
F8F
102
{ACAD_REACTORS
330
F8C
102
}
330
F8C
100
AcDbXrecord
280
1
270
1
271
1
0
CELLSTYLEMAP
5
1079
102
{ACAD_REACTORS
330
FF8
102
}
330
FF8
100
AcDbCellStyleMap
90
3
300
CELLSTYLE
1
TABLEFORMAT_BEGIN
90
5
170
1
91
0
92
32768
62
257
93
1
300
CONTENTFORMAT
1
CONTENTFORMAT_BEGIN
90
0
91
0
92
512
93
0
300

40
0.0
140
1.0
94
5
62
0
340
253
144
0.25
309
CONTENTFORMAT_END
171
1
301
MARGIN
1
CELLMARGIN_BEGIN
40
0.06
40
0.06
40
0.06
40
0.06
40
0.18
40
0.18
309
CELLMARGIN_END
94
6
95
1
302
GRIDFORMAT
1
GRIDFORMAT_BEGIN
90
0
91
1
62
0
92
-2
340
0
93
0
40
0.045
309
GRIDFORMAT_END
95
2
302
GRIDFORMAT
1
GRIDFORMAT_BEGIN
90
0
91
1
62
0
92
-2
340
0
93
0
40
0.045
309
GRIDFORMAT_END
95
4
302
GRIDFORMAT
1
GRIDFORMAT_BEGIN
90
0
91
1
62
0
92
-2
340
0
93
0
40
0.045
309
GRIDFORMAT_END
95
8
302
GRIDFORMAT
1
GRIDFORMAT_BEGIN
90
0
91
1
62
0
92
-2
340
0
93
0
40
0.045
309
GRIDFORMAT_END
95
16
302
GRIDFORMAT
1
GRIDFORMAT_BEGIN
90
0
91
1
62
0
92
-2
340
0
93
0
40
0.045
309
GRIDFORMAT_END
95
32
302
GRIDFORMAT
1
GRIDFORMAT_BEGIN
90
0
91
1
62
0
92
-2
340
0
93
0
40
0.045
309
GRIDFORMAT_END
309
TABLEFORMAT_END
1
CELLSTYLE_BEGIN
90
1
91
1
300
_TITLE
309
CELLSTYLE_END
300
CELLSTYLE
1
TABLEFORMAT_BEGIN
90
5
170
1
91
0
92
0
62
257
93
1
300
CONTENTFORMAT
1
CONTENTFORMAT_BEGIN
90
0
91
0
92
512
93
0
300

40
0.0
140
1.0
94
5
62
0
340
253
144
0.18
309
CONTENTFORMAT_END
171
1
301
MARGIN
1
CELLMARGIN_BEGIN
40
0.06
40
0.06
40
0.06
40
0.06
40
0.18
40
0.18
309
CELLMARGIN_END
94
6
95
1
302
GRIDFORMAT
1
GRIDFORMAT_BEGIN
90
0
91
1
62
0
92
-2
340
0
93
0
40
0.045
309
GRIDFORMAT_END
95
2
302
GRIDFORMAT
1
GRIDFORMAT_BEGIN
90
0
91
1
62
0
92
-2
340
0
93
0
40
0.045
309
GRIDFORMAT_END
95
4
302
GRIDFORMAT
1
GRIDFORMAT_BEGIN
90
0
91
1
62
0
92
-2
340
0
93
0
40
0.045
309
GRIDFORMAT_END
95
8
302
GRIDFORMAT
1
GRIDFORMAT_BEGIN
90
0
91
1
62
0
92
-2
340
0
93
0
40
0.045
309
GRIDFORMAT_END
95
16
302
GRIDFORMAT
1
GRIDFORMAT_BEGIN
90
0
91
1
62
0
92
-2
340
0
93
0
40
0.045
309
GRIDFORMAT_END
95
32
302
GRIDFORMAT
1
GRIDFORMAT_BEGIN
90
0
91
1
62
0
92
-2
340
0
93
0
40
0.045
309
GRIDFORMAT_END
309
TABLEFORMAT_END
1
CELLSTYLE_BEGIN
90
2
91
1
300
_HEADER
309
CELLSTYLE_END
300
CELLSTYLE
1
TABLEFORMAT_BEGIN
90
5
170
1
91
0
92
0
62
257
93
1
300
CONTENTFORMAT
1
CONTENTFORMAT_BEGIN
90
0
91
0
92
512
93
0
300

40
0.0
140
1.0
94
2
62
0
340
253
144
0.18
309
CONTENTFORMAT_END
171
1
301
MARGIN
1
CELLMARGIN_BEGIN
40
0.06
40
0.06
40
0.06
40
0.06
40
0.18
40
0.18
309
CELLMARGIN_END
94
6
95
1
302
GRIDFORMAT
1
GRIDFORMAT_BEGIN
90
0
91
1
62
0
92
-2
340
0
93
0
40
0.045
309
GRIDFORMAT_END
95
2
302
GRIDFORMAT
1
GRIDFORMAT_BEGIN
90
0
91
1
62
0
92
-2
340
0
93
0
40
0.045
309
GRIDFORMAT_END
95
4
302
GRIDFORMAT
1
GRIDFORMAT_BEGIN
90
0
91
1
62
0
92
-2
340
0
93
0
40
0.045
309
GRIDFORMAT_END
95
8
302
GRIDFORMAT
1
GRIDFORMAT_BEGIN
90
0
91
1
62
0
92
-2
340
0
93
0
40
0.045
309
GRIDFORMAT_END
95
16
302
GRIDFORMAT
1
GRIDFORMAT_BEGIN
90
0
91
1
62
0
92
-2
340
0
93
0
40
0.045
309
GRIDFORMAT_END
95
32
302
GRIDFORMAT
1
GRIDFORMAT_BEGIN
90
0
91
1
62
0
92
-2
340
0
93
0
40
0.045
309
GRIDFORMAT_END
309
TABLEFORMAT_END
1
CELLSTYLE_BEGIN
90
3
91
2
300
_DATA
309
CELLSTYLE_END
0
XRECORD
5
10A6
102
{ACAD_REACTORS
330
FF8
102
}
330
FF8
100
AcDbXrecord
280
1
102
ACAD_ROUNDTRIP_PRE2007_TABLESTYLE
90
512
91
0
1

92
512
93
0
2

94
512
95
0
3

0
XRECORD
5
108B
102
{ACAD_REACTORS
330
108A
102
}
330
108A
100
AcDbXrecord
280
1
102
RTVSPropertyOp0
70
1
102
RTVSPropertyOp1
70
1
102
RTVSPropertyOp2
70
1
102
RTVSPropertyOp3
70
1
102
RTVSPropertyOp4
70
1
102
RTVSPropertyOp5
70
1
102
RTVSPropertyOp6
70
1
102
RTVSPropertyOp7
70
1
102
RTVSPropertyOp8
70
1
102
RTVSPropertyOp9
70
1
102
RTVSPropertyOp10
70
1
102
RTVSPropertyOp11
70
1
102
RTVSPropertyOp12
70
1
102
RTVSPropertyOp13
70
1
102
RTVSPropertyOp14
70
1
102
RTVSPropertyOp15
70
1
102
RTVSPropertyOp16
70
1
102
RTVSPropertyOp17
70
1
102
RTVSPropertyOp18
70
1
102
RTVSPropertyOp19
70
1
102
RTVSPropertyOp20
70
1
102
RTVSPropertyOp21
70
1
102
RTVSPropertyOp22
70
1
102
RTVSPropertyOp23
70
1
102
RTVSPropertyOp24
70
1
102
RTVSPropertyOp25
70
1
102
RTVSPropertyOp26
70
1
102
RTVSPropertyOp27
70
1
0
XRECORD
5
108F
102
{ACAD_REACTORS
330
108E
102
}
330
108E
100
AcDbXrecord
280
1
102
RTVSPropertyOp0
70
1
102
RTVSPropertyOp1
70
1
102
RTVSPropertyOp2
70
1
102
RTVSPropertyOp3
70
1
102
RTVSPropertyOp4
70
1
102
RTVSPropertyOp5
70
1
102
RTVSPropertyOp6
70
1
102
RTVSPropertyOp7
70
1
102
RTVSPropertyOp8
70
1
102
RTVSPropertyOp9
70
1
102
RTVSPropertyOp10
70
1
102
RTVSPropertyOp11
70
1
102
RTVSPropertyOp12
70
1
102
RTVSPropertyOp13
70
1
102
RTVSPropertyOp14
70
1
102
RTVSPropertyOp15
70
1
102
RTVSPropertyOp16
70
1
102
RTVSPropertyOp17
70
1
102
RTVSPropertyOp18
70
1
102
RTVSPropertyOp19
70
1
102
RTVSPropertyOp20
70
1
102
RTVSPropertyOp21
70
1
102
RTVSPropertyOp22
70
1
102
RTVSPropertyOp23
70
1
102
RTVSPropertyOp24
70
1
102
RTVSPropertyOp25
70
1
102
RTVSPropertyOp26
70
1
102
RTVSPropertyOp27
70
1
0
XRECORD
5
108D
102
{ACAD_REACTORS
330
108C
102
}
330
108C
100
AcDbXrecord
280
1
102
RTVSPropertyOp0
70
1
102
RTVSPropertyOp1
70
1
102
RTVSPropertyOp2
70
1
102
RTVSPropertyOp3
70
1
102
RTVSPropertyOp4
70
1
102
RTVSPropertyOp5
70
1
102
RTVSPropertyOp6
70
1
102
RTVSPropertyOp7
70
1
102
RTVSPropertyOp8
70
1
102
RTVSPropertyOp9
70
1
102
RTVSPropertyOp10
70
1
102
RTVSPropertyOp11
70
1
102
RTVSPropertyOp12
70
1
102
RTVSPropertyOp13
70
1
102
RTVSPropertyOp14
70
1
102
RTVSPropertyOp15
70
1
102
RTVSPropertyOp16
70
1
102
RTVSPropertyOp17
70
1
102
RTVSPropertyOp18
70
1
102
RTVSPropertyOp19
70
1
102
RTVSPropertyOp20
70
1
102
RTVSPropertyOp21
70
1
102
RTVSPropertyOp22
70
1
102
RTVSPropertyOp23
70
1
102
RTVSPropertyOp24
70
1
102
RTVSPropertyOp25
70
1
102
RTVSPropertyOp26
70
1
102
RTVSPropertyOp27
70
1
0
XRECORD
5
1089
102
{ACAD_REACTORS
330
1088
102
}
330
1088
100
AcDbXrecord
280
1
102
RTVSPropertyOp0
70
1
102
RTVSPropertyOp1
70
1
102
RTVSPropertyOp2
70
1
102
RTVSPropertyOp3
70
1
102
RTVSPropertyOp4
70
1
102
RTVSPropertyOp5
70
1
102
RTVSPropertyOp6
70
1
102
RTVSPropertyOp7
70
1
102
RTVSPropertyOp8
70
1
102
RTVSPropertyOp9
70
1
102
RTVSPropertyOp10
70
1
102
RTVSPropertyOp11
70
1
102
RTVSPropertyOp12
70
1
102
RTVSPropertyOp13
70
1
102
RTVSPropertyOp14
70
1
102
RTVSPropertyOp15
70
1
102
RTVSPropertyOp16
70
1
102
RTVSPropertyOp17
70
1
102
RTVSPropertyOp18
70
1
102
RTVSPropertyOp19
70
1
102
RTVSPropertyOp20
70
1
102
RTVSPropertyOp21
70
1
102
RTVSPropertyOp22
70
1
102
RTVSPropertyOp23
70
1
102
RTVSPropertyOp24
70
1
102
RTVSPropertyOp25
70
1
102
RTVSPropertyOp26
70
1
102
RTVSPropertyOp27
70
1
0
XRECORD
5
1097
102
{ACAD_REACTORS
330
1096
102
}
330
1096
100
AcDbXrecord
280
1
102
RTVSPropertyOp0
70
1
102
RTVSPropertyOp1
70
1
102
RTVSPropertyOp2
70
1
102
RTVSPropertyOp3
70
1
102
RTVSPropertyOp4
70
1
102
RTVSPropertyOp5
70
1
102
RTVSPropertyOp6
70
1
102
RTVSPropertyOp7
70
1
102
RTVSPropertyOp8
70
1
102
RTVSPropertyOp9
70
1
102
RTVSPropertyOp10
70
1
102
RTVSPropertyOp11
70
1
102
RTVSPropertyOp12
70
1
102
RTVSPropertyOp13
70
1
102
RTVSPropertyOp14
70
1
102
RTVSPropertyOp15
70
1
102
RTVSPropertyOp16
70
1
102
RTVSPropertyOp17
70
1
102
RTVSPropertyOp18
70
1
102
RTVSPropertyOp19
70
1
102
RTVSPropertyOp20
70
1
102
RTVSPropertyOp21
70
1
102
RTVSPropertyOp22
70
1
102
RTVSPropertyOp23
70
1
102
RTVSPropertyOp24
70
1
102
RTVSPropertyOp25
70
1
102
RTVSPropertyOp26
70
1
102
RTVSPropertyOp27
70
1
0
XRECORD
5
109F
102
{ACAD_REACTORS
330
109E
102
}
330
109E
100
AcDbXrecord
280
1
102
RTVSPropertyOp0
70
1
102
RTVSPropertyOp1
70
1
102
RTVSPropertyOp2
70
1
102
RTVSPropertyOp3
70
1
102
RTVSPropertyOp4
70
1
102
RTVSPropertyOp5
70
1
102
RTVSPropertyOp6
70
1
102
RTVSPropertyOp7
70
1
102
RTVSPropertyOp8
70
1
102
RTVSPropertyOp9
70
1
102
RTVSPropertyOp10
70
1
102
RTVSPropertyOp11
70
1
102
RTVSPropertyOp12
70
1
102
RTVSPropertyOp13
70
1
102
RTVSPropertyOp14
70
1
102
RTVSPropertyOp15
70
1
102
RTVSPropertyOp16
70
1
102
RTVSPropertyOp17
70
1
102
RTVSPropertyOp18
70
1
102
RTVSPropertyOp19
70
1
102
RTVSPropertyOp20
70
1
102
RTVSPropertyOp21
70
1
102
RTVSPropertyOp22
70
1
102
RTVSPropertyOp23
70
1
102
RTVSPropertyOp24
70
1
102
RTVSPropertyOp25
70
1
102
RTVSPropertyOp26
70
1
102
RTVSPropertyOp27
70
1
0
XRECORD
5
1091
102
{ACAD_REACTORS
330
1090
102
}
330
1090
100
AcDbXrecord
280
1
102
RTVSPropertyOp0
70
1
102
RTVSPropertyOp1
70
1
102
RTVSPropertyOp2
70
1
102
RTVSPropertyOp3
70
1
102
RTVSPropertyOp4
70
1
102
RTVSPropertyOp5
70
1
102
RTVSPropertyOp6
70
1
102
RTVSPropertyOp7
70
1
102
RTVSPropertyOp8
70
1
102
RTVSPropertyOp9
70
1
102
RTVSPropertyOp10
70
1
102
RTVSPropertyOp11
70
1
102
RTVSPropertyOp12
70
1
102
RTVSPropertyOp13
70
1
102
RTVSPropertyOp14
70
1
102
RTVSPropertyOp15
70
1
102
RTVSPropertyOp16
70
1
102
RTVSPropertyOp17
70
1
102
RTVSPropertyOp18
70
1
102
RTVSPropertyOp19
70
1
102
RTVSPropertyOp20
70
1
102
RTVSPropertyOp21
70
1
102
RTVSPropertyOp22
70
1
102
RTVSPropertyOp23
70
1
102
RTVSPropertyOp24
70
1
102
RTVSPropertyOp25
70
1
102
RTVSPropertyOp26
70
1
102
RTVSPropertyOp27
70
1
0
XRECORD
5
1095
102
{ACAD_REACTORS
330
1094
102
}
330
1094
100
AcDbXrecord
280
1
102
RTVSPropertyOp0
70
1
102
RTVSPropertyOp1
70
1
102
RTVSPropertyOp2
70
1
102
RTVSPropertyOp3
70
1
102
RTVSPropertyOp4
70
1
102
RTVSPropertyOp5
70
1
102
RTVSPropertyOp6
70
1
102
RTVSPropertyOp7
70
1
102
RTVSPropertyOp8
70
1
102
RTVSPropertyOp9
70
1
102
RTVSPropertyOp10
70
1
102
RTVSPropertyOp11
70
1
102
RTVSPropertyOp12
70
1
102
RTVSPropertyOp13
70
1
102
RTVSPropertyOp14
70
1
102
RTVSPropertyOp15
70
1
102
RTVSPropertyOp16
70
1
102
RTVSPropertyOp17
70
1
102
RTVSPropertyOp18
70
1
102
RTVSPropertyOp19
70
1
102
RTVSPropertyOp20
70
1
102
RTVSPropertyOp21
70
1
102
RTVSPropertyOp22
70
1
102
RTVSPropertyOp23
70
1
102
RTVSPropertyOp24
70
1
102
RTVSPropertyOp25
70
1
102
RTVSPropertyOp26
70
1
102
RTVSPropertyOp27
70
1
0
XRECORD
5
10A5
102
{ACAD_REACTORS
330
10A4
102
}
330
10A4
100
AcDbXrecord
280
1
102
RTVSPropertyOp0
70
0
102
RTVSPropertyOp1
70
0
102
RTVSPropertyOp2
70
0
102
RTVSPropertyOp3
70
0
102
RTVSPropertyOp4
70
0
102
RTVSPropertyOp5
70
0
102
RTVSPropertyOp6
70
0
102
RTVSPropertyOp7
70
0
102
RTVSPropertyOp8
70
0
102
RTVSPropertyOp9
70
0
102
RTVSPropertyOp10
70
0
102
RTVSPropertyOp11
70
0
102
RTVSPropertyOp12
70
0
102
RTVSPropertyOp13
70
0
102
RTVSPropertyOp14
70
2
102
RTVSPropertyOp15
70
0
102
RTVSPropertyOp16
70
0
102
RTVSPropertyOp17
70
0
102
RTVSPropertyOp18
70
0
102
RTVSPropertyOp19
70
0
102
RTVSPropertyOp20
70
0
102
RTVSPropertyOp21
70
0
102
RTVSPropertyOp22
70
0
102
RTVSPropertyOp23
70
0
102
RTVSPropertyOp24
70
0
102
RTVSPropertyOp25
70
0
102
RTVSPropertyOp26
70
0
102
RTVSPropertyOp27
70
0
0
XRECORD
5
109D
102
{ACAD_REACTORS
330
109C
102
}
330
109C
100
AcDbXrecord
280
1
102
RTVSPropertyOp0
70
1
102
RTVSPropertyOp1
70
1
102
RTVSPropertyOp2
70
1
102
RTVSPropertyOp3
70
1
102
RTVSPropertyOp4
70
1
102
RTVSPropertyOp5
70
1
102
RTVSPropertyOp6
70
1
102
RTVSPropertyOp7
70
1
102
RTVSPropertyOp8
70
1
102
RTVSPropertyOp9
70
1
102
RTVSPropertyOp10
70
1
102
RTVSPropertyOp11
70
1
102
RTVSPropertyOp12
70
1
102
RTVSPropertyOp13
70
1
102
RTVSPropertyOp14
70
1
102
RTVSPropertyOp15
70
1
102
RTVSPropertyOp16
70
1
102
RTVSPropertyOp17
70
1
102
RTVSPropertyOp18
70
1
102
RTVSPropertyOp19
70
1
102
RTVSPropertyOp20
70
1
102
RTVSPropertyOp21
70
1
102
RTVSPropertyOp22
70
1
102
RTVSPropertyOp23
70
1
102
RTVSPropertyOp24
70
1
102
RTVSPropertyOp25
70
1
102
RTVSPropertyOp26
70
1
102
RTVSPropertyOp27
70
1
0
XRECORD
5
1081
102
{ACAD_REACTORS
330
1080
102
}
330
1080
100
AcDbXrecord
280
1
102
RTVSPropertyOp0
70
1
102
RTVSPropertyOp1
70
1
102
RTVSPropertyOp2
70
1
102
RTVSPropertyOp3
70
1
102
RTVSPropertyOp4
70
1
102
RTVSPropertyOp5
70
1
102
RTVSPropertyOp6
70
1
102
RTVSPropertyOp7
70
1
102
RTVSPropertyOp8
70
1
102
RTVSPropertyOp9
70
1
102
RTVSPropertyOp10
70
1
102
RTVSPropertyOp11
70
1
102
RTVSPropertyOp12
70
1
102
RTVSPropertyOp13
70
1
102
RTVSPropertyOp14
70
1
102
RTVSPropertyOp15
70
1
102
RTVSPropertyOp16
70
1
102
RTVSPropertyOp17
70
1
102
RTVSPropertyOp18
70
1
102
RTVSPropertyOp19
70
1
102
RTVSPropertyOp20
70
1
102
RTVSPropertyOp21
70
1
102
RTVSPropertyOp22
70
1
102
RTVSPropertyOp23
70
1
102
RTVSPropertyOp24
70
1
102
RTVSPropertyOp25
70
1
102
RTVSPropertyOp26
70
1
102
RTVSPropertyOp27
70
1
0
XRECORD
5
1083
102
{ACAD_REACTORS
330
1082
102
}
330
1082
100
AcDbXrecord
280
1
102
RTVSPropertyOp0
70
1
102
RTVSPropertyOp1
70
1
102
RTVSPropertyOp2
70
1
102
RTVSPropertyOp3
70
1
102
RTVSPropertyOp4
70
1
102
RTVSPropertyOp5
70
1
102
RTVSPropertyOp6
70
1
102
RTVSPropertyOp7
70
1
102
RTVSPropertyOp8
70
1
102
RTVSPropertyOp9
70
1
102
RTVSPropertyOp10
70
1
102
RTVSPropertyOp11
70
1
102
RTVSPropertyOp12
70
1
102
RTVSPropertyOp13
70
1
102
RTVSPropertyOp14
70
1
102
RTVSPropertyOp15
70
1
102
RTVSPropertyOp16
70
1
102
RTVSPropertyOp17
70
1
102
RTVSPropertyOp18
70
1
102
RTVSPropertyOp19
70
1
102
RTVSPropertyOp20
70
1
102
RTVSPropertyOp21
70
1
102
RTVSPropertyOp22
70
1
102
RTVSPropertyOp23
70
1
102
RTVSPropertyOp24
70
1
102
RTVSPropertyOp25
70
1
102
RTVSPropertyOp26
70
1
102
RTVSPropertyOp27
70
1
0
XRECORD
5
1085
102
{ACAD_REACTORS
330
1084
102
}
330
1084
100
AcDbXrecord
280
1
102
RTVSPropertyOp0
70
1
102
RTVSPropertyOp1
70
1
102
RTVSPropertyOp2
70
1
102
RTVSPropertyOp3
70
1
102
RTVSPropertyOp4
70
1
102
RTVSPropertyOp5
70
1
102
RTVSPropertyOp6
70
1
102
RTVSPropertyOp7
70
1
102
RTVSPropertyOp8
70
1
102
RTVSPropertyOp9
70
1
102
RTVSPropertyOp10
70
1
102
RTVSPropertyOp11
70
1
102
RTVSPropertyOp12
70
1
102
RTVSPropertyOp13
70
1
102
RTVSPropertyOp14
70
1
102
RTVSPropertyOp15
70
1
102
RTVSPropertyOp16
70
1
102
RTVSPropertyOp17
70
1
102
RTVSPropertyOp18
70
1
102
RTVSPropertyOp19
70
1
102
RTVSPropertyOp20
70
1
102
RTVSPropertyOp21
70
1
102
RTVSPropertyOp22
70
1
102
RTVSPropertyOp23
70
1
102
RTVSPropertyOp24
70
1
102
RTVSPropertyOp25
70
1
102
RTVSPropertyOp26
70
1
102
RTVSPropertyOp27
70
1
0
XRECORD
5
1087
102
{ACAD_REACTORS
330
1086
102
}
330
1086
100
AcDbXrecord
280
1
102
RTVSPropertyOp0
70
1
102
RTVSPropertyOp1
70
1
102
RTVSPropertyOp2
70
1
102
RTVSPropertyOp3
70
1
102
RTVSPropertyOp4
70
1
102
RTVSPropertyOp5
70
1
102
RTVSPropertyOp6
70
1
102
RTVSPropertyOp7
70
1
102
RTVSPropertyOp8
70
1
102
RTVSPropertyOp9
70
1
102
RTVSPropertyOp10
70
1
102
RTVSPropertyOp11
70
1
102
RTVSPropertyOp12
70
1
102
RTVSPropertyOp13
70
1
102
RTVSPropertyOp14
70
1
102
RTVSPropertyOp15
70
1
102
RTVSPropertyOp16
70
1
102
RTVSPropertyOp17
70
1
102
RTVSPropertyOp18
70
1
102
RTVSPropertyOp19
70
1
102
RTVSPropertyOp20
70
1
102
RTVSPropertyOp21
70
1
102
RTVSPropertyOp22
70
1
102
RTVSPropertyOp23
70
1
102
RTVSPropertyOp24
70
1
102
RTVSPropertyOp25
70
1
102
RTVSPropertyOp26
70
1
102
RTVSPropertyOp27
70
1
0
XRECORD
5
10A1
102
{ACAD_REACTORS
330
10A0
102
}
330
10A0
100
AcDbXrecord
280
1
102
RTVSPropertyOp0
70
0
102
RTVSPropertyOp1
70
0
102
RTVSPropertyOp2
70
0
102
RTVSPropertyOp3
70
0
102
RTVSPropertyOp4
70
0
102
RTVSPropertyOp5
70
0
102
RTVSPropertyOp6
70
0
102
RTVSPropertyOp7
70
0
102
RTVSPropertyOp8
70
0
102
RTVSPropertyOp9
70
0
102
RTVSPropertyOp10
70
0
102
RTVSPropertyOp11
70
0
102
RTVSPropertyOp12
70
0
102
RTVSPropertyOp13
70
0
102
RTVSPropertyOp14
70
2
102
RTVSPropertyOp15
70
0
102
RTVSPropertyOp16
70
0
102
RTVSPropertyOp17
70
0
102
RTVSPropertyOp18
70
0
102
RTVSPropertyOp19
70
0
102
RTVSPropertyOp20
70
0
102
RTVSPropertyOp21
70
0
102
RTVSPropertyOp22
70
0
102
RTVSPropertyOp23
70
0
102
RTVSPropertyOp24
70
0
102
RTVSPropertyOp25
70
0
102
RTVSPropertyOp26
70
0
102
RTVSPropertyOp27
70
0
0
XRECORD
5
109B
102
{ACAD_REACTORS
330
109A
102
}
330
109A
100
AcDbXrecord
280
1
102
RTVSPropertyOp0
70
1
102
RTVSPropertyOp1
70
1
102
RTVSPropertyOp2
70
1
102
RTVSPropertyOp3
70
1
102
RTVSPropertyOp4
70
1
102
RTVSPropertyOp5
70
1
102
RTVSPropertyOp6
70
1
102
RTVSPropertyOp7
70
1
102
RTVSPropertyOp8
70
1
102
RTVSPropertyOp9
70
1
102
RTVSPropertyOp10
70
1
102
RTVSPropertyOp11
70
1
102
RTVSPropertyOp12
70
1
102
RTVSPropertyOp13
70
1
102
RTVSPropertyOp14
70
1
102
RTVSPropertyOp15
70
1
102
RTVSPropertyOp16
70
1
102
RTVSPropertyOp17
70
1
102
RTVSPropertyOp18
70
1
102
RTVSPropertyOp19
70
1
102
RTVSPropertyOp20
70
1
102
RTVSPropertyOp21
70
1
102
RTVSPropertyOp22
70
1
102
RTVSPropertyOp23
70
1
102
RTVSPropertyOp24
70
1
102
RTVSPropertyOp25
70
1
102
RTVSPropertyOp26
70
1
102
RTVSPropertyOp27
70
1
0
XRECORD
5
10A3
102
{ACAD_REACTORS
330
10A2
102
}
330
10A2
100
AcDbXrecord
280
1
102
RTVSPropertyOp0
70
0
102
RTVSPropertyOp1
70
0
102
RTVSPropertyOp2
70
0
102
RTVSPropertyOp3
70
0
102
RTVSPropertyOp4
70
0
102
RTVSPropertyOp5
70
0
102
RTVSPropertyOp6
70
0
102
RTVSPropertyOp7
70
0
102
RTVSPropertyOp8
70
0
102
RTVSPropertyOp9
70
0
102
RTVSPropertyOp10
70
0
102
RTVSPropertyOp11
70
0
102
RTVSPropertyOp12
70
0
102
RTVSPropertyOp13
70
0
102
RTVSPropertyOp14
70
2
102
RTVSPropertyOp15
70
0
102
RTVSPropertyOp16
70
0
102
RTVSPropertyOp17
70
0
102
RTVSPropertyOp18
70
0
102
RTVSPropertyOp19
70
0
102
RTVSPropertyOp20
70
0
102
RTVSPropertyOp21
70
0
102
RTVSPropertyOp22
70
0
102
RTVSPropertyOp23
70
0
102
RTVSPropertyOp24
70
0
102
RTVSPropertyOp25
70
0
102
RTVSPropertyOp26
70
0
102
RTVSPropertyOp27
70
0
0
XRECORD
5
1093
102
{ACAD_REACTORS
330
1092
102
}
330
1092
100
AcDbXrecord
280
1
102
RTVSPropertyOp0
70
1
102
RTVSPropertyOp1
70
1
102
RTVSPropertyOp2
70
1
102
RTVSPropertyOp3
70
1
102
RTVSPropertyOp4
70
1
102
RTVSPropertyOp5
70
1
102
RTVSPropertyOp6
70
1
102
RTVSPropertyOp7
70
1
102
RTVSPropertyOp8
70
1
102
RTVSPropertyOp9
70
1
102
RTVSPropertyOp10
70
1
102
RTVSPropertyOp11
70
1
102
RTVSPropertyOp12
70
1
102
RTVSPropertyOp13
70
1
102
RTVSPropertyOp14
70
1
102
RTVSPropertyOp15
70
1
102
RTVSPropertyOp16
70
1
102
RTVSPropertyOp17
70
1
102
RTVSPropertyOp18
70
1
102
RTVSPropertyOp19
70
1
102
RTVSPropertyOp20
70
1
102
RTVSPropertyOp21
70
1
102
RTVSPropertyOp22
70
1
102
RTVSPropertyOp23
70
1
102
RTVSPropertyOp24
70
1
102
RTVSPropertyOp25
70
1
102
RTVSPropertyOp26
70
1
102
RTVSPropertyOp27
70
1
0
XRECORD
5
1099
102
{ACAD_REACTORS
330
1098
102
}
330
1098
100
AcDbXrecord
280
1
102
RTVSPropertyOp0
70
1
102
RTVSPropertyOp1
70
1
102
RTVSPropertyOp2
70
1
102
RTVSPropertyOp3
70
1
102
RTVSPropertyOp4
70
1
102
RTVSPropertyOp5
70
1
102
RTVSPropertyOp6
70
1
102
RTVSPropertyOp7
70
1
102
RTVSPropertyOp8
70
1
102
RTVSPropertyOp9
70
1
102
RTVSPropertyOp10
70
1
102
RTVSPropertyOp11
70
1
102
RTVSPropertyOp12
70
1
102
RTVSPropertyOp13
70
1
102
RTVSPropertyOp14
70
1
102
RTVSPropertyOp15
70
1
102
RTVSPropertyOp16
70
1
102
RTVSPropertyOp17
70
1
102
RTVSPropertyOp18
70
1
102
RTVSPropertyOp19
70
1
102
RTVSPropertyOp20
70
1
102
RTVSPropertyOp21
70
1
102
RTVSPropertyOp22
70
1
102
RTVSPropertyOp23
70
1
102
RTVSPropertyOp24
70
1
102
RTVSPropertyOp25
70
1
102
RTVSPropertyOp26
70
1
102
RTVSPropertyOp27
70
1
0
ENDSEC
0
EOF
