0
SECTION
2
HEADER
9
$ACADVER
1
AC1015
9
$ACADMAINTVER
70
20
9
$DWGCODEPAGE
3
ANSI_1252
9
$INSBASE
10
0.0
20
0.0
30
0.0
9
$EXTMIN
10
-150.000000000000
20
-105.000000000000
30
0.0
9
$EXTMAX
10
150.000000000000
20
105.000000000000
30
0.0
9
$LIMMIN
10
0.0
20
0.0
9
$LIMMAX
10
12.0
20
9.0
9
$ORTHOMODE
70
0
9
$REGENMODE
70
1
9
$FILLMODE
70
1
9
$QTEXTMODE
70
0
9
$MIRRTEXT
70
1
9
$LTSCALE
40
1.0
9
$ATTMODE
70
1
9
$TEXTSIZE
40
0.2
9
$TRACEWID
40
0.05
9
$TEXTSTYLE
7
Standard
9
$CLAYER
8
0
9
$CELTYPE
6
ByLayer
9
$CECOLOR
62
256
9
$CELTSCALE
40
1.0
9
$DISPSILH
70
0
9
$DIMSCALE
40
1.0
9
$DIMASZ
40
2.5
9
$DIMEXO
40
0.625
9
$DIMDLI
40
0.38
9
$DIMRND
40
0.0
9
$DIMDLE
40
0.0
9
$DIMEXE
40
1.25
9
$DIMTP
40
0.0
9
$DIMTM
40
0.000000001
9
$DIMTXT
40
2.5
9
$DIMCEN
40
0.09
9
$DIMTSZ
40
0.0
9
$DIMTOL
70
1
9
$DIMLIM
70
0
9
$DIMTIH
70
0
9
$DIMTOH
70
0
9
$DIMSE1
70
0
9
$DIMSE2
70
0
9
$DIMTAD
70
1
9
$DIMZIN
70
0
9
$DIMBLK
1
VDDIM_DEFAULT
9
$DIMASO
70
1
9
$DIMSHO
70
1
9
$DIMPOST
1

9
$DIMAPOST
1

9
$DIMALT
70
0
9
$DIMALTD
70
2
9
$DIMALTF
40
25.4
9
$DIMLFAC
40
1.00000000000000
9
$DIMTOFL
70
0
9
$DIMTVP
40
0.0
9
$DIMTIX
70
0
9
$DIMSOXD
70
0
9
$DIMSAH
70
0
9
$DIMBLK1
1

9
$DIMBLK2
1

9
$DIMSTYLE
2
BEM-ISBE
9
$DIMCLRD
70
0
9
$DIMCLRE
70
0
9
$DIMCLRT
70
0
9
$DIMTFAC
40
0.5
9
$DIMGAP
40
0.625
9
$DIMJUST
70
0
9
$DIMSD1
70
0
9
$DIMSD2
70
0
9
$DIMTOLJ
70
1
9
$DIMTZIN
70
0
9
$DIMALTZ
70
0
9
$DIMALTTZ
70
0
9
$DIMUPT
70
0
9
$DIMDEC
70
3
9
$DIMTDEC
70
3
9
$DIMALTU
70
2
9
$DIMALTTD
70
2
9
$DIMTXSTY
7
Standard
9
$DIMAUNIT
70
0
9
$DIMADEC
70
3
9
$DIMALTRND
40
0.0
9
$DIMAZIN
70
0
9
$DIMDSEP
70
46
9
$DIMATFIT
70
3
9
$DIMFRAC
70
0
9
$DIMLDRBLK
1

9
$DIMLUNIT
70
2
9
$DIMLWD
70
-2
9
$DIMLWE
70
-2
9
$DIMTMOVE
70
0
9
$LUNITS
70
2
9
$LUPREC
70
4
9
$SKETCHINC
40
0.1
9
$FILLETRAD
40
0.5
9
$AUNITS
70
0
9
$AUPREC
70
0
9
$MENU
1
.
9
$ELEVATION
40
0.0
9
$PELEVATION
40
0.0
9
$THICKNESS
40
0.0
9
$LIMCHECK
70
0
9
$CHAMFERA
40
0.5
9
$CHAMFERB
40
0.5
9
$CHAMFERC
40
1.0
9
$CHAMFERD
40
0.0
9
$SKPOLY
70
0
9
$TDCREATE
40
0.0
9
$TDUCREATE
40
0.0
9
$TDUPDATE
40
0.0
9
$TDUUPDATE
40
0.0
9
$TDINDWG
40
0.0
9
$TDUSRTIMER
40
0.0
9
$USRTIMER
70
1
9
$ANGBASE
50
0.0
9
$ANGDIR
70
0
9
$PDMODE
70
0
9
$PDSIZE
40
0.0
9
$PLINEWID
40
0.0
9
$SPLFRAME
70
0
9
$SPLINETYPE
70
6
9
$SPLINESEGS
70
8
9
$HANDSEED
5
10AB
9
$SURFTAB1
70
6
9
$SURFTAB2
70
6
9
$SURFTYPE
70
6
9
$SURFU
70
6
9
$SURFV
70
6
9
$UCSBASE
2

9
$UCSNAME
2

9
$UCSORG
10
0.0
20
0.0
30
0.0
9
$UCSXDIR
10
1.0
20
0.0
30
0.0
9
$UCSYDIR
10
0.0
20
1.0
30
0.0
9
$UCSORTHOREF
2

9
$UCSORTHOVIEW
70
0
9
$UCSORGTOP
10
0.0
20
0.0
30
0.0
9
$UCSORGBOTTOM
10
0.0
20
0.0
30
0.0
9
$UCSORGLEFT
10
0.0
20
0.0
30
0.0
9
$UCSORGRIGHT
10
0.0
20
0.0
30
0.0
9
$UCSORGFRONT
10
0.0
20
0.0
30
0.0
9
$UCSORGBACK
10
0.0
20
0.0
30
0.0
9
$PUCSBASE
2

9
$PUCSNAME
2

9
$PUCSORG
10
0.0
20
0.0
30
0.0
9
$PUCSXDIR
10
1.0
20
0.0
30
0.0
9
$PUCSYDIR
10
0.0
20
1.0
30
0.0
9
$PUCSORTHOREF
2

9
$PUCSORTHOVIEW
70
0
9
$PUCSORGTOP
10
0.0
20
0.0
30
0.0
9
$PUCSORGBOTTOM
10
0.0
20
0.0
30
0.0
9
$PUCSORGLEFT
10
0.0
20
0.0
30
0.0
9
$PUCSORGRIGHT
10
0.0
20
0.0
30
0.0
9
$PUCSORGFRONT
10
0.0
20
0.0
30
0.0
9
$PUCSORGBACK
10
0.0
20
0.0
30
0.0
9
$USERI1
70
0
9
$USERI2
70
0
9
$USERI3
70
0
9
$USERI4
70
0
9
$USERI5
70
0
9
$USERR1
40
0.0
9
$USERR2
40
0.0
9
$USERR3
40
0.0
9
$USERR4
40
0.0
9
$USERR5
40
0.0
9
$WORLDVIEW
70
1
9
$SHADEDGE
70
3
9
$SHADEDIF
70
70
9
$TILEMODE
70
1
9
$MAXACTVP
70
64
9
$PINSBASE
10
0.0
20
0.0
30
0.0
9
$PLIMCHECK
70
0
9
$PEXTMIN
10
1.000000000000000E+20
20
1.000000000000000E+20
30
1.000000000000000E+20
9
$PEXTMAX
10
-1.000000000000000E+20
20
-1.000000000000000E+20
30
-1.000000000000000E+20
9
$PLIMMIN
10
0.0
20
0.0
9
$PLIMMAX
10
12.0
20
9.0
9
$UNITMODE
70
0
9
$VISRETAIN
70
1
9
$PLINEGEN
70
0
9
$PSLTSCALE
70
1
9
$TREEDEPTH
70
3020
9
$CMLSTYLE
2
Standard
9
$CMLJUST
70
0
9
$CMLSCALE
40
1.0
9
$PROXYGRAPHICS
70
1
9
$MEASUREMENT
70
0
9
$CELWEIGHT
370
-1
9
$ENDCAPS
280
0
9
$JOINSTYLE
280
0
9
$LWDISPLAY
290
0
9
$INSUNITS
70
4
9
$HYPERLINKBASE
1

9
$STYLESHEET
1

9
$XEDIT
290
1
9
$CEPSNTYPE
380
0
9
$PSTYLEMODE
290
0
9
$FINGERPRINTGUID
2
{FAEB1C30-E019-11D5-929B-00C0DF256EC4}
9
$VERSIONGUID
2
{04C5C4E4-4947-4D90-8812-D401569E61F7}
9
$EXTNAMES
290
1
9
$PSVPSCALE
40
0.0
9
$OLESTARTUP
290
0
0
ENDSEC
0
SECTION
2
TABLES
0
TABLE
2
VPORT
5
24A
330
0
100
AcDbSymbolTable
70
1
0
VPORT
5
26B
330
24A
100
AcDbSymbolTableRecord
100
AcDbViewportTableRecord
2
*Active
70
0
10
0.0
20
0.0
11
1.0
21
1.0
12
0.000000000000000
22
0.000000000000000
13
0.0
23
0.0
14
10.0
24
10.0
15
10.0
25
10.0
16
0.0
26
0.0
36
1.0
17
0.0
27
0.0
37
0.0
40
210.000000000000
41
1.42857142857143
42
1.0
43
0.0
44
0.0
50
0.0
51
0.0000000000007958
71
0
72
100
73
1
74
3
75
0
76
0
77
0
78
1
281
0
65
1
110
0.0
120
0.0
130
0.0
111
1.0
121
0.0
131
0.0
112
0.0
122
1.0
132
0.0
79
0
146
0.0
0
ENDTAB
0
TABLE
2
LTYPE
5
247
330
0
100
AcDbSymbolTable
70
25
0
LTYPE
5
256
330
247
100
AcDbSymbolTableRecord
100
AcDbLinetypeTableRecord
2
ByBlock
70
0
3

72
65
73
0
40
0.0
0
LTYPE
5
257
330
247
100
AcDbSymbolTableRecord
100
AcDbLinetypeTableRecord
2
ByLayer
70
0
3

72
65
73
0
40
0.0
0
LTYPE
5
258
330
247
100
AcDbSymbolTableRecord
100
AcDbLinetypeTableRecord
2
Continuous
70
0
3
Solid line
72
65
73
0
40
0.0
0
LTYPE
5
273
330
247
100
AcDbSymbolTableRecord
100
AcDbLinetypeTableRecord
2
CENTER
70
0
3
Center ____ _ ____ _ ____ _ ____ _ ____ _ ____
72
65
73
4
40
2.0
49
1.25
74
0
49
-0.25
74
0
49
0.25
74
0
49
-0.25
74
0
0
LTYPE
5
274
330
247
100
AcDbSymbolTableRecord
100
AcDbLinetypeTableRecord
2
DASHDOT
70
0
3
Dashdot __ . __ . __ . __ . __ . __ . __ . __
72
65
73
4
40
1.0
49
0.5
74
0
49
-0.25
74
0
49
0.0
74
0
49
-0.25
74
0
0
LTYPE
5
275
330
247
100
AcDbSymbolTableRecord
100
AcDbLinetypeTableRecord
2
DASHED
70
0
3
Dashed __ __ __ __ __ __ __ __ __ __ __ __ __ _
72
65
73
2
40
0.75
49
0.5
74
0
49
-0.25
74
0
0
LTYPE
5
276
330
247
100
AcDbSymbolTableRecord
100
AcDbLinetypeTableRecord
2
HIDDEN
70
0
3
Hidden __ __ __ __ __ __ __ __ __ __ __ __ __ __
72
65
73
2
40
0.375
49
0.25
74
0
49
-0.125
74
0
0
LTYPE
5
277
330
247
100
AcDbSymbolTableRecord
100
AcDbLinetypeTableRecord
2
HIDDEN2
70
0
3
Hidden2 _ _ _ _ _ _ _ _ _ _ _ _ _ _ _ _ _
72
65
73
2
40
0.1875
49
0.125
74
0
49
-0.0625
74
0
0
LTYPE
5
278
330
247
100
AcDbSymbolTableRecord
100
AcDbLinetypeTableRecord
2
BORDER
70
0
3
Border __ __ . __ __ . __ __ . __ __ . __ __ .
72
65
73
6
40
1.75
49
0.5
74
0
49
-0.25
74
0
49
0.5
74
0
49
-0.25
74
0
49
0.0
74
0
49
-0.25
74
0
0
LTYPE
5
279
330
247
100
AcDbSymbolTableRecord
100
AcDbLinetypeTableRecord
2
BORDER2
70
0
3
Border2 __.__.__.__.__.__.__.__.__.__.__.
72
65
73
6
40
0.875
49
0.25
74
0
49
-0.125
74
0
49
0.25
74
0
49
-0.125
74
0
49
0.0
74
0
49
-0.125
74
0
0
LTYPE
5
27A
330
247
100
AcDbSymbolTableRecord
100
AcDbLinetypeTableRecord
2
BORDERX2
70
0
3
Borderx2  ____  ____  .  ____  ____  .  ___
72
65
73
6
40
3.5
49
1.0
74
0
49
-0.5
74
0
49
1.0
74
0
49
-0.5
74
0
49
0.0
74
0
49
-0.5
74
0
0
LTYPE
5
27B
330
247
100
AcDbSymbolTableRecord
100
AcDbLinetypeTableRecord
2
CENTER2
70
0
3
Center2  ___ _ ___ _ ___ _ ___ _ ___ _ ___
72
65
73
4
40
1.125
49
0.75
74
0
49
-0.125
74
0
49
0.125
74
0
49
-0.125
74
0
0
LTYPE
5
27C
330
247
100
AcDbSymbolTableRecord
100
AcDbLinetypeTableRecord
2
CENTERX2
70
0
3
Centerx2  ________  __  ________  __  _____
72
65
73
4
40
4.0
49
2.5
74
0
49
-0.5
74
0
49
0.5
74
0
49
-0.5
74
0
0
LTYPE
5
27D
330
247
100
AcDbSymbolTableRecord
100
AcDbLinetypeTableRecord
2
DASHDOT2
70
0
3
Dashdot2  _._._._._._._._._._._._._._._.
72
65
73
4
40
0.5
49
0.25
74
0
49
-0.125
74
0
49
0.0
74
0
49
-0.125
74
0
0
LTYPE
5
27E
330
247
100
AcDbSymbolTableRecord
100
AcDbLinetypeTableRecord
2
DASHDOTX2
70
0
3
Dashdotx2 ____  .  ____  .  ____  .  ___
72
65
73
4
40
2.0
49
1.0
74
0
49
-0.5
74
0
49
0.0
74
0
49
-0.5
74
0
0
LTYPE
5
27F
330
247
100
AcDbSymbolTableRecord
100
AcDbLinetypeTableRecord
2
DASHED2
70
0
3
Dashed2 _ _ _ _ _ _ _ _ _ _ _ _ _ _ _ _ _
72
65
73
2
40
0.375
49
0.25
74
0
49
-0.125
74
0
0
LTYPE
5
280
330
247
100
AcDbSymbolTableRecord
100
AcDbLinetypeTableRecord
2
DASHEDX2
70
0
3
Dashedx2 ____  ____  ____  ____  ____  ___
72
65
73
2
40
1.5
49
1.0
74
0
49
-0.5
74
0
0
LTYPE
5
281
330
247
100
AcDbSymbolTableRecord
100
AcDbLinetypeTableRecord
2
DIVIDE
70
0
3
Divide ____ . . ____ . . ____ . . ____ . . ____
72
65
73
6
40
1.25
49
0.5
74
0
49
-0.25
74
0
49
0.0
74
0
49
-0.25
74
0
49
0.0
74
0
49
-0.25
74
0
0
LTYPE
5
282
330
247
100
AcDbSymbolTableRecord
100
AcDbLinetypeTableRecord
2
DIVIDE2
70
0
3
Divide2 __..__..__..__..__..__..__..__.._
72
65
73
6
40
0.625
49
0.25
74
0
49
-0.125
74
0
49
0.0
74
0
49
-0.125
74
0
49
0.0
74
0
49
-0.125
74
0
0
LTYPE
5
283
330
247
100
AcDbSymbolTableRecord
100
AcDbLinetypeTableRecord
2
DIVIDEX2
70
0
3
Dividex2 ________  .  .  ________  .  .  _
72
65
73
6
40
2.5
49
1.0
74
0
49
-0.5
74
0
49
0.0
74
0
49
-0.5
74
0
49
0.0
74
0
49
-0.5
74
0
0
LTYPE
5
284
330
247
100
AcDbSymbolTableRecord
100
AcDbLinetypeTableRecord
2
DOT
70
0
3
Dot . . . . . . . . . . . . . . . . . . . . . . . .
72
65
73
2
40
0.25
49
0.0
74
0
49
-0.25
74
0
0
LTYPE
5
285
330
247
100
AcDbSymbolTableRecord
100
AcDbLinetypeTableRecord
2
DOT2
70
0
3
Dot2 ........................................
72
65
73
2
40
0.125
49
0.0
74
0
49
-0.125
74
0
0
LTYPE
5
286
330
247
100
AcDbSymbolTableRecord
100
AcDbLinetypeTableRecord
2
DOTX2
70
0
3
Dotx2 .  .  .  .  .  .  .  .  .  .  .  .  .  .
72
65
73
2
40
0.5
49
0.0
74
0
49
-0.5
74
0
0
LTYPE
5
287
330
247
100
AcDbSymbolTableRecord
100
AcDbLinetypeTableRecord
2
HIDDENX2
70
0
3
Hiddenx2 ____ ____ ____ ____ ____ ____ ____
72
65
73
2
40
0.75
49
0.5
74
0
49
-0.25
74
0
0
LTYPE
5
288
330
247
100
AcDbSymbolTableRecord
100
AcDbLinetypeTableRecord
2
PHANTOM
70
0
3
Phantom ______  __  __  ______  __  __  ______
72
65
73
6
40
2.5
49
1.25
74
0
49
-0.25
74
0
49
0.25
74
0
49
-0.25
74
0
49
0.25
74
0
49
-0.25
74
0
0
LTYPE
5
289
330
247
100
AcDbSymbolTableRecord
100
AcDbLinetypeTableRecord
2
PHANTOM2
70
0
3
Phantom2 ___ _ _ ___ _ _ ___ _ _ ___ _ _
72
65
73
6
40
1.25
49
0.625
74
0
49
-0.125
74
0
49
0.125
74
0
49
-0.125
74
0
49
0.125
74
0
49
-0.125
74
0
0
LTYPE
5
28A
330
247
100
AcDbSymbolTableRecord
100
AcDbLinetypeTableRecord
2
PHANTOMX2
70
0
3
Phantomx2 ____________    ____    ____   _
72
65
73
6
40
5.0
49
2.5
74
0
49
-0.5
74
0
49
0.5
74
0
49
-0.5
74
0
49
0.5
74
0
49
-0.5
74
0
0
ENDTAB
0
TABLE
2
LAYER
5
244
330
0
100
AcDbSymbolTable
70
6
0
LAYER
5
252
330
244
100
AcDbSymbolTableRecord
100
AcDbLayerTableRecord
2
0
70
0
62
7
6
Continuous
370
0
390
251
0
LAYER
5
23F
330
244
100
AcDbSymbolTableRecord
100
AcDbLayerTableRecord
2
Bemassung
70
0
 62
   7
6
Continuous
370
0
390
251
0
LAYER
5
240
330
244
100
AcDbSymbolTableRecord
100
AcDbLayerTableRecord
2
Rahmen
70
0
 62
   7
6
Continuous
370
0
390
251
0
LAYER
5
241
330
244
100
AcDbSymbolTableRecord
100
AcDbLayerTableRecord
2
Geo
70
0
 62
   7
6
Continuous
370
0
390
251
0
LAYER
5
33A
330
244
100
AcDbSymbolTableRecord
100
AcDbLayerTableRecord
2
Defpoints
70
0
62
7
6
Continuous
290
0
370
-3
390
251
0
LAYER
5
57E
330
244
100
AcDbSymbolTableRecord
100
AcDbLayerTableRecord
2
Text
70
0
 62
   7
6
Continuous
370
0
390
251
1001
AcAecLayerStandard
1000

1000

0
ENDTAB
0
TABLE
2
STYLE
5
245
330
0
100
AcDbSymbolTable
70
2
0
STYLE
5
253
330
245
100
AcDbSymbolTableRecord
100
AcDbTextStyleTableRecord
2
Standard
70
0
40
0.0
41
1.0
50
0.0
71
0
42
0.2
3
Arial
4

1001
ACAD
1000
Arial
1071
0
0
STYLE
5
132
330
245
100
AcDbSymbolTableRecord
100
AcDbTextStyleTableRecord
2
Beschriftung
70
0
40
0.0
41
1.0
50
0.0
71
0
42
0.2
3
Arial
4

1001
ACAD
1000
Arial
1071
0
1001
AcadAnnotative
1000
AnnotativeData
1070
1
1070
1
0
ENDTAB
0
TABLE
2
VIEW
5
248
330
0
100
AcDbSymbolTable
70
0
0
ENDTAB
0
TABLE
2
UCS
5
249
330
0
100
AcDbSymbolTable
70
0
0
ENDTAB
0
TABLE
2
APPID
5
24B
330
0
100
AcDbSymbolTable
70
13
0
APPID
5
254
330
24B
100
AcDbSymbolTableRecord
100
AcDbRegAppTableRecord
2
ACAD
70
0
0
APPID
5
26C
330
24B
100
AcDbSymbolTableRecord
100
AcDbRegAppTableRecord
2
VD_INVISIBLE_NOT_FOR_READ
70
0
0
APPID
5
26D
330
24B
100
AcDbSymbolTableRecord
100
AcDbRegAppTableRecord
2
VD_TEMPHATCH
70
0
0
APPID
5
26E
330
24B
100
AcDbSymbolTableRecord
100
AcDbRegAppTableRecord
2
VDEXTRAPARAM
70
0
0
APPID
5
26F
330
24B
100
AcDbSymbolTableRecord
100
AcDbRegAppTableRecord
2
PE_URL
70
0
0
APPID
5
270
330
24B
100
AcDbSymbolTableRecord
100
AcDbRegAppTableRecord
2
VD_UNKNOWN
70
0
0
APPID
5
28F
330
24B
100
AcDbSymbolTableRecord
100
AcDbRegAppTableRecord
2
AcadAnnotative
70
0
0
APPID
5
290
330
24B
100
AcDbSymbolTableRecord
100
AcDbRegAppTableRecord
2
ACAD_DSTYLE_DIMJAG
70
0
0
APPID
5
291
330
24B
100
AcDbSymbolTableRecord
100
AcDbRegAppTableRecord
2
ACAD_DSTYLE_DIMTALN
70
0
0
APPID
5
293
330
24B
100
AcDbSymbolTableRecord
100
AcDbRegAppTableRecord
2
ACAD_PSEXT
70
0
0
APPID
5
42A
330
24B
100
AcDbSymbolTableRecord
100
AcDbRegAppTableRecord
2
ACAD_MLEADERVER
70
0
0
APPID
5
532
330
24B
100
AcDbSymbolTableRecord
100
AcDbRegAppTableRecord
2
ACAD_EXEMPT_FROM_CAD_STANDARDS
70
0
0
APPID
5
57F
330
24B
100
AcDbSymbolTableRecord
100
AcDbRegAppTableRecord
2
AcAecLayerStandard
70
0
0
ENDTAB
0
TABLE
2
DIMSTYLE
5
24C
330
0
100
AcDbSymbolTable
70
3
100
AcDbDimStyleTable
71
2
340
27
340
269
0
DIMSTYLE
105
269
330
24C
100
AcDbSymbolTableRecord
100
AcDbDimStyleTableRecord
2
Standard
70
0
172
1
174
1
288
1
340
253
342
23C
0
DIMSTYLE
105
137
330
24C
100
AcDbSymbolTableRecord
100
AcDbDimStyleTableRecord
2
Beschriftung
70
0
41
2.5
42
0.625
44
1.25
73
0
74
0
77
1
140
2.5
147
0.625
172
1
174
1
271
2
288
1
340
253
342
23C
1001
AcadAnnotative
1000
AnnotativeData
1070
1
1070
1
1001
ACAD_DSTYLE_DIMJAG
1070
388
1040
1.5
1001
ACAD_DSTYLE_DIMTALN
1070
392
1070
0
0
DIMSTYLE
105
27
102
{ACAD_REACTORS
330
F1000D
330
F10012
330
F1001C
330
F10021
330
F10003
330
F10008
330
F10017
102
}
330
24C
100
AcDbSymbolTableRecord
100
AcDbDimStyleTableRecord
2
BEM-ISBE
70
0
41
2.5
42
0.625
44
1.25
48
0.000000001
71
1
73
0
74
0
77
1
140
2.5
144
1.00000000000000
146
0.5
147
0.625
171
 3
172
 1
179
 3
271
 3
272
 3
274
 3
340
253
342
23C
1001
ACAD_DSTYLE_DIMJAG
1070
388
1040
1.5
1001
ACAD_DSTYLE_DIMTALN
1070
392
1070
1
0
ENDTAB
0
TABLE
2
BLOCK_RECORD
5
243
330
0
100
AcDbSymbolTable
70
5
0
BLOCK_RECORD
5
261
330
243
100
AcDbSymbolTableRecord
100
AcDbBlockTableRecord
2
*Model_Space
340
FD0
0
BLOCK_RECORD
5
25D
330
243
100
AcDbSymbolTableRecord
100
AcDbBlockTableRecord
2
*Paper_Space
340
FD1
0
BLOCK_RECORD
5
265
330
243
100
AcDbSymbolTableRecord
100
AcDbBlockTableRecord
2
*Paper_Space0
340
0
0
BLOCK_RECORD
5
23C
330
243
100
AcDbSymbolTableRecord
100
AcDbBlockTableRecord
2
VDDIM_DEFAULT
340
0
102
{BLKREFS
102
}
0
BLOCK_RECORD
5
23E
330
243
100
AcDbSymbolTableRecord
100
AcDbBlockTableRecord
2
VDDIM_NONE
340
0
0
BLOCK_RECORD
5
F1000C
330
243
100
AcDbSymbolTableRecord
100
AcDbBlockTableRecord
2
*D5
340
0
0
BLOCK_RECORD
5
F10011
330
243
100
AcDbSymbolTableRecord
100
AcDbBlockTableRecord
2
*D6
340
0
0
BLOCK_RECORD
5
F1001B
330
243
100
AcDbSymbolTableRecord
100
AcDbBlockTableRecord
2
*D8
340
0
0
BLOCK_RECORD
5
F10020
330
243
100
AcDbSymbolTableRecord
100
AcDbBlockTableRecord
2
*D9
340
0
0
BLOCK_RECORD
5
F10002
330
243
100
AcDbSymbolTableRecord
100
AcDbBlockTableRecord
2
*D3
340
0
0
BLOCK_RECORD
5
F10007
330
243
100
AcDbSymbolTableRecord
100
AcDbBlockTableRecord
2
*D4
340
0
0
BLOCK_RECORD
5
F10016
330
243
100
AcDbSymbolTableRecord
100
AcDbBlockTableRecord
2
*D7
340
0
0
ENDTAB
0
ENDSEC
0
SECTION
2
BLOCKS
0
BLOCK
5
262
330
261
100
AcDbEntity
8
0
100
AcDbBlockBegin
2
*Model_Space
70
0
10
0.0
20
0.0
30
0.0
3
*Model_Space
1

0
ENDBLK
5
263
330
261
100
AcDbEntity
8
0
100
AcDbBlockEnd
0
BLOCK
5
25E
330
25D
100
AcDbEntity
67
1
8
0
100
AcDbBlockBegin
2
*Paper_Space
70
0
10
0.0
20
0.0
30
0.0
3
*Paper_Space
1

0
ENDBLK
5
25F
330
25D
100
AcDbEntity
67
1
8
0
100
AcDbBlockEnd
0
BLOCK
5
266
330
265
100
AcDbEntity
8
0
100
AcDbBlockBegin
2
*Paper_Space0
70
0
10
0.0
20
0.0
30
0.0
3
*Paper_Space0
1

0
VIEWPORT
5
296
102
{ACAD_XDICTIONARY
360
58E
102
}
330
265
100
AcDbEntity
8
0
60
1
100
AcDbViewport
10
0.0
20
0.0
30
0.0
40
10.0
41
10.0
69
0
12
0.0
22
0.0
13
0.0
23
0.0
14
1.0
24
1.0
15
0.0
25
0.0
16
0.0
26
0.0
36
1.0
17
0.0
27
0.0
37
0.0
42
0.0
43
0.0
44
0.0
45
10.0
50
0.0
51
0.0000000000007958
72
100
90
163872
1

281
0
71
0
74
0
110
0.0
120
0.0
130
0.0
111
1.0
121
0.0
131
0.0
112
0.0
122
1.0
132
0.0
79
0
146
0.0
1001
VD_INVISIBLE_NOT_FOR_READ
1000
VD_INVISIBLE_NOT_FOR_READ
0
VIEWPORT
5
297
102
{ACAD_XDICTIONARY
360
590
102
}
330
265
100
AcDbEntity
8
0
60
1
100
AcDbViewport
10
0.0
20
0.0
30
0.0
40
10.0
41
10.0
69
0
12
0.0
22
0.0
13
0.0
23
0.0
14
1.0
24
1.0
15
0.0
25
0.0
16
0.0
26
0.0
36
1.0
17
0.0
27
0.0
37
0.0
42
0.0
43
0.0
44
0.0
45
10.0
50
0.0
51
0.0000000000007958
72
100
90
163872
1

281
0
71
0
74
0
110
0.0
120
0.0
130
0.0
111
1.0
121
0.0
131
0.0
112
0.0
122
1.0
132
0.0
79
0
146
0.0
1001
VD_INVISIBLE_NOT_FOR_READ
1000
VD_INVISIBLE_NOT_FOR_READ
0
ENDBLK
5
267
330
265
100
AcDbEntity
8
0
100
AcDbBlockEnd
0
BLOCK
5
28B
330
23C
100
AcDbEntity
8
0
100
AcDbBlockBegin
2
VDDIM_DEFAULT
70
0
10
0.0
20
0.0
30
0.0
3
VDDIM_DEFAULT
1

0
LWPOLYLINE
5
23D
330
23C
100
AcDbEntity
8
0
6
Continuous
62
0
100
AcDbPolyline
90
4
70
0
43
0.0
10
0.0
20
0.0
10
-1.0
20
-0.1665
10
-1.0
20
0.1665
10
0.0
20
0.0
1001
VDEXTRAPARAM
1071
1
1071
0
1071
0
1040
1.0
1000

1000

1040
0.0
1040
0.0
0
HATCH
5
292
330
23C
100
AcDbEntity
8
0
6
Continuous
62
0
100
AcDbHatch
10
0.0
20
0.0
30
0.0
210
0.0
220
0.0
230
1.0
2
SOLID
70
1
71
0
91
1
92
2
72
0
73
1
93
3
10
0.0
20
0.0
10
-1.0
20
-0.1665
10
-1.0
20
0.1665
97
0
75
0
76
1
98
1
10
0.0
20
0.0
1001
VDEXTRAPARAM
1071
1
1071
0
1071
0
1040
1.0
1000

1000

1040
0.0
1040
0.0
1001
VD_TEMPHATCH
1000
VD_TEMPHATCH
0
ENDBLK
5
28C
330
23C
100
AcDbEntity
8
0
100
AcDbBlockEnd
0
BLOCK
5
28D
330
23E
100
AcDbEntity
8
0
100
AcDbBlockBegin
2
VDDIM_NONE
70
0
10
0.0
20
0.0
30
0.0
3
VDDIM_NONE
1

0
ENDBLK
5
28E
330
23E
100
AcDbEntity
8
0
100
AcDbBlockEnd
  0
BLOCK
  5
F10025
330
F1000C
100
AcDbEntity
  8
0
100
AcDbBlockBegin
  2
*D5
 70
     1
 10
0.0
 20
0.0
 30
0.0
  3
*D5
  1

  0
LINE
  5
F10026
330
F1000C
100
AcDbEntity
  8
Bemassung
 62
     0
370
    -2
100
AcDbLine
10
-32.7427616926504
20
-9.41202672605793
30
0.000000000000000
11
-32.7427616926504
21
48.5879732739421
31
0.000000000000000
  0
LINE
  5
F10027
330
F1000C
100
AcDbEntity
  8
Bemassung
 62
     0
370
    -2
100
AcDbLine
10
5.25723830734958
20
16.3379732739421
30
0.000000000000000
11
5.25723830734958
21
33.5879732739421
31
0.000000000000000
  0
LINE
  5
F10028
330
F1000C
100
AcDbEntity
  8
Bemassung
 62
     0
370
    -2
100
AcDbLine
10
-32.7427616926504
20
31.5879732739421
30
0.000000000000000
11
5.25723830734958
21
31.5879732739421
31
0.000000000000000
  0
INSERT
  5
F10029
330
F1000C
100
AcDbEntity
  8
Bemassung
 62
     0
370
    -2
100
AcDbBlockReference
  2
VDDIM_DEFAULT
10
-32.7427616926504
20
31.5879732739421
30
0.000000000000000
 41
2.50000000000000
 42
2.50000000000000
 43
2.50000000000000
 50
180.000000000000
  0
INSERT
  5
F1002A
330
F1000C
100
AcDbEntity
  8
Bemassung
 62
     0
370
    -2
100
AcDbBlockReference
  2
VDDIM_DEFAULT
10
5.25723830734958
20
31.5879732739421
30
0.000000000000000
 41
2.50000000000000
 42
2.50000000000000
 43
2.50000000000000
  0
MTEXT
  5
F1002B
102
{ACAD_XDICTIONARY
360
F1000F
102
}
330
F1000C
100
AcDbEntity
  8
Bemassung
 62
     0
100
AcDbMText
10
-13.7427616926504
20
30.9213066072754
30
0.000000000000000
 40
2.50000000000000
 41
0.0
 71
     8
 72
     1
  1
\A1;38
 11
1.00000000000000
 21
0.000000000000000
 31
0.0
 73
     1
 44
1.0
1001
ACAD
1000
MTEXTBEGIN
1070
73
1070
1
1070
44
1040
1.0
1070
74
1070
0
1000
MTEXTEND
  0
POINT
  5
F1002C
330
F1000C
100
AcDbEntity
  8
Bemassung
 62
     0
100
AcDbPoint
10
-32.7427616926504
20
-9.41202672605793
30
0.000000000000000
  0
POINT
  5
F1002D
330
F1000C
100
AcDbEntity
  8
Bemassung
 62
     0
100
AcDbPoint
10
5.25723830734958
20
16.3379732739421
30
0.000000000000000
  0
ENDBLK
  5
F1002E
330
F1000C
100
AcDbEntity
  8
0
100
AcDbBlockEnd
  0
BLOCK
  5
F1002F
330
F10011
100
AcDbEntity
  8
0
100
AcDbBlockBegin
  2
*D6
 70
     1
 10
0.0
 20
0.0
 30
0.0
  3
*D6
  1

  0
LINE
  5
F10030
330
F10011
100
AcDbEntity
  8
Bemassung
 62
     0
370
    -2
100
AcDbLine
10
5.25723830734958
20
16.5879732739421
30
0.000000000000000
11
5.25723830734958
21
28.5879732739421
31
0.000000000000000
  0
LINE
  5
F10031
330
F10011
100
AcDbEntity
  8
Bemassung
 62
     0
370
    -2
100
AcDbLine
10
50.2572383073496
20
15.7879732739421
30
0.000000000000000
11
50.2572383073496
21
48.5879732739421
31
0.000000000000000
  0
LINE
  5
F10032
330
F10011
100
AcDbEntity
  8
Bemassung
 62
     0
370
    -2
100
AcDbLine
10
5.25723830734958
20
26.5879732739421
30
0.000000000000000
11
50.2572383073496
21
26.5879732739421
31
0.000000000000000
  0
INSERT
  5
F10033
330
F10011
100
AcDbEntity
  8
Bemassung
 62
     0
370
    -2
100
AcDbBlockReference
  2
VDDIM_DEFAULT
10
5.25723830734958
20
26.5879732739421
30
0.000000000000000
 41
2.50000000000000
 42
2.50000000000000
 43
2.50000000000000
 50
180.000000000000
  0
INSERT
  5
F10034
330
F10011
100
AcDbEntity
  8
Bemassung
 62
     0
370
    -2
100
AcDbBlockReference
  2
VDDIM_DEFAULT
10
50.2572383073496
20
26.5879732739421
30
0.000000000000000
 41
2.50000000000000
 42
2.50000000000000
 43
2.50000000000000
  0
MTEXT
  5
F10035
102
{ACAD_XDICTIONARY
360
F10014
102
}
330
F10011
100
AcDbEntity
  8
Bemassung
 62
     0
100
AcDbMText
10
28.9961024498886
20
25.9213066072754
30
0.000000000000000
 40
2.50000000000000
 41
0.0
 71
     8
 72
     1
  1
\A1;45
 11
1.00000000000000
 21
0.000000000000000
 31
0.0
 73
     1
 44
1.0
1001
ACAD
1000
MTEXTBEGIN
1070
73
1070
1
1070
44
1040
1.0
1070
74
1070
0
1000
MTEXTEND
  0
POINT
  5
F10036
330
F10011
100
AcDbEntity
  8
Bemassung
 62
     0
100
AcDbPoint
10
5.25723830734958
20
16.5879732739421
30
0.000000000000000
  0
POINT
  5
F10037
330
F10011
100
AcDbEntity
  8
Bemassung
 62
     0
100
AcDbPoint
10
50.2572383073496
20
15.7879732739421
30
0.000000000000000
  0
ENDBLK
  5
F10038
330
F10011
100
AcDbEntity
  8
0
100
AcDbBlockEnd
  0
BLOCK
  5
F10039
330
F1001B
100
AcDbEntity
  8
0
100
AcDbBlockBegin
  2
*D8
 70
     1
 10
0.0
 20
0.0
 30
0.0
  3
*D8
  1

  0
LINE
  5
F1003A
330
F1001B
100
AcDbEntity
  8
Bemassung
 62
     0
370
    -2
100
AcDbLine
10
-6.74276169265042
20
2.83797327394207
30
0.000000000000000
11
-6.74276169265042
21
-9.41202672605793
31
0.000000000000000
  0
LINE
  5
F1003B
330
F1001B
100
AcDbEntity
  8
Bemassung
 62
     0
370
    -2
100
AcDbLine
10
-32.7427616926504
20
-9.41202672605793
30
0.000000000000000
11
-32.7427616926504
21
48.5879732739421
31
0.000000000000000
  0
LINE
  5
F1003C
330
F1001B
100
AcDbEntity
  8
Bemassung
 62
     0
370
    -2
100
AcDbLine
10
-6.74276169265042
20
-7.41202672605793
30
0.000000000000000
11
-32.7427616926504
21
-7.41202672605793
31
0.000000000000000
  0
INSERT
  5
F1003D
330
F1001B
100
AcDbEntity
  8
Bemassung
 62
     0
370
    -2
100
AcDbBlockReference
  2
VDDIM_DEFAULT
10
-6.74276169265042
20
-7.41202672605793
30
0.000000000000000
 41
2.50000000000000
 42
2.50000000000000
 43
2.50000000000000
  0
INSERT
  5
F1003E
330
F1001B
100
AcDbEntity
  8
Bemassung
 62
     0
370
    -2
100
AcDbBlockReference
  2
VDDIM_DEFAULT
10
-32.7427616926504
20
-7.41202672605793
30
0.000000000000000
 41
2.50000000000000
 42
2.50000000000000
 43
2.50000000000000
 50
180.000000000000
  0
MTEXT
  5
F1003F
102
{ACAD_XDICTIONARY
360
F1001E
102
}
330
F1001B
100
AcDbEntity
  8
Bemassung
 62
     0
100
AcDbMText
10
-17.7728285077952
20
-6.74536005939126
30
0.000000000000000
 40
2.50000000000000
 41
0.0
 71
     8
 72
     1
  1
\A1;26
 11
1.00000000000000
 21
0.000000000000000
 31
0.0
 73
     1
 44
1.0
1001
ACAD
1000
MTEXTBEGIN
1070
73
1070
1
1070
44
1040
1.0
1070
74
1070
0
1000
MTEXTEND
  0
POINT
  5
F10040
330
F1001B
100
AcDbEntity
  8
Bemassung
 62
     0
100
AcDbPoint
10
-6.74276169265042
20
2.83797327394207
30
0.000000000000000
  0
POINT
  5
F10041
330
F1001B
100
AcDbEntity
  8
Bemassung
 62
     0
100
AcDbPoint
10
-32.7427616926504
20
-9.41202672605793
30
0.000000000000000
  0
ENDBLK
  5
F10042
330
F1001B
100
AcDbEntity
  8
0
100
AcDbBlockEnd
  0
BLOCK
  5
F10043
330
F10020
100
AcDbEntity
  8
0
100
AcDbBlockBegin
  2
*D9
 70
     1
 10
0.0
 20
0.0
 30
0.0
  3
*D9
  1

  0
LINE
  5
F10044
330
F10020
100
AcDbEntity
  8
Bemassung
 62
     0
370
    -2
100
AcDbLine
10
50.2572383073496
20
15.7879732739421
30
0.000000000000000
11
50.2572383073496
21
48.5879732739421
31
0.000000000000000
  0
LINE
  5
F10045
330
F10020
100
AcDbEntity
  8
Bemassung
 62
     0
370
    -2
100
AcDbLine
10
-32.7427616926504
20
-9.41202672605793
30
0.000000000000000
11
-32.7427616926504
21
48.5879732739421
31
0.000000000000000
  0
LINE
  5
F10046
330
F10020
100
AcDbEntity
  8
Bemassung
 62
     0
370
    -2
100
AcDbLine
10
50.2572383073496
20
46.5879732739421
30
0.000000000000000
11
-32.7427616926504
21
46.5879732739421
31
0.000000000000000
  0
INSERT
  5
F10047
330
F10020
100
AcDbEntity
  8
Bemassung
 62
     0
370
    -2
100
AcDbBlockReference
  2
VDDIM_DEFAULT
10
50.2572383073496
20
46.5879732739421
30
0.000000000000000
 41
2.50000000000000
 42
2.50000000000000
 43
2.50000000000000
  0
INSERT
  5
F10048
330
F10020
100
AcDbEntity
  8
Bemassung
 62
     0
370
    -2
100
AcDbBlockReference
  2
VDDIM_DEFAULT
10
-32.7427616926504
20
46.5879732739421
30
0.000000000000000
 41
2.50000000000000
 42
2.50000000000000
 43
2.50000000000000
 50
180.000000000000
  0
MTEXT
  5
F10049
102
{ACAD_XDICTIONARY
360
F10023
102
}
330
F10020
100
AcDbEntity
  8
Bemassung
 62
     0
100
AcDbMText
10
8.64922048997764
20
47.2546399406087
30
0.000000000000000
 40
2.50000000000000
 41
0.0
 71
     8
 72
     1
  1
\A1;83
 11
1.00000000000000
 21
0.000000000000000
 31
0.0
 73
     1
 44
1.0
1001
ACAD
1000
MTEXTBEGIN
1070
73
1070
1
1070
44
1040
1.0
1070
74
1070
0
1000
MTEXTEND
  0
POINT
  5
F1004A
330
F10020
100
AcDbEntity
  8
Bemassung
 62
     0
100
AcDbPoint
10
50.2572383073496
20
15.7879732739421
30
0.000000000000000
  0
POINT
  5
F1004B
330
F10020
100
AcDbEntity
  8
Bemassung
 62
     0
100
AcDbPoint
10
-32.7427616926504
20
-9.41202672605793
30
0.000000000000000
  0
ENDBLK
  5
F1004C
330
F10020
100
AcDbEntity
  8
0
100
AcDbBlockEnd
  0
BLOCK
  5
F1004D
330
F10002
100
AcDbEntity
  8
0
100
AcDbBlockBegin
  2
*D3
 70
     1
 10
0.0
 20
0.0
 30
0.0
  3
*D3
  1

  0
LINE
  5
F1004E
330
F10002
100
AcDbEntity
  8
Bemassung
 62
     0
370
    -2
100
AcDbLine
10
-32.5427616926504
20
2.58797327394207
30
0.000000000000000
11
-44.7427616926504
21
2.58797327394207
31
0.000000000000000
  0
LINE
  5
F1004F
330
F10002
100
AcDbEntity
  8
Bemassung
 62
     0
370
    -2
100
AcDbLine
10
-32.5427616926504
20
16.5879732739421
30
0.000000000000000
11
-44.7427616926504
21
16.5879732739421
31
0.000000000000000
  0
LINE
  5
F10050
330
F10002
100
AcDbEntity
  8
Bemassung
 62
     0
370
    -2
100
AcDbLine
10
-42.7427616926504
20
2.58797327394207
30
0.000000000000000
11
-42.7427616926504
21
16.5879732739421
31
0.000000000000000
  0
INSERT
  5
F10051
330
F10002
100
AcDbEntity
  8
Bemassung
 62
     0
370
    -2
100
AcDbBlockReference
  2
VDDIM_DEFAULT
10
-42.7427616926504
20
2.58797327394207
30
0.000000000000000
 41
2.50000000000000
 42
2.50000000000000
 43
2.50000000000000
 50
270.000000000000
  0
INSERT
  5
F10052
330
F10002
100
AcDbEntity
  8
Bemassung
 62
     0
370
    -2
100
AcDbBlockReference
  2
VDDIM_DEFAULT
10
-42.7427616926504
20
16.5879732739421
30
0.000000000000000
 41
2.50000000000000
 42
2.50000000000000
 43
2.50000000000000
 50
90.0000000000000
  0
MTEXT
  5
F10053
102
{ACAD_XDICTIONARY
360
F10005
102
}
330
F10002
100
AcDbEntity
  8
Bemassung
 62
     0
100
AcDbMText
10
-43.4094283593171
20
9.12026726057907
30
0.000000000000000
 40
2.50000000000000
 41
0.0
 71
     8
 72
     1
  1
\A1;%%c14
 11
6.12323399573677e-017
 21
1.00000000000000
 31
0.0
 73
     1
 44
1.0
1001
ACAD
1000
MTEXTBEGIN
1070
73
1070
1
1070
44
1040
1.0
1070
74
1070
0
1000
MTEXTEND
  0
POINT
  5
F10054
330
F10002
100
AcDbEntity
  8
Bemassung
 62
     0
100
AcDbPoint
10
-32.5427616926504
20
2.58797327394207
30
0.000000000000000
  0
POINT
  5
F10055
330
F10002
100
AcDbEntity
  8
Bemassung
 62
     0
100
AcDbPoint
10
-32.5427616926504
20
16.5879732739421
30
0.000000000000000
  0
ENDBLK
  5
F10056
330
F10002
100
AcDbEntity
  8
0
100
AcDbBlockEnd
  0
BLOCK
  5
F10057
330
F10007
100
AcDbEntity
  8
0
100
AcDbBlockBegin
  2
*D4
 70
     1
 10
0.0
 20
0.0
 30
0.0
  3
*D4
  1

  0
LINE
  5
F10058
330
F10007
100
AcDbEntity
  8
Bemassung
 62
     0
370
    -2
100
AcDbLine
10
-6.74276169265042
20
2.83797327394207
30
0.000000000000000
11
5.25723830734958
21
2.83797327394207
31
0.000000000000000
  0
LINE
  5
F10059
330
F10007
100
AcDbEntity
  8
Bemassung
 62
     0
370
    -2
100
AcDbLine
10
-6.74276169265042
20
16.3379732739421
30
0.000000000000000
11
5.25723830734958
21
16.3379732739421
31
0.000000000000000
  0
LINE
  5
F1005A
330
F10007
100
AcDbEntity
  8
Bemassung
 62
     0
370
    -2
100
AcDbLine
10
3.25723830734958
20
2.83797327394207
30
0.000000000000000
11
3.25723830734958
21
16.3379732739421
31
0.000000000000000
  0
INSERT
  5
F1005B
330
F10007
100
AcDbEntity
  8
Bemassung
 62
     0
370
    -2
100
AcDbBlockReference
  2
VDDIM_DEFAULT
10
3.25723830734958
20
2.83797327394207
30
0.000000000000000
 41
2.50000000000000
 42
2.50000000000000
 43
2.50000000000000
 50
90.0000000000000
  0
INSERT
  5
F1005C
330
F10007
100
AcDbEntity
  8
Bemassung
 62
     0
370
    -2
100
AcDbBlockReference
  2
VDDIM_DEFAULT
10
3.25723830734958
20
16.3379732739421
30
0.000000000000000
 41
2.50000000000000
 42
2.50000000000000
 43
2.50000000000000
 50
270.000000000000
  0
MTEXT
  5
F1005D
102
{ACAD_XDICTIONARY
360
F1000A
102
}
330
F10007
100
AcDbEntity
  8
Bemassung
 62
     0
100
AcDbMText
10
2.59057164068291
20
29.9331848552338
30
0.000000000000000
 40
2.50000000000000
 41
0.0
 71
     8
 72
     1
  1
\A1;%%c13.5
 11
6.12323399573677e-017
 21
1.00000000000000
 31
0.0
 73
     1
 44
1.0
1001
ACAD
1000
MTEXTBEGIN
1070
73
1070
1
1070
44
1040
1.0
1070
74
1070
0
1000
MTEXTEND
  0
POINT
  5
F1005E
330
F10007
100
AcDbEntity
  8
Bemassung
 62
     0
100
AcDbPoint
10
-6.74276169265042
20
2.83797327394207
30
0.000000000000000
  0
POINT
  5
F1005F
330
F10007
100
AcDbEntity
  8
Bemassung
 62
     0
100
AcDbPoint
10
-6.74276169265042
20
16.3379732739421
30
0.000000000000000
  0
ENDBLK
  5
F10060
330
F10007
100
AcDbEntity
  8
0
100
AcDbBlockEnd
  0
BLOCK
  5
F10061
330
F10016
100
AcDbEntity
  8
0
100
AcDbBlockBegin
  2
*D7
 70
     1
 10
0.0
 20
0.0
 30
0.0
  3
*D7
  1

  0
LINE
  5
F10062
330
F10016
100
AcDbEntity
  8
Bemassung
 62
     0
370
    -2
100
AcDbLine
10
49.4572383073496
20
2.58797327394207
30
0.000000000000000
11
62.2572383073496
21
2.58797327394207
31
0.000000000000000
  0
LINE
  5
F10063
330
F10016
100
AcDbEntity
  8
Bemassung
 62
     0
370
    -2
100
AcDbLine
10
49.4572383073496
20
16.5879732739421
30
0.000000000000000
11
62.2572383073496
21
16.5879732739421
31
0.000000000000000
  0
LINE
  5
F10064
330
F10016
100
AcDbEntity
  8
Bemassung
 62
     0
370
    -2
100
AcDbLine
10
60.2572383073496
20
2.58797327394207
30
0.000000000000000
11
60.2572383073496
21
16.5879732739421
31
0.000000000000000
  0
INSERT
  5
F10065
330
F10016
100
AcDbEntity
  8
Bemassung
 62
     0
370
    -2
100
AcDbBlockReference
  2
VDDIM_DEFAULT
10
60.2572383073496
20
2.58797327394207
30
0.000000000000000
 41
2.50000000000000
 42
2.50000000000000
 43
2.50000000000000
 50
270.000000000000
  0
INSERT
  5
F10066
330
F10016
100
AcDbEntity
  8
Bemassung
 62
     0
370
    -2
100
AcDbBlockReference
  2
VDDIM_DEFAULT
10
60.2572383073496
20
16.5879732739421
30
0.000000000000000
 41
2.50000000000000
 42
2.50000000000000
 43
2.50000000000000
 50
90.0000000000000
  0
MTEXT
  5
F10067
330
F10016
100
AcDbEntity
  8
Bemassung
 62
     0
100
AcDbMText
10
59.5905716406829
20
9.58797327394207
30
0.000000000000000
 40
2.50000000000000
 41
0.0
 71
     8
 72
     1
  1
\A1;%%c14 h6
 11
6.12323399573677e-017
 21
1.00000000000000
 31
0.0
 73
     1
 44
1.0
  0
POINT
  5
F10068
330
F10016
100
AcDbEntity
  8
Bemassung
 62
     0
100
AcDbPoint
10
49.4572383073496
20
2.58797327394207
30
0.000000000000000
  0
POINT
  5
F10069
330
F10016
100
AcDbEntity
  8
Bemassung
 62
     0
100
AcDbPoint
10
49.4572383073496
20
16.5879732739421
30
0.000000000000000
  0
ENDBLK
  5
F1006A
330
F10016
100
AcDbEntity
  8
0
100
AcDbBlockEnd
0
ENDSEC
0
SECTION
2
ENTITIES
  0
DIMENSION
  5
F1000D
330
261
100
AcDbEntity
  8
Bemassung
100
AcDbDimension
  2
*D5
10
5.25723830734958
20
31.5879732739421
30
0.000000000000000
11
-13.7427616926504
21
30.9213066072754
31
0.000000000000000
 70
32
 1
<>
 71
     8
  3
BEM-ISBE
100
AcDbAlignedDimension
13
-32.7427616926504
23
-9.41202672605793
33
0.000000000000000
14
5.25723830734958
24
16.3379732739421
34
0.000000000000000
100
AcDbRotatedDimension
1001
ACAD
1000
DSTYLE
1002
{
1070
284
1070
8
1070
78
1070
8
1070
144
1040
1.00000000000000
1070
147
1040
0.625
1070
 72
1070
 0
1070
 71
1070
 0
1002
}
  0
DIMENSION
  5
F10012
330
261
100
AcDbEntity
  8
Bemassung
100
AcDbDimension
  2
*D6
10
50.2572383073496
20
26.5879732739421
30
0.000000000000000
11
28.9961024498886
21
25.9213066072754
31
0.000000000000000
 70
32
 1
<>
 71
     8
  3
BEM-ISBE
100
AcDbAlignedDimension
13
5.25723830734958
23
16.5879732739421
33
0.000000000000000
14
50.2572383073496
24
15.7879732739421
34
0.000000000000000
100
AcDbRotatedDimension
1001
ACAD
1000
DSTYLE
1002
{
1070
284
1070
8
1070
78
1070
8
1070
144
1040
1.00000000000000
1070
147
1040
0.625
1070
 72
1070
 0
1070
 71
1070
 0
1002
}
  0
DIMENSION
  5
F1001C
330
261
100
AcDbEntity
  8
Bemassung
100
AcDbDimension
  2
*D8
10
-32.7427616926504
20
-7.41202672605793
30
0.000000000000000
11
-17.7728285077952
21
-6.74536005939126
31
0.000000000000000
 70
32
 1
<>
 71
     8
  3
BEM-ISBE
100
AcDbAlignedDimension
13
-6.74276169265042
23
2.83797327394207
33
0.000000000000000
14
-32.7427616926504
24
-9.41202672605793
34
0.000000000000000
100
AcDbRotatedDimension
1001
ACAD
1000
DSTYLE
1002
{
1070
284
1070
8
1070
78
1070
8
1070
144
1040
1.00000000000000
1070
147
1040
0.625
1070
 72
1070
 0
1070
 71
1070
 0
1002
}
  0
DIMENSION
  5
F10021
330
261
100
AcDbEntity
  8
Bemassung
100
AcDbDimension
  2
*D9
10
-32.7427616926504
20
46.5879732739421
30
0.000000000000000
11
8.64922048997764
21
47.2546399406087
31
0.000000000000000
 70
32
 1
<>
 71
     8
  3
BEM-ISBE
100
AcDbAlignedDimension
13
50.2572383073496
23
15.7879732739421
33
0.000000000000000
14
-32.7427616926504
24
-9.41202672605793
34
0.000000000000000
100
AcDbRotatedDimension
1001
ACAD
1000
DSTYLE
1002
{
1070
284
1070
8
1070
78
1070
8
1070
144
1040
1.00000000000000
1070
147
1040
0.625
1070
 72
1070
 0
1070
 71
1070
 0
1002
}
  0
DIMENSION
  5
F10003
330
261
100
AcDbEntity
  8
Bemassung
100
AcDbDimension
  2
*D3
10
-42.7427616926504
20
16.5879732739421
30
0.000000000000000
11
-43.4094283593171
21
9.12026726057907
31
0.000000000000000
 70
32
 1
%%c<>
 71
     8
  3
BEM-ISBE
100
AcDbAlignedDimension
13
-32.5427616926504
23
2.58797327394207
33
0.000000000000000
14
-32.5427616926504
24
16.5879732739421
34
0.000000000000000
50
90.0000000000000
100
AcDbRotatedDimension
1001
ACAD
1000
DSTYLE
1002
{
1070
284
1070
8
1070
78
1070
8
1070
144
1040
1.00000000000000
1070
147
1040
0.625
1070
 72
1070
 0
1070
 71
1070
 0
1002
}
  0
DIMENSION
  5
F10008
330
261
100
AcDbEntity
  8
Bemassung
100
AcDbDimension
  2
*D4
10
3.25723830734958
20
16.3379732739421
30
0.000000000000000
11
2.59057164068291
21
29.9331848552338
31
0.000000000000000
 70
32
 1
%%c<>
 71
     8
  3
BEM-ISBE
100
AcDbAlignedDimension
13
-6.74276169265042
23
2.83797327394207
33
0.000000000000000
14
-6.74276169265042
24
16.3379732739421
34
0.000000000000000
50
90.0000000000000
100
AcDbRotatedDimension
1001
ACAD
1000
DSTYLE
1002
{
1070
284
1070
8
1070
78
1070
8
1070
144
1040
1.00000000000000
1070
147
1040
0.625
1070
 72
1070
 0
1070
 71
1070
 0
1002
}
  0
DIMENSION
  5
F10017
330
261
100
AcDbEntity
  8
Bemassung
100
AcDbDimension
  2
*D7
10
60.2572383073496
20
16.5879732739421
30
0.000000000000000
11
59.5905716406829
21
9.58797327394207
31
0.000000000000000
 70
32
 1
%%c<> h6
 71
     8
  3
BEM-ISBE
100
AcDbAlignedDimension
13
49.4572383073496
23
2.58797327394207
33
0.000000000000000
14
49.4572383073496
24
16.5879732739421
34
0.000000000000000
50
90.0000000000000
100
AcDbRotatedDimension
1001
ACAD
1000
DSTYLE
1002
{
1070
284
1070
8
1070
78
1070
8
1070
144
1040
1.00000000000000
1070
147
1040
0.625
1070
 72
1070
 0
1070
 71
1070
 0
1002
}
  0
LINE
  5
F1006B
330
F1006C
100
AcDbEntity
8
Geo
100
AcDbLine
10
-32.7427616926504
20
9.58797327394207
30
0.000000000000000
11
-32.7427616926504
21
16.3879732739421
31
0.000000000000000
  0
LINE
  5
F1006D
330
F1006E
100
AcDbEntity
8
Geo
100
AcDbLine
10
-32.7427616926504
20
16.3879732739421
30
0.000000000000000
11
-32.5427616926504
21
16.5879732739421
31
0.000000000000000
  0
LINE
  5
F1006F
330
F10070
100
AcDbEntity
8
Geo
100
AcDbLine
10
-32.5427616926504
20
16.5879732739421
30
0.000000000000000
11
-6.74276169265042
21
16.5879732739421
31
0.000000000000000
  0
LINE
  5
F10071
330
F10072
100
AcDbEntity
8
Geo
100
AcDbLine
10
-6.74276169265042
20
16.5879732739421
30
0.000000000000000
11
-6.74276169265042
21
16.3379732739421
31
0.000000000000000
  0
LINE
  5
F10073
330
F10074
100
AcDbEntity
8
Geo
100
AcDbLine
10
-6.74276169265042
20
16.3379732739421
30
0.000000000000000
11
5.25723830734958
21
16.3379732739421
31
0.000000000000000
  0
LINE
  5
F10075
330
F10076
100
AcDbEntity
8
Geo
100
AcDbLine
10
5.25723830734958
20
16.3379732739421
30
0.000000000000000
11
5.25723830734958
21
16.5879732739421
31
0.000000000000000
  0
LINE
  5
F10077
330
F10078
100
AcDbEntity
8
Geo
100
AcDbLine
10
5.25723830734958
20
16.5879732739421
30
0.000000000000000
11
49.4572383073496
21
16.5879732739421
31
0.000000000000000
  0
LINE
  5
F10079
330
F1007A
100
AcDbEntity
8
Geo
100
AcDbLine
10
49.4572383073496
20
16.5879732739421
30
0.000000000000000
11
50.2572383073496
21
15.7879732739421
31
0.000000000000000
  0
LINE
  5
F1007B
330
F1007C
100
AcDbEntity
8
Geo
100
AcDbLine
10
-26.5427616926504
20
16.5877873189986
30
0.000000000000000
11
-26.4427616926504
21
16.5878960219202
31
0.000000000000000
  0
LINE
  5
F1007D
330
F1007E
100
AcDbEntity
8
Geo
100
AcDbLine
10
-26.4427616926504
20
16.5878960219202
30
0.000000000000000
11
-26.3427616926504
21
16.5869989077134
31
0.000000000000000
  0
LINE
  5
F1007F
330
F10080
100
AcDbEntity
8
Geo
100
AcDbLine
10
-26.3427616926504
20
16.5869989077134
30
0.000000000000000
11
-26.2427616926504
21
16.5850961052842
31
0.000000000000000
  0
LINE
  5
F10081
330
F10082
100
AcDbEntity
8
Geo
100
AcDbLine
10
-26.2427616926504
20
16.5850961052842
30
0.000000000000000
11
-26.1427616926504
21
16.5821878880460
31
0.000000000000000
  0
LINE
  5
F10083
330
F10084
100
AcDbEntity
8
Geo
100
AcDbLine
10
-26.1427616926504
20
16.5821878880460
30
0.000000000000000
11
-26.0427616926504
21
16.5782746738796
31
0.000000000000000
  0
LINE
  5
F10085
330
F10086
100
AcDbEntity
8
Geo
100
AcDbLine
10
-26.0427616926504
20
16.5782746738796
30
0.000000000000000
11
-25.9427616926504
21
16.5733570250739
31
0.000000000000000
  0
LINE
  5
F10087
330
F10088
100
AcDbEntity
8
Geo
100
AcDbLine
10
-25.9427616926504
20
16.5733570250739
30
0.000000000000000
11
-25.8427616926504
21
16.5674356482445
31
0.000000000000000
  0
LINE
  5
F10089
330
F1008A
100
AcDbEntity
8
Geo
100
AcDbLine
10
-25.8427616926504
20
16.5674356482445
30
0.000000000000000
11
-25.7427616926504
21
16.5605113942326
31
0.000000000000000
  0
LINE
  5
F1008B
330
F1008C
100
AcDbEntity
8
Geo
100
AcDbLine
10
-25.7427616926504
20
16.5605113942326
30
0.000000000000000
11
-25.6427616926504
21
16.5525852579825
31
0.000000000000000
  0
LINE
  5
F1008D
330
F1008E
100
AcDbEntity
8
Geo
100
AcDbLine
10
-25.6427616926504
20
16.5525852579825
30
0.000000000000000
11
-25.5427616926504
21
16.5436583783987
31
0.000000000000000
  0
LINE
  5
F1008F
330
F10090
100
AcDbEntity
8
Geo
100
AcDbLine
10
-25.5427616926504
20
16.5436583783987
30
0.000000000000000
11
-25.4427616926504
21
16.5337320381823
31
0.000000000000000
  0
LINE
  5
F10091
330
F10092
100
AcDbEntity
8
Geo
100
AcDbLine
10
-25.4427616926504
20
16.5337320381823
30
0.000000000000000
11
-25.3427616926504
21
16.5228076636466
31
0.000000000000000
  0
LINE
  5
F10093
330
F10094
100
AcDbEntity
8
Geo
100
AcDbLine
10
-25.3427616926504
20
16.5228076636466
30
0.000000000000000
11
-25.2427616926504
21
16.5108868245122
31
0.000000000000000
  0
LINE
  5
F10095
330
F10096
100
AcDbEntity
8
Geo
100
AcDbLine
10
-25.2427616926504
20
16.5108868245122
30
0.000000000000000
11
-25.1427616926504
21
16.4979712336814
31
0.000000000000000
  0
LINE
  5
F10097
330
F10098
100
AcDbEntity
8
Geo
100
AcDbLine
10
-25.1427616926504
20
16.4979712336814
30
0.000000000000000
11
-25.0427616926504
21
16.4840627469923
31
0.000000000000000
  0
LINE
  5
F10099
330
F1009A
100
AcDbEntity
8
Geo
100
AcDbLine
10
-25.0427616926504
20
16.4840627469923
30
0.000000000000000
11
-24.9427616926504
21
16.4691633629517
31
0.000000000000000
  0
LINE
  5
F1009B
330
F1009C
100
AcDbEntity
8
Geo
100
AcDbLine
10
-24.9427616926504
20
16.4691633629517
30
0.000000000000000
11
-24.8427616926504
21
16.4532752224484
31
0.000000000000000
  0
LINE
  5
F1009D
330
F1009E
100
AcDbEntity
8
Geo
100
AcDbLine
10
-24.8427616926504
20
16.4532752224484
30
0.000000000000000
11
-24.7427616926504
21
16.4364006084454
31
0.000000000000000
  0
LINE
  5
F1009F
330
F100A0
100
AcDbEntity
8
Geo
100
AcDbLine
10
-24.7427616926504
20
16.4364006084454
30
0.000000000000000
11
-24.6427616926504
21
16.4185419456515
31
0.000000000000000
  0
LINE
  5
F100A1
330
F100A2
100
AcDbEntity
8
Geo
100
AcDbLine
10
-24.6427616926504
20
16.4185419456515
30
0.000000000000000
11
-24.5427616926504
21
16.3997018001735
31
0.000000000000000
  0
LINE
  5
F100A3
330
F100A4
100
AcDbEntity
8
Geo
100
AcDbLine
10
-24.5427616926504
20
16.3997018001735
30
0.000000000000000
11
-24.4427616926504
21
16.3798828791473
31
0.000000000000000
  0
LINE
  5
F100A5
330
F100A6
100
AcDbEntity
8
Geo
100
AcDbLine
10
-24.4427616926504
20
16.3798828791473
30
0.000000000000000
11
-24.3427616926504
21
16.3590880303484
31
0.000000000000000
  0
LINE
  5
F100A7
330
F100A8
100
AcDbEntity
8
Geo
100
AcDbLine
10
-24.3427616926504
20
16.3590880303484
30
0.000000000000000
11
-24.2427616926504
21
16.3373202417836
31
0.000000000000000
  0
LINE
  5
F100A9
330
F100AA
100
AcDbEntity
8
Geo
100
AcDbLine
10
-24.2427616926504
20
16.3373202417836
30
0.000000000000000
11
-24.1427616926504
21
16.3145826412607
31
0.000000000000000
  0
LINE
  5
F100AB
330
F100AC
100
AcDbEntity
8
Geo
100
AcDbLine
10
-24.1427616926504
20
16.3145826412607
30
0.000000000000000
11
-24.0427616926504
21
16.2908784959400
31
0.000000000000000
  0
LINE
  5
F100AD
330
F100AE
100
AcDbEntity
8
Geo
100
AcDbLine
10
-24.0427616926504
20
16.2908784959400
30
0.000000000000000
11
-23.9427616926504
21
16.2662112118639
31
0.000000000000000
  0
LINE
  5
F100AF
330
F100B0
100
AcDbEntity
8
Geo
100
AcDbLine
10
-23.9427616926504
20
16.2662112118639
30
0.000000000000000
11
-23.8427616926504
21
16.2405843334684
31
0.000000000000000
  0
LINE
  5
F100B1
330
F100B2
100
AcDbEntity
8
Geo
100
AcDbLine
10
-23.8427616926504
20
16.2405843334684
30
0.000000000000000
11
-23.7427616926504
21
16.2140015430731
31
0.000000000000000
  0
LINE
  5
F100B3
330
F100B4
100
AcDbEntity
8
Geo
100
AcDbLine
10
-23.7427616926504
20
16.2140015430731
30
0.000000000000000
11
-23.6427616926504
21
16.1864666603524
31
0.000000000000000
  0
LINE
  5
F100B5
330
F100B6
100
AcDbEntity
8
Geo
100
AcDbLine
10
-23.6427616926504
20
16.1864666603524
30
0.000000000000000
11
-23.5427616926504
21
16.1579836417867
31
0.000000000000000
  0
LINE
  5
F100B7
330
F100B8
100
AcDbEntity
8
Geo
100
AcDbLine
10
-23.5427616926504
20
16.1579836417867
30
0.000000000000000
11
-23.4427616926504
21
16.1285565800936
31
0.000000000000000
  0
LINE
  5
F100B9
330
F100BA
100
AcDbEntity
8
Geo
100
AcDbLine
10
-23.4427616926504
20
16.1285565800936
30
0.000000000000000
11
-23.3427616926504
21
16.0981897036403
31
0.000000000000000
  0
LINE
  5
F100BB
330
F100BC
100
AcDbEntity
8
Geo
100
AcDbLine
10
-23.3427616926504
20
16.0981897036403
30
0.000000000000000
11
-23.2427616926504
21
16.0668873758356
31
0.000000000000000
  0
LINE
  5
F100BD
330
F100BE
100
AcDbEntity
8
Geo
100
AcDbLine
10
-23.2427616926504
20
16.0668873758356
30
0.000000000000000
11
-23.1427616926504
21
16.0346540945029
31
0.000000000000000
  0
LINE
  5
F100BF
330
F100C0
100
AcDbEntity
8
Geo
100
AcDbLine
10
-23.1427616926504
20
16.0346540945029
30
0.000000000000000
11
-23.0427616926504
21
16.0014944912344
31
0.000000000000000
  0
LINE
  5
F100C1
330
F100C2
100
AcDbEntity
8
Geo
100
AcDbLine
10
-23.0427616926504
20
16.0014944912344
30
0.000000000000000
11
-22.9427616926504
21
15.9674133307249
31
0.000000000000000
  0
LINE
  5
F100C3
330
F100C4
100
AcDbEntity
8
Geo
100
AcDbLine
10
-22.9427616926504
20
15.9674133307249
30
0.000000000000000
11
-22.8427616926504
21
15.9324155100880
31
0.000000000000000
  0
LINE
  5
F100C5
330
F100C6
100
AcDbEntity
8
Geo
100
AcDbLine
10
-22.8427616926504
20
15.9324155100880
30
0.000000000000000
11
-22.7427616926504
21
15.8965060581515
31
0.000000000000000
  0
LINE
  5
F100C7
330
F100C8
100
AcDbEntity
8
Geo
100
AcDbLine
10
-22.7427616926504
20
15.8965060581515
30
0.000000000000000
11
-22.6427616926504
21
15.8596901347355
31
0.000000000000000
  0
LINE
  5
F100C9
330
F100CA
100
AcDbEntity
8
Geo
100
AcDbLine
10
-22.6427616926504
20
15.8596901347355
30
0.000000000000000
11
-22.5427616926504
21
15.8219730299108
31
0.000000000000000
  0
LINE
  5
F100CB
330
F100CC
100
AcDbEntity
8
Geo
100
AcDbLine
10
-22.5427616926504
20
15.8219730299108
30
0.000000000000000
11
-22.4427616926504
21
15.7833601632386
31
0.000000000000000
  0
LINE
  5
F100CD
330
F100CE
100
AcDbEntity
8
Geo
100
AcDbLine
10
-22.4427616926504
20
15.7833601632386
30
0.000000000000000
11
-22.3427616926504
21
15.7438570829919
31
0.000000000000000
  0
LINE
  5
F100CF
330
F100D0
100
AcDbEntity
8
Geo
100
AcDbLine
10
-22.3427616926504
20
15.7438570829919
30
0.000000000000000
11
-22.2427616926504
21
15.7034694653583
31
0.000000000000000
  0
LINE
  5
F100D1
330
F100D2
100
AcDbEntity
8
Geo
100
AcDbLine
10
-22.2427616926504
20
15.7034694653583
30
0.000000000000000
11
-22.1427616926504
21
15.6622031136244
31
0.000000000000000
  0
LINE
  5
F100D3
330
F100D4
100
AcDbEntity
8
Geo
100
AcDbLine
10
-22.1427616926504
20
15.6622031136244
30
0.000000000000000
11
-22.0427616926504
21
15.6200639573418
31
0.000000000000000
  0
LINE
  5
F100D5
330
F100D6
100
AcDbEntity
8
Geo
100
AcDbLine
10
-22.0427616926504
20
15.6200639573418
30
0.000000000000000
11
-21.9427616926504
21
15.5770580514753
31
0.000000000000000
  0
LINE
  5
F100D7
330
F100D8
100
AcDbEntity
8
Geo
100
AcDbLine
10
-21.9427616926504
20
15.5770580514753
30
0.000000000000000
11
-21.8427616926504
21
15.5331915755326
31
0.000000000000000
  0
LINE
  5
F100D9
330
F100DA
100
AcDbEntity
8
Geo
100
AcDbLine
10
-21.8427616926504
20
15.5331915755326
30
0.000000000000000
11
-21.7427616926504
21
15.4884708326764
31
0.000000000000000
  0
LINE
  5
F100DB
330
F100DC
100
AcDbEntity
8
Geo
100
AcDbLine
10
-21.7427616926504
20
15.4884708326764
30
0.000000000000000
11
-21.6427616926504
21
15.4429022488191
31
0.000000000000000
  0
LINE
  5
F100DD
330
F100DE
100
AcDbEntity
8
Geo
100
AcDbLine
10
-21.6427616926504
20
15.4429022488191
30
0.000000000000000
11
-21.5427616926504
21
15.3964923716988
31
0.000000000000000
  0
LINE
  5
F100DF
330
F100E0
100
AcDbEntity
8
Geo
100
AcDbLine
10
-21.5427616926504
20
15.3964923716988
30
0.000000000000000
11
-21.4427616926504
21
15.3492478699392
31
0.000000000000000
  0
LINE
  5
F100E1
330
F100E2
100
AcDbEntity
8
Geo
100
AcDbLine
10
-21.4427616926504
20
15.3492478699392
30
0.000000000000000
11
-21.3427616926504
21
15.3011755320907
31
0.000000000000000
  0
LINE
  5
F100E3
330
F100E4
100
AcDbEntity
8
Geo
100
AcDbLine
10
-21.3427616926504
20
15.3011755320907
30
0.000000000000000
11
-21.2427616926504
21
15.2522822656553
31
0.000000000000000
  0
LINE
  5
F100E5
330
F100E6
100
AcDbEntity
8
Geo
100
AcDbLine
10
-21.2427616926504
20
15.2522822656553
30
0.000000000000000
11
-21.1427616926504
21
15.2025750960942
31
0.000000000000000
  0
LINE
  5
F100E7
330
F100E8
100
AcDbEntity
8
Geo
100
AcDbLine
10
-21.1427616926504
20
15.2025750960942
30
0.000000000000000
11
-21.0427616926504
21
15.1520611658180
31
0.000000000000000
  0
LINE
  5
F100E9
330
F100EA
100
AcDbEntity
8
Geo
100
AcDbLine
10
-21.0427616926504
20
15.1520611658180
30
0.000000000000000
11
-20.9427616926504
21
15.1007477331605
31
0.000000000000000
  0
LINE
  5
F100EB
330
F100EC
100
AcDbEntity
8
Geo
100
AcDbLine
10
-20.9427616926504
20
15.1007477331605
30
0.000000000000000
11
-20.8427616926504
21
15.0486421713358
31
0.000000000000000
  0
LINE
  5
F100ED
330
F100EE
100
AcDbEntity
8
Geo
100
AcDbLine
10
-20.8427616926504
20
15.0486421713358
30
0.000000000000000
11
-20.7427616926504
21
14.9957519673791
31
0.000000000000000
  0
LINE
  5
F100EF
330
F100F0
100
AcDbEntity
8
Geo
100
AcDbLine
10
-20.7427616926504
20
14.9957519673791
30
0.000000000000000
11
-20.6427616926504
21
14.9420847210702
31
0.000000000000000
  0
LINE
  5
F100F1
330
F100F2
100
AcDbEntity
8
Geo
100
AcDbLine
10
-20.6427616926504
20
14.9420847210702
30
0.000000000000000
11
-20.5427616926504
21
14.8876481438423
31
0.000000000000000
  0
LINE
  5
F100F3
330
F100F4
100
AcDbEntity
8
Geo
100
AcDbLine
10
-20.5427616926504
20
14.8876481438423
30
0.000000000000000
11
-20.4427616926504
21
14.8324500576734
31
0.000000000000000
  0
LINE
  5
F100F5
330
F100F6
100
AcDbEntity
8
Geo
100
AcDbLine
10
-20.4427616926504
20
14.8324500576734
30
0.000000000000000
11
-20.3427616926504
21
14.7764983939624
31
0.000000000000000
  0
LINE
  5
F100F7
330
F100F8
100
AcDbEntity
8
Geo
100
AcDbLine
10
-20.3427616926504
20
14.7764983939624
30
0.000000000000000
11
-20.2427616926504
21
14.7198011923898
31
0.000000000000000
  0
LINE
  5
F100F9
330
F100FA
100
AcDbEntity
8
Geo
100
AcDbLine
10
-20.2427616926504
20
14.7198011923898
30
0.000000000000000
11
-20.1427616926504
21
14.6623665997621
31
0.000000000000000
  0
LINE
  5
F100FB
330
F100FC
100
AcDbEntity
8
Geo
100
AcDbLine
10
-20.1427616926504
20
14.6623665997621
30
0.000000000000000
11
-20.0427616926504
21
14.6042028688415
31
0.000000000000000
  0
LINE
  5
F100FD
330
F100FE
100
AcDbEntity
8
Geo
100
AcDbLine
10
-20.0427616926504
20
14.6042028688415
30
0.000000000000000
11
-19.9427616926505
21
14.5453183571596
31
0.000000000000000
  0
LINE
  5
F100FF
330
F10100
100
AcDbEntity
8
Geo
100
AcDbLine
10
-19.9427616926505
20
14.5453183571596
30
0.000000000000000
11
-19.8427616926504
21
14.4857215258171
31
0.000000000000000
  0
LINE
  5
F10101
330
F10102
100
AcDbEntity
8
Geo
100
AcDbLine
10
-19.8427616926504
20
14.4857215258171
30
0.000000000000000
11
-19.7427616926504
21
14.4254209382676
31
0.000000000000000
  0
LINE
  5
F10103
330
F10104
100
AcDbEntity
8
Geo
100
AcDbLine
10
-19.7427616926504
20
14.4254209382676
30
0.000000000000000
11
-19.6427616926504
21
14.3644252590873
31
0.000000000000000
  0
LINE
  5
F10105
330
F10106
100
AcDbEntity
8
Geo
100
AcDbLine
10
-19.6427616926504
20
14.3644252590873
30
0.000000000000000
11
-19.5427616926505
21
14.3027432527299
31
0.000000000000000
  0
LINE
  5
F10107
330
F10108
100
AcDbEntity
8
Geo
100
AcDbLine
10
-19.5427616926505
20
14.3027432527299
30
0.000000000000000
11
-19.4427616926505
21
14.2403837822671
31
0.000000000000000
  0
LINE
  5
F10109
330
F1010A
100
AcDbEntity
8
Geo
100
AcDbLine
10
-19.4427616926505
20
14.2403837822671
30
0.000000000000000
11
-19.3427616926504
21
14.1773558081157
31
0.000000000000000
  0
LINE
  5
F1010B
330
F1010C
100
AcDbEntity
8
Geo
100
AcDbLine
10
-19.3427616926504
20
14.1773558081157
30
0.000000000000000
11
-19.2427616926505
21
14.1136683867492
31
0.000000000000000
  0
LINE
  5
F1010D
330
F1010E
100
AcDbEntity
8
Geo
100
AcDbLine
10
-19.2427616926505
20
14.1136683867492
30
0.000000000000000
11
-19.1427616926505
21
14.0493306693971
31
0.000000000000000
  0
LINE
  5
F1010F
330
F10110
100
AcDbEntity
8
Geo
100
AcDbLine
10
-19.1427616926505
20
14.0493306693971
30
0.000000000000000
11
-19.0427616926505
21
13.9843519007298
31
0.000000000000000
  0
LINE
  5
F10111
330
F10112
100
AcDbEntity
8
Geo
100
AcDbLine
10
-19.0427616926505
20
13.9843519007298
30
0.000000000000000
11
-18.9427616926505
21
13.9187414175300
31
0.000000000000000
  0
LINE
  5
F10113
330
F10114
100
AcDbEntity
8
Geo
100
AcDbLine
10
-18.9427616926505
20
13.9187414175300
30
0.000000000000000
11
-18.8427616926505
21
13.8525086473515
31
0.000000000000000
  0
LINE
  5
F10115
330
F10116
100
AcDbEntity
8
Geo
100
AcDbLine
10
-18.8427616926505
20
13.8525086473515
30
0.000000000000000
11
-18.7427616926505
21
13.7856631071642
31
0.000000000000000
  0
LINE
  5
F10117
330
F10118
100
AcDbEntity
8
Geo
100
AcDbLine
10
-18.7427616926505
20
13.7856631071642
30
0.000000000000000
11
-18.6427616926505
21
13.7182144019870
31
0.000000000000000
  0
LINE
  5
F10119
330
F1011A
100
AcDbEntity
8
Geo
100
AcDbLine
10
-18.6427616926505
20
13.7182144019870
30
0.000000000000000
11
-18.5427616926505
21
13.6501722235072
31
0.000000000000000
  0
LINE
  5
F1011B
330
F1011C
100
AcDbEntity
8
Geo
100
AcDbLine
10
-18.5427616926505
20
13.6501722235072
30
0.000000000000000
11
-18.4427616926505
21
13.5815463486882
31
0.000000000000000
  0
LINE
  5
F1011D
330
F1011E
100
AcDbEntity
8
Geo
100
AcDbLine
10
-18.4427616926505
20
13.5815463486882
30
0.000000000000000
11
-18.3427616926505
21
13.5123466383646
31
0.000000000000000
  0
LINE
  5
F1011F
330
F10120
100
AcDbEntity
8
Geo
100
AcDbLine
10
-18.3427616926505
20
13.5123466383646
30
0.000000000000000
11
-18.2427616926505
21
13.4425830358253
31
0.000000000000000
  0
LINE
  5
F10121
330
F10122
100
AcDbEntity
8
Geo
100
AcDbLine
10
-18.2427616926505
20
13.4425830358253
30
0.000000000000000
11
-18.1427616926505
21
13.3722655653846
31
0.000000000000000
  0
LINE
  5
F10123
330
F10124
100
AcDbEntity
8
Geo
100
AcDbLine
10
-18.1427616926505
20
13.3722655653846
30
0.000000000000000
11
-18.0427616926505
21
13.3014043309422
31
0.000000000000000
  0
LINE
  5
F10125
330
F10126
100
AcDbEntity
8
Geo
100
AcDbLine
10
-18.0427616926505
20
13.3014043309422
30
0.000000000000000
11
-17.9427616926505
21
13.2300095145308
31
0.000000000000000
  0
LINE
  5
F10127
330
F10128
100
AcDbEntity
8
Geo
100
AcDbLine
10
-17.9427616926505
20
13.2300095145308
30
0.000000000000000
11
-17.8427616926505
21
13.1580913748536
31
0.000000000000000
  0
LINE
  5
F10129
330
F1012A
100
AcDbEntity
8
Geo
100
AcDbLine
10
-17.8427616926505
20
13.1580913748536
30
0.000000000000000
11
-17.7427616926505
21
13.0856602458098
31
0.000000000000000
  0
LINE
  5
F1012B
330
F1012C
100
AcDbEntity
8
Geo
100
AcDbLine
10
-17.7427616926505
20
13.0856602458098
30
0.000000000000000
11
-17.6427616926505
21
13.0127265350100
31
0.000000000000000
  0
LINE
  5
F1012D
330
F1012E
100
AcDbEntity
8
Geo
100
AcDbLine
10
-17.6427616926505
20
13.0127265350100
30
0.000000000000000
11
-17.5427616926505
21
12.9393007222808
31
0.000000000000000
  0
LINE
  5
F1012F
330
F10130
100
AcDbEntity
8
Geo
100
AcDbLine
10
-17.5427616926505
20
12.9393007222808
30
0.000000000000000
11
-17.4427616926505
21
12.8653933581585
31
0.000000000000000
  0
LINE
  5
F10131
330
F10132
100
AcDbEntity
8
Geo
100
AcDbLine
10
-17.4427616926505
20
12.8653933581585
30
0.000000000000000
11
-17.3427616926505
21
12.7910150623736
31
0.000000000000000
  0
LINE
  5
F10133
330
F10134
100
AcDbEntity
8
Geo
100
AcDbLine
10
-17.3427616926505
20
12.7910150623736
30
0.000000000000000
11
-17.2427616926505
21
12.7161765223246
31
0.000000000000000
  0
LINE
  5
F10135
330
F10136
100
AcDbEntity
8
Geo
100
AcDbLine
10
-17.2427616926505
20
12.7161765223246
30
0.000000000000000
11
-17.1427616926505
21
12.6408884915424
31
0.000000000000000
  0
LINE
  5
F10137
330
F10138
100
AcDbEntity
8
Geo
100
AcDbLine
10
-17.1427616926505
20
12.6408884915424
30
0.000000000000000
11
-17.0427616926505
21
12.5651617881451
31
0.000000000000000
  0
LINE
  5
F10139
330
F1013A
100
AcDbEntity
8
Geo
100
AcDbLine
10
-17.0427616926505
20
12.5651617881451
30
0.000000000000000
11
-16.9427616926505
21
12.4890072932835
31
0.000000000000000
  0
LINE
  5
F1013B
330
F1013C
100
AcDbEntity
8
Geo
100
AcDbLine
10
-16.9427616926505
20
12.4890072932835
30
0.000000000000000
11
-16.8427616926505
21
12.4124359495777
31
0.000000000000000
  0
LINE
  5
F1013D
330
F1013E
100
AcDbEntity
8
Geo
100
AcDbLine
10
-16.8427616926505
20
12.4124359495777
30
0.000000000000000
11
-16.7427616926505
21
12.3354587595448
31
0.000000000000000
  0
LINE
  5
F1013F
330
F10140
100
AcDbEntity
8
Geo
100
AcDbLine
10
-16.7427616926505
20
12.3354587595448
30
0.000000000000000
11
-16.6427616926505
21
12.2580867840176
31
0.000000000000000
  0
LINE
  5
F10141
330
F10142
100
AcDbEntity
8
Geo
100
AcDbLine
10
-16.6427616926505
20
12.2580867840176
30
0.000000000000000
11
-16.5427616926505
21
12.1803311405558
31
0.000000000000000
  0
LINE
  5
F10143
330
F10144
100
AcDbEntity
8
Geo
100
AcDbLine
10
-16.5427616926505
20
12.1803311405558
30
0.000000000000000
11
-16.4427616926505
21
12.1022030018481
31
0.000000000000000
  0
LINE
  5
F10145
330
F10146
100
AcDbEntity
8
Geo
100
AcDbLine
10
-16.4427616926505
20
12.1022030018481
30
0.000000000000000
11
-16.3427616926505
21
12.0237135941070
31
0.000000000000000
  0
LINE
  5
F10147
330
F10148
100
AcDbEntity
8
Geo
100
AcDbLine
10
-16.3427616926505
20
12.0237135941070
30
0.000000000000000
11
-16.2427616926505
21
11.9448741954557
31
0.000000000000000
  0
LINE
  5
F10149
330
F1014A
100
AcDbEntity
8
Geo
100
AcDbLine
10
-16.2427616926505
20
11.9448741954557
30
0.000000000000000
11
-16.1427616926505
21
11.8656961343073
31
0.000000000000000
  0
LINE
  5
F1014B
330
F1014C
100
AcDbEntity
8
Geo
100
AcDbLine
10
-16.1427616926505
20
11.8656961343073
30
0.000000000000000
11
-16.0427616926505
21
11.7861907877374
31
0.000000000000000
  0
LINE
  5
F1014D
330
F1014E
100
AcDbEntity
8
Geo
100
AcDbLine
10
-16.0427616926505
20
11.7861907877374
30
0.000000000000000
11
-15.9427616926505
21
11.7063695798492
31
0.000000000000000
  0
LINE
  5
F1014F
330
F10150
100
AcDbEntity
8
Geo
100
AcDbLine
10
-15.9427616926505
20
11.7063695798492
30
0.000000000000000
11
-15.8427616926504
21
11.6262439801318
31
0.000000000000000
  0
LINE
  5
F10151
330
F10152
100
AcDbEntity
8
Geo
100
AcDbLine
10
-15.8427616926504
20
11.6262439801318
30
0.000000000000000
11
-15.7427616926504
21
11.5458255018124
31
0.000000000000000
  0
LINE
  5
F10153
330
F10154
100
AcDbEntity
8
Geo
100
AcDbLine
10
-15.7427616926504
20
11.5458255018124
30
0.000000000000000
11
-15.6427616926504
21
11.4651257002018
31
0.000000000000000
  0
LINE
  5
F10155
330
F10156
100
AcDbEntity
8
Geo
100
AcDbLine
10
-15.6427616926504
20
11.4651257002018
30
0.000000000000000
11
-15.5427616926504
21
11.3841561710341
31
0.000000000000000
  0
LINE
  5
F10157
330
F10158
100
AcDbEntity
8
Geo
100
AcDbLine
10
-15.5427616926504
20
11.3841561710341
30
0.000000000000000
11
-15.4427616926504
21
11.3029285488004
31
0.000000000000000
  0
LINE
  5
F10159
330
F1015A
100
AcDbEntity
8
Geo
100
AcDbLine
10
-15.4427616926504
20
11.3029285488004
30
0.000000000000000
11
-15.3427616926504
21
11.2214545050771
31
0.000000000000000
  0
LINE
  5
F1015B
330
F1015C
100
AcDbEntity
8
Geo
100
AcDbLine
10
-15.3427616926504
20
11.2214545050771
30
0.000000000000000
11
-15.2427616926504
21
11.1397457468491
31
0.000000000000000
  0
LINE
  5
F1015D
330
F1015E
100
AcDbEntity
8
Geo
100
AcDbLine
10
-15.2427616926504
20
11.1397457468491
30
0.000000000000000
11
-15.1427616926504
21
11.0578140148272
31
0.000000000000000
  0
LINE
  5
F1015F
330
F10160
100
AcDbEntity
8
Geo
100
AcDbLine
10
-15.1427616926504
20
11.0578140148272
30
0.000000000000000
11
-15.0427616926504
21
10.9756710817610
31
0.000000000000000
  0
LINE
  5
F10161
330
F10162
100
AcDbEntity
8
Geo
100
AcDbLine
10
-15.0427616926504
20
10.9756710817610
30
0.000000000000000
11
-14.9427616926504
21
10.8933287507480
31
0.000000000000000
  0
LINE
  5
F10163
330
F10164
100
AcDbEntity
8
Geo
100
AcDbLine
10
-14.9427616926504
20
10.8933287507480
30
0.000000000000000
11
-14.8427616926504
21
10.8107988535369
31
0.000000000000000
  0
LINE
  5
F10165
330
F10166
100
AcDbEntity
8
Geo
100
AcDbLine
10
-14.8427616926504
20
10.8107988535369
30
0.000000000000000
11
-14.7427616926504
21
10.7280932488276
31
0.000000000000000
  0
LINE
  5
F10167
330
F10168
100
AcDbEntity
8
Geo
100
AcDbLine
10
-14.7427616926504
20
10.7280932488276
30
0.000000000000000
11
-14.6427616926504
21
10.6452238205677
31
0.000000000000000
  0
LINE
  5
F10169
330
F1016A
100
AcDbEntity
8
Geo
100
AcDbLine
10
-14.6427616926504
20
10.6452238205677
30
0.000000000000000
11
-14.5427616926504
21
10.5622024762442
31
0.000000000000000
  0
LINE
  5
F1016B
330
F1016C
100
AcDbEntity
8
Geo
100
AcDbLine
10
-14.5427616926504
20
10.5622024762442
30
0.000000000000000
11
-14.4427616926504
21
10.4790411451731
31
0.000000000000000
  0
LINE
  5
F1016D
330
F1016E
100
AcDbEntity
8
Geo
100
AcDbLine
10
-14.4427616926504
20
10.4790411451731
30
0.000000000000000
11
-14.3427616926504
21
10.3957517767851
31
0.000000000000000
  0
LINE
  5
F1016F
330
F10170
100
AcDbEntity
8
Geo
100
AcDbLine
10
-14.3427616926504
20
10.3957517767851
30
0.000000000000000
11
-14.2427616926504
21
10.3123463389085
31
0.000000000000000
  0
LINE
  5
F10171
330
F10172
100
AcDbEntity
8
Geo
100
AcDbLine
10
-14.2427616926504
20
10.3123463389085
30
0.000000000000000
11
-14.1427616926504
21
10.2288368160494
31
0.000000000000000
  0
LINE
  5
F10173
330
F10174
100
AcDbEntity
8
Geo
100
AcDbLine
10
-14.1427616926504
20
10.2288368160494
30
0.000000000000000
11
-14.0427616926504
21
10.1452352076701
31
0.000000000000000
  0
LINE
  5
F10175
330
F10176
100
AcDbEntity
8
Geo
100
AcDbLine
10
-14.0427616926504
20
10.1452352076701
30
0.000000000000000
11
-13.9427616926504
21
10.0615535264646
31
0.000000000000000
  0
LINE
  5
F10177
330
F10178
100
AcDbEntity
8
Geo
100
AcDbLine
10
-13.9427616926504
20
10.0615535264646
30
0.000000000000000
11
-13.8427616926504
21
9.97780379663236
31
0.000000000000000
  0
LINE
  5
F10179
330
F1017A
100
AcDbEntity
8
Geo
100
AcDbLine
10
-13.8427616926504
20
9.97780379663236
30
0.000000000000000
11
-13.7427616926504
21
9.89399805215100
31
0.000000000000000
  0
LINE
  5
F1017B
330
F1017C
100
AcDbEntity
8
Geo
100
AcDbLine
10
-13.7427616926504
20
9.89399805215100
30
0.000000000000000
11
-13.6427616926504
21
9.81014833504670
31
0.000000000000000
  0
LINE
  5
F1017D
330
F1017E
100
AcDbEntity
8
Geo
100
AcDbLine
10
-13.6427616926504
20
9.81014833504670
30
0.000000000000000
11
-13.5427616926504
21
9.72626669366409
31
0.000000000000000
  0
LINE
  5
F1017F
330
F10180
100
AcDbEntity
8
Geo
100
AcDbLine
10
-13.5427616926504
20
9.72626669366409
30
0.000000000000000
11
-13.4427616926504
21
9.64236518093498
31
0.000000000000000
  0
LINE
  5
F10181
330
F10182
100
AcDbEntity
8
Geo
100
AcDbLine
10
-13.4427616926504
20
9.64236518093498
30
0.000000000000000
11
-13.3427616926504
21
9.55845585264653
31
0.000000000000000
  0
LINE
  5
F10183
330
F10184
100
AcDbEntity
8
Geo
100
AcDbLine
10
-13.3427616926504
20
9.55845585264653
30
0.000000000000000
11
-13.2427616926504
21
9.47455076570887
31
0.000000000000000
  0
LINE
  5
F10185
330
F10186
100
AcDbEntity
8
Geo
100
AcDbLine
10
-13.2427616926504
20
9.47455076570887
30
0.000000000000000
11
-13.1427616926504
21
9.39066197642272
31
0.000000000000000
  0
LINE
  5
F10187
330
F10188
100
AcDbEntity
8
Geo
100
AcDbLine
10
-13.1427616926504
20
9.39066197642272
30
0.000000000000000
11
-13.0427616926504
21
9.30680153874699
31
0.000000000000000
  0
LINE
  5
F10189
330
F1018A
100
AcDbEntity
8
Geo
100
AcDbLine
10
-13.0427616926504
20
9.30680153874699
30
0.000000000000000
11
-12.9427616926504
21
9.22298150256674
31
0.000000000000000
  0
LINE
  5
F1018B
330
F1018C
100
AcDbEntity
8
Geo
100
AcDbLine
10
-12.9427616926504
20
9.22298150256674
30
0.000000000000000
11
-12.8427616926504
21
9.13921391196176
31
0.000000000000000
  0
LINE
  5
F1018D
330
F1018E
100
AcDbEntity
8
Geo
100
AcDbLine
10
-12.8427616926504
20
9.13921391196176
30
0.000000000000000
11
-12.7427616926504
21
9.05551080347595
31
0.000000000000000
  0
LINE
  5
F1018F
330
F10190
100
AcDbEntity
8
Geo
100
AcDbLine
10
-12.7427616926504
20
9.05551080347595
30
0.000000000000000
11
-12.6427616926504
21
8.97188420438779
31
0.000000000000000
  0
LINE
  5
F10191
330
F10192
100
AcDbEntity
8
Geo
100
AcDbLine
10
-12.6427616926504
20
8.97188420438779
30
0.000000000000000
11
-12.5427616926504
21
8.88834613098215
31
0.000000000000000
  0
LINE
  5
F10193
330
F10194
100
AcDbEntity
8
Geo
100
AcDbLine
10
-12.5427616926504
20
8.88834613098215
30
0.000000000000000
11
-12.4427616926504
21
8.80490858682364
31
0.000000000000000
  0
LINE
  5
F10195
330
F10196
100
AcDbEntity
8
Geo
100
AcDbLine
10
-12.4427616926504
20
8.80490858682364
30
0.000000000000000
11
-12.3427616926504
21
8.72158356103189
31
0.000000000000000
  0
LINE
  5
F10197
330
F10198
100
AcDbEntity
8
Geo
100
AcDbLine
10
-12.3427616926504
20
8.72158356103189
30
0.000000000000000
11
-12.2427616926504
21
8.63838302655875
31
0.000000000000000
  0
LINE
  5
F10199
330
F1019A
100
AcDbEntity
8
Geo
100
AcDbLine
10
-12.2427616926504
20
8.63838302655875
30
0.000000000000000
11
-12.1427616926504
21
8.55531893846799
31
0.000000000000000
  0
LINE
  5
F1019B
330
F1019C
100
AcDbEntity
8
Geo
100
AcDbLine
10
-12.1427616926504
20
8.55531893846799
30
0.000000000000000
11
-12.0427616926504
21
8.47240323221738
31
0.000000000000000
  0
LINE
  5
F1019D
330
F1019E
100
AcDbEntity
8
Geo
100
AcDbLine
10
-12.0427616926504
20
8.47240323221738
30
0.000000000000000
11
-11.9427616926504
21
8.38964782194380
31
0.000000000000000
  0
LINE
  5
F1019F
330
F101A0
100
AcDbEntity
8
Geo
100
AcDbLine
10
-11.9427616926504
20
8.38964782194380
30
0.000000000000000
11
-11.8427616926504
21
8.30706459875119
31
0.000000000000000
  0
LINE
  5
F101A1
330
F101A2
100
AcDbEntity
8
Geo
100
AcDbLine
10
-11.8427616926504
20
8.30706459875119
30
0.000000000000000
11
-11.7427616926504
21
8.22466542900201
31
0.000000000000000
  0
LINE
  5
F101A3
330
F101A4
100
AcDbEntity
8
Geo
100
AcDbLine
10
-11.7427616926504
20
8.22466542900201
30
0.000000000000000
11
-11.6427616926504
21
8.14246215261210
31
0.000000000000000
  0
LINE
  5
F101A5
330
F101A6
100
AcDbEntity
8
Geo
100
AcDbLine
10
-11.6427616926504
20
8.14246215261210
30
0.000000000000000
11
-11.5427616926504
21
8.06046658134945
31
0.000000000000000
  0
LINE
  5
F101A7
330
F101A8
100
AcDbEntity
8
Geo
100
AcDbLine
10
-11.5427616926504
20
8.06046658134945
30
0.000000000000000
11
-11.4427616926504
21
7.97869049713694
31
0.000000000000000
  0
LINE
  5
F101A9
330
F101AA
100
AcDbEntity
8
Geo
100
AcDbLine
10
-11.4427616926504
20
7.97869049713694
30
0.000000000000000
11
-11.3427616926504
21
7.89714565035943
31
0.000000000000000
  0
LINE
  5
F101AB
330
F101AC
100
AcDbEntity
8
Geo
100
AcDbLine
10
-11.3427616926504
20
7.89714565035943
30
0.000000000000000
11
-11.2427616926504
21
7.81584375817532
31
0.000000000000000
  0
LINE
  5
F101AD
330
F101AE
100
AcDbEntity
8
Geo
100
AcDbLine
10
-11.2427616926504
20
7.81584375817532
30
0.000000000000000
11
-11.1427616926504
21
7.73479650283291
31
0.000000000000000
  0
LINE
  5
F101AF
330
F101B0
100
AcDbEntity
8
Geo
100
AcDbLine
10
-11.1427616926504
20
7.73479650283291
30
0.000000000000000
11
-11.0427616926504
21
7.65401552999182
31
0.000000000000000
  0
LINE
  5
F101B1
330
F101B2
100
AcDbEntity
8
Geo
100
AcDbLine
10
-11.0427616926504
20
7.65401552999182
30
0.000000000000000
11
-10.9427616926504
21
7.57351244704960
31
0.000000000000000
  0
LINE
  5
F101B3
330
F101B4
100
AcDbEntity
8
Geo
100
AcDbLine
10
-10.9427616926504
20
7.57351244704960
30
0.000000000000000
11
-10.8427616926504
21
7.49329882147387
31
0.000000000000000
  0
LINE
  5
F101B5
330
F101B6
100
AcDbEntity
8
Geo
100
AcDbLine
10
-10.8427616926504
20
7.49329882147387
30
0.000000000000000
11
-10.7427616926504
21
7.41338617914018
31
0.000000000000000
  0
LINE
  5
F101B7
330
F101B8
100
AcDbEntity
8
Geo
100
AcDbLine
10
-10.7427616926504
20
7.41338617914018
30
0.000000000000000
11
-10.6427616926504
21
7.33378600267591
31
0.000000000000000
  0
LINE
  5
F101B9
330
F101BA
100
AcDbEntity
8
Geo
100
AcDbLine
10
-10.6427616926504
20
7.33378600267591
30
0.000000000000000
11
-10.5427616926504
21
7.25450972981025
31
0.000000000000000
  0
LINE
  5
F101BB
330
F101BC
100
AcDbEntity
8
Geo
100
AcDbLine
10
-10.5427616926504
20
7.25450972981025
30
0.000000000000000
11
-10.4427616926504
21
7.17556875173079
31
0.000000000000000
  0
LINE
  5
F101BD
330
F101BE
100
AcDbEntity
8
Geo
100
AcDbLine
10
-10.4427616926504
20
7.17556875173079
30
0.000000000000000
11
-10.3427616926504
21
7.09697441144672
31
0.000000000000000
  0
LINE
  5
F101BF
330
F101C0
100
AcDbEntity
8
Geo
100
AcDbLine
10
-10.3427616926504
20
7.09697441144672
30
0.000000000000000
11
-10.2427616926504
21
7.01873800215888
31
0.000000000000000
  0
LINE
  5
F101C1
330
F101C2
100
AcDbEntity
8
Geo
100
AcDbLine
10
-10.2427616926504
20
7.01873800215888
30
0.000000000000000
11
-10.1427616926504
21
6.94087076563713
31
0.000000000000000
  0
LINE
  5
F101C3
330
F101C4
100
AcDbEntity
8
Geo
100
AcDbLine
10
-10.1427616926504
20
6.94087076563713
30
0.000000000000000
11
-10.0427616926504
21
6.86338389060500
31
0.000000000000000
  0
LINE
  5
F101C5
330
F101C6
100
AcDbEntity
8
Geo
100
AcDbLine
10
-10.0427616926504
20
6.86338389060500
30
0.000000000000000
11
-9.94276169265036
21
6.78628851113194
31
0.000000000000000
  0
LINE
  5
F101C7
330
F101C8
100
AcDbEntity
8
Geo
100
AcDbLine
10
-9.94276169265036
20
6.78628851113194
30
0.000000000000000
11
-9.84276169265036
21
6.70959570503352
31
0.000000000000000
  0
LINE
  5
F101C9
330
F101CA
100
AcDbEntity
8
Geo
100
AcDbLine
10
-9.84276169265036
20
6.70959570503352
30
0.000000000000000
11
-9.74276169265036
21
6.63331649227965
31
0.000000000000000
  0
LINE
  5
F101CB
330
F101CC
100
AcDbEntity
8
Geo
100
AcDbLine
10
-9.74276169265036
20
6.63331649227965
30
0.000000000000000
11
-9.64276169265036
21
6.55746183341110
31
0.000000000000000
  0
LINE
  5
F101CD
330
F101CE
100
AcDbEntity
8
Geo
100
AcDbLine
10
-9.64276169265036
20
6.55746183341110
30
0.000000000000000
11
-9.54276169265036
21
6.48204262796461
31
0.000000000000000
  0
LINE
  5
F101CF
330
F101D0
100
AcDbEntity
8
Geo
100
AcDbLine
10
-9.54276169265036
20
6.48204262796461
30
0.000000000000000
11
-9.44276169265036
21
6.40706971290674
31
0.000000000000000
  0
LINE
  5
F101D1
330
F101D2
100
AcDbEntity
8
Geo
100
AcDbLine
10
-9.44276169265036
20
6.40706971290674
30
0.000000000000000
11
-9.34276169265036
21
6.33255386107667
31
0.000000000000000
  0
LINE
  5
F101D3
330
F101D4
100
AcDbEntity
8
Geo
100
AcDbLine
10
-9.34276169265036
20
6.33255386107667
30
0.000000000000000
11
-9.24276169265035
21
6.25850577963830
31
0.000000000000000
  0
LINE
  5
F101D5
330
F101D6
100
AcDbEntity
8
Geo
100
AcDbLine
10
-9.24276169265035
20
6.25850577963830
30
0.000000000000000
11
-9.14276169265035
21
6.18493610854171
31
0.000000000000000
  0
LINE
  5
F101D7
330
F101D8
100
AcDbEntity
8
Geo
100
AcDbLine
10
-9.14276169265035
20
6.18493610854171
30
0.000000000000000
11
-9.04276169265035
21
6.11185541899433
31
0.000000000000000
  0
LINE
  5
F101D9
330
F101DA
100
AcDbEntity
8
Geo
100
AcDbLine
10
-9.04276169265035
20
6.11185541899433
30
0.000000000000000
11
-8.94276169265035
21
6.03927421194194
31
0.000000000000000
  0
LINE
  5
F101DB
330
F101DC
100
AcDbEntity
8
Geo
100
AcDbLine
10
-8.94276169265035
20
6.03927421194194
30
0.000000000000000
11
-8.84276169265035
21
5.96720291655983
31
0.000000000000000
  0
LINE
  5
F101DD
330
F101DE
100
AcDbEntity
8
Geo
100
AcDbLine
10
-8.84276169265035
20
5.96720291655983
30
0.000000000000000
11
-8.74276169265035
21
5.89565188875419
31
0.000000000000000
  0
LINE
  5
F101DF
330
F101E0
100
AcDbEntity
8
Geo
100
AcDbLine
10
-8.74276169265035
20
5.89565188875419
30
0.000000000000000
11
-8.64276169265035
21
5.82463140967410
31
0.000000000000000
  0
LINE
  5
F101E1
330
F101E2
100
AcDbEntity
8
Geo
100
AcDbLine
10
-8.64276169265035
20
5.82463140967410
30
0.000000000000000
11
-8.54276169265034
21
5.75415168423422
31
0.000000000000000
  0
LINE
  5
F101E3
330
F101E4
100
AcDbEntity
8
Geo
100
AcDbLine
10
-8.54276169265034
20
5.75415168423422
30
0.000000000000000
11
-8.44276169265034
21
5.68422283964848
31
0.000000000000000
  0
LINE
  5
F101E5
330
F101E6
100
AcDbEntity
8
Geo
100
AcDbLine
10
-8.44276169265034
20
5.68422283964848
30
0.000000000000000
11
-8.34276169265034
21
5.61485492397486
31
0.000000000000000
  0
LINE
  5
F101E7
330
F101E8
100
AcDbEntity
8
Geo
100
AcDbLine
10
-8.34276169265034
20
5.61485492397486
30
0.000000000000000
11
-8.24276169265034
21
5.54605790467160
31
0.000000000000000
  0
LINE
  5
F101E9
330
F101EA
100
AcDbEntity
8
Geo
100
AcDbLine
10
-8.24276169265034
20
5.54605790467160
30
0.000000000000000
11
-8.14276169265034
21
5.47784166716500
31
0.000000000000000
  0
LINE
  5
F101EB
330
F101EC
100
AcDbEntity
8
Geo
100
AcDbLine
10
-8.14276169265034
20
5.47784166716500
30
0.000000000000000
11
-8.04276169265034
21
5.41021601342898
31
0.000000000000000
  0
LINE
  5
F101ED
330
F101EE
100
AcDbEntity
8
Geo
100
AcDbLine
10
-8.04276169265034
20
5.41021601342898
30
0.000000000000000
11
-7.94276169265034
21
5.34319066057660
31
0.000000000000000
  0
LINE
  5
F101EF
330
F101F0
100
AcDbEntity
8
Geo
100
AcDbLine
10
-7.94276169265034
20
5.34319066057660
30
0.000000000000000
11
-7.84276169265033
21
5.27677523946385
31
0.000000000000000
  0
LINE
  5
F101F1
330
F101F2
100
AcDbEntity
8
Geo
100
AcDbLine
10
-7.84276169265033
20
5.27677523946385
30
0.000000000000000
11
-7.74276169265033
21
5.21097929330579
31
0.000000000000000
  0
LINE
  5
F101F3
330
F101F4
100
AcDbEntity
8
Geo
100
AcDbLine
10
-7.74276169265033
20
5.21097929330579
30
0.000000000000000
11
-7.64276169265033
21
5.14581227630527
31
0.000000000000000
  0
LINE
  5
F101F5
330
F101F6
100
AcDbEntity
8
Geo
100
AcDbLine
10
-7.64276169265033
20
5.14581227630527
30
0.000000000000000
11
-7.54276169265033
21
5.08128355229448
31
0.000000000000000
  0
LINE
  5
F101F7
330
F101F8
100
AcDbEntity
8
Geo
100
AcDbLine
10
-7.54276169265033
20
5.08128355229448
30
0.000000000000000
11
-7.44276169265033
21
5.01740239338945
31
0.000000000000000
  0
LINE
  5
F101F9
330
F101FA
100
AcDbEntity
8
Geo
100
AcDbLine
10
-7.44276169265033
20
5.01740239338945
30
0.000000000000000
11
-7.34276169265033
21
4.95417797865772
31
0.000000000000000
  0
LINE
  5
F101FB
330
F101FC
100
AcDbEntity
8
Geo
100
AcDbLine
10
-7.34276169265033
20
4.95417797865772
30
0.000000000000000
11
-7.24276169265033
21
4.89161939279946
31
0.000000000000000
  0
LINE
  5
F101FD
330
F101FE
100
AcDbEntity
8
Geo
100
AcDbLine
10
-7.24276169265033
20
4.89161939279946
30
0.000000000000000
11
-7.14276169265032
21
4.82973562484204
31
0.000000000000000
  0
LINE
  5
F101FF
330
F10200
100
AcDbEntity
8
Geo
100
AcDbLine
10
-7.14276169265032
20
4.82973562484204
30
0.000000000000000
11
-7.04276169265032
21
4.76853556684841
31
0.000000000000000
  0
LINE
  5
F10201
330
F10202
100
AcDbEntity
8
Geo
100
AcDbLine
10
-7.04276169265032
20
4.76853556684841
30
0.000000000000000
11
-6.94276169265032
21
4.70802801263943
31
0.000000000000000
  0
LINE
  5
F10203
330
F10204
100
AcDbEntity
8
Geo
100
AcDbLine
10
-6.94276169265032
20
4.70802801263943
30
0.000000000000000
11
-6.84276169265032
21
4.64822165653024
31
0.000000000000000
  0
LINE
  5
F10205
330
F10206
100
AcDbEntity
8
Geo
100
AcDbLine
10
-6.84276169265032
20
4.64822165653024
30
0.000000000000000
11
-6.74276169265042
21
4.58912509208109
31
0.000000000000000
  0
LINE
  5
F10207
330
F10208
100
AcDbEntity
8
Geo
100
AcDbLine
10
-6.74276169265042
20
4.58912509208109
30
0.000000000000000
11
-6.74276169265042
21
4.58912509208109
31
0.000000000000000
  0
LINE
  5
F10209
330
F1020A
100
AcDbEntity
8
Geo
100
AcDbLine
10
-6.74276169265042
20
4.58912509208109
30
0.000000000000000
11
-6.64276169265042
21
4.68899698984922
31
0.000000000000000
  0
LINE
  5
F1020B
330
F1020C
100
AcDbEntity
8
Geo
100
AcDbLine
10
-6.64276169265042
20
4.68899698984922
30
0.000000000000000
11
-6.54276169265042
21
4.60969973741599
31
0.000000000000000
  0
LINE
  5
F1020D
330
F1020E
100
AcDbEntity
8
Geo
100
AcDbLine
10
-6.54276169265042
20
4.60969973741599
30
0.000000000000000
11
-6.44276169265041
21
4.52990032351868
31
0.000000000000000
  0
LINE
  5
F1020F
330
F10210
100
AcDbEntity
8
Geo
100
AcDbLine
10
-6.44276169265041
20
4.52990032351868
30
0.000000000000000
11
-6.34276169265041
21
4.44974160469440
31
0.000000000000000
  0
LINE
  5
F10211
330
F10212
100
AcDbEntity
8
Geo
100
AcDbLine
10
-6.34276169265041
20
4.44974160469440
30
0.000000000000000
11
-6.24276169265041
21
4.36937270159936
31
0.000000000000000
  0
LINE
  5
F10213
330
F10214
100
AcDbEntity
8
Geo
100
AcDbLine
10
-6.24276169265041
20
4.36937270159936
30
0.000000000000000
11
-6.14276169265041
21
4.28894909174088
31
0.000000000000000
  0
LINE
  5
F10215
330
F10216
100
AcDbEntity
8
Geo
100
AcDbLine
10
-6.14276169265041
20
4.28894909174088
30
0.000000000000000
11
-6.04276169265041
21
4.20863268954114
31
0.000000000000000
  0
LINE
  5
F10217
330
F10218
100
AcDbEntity
8
Geo
100
AcDbLine
10
-6.04276169265041
20
4.20863268954114
30
0.000000000000000
11
-5.94276169265041
21
4.12859191239388
31
0.000000000000000
  0
LINE
  5
F10219
330
F1021A
100
AcDbEntity
8
Geo
100
AcDbLine
10
-5.94276169265041
20
4.12859191239388
30
0.000000000000000
11
-5.84276169265041
21
4.04900173132826
31
0.000000000000000
  0
LINE
  5
F1021B
330
F1021C
100
AcDbEntity
8
Geo
100
AcDbLine
10
-5.84276169265041
20
4.04900173132826
30
0.000000000000000
11
-5.74276169265040
21
3.97004370484839
31
0.000000000000000
  0
LINE
  5
F1021D
330
F1021E
100
AcDbEntity
8
Geo
100
AcDbLine
10
-5.74276169265040
20
3.97004370484839
30
0.000000000000000
11
-5.64276169265040
21
3.89190599447428
31
0.000000000000000
  0
LINE
  5
F1021F
330
F10220
100
AcDbEntity
8
Geo
100
AcDbLine
10
-5.64276169265040
20
3.89190599447428
30
0.000000000000000
11
-5.54276169265040
21
3.81478336046878
31
0.000000000000000
  0
LINE
  5
F10221
330
F10222
100
AcDbEntity
8
Geo
100
AcDbLine
10
-5.54276169265040
20
3.81478336046878
30
0.000000000000000
11
-5.44276169265040
21
3.73887713619796
31
0.000000000000000
  0
LINE
  5
F10223
330
F10224
100
AcDbEntity
8
Geo
100
AcDbLine
10
-5.44276169265040
20
3.73887713619796
30
0.000000000000000
11
-5.34276169265040
21
3.66439517953811
31
0.000000000000000
  0
LINE
  5
F10225
330
F10226
100
AcDbEntity
8
Geo
100
AcDbLine
10
-5.34276169265040
20
3.66439517953811
30
0.000000000000000
11
-5.24276169265040
21
3.59155179971263
31
0.000000000000000
  0
LINE
  5
F10227
330
F10228
100
AcDbEntity
8
Geo
100
AcDbLine
10
-5.24276169265040
20
3.59155179971263
30
0.000000000000000
11
-5.14276169265040
21
3.52056765791697
31
0.000000000000000
  0
LINE
  5
F10229
330
F1022A
100
AcDbEntity
8
Geo
100
AcDbLine
10
-5.14276169265040
20
3.52056765791697
30
0.000000000000000
11
-5.04276169265039
21
3.45166964006935
31
0.000000000000000
  0
LINE
  5
F1022B
330
F1022C
100
AcDbEntity
8
Geo
100
AcDbLine
10
-5.04276169265039
20
3.45166964006935
30
0.000000000000000
11
-4.94276169265039
21
3.38509070001134
31
0.000000000000000
  0
LINE
  5
F1022D
330
F1022E
100
AcDbEntity
8
Geo
100
AcDbLine
10
-4.94276169265039
20
3.38509070001134
30
0.000000000000000
11
-4.84276169265039
21
3.32106967147402
31
0.000000000000000
  0
LINE
  5
F1022F
330
F10230
100
AcDbEntity
8
Geo
100
AcDbLine
10
-4.84276169265039
20
3.32106967147402
30
0.000000000000000
11
-4.74276169265039
21
3.25985104712532
31
0.000000000000000
  0
LINE
  5
F10231
330
F10232
100
AcDbEntity
8
Geo
100
AcDbLine
10
-4.74276169265039
20
3.25985104712532
30
0.000000000000000
11
-4.64276169265039
21
3.20168472302113
31
0.000000000000000
  0
LINE
  5
F10233
330
F10234
100
AcDbEntity
8
Geo
100
AcDbLine
10
-4.64276169265039
20
3.20168472302113
30
0.000000000000000
11
-4.54276169265039
21
3.14682570679863
31
0.000000000000000
  0
LINE
  5
F10235
330
F10236
100
AcDbEntity
8
Geo
100
AcDbLine
10
-4.54276169265039
20
3.14682570679863
30
0.000000000000000
11
-4.44276169265039
21
3.09553378797532
31
0.000000000000000
  0
LINE
  5
F10237
330
F10238
100
AcDbEntity
8
Geo
100
AcDbLine
10
-4.44276169265039
20
3.09553378797532
30
0.000000000000000
11
-4.34276169265038
21
3.04807316875217
31
0.000000000000000
  0
LINE
  5
F10239
330
F1023A
100
AcDbEntity
8
Geo
100
AcDbLine
10
-4.34276169265038
20
3.04807316875217
30
0.000000000000000
11
-4.24276169265038
21
3.00471205376538
31
0.000000000000000
  0
LINE
  5
F1023B
330
F1023C
100
AcDbEntity
8
Geo
100
AcDbLine
10
-4.24276169265038
20
3.00471205376538
30
0.000000000000000
11
-4.14276169265038
21
2.96572219728818
31
0.000000000000000
  0
LINE
  5
F1023D
330
F1023E
100
AcDbEntity
8
Geo
100
AcDbLine
10
-4.14276169265038
20
2.96572219728818
30
0.000000000000000
11
-4.04276169265038
21
2.93137840645409
31
0.000000000000000
  0
LINE
  5
F1023F
330
F10240
100
AcDbEntity
8
Geo
100
AcDbLine
10
-4.04276169265038
20
2.93137840645409
30
0.000000000000000
11
-3.94276169265038
21
2.90195799915552
31
0.000000000000000
  0
LINE
  5
F10241
330
F10242
100
AcDbEntity
8
Geo
100
AcDbLine
10
-3.94276169265038
20
2.90195799915552
30
0.000000000000000
11
-3.84276169265038
21
2.87774021536829
31
0.000000000000000
  0
LINE
  5
F10243
330
F10244
100
AcDbEntity
8
Geo
100
AcDbLine
10
-3.84276169265038
20
2.87774021536829
30
0.000000000000000
11
-3.74276169265038
21
2.85900558076350
31
0.000000000000000
  0
LINE
  5
F10245
330
F10246
100
AcDbEntity
8
Geo
100
AcDbLine
10
-3.74276169265038
20
2.85900558076350
30
0.000000000000000
11
-3.64276169265037
21
2.84603522159507
31
0.000000000000000
  0
LINE
  5
F10247
330
F10248
100
AcDbEntity
8
Geo
100
AcDbLine
10
-3.64276169265037
20
2.84603522159507
30
0.000000000000000
11
-3.54276169265037
21
2.83911012999329
31
0.000000000000000
  0
LINE
  5
F10249
330
F1024A
100
AcDbEntity
8
Geo
100
AcDbLine
10
-32.7427616926504
20
14.3962993860106
30
0.000000000000000
11
-32.6427616926504
21
14.4081752456852
31
0.000000000000000
  0
LINE
  5
F1024B
330
F1024C
100
AcDbEntity
8
Geo
100
AcDbLine
10
-32.6427616926504
20
14.4081752456852
30
0.000000000000000
11
-32.5427616926504
21
14.4176430968235
31
0.000000000000000
  0
LINE
  5
F1024D
330
F1024E
100
AcDbEntity
8
Geo
100
AcDbLine
10
-32.5427616926504
20
14.4176430968235
30
0.000000000000000
11
-32.4427616926504
21
14.3565589743366
31
0.000000000000000
  0
LINE
  5
F1024F
330
F10250
100
AcDbEntity
8
Geo
100
AcDbLine
10
-32.4427616926504
20
14.3565589743366
30
0.000000000000000
11
-32.3427616926504
21
14.2947896549769
31
0.000000000000000
  0
LINE
  5
F10251
330
F10252
100
AcDbEntity
8
Geo
100
AcDbLine
10
-32.3427616926504
20
14.2947896549769
30
0.000000000000000
11
-32.2427616926504
21
14.2323440143625
31
0.000000000000000
  0
LINE
  5
F10253
330
F10254
100
AcDbEntity
8
Geo
100
AcDbLine
10
-32.2427616926504
20
14.2323440143625
30
0.000000000000000
11
-32.1427616926504
21
14.1692310252916
31
0.000000000000000
  0
LINE
  5
F10255
330
F10256
100
AcDbEntity
8
Geo
100
AcDbLine
10
-32.1427616926504
20
14.1692310252916
30
0.000000000000000
11
-32.0427616926504
21
14.1054597564536
31
0.000000000000000
  0
LINE
  5
F10257
330
F10258
100
AcDbEntity
8
Geo
100
AcDbLine
10
-32.0427616926504
20
14.1054597564536
30
0.000000000000000
11
-31.9427616926504
21
14.0410393711261
31
0.000000000000000
  0
LINE
  5
F10259
330
F1025A
100
AcDbEntity
8
Geo
100
AcDbLine
10
-31.9427616926504
20
14.0410393711261
30
0.000000000000000
11
-31.8427616926504
21
13.9759791258578
31
0.000000000000000
  0
LINE
  5
F1025B
330
F1025C
100
AcDbEntity
8
Geo
100
AcDbLine
10
-31.8427616926504
20
13.9759791258578
30
0.000000000000000
11
-31.7427616926504
21
13.9102883691389
31
0.000000000000000
  0
LINE
  5
F1025D
330
F1025E
100
AcDbEntity
8
Geo
100
AcDbLine
10
-31.7427616926504
20
13.9102883691389
30
0.000000000000000
11
-31.6427616926504
21
13.8439765400578
31
0.000000000000000
  0
LINE
  5
F1025F
330
F10260
100
AcDbEntity
8
Geo
100
AcDbLine
10
-31.6427616926504
20
13.8439765400578
30
0.000000000000000
11
-31.5427616926504
21
13.7770531669442
31
0.000000000000000
  0
LINE
  5
F10261
330
F10262
100
AcDbEntity
8
Geo
100
AcDbLine
10
-31.5427616926504
20
13.7770531669442
30
0.000000000000000
11
-31.4427616926504
21
13.7095278660008
31
0.000000000000000
  0
LINE
  5
F10263
330
F10264
100
AcDbEntity
8
Geo
100
AcDbLine
10
-31.4427616926504
20
13.7095278660008
30
0.000000000000000
11
-31.3427616926504
21
13.6414103399210
31
0.000000000000000
  0
LINE
  5
F10265
330
F10266
100
AcDbEntity
8
Geo
100
AcDbLine
10
-31.3427616926504
20
13.6414103399210
30
0.000000000000000
11
-31.2427616926504
21
13.5727103764948
31
0.000000000000000
  0
LINE
  5
F10267
330
F10268
100
AcDbEntity
8
Geo
100
AcDbLine
10
-31.2427616926504
20
13.5727103764948
30
0.000000000000000
11
-31.1427616926504
21
13.5034378472027
31
0.000000000000000
  0
LINE
  5
F10269
330
F1026A
100
AcDbEntity
8
Geo
100
AcDbLine
10
-31.1427616926504
20
13.5034378472027
30
0.000000000000000
11
-31.0427616926504
21
13.4336027057967
31
0.000000000000000
  0
LINE
  5
F1026B
330
F1026C
100
AcDbEntity
8
Geo
100
AcDbLine
10
-31.0427616926504
20
13.4336027057967
30
0.000000000000000
11
-30.9427616926504
21
13.3632149868708
31
0.000000000000000
  0
LINE
  5
F1026D
330
F1026E
100
AcDbEntity
8
Geo
100
AcDbLine
10
-30.9427616926504
20
13.3632149868708
30
0.000000000000000
11
-30.8427616926504
21
13.2922848044184
31
0.000000000000000
  0
LINE
  5
F1026F
330
F10270
100
AcDbEntity
8
Geo
100
AcDbLine
10
-30.8427616926504
20
13.2922848044184
30
0.000000000000000
11
-30.7427616926504
21
13.2208223503796
31
0.000000000000000
  0
LINE
  5
F10271
330
F10272
100
AcDbEntity
8
Geo
100
AcDbLine
10
-30.7427616926504
20
13.2208223503796
30
0.000000000000000
11
-30.6427616926504
21
13.1488378931761
31
0.000000000000000
  0
LINE
  5
F10273
330
F10274
100
AcDbEntity
8
Geo
100
AcDbLine
10
-30.6427616926504
20
13.1488378931761
30
0.000000000000000
11
-30.5427616926504
21
13.0763417762366
31
0.000000000000000
  0
LINE
  5
F10275
330
F10276
100
AcDbEntity
8
Geo
100
AcDbLine
10
-30.5427616926504
20
13.0763417762366
30
0.000000000000000
11
-30.4427616926504
21
13.0033444165096
31
0.000000000000000
  0
LINE
  5
F10277
330
F10278
100
AcDbEntity
8
Geo
100
AcDbLine
10
-30.4427616926504
20
13.0033444165096
30
0.000000000000000
11
-30.3427616926504
21
12.9298563029674
31
0.000000000000000
  0
LINE
  5
F10279
330
F1027A
100
AcDbEntity
8
Geo
100
AcDbLine
10
-30.3427616926504
20
12.9298563029674
30
0.000000000000000
11
-30.2427616926504
21
12.8558879950984
31
0.000000000000000
  0
LINE
  5
F1027B
330
F1027C
100
AcDbEntity
8
Geo
100
AcDbLine
10
-30.2427616926504
20
12.8558879950984
30
0.000000000000000
11
-30.1427616926504
21
12.7814501213899
31
0.000000000000000
  0
LINE
  5
F1027D
330
F1027E
100
AcDbEntity
8
Geo
100
AcDbLine
10
-30.1427616926504
20
12.7814501213899
30
0.000000000000000
11
-30.0427616926504
21
12.7065533778013
31
0.000000000000000
  0
LINE
  5
F1027F
330
F10280
100
AcDbEntity
8
Geo
100
AcDbLine
10
-30.0427616926504
20
12.7065533778013
30
0.000000000000000
11
-29.9427616926504
21
12.6312085262267
31
0.000000000000000
  0
LINE
  5
F10281
330
F10282
100
AcDbEntity
8
Geo
100
AcDbLine
10
-29.9427616926504
20
12.6312085262267
30
0.000000000000000
11
-29.8427616926504
21
12.5554263929488
31
0.000000000000000
  0
LINE
  5
F10283
330
F10284
100
AcDbEntity
8
Geo
100
AcDbLine
10
-29.8427616926504
20
12.5554263929488
30
0.000000000000000
11
-29.7427616926504
21
12.4792178670830
31
0.000000000000000
  0
LINE
  5
F10285
330
F10286
100
AcDbEntity
8
Geo
100
AcDbLine
10
-29.7427616926504
20
12.4792178670830
30
0.000000000000000
11
-29.6427616926504
21
12.4025938990133
31
0.000000000000000
  0
LINE
  5
F10287
330
F10288
100
AcDbEntity
8
Geo
100
AcDbLine
10
-29.6427616926504
20
12.4025938990133
30
0.000000000000000
11
-29.5427616926504
21
12.3255654988181
31
0.000000000000000
  0
LINE
  5
F10289
330
F1028A
100
AcDbEntity
8
Geo
100
AcDbLine
10
-29.5427616926504
20
12.3255654988181
30
0.000000000000000
11
-29.4427616926504
21
12.2481437346889
31
0.000000000000000
  0
LINE
  5
F1028B
330
F1028C
100
AcDbEntity
8
Geo
100
AcDbLine
10
-29.4427616926504
20
12.2481437346889
30
0.000000000000000
11
-29.3427616926504
21
12.1703397313392
31
0.000000000000000
  0
LINE
  5
F1028D
330
F1028E
100
AcDbEntity
8
Geo
100
AcDbLine
10
-29.3427616926504
20
12.1703397313392
30
0.000000000000000
11
-29.2427616926504
21
12.0921646684068
31
0.000000000000000
  0
LINE
  5
F1028F
330
F10290
100
AcDbEntity
8
Geo
100
AcDbLine
10
-29.2427616926504
20
12.0921646684068
30
0.000000000000000
11
-29.1427616926504
21
12.0136297788465
31
0.000000000000000
  0
LINE
  5
F10291
330
F10292
100
AcDbEntity
8
Geo
100
AcDbLine
10
-29.1427616926504
20
12.0136297788465
30
0.000000000000000
11
-29.0427616926504
21
11.9347463473168
31
0.000000000000000
  0
LINE
  5
F10293
330
F10294
100
AcDbEntity
8
Geo
100
AcDbLine
10
-29.0427616926504
20
11.9347463473168
30
0.000000000000000
11
-28.9427616926504
21
11.8555257085579
31
0.000000000000000
  0
LINE
  5
F10295
330
F10296
100
AcDbEntity
8
Geo
100
AcDbLine
10
-28.9427616926504
20
11.8555257085579
30
0.000000000000000
11
-28.8427616926504
21
11.7759792457636
31
0.000000000000000
  0
LINE
  5
F10297
330
F10298
100
AcDbEntity
8
Geo
100
AcDbLine
10
-28.8427616926504
20
11.7759792457636
30
0.000000000000000
11
-28.7427616926504
21
11.6961183889448
31
0.000000000000000
  0
LINE
  5
F10299
330
F1029A
100
AcDbEntity
8
Geo
100
AcDbLine
10
-28.7427616926504
20
11.6961183889448
30
0.000000000000000
11
-28.6427616926504
21
11.6159546132878
31
0.000000000000000
  0
LINE
  5
F1029B
330
F1029C
100
AcDbEntity
8
Geo
100
AcDbLine
10
-28.6427616926504
20
11.6159546132878
30
0.000000000000000
11
-28.5427616926504
21
11.5354994375054
31
0.000000000000000
  0
LINE
  5
F1029D
330
F1029E
100
AcDbEntity
8
Geo
100
AcDbLine
10
-28.5427616926504
20
11.5354994375054
30
0.000000000000000
11
-28.4427616926504
21
11.4547644221813
31
0.000000000000000
  0
LINE
  5
F1029F
330
F102A0
100
AcDbEntity
8
Geo
100
AcDbLine
10
-28.4427616926504
20
11.4547644221813
30
0.000000000000000
11
-28.3427616926504
21
11.3737611681094
31
0.000000000000000
  0
LINE
  5
F102A1
330
F102A2
100
AcDbEntity
8
Geo
100
AcDbLine
10
-28.3427616926504
20
11.3737611681094
30
0.000000000000000
11
-28.2427616926504
21
11.2925013146270
31
0.000000000000000
  0
LINE
  5
F102A3
330
F102A4
100
AcDbEntity
8
Geo
100
AcDbLine
10
-28.2427616926504
20
11.2925013146270
30
0.000000000000000
11
-28.1427616926504
21
11.2109965379416
31
0.000000000000000
  0
LINE
  5
F102A5
330
F102A6
100
AcDbEntity
8
Geo
100
AcDbLine
10
-28.1427616926504
20
11.2109965379416
30
0.000000000000000
11
-28.0427616926504
21
11.1292585494542
31
0.000000000000000
  0
LINE
  5
F102A7
330
F102A8
100
AcDbEntity
8
Geo
100
AcDbLine
10
-28.0427616926504
20
11.1292585494542
30
0.000000000000000
11
-27.9427616926504
21
11.0472990940755
31
0.000000000000000
  0
LINE
  5
F102A9
330
F102AA
100
AcDbEntity
8
Geo
100
AcDbLine
10
-27.9427616926504
20
11.0472990940755
30
0.000000000000000
11
-27.8427616926504
21
10.9651299485390
31
0.000000000000000
  0
LINE
  5
F102AB
330
F102AC
100
AcDbEntity
8
Geo
100
AcDbLine
10
-27.8427616926504
20
10.9651299485390
30
0.000000000000000
11
-27.7427616926504
21
10.8827629197083
31
0.000000000000000
  0
LINE
  5
F102AD
330
F102AE
100
AcDbEntity
8
Geo
100
AcDbLine
10
-27.7427616926504
20
10.8827629197083
30
0.000000000000000
11
-27.6427616926504
21
10.8002098428811
31
0.000000000000000
  0
LINE
  5
F102AF
330
F102B0
100
AcDbEntity
8
Geo
100
AcDbLine
10
-27.6427616926504
20
10.8002098428811
30
0.000000000000000
11
-27.5427616926504
21
10.7174825800881
31
0.000000000000000
  0
LINE
  5
F102B1
330
F102B2
100
AcDbEntity
8
Geo
100
AcDbLine
10
-27.5427616926504
20
10.7174825800881
30
0.000000000000000
11
-27.4427616926504
21
10.6345930183886
31
0.000000000000000
  0
LINE
  5
F102B3
330
F102B4
100
AcDbEntity
8
Geo
100
AcDbLine
10
-27.4427616926504
20
10.6345930183886
30
0.000000000000000
11
-27.3427616926504
21
10.5515530681629
31
0.000000000000000
  0
LINE
  5
F102B5
330
F102B6
100
AcDbEntity
8
Geo
100
AcDbLine
10
-27.3427616926504
20
10.5515530681629
30
0.000000000000000
11
-27.2427616926504
21
10.4683746614004
31
0.000000000000000
  0
LINE
  5
F102B7
330
F102B8
100
AcDbEntity
8
Geo
100
AcDbLine
10
-27.2427616926504
20
10.4683746614004
30
0.000000000000000
11
-27.1427616926504
21
10.3850697499853
31
0.000000000000000
  0
LINE
  5
F102B9
330
F102BA
100
AcDbEntity
8
Geo
100
AcDbLine
10
-27.1427616926504
20
10.3850697499853
30
0.000000000000000
11
-27.0427616926504
21
10.3016503039793
31
0.000000000000000
  0
LINE
  5
F102BB
330
F102BC
100
AcDbEntity
8
Geo
100
AcDbLine
10
-27.0427616926504
20
10.3016503039793
30
0.000000000000000
11
-26.9427616926504
21
10.2181283099014
31
0.000000000000000
  0
LINE
  5
F102BD
330
F102BE
100
AcDbEntity
8
Geo
100
AcDbLine
10
-26.9427616926504
20
10.2181283099014
30
0.000000000000000
11
-26.8427616926504
21
10.1345157690058
31
0.000000000000000
  0
LINE
  5
F102BF
330
F102C0
100
AcDbEntity
8
Geo
100
AcDbLine
10
-26.8427616926504
20
10.1345157690058
30
0.000000000000000
11
-26.7427616926504
21
10.0508246955574
31
0.000000000000000
  0
LINE
  5
F102C1
330
F102C2
100
AcDbEntity
8
Geo
100
AcDbLine
10
-26.7427616926504
20
10.0508246955574
30
0.000000000000000
11
-26.6427616926504
21
9.96706711510534
31
0.000000000000000
  0
LINE
  5
F102C3
330
F102C4
100
AcDbEntity
8
Geo
100
AcDbLine
10
-26.6427616926504
20
9.96706711510534
30
0.000000000000000
11
-26.5427616926504
21
9.88325506275517
31
0.000000000000000
  0
LINE
  5
F102C5
330
F102C6
100
AcDbEntity
8
Geo
100
AcDbLine
10
-26.5427616926504
20
9.88325506275517
30
0.000000000000000
11
-26.4427616926504
21
9.79940058143949
31
0.000000000000000
  0
LINE
  5
F102C7
330
F102C8
100
AcDbEntity
8
Geo
100
AcDbLine
10
-26.4427616926504
20
9.79940058143949
30
0.000000000000000
11
-26.3427616926504
21
9.71551572018749
31
0.000000000000000
  0
LINE
  5
F102C9
330
F102CA
100
AcDbEntity
8
Geo
100
AcDbLine
10
-26.3427616926504
20
9.71551572018749
30
0.000000000000000
11
-26.2427616926504
21
9.63161253239367
31
0.000000000000000
  0
LINE
  5
F102CB
330
F102CC
100
AcDbEntity
8
Geo
100
AcDbLine
10
-26.2427616926504
20
9.63161253239367
30
0.000000000000000
11
-26.1427616926504
21
9.54770307408584
31
0.000000000000000
  0
LINE
  5
F102CD
330
F102CE
100
AcDbEntity
8
Geo
100
AcDbLine
10
-26.1427616926504
20
9.54770307408584
30
0.000000000000000
11
-26.0427616926504
21
9.46379940219284
31
0.000000000000000
  0
LINE
  5
F102CF
330
F102D0
100
AcDbEntity
8
Geo
100
AcDbLine
10
-26.0427616926504
20
9.46379940219284
30
0.000000000000000
11
-25.9427616926504
21
9.37991357281205
31
0.000000000000000
  0
LINE
  5
F102D1
330
F102D2
100
AcDbEntity
8
Geo
100
AcDbLine
10
-25.9427616926504
20
9.37991357281205
30
0.000000000000000
11
-25.8427616926504
21
9.29605763947706
31
0.000000000000000
  0
LINE
  5
F102D3
330
F102D4
100
AcDbEntity
8
Geo
100
AcDbLine
10
-25.8427616926504
20
9.29605763947706
30
0.000000000000000
11
-25.7427616926504
21
9.21224365142573
31
0.000000000000000
  0
LINE
  5
F102D5
330
F102D6
100
AcDbEntity
8
Geo
100
AcDbLine
10
-25.7427616926504
20
9.21224365142573
30
0.000000000000000
11
-25.6427616926504
21
9.12848365186879
31
0.000000000000000
  0
LINE
  5
F102D7
330
F102D8
100
AcDbEntity
8
Geo
100
AcDbLine
10
-25.6427616926504
20
9.12848365186879
30
0.000000000000000
11
-25.5427616926504
21
9.04478967625937
31
0.000000000000000
  0
LINE
  5
F102D9
330
F102DA
100
AcDbEntity
8
Geo
100
AcDbLine
10
-25.5427616926504
20
9.04478967625937
30
0.000000000000000
11
-25.4427616926504
21
8.96117375056366
31
0.000000000000000
  0
LINE
  5
F102DB
330
F102DC
100
AcDbEntity
8
Geo
100
AcDbLine
10
-25.4427616926504
20
8.96117375056366
30
0.000000000000000
11
-25.3427616926504
21
8.87764788953286
31
0.000000000000000
  0
LINE
  5
F102DD
330
F102DE
100
AcDbEntity
8
Geo
100
AcDbLine
10
-25.3427616926504
20
8.87764788953286
30
0.000000000000000
11
-25.2427616926504
21
8.79422409497682
31
0.000000000000000
  0
LINE
  5
F102DF
330
F102E0
100
AcDbEntity
8
Geo
100
AcDbLine
10
-25.2427616926504
20
8.79422409497682
30
0.000000000000000
11
-25.1427616926504
21
8.71091435403945
31
0.000000000000000
  0
LINE
  5
F102E1
330
F102E2
100
AcDbEntity
8
Geo
100
AcDbLine
10
-25.1427616926504
20
8.71091435403945
30
0.000000000000000
11
-25.0427616926504
21
8.62773063747635
31
0.000000000000000
  0
LINE
  5
F102E3
330
F102E4
100
AcDbEntity
8
Geo
100
AcDbLine
10
-25.0427616926504
20
8.62773063747635
30
0.000000000000000
11
-24.9427616926504
21
8.54468489793471
31
0.000000000000000
  0
LINE
  5
F102E5
330
F102E6
100
AcDbEntity
8
Geo
100
AcDbLine
10
-24.9427616926504
20
8.54468489793471
30
0.000000000000000
11
-24.8427616926504
21
8.46178906823583
31
0.000000000000000
  0
LINE
  5
F102E7
330
F102E8
100
AcDbEntity
8
Geo
100
AcDbLine
10
-24.8427616926504
20
8.46178906823583
30
0.000000000000000
11
-24.7427616926504
21
8.37905505966051
31
0.000000000000000
  0
LINE
  5
F102E9
330
F102EA
100
AcDbEntity
8
Geo
100
AcDbLine
10
-24.7427616926504
20
8.37905505966051
30
0.000000000000000
11
-24.6427616926504
21
8.29649476023750
31
0.000000000000000
  0
LINE
  5
F102EB
330
F102EC
100
AcDbEntity
8
Geo
100
AcDbLine
10
-24.6427616926504
20
8.29649476023750
30
0.000000000000000
11
-24.5427616926504
21
8.21412003303533
31
0.000000000000000
  0
LINE
  5
F102ED
330
F102EE
100
AcDbEntity
8
Geo
100
AcDbLine
10
-24.5427616926504
20
8.21412003303533
30
0.000000000000000
11
-24.4427616926504
21
8.13194271445771
31
0.000000000000000
  0
LINE
  5
F102EF
330
F102F0
100
AcDbEntity
8
Geo
100
AcDbLine
10
-24.4427616926504
20
8.13194271445771
30
0.000000000000000
11
-24.3427616926504
21
8.04997461254276
31
0.000000000000000
  0
LINE
  5
F102F1
330
F102F2
100
AcDbEntity
8
Geo
100
AcDbLine
10
-24.3427616926504
20
8.04997461254276
30
0.000000000000000
11
-24.2427616926504
21
7.96822750526629
31
0.000000000000000
  0
LINE
  5
F102F3
330
F102F4
100
AcDbEntity
8
Geo
100
AcDbLine
10
-24.2427616926504
20
7.96822750526629
30
0.000000000000000
11
-24.1427616926504
21
7.88671313884948
31
0.000000000000000
  0
LINE
  5
F102F5
330
F102F6
100
AcDbEntity
8
Geo
100
AcDbLine
10
-24.1427616926504
20
7.88671313884948
30
0.000000000000000
11
-24.0427616926504
21
7.80544322607100
31
0.000000000000000
  0
LINE
  5
F102F7
330
F102F8
100
AcDbEntity
8
Geo
100
AcDbLine
10
-24.0427616926504
20
7.80544322607100
30
0.000000000000000
11
-23.9427616926504
21
7.72442944458405
31
0.000000000000000
  0
LINE
  5
F102F9
330
F102FA
100
AcDbEntity
8
Geo
100
AcDbLine
10
-23.9427616926504
20
7.72442944458405
30
0.000000000000000
11
-23.8427616926504
21
7.64368343523840
31
0.000000000000000
  0
LINE
  5
F102FB
330
F102FC
100
AcDbEntity
8
Geo
100
AcDbLine
10
-23.8427616926504
20
7.64368343523840
30
0.000000000000000
11
-23.7427616926504
21
7.56321680040770
31
0.000000000000000
  0
LINE
  5
F102FD
330
F102FE
100
AcDbEntity
8
Geo
100
AcDbLine
10
-23.7427616926504
20
7.56321680040770
30
0.000000000000000
11
-23.6427616926504
21
7.48304110232235
31
0.000000000000000
  0
LINE
  5
F102FF
330
F10300
100
AcDbEntity
8
Geo
100
AcDbLine
10
-23.6427616926504
20
7.48304110232235
30
0.000000000000000
11
-23.5427616926504
21
7.40316786140811
31
0.000000000000000
  0
LINE
  5
F10301
330
F10302
100
AcDbEntity
8
Geo
100
AcDbLine
10
-23.5427616926504
20
7.40316786140811
30
0.000000000000000
11
-23.4427616926504
21
7.32360855463077
31
0.000000000000000
  0
LINE
  5
F10303
330
F10304
100
AcDbEntity
8
Geo
100
AcDbLine
10
-23.4427616926504
20
7.32360855463077
30
0.000000000000000
11
-23.3427616926504
21
7.24437461384698
31
0.000000000000000
  0
LINE
  5
F10305
330
F10306
100
AcDbEntity
8
Geo
100
AcDbLine
10
-23.3427616926504
20
7.24437461384698
30
0.000000000000000
11
-23.2427616926504
21
7.16547742416165
31
0.000000000000000
  0
LINE
  5
F10307
330
F10308
100
AcDbEntity
8
Geo
100
AcDbLine
10
-23.2427616926504
20
7.16547742416165
30
0.000000000000000
11
-23.1427616926504
21
7.08692832229200
31
0.000000000000000
  0
LINE
  5
F10309
330
F1030A
100
AcDbEntity
8
Geo
100
AcDbLine
10
-23.1427616926504
20
7.08692832229200
30
0.000000000000000
11
-23.0427616926504
21
7.00873859493860
31
0.000000000000000
  0
LINE
  5
F1030B
330
F1030C
100
AcDbEntity
8
Geo
100
AcDbLine
10
-23.0427616926504
20
7.00873859493860
30
0.000000000000000
11
-22.9427616926504
21
6.93091947716358
31
0.000000000000000
  0
LINE
  5
F1030D
330
F1030E
100
AcDbEntity
8
Geo
100
AcDbLine
10
-22.9427616926504
20
6.93091947716358
30
0.000000000000000
11
-22.8427616926504
21
6.85348215077629
31
0.000000000000000
  0
LINE
  5
F1030F
330
F10310
100
AcDbEntity
8
Geo
100
AcDbLine
10
-22.8427616926504
20
6.85348215077629
30
0.000000000000000
11
-22.7427616926504
21
6.77643774272657
31
0.000000000000000
  0
LINE
  5
F10311
330
F10312
100
AcDbEntity
8
Geo
100
AcDbLine
10
-22.7427616926504
20
6.77643774272657
30
0.000000000000000
11
-22.6427616926504
21
6.69979732350592
31
0.000000000000000
  0
LINE
  5
F10313
330
F10314
100
AcDbEntity
8
Geo
100
AcDbLine
10
-22.6427616926504
20
6.69979732350592
30
0.000000000000000
11
-22.5427616926504
21
6.62357190555677
31
0.000000000000000
  0
LINE
  5
F10315
330
F10316
100
AcDbEntity
8
Geo
100
AcDbLine
10
-22.5427616926504
20
6.62357190555677
30
0.000000000000000
11
-22.4427616926504
21
6.54777244169014
31
0.000000000000000
  0
LINE
  5
F10317
330
F10318
100
AcDbEntity
8
Geo
100
AcDbLine
10
-22.4427616926504
20
6.54777244169014
30
0.000000000000000
11
-22.3427616926504
21
6.47240982351182
31
0.000000000000000
  0
LINE
  5
F10319
330
F1031A
100
AcDbEntity
8
Geo
100
AcDbLine
10
-22.3427616926504
20
6.47240982351182
30
0.000000000000000
11
-22.2427616926504
21
6.39749487985735
31
0.000000000000000
  0
LINE
  5
F1031B
330
F1031C
100
AcDbEntity
8
Geo
100
AcDbLine
10
-22.2427616926504
20
6.39749487985735
30
0.000000000000000
11
-22.1427616926504
21
6.32303837523602
31
0.000000000000000
  0
LINE
  5
F1031D
330
F1031E
100
AcDbEntity
8
Geo
100
AcDbLine
10
-22.1427616926504
20
6.32303837523602
30
0.000000000000000
11
-22.0427616926504
21
6.24905100828414
31
0.000000000000000
  0
LINE
  5
F1031F
330
F10320
100
AcDbEntity
8
Geo
100
AcDbLine
10
-22.0427616926504
20
6.24905100828414
30
0.000000000000000
11
-21.9427616926504
21
6.17554341022775
31
0.000000000000000
  0
LINE
  5
F10321
330
F10322
100
AcDbEntity
8
Geo
100
AcDbLine
10
-21.9427616926504
20
6.17554341022775
30
0.000000000000000
11
-21.8427616926504
21
6.10252614335501
31
0.000000000000000
  0
LINE
  5
F10323
330
F10324
100
AcDbEntity
8
Geo
100
AcDbLine
10
-21.8427616926504
20
6.10252614335501
30
0.000000000000000
11
-21.7427616926504
21
6.03000969949852
31
0.000000000000000
  0
LINE
  5
F10325
330
F10326
100
AcDbEntity
8
Geo
100
AcDbLine
10
-21.7427616926504
20
6.03000969949852
30
0.000000000000000
11
-21.6427616926504
21
5.95800449852775
31
0.000000000000000
  0
LINE
  5
F10327
330
F10328
100
AcDbEntity
8
Geo
100
AcDbLine
10
-21.6427616926504
20
5.95800449852775
30
0.000000000000000
11
-21.5427616926504
21
5.88652088685182
31
0.000000000000000
  0
LINE
  5
F10329
330
F1032A
100
AcDbEntity
8
Geo
100
AcDbLine
10
-21.5427616926504
20
5.88652088685182
30
0.000000000000000
11
-21.4427616926504
21
5.81556913593278
31
0.000000000000000
  0
LINE
  5
F1032B
330
F1032C
100
AcDbEntity
8
Geo
100
AcDbLine
10
-21.4427616926504
20
5.81556913593278
30
0.000000000000000
11
-21.3427616926504
21
5.74515944080978
31
0.000000000000000
  0
LINE
  5
F1032D
330
F1032E
100
AcDbEntity
8
Geo
100
AcDbLine
10
-21.3427616926504
20
5.74515944080978
30
0.000000000000000
11
-21.2427616926504
21
5.67530191863410
31
0.000000000000000
  0
LINE
  5
F1032F
330
F10330
100
AcDbEntity
8
Geo
100
AcDbLine
10
-21.2427616926504
20
5.67530191863410
30
0.000000000000000
11
-21.1427616926504
21
5.60600660721542
31
0.000000000000000
  0
LINE
  5
F10331
330
F10332
100
AcDbEntity
8
Geo
100
AcDbLine
10
-21.1427616926504
20
5.60600660721542
30
0.000000000000000
11
-21.0427616926504
21
5.53728346357950
31
0.000000000000000
  0
LINE
  5
F10333
330
F10334
100
AcDbEntity
8
Geo
100
AcDbLine
10
-21.0427616926504
20
5.53728346357950
30
0.000000000000000
11
-20.9427616926504
21
5.46914236253747
31
0.000000000000000
  0
LINE
  5
F10335
330
F10336
100
AcDbEntity
8
Geo
100
AcDbLine
10
-20.9427616926504
20
5.46914236253747
30
0.000000000000000
11
-20.8427616926504
21
5.40159309526688
31
0.000000000000000
  0
LINE
  5
F10337
330
F10338
100
AcDbEntity
8
Geo
100
AcDbLine
10
-20.8427616926504
20
5.40159309526688
30
0.000000000000000
11
-20.7427616926504
21
5.33464536790487
31
0.000000000000000
  0
LINE
  5
F10339
330
F1033A
100
AcDbEntity
8
Geo
100
AcDbLine
10
-20.7427616926504
20
5.33464536790487
30
0.000000000000000
11
-20.6427616926504
21
5.26830880015344
31
0.000000000000000
  0
LINE
  5
F1033B
330
F1033C
100
AcDbEntity
8
Geo
100
AcDbLine
10
-20.6427616926504
20
5.26830880015344
30
0.000000000000000
11
-20.5427616926504
21
5.20259292389721
31
0.000000000000000
  0
LINE
  5
F1033D
330
F1033E
100
AcDbEntity
8
Geo
100
AcDbLine
10
-20.5427616926504
20
5.20259292389721
30
0.000000000000000
11
-20.4427616926504
21
5.13750718183383
31
0.000000000000000
  0
LINE
  5
F1033F
330
F10340
100
AcDbEntity
8
Geo
100
AcDbLine
10
-20.4427616926504
20
5.13750718183383
30
0.000000000000000
11
-20.3427616926504
21
5.07306092611709
31
0.000000000000000
  0
LINE
  5
F10341
330
F10342
100
AcDbEntity
8
Geo
100
AcDbLine
10
-20.3427616926504
20
5.07306092611709
30
0.000000000000000
11
-20.2427616926504
21
5.00926341701318
31
0.000000000000000
  0
LINE
  5
F10343
330
F10344
100
AcDbEntity
8
Geo
100
AcDbLine
10
-20.2427616926504
20
5.00926341701318
30
0.000000000000000
11
-20.1427616926504
21
4.94612382157004
31
0.000000000000000
  0
LINE
  5
F10345
330
F10346
100
AcDbEntity
8
Geo
100
AcDbLine
10
-20.1427616926504
20
4.94612382157004
30
0.000000000000000
11
-20.0427616926504
21
4.88365121230016
31
0.000000000000000
  0
LINE
  5
F10347
330
F10348
100
AcDbEntity
8
Geo
100
AcDbLine
10
-20.0427616926504
20
4.88365121230016
30
0.000000000000000
11
-19.9427616926505
21
4.82185456587696
31
0.000000000000000
  0
LINE
  5
F10349
330
F1034A
100
AcDbEntity
8
Geo
100
AcDbLine
10
-19.9427616926505
20
4.82185456587696
30
0.000000000000000
11
-19.8427616926504
21
4.76074276184492
31
0.000000000000000
  0
LINE
  5
F1034B
330
F1034C
100
AcDbEntity
8
Geo
100
AcDbLine
10
-19.8427616926504
20
4.76074276184492
30
0.000000000000000
11
-19.7427616926504
21
4.70032458134370
31
0.000000000000000
  0
LINE
  5
F1034D
330
F1034E
100
AcDbEntity
8
Geo
100
AcDbLine
10
-19.7427616926504
20
4.70032458134370
30
0.000000000000000
11
-19.6427616926504
21
4.64060870584638
31
0.000000000000000
  0
LINE
  5
F1034F
330
F10350
100
AcDbEntity
8
Geo
100
AcDbLine
10
-19.6427616926504
20
4.64060870584638
30
0.000000000000000
11
-19.5427616926505
21
4.58160371591199
31
0.000000000000000
  0
LINE
  5
F10351
330
F10352
100
AcDbEntity
8
Geo
100
AcDbLine
10
-19.5427616926505
20
4.58160371591199
30
0.000000000000000
11
-19.4427616926505
21
4.52331808995260
31
0.000000000000000
  0
LINE
  5
F10353
330
F10354
100
AcDbEntity
8
Geo
100
AcDbLine
10
-19.4427616926505
20
4.52331808995260
30
0.000000000000000
11
-19.3427616926504
21
4.46576020301506
31
0.000000000000000
  0
LINE
  5
F10355
330
F10356
100
AcDbEntity
8
Geo
100
AcDbLine
10
-19.3427616926504
20
4.46576020301506
30
0.000000000000000
11
-19.2427616926505
21
4.40893832557758
31
0.000000000000000
  0
LINE
  5
F10357
330
F10358
100
AcDbEntity
8
Geo
100
AcDbLine
10
-19.2427616926505
20
4.40893832557758
30
0.000000000000000
11
-19.1427616926505
21
4.35286062236136
31
0.000000000000000
  0
LINE
  5
F10359
330
F1035A
100
AcDbEntity
8
Geo
100
AcDbLine
10
-19.1427616926505
20
4.35286062236136
30
0.000000000000000
11
-19.0427616926505
21
4.29753515115737
31
0.000000000000000
  0
LINE
  5
F1035B
330
F1035C
100
AcDbEntity
8
Geo
100
AcDbLine
10
-19.0427616926505
20
4.29753515115737
30
0.000000000000000
11
-18.9427616926505
21
4.24296986166858
31
0.000000000000000
  0
LINE
  5
F1035D
330
F1035E
100
AcDbEntity
8
Geo
100
AcDbLine
10
-18.9427616926505
20
4.24296986166858
30
0.000000000000000
11
-18.8427616926505
21
4.18917259436762
31
0.000000000000000
  0
LINE
  5
F1035F
330
F10360
100
AcDbEntity
8
Geo
100
AcDbLine
10
-18.8427616926505
20
4.18917259436762
30
0.000000000000000
11
-18.7427616926505
21
4.13615107937022
31
0.000000000000000
  0
LINE
  5
F10361
330
F10362
100
AcDbEntity
8
Geo
100
AcDbLine
10
-18.7427616926505
20
4.13615107937022
30
0.000000000000000
11
-18.6427616926505
21
4.08391293532446
31
0.000000000000000
  0
LINE
  5
F10363
330
F10364
100
AcDbEntity
8
Geo
100
AcDbLine
10
-18.6427616926505
20
4.08391293532446
30
0.000000000000000
11
-18.5427616926505
21
4.03246566831603
31
0.000000000000000
  0
LINE
  5
F10365
330
F10366
100
AcDbEntity
8
Geo
100
AcDbLine
10
-18.5427616926505
20
4.03246566831603
30
0.000000000000000
11
-18.4427616926505
21
3.98181667078971
31
0.000000000000000
  0
LINE
  5
F10367
330
F10368
100
AcDbEntity
8
Geo
100
AcDbLine
10
-18.4427616926505
20
3.98181667078971
30
0.000000000000000
11
-18.3427616926505
21
3.93197322048715
31
0.000000000000000
  0
LINE
  5
F10369
330
F1036A
100
AcDbEntity
8
Geo
100
AcDbLine
10
-18.3427616926505
20
3.93197322048715
30
0.000000000000000
11
-18.2427616926505
21
3.88294247940109
31
0.000000000000000
  0
LINE
  5
F1036B
330
F1036C
100
AcDbEntity
8
Geo
100
AcDbLine
10
-18.2427616926505
20
3.88294247940109
30
0.000000000000000
11
-18.1427616926505
21
3.83473149274634
31
0.000000000000000
  0
LINE
  5
F1036D
330
F1036E
100
AcDbEntity
8
Geo
100
AcDbLine
10
-18.1427616926505
20
3.83473149274634
30
0.000000000000000
11
-18.0427616926505
21
3.78734718794734
31
0.000000000000000
  0
LINE
  5
F1036F
330
F10370
100
AcDbEntity
8
Geo
100
AcDbLine
10
-18.0427616926505
20
3.78734718794734
30
0.000000000000000
11
-17.9427616926505
21
3.74079637364288
31
0.000000000000000
  0
LINE
  5
F10371
330
F10372
100
AcDbEntity
8
Geo
100
AcDbLine
10
-17.9427616926505
20
3.74079637364288
30
0.000000000000000
11
-17.8427616926505
21
3.69508573870769
31
0.000000000000000
  0
LINE
  5
F10373
330
F10374
100
AcDbEntity
8
Geo
100
AcDbLine
10
-17.8427616926505
20
3.69508573870769
30
0.000000000000000
11
-17.7427616926505
21
3.65022185129131
31
0.000000000000000
  0
LINE
  5
F10375
330
F10376
100
AcDbEntity
8
Geo
100
AcDbLine
10
-17.7427616926505
20
3.65022185129131
30
0.000000000000000
11
-17.6427616926505
21
3.60621115787441
31
0.000000000000000
  0
LINE
  5
F10377
330
F10378
100
AcDbEntity
8
Geo
100
AcDbLine
10
-17.6427616926505
20
3.60621115787441
30
0.000000000000000
11
-17.5427616926505
21
3.56305998234236
31
0.000000000000000
  0
LINE
  5
F10379
330
F1037A
100
AcDbEntity
8
Geo
100
AcDbLine
10
-17.5427616926505
20
3.56305998234236
30
0.000000000000000
11
-17.4427616926505
21
3.52077452507666
31
0.000000000000000
  0
LINE
  5
F1037B
330
F1037C
100
AcDbEntity
8
Geo
100
AcDbLine
10
-17.4427616926505
20
3.52077452507666
30
0.000000000000000
11
-17.3427616926505
21
3.47936086206398
31
0.000000000000000
  0
LINE
  5
F1037D
330
F1037E
100
AcDbEntity
8
Geo
100
AcDbLine
10
-17.3427616926505
20
3.47936086206398
30
0.000000000000000
11
-17.2427616926505
21
3.43882494402306
31
0.000000000000000
  0
LINE
  5
F1037F
330
F10380
100
AcDbEntity
8
Geo
100
AcDbLine
10
-17.2427616926505
20
3.43882494402306
30
0.000000000000000
11
-17.1427616926505
21
3.39917259554971
31
0.000000000000000
  0
LINE
  5
F10381
330
F10382
100
AcDbEntity
8
Geo
100
AcDbLine
10
-17.1427616926505
20
3.39917259554971
30
0.000000000000000
11
-17.0427616926505
21
3.36040951427986
31
0.000000000000000
  0
LINE
  5
F10383
330
F10384
100
AcDbEntity
8
Geo
100
AcDbLine
10
-17.0427616926505
20
3.36040951427986
30
0.000000000000000
11
-16.9427616926505
21
3.32254127007084
31
0.000000000000000
  0
LINE
  5
F10385
330
F10386
100
AcDbEntity
8
Geo
100
AcDbLine
10
-16.9427616926505
20
3.32254127007084
30
0.000000000000000
11
-16.8427616926505
21
3.28557330420108
31
0.000000000000000
  0
LINE
  5
F10387
330
F10388
100
AcDbEntity
8
Geo
100
AcDbLine
10
-16.8427616926505
20
3.28557330420108
30
0.000000000000000
11
-16.7427616926505
21
3.24951092858824
31
0.000000000000000
  0
LINE
  5
F10389
330
F1038A
100
AcDbEntity
8
Geo
100
AcDbLine
10
-16.7427616926505
20
3.24951092858824
30
0.000000000000000
11
-16.6427616926505
21
3.21435932502595
31
0.000000000000000
  0
LINE
  5
F1038B
330
F1038C
100
AcDbEntity
8
Geo
100
AcDbLine
10
-16.6427616926505
20
3.21435932502595
30
0.000000000000000
11
-16.5427616926505
21
3.18012354443924
31
0.000000000000000
  0
LINE
  5
F1038D
330
F1038E
100
AcDbEntity
8
Geo
100
AcDbLine
10
-16.5427616926505
20
3.18012354443924
30
0.000000000000000
11
-16.4427616926505
21
3.14680850615874
31
0.000000000000000
  0
LINE
  5
F1038F
330
F10390
100
AcDbEntity
8
Geo
100
AcDbLine
10
-16.4427616926505
20
3.14680850615874
30
0.000000000000000
11
-16.3427616926505
21
3.11441899721388
31
0.000000000000000
  0
LINE
  5
F10391
330
F10392
100
AcDbEntity
8
Geo
100
AcDbLine
10
-16.3427616926505
20
3.11441899721388
30
0.000000000000000
11
-16.2427616926505
21
3.08295967164501
31
0.000000000000000
  0
LINE
  5
F10393
330
F10394
100
AcDbEntity
8
Geo
100
AcDbLine
10
-16.2427616926505
20
3.08295967164501
30
0.000000000000000
11
-16.1427616926505
21
3.05243504983465
31
0.000000000000000
  0
LINE
  5
F10395
330
F10396
100
AcDbEntity
8
Geo
100
AcDbLine
10
-16.1427616926505
20
3.05243504983465
30
0.000000000000000
11
-16.0427616926505
21
3.02284951785799
31
0.000000000000000
  0
LINE
  5
F10397
330
F10398
100
AcDbEntity
8
Geo
100
AcDbLine
10
-16.0427616926505
20
3.02284951785799
30
0.000000000000000
11
-15.9427616926505
21
2.99420732685264
31
0.000000000000000
  0
LINE
  5
F10399
330
F1039A
100
AcDbEntity
8
Geo
100
AcDbLine
10
-15.9427616926505
20
2.99420732685264
30
0.000000000000000
11
-15.8427616926504
21
2.96651259240776
31
0.000000000000000
  0
LINE
  5
F1039B
330
F1039C
100
AcDbEntity
8
Geo
100
AcDbLine
10
-15.8427616926504
20
2.96651259240776
30
0.000000000000000
11
-15.7427616926504
21
2.93976929397275
31
0.000000000000000
  0
LINE
  5
F1039D
330
F1039E
100
AcDbEntity
8
Geo
100
AcDbLine
10
-15.7427616926504
20
2.93976929397275
30
0.000000000000000
11
-15.6427616926504
21
2.91398127428540
31
0.000000000000000
  0
LINE
  5
F1039F
330
F103A0
100
AcDbEntity
8
Geo
100
AcDbLine
10
-15.6427616926504
20
2.91398127428540
30
0.000000000000000
11
-15.5427616926504
21
2.88915223881972
31
0.000000000000000
  0
LINE
  5
F103A1
330
F103A2
100
AcDbEntity
8
Geo
100
AcDbLine
10
-15.5427616926504
20
2.88915223881972
30
0.000000000000000
11
-15.4427616926504
21
2.86528575525353
31
0.000000000000000
  0
LINE
  5
F103A3
330
F103A4
100
AcDbEntity
8
Geo
100
AcDbLine
10
-15.4427616926504
20
2.86528575525353
30
0.000000000000000
11
-15.3427616926504
21
2.84238525295583
31
0.000000000000000
  0
LINE
  5
F103A5
330
F103A6
100
AcDbEntity
8
Geo
100
AcDbLine
10
-15.3427616926504
20
2.84238525295583
30
0.000000000000000
11
-15.2427616926504
21
2.82045402249400
31
0.000000000000000
  0
LINE
  5
F103A7
330
F103A8
100
AcDbEntity
8
Geo
100
AcDbLine
10
-15.2427616926504
20
2.82045402249400
30
0.000000000000000
11
-15.1427616926504
21
2.79949521516098
31
0.000000000000000
  0
LINE
  5
F103A9
330
F103AA
100
AcDbEntity
8
Geo
100
AcDbLine
10
-15.1427616926504
20
2.79949521516098
30
0.000000000000000
11
-15.0427616926504
21
2.77951184252250
31
0.000000000000000
  0
LINE
  5
F103AB
330
F103AC
100
AcDbEntity
8
Geo
100
AcDbLine
10
-15.0427616926504
20
2.77951184252250
30
0.000000000000000
11
-14.9427616926504
21
2.76050677598432
31
0.000000000000000
  0
LINE
  5
F103AD
330
F103AE
100
AcDbEntity
8
Geo
100
AcDbLine
10
-14.9427616926504
20
2.76050677598432
30
0.000000000000000
11
-14.8427616926504
21
2.74248274637965
31
0.000000000000000
  0
LINE
  5
F103AF
330
F103B0
100
AcDbEntity
8
Geo
100
AcDbLine
10
-14.8427616926504
20
2.74248274637965
30
0.000000000000000
11
-14.7427616926504
21
2.72544234357672
31
0.000000000000000
  0
LINE
  5
F103B1
330
F103B2
100
AcDbEntity
8
Geo
100
AcDbLine
10
-14.7427616926504
20
2.72544234357672
30
0.000000000000000
11
-14.6427616926504
21
2.70938801610672
31
0.000000000000000
  0
LINE
  5
F103B3
330
F103B4
100
AcDbEntity
8
Geo
100
AcDbLine
10
-14.6427616926504
20
2.70938801610672
30
0.000000000000000
11
-14.5427616926504
21
2.69432207081190
31
0.000000000000000
  0
LINE
  5
F103B5
330
F103B6
100
AcDbEntity
8
Geo
100
AcDbLine
10
-14.5427616926504
20
2.69432207081190
30
0.000000000000000
11
-14.4427616926504
21
2.68024667251411
31
0.000000000000000
  0
LINE
  5
F103B7
330
F103B8
100
AcDbEntity
8
Geo
100
AcDbLine
10
-14.4427616926504
20
2.68024667251411
30
0.000000000000000
11
-14.3427616926504
21
2.66716384370378
31
0.000000000000000
  0
LINE
  5
F103B9
330
F103BA
100
AcDbEntity
8
Geo
100
AcDbLine
10
-14.3427616926504
20
2.66716384370378
30
0.000000000000000
11
-14.2427616926504
21
2.65507546424928
31
0.000000000000000
  0
LINE
  5
F103BB
330
F103BC
100
AcDbEntity
8
Geo
100
AcDbLine
10
-14.2427616926504
20
2.65507546424928
30
0.000000000000000
11
-14.1427616926504
21
2.64398327112678
31
0.000000000000000
  0
LINE
  5
F103BD
330
F103BE
100
AcDbEntity
8
Geo
100
AcDbLine
10
-14.1427616926504
20
2.64398327112678
30
0.000000000000000
11
-14.0427616926504
21
2.63388885817071
31
0.000000000000000
  0
LINE
  5
F103BF
330
F103C0
100
AcDbEntity
8
Geo
100
AcDbLine
10
-14.0427616926504
20
2.63388885817071
30
0.000000000000000
11
-13.9427616926504
21
2.62479367584471
31
0.000000000000000
  0
LINE
  5
F103C1
330
F103C2
100
AcDbEntity
8
Geo
100
AcDbLine
10
-13.9427616926504
20
2.62479367584471
30
0.000000000000000
11
-13.8427616926504
21
2.61669903103324
31
0.000000000000000
  0
LINE
  5
F103C3
330
F103C4
100
AcDbEntity
8
Geo
100
AcDbLine
10
-13.8427616926504
20
2.61669903103324
30
0.000000000000000
11
-13.7427616926504
21
2.60960608685375
31
0.000000000000000
  0
LINE
  5
F103C5
330
F103C6
100
AcDbEntity
8
Geo
100
AcDbLine
10
-13.7427616926504
20
2.60960608685375
30
0.000000000000000
11
-13.6427616926504
21
2.60351586248959
31
0.000000000000000
  0
LINE
  5
F103C7
330
F103C8
100
AcDbEntity
8
Geo
100
AcDbLine
10
-13.6427616926504
20
2.60351586248959
30
0.000000000000000
11
-13.5427616926504
21
2.59842923304358
31
0.000000000000000
  0
LINE
  5
F103C9
330
F103CA
100
AcDbEntity
8
Geo
100
AcDbLine
10
-13.5427616926504
20
2.59842923304358
30
0.000000000000000
11
-13.4427616926504
21
2.59434692941220
31
0.000000000000000
  0
LINE
  5
F103CB
330
F103CC
100
AcDbEntity
8
Geo
100
AcDbLine
10
-13.4427616926504
20
2.59434692941220
30
0.000000000000000
11
-13.3427616926504
21
2.59126953818063
31
0.000000000000000
  0
LINE
  5
F103CD
330
F103CE
100
AcDbEntity
8
Geo
100
AcDbLine
10
-13.3427616926504
20
2.59126953818063
30
0.000000000000000
11
-13.2427616926504
21
2.58919750153844
31
0.000000000000000
  0
LINE
  5
F103CF
330
F103D0
100
AcDbEntity
8
Geo
100
AcDbLine
10
-13.2427616926504
20
2.58919750153844
30
0.000000000000000
11
-13.1427616926504
21
2.58813111721604
31
0.000000000000000
  0
LINE
  5
F103D1
330
F103D2
100
AcDbEntity
8
Geo
100
AcDbLine
10
-32.7427616926504
20
11.1176404434803
30
0.000000000000000
11
-32.6427616926504
21
11.0594345986509
31
0.000000000000000
  0
LINE
  5
F103D3
330
F103D4
100
AcDbEntity
8
Geo
100
AcDbLine
10
-32.6427616926504
20
11.0594345986509
30
0.000000000000000
11
-32.5427616926504
21
10.9986750976778
31
0.000000000000000
  0
LINE
  5
F103D5
330
F103D6
100
AcDbEntity
8
Geo
100
AcDbLine
10
-32.5427616926504
20
10.9986750976778
30
0.000000000000000
11
-32.4427616926504
21
10.9163873668716
31
0.000000000000000
  0
LINE
  5
F103D7
330
F103D8
100
AcDbEntity
8
Geo
100
AcDbLine
10
-32.4427616926504
20
10.9163873668716
30
0.000000000000000
11
-32.3427616926504
21
10.8339087565806
31
0.000000000000000
  0
LINE
  5
F103D9
330
F103DA
100
AcDbEntity
8
Geo
100
AcDbLine
10
-32.3427616926504
20
10.8339087565806
30
0.000000000000000
11
-32.2427616926504
21
10.7512511181353
31
0.000000000000000
  0
LINE
  5
F103DB
330
F103DC
100
AcDbEntity
8
Geo
100
AcDbLine
10
-32.2427616926504
20
10.7512511181353
30
0.000000000000000
11
-32.1427616926504
21
10.6684263285909
31
0.000000000000000
  0
LINE
  5
F103DD
330
F103DE
100
AcDbEntity
8
Geo
100
AcDbLine
10
-32.1427616926504
20
10.6684263285909
30
0.000000000000000
11
-32.0427616926504
21
10.5854462890205
31
0.000000000000000
  0
LINE
  5
F103DF
330
F103E0
100
AcDbEntity
8
Geo
100
AcDbLine
10
-32.0427616926504
20
10.5854462890205
30
0.000000000000000
11
-31.9427616926504
21
10.5023229228049
31
0.000000000000000
  0
LINE
  5
F103E1
330
F103E2
100
AcDbEntity
8
Geo
100
AcDbLine
10
-31.9427616926504
20
10.5023229228049
30
0.000000000000000
11
-31.8427616926504
21
10.4190681739197
31
0.000000000000000
  0
LINE
  5
F103E3
330
F103E4
100
AcDbEntity
8
Geo
100
AcDbLine
10
-31.8427616926504
20
10.4190681739197
30
0.000000000000000
11
-31.7427616926504
21
10.3356940052186
31
0.000000000000000
  0
LINE
  5
F103E5
330
F103E6
100
AcDbEntity
8
Geo
100
AcDbLine
10
-31.7427616926504
20
10.3356940052186
30
0.000000000000000
11
-31.6427616926504
21
10.2522123967148
31
0.000000000000000
  0
LINE
  5
F103E7
330
F103E8
100
AcDbEntity
8
Geo
100
AcDbLine
10
-31.6427616926504
20
10.2522123967148
30
0.000000000000000
11
-31.5427616926504
21
10.1686353438596
31
0.000000000000000
  0
LINE
  5
F103E9
330
F103EA
100
AcDbEntity
8
Geo
100
AcDbLine
10
-31.5427616926504
20
10.1686353438596
30
0.000000000000000
11
-31.4427616926504
21
10.0849748558184
31
0.000000000000000
  0
LINE
  5
F103EB
330
F103EC
100
AcDbEntity
8
Geo
100
AcDbLine
10
-31.4427616926504
20
10.0849748558184
30
0.000000000000000
11
-31.3427616926504
21
10.0012429537457
31
0.000000000000000
  0
LINE
  5
F103ED
330
F103EE
100
AcDbEntity
8
Geo
100
AcDbLine
10
-31.3427616926504
20
10.0012429537457
30
0.000000000000000
11
-31.2427616926504
21
9.91745166905726
31
0.000000000000000
  0
LINE
  5
F103EF
330
F103F0
100
AcDbEntity
8
Geo
100
AcDbLine
10
-31.2427616926504
20
9.91745166905726
30
0.000000000000000
11
-31.1427616926504
21
9.83361304170161
31
0.000000000000000
  0
LINE
  5
F103F1
330
F103F2
100
AcDbEntity
8
Geo
100
AcDbLine
10
-31.1427616926504
20
9.83361304170161
30
0.000000000000000
11
-31.0427616926504
21
9.74973911842989
31
0.000000000000000
  0
LINE
  5
F103F3
330
F103F4
100
AcDbEntity
8
Geo
100
AcDbLine
10
-31.0427616926504
20
9.74973911842989
30
0.000000000000000
11
-30.9427616926504
21
9.66584195106491
31
0.000000000000000
  0
LINE
  5
F103F5
330
F103F6
100
AcDbEntity
8
Geo
100
AcDbLine
10
-30.9427616926504
20
9.66584195106491
30
0.000000000000000
11
-30.8427616926504
21
9.58193359476941
31
0.000000000000000
  0
LINE
  5
F103F7
330
F103F8
100
AcDbEntity
8
Geo
100
AcDbLine
10
-30.8427616926504
20
9.58193359476941
30
0.000000000000000
11
-30.7427616926504
21
9.49802610631389
31
0.000000000000000
  0
LINE
  5
F103F9
330
F103FA
100
AcDbEntity
8
Geo
100
AcDbLine
10
-30.7427616926504
20
9.49802610631389
30
0.000000000000000
11
-30.6427616926504
21
9.41413154234412
31
0.000000000000000
  0
LINE
  5
F103FB
330
F103FC
100
AcDbEntity
8
Geo
100
AcDbLine
10
-30.6427616926504
20
9.41413154234412
30
0.000000000000000
11
-30.5427616926504
21
9.33026195764878
31
0.000000000000000
  0
LINE
  5
F103FD
330
F103FE
100
AcDbEntity
8
Geo
100
AcDbLine
10
-30.5427616926504
20
9.33026195764878
30
0.000000000000000
11
-30.4427616926504
21
9.24642940342726
31
0.000000000000000
  0
LINE
  5
F103FF
330
F10400
100
AcDbEntity
8
Geo
100
AcDbLine
10
-30.4427616926504
20
9.24642940342726
30
0.000000000000000
11
-30.3427616926504
21
9.16264592555808
31
0.000000000000000
  0
LINE
  5
F10401
330
F10402
100
AcDbEntity
8
Geo
100
AcDbLine
10
-30.3427616926504
20
9.16264592555808
30
0.000000000000000
11
-30.2427616926504
21
9.07892356286797
31
0.000000000000000
  0
LINE
  5
F10403
330
F10404
100
AcDbEntity
8
Geo
100
AcDbLine
10
-30.2427616926504
20
9.07892356286797
30
0.000000000000000
11
-30.1427616926504
21
8.99527434540203
31
0.000000000000000
  0
LINE
  5
F10405
330
F10406
100
AcDbEntity
8
Geo
100
AcDbLine
10
-30.1427616926504
20
8.99527434540203
30
0.000000000000000
11
-30.0427616926504
21
8.91171029269515
31
0.000000000000000
  0
LINE
  5
F10407
330
F10408
100
AcDbEntity
8
Geo
100
AcDbLine
10
-30.0427616926504
20
8.91171029269515
30
0.000000000000000
11
-29.9427616926504
21
8.82824341204494
31
0.000000000000000
  0
LINE
  5
F10409
330
F1040A
100
AcDbEntity
8
Geo
100
AcDbLine
10
-29.9427616926504
20
8.82824341204494
30
0.000000000000000
11
-29.8427616926504
21
8.74488569678634
31
0.000000000000000
  0
LINE
  5
F1040B
330
F1040C
100
AcDbEntity
8
Geo
100
AcDbLine
10
-29.8427616926504
20
8.74488569678634
30
0.000000000000000
11
-29.7427616926504
21
8.66164912456838
31
0.000000000000000
  0
LINE
  5
F1040D
330
F1040E
100
AcDbEntity
8
Geo
100
AcDbLine
10
-29.7427616926504
20
8.66164912456838
30
0.000000000000000
11
-29.6427616926504
21
8.57854565563304
31
0.000000000000000
  0
LINE
  5
F1040F
330
F10410
100
AcDbEntity
8
Geo
100
AcDbLine
10
-29.6427616926504
20
8.57854565563304
30
0.000000000000000
11
-29.5427616926504
21
8.49558723109676
31
0.000000000000000
  0
LINE
  5
F10411
330
F10412
100
AcDbEntity
8
Geo
100
AcDbLine
10
-29.5427616926504
20
8.49558723109676
30
0.000000000000000
11
-29.4427616926504
21
8.41278577123456
31
0.000000000000000
  0
LINE
  5
F10413
330
F10414
100
AcDbEntity
8
Geo
100
AcDbLine
10
-29.4427616926504
20
8.41278577123456
30
0.000000000000000
11
-29.3427616926504
21
8.33015317376726
31
0.000000000000000
  0
LINE
  5
F10415
330
F10416
100
AcDbEntity
8
Geo
100
AcDbLine
10
-29.3427616926504
20
8.33015317376726
30
0.000000000000000
11
-29.2427616926504
21
8.24770131215189
31
0.000000000000000
  0
LINE
  5
F10417
330
F10418
100
AcDbEntity
8
Geo
100
AcDbLine
10
-29.2427616926504
20
8.24770131215189
30
0.000000000000000
11
-29.1427616926504
21
8.16544203387557
31
0.000000000000000
  0
LINE
  5
F10419
330
F1041A
100
AcDbEntity
8
Geo
100
AcDbLine
10
-29.1427616926504
20
8.16544203387557
30
0.000000000000000
11
-29.0427616926504
21
8.08338715875318
31
0.000000000000000
  0
LINE
  5
F1041B
330
F1041C
100
AcDbEntity
8
Geo
100
AcDbLine
10
-29.0427616926504
20
8.08338715875318
30
0.000000000000000
11
-28.9427616926504
21
8.00154847722897
31
0.000000000000000
  0
LINE
  5
F1041D
330
F1041E
100
AcDbEntity
8
Geo
100
AcDbLine
10
-28.9427616926504
20
8.00154847722897
30
0.000000000000000
11
-28.8427616926504
21
7.91993774868238
31
0.000000000000000
  0
LINE
  5
F1041F
330
F10420
100
AcDbEntity
8
Geo
100
AcDbLine
10
-28.8427616926504
20
7.91993774868238
30
0.000000000000000
11
-28.7427616926504
21
7.83856669973834
31
0.000000000000000
  0
LINE
  5
F10421
330
F10422
100
AcDbEntity
8
Geo
100
AcDbLine
10
-28.7427616926504
20
7.83856669973834
30
0.000000000000000
11
-28.6427616926504
21
7.75744702258228
31
0.000000000000000
  0
LINE
  5
F10423
330
F10424
100
AcDbEntity
8
Geo
100
AcDbLine
10
-28.6427616926504
20
7.75744702258228
30
0.000000000000000
11
-28.5427616926504
21
7.67659037328010
31
0.000000000000000
  0
LINE
  5
F10425
330
F10426
100
AcDbEntity
8
Geo
100
AcDbLine
10
-28.5427616926504
20
7.67659037328010
30
0.000000000000000
11
-28.4427616926504
21
7.59600837010327
31
0.000000000000000
  0
LINE
  5
F10427
330
F10428
100
AcDbEntity
8
Geo
100
AcDbLine
10
-28.4427616926504
20
7.59600837010327
30
0.000000000000000
11
-28.3427616926504
21
7.51571259185943
31
0.000000000000000
  0
LINE
  5
F10429
330
F1042A
100
AcDbEntity
8
Geo
100
AcDbLine
10
-28.3427616926504
20
7.51571259185943
30
0.000000000000000
11
-28.2427616926504
21
7.43571457622864
31
0.000000000000000
  0
LINE
  5
F1042B
330
F1042C
100
AcDbEntity
8
Geo
100
AcDbLine
10
-28.2427616926504
20
7.43571457622864
30
0.000000000000000
11
-28.1427616926504
21
7.35602581810553
31
0.000000000000000
  0
LINE
  5
F1042D
330
F1042E
100
AcDbEntity
8
Geo
100
AcDbLine
10
-28.1427616926504
20
7.35602581810553
30
0.000000000000000
11
-28.0427616926504
21
7.27665776794759
31
0.000000000000000
  0
LINE
  5
F1042F
330
F10430
100
AcDbEntity
8
Geo
100
AcDbLine
10
-28.0427616926504
20
7.27665776794759
30
0.000000000000000
11
-27.9427616926504
21
7.19762183012986
31
0.000000000000000
  0
LINE
  5
F10431
330
F10432
100
AcDbEntity
8
Geo
100
AcDbLine
10
-27.9427616926504
20
7.19762183012986
30
0.000000000000000
11
-27.8427616926504
21
7.11892936130625
31
0.000000000000000
  0
LINE
  5
F10433
330
F10434
100
AcDbEntity
8
Geo
100
AcDbLine
10
-27.8427616926504
20
7.11892936130625
30
0.000000000000000
11
-27.7427616926504
21
7.04059166877769
31
0.000000000000000
  0
LINE
  5
F10435
330
F10436
100
AcDbEntity
8
Geo
100
AcDbLine
10
-27.7427616926504
20
7.04059166877769
30
0.000000000000000
11
-27.6427616926504
21
6.96262000886739
31
0.000000000000000
  0
LINE
  5
F10437
330
F10438
100
AcDbEntity
8
Geo
100
AcDbLine
10
-27.6427616926504
20
6.96262000886739
30
0.000000000000000
11
-27.5427616926504
21
6.88502558530345
31
0.000000000000000
  0
LINE
  5
F10439
330
F1043A
100
AcDbEntity
8
Geo
100
AcDbLine
10
-27.5427616926504
20
6.88502558530345
30
0.000000000000000
11
-27.4427616926504
21
6.80781954760895
31
0.000000000000000
  0
LINE
  5
F1043B
330
F1043C
100
AcDbEntity
8
Geo
100
AcDbLine
10
-27.4427616926504
20
6.80781954760895
30
0.000000000000000
11
-27.3427616926504
21
6.73101298949991
31
0.000000000000000
  0
LINE
  5
F1043D
330
F1043E
100
AcDbEntity
8
Geo
100
AcDbLine
10
-27.3427616926504
20
6.73101298949991
30
0.000000000000000
11
-27.2427616926504
21
6.65461694729123
31
0.000000000000000
  0
LINE
  5
F1043F
330
F10440
100
AcDbEntity
8
Geo
100
AcDbLine
10
-27.2427616926504
20
6.65461694729123
30
0.000000000000000
11
-27.1427616926504
21
6.57864239831088
31
0.000000000000000
  0
LINE
  5
F10441
330
F10442
100
AcDbEntity
8
Geo
100
AcDbLine
10
-27.1427616926504
20
6.57864239831088
30
0.000000000000000
11
-27.0427616926504
21
6.50310025932258
31
0.000000000000000
  0
LINE
  5
F10443
330
F10444
100
AcDbEntity
8
Geo
100
AcDbLine
10
-27.0427616926504
20
6.50310025932258
30
0.000000000000000
11
-26.9427616926504
21
6.42800138495717
31
0.000000000000000
  0
LINE
  5
F10445
330
F10446
100
AcDbEntity
8
Geo
100
AcDbLine
10
-26.9427616926504
20
6.42800138495717
30
0.000000000000000
11
-26.8427616926504
21
6.35335656615291
31
0.000000000000000
  0
LINE
  5
F10447
330
F10448
100
AcDbEntity
8
Geo
100
AcDbLine
10
-26.8427616926504
20
6.35335656615291
30
0.000000000000000
11
-26.7427616926504
21
6.27917652860491
31
0.000000000000000
  0
LINE
  5
F10449
330
F1044A
100
AcDbEntity
8
Geo
100
AcDbLine
10
-26.7427616926504
20
6.27917652860491
30
0.000000000000000
11
-26.6427616926504
21
6.20547193122401
31
0.000000000000000
  0
LINE
  5
F1044B
330
F1044C
100
AcDbEntity
8
Geo
100
AcDbLine
10
-26.6427616926504
20
6.20547193122401
30
0.000000000000000
11
-26.5427616926504
21
6.13225336460516
31
0.000000000000000
  0
LINE
  5
F1044D
330
F1044E
100
AcDbEntity
8
Geo
100
AcDbLine
10
-26.5427616926504
20
6.13225336460516
30
0.000000000000000
11
-26.4427616926504
21
6.05953134950565
31
0.000000000000000
  0
LINE
  5
F1044F
330
F10450
100
AcDbEntity
8
Geo
100
AcDbLine
10
-26.4427616926504
20
6.05953134950565
30
0.000000000000000
11
-26.3427616926504
21
5.98731633533345
31
0.000000000000000
  0
LINE
  5
F10451
330
F10452
100
AcDbEntity
8
Geo
100
AcDbLine
10
-26.3427616926504
20
5.98731633533345
30
0.000000000000000
11
-26.2427616926504
21
5.91561869864566
31
0.000000000000000
  0
LINE
  5
F10453
330
F10454
100
AcDbEntity
8
Geo
100
AcDbLine
10
-26.2427616926504
20
5.91561869864566
30
0.000000000000000
11
-26.1427616926504
21
5.84444874165757
31
0.000000000000000
  0
LINE
  5
F10455
330
F10456
100
AcDbEntity
8
Geo
100
AcDbLine
10
-26.1427616926504
20
5.84444874165757
30
0.000000000000000
11
-26.0427616926504
21
5.77381669076227
31
0.000000000000000
  0
LINE
  5
F10457
330
F10458
100
AcDbEntity
8
Geo
100
AcDbLine
10
-26.0427616926504
20
5.77381669076227
30
0.000000000000000
11
-25.9427616926504
21
5.70373269506129
31
0.000000000000000
  0
LINE
  5
F10459
330
F1045A
100
AcDbEntity
8
Geo
100
AcDbLine
10
-25.9427616926504
20
5.70373269506129
30
0.000000000000000
11
-25.8427616926504
21
5.63420682490624
31
0.000000000000000
  0
LINE
  5
F1045B
330
F1045C
100
AcDbEntity
8
Geo
100
AcDbLine
10
-25.8427616926504
20
5.63420682490624
30
0.000000000000000
11
-25.7427616926504
21
5.56524907045181
31
0.000000000000000
  0
LINE
  5
F1045D
330
F1045E
100
AcDbEntity
8
Geo
100
AcDbLine
10
-25.7427616926504
20
5.56524907045181
30
0.000000000000000
11
-25.6427616926504
21
5.49686934022029
31
0.000000000000000
  0
LINE
  5
F1045F
330
F10460
100
AcDbEntity
8
Geo
100
AcDbLine
10
-25.6427616926504
20
5.49686934022029
30
0.000000000000000
11
-25.5427616926504
21
5.42907745967782
31
0.000000000000000
  0
LINE
  5
F10461
330
F10462
100
AcDbEntity
8
Geo
100
AcDbLine
10
-25.5427616926504
20
5.42907745967782
30
0.000000000000000
11
-25.4427616926504
21
5.36188316982254
31
0.000000000000000
  0
LINE
  5
F10463
330
F10464
100
AcDbEntity
8
Geo
100
AcDbLine
10
-25.4427616926504
20
5.36188316982254
30
0.000000000000000
11
-25.3427616926504
21
5.29529612578498
31
0.000000000000000
  0
LINE
  5
F10465
330
F10466
100
AcDbEntity
8
Geo
100
AcDbLine
10
-25.3427616926504
20
5.29529612578498
30
0.000000000000000
11
-25.2427616926504
21
5.22932589544063
31
0.000000000000000
  0
LINE
  5
F10467
330
F10468
100
AcDbEntity
8
Geo
100
AcDbLine
10
-25.2427616926504
20
5.22932589544063
30
0.000000000000000
11
-25.1427616926504
21
5.16398195803521
31
0.000000000000000
  0
LINE
  5
F10469
330
F1046A
100
AcDbEntity
8
Geo
100
AcDbLine
10
-25.1427616926504
20
5.16398195803521
30
0.000000000000000
11
-25.0427616926504
21
5.09927370282255
31
0.000000000000000
  0
LINE
  5
F1046B
330
F1046C
100
AcDbEntity
8
Geo
100
AcDbLine
10
-25.0427616926504
20
5.09927370282255
30
0.000000000000000
11
-24.9427616926504
21
5.03521042771546
31
0.000000000000000
  0
LINE
  5
F1046D
330
F1046E
100
AcDbEntity
8
Geo
100
AcDbLine
10
-24.9427616926504
20
5.03521042771546
30
0.000000000000000
11
-24.8427616926504
21
4.97180133794974
31
0.000000000000000
  0
LINE
  5
F1046F
330
F10470
100
AcDbEntity
8
Geo
100
AcDbLine
10
-24.8427616926504
20
4.97180133794974
30
0.000000000000000
11
-24.7427616926504
21
4.90905554476145
31
0.000000000000000
  0
LINE
  5
F10471
330
F10472
100
AcDbEntity
8
Geo
100
AcDbLine
10
-24.7427616926504
20
4.90905554476145
30
0.000000000000000
11
-24.6427616926504
21
4.84698206407772
31
0.000000000000000
  0
LINE
  5
F10473
330
F10474
100
AcDbEntity
8
Geo
100
AcDbLine
10
-24.6427616926504
20
4.84698206407772
30
0.000000000000000
11
-24.5427616926504
21
4.78558981522131
31
0.000000000000000
  0
LINE
  5
F10475
330
F10476
100
AcDbEntity
8
Geo
100
AcDbLine
10
-24.5427616926504
20
4.78558981522131
30
0.000000000000000
11
-24.4427616926504
21
4.72488761962891
31
0.000000000000000
  0
LINE
  5
F10477
330
F10478
100
AcDbEntity
8
Geo
100
AcDbLine
10
-24.4427616926504
20
4.72488761962891
30
0.000000000000000
11
-24.3427616926504
21
4.66488419958364
31
0.000000000000000
  0
LINE
  5
F10479
330
F1047A
100
AcDbEntity
8
Geo
100
AcDbLine
10
-24.3427616926504
20
4.66488419958364
30
0.000000000000000
11
-24.2427616926504
21
4.60558817696175
31
0.000000000000000
  0
LINE
  5
F1047B
330
F1047C
100
AcDbEntity
8
Geo
100
AcDbLine
10
-24.2427616926504
20
4.60558817696175
30
0.000000000000000
11
-24.1427616926504
21
4.54700807199373
31
0.000000000000000
  0
LINE
  5
F1047D
330
F1047E
100
AcDbEntity
8
Geo
100
AcDbLine
10
-24.1427616926504
20
4.54700807199373
30
0.000000000000000
11
-24.0427616926504
21
4.48915230204003
31
0.000000000000000
  0
LINE
  5
F1047F
330
F10480
100
AcDbEntity
8
Geo
100
AcDbLine
10
-24.0427616926504
20
4.48915230204003
30
0.000000000000000
11
-23.9427616926504
21
4.43202918038160
31
0.000000000000000
  0
LINE
  5
F10481
330
F10482
100
AcDbEntity
8
Geo
100
AcDbLine
10
-23.9427616926504
20
4.43202918038160
30
0.000000000000000
11
-23.8427616926504
21
4.37564691502534
31
0.000000000000000
  0
LINE
  5
F10483
330
F10484
100
AcDbEntity
8
Geo
100
AcDbLine
10
-23.8427616926504
20
4.37564691502534
30
0.000000000000000
11
-23.7427616926504
21
4.32001360752469
31
0.000000000000000
  0
LINE
  5
F10485
330
F10486
100
AcDbEntity
8
Geo
100
AcDbLine
10
-23.7427616926504
20
4.32001360752469
30
0.000000000000000
11
-23.6427616926504
21
4.26513725181553
31
0.000000000000000
  0
LINE
  5
F10487
330
F10488
100
AcDbEntity
8
Geo
100
AcDbLine
10
-23.6427616926504
20
4.26513725181553
30
0.000000000000000
11
-23.5427616926504
21
4.21102573306752
31
0.000000000000000
  0
LINE
  5
F10489
330
F1048A
100
AcDbEntity
8
Geo
100
AcDbLine
10
-23.5427616926504
20
4.21102573306752
30
0.000000000000000
11
-23.4427616926504
21
4.15768682655110
31
0.000000000000000
  0
LINE
  5
F1048B
330
F1048C
100
AcDbEntity
8
Geo
100
AcDbLine
10
-23.4427616926504
20
4.15768682655110
30
0.000000000000000
11
-23.3427616926504
21
4.10512819652026
31
0.000000000000000
  0
LINE
  5
F1048D
330
F1048E
100
AcDbEntity
8
Geo
100
AcDbLine
10
-23.3427616926504
20
4.10512819652026
30
0.000000000000000
11
-23.2427616926504
21
4.05335739511123
31
0.000000000000000
  0
LINE
  5
F1048F
330
F10490
100
AcDbEntity
8
Geo
100
AcDbLine
10
-23.2427616926504
20
4.05335739511123
30
0.000000000000000
11
-23.1427616926504
21
4.00238186125738
31
0.000000000000000
  0
LINE
  5
F10491
330
F10492
100
AcDbEntity
8
Geo
100
AcDbLine
10
-23.1427616926504
20
4.00238186125738
30
0.000000000000000
11
-23.0427616926504
21
3.95220891962027
31
0.000000000000000
  0
LINE
  5
F10493
330
F10494
100
AcDbEntity
8
Geo
100
AcDbLine
10
-23.0427616926504
20
3.95220891962027
30
0.000000000000000
11
-22.9427616926504
21
3.90284577953718
31
0.000000000000000
  0
LINE
  5
F10495
330
F10496
100
AcDbEntity
8
Geo
100
AcDbLine
10
-22.9427616926504
20
3.90284577953718
30
0.000000000000000
11
-22.8427616926504
21
3.85429953398522
31
0.000000000000000
  0
LINE
  5
F10497
330
F10498
100
AcDbEntity
8
Geo
100
AcDbLine
10
-22.8427616926504
20
3.85429953398522
30
0.000000000000000
11
-22.7427616926504
21
3.80657715856214
31
0.000000000000000
  0
LINE
  5
F10499
330
F1049A
100
AcDbEntity
8
Geo
100
AcDbLine
10
-22.7427616926504
20
3.80657715856214
30
0.000000000000000
11
-22.6427616926504
21
3.75968551048398
31
0.000000000000000
  0
LINE
  5
F1049B
330
F1049C
100
AcDbEntity
8
Geo
100
AcDbLine
10
-22.6427616926504
20
3.75968551048398
30
0.000000000000000
11
-22.5427616926504
21
3.71363132759978
31
0.000000000000000
  0
LINE
  5
F1049D
330
F1049E
100
AcDbEntity
8
Geo
100
AcDbLine
10
-22.5427616926504
20
3.71363132759978
30
0.000000000000000
11
-22.4427616926504
21
3.66842122742344
31
0.000000000000000
  0
LINE
  5
F1049F
330
F104A0
100
AcDbEntity
8
Geo
100
AcDbLine
10
-22.4427616926504
20
3.66842122742344
30
0.000000000000000
11
-22.3427616926504
21
3.62406170618281
31
0.000000000000000
  0
LINE
  5
F104A1
330
F104A2
100
AcDbEntity
8
Geo
100
AcDbLine
10
-22.3427616926504
20
3.62406170618281
30
0.000000000000000
11
-22.2427616926504
21
3.58055913788627
31
0.000000000000000
  0
LINE
  5
F104A3
330
F104A4
100
AcDbEntity
8
Geo
100
AcDbLine
10
-22.2427616926504
20
3.58055913788627
30
0.000000000000000
11
-22.1427616926504
21
3.53791977340685
31
0.000000000000000
  0
LINE
  5
F104A5
330
F104A6
100
AcDbEntity
8
Geo
100
AcDbLine
10
-22.1427616926504
20
3.53791977340685
30
0.000000000000000
11
-22.0427616926504
21
3.49614973958405
31
0.000000000000000
  0
LINE
  5
F104A7
330
F104A8
100
AcDbEntity
8
Geo
100
AcDbLine
10
-22.0427616926504
20
3.49614973958405
30
0.000000000000000
11
-21.9427616926504
21
3.45525503834345
31
0.000000000000000
  0
LINE
  5
F104A9
330
F104AA
100
AcDbEntity
8
Geo
100
AcDbLine
10
-21.9427616926504
20
3.45525503834345
30
0.000000000000000
11
-21.8427616926504
21
3.41524154583433
31
0.000000000000000
  0
LINE
  5
F104AB
330
F104AC
100
AcDbEntity
8
Geo
100
AcDbLine
10
-21.8427616926504
20
3.41524154583433
30
0.000000000000000
11
-21.7427616926504
21
3.37611501158530
31
0.000000000000000
  0
LINE
  5
F104AD
330
F104AE
100
AcDbEntity
8
Geo
100
AcDbLine
10
-21.7427616926504
20
3.37611501158530
30
0.000000000000000
11
-21.6427616926504
21
3.33788105767817
31
0.000000000000000
  0
LINE
  5
F104AF
330
F104B0
100
AcDbEntity
8
Geo
100
AcDbLine
10
-21.6427616926504
20
3.33788105767817
30
0.000000000000000
11
-21.5427616926504
21
3.30054517794010
31
0.000000000000000
  0
LINE
  5
F104B1
330
F104B2
100
AcDbEntity
8
Geo
100
AcDbLine
10
-21.5427616926504
20
3.30054517794010
30
0.000000000000000
11
-21.4427616926504
21
3.26411273715420
31
0.000000000000000
  0
LINE
  5
F104B3
330
F104B4
100
AcDbEntity
8
Geo
100
AcDbLine
10
-21.4427616926504
20
3.26411273715420
30
0.000000000000000
11
-21.3427616926504
21
3.22858897028868
31
0.000000000000000
  0
LINE
  5
F104B5
330
F104B6
100
AcDbEntity
8
Geo
100
AcDbLine
10
-21.3427616926504
20
3.22858897028868
30
0.000000000000000
11
-21.2427616926504
21
3.19397898174459
31
0.000000000000000
  0
LINE
  5
F104B7
330
F104B8
100
AcDbEntity
8
Geo
100
AcDbLine
10
-21.2427616926504
20
3.19397898174459
30
0.000000000000000
11
-21.1427616926504
21
3.16028774462245
31
0.000000000000000
  0
LINE
  5
F104B9
330
F104BA
100
AcDbEntity
8
Geo
100
AcDbLine
10
-21.1427616926504
20
3.16028774462245
30
0.000000000000000
11
-21.0427616926504
21
3.12752010000758
31
0.000000000000000
  0
LINE
  5
F104BB
330
F104BC
100
AcDbEntity
8
Geo
100
AcDbLine
10
-21.0427616926504
20
3.12752010000758
30
0.000000000000000
11
-20.9427616926504
21
3.09568075627455
31
0.000000000000000
  0
LINE
  5
F104BD
330
F104BE
100
AcDbEntity
8
Geo
100
AcDbLine
10
-20.9427616926504
20
3.09568075627455
30
0.000000000000000
11
-20.8427616926504
21
3.06477428841061
31
0.000000000000000
  0
LINE
  5
F104BF
330
F104C0
100
AcDbEntity
8
Geo
100
AcDbLine
10
-20.8427616926504
20
3.06477428841061
30
0.000000000000000
11
-20.7427616926504
21
3.03480513735830
31
0.000000000000000
  0
LINE
  5
F104C1
330
F104C2
100
AcDbEntity
8
Geo
100
AcDbLine
10
-20.7427616926504
20
3.03480513735830
30
0.000000000000000
11
-20.6427616926504
21
3.00577760937735
31
0.000000000000000
  0
LINE
  5
F104C3
330
F104C4
100
AcDbEntity
8
Geo
100
AcDbLine
10
-20.6427616926504
20
3.00577760937735
30
0.000000000000000
11
-20.5427616926504
21
2.97769587542591
31
0.000000000000000
  0
LINE
  5
F104C5
330
F104C6
100
AcDbEntity
8
Geo
100
AcDbLine
10
-20.5427616926504
20
2.97769587542591
30
0.000000000000000
11
-20.4427616926504
21
2.95056397056123
31
0.000000000000000
  0
LINE
  5
F104C7
330
F104C8
100
AcDbEntity
8
Geo
100
AcDbLine
10
-20.4427616926504
20
2.95056397056123
30
0.000000000000000
11
-20.3427616926504
21
2.92438579335986
31
0.000000000000000
  0
LINE
  5
F104C9
330
F104CA
100
AcDbEntity
8
Geo
100
AcDbLine
10
-20.3427616926504
20
2.92438579335986
30
0.000000000000000
11
-20.2427616926504
21
2.89916510535745
31
0.000000000000000
  0
LINE
  5
F104CB
330
F104CC
100
AcDbEntity
8
Geo
100
AcDbLine
10
-20.2427616926504
20
2.89916510535745
30
0.000000000000000
11
-20.1427616926504
21
2.87490553050827
31
0.000000000000000
  0
LINE
  5
F104CD
330
F104CE
100
AcDbEntity
8
Geo
100
AcDbLine
10
-20.1427616926504
20
2.87490553050827
30
0.000000000000000
11
-20.0427616926504
21
2.85161055466451
31
0.000000000000000
  0
LINE
  5
F104CF
330
F104D0
100
AcDbEntity
8
Geo
100
AcDbLine
10
-20.0427616926504
20
2.85161055466451
30
0.000000000000000
11
-19.9427616926505
21
2.82928352507534
31
0.000000000000000
  0
LINE
  5
F104D1
330
F104D2
100
AcDbEntity
8
Geo
100
AcDbLine
10
-19.9427616926505
20
2.82928352507534
30
0.000000000000000
11
-19.8427616926504
21
2.80792764990600
31
0.000000000000000
  0
LINE
  5
F104D3
330
F104D4
100
AcDbEntity
8
Geo
100
AcDbLine
10
-19.8427616926504
20
2.80792764990600
30
0.000000000000000
11
-19.7427616926504
21
2.78754599777679
31
0.000000000000000
  0
LINE
  5
F104D5
330
F104D6
100
AcDbEntity
8
Geo
100
AcDbLine
10
-19.7427616926504
20
2.78754599777679
30
0.000000000000000
11
-19.6427616926504
21
2.76814149732213
31
0.000000000000000
  0
LINE
  5
F104D7
330
F104D8
100
AcDbEntity
8
Geo
100
AcDbLine
10
-19.6427616926504
20
2.76814149732213
30
0.000000000000000
11
-19.5427616926505
21
2.74971693676981
31
0.000000000000000
  0
LINE
  5
F104D9
330
F104DA
100
AcDbEntity
8
Geo
100
AcDbLine
10
-19.5427616926505
20
2.74971693676981
30
0.000000000000000
11
-19.4427616926505
21
2.73227496354025
31
0.000000000000000
  0
LINE
  5
F104DB
330
F104DC
100
AcDbEntity
8
Geo
100
AcDbLine
10
-19.4427616926505
20
2.73227496354025
30
0.000000000000000
11
-19.3427616926504
21
2.71581808386618
31
0.000000000000000
  0
LINE
  5
F104DD
330
F104DE
100
AcDbEntity
8
Geo
100
AcDbLine
10
-19.3427616926504
20
2.71581808386618
30
0.000000000000000
11
-19.2427616926505
21
2.70034866243247
31
0.000000000000000
  0
LINE
  5
F104DF
330
F104E0
100
AcDbEntity
8
Geo
100
AcDbLine
10
-19.2427616926505
20
2.70034866243247
30
0.000000000000000
11
-19.1427616926505
21
2.68586892203638
31
0.000000000000000
  0
LINE
  5
F104E1
330
F104E2
100
AcDbEntity
8
Geo
100
AcDbLine
10
-19.1427616926505
20
2.68586892203638
30
0.000000000000000
11
-19.0427616926505
21
2.67238094326813
31
0.000000000000000
  0
LINE
  5
F104E3
330
F104E4
100
AcDbEntity
8
Geo
100
AcDbLine
10
-19.0427616926505
20
2.67238094326813
30
0.000000000000000
11
-18.9427616926505
21
2.65988666421199
31
0.000000000000000
  0
LINE
  5
F104E5
330
F104E6
100
AcDbEntity
8
Geo
100
AcDbLine
10
-18.9427616926505
20
2.65988666421199
30
0.000000000000000
11
-18.8427616926505
21
2.64838788016776
31
0.000000000000000
  0
LINE
  5
F104E7
330
F104E8
100
AcDbEntity
8
Geo
100
AcDbLine
10
-18.8427616926505
20
2.64838788016776
30
0.000000000000000
11
-18.7427616926505
21
2.63788624339279
31
0.000000000000000
  0
LINE
  5
F104E9
330
F104EA
100
AcDbEntity
8
Geo
100
AcDbLine
10
-18.7427616926505
20
2.63788624339279
30
0.000000000000000
11
-18.6427616926505
21
2.62838326286463
31
0.000000000000000
  0
LINE
  5
F104EB
330
F104EC
100
AcDbEntity
8
Geo
100
AcDbLine
10
-18.6427616926505
20
2.62838326286463
30
0.000000000000000
11
-18.5427616926505
21
2.61988030406413
31
0.000000000000000
  0
LINE
  5
F104ED
330
F104EE
100
AcDbEntity
8
Geo
100
AcDbLine
10
-18.5427616926505
20
2.61988030406413
30
0.000000000000000
11
-18.4427616926505
21
2.61237858877931
31
0.000000000000000
  0
LINE
  5
F104EF
330
F104F0
100
AcDbEntity
8
Geo
100
AcDbLine
10
-18.4427616926505
20
2.61237858877931
30
0.000000000000000
11
-18.3427616926505
21
2.60587919492972
31
0.000000000000000
  0
LINE
  5
F104F1
330
F104F2
100
AcDbEntity
8
Geo
100
AcDbLine
10
-18.3427616926505
20
2.60587919492972
30
0.000000000000000
11
-18.2427616926505
21
2.60038305641163
31
0.000000000000000
  0
LINE
  5
F104F3
330
F104F4
100
AcDbEntity
8
Geo
100
AcDbLine
10
-18.2427616926505
20
2.60038305641163
30
0.000000000000000
11
-18.1427616926505
21
2.59589096296378
31
0.000000000000000
  0
LINE
  5
F104F5
330
F104F6
100
AcDbEntity
8
Geo
100
AcDbLine
10
-18.1427616926505
20
2.59589096296378
30
0.000000000000000
11
-18.0427616926505
21
2.59240356005396
31
0.000000000000000
  0
LINE
  5
F104F7
330
F104F8
100
AcDbEntity
8
Geo
100
AcDbLine
10
-18.0427616926505
20
2.59240356005396
30
0.000000000000000
11
-17.9427616926505
21
2.58992134878620
31
0.000000000000000
  0
LINE
  5
F104F9
330
F104FA
100
AcDbEntity
8
Geo
100
AcDbLine
10
-17.9427616926505
20
2.58992134878620
30
0.000000000000000
11
-17.8427616926505
21
2.58844468582882
31
0.000000000000000
  0
LINE
  5
F104FB
330
F104FC
100
AcDbEntity
8
Geo
100
AcDbLine
10
-32.7427616926504
20
3.01967765517640
30
0.000000000000000
11
-32.6427616926504
21
2.90215717668822
31
0.000000000000000
  0
LINE
  5
F104FD
330
F104FE
100
AcDbEntity
8
Geo
100
AcDbLine
10
-32.6427616926504
20
2.90215717668822
30
0.000000000000000
11
-32.5427616926504
21
2.78500469869148
31
0.000000000000000
  0
LINE
  5
F104FF
330
F10500
100
AcDbEntity
8
Geo
100
AcDbLine
10
-32.5427616926504
20
2.78500469869148
30
0.000000000000000
11
-32.4427616926504
21
2.76572562299539
31
0.000000000000000
  0
LINE
  5
F10501
330
F10502
100
AcDbEntity
8
Geo
100
AcDbLine
10
-32.4427616926504
20
2.76572562299539
30
0.000000000000000
11
-32.3427616926504
21
2.74742683433798
31
0.000000000000000
  0
LINE
  5
F10503
330
F10504
100
AcDbEntity
8
Geo
100
AcDbLine
10
-32.3427616926504
20
2.74742683433798
30
0.000000000000000
11
-32.2427616926504
21
2.73011096206759
31
0.000000000000000
  0
LINE
  5
F10505
330
F10506
100
AcDbEntity
8
Geo
100
AcDbLine
10
-32.2427616926504
20
2.73011096206759
30
0.000000000000000
11
-32.1427616926504
21
2.71378049429750
31
0.000000000000000
  0
LINE
  5
F10507
330
F10508
100
AcDbEntity
8
Geo
100
AcDbLine
10
-32.1427616926504
20
2.71378049429750
30
0.000000000000000
11
-32.0427616926504
21
2.69843777754851
31
0.000000000000000
  0
LINE
  5
F10509
330
F1050A
100
AcDbEntity
8
Geo
100
AcDbLine
10
-32.0427616926504
20
2.69843777754851
30
0.000000000000000
11
-31.9427616926504
21
2.68408501641170
31
0.000000000000000
  0
LINE
  5
F1050B
330
F1050C
100
AcDbEntity
8
Geo
100
AcDbLine
10
-31.9427616926504
20
2.68408501641170
30
0.000000000000000
11
-31.8427616926504
21
2.67072427323169
31
0.000000000000000
  0
LINE
  5
F1050D
330
F1050E
100
AcDbEntity
8
Geo
100
AcDbLine
10
-31.8427616926504
20
2.67072427323169
30
0.000000000000000
11
-31.7427616926504
21
2.65835746781028
31
0.000000000000000
  0
LINE
  5
F1050F
330
F10510
100
AcDbEntity
8
Geo
100
AcDbLine
10
-31.7427616926504
20
2.65835746781028
30
0.000000000000000
11
-31.6427616926504
21
2.64698637713061
31
0.000000000000000
  0
LINE
  5
F10511
330
F10512
100
AcDbEntity
8
Geo
100
AcDbLine
10
-31.6427616926504
20
2.64698637713061
30
0.000000000000000
11
-31.5427616926504
21
2.63661263510183
31
0.000000000000000
  0
LINE
  5
F10513
330
F10514
100
AcDbEntity
8
Geo
100
AcDbLine
10
-31.5427616926504
20
2.63661263510183
30
0.000000000000000
11
-31.4427616926504
21
2.62723773232431
31
0.000000000000000
  0
LINE
  5
F10515
330
F10516
100
AcDbEntity
8
Geo
100
AcDbLine
10
-31.4427616926504
20
2.62723773232431
30
0.000000000000000
11
-31.3427616926504
21
2.61886301587545
31
0.000000000000000
  0
LINE
  5
F10517
330
F10518
100
AcDbEntity
8
Geo
100
AcDbLine
10
-31.3427616926504
20
2.61886301587545
30
0.000000000000000
11
-31.2427616926504
21
2.61148968911614
31
0.000000000000000
  0
LINE
  5
F10519
330
F1051A
100
AcDbEntity
8
Geo
100
AcDbLine
10
-31.2427616926504
20
2.61148968911614
30
0.000000000000000
11
-31.1427616926504
21
2.60511881151784
31
0.000000000000000
  0
LINE
  5
F1051B
330
F1051C
100
AcDbEntity
8
Geo
100
AcDbLine
10
-31.1427616926504
20
2.60511881151784
30
0.000000000000000
11
-31.0427616926504
21
2.59975129851034
31
0.000000000000000
  0
LINE
  5
F1051D
330
F1051E
100
AcDbEntity
8
Geo
100
AcDbLine
10
-31.0427616926504
20
2.59975129851034
30
0.000000000000000
11
-30.9427616926504
21
2.59538792135021
31
0.000000000000000
  0
LINE
  5
F1051F
330
F10520
100
AcDbEntity
8
Geo
100
AcDbLine
10
-30.9427616926504
20
2.59538792135021
30
0.000000000000000
11
-30.8427616926504
21
2.59202930701003
31
0.000000000000000
  0
LINE
  5
F10521
330
F10522
100
AcDbEntity
8
Geo
100
AcDbLine
10
-30.8427616926504
20
2.59202930701003
30
0.000000000000000
11
-30.7427616926504
21
2.58967593808824
31
0.000000000000000
  0
LINE
  5
F10523
330
F10524
100
AcDbEntity
8
Geo
100
AcDbLine
10
-30.7427616926504
20
2.58967593808824
30
0.000000000000000
11
-30.6427616926504
21
2.58832815273982
31
0.000000000000000
  0
LINE
  5
F10525
330
F10526
100
AcDbEntity
8
Geo
100
AcDbLine
10
-9.04276169265035
20
16.5879190772320
30
0.000000000000000
11
-8.94276169265035
21
16.5877463500263
31
0.000000000000000
  0
LINE
  5
F10527
330
F10528
100
AcDbEntity
8
Geo
100
AcDbLine
10
-8.94276169265035
20
16.5877463500263
30
0.000000000000000
11
-8.84276169265035
21
16.5865678271984
31
0.000000000000000
  0
LINE
  5
F10529
330
F1052A
100
AcDbEntity
8
Geo
100
AcDbLine
10
-8.84276169265035
20
16.5865678271984
30
0.000000000000000
11
-8.74276169265035
21
16.5843836780901
31
0.000000000000000
  0
LINE
  5
F1052B
330
F1052C
100
AcDbEntity
8
Geo
100
AcDbLine
10
-8.74276169265035
20
16.5843836780901
30
0.000000000000000
11
-8.64276169265035
21
16.5811942165412
31
0.000000000000000
  0
LINE
  5
F1052D
330
F1052E
100
AcDbEntity
8
Geo
100
AcDbLine
10
-8.64276169265035
20
16.5811942165412
30
0.000000000000000
11
-8.54276169265034
21
16.5769999008445
31
0.000000000000000
  0
LINE
  5
F1052F
330
F10530
100
AcDbEntity
8
Geo
100
AcDbLine
10
-8.54276169265034
20
16.5769999008445
30
0.000000000000000
11
-8.44276169265034
21
16.5718013336803
31
0.000000000000000
  0
LINE
  5
F10531
330
F10532
100
AcDbEntity
8
Geo
100
AcDbLine
10
-8.44276169265034
20
16.5718013336803
30
0.000000000000000
11
-8.34276169265034
21
16.5655992620294
31
0.000000000000000
  0
LINE
  5
F10533
330
F10534
100
AcDbEntity
8
Geo
100
AcDbLine
10
-8.34276169265034
20
16.5655992620294
30
0.000000000000000
11
-8.24276169265034
21
16.5583945770658
31
0.000000000000000
  0
LINE
  5
F10535
330
F10536
100
AcDbEntity
8
Geo
100
AcDbLine
10
-8.24276169265034
20
16.5583945770658
30
0.000000000000000
11
-8.14276169265034
21
16.5501883140289
31
0.000000000000000
  0
LINE
  5
F10537
330
F10538
100
AcDbEntity
8
Geo
100
AcDbLine
10
-8.14276169265034
20
16.5501883140289
30
0.000000000000000
11
-8.04276169265034
21
16.5409816520747
31
0.000000000000000
  0
LINE
  5
F10539
330
F1053A
100
AcDbEntity
8
Geo
100
AcDbLine
10
-8.04276169265034
20
16.5409816520747
30
0.000000000000000
11
-7.94276169265034
21
16.5307759141059
31
0.000000000000000
  0
LINE
  5
F1053B
330
F1053C
100
AcDbEntity
8
Geo
100
AcDbLine
10
-7.94276169265034
20
16.5307759141059
30
0.000000000000000
11
-7.84276169265033
21
16.5195725665825
31
0.000000000000000
  0
LINE
  5
F1053D
330
F1053E
100
AcDbEntity
8
Geo
100
AcDbLine
10
-7.84276169265033
20
16.5195725665825
30
0.000000000000000
11
-7.74276169265033
21
16.5073732193107
31
0.000000000000000
  0
LINE
  5
F1053F
330
F10540
100
AcDbEntity
8
Geo
100
AcDbLine
10
-7.74276169265033
20
16.5073732193107
30
0.000000000000000
11
-7.64276169265033
21
16.4941796252116
31
0.000000000000000
  0
LINE
  5
F10541
330
F10542
100
AcDbEntity
8
Geo
100
AcDbLine
10
-7.64276169265033
20
16.4941796252116
30
0.000000000000000
11
-7.54276169265033
21
16.4799936800694
31
0.000000000000000
  0
LINE
  5
F10543
330
F10544
100
AcDbEntity
8
Geo
100
AcDbLine
10
-7.54276169265033
20
16.4799936800694
30
0.000000000000000
11
-7.44276169265033
21
16.4648174222590
31
0.000000000000000
  0
LINE
  5
F10545
330
F10546
100
AcDbEntity
8
Geo
100
AcDbLine
10
-7.44276169265033
20
16.4648174222590
30
0.000000000000000
11
-7.34276169265033
21
16.4486530324530
31
0.000000000000000
  0
LINE
  5
F10547
330
F10548
100
AcDbEntity
8
Geo
100
AcDbLine
10
-7.34276169265033
20
16.4486530324530
30
0.000000000000000
11
-7.24276169265033
21
16.4315028333084
31
0.000000000000000
  0
LINE
  5
F10549
330
F1054A
100
AcDbEntity
8
Geo
100
AcDbLine
10
-7.24276169265033
20
16.4315028333084
30
0.000000000000000
11
-7.14276169265032
21
16.4133692891332
31
0.000000000000000
  0
LINE
  5
F1054B
330
F1054C
100
AcDbEntity
8
Geo
100
AcDbLine
10
-7.14276169265032
20
16.4133692891332
30
0.000000000000000
11
-7.04276169265032
21
16.3942550055316
31
0.000000000000000
  0
LINE
  5
F1054D
330
F1054E
100
AcDbEntity
8
Geo
100
AcDbLine
10
-7.04276169265032
20
16.3942550055316
30
0.000000000000000
11
-6.94276169265032
21
16.3741627290302
31
0.000000000000000
  0
LINE
  5
F1054F
330
F10550
100
AcDbEntity
8
Geo
100
AcDbLine
10
-6.94276169265032
20
16.3741627290302
30
0.000000000000000
11
-6.84276169265032
21
16.3530953466831
31
0.000000000000000
  0
LINE
  5
F10551
330
F10552
100
AcDbEntity
8
Geo
100
AcDbLine
10
-6.84276169265032
20
16.3530953466831
30
0.000000000000000
11
-6.74276169265042
21
16.3310558856573
31
0.000000000000000
  0
LINE
  5
F10553
330
F10554
100
AcDbEntity
8
Geo
100
AcDbLine
10
-6.74276169265042
20
16.3310558856573
30
0.000000000000000
11
-6.74276169265042
21
16.3310558856573
31
0.000000000000000
  0
LINE
  5
F10555
330
F10556
100
AcDbEntity
8
Geo
100
AcDbLine
10
-6.74276169265042
20
16.3310558856573
30
0.000000000000000
11
-6.64276169265042
21
16.0588913265952
31
0.000000000000000
  0
LINE
  5
F10557
330
F10558
100
AcDbEntity
8
Geo
100
AcDbLine
10
-6.64276169265042
20
16.0588913265952
30
0.000000000000000
11
-6.54276169265042
21
16.0248270339160
31
0.000000000000000
  0
LINE
  5
F10559
330
F1055A
100
AcDbEntity
8
Geo
100
AcDbLine
10
-6.54276169265042
20
16.0248270339160
30
0.000000000000000
11
-6.44276169265041
21
15.9879009283458
31
0.000000000000000
  0
LINE
  5
F1055B
330
F1055C
100
AcDbEntity
8
Geo
100
AcDbLine
10
-6.44276169265041
20
15.9879009283458
30
0.000000000000000
11
-6.34276169265041
21
15.9479737658531
31
0.000000000000000
  0
LINE
  5
F1055D
330
F1055E
100
AcDbEntity
8
Geo
100
AcDbLine
10
-6.34276169265041
20
15.9479737658531
30
0.000000000000000
11
-6.24276169265041
21
15.9049050210003
31
0.000000000000000
  0
LINE
  5
F1055F
330
F10560
100
AcDbEntity
8
Geo
100
AcDbLine
10
-6.24276169265041
20
15.9049050210003
30
0.000000000000000
11
-6.14276169265041
21
15.8585531685138
31
0.000000000000000
  0
LINE
  5
F10561
330
F10562
100
AcDbEntity
8
Geo
100
AcDbLine
10
-6.14276169265041
20
15.8585531685138
30
0.000000000000000
11
-6.04276169265041
21
15.8087759847531
31
0.000000000000000
  0
LINE
  5
F10563
330
F10564
100
AcDbEntity
8
Geo
100
AcDbLine
10
-6.04276169265041
20
15.8087759847531
30
0.000000000000000
11
-5.94276169265041
21
15.7554308697186
31
0.000000000000000
  0
LINE
  5
F10565
330
F10566
100
AcDbEntity
8
Geo
100
AcDbLine
10
-5.94276169265041
20
15.7554308697186
30
0.000000000000000
11
-5.84276169265041
21
15.6983751901987
31
0.000000000000000
  0
LINE
  5
F10567
330
F10568
100
AcDbEntity
8
Geo
100
AcDbLine
10
-5.84276169265041
20
15.6983751901987
30
0.000000000000000
11
-5.74276169265040
21
15.6374666446191
31
0.000000000000000
  0
LINE
  5
F10569
330
F1056A
100
AcDbEntity
8
Geo
100
AcDbLine
10
-5.74276169265040
20
15.6374666446191
30
0.000000000000000
11
-5.64276169265040
21
15.5725636501040
31
0.000000000000000
  0
LINE
  5
F1056B
330
F1056C
100
AcDbEntity
8
Geo
100
AcDbLine
10
-5.64276169265040
20
15.5725636501040
30
0.000000000000000
11
-5.54276169265040
21
15.5035257522078
31
0.000000000000000
  0
LINE
  5
F1056D
330
F1056E
100
AcDbEntity
8
Geo
100
AcDbLine
10
-5.54276169265040
20
15.5035257522078
30
0.000000000000000
11
-5.44276169265040
21
15.4302140577124
31
0.000000000000000
  0
LINE
  5
F1056F
330
F10570
100
AcDbEntity
8
Geo
100
AcDbLine
10
-5.44276169265040
20
15.4302140577124
30
0.000000000000000
11
-5.34276169265040
21
15.3524916908163
31
0.000000000000000
  0
LINE
  5
F10571
330
F10572
100
AcDbEntity
8
Geo
100
AcDbLine
10
-5.34276169265040
20
15.3524916908163
30
0.000000000000000
11
-5.24276169265040
21
15.2702242729661
31
0.000000000000000
  0
LINE
  5
F10573
330
F10574
100
AcDbEntity
8
Geo
100
AcDbLine
10
-5.24276169265040
20
15.2702242729661
30
0.000000000000000
11
-5.14276169265040
21
15.1832804264954
31
0.000000000000000
  0
LINE
  5
F10575
330
F10576
100
AcDbEntity
8
Geo
100
AcDbLine
10
-5.14276169265040
20
15.1832804264954
30
0.000000000000000
11
-5.04276169265039
21
15.0915323021452
31
0.000000000000000
  0
LINE
  5
F10577
330
F10578
100
AcDbEntity
8
Geo
100
AcDbLine
10
-5.04276169265039
20
15.0915323021452
30
0.000000000000000
11
-4.94276169265039
21
14.9948561304381
31
0.000000000000000
  0
LINE
  5
F10579
330
F1057A
100
AcDbEntity
8
Geo
100
AcDbLine
10
-4.94276169265039
20
14.9948561304381
30
0.000000000000000
11
-4.84276169265039
21
14.8931327967698
31
0.000000000000000
  0
LINE
  5
F1057B
330
F1057C
100
AcDbEntity
8
Geo
100
AcDbLine
10
-4.84276169265039
20
14.8931327967698
30
0.000000000000000
11
-4.74276169265039
21
14.7862484399641
31
0.000000000000000
  0
LINE
  5
F1057D
330
F1057E
100
AcDbEntity
8
Geo
100
AcDbLine
10
-4.74276169265039
20
14.7862484399641
30
0.000000000000000
11
-4.64276169265039
21
14.6740950739078
31
0.000000000000000
  0
LINE
  5
F1057F
330
F10580
100
AcDbEntity
8
Geo
100
AcDbLine
10
-4.64276169265039
20
14.6740950739078
30
0.000000000000000
11
-4.54276169265039
21
14.5565712317493
31
0.000000000000000
  0
LINE
  5
F10581
330
F10582
100
AcDbEntity
8
Geo
100
AcDbLine
10
-4.54276169265039
20
14.5565712317493
30
0.000000000000000
11
-4.44276169265039
21
14.4335826319958
31
0.000000000000000
  0
LINE
  5
F10583
330
F10584
100
AcDbEntity
8
Geo
100
AcDbLine
10
-4.44276169265039
20
14.4335826319958
30
0.000000000000000
11
-4.34276169265038
21
14.3050428656916
31
0.000000000000000
  0
LINE
  5
F10585
330
F10586
100
AcDbEntity
8
Geo
100
AcDbLine
10
-4.34276169265038
20
14.3050428656916
30
0.000000000000000
11
-4.24276169265038
21
14.1708741036933
31
0.000000000000000
  0
LINE
  5
F10587
330
F10588
100
AcDbEntity
8
Geo
100
AcDbLine
10
-4.24276169265038
20
14.1708741036933
30
0.000000000000000
11
-4.14276169265038
21
14.0310078228866
31
0.000000000000000
  0
LINE
  5
F10589
330
F1058A
100
AcDbEntity
8
Geo
100
AcDbLine
10
-4.14276169265038
20
14.0310078228866
30
0.000000000000000
11
-4.04276169265038
21
13.8853855500033
31
0.000000000000000
  0
LINE
  5
F1058B
330
F1058C
100
AcDbEntity
8
Geo
100
AcDbLine
10
-4.04276169265038
20
13.8853855500033
30
0.000000000000000
11
-3.94276169265038
21
13.7339596215081
31
0.000000000000000
  0
LINE
  5
F1058D
330
F1058E
100
AcDbEntity
8
Geo
100
AcDbLine
10
-3.94276169265038
20
13.7339596215081
30
0.000000000000000
11
-3.84276169265038
21
13.5766939578221
31
0.000000000000000
  0
LINE
  5
F1058F
330
F10590
100
AcDbEntity
8
Geo
100
AcDbLine
10
-3.84276169265038
20
13.5766939578221
30
0.000000000000000
11
-3.74276169265038
21
13.4135648499388
31
0.000000000000000
  0
LINE
  5
F10591
330
F10592
100
AcDbEntity
8
Geo
100
AcDbLine
10
-3.74276169265038
20
13.4135648499388
30
0.000000000000000
11
-3.64276169265037
21
13.2445617562748
31
0.000000000000000
  0
LINE
  5
F10593
330
F10594
100
AcDbEntity
8
Geo
100
AcDbLine
10
-3.64276169265037
20
13.2445617562748
30
0.000000000000000
11
-3.54276169265037
21
13.0696881073666
31
0.000000000000000
  0
LINE
  5
F10595
330
F10596
100
AcDbEntity
8
Geo
100
AcDbLine
10
-3.54276169265037
20
13.0696881073666
30
0.000000000000000
11
-3.44276169265037
21
12.8889621157960
31
0.000000000000000
  0
LINE
  5
F10597
330
F10598
100
AcDbEntity
8
Geo
100
AcDbLine
10
-3.44276169265037
20
12.8889621157960
30
0.000000000000000
11
-3.34276169265037
21
12.7024175884842
31
0.000000000000000
  0
LINE
  5
F10599
330
F1059A
100
AcDbEntity
8
Geo
100
AcDbLine
10
-3.34276169265037
20
12.7024175884842
30
0.000000000000000
11
-3.24276169265037
21
12.5101047382530
31
0.000000000000000
  0
LINE
  5
F1059B
330
F1059C
100
AcDbEntity
8
Geo
100
AcDbLine
10
-3.24276169265037
20
12.5101047382530
30
0.000000000000000
11
-3.14276169265037
21
12.3120909912961
31
0.000000000000000
  0
LINE
  5
F1059D
330
F1059E
100
AcDbEntity
8
Geo
100
AcDbLine
10
-3.14276169265037
20
12.3120909912961
30
0.000000000000000
11
-3.04276169265037
21
12.1084617869556
31
0.000000000000000
  0
LINE
  5
F1059F
330
F105A0
100
AcDbEntity
8
Geo
100
AcDbLine
10
-3.04276169265037
20
12.1084617869556
30
0.000000000000000
11
-2.94276169265036
21
11.8993213659371
31
0.000000000000000
  0
LINE
  5
F105A1
330
F105A2
100
AcDbEntity
8
Geo
100
AcDbLine
10
-2.94276169265036
20
11.8993213659371
30
0.000000000000000
11
-2.84276169265036
21
11.6847935428400
31
0.000000000000000
  0
LINE
  5
F105A3
330
F105A4
100
AcDbEntity
8
Geo
100
AcDbLine
10
-2.84276169265036
20
11.6847935428400
30
0.000000000000000
11
-2.74276169265036
21
11.4650224586226
31
0.000000000000000
  0
LINE
  5
F105A5
330
F105A6
100
AcDbEntity
8
Geo
100
AcDbLine
10
-2.74276169265036
20
11.4650224586226
30
0.000000000000000
11
-2.64276169265036
21
11.2401733083614
31
0.000000000000000
  0
LINE
  5
F105A7
330
F105A8
100
AcDbEntity
8
Geo
100
AcDbLine
10
-2.64276169265036
20
11.2401733083614
30
0.000000000000000
11
-2.54276169265036
21
11.0104330394120
31
0.000000000000000
  0
LINE
  5
F105A9
330
F105AA
100
AcDbEntity
8
Geo
100
AcDbLine
10
-2.54276169265036
20
11.0104330394120
30
0.000000000000000
11
-2.44276169265036
21
10.7760110148284
31
0.000000000000000
  0
LINE
  5
F105AB
330
F105AC
100
AcDbEntity
8
Geo
100
AcDbLine
10
-2.44276169265036
20
10.7760110148284
30
0.000000000000000
11
-2.34276169265036
21
10.5371396366553
31
0.000000000000000
  0
LINE
  5
F105AD
330
F105AE
100
AcDbEntity
8
Geo
100
AcDbLine
10
-2.34276169265036
20
10.5371396366553
30
0.000000000000000
11
-2.24276169265035
21
10.2940749234731
31
0.000000000000000
  0
LINE
  5
F105AF
330
F105B0
100
AcDbEntity
8
Geo
100
AcDbLine
10
-2.24276169265035
20
10.2940749234731
30
0.000000000000000
11
-2.14276169265035
21
10.0470970363533
31
0.000000000000000
  0
LINE
  5
F105B1
330
F105B2
100
AcDbEntity
8
Geo
100
AcDbLine
10
-2.14276169265035
20
10.0470970363533
30
0.000000000000000
11
-2.04276169265035
21
9.79651074717135
31
0.000000000000000
  0
LINE
  5
F105B3
330
F105B4
100
AcDbEntity
8
Geo
100
AcDbLine
10
-2.04276169265035
20
9.79651074717135
30
0.000000000000000
11
-1.94276169265035
21
9.54264584303125
31
0.000000000000000
  0
LINE
  5
F105B5
330
F105B6
100
AcDbEntity
8
Geo
100
AcDbLine
10
-1.94276169265035
20
9.54264584303125
30
0.000000000000000
11
-1.84276169265035
21
9.28585746037936
31
0.000000000000000
  0
LINE
  5
F105B7
330
F105B8
100
AcDbEntity
8
Geo
100
AcDbLine
10
-1.84276169265035
20
9.28585746037936
30
0.000000000000000
11
-1.74276169265042
21
9.02652634223267
31
0.000000000000000
  0
LINE
  5
F105B9
330
F105BA
100
AcDbEntity
8
Geo
100
AcDbLine
10
-21.8427616926504
20
16.5879531317243
30
0.000000000000000
11
-21.7427616926504
21
16.5876515091677
31
0.000000000000000
  0
LINE
  5
F105BB
330
F105BC
100
AcDbEntity
8
Geo
100
AcDbLine
10
-21.7427616926504
20
16.5876515091677
30
0.000000000000000
11
-21.6427616926504
21
16.5863441046166
31
0.000000000000000
  0
LINE
  5
F105BD
330
F105BE
100
AcDbEntity
8
Geo
100
AcDbLine
10
-21.6427616926504
20
16.5863441046166
30
0.000000000000000
11
-21.5427616926504
21
16.5840311059317
31
0.000000000000000
  0
LINE
  5
F105BF
330
F105C0
100
AcDbEntity
8
Geo
100
AcDbLine
10
-21.5427616926504
20
16.5840311059317
30
0.000000000000000
11
-21.4427616926504
21
16.5807128454672
31
0.000000000000000
  0
LINE
  5
F105C1
330
F105C2
100
AcDbEntity
8
Geo
100
AcDbLine
10
-21.4427616926504
20
16.5807128454672
30
0.000000000000000
11
-21.3427616926504
21
16.5763898000230
31
0.000000000000000
  0
LINE
  5
F105C3
330
F105C4
100
AcDbEntity
8
Geo
100
AcDbLine
10
-21.3427616926504
20
16.5763898000230
30
0.000000000000000
11
-21.2427616926504
21
16.5710625907766
31
0.000000000000000
  0
LINE
  5
F105C5
330
F105C6
100
AcDbEntity
8
Geo
100
AcDbLine
10
-21.2427616926504
20
16.5710625907766
30
0.000000000000000
11
-21.1427616926504
21
16.5647319831931
31
0.000000000000000
  0
LINE
  5
F105C7
330
F105C8
100
AcDbEntity
8
Geo
100
AcDbLine
10
-21.1427616926504
20
16.5647319831931
30
0.000000000000000
11
-21.0427616926504
21
16.5573988869161
31
0.000000000000000
  0
LINE
  5
F105C9
330
F105CA
100
AcDbEntity
8
Geo
100
AcDbLine
10
-21.0427616926504
20
16.5573988869161
30
0.000000000000000
11
-20.9427616926504
21
16.5490643556363
31
0.000000000000000
  0
LINE
  5
F105CB
330
F105CC
100
AcDbEntity
8
Geo
100
AcDbLine
10
-20.9427616926504
20
16.5490643556363
30
0.000000000000000
11
-20.8427616926504
21
16.5397295869404
31
0.000000000000000
  0
LINE
  5
F105CD
330
F105CE
100
AcDbEntity
8
Geo
100
AcDbLine
10
-20.8427616926504
20
16.5397295869404
30
0.000000000000000
11
-20.7427616926504
21
16.5293959221389
31
0.000000000000000
  0
LINE
  5
F105CF
330
F105D0
100
AcDbEntity
8
Geo
100
AcDbLine
10
-20.7427616926504
20
16.5293959221389
30
0.000000000000000
11
-20.6427616926504
21
16.5180648460734
31
0.000000000000000
  0
LINE
  5
F105D1
330
F105D2
100
AcDbEntity
8
Geo
100
AcDbLine
10
-20.6427616926504
20
16.5180648460734
30
0.000000000000000
11
-20.5427616926504
21
16.5057379869036
31
0.000000000000000
  0
LINE
  5
F105D3
330
F105D4
100
AcDbEntity
8
Geo
100
AcDbLine
10
-20.5427616926504
20
16.5057379869036
30
0.000000000000000
11
-20.4427616926504
21
16.4924171158726
31
0.000000000000000
  0
LINE
  5
F105D5
330
F105D6
100
AcDbEntity
8
Geo
100
AcDbLine
10
-20.4427616926504
20
16.4924171158726
30
0.000000000000000
11
-20.3427616926504
21
16.4781041470530
31
0.000000000000000
  0
LINE
  5
F105D7
330
F105D8
100
AcDbEntity
8
Geo
100
AcDbLine
10
-20.3427616926504
20
16.4781041470530
30
0.000000000000000
11
-20.2427616926504
21
16.4628011370717
31
0.000000000000000
  0
LINE
  5
F105D9
330
F105DA
100
AcDbEntity
8
Geo
100
AcDbLine
10
-20.2427616926504
20
16.4628011370717
30
0.000000000000000
11
-20.1427616926504
21
16.4465102848143
31
0.000000000000000
  0
LINE
  5
F105DB
330
F105DC
100
AcDbEntity
8
Geo
100
AcDbLine
10
-20.1427616926504
20
16.4465102848143
30
0.000000000000000
11
-20.0427616926504
21
16.4292339311093
31
0.000000000000000
  0
LINE
  5
F105DD
330
F105DE
100
AcDbEntity
8
Geo
100
AcDbLine
10
-20.0427616926504
20
16.4292339311093
30
0.000000000000000
11
-19.9427616926505
21
16.4109745583915
31
0.000000000000000
  0
LINE
  5
F105DF
330
F105E0
100
AcDbEntity
8
Geo
100
AcDbLine
10
-19.9427616926505
20
16.4109745583915
30
0.000000000000000
11
-19.8427616926504
21
16.3917347903456
31
0.000000000000000
  0
LINE
  5
F105E1
330
F105E2
100
AcDbEntity
8
Geo
100
AcDbLine
10
-19.8427616926504
20
16.3917347903456
30
0.000000000000000
11
-19.7427616926504
21
16.3715173915290
31
0.000000000000000
  0
LINE
  5
F105E3
330
F105E4
100
AcDbEntity
8
Geo
100
AcDbLine
10
-19.7427616926504
20
16.3715173915290
30
0.000000000000000
11
-19.6427616926504
21
16.3503252669747
31
0.000000000000000
  0
LINE
  5
F105E5
330
F105E6
100
AcDbEntity
8
Geo
100
AcDbLine
10
-19.6427616926504
20
16.3503252669747
30
0.000000000000000
11
-19.5427616926505
21
16.3281614617736
31
0.000000000000000
  0
LINE
  5
F105E7
330
F105E8
100
AcDbEntity
8
Geo
100
AcDbLine
10
-19.5427616926505
20
16.3281614617736
30
0.000000000000000
11
-19.4427616926505
21
16.3050291606372
31
0.000000000000000
  0
LINE
  5
F105E9
330
F105EA
100
AcDbEntity
8
Geo
100
AcDbLine
10
-19.4427616926505
20
16.3050291606372
30
0.000000000000000
11
-19.3427616926504
21
16.2809316874402
31
0.000000000000000
  0
LINE
  5
F105EB
330
F105EC
100
AcDbEntity
8
Geo
100
AcDbLine
10
-19.3427616926504
20
16.2809316874402
30
0.000000000000000
11
-19.2427616926505
21
16.2558725047423
31
0.000000000000000
  0
LINE
  5
F105ED
330
F105EE
100
AcDbEntity
8
Geo
100
AcDbLine
10
-19.2427616926505
20
16.2558725047423
30
0.000000000000000
11
-19.1427616926505
21
16.2298552132911
31
0.000000000000000
  0
LINE
  5
F105EF
330
F105F0
100
AcDbEntity
8
Geo
100
AcDbLine
10
-19.1427616926505
20
16.2298552132911
30
0.000000000000000
11
-19.0427616926505
21
16.2028835515047
31
0.000000000000000
  0
LINE
  5
F105F1
330
F105F2
100
AcDbEntity
8
Geo
100
AcDbLine
10
-19.0427616926505
20
16.2028835515047
30
0.000000000000000
11
-18.9427616926505
21
16.1749613949344
31
0.000000000000000
  0
LINE
  5
F105F3
330
F105F4
100
AcDbEntity
8
Geo
100
AcDbLine
10
-18.9427616926505
20
16.1749613949344
30
0.000000000000000
11
-18.8427616926505
21
16.1460927557076
31
0.000000000000000
  0
LINE
  5
F105F5
330
F105F6
100
AcDbEntity
8
Geo
100
AcDbLine
10
-18.8427616926505
20
16.1460927557076
30
0.000000000000000
11
-18.7427616926505
21
16.1162817819520
31
0.000000000000000
  0
LINE
  5
F105F7
330
F105F8
100
AcDbEntity
8
Geo
100
AcDbLine
10
-18.7427616926505
20
16.1162817819520
30
0.000000000000000
11
-18.6427616926505
21
16.0855327571987
31
0.000000000000000
  0
LINE
  5
F105F9
330
F105FA
100
AcDbEntity
8
Geo
100
AcDbLine
10
-18.6427616926505
20
16.0855327571987
30
0.000000000000000
11
-18.5427616926505
21
16.0538500997674
31
0.000000000000000
  0
LINE
  5
F105FB
330
F105FC
100
AcDbEntity
8
Geo
100
AcDbLine
10
-18.5427616926505
20
16.0538500997674
30
0.000000000000000
11
-18.4427616926505
21
16.0212383621311
31
0.000000000000000
  0
LINE
  5
F105FD
330
F105FE
100
AcDbEntity
8
Geo
100
AcDbLine
10
-18.4427616926505
20
16.0212383621311
30
0.000000000000000
11
-18.3427616926505
21
15.9877022302621
31
0.000000000000000
  0
LINE
  5
F105FF
330
F10600
100
AcDbEntity
8
Geo
100
AcDbLine
10
-18.3427616926505
20
15.9877022302621
30
0.000000000000000
11
-18.2427616926505
21
15.9532465229587
31
0.000000000000000
  0
LINE
  5
F10601
330
F10602
100
AcDbEntity
8
Geo
100
AcDbLine
10
-18.2427616926505
20
15.9532465229587
30
0.000000000000000
11
-18.1427616926505
21
15.9178761911529
31
0.000000000000000
  0
LINE
  5
F10603
330
F10604
100
AcDbEntity
8
Geo
100
AcDbLine
10
-18.1427616926505
20
15.9178761911529
30
0.000000000000000
11
-18.0427616926505
21
15.8815963171985
31
0.000000000000000
  0
LINE
  5
F10605
330
F10606
100
AcDbEntity
8
Geo
100
AcDbLine
10
-18.0427616926505
20
15.8815963171985
30
0.000000000000000
11
-17.9427616926505
21
15.8444121141416
31
0.000000000000000
  0
LINE
  5
F10607
330
F10608
100
AcDbEntity
8
Geo
100
AcDbLine
10
-17.9427616926505
20
15.8444121141416
30
0.000000000000000
11
-17.8427616926505
21
15.8063289249708
31
0.000000000000000
  0
LINE
  5
F10609
330
F1060A
100
AcDbEntity
8
Geo
100
AcDbLine
10
-17.8427616926505
20
15.8063289249708
30
0.000000000000000
11
-17.7427616926505
21
15.7673522218500
31
0.000000000000000
  0
LINE
  5
F1060B
330
F1060C
100
AcDbEntity
8
Geo
100
AcDbLine
10
-17.7427616926505
20
15.7673522218500
30
0.000000000000000
11
-17.6427616926505
21
15.7274876053317
31
0.000000000000000
  0
LINE
  5
F1060D
330
F1060E
100
AcDbEntity
8
Geo
100
AcDbLine
10
-17.6427616926505
20
15.7274876053317
30
0.000000000000000
11
-17.5427616926505
21
15.6867408035527
31
0.000000000000000
  0
LINE
  5
F1060F
330
F10610
100
AcDbEntity
8
Geo
100
AcDbLine
10
-17.5427616926505
20
15.6867408035527
30
0.000000000000000
11
-17.4427616926505
21
15.6451176714106
31
0.000000000000000
  0
LINE
  5
F10611
330
F10612
100
AcDbEntity
8
Geo
100
AcDbLine
10
-17.4427616926505
20
15.6451176714106
30
0.000000000000000
11
-17.3427616926505
21
15.6026241897226
31
0.000000000000000
  0
LINE
  5
F10613
330
F10614
100
AcDbEntity
8
Geo
100
AcDbLine
10
-17.3427616926505
20
15.6026241897226
30
0.000000000000000
11
-17.2427616926505
21
15.5592664643665
31
0.000000000000000
  0
LINE
  5
F10615
330
F10616
100
AcDbEntity
8
Geo
100
AcDbLine
10
-17.2427616926505
20
15.5592664643665
30
0.000000000000000
11
-17.1427616926505
21
15.5150507254029
31
0.000000000000000
  0
LINE
  5
F10617
330
F10618
100
AcDbEntity
8
Geo
100
AcDbLine
10
-17.1427616926505
20
15.5150507254029
30
0.000000000000000
11
-17.0427616926505
21
15.4699833261799
31
0.000000000000000
  0
LINE
  5
F10619
330
F1061A
100
AcDbEntity
8
Geo
100
AcDbLine
10
-17.0427616926505
20
15.4699833261799
30
0.000000000000000
11
-16.9427616926505
21
15.4240707424210
31
0.000000000000000
  0
LINE
  5
F1061B
330
F1061C
100
AcDbEntity
8
Geo
100
AcDbLine
10
-16.9427616926505
20
15.4240707424210
30
0.000000000000000
11
-16.8427616926505
21
15.3773195712935
31
0.000000000000000
  0
LINE
  5
F1061D
330
F1061E
100
AcDbEntity
8
Geo
100
AcDbLine
10
-16.8427616926505
20
15.3773195712935
30
0.000000000000000
11
-16.7427616926505
21
15.3297365304614
31
0.000000000000000
  0
LINE
  5
F1061F
330
F10620
100
AcDbEntity
8
Geo
100
AcDbLine
10
-16.7427616926505
20
15.3297365304614
30
0.000000000000000
11
-16.6427616926505
21
15.2813284571199
31
0.000000000000000
  0
LINE
  5
F10621
330
F10622
100
AcDbEntity
8
Geo
100
AcDbLine
10
-16.6427616926505
20
15.2813284571199
30
0.000000000000000
11
-16.5427616926505
21
15.2321023070128
31
0.000000000000000
  0
LINE
  5
F10623
330
F10624
100
AcDbEntity
8
Geo
100
AcDbLine
10
-16.5427616926505
20
15.2321023070128
30
0.000000000000000
11
-16.4427616926505
21
15.1820651534330
31
0.000000000000000
  0
LINE
  5
F10625
330
F10626
100
AcDbEntity
8
Geo
100
AcDbLine
10
-16.4427616926505
20
15.1820651534330
30
0.000000000000000
11
-16.3427616926505
21
15.1312241862066
31
0.000000000000000
  0
LINE
  5
F10627
330
F10628
100
AcDbEntity
8
Geo
100
AcDbLine
10
-16.3427616926505
20
15.1312241862066
30
0.000000000000000
11
-16.2427616926505
21
15.0795867106593
31
0.000000000000000
  0
LINE
  5
F10629
330
F1062A
100
AcDbEntity
8
Geo
100
AcDbLine
10
-16.2427616926505
20
15.0795867106593
30
0.000000000000000
11
-16.1427616926505
21
15.0271601465668
31
0.000000000000000
  0
LINE
  5
F1062B
330
F1062C
100
AcDbEntity
8
Geo
100
AcDbLine
10
-16.1427616926505
20
15.0271601465668
30
0.000000000000000
11
-16.0427616926505
21
14.9739520270888
31
0.000000000000000
  0
LINE
  5
F1062D
330
F1062E
100
AcDbEntity
8
Geo
100
AcDbLine
10
-16.0427616926505
20
14.9739520270888
30
0.000000000000000
11
-15.9427616926505
21
14.9199699976867
31
0.000000000000000
  0
LINE
  5
F1062F
330
F10630
100
AcDbEntity
8
Geo
100
AcDbLine
10
-15.9427616926505
20
14.9199699976867
30
0.000000000000000
11
-15.8427616926504
21
14.8652218150246
31
0.000000000000000
  0
LINE
  5
F10631
330
F10632
100
AcDbEntity
8
Geo
100
AcDbLine
10
-15.8427616926504
20
14.8652218150246
30
0.000000000000000
11
-15.7427616926504
21
14.8097153458548
31
0.000000000000000
  0
LINE
  5
F10633
330
F10634
100
AcDbEntity
8
Geo
100
AcDbLine
10
-15.7427616926504
20
14.8097153458548
30
0.000000000000000
11
-15.6427616926504
21
14.7534585658881
31
0.000000000000000
  0
LINE
  5
F10635
330
F10636
100
AcDbEntity
8
Geo
100
AcDbLine
10
-15.6427616926504
20
14.7534585658881
30
0.000000000000000
11
-15.5427616926504
21
14.6964595586468
31
0.000000000000000
  0
LINE
  5
F10637
330
F10638
100
AcDbEntity
8
Geo
100
AcDbLine
10
-15.5427616926504
20
14.6964595586468
30
0.000000000000000
11
-15.4427616926504
21
14.6387265143039
31
0.000000000000000
  0
LINE
  5
F10639
330
F1063A
100
AcDbEntity
8
Geo
100
AcDbLine
10
-15.4427616926504
20
14.6387265143039
30
0.000000000000000
11
-15.3427616926504
21
14.5802677285059
31
0.000000000000000
  0
LINE
  5
F1063B
330
F1063C
100
AcDbEntity
8
Geo
100
AcDbLine
10
-15.3427616926504
20
14.5802677285059
30
0.000000000000000
11
-15.2427616926504
21
14.5210916011810
31
0.000000000000000
  0
LINE
  5
F1063D
330
F1063E
100
AcDbEntity
8
Geo
100
AcDbLine
10
-15.2427616926504
20
14.5210916011810
30
0.000000000000000
11
-15.1427616926504
21
14.4612066353318
31
0.000000000000000
  0
LINE
  5
F1063F
330
F10640
100
AcDbEntity
8
Geo
100
AcDbLine
10
-15.1427616926504
20
14.4612066353318
30
0.000000000000000
11
-15.0427616926504
21
14.4006214358141
31
0.000000000000000
  0
LINE
  5
F10641
330
F10642
100
AcDbEntity
8
Geo
100
AcDbLine
10
-15.0427616926504
20
14.4006214358141
30
0.000000000000000
11
-14.9427616926504
21
14.3393447080998
31
0.000000000000000
  0
LINE
  5
F10643
330
F10644
100
AcDbEntity
8
Geo
100
AcDbLine
10
-14.9427616926504
20
14.3393447080998
30
0.000000000000000
11
-14.8427616926504
21
14.2773852570263
31
0.000000000000000
  0
LINE
  5
F10645
330
F10646
100
AcDbEntity
8
Geo
100
AcDbLine
10
-14.8427616926504
20
14.2773852570263
30
0.000000000000000
11
-14.7427616926504
21
14.2147519855316
31
0.000000000000000
  0
LINE
  5
F10647
330
F10648
100
AcDbEntity
8
Geo
100
AcDbLine
10
-14.7427616926504
20
14.2147519855316
30
0.000000000000000
11
-14.6427616926504
21
14.1514538933746
31
0.000000000000000
  0
LINE
  5
F10649
330
F1064A
100
AcDbEntity
8
Geo
100
AcDbLine
10
-14.6427616926504
20
14.1514538933746
30
0.000000000000000
11
-14.5427616926504
21
14.0875000758420
31
0.000000000000000
  0
LINE
  5
F1064B
330
F1064C
100
AcDbEntity
8
Geo
100
AcDbLine
10
-14.5427616926504
20
14.0875000758420
30
0.000000000000000
11
-14.4427616926504
21
14.0228997224419
31
0.000000000000000
  0
LINE
  5
F1064D
330
F1064E
100
AcDbEntity
8
Geo
100
AcDbLine
10
-14.4427616926504
20
14.0228997224419
30
0.000000000000000
11
-14.3427616926504
21
13.9576621155825
31
0.000000000000000
  0
LINE
  5
F1064F
330
F10650
100
AcDbEntity
8
Geo
100
AcDbLine
10
-14.3427616926504
20
13.9576621155825
30
0.000000000000000
11
-14.2427616926504
21
13.8917966292392
31
0.000000000000000
  0
LINE
  5
F10651
330
F10652
100
AcDbEntity
8
Geo
100
AcDbLine
10
-14.2427616926504
20
13.8917966292392
30
0.000000000000000
11
-14.1427616926504
21
13.8253127276070
31
0.000000000000000
  0
LINE
  5
F10653
330
F10654
100
AcDbEntity
8
Geo
100
AcDbLine
10
-14.1427616926504
20
13.8253127276070
30
0.000000000000000
11
-14.0427616926504
21
13.7582199637409
31
0.000000000000000
  0
LINE
  5
F10655
330
F10656
100
AcDbEntity
8
Geo
100
AcDbLine
10
-14.0427616926504
20
13.7582199637409
30
0.000000000000000
11
-13.9427616926504
21
13.6905279781831
31
0.000000000000000
  0
LINE
  5
F10657
330
F10658
100
AcDbEntity
8
Geo
100
AcDbLine
10
-13.9427616926504
20
13.6905279781831
30
0.000000000000000
11
-13.8427616926504
21
13.6222464975780
31
0.000000000000000
  0
LINE
  5
F10659
330
F1065A
100
AcDbEntity
8
Geo
100
AcDbLine
10
-13.8427616926504
20
13.6222464975780
30
0.000000000000000
11
-13.7427616926504
21
13.5533853332742
31
0.000000000000000
  0
LINE
  5
F1065B
330
F1065C
100
AcDbEntity
8
Geo
100
AcDbLine
10
-13.7427616926504
20
13.5533853332742
30
0.000000000000000
11
-13.6427616926504
21
13.4839543799150
31
0.000000000000000
  0
LINE
  5
F1065D
330
F1065E
100
AcDbEntity
8
Geo
100
AcDbLine
10
-13.6427616926504
20
13.4839543799150
30
0.000000000000000
11
-13.5427616926504
21
13.4139636140165
31
0.000000000000000
  0
LINE
  5
F1065F
330
F10660
100
AcDbEntity
8
Geo
100
AcDbLine
10
-13.5427616926504
20
13.4139636140165
30
0.000000000000000
11
-13.4427616926504
21
13.3434230925341
31
0.000000000000000
  0
LINE
  5
F10661
330
F10662
100
AcDbEntity
8
Geo
100
AcDbLine
10
-13.4427616926504
20
13.3434230925341
30
0.000000000000000
11
-13.3427616926504
21
13.2723429514175
31
0.000000000000000
  0
LINE
  5
F10663
330
F10664
100
AcDbEntity
8
Geo
100
AcDbLine
10
-13.3427616926504
20
13.2723429514175
30
0.000000000000000
11
-13.2427616926504
21
13.2007334041543
31
0.000000000000000
  0
LINE
  5
F10665
330
F10666
100
AcDbEntity
8
Geo
100
AcDbLine
10
-13.2427616926504
20
13.2007334041543
30
0.000000000000000
11
-13.1427616926504
21
13.1286047403021
31
0.000000000000000
  0
LINE
  5
F10667
330
F10668
100
AcDbEntity
8
Geo
100
AcDbLine
10
-13.1427616926504
20
13.1286047403021
30
0.000000000000000
11
-13.0427616926504
21
13.0559673240105
31
0.000000000000000
  0
LINE
  5
F10669
330
F1066A
100
AcDbEntity
8
Geo
100
AcDbLine
10
-13.0427616926504
20
13.0559673240105
30
0.000000000000000
11
-12.9427616926504
21
12.9828315925312
31
0.000000000000000
  0
LINE
  5
F1066B
330
F1066C
100
AcDbEntity
8
Geo
100
AcDbLine
10
-12.9427616926504
20
12.9828315925312
30
0.000000000000000
11
-12.8427616926504
21
12.9092080547193
31
0.000000000000000
  0
LINE
  5
F1066D
330
F1066E
100
AcDbEntity
8
Geo
100
AcDbLine
10
-12.8427616926504
20
12.9092080547193
30
0.000000000000000
11
-12.7427616926504
21
12.8351072895220
31
0.000000000000000
  0
LINE
  5
F1066F
330
F10670
100
AcDbEntity
8
Geo
100
AcDbLine
10
-12.7427616926504
20
12.8351072895220
30
0.000000000000000
11
-12.6427616926504
21
12.7605399444597
31
0.000000000000000
  0
LINE
  5
F10671
330
F10672
100
AcDbEntity
8
Geo
100
AcDbLine
10
-12.6427616926504
20
12.7605399444597
30
0.000000000000000
11
-12.5427616926504
21
12.6855167340953
31
0.000000000000000
  0
LINE
  5
F10673
330
F10674
100
AcDbEntity
8
Geo
100
AcDbLine
10
-12.5427616926504
20
12.6855167340953
30
0.000000000000000
11
-12.4427616926504
21
12.6100484384949
31
0.000000000000000
  0
LINE
  5
F10675
330
F10676
100
AcDbEntity
8
Geo
100
AcDbLine
10
-12.4427616926504
20
12.6100484384949
30
0.000000000000000
11
-12.3427616926504
21
12.5341459016788
31
0.000000000000000
  0
LINE
  5
F10677
330
F10678
100
AcDbEntity
8
Geo
100
AcDbLine
10
-12.3427616926504
20
12.5341459016788
30
0.000000000000000
11
-12.2427616926504
21
12.4578200300632
31
0.000000000000000
  0
LINE
  5
F10679
330
F1067A
100
AcDbEntity
8
Geo
100
AcDbLine
10
-12.2427616926504
20
12.4578200300632
30
0.000000000000000
11
-12.1427616926504
21
12.3810817908935
31
0.000000000000000
  0
LINE
  5
F1067B
330
F1067C
100
AcDbEntity
8
Geo
100
AcDbLine
10
-12.1427616926504
20
12.3810817908935
30
0.000000000000000
11
-12.0427616926504
21
12.3039422106677
31
0.000000000000000
  0
LINE
  5
F1067D
330
F1067E
100
AcDbEntity
8
Geo
100
AcDbLine
10
-12.0427616926504
20
12.3039422106677
30
0.000000000000000
11
-11.9427616926504
21
12.2264123735527
31
0.000000000000000
  0
LINE
  5
F1067F
330
F10680
100
AcDbEntity
8
Geo
100
AcDbLine
10
-11.9427616926504
20
12.2264123735527
30
0.000000000000000
11
-11.8427616926504
21
12.1485034197910
31
0.000000000000000
  0
LINE
  5
F10681
330
F10682
100
AcDbEntity
8
Geo
100
AcDbLine
10
-11.8427616926504
20
12.1485034197910
30
0.000000000000000
11
-11.7427616926504
21
12.0702265441006
31
0.000000000000000
  0
LINE
  5
F10683
330
F10684
100
AcDbEntity
8
Geo
100
AcDbLine
10
-11.7427616926504
20
12.0702265441006
30
0.000000000000000
11
-11.6427616926504
21
11.9915929940659
31
0.000000000000000
  0
LINE
  5
F10685
330
F10686
100
AcDbEntity
8
Geo
100
AcDbLine
10
-11.6427616926504
20
11.9915929940659
30
0.000000000000000
11
-11.5427616926504
21
11.9126140685218
31
0.000000000000000
  0
LINE
  5
F10687
330
F10688
100
AcDbEntity
8
Geo
100
AcDbLine
10
-11.5427616926504
20
11.9126140685218
30
0.000000000000000
11
-11.4427616926504
21
11.8333011159301
31
0.000000000000000
  0
LINE
  5
F10689
330
F1068A
100
AcDbEntity
8
Geo
100
AcDbLine
10
-11.4427616926504
20
11.8333011159301
30
0.000000000000000
11
-11.3427616926504
21
11.7536655327490
31
0.000000000000000
  0
LINE
  5
F1068B
330
F1068C
100
AcDbEntity
8
Geo
100
AcDbLine
10
-11.3427616926504
20
11.7536655327490
30
0.000000000000000
11
-11.2427616926504
21
11.6737187617952
31
0.000000000000000
  0
LINE
  5
F1068D
330
F1068E
100
AcDbEntity
8
Geo
100
AcDbLine
10
-11.2427616926504
20
11.6737187617952
30
0.000000000000000
11
-11.1427616926504
21
11.5934722906001
31
0.000000000000000
  0
LINE
  5
F1068F
330
F10690
100
AcDbEntity
8
Geo
100
AcDbLine
10
-11.1427616926504
20
11.5934722906001
30
0.000000000000000
11
-11.0427616926504
21
11.5129376497587
31
0.000000000000000
  0
LINE
  5
F10691
330
F10692
100
AcDbEntity
8
Geo
100
AcDbLine
10
-11.0427616926504
20
11.5129376497587
30
0.000000000000000
11
-10.9427616926504
21
11.4321264112732
31
0.000000000000000
  0
LINE
  5
F10693
330
F10694
100
AcDbEntity
8
Geo
100
AcDbLine
10
-10.9427616926504
20
11.4321264112732
30
0.000000000000000
11
-10.8427616926504
21
11.3510501868900
31
0.000000000000000
  0
LINE
  5
F10695
330
F10696
100
AcDbEntity
8
Geo
100
AcDbLine
10
-10.8427616926504
20
11.3510501868900
30
0.000000000000000
11
-10.7427616926504
21
11.2697206264314
31
0.000000000000000
  0
LINE
  5
F10697
330
F10698
100
AcDbEntity
8
Geo
100
AcDbLine
10
-10.7427616926504
20
11.2697206264314
30
0.000000000000000
11
-10.6427616926504
21
11.1881494161212
31
0.000000000000000
  0
LINE
  5
F10699
330
F1069A
100
AcDbEntity
8
Geo
100
AcDbLine
10
-10.6427616926504
20
11.1881494161212
30
0.000000000000000
11
-10.5427616926504
21
11.1063482769060
31
0.000000000000000
  0
LINE
  5
F1069B
330
F1069C
100
AcDbEntity
8
Geo
100
AcDbLine
10
-10.5427616926504
20
11.1063482769060
30
0.000000000000000
11
-10.4427616926504
21
11.0243289627709
31
0.000000000000000
  0
LINE
  5
F1069D
330
F1069E
100
AcDbEntity
8
Geo
100
AcDbLine
10
-10.4427616926504
20
11.0243289627709
30
0.000000000000000
11
-10.3427616926504
21
10.9421032590503
31
0.000000000000000
  0
LINE
  5
F1069F
330
F106A0
100
AcDbEntity
8
Geo
100
AcDbLine
10
-10.3427616926504
20
10.9421032590503
30
0.000000000000000
11
-10.2427616926504
21
10.8596829807347
31
0.000000000000000
  0
LINE
  5
F106A1
330
F106A2
100
AcDbEntity
8
Geo
100
AcDbLine
10
-10.2427616926504
20
10.8596829807347
30
0.000000000000000
11
-10.1427616926504
21
10.7770799707732
31
0.000000000000000
  0
LINE
  5
F106A3
330
F106A4
100
AcDbEntity
8
Geo
100
AcDbLine
10
-10.1427616926504
20
10.7770799707732
30
0.000000000000000
11
-10.0427616926504
21
10.6943060983713
31
0.000000000000000
  0
LINE
  5
F106A5
330
F106A6
100
AcDbEntity
8
Geo
100
AcDbLine
10
-10.0427616926504
20
10.6943060983713
30
0.000000000000000
11
-9.94276169265036
21
10.6113732572858
31
0.000000000000000
  0
LINE
  5
F106A7
330
F106A8
100
AcDbEntity
8
Geo
100
AcDbLine
10
-9.94276169265036
20
10.6113732572858
30
0.000000000000000
11
-9.84276169265036
21
10.5282933641157
31
0.000000000000000
  0
LINE
  5
F106A9
330
F106AA
100
AcDbEntity
8
Geo
100
AcDbLine
10
-9.84276169265036
20
10.5282933641157
30
0.000000000000000
11
-9.74276169265036
21
10.4450783565897
31
0.000000000000000
  0
LINE
  5
F106AB
330
F106AC
100
AcDbEntity
8
Geo
100
AcDbLine
10
-9.74276169265036
20
10.4450783565897
30
0.000000000000000
11
-9.64276169265036
21
10.3617401918513
31
0.000000000000000
  0
LINE
  5
F106AD
330
F106AE
100
AcDbEntity
8
Geo
100
AcDbLine
10
-9.64276169265036
20
10.3617401918513
30
0.000000000000000
11
-9.54276169265036
21
10.2782908447402
31
0.000000000000000
  0
LINE
  5
F106AF
330
F106B0
100
AcDbEntity
8
Geo
100
AcDbLine
10
-9.54276169265036
20
10.2782908447402
30
0.000000000000000
11
-9.44276169265036
21
10.1947423060721
31
0.000000000000000
  0
LINE
  5
F106B1
330
F106B2
100
AcDbEntity
8
Geo
100
AcDbLine
10
-9.44276169265036
20
10.1947423060721
30
0.000000000000000
11
-9.34276169265036
21
10.1111065809153
31
0.000000000000000
  0
LINE
  5
F106B3
330
F106B4
100
AcDbEntity
8
Geo
100
AcDbLine
10
-9.34276169265036
20
10.1111065809153
30
0.000000000000000
11
-9.24276169265035
21
10.0273956868659
31
0.000000000000000
  0
LINE
  5
F106B5
330
F106B6
100
AcDbEntity
8
Geo
100
AcDbLine
10
-9.24276169265035
20
10.0273956868659
30
0.000000000000000
11
-9.14276169265035
21
9.94362165232127
31
0.000000000000000
  0
LINE
  5
F106B7
330
F106B8
100
AcDbEntity
8
Geo
100
AcDbLine
10
-9.14276169265035
20
9.94362165232127
30
0.000000000000000
11
-9.04276169265035
21
9.85979651475112
31
0.000000000000000
  0
LINE
  5
F106B9
330
F106BA
100
AcDbEntity
8
Geo
100
AcDbLine
10
-9.04276169265035
20
9.85979651475112
30
0.000000000000000
11
-8.94276169265035
21
9.77593231896827
31
0.000000000000000
  0
LINE
  5
F106BB
330
F106BC
100
AcDbEntity
8
Geo
100
AcDbLine
10
-8.94276169265035
20
9.77593231896827
30
0.000000000000000
11
-8.84276169265035
21
9.69204111539780
31
0.000000000000000
  0
LINE
  5
F106BD
330
F106BE
100
AcDbEntity
8
Geo
100
AcDbLine
10
-8.84276169265035
20
9.69204111539780
30
0.000000000000000
11
-8.74276169265035
21
9.60813495834553
31
0.000000000000000
  0
LINE
  5
F106BF
330
F106C0
100
AcDbEntity
8
Geo
100
AcDbLine
10
-8.74276169265035
20
9.60813495834553
30
0.000000000000000
11
-8.64276169265035
21
9.52422590426592
31
0.000000000000000
  0
LINE
  5
F106C1
330
F106C2
100
AcDbEntity
8
Geo
100
AcDbLine
10
-8.64276169265035
20
9.52422590426592
30
0.000000000000000
11
-8.54276169265034
21
9.44032601002974
31
0.000000000000000
  0
LINE
  5
F106C3
330
F106C4
100
AcDbEntity
8
Geo
100
AcDbLine
10
-8.54276169265034
20
9.44032601002974
30
0.000000000000000
11
-8.44276169265034
21
9.35644733119155
31
0.000000000000000
  0
LINE
  5
F106C5
330
F106C6
100
AcDbEntity
8
Geo
100
AcDbLine
10
-8.44276169265034
20
9.35644733119155
30
0.000000000000000
11
-8.34276169265034
21
9.27260192025749
31
0.000000000000000
  0
LINE
  5
F106C7
330
F106C8
100
AcDbEntity
8
Geo
100
AcDbLine
10
-8.34276169265034
20
9.27260192025749
30
0.000000000000000
11
-8.24276169265034
21
9.18880182495343
31
0.000000000000000
  0
LINE
  5
F106C9
330
F106CA
100
AcDbEntity
8
Geo
100
AcDbLine
10
-8.24276169265034
20
9.18880182495343
30
0.000000000000000
11
-8.14276169265034
21
9.10505908649388
31
0.000000000000000
  0
LINE
  5
F106CB
330
F106CC
100
AcDbEntity
8
Geo
100
AcDbLine
10
-8.14276169265034
20
9.10505908649388
30
0.000000000000000
11
-8.04276169265034
21
9.02138573785173
31
0.000000000000000
  0
LINE
  5
F106CD
330
F106CE
100
AcDbEntity
8
Geo
100
AcDbLine
10
-8.04276169265034
20
9.02138573785173
30
0.000000000000000
11
-7.94276169265034
21
8.93779380202927
31
0.000000000000000
  0
LINE
  5
F106CF
330
F106D0
100
AcDbEntity
8
Geo
100
AcDbLine
10
-7.94276169265034
20
8.93779380202927
30
0.000000000000000
11
-7.84276169265033
21
8.85429529033061
31
0.000000000000000
  0
LINE
  5
F106D1
330
F106D2
100
AcDbEntity
8
Geo
100
AcDbLine
10
-7.84276169265033
20
8.85429529033061
30
0.000000000000000
11
-7.74276169265033
21
8.77090220063578
31
0.000000000000000
  0
LINE
  5
F106D3
330
F106D4
100
AcDbEntity
8
Geo
100
AcDbLine
10
-7.74276169265033
20
8.77090220063578
30
0.000000000000000
11
-7.64276169265033
21
8.68762651567671
31
0.000000000000000
  0
LINE
  5
F106D5
330
F106D6
100
AcDbEntity
8
Geo
100
AcDbLine
10
-7.64276169265033
20
8.68762651567671
30
0.000000000000000
11
-7.54276169265033
21
8.60448020131553
31
0.000000000000000
  0
LINE
  5
F106D7
330
F106D8
100
AcDbEntity
8
Geo
100
AcDbLine
10
-7.54276169265033
20
8.60448020131553
30
0.000000000000000
11
-7.44276169265033
21
8.52147520482509
31
0.000000000000000
  0
LINE
  5
F106D9
330
F106DA
100
AcDbEntity
8
Geo
100
AcDbLine
10
-7.44276169265033
20
8.52147520482509
30
0.000000000000000
11
-7.34276169265033
21
8.43862345317234
31
0.000000000000000
  0
LINE
  5
F106DB
330
F106DC
100
AcDbEntity
8
Geo
100
AcDbLine
10
-7.34276169265033
20
8.43862345317234
30
0.000000000000000
11
-7.24276169265033
21
8.35593685130451
31
0.000000000000000
  0
LINE
  5
F106DD
330
F106DE
100
AcDbEntity
8
Geo
100
AcDbLine
10
-7.24276169265033
20
8.35593685130451
30
0.000000000000000
11
-7.14276169265032
21
8.27342728043850
31
0.000000000000000
  0
LINE
  5
F106DF
330
F106E0
100
AcDbEntity
8
Geo
100
AcDbLine
10
-7.14276169265032
20
8.27342728043850
30
0.000000000000000
11
-7.04276169265032
21
8.19110659635367
31
0.000000000000000
  0
LINE
  5
F106E1
330
F106E2
100
AcDbEntity
8
Geo
100
AcDbLine
10
-7.04276169265032
20
8.19110659635367
30
0.000000000000000
11
-6.94276169265032
21
8.10898662768829
31
0.000000000000000
  0
LINE
  5
F106E3
330
F106E4
100
AcDbEntity
8
Geo
100
AcDbLine
10
-6.94276169265032
20
8.10898662768829
30
0.000000000000000
11
-6.84276169265032
21
8.02707917423987
31
0.000000000000000
  0
LINE
  5
F106E5
330
F106E6
100
AcDbEntity
8
Geo
100
AcDbLine
10
-6.84276169265032
20
8.02707917423987
30
0.000000000000000
11
-6.74276169265042
21
7.94539600526975
31
0.000000000000000
  0
LINE
  5
F106E7
330
F106E8
100
AcDbEntity
8
Geo
100
AcDbLine
10
-6.74276169265042
20
7.94539600526975
30
0.000000000000000
11
-6.74276169265042
21
7.94539600526975
31
0.000000000000000
  0
LINE
  5
F106E9
330
F106EA
100
AcDbEntity
8
Geo
100
AcDbLine
10
-6.74276169265042
20
7.94539600526975
30
0.000000000000000
11
-6.64276169265042
21
8.01630411989997
31
0.000000000000000
  0
LINE
  5
F106EB
330
F106EC
100
AcDbEntity
8
Geo
100
AcDbLine
10
-6.64276169265042
20
8.01630411989997
30
0.000000000000000
11
-6.54276169265042
21
8.02887752981619
31
0.000000000000000
  0
LINE
  5
F106ED
330
F106EE
100
AcDbEntity
8
Geo
100
AcDbLine
10
-6.54276169265042
20
8.02887752981619
30
0.000000000000000
11
-6.44276169265041
21
8.04178010544061
31
0.000000000000000
  0
LINE
  5
F106EF
330
F106F0
100
AcDbEntity
8
Geo
100
AcDbLine
10
-6.44276169265041
20
8.04178010544061
30
0.000000000000000
11
-6.34276169265041
21
8.05501224732761
31
0.000000000000000
  0
LINE
  5
F106F1
330
F106F2
100
AcDbEntity
8
Geo
100
AcDbLine
10
-6.34276169265041
20
8.05501224732761
30
0.000000000000000
11
-6.24276169265041
21
8.06857435957030
31
0.000000000000000
  0
LINE
  5
F106F3
330
F106F4
100
AcDbEntity
8
Geo
100
AcDbLine
10
-6.24276169265041
20
8.06857435957030
30
0.000000000000000
11
-6.14276169265041
21
8.08246684931355
31
0.000000000000000
  0
LINE
  5
F106F5
330
F106F6
100
AcDbEntity
8
Geo
100
AcDbLine
10
-6.14276169265041
20
8.08246684931355
30
0.000000000000000
11
-6.04276169265041
21
8.09669012625464
31
0.000000000000000
  0
LINE
  5
F106F7
330
F106F8
100
AcDbEntity
8
Geo
100
AcDbLine
10
-6.04276169265041
20
8.09669012625464
30
0.000000000000000
11
-5.94276169265041
21
8.11124460213156
31
0.000000000000000
  0
LINE
  5
F106F9
330
F106FA
100
AcDbEntity
8
Geo
100
AcDbLine
10
-5.94276169265041
20
8.11124460213156
30
0.000000000000000
11
-5.84276169265041
21
8.12613069019880
31
0.000000000000000
  0
LINE
  5
F106FB
330
F106FC
100
AcDbEntity
8
Geo
100
AcDbLine
10
-5.84276169265041
20
8.12613069019880
30
0.000000000000000
11
-5.74276169265040
21
8.14134880469078
31
0.000000000000000
  0
LINE
  5
F106FD
330
F106FE
100
AcDbEntity
8
Geo
100
AcDbLine
10
-5.74276169265040
20
8.14134880469078
30
0.000000000000000
11
-5.64276169265040
21
8.15689936027279
31
0.000000000000000
  0
LINE
  5
F106FF
330
F10700
100
AcDbEntity
8
Geo
100
AcDbLine
10
-5.64276169265040
20
8.15689936027279
30
0.000000000000000
11
-5.54276169265040
21
8.17278277147939
31
0.000000000000000
  0
LINE
  5
F10701
330
F10702
100
AcDbEntity
8
Geo
100
AcDbLine
10
-5.54276169265040
20
8.17278277147939
30
0.000000000000000
11
-5.44276169265040
21
8.18899945214037
31
0.000000000000000
  0
LINE
  5
F10703
330
F10704
100
AcDbEntity
8
Geo
100
AcDbLine
10
-5.44276169265040
20
8.18899945214037
30
0.000000000000000
11
-5.34276169265040
21
8.20554981479411
31
0.000000000000000
  0
LINE
  5
F10705
330
F10706
100
AcDbEntity
8
Geo
100
AcDbLine
10
-5.34276169265040
20
8.20554981479411
30
0.000000000000000
11
-5.24276169265040
21
8.22243427008845
31
0.000000000000000
  0
LINE
  5
F10707
330
F10708
100
AcDbEntity
8
Geo
100
AcDbLine
10
-5.24276169265040
20
8.22243427008845
30
0.000000000000000
11
-5.14276169265040
21
8.23965322616894
31
0.000000000000000
  0
LINE
  5
F10709
330
F1070A
100
AcDbEntity
8
Geo
100
AcDbLine
10
-5.14276169265040
20
8.23965322616894
30
0.000000000000000
11
-5.04276169265039
21
8.25720708805452
31
0.000000000000000
  0
LINE
  5
F1070B
330
F1070C
100
AcDbEntity
8
Geo
100
AcDbLine
10
-5.04276169265039
20
8.25720708805452
30
0.000000000000000
11
-4.94276169265039
21
8.27509625700065
31
0.000000000000000
  0
LINE
  5
F1070D
330
F1070E
100
AcDbEntity
8
Geo
100
AcDbLine
10
-4.94276169265039
20
8.27509625700065
30
0.000000000000000
11
-4.84276169265039
21
8.29332112984969
31
0.000000000000000
  0
LINE
  5
F1070F
330
F10710
100
AcDbEntity
8
Geo
100
AcDbLine
10
-4.84276169265039
20
8.29332112984969
30
0.000000000000000
11
-4.74276169265039
21
8.31188209836881
31
0.000000000000000
  0
LINE
  5
F10711
330
F10712
100
AcDbEntity
8
Geo
100
AcDbLine
10
-4.74276169265039
20
8.31188209836881
30
0.000000000000000
11
-4.64276169265039
21
8.33077954857512
31
0.000000000000000
  0
LINE
  5
F10713
330
F10714
100
AcDbEntity
8
Geo
100
AcDbLine
10
-4.64276169265039
20
8.33077954857512
30
0.000000000000000
11
-4.54276169265039
21
8.35001386004826
31
0.000000000000000
  0
LINE
  5
F10715
330
F10716
100
AcDbEntity
8
Geo
100
AcDbLine
10
-4.54276169265039
20
8.35001386004826
30
0.000000000000000
11
-4.44276169265039
21
8.36958540523027
31
0.000000000000000
  0
LINE
  5
F10717
330
F10718
100
AcDbEntity
8
Geo
100
AcDbLine
10
-4.44276169265039
20
8.36958540523027
30
0.000000000000000
11
-4.34276169265038
21
8.38949454871277
31
0.000000000000000
  0
LINE
  5
F10719
330
F1071A
100
AcDbEntity
8
Geo
100
AcDbLine
10
-4.34276169265038
20
8.38949454871277
30
0.000000000000000
11
-4.24276169265038
21
8.40974164651157
31
0.000000000000000
  0
LINE
  5
F1071B
330
F1071C
100
AcDbEntity
8
Geo
100
AcDbLine
10
-4.24276169265038
20
8.40974164651157
30
0.000000000000000
11
-4.14276169265038
21
8.43032704532848
31
0.000000000000000
  0
LINE
  5
F1071D
330
F1071E
100
AcDbEntity
8
Geo
100
AcDbLine
10
-4.14276169265038
20
8.43032704532848
30
0.000000000000000
11
-4.04276169265038
21
8.45125108180060
31
0.000000000000000
  0
LINE
  5
F1071F
330
F10720
100
AcDbEntity
8
Geo
100
AcDbLine
10
-4.04276169265038
20
8.45125108180060
30
0.000000000000000
11
-3.94276169265038
21
8.47251408173677
31
0.000000000000000
  0
LINE
  5
F10721
330
F10722
100
AcDbEntity
8
Geo
100
AcDbLine
10
-3.94276169265038
20
8.47251408173677
30
0.000000000000000
11
-3.84276169265038
21
8.49411635934153
31
0.000000000000000
  0
LINE
  5
F10723
330
F10724
100
AcDbEntity
8
Geo
100
AcDbLine
10
-3.84276169265038
20
8.49411635934153
30
0.000000000000000
11
-3.74276169265038
21
8.51605821642631
31
0.000000000000000
  0
LINE
  5
F10725
330
F10726
100
AcDbEntity
8
Geo
100
AcDbLine
10
-3.74276169265038
20
8.51605821642631
30
0.000000000000000
11
-3.64276169265037
21
8.53833994160798
31
0.000000000000000
  0
LINE
  5
F10727
330
F10728
100
AcDbEntity
8
Geo
100
AcDbLine
10
-3.64276169265037
20
8.53833994160798
30
0.000000000000000
11
-3.54276169265037
21
8.56096180949488
31
0.000000000000000
  0
LINE
  5
F10729
330
F1072A
100
AcDbEntity
8
Geo
100
AcDbLine
10
-3.54276169265037
20
8.56096180949488
30
0.000000000000000
11
-3.44276169265037
21
8.58392407986010
31
0.000000000000000
  0
LINE
  5
F1072B
330
F1072C
100
AcDbEntity
8
Geo
100
AcDbLine
10
-3.44276169265037
20
8.58392407986010
30
0.000000000000000
11
-3.34276169265037
21
8.60722699680224
31
0.000000000000000
  0
LINE
  5
F1072D
330
F1072E
100
AcDbEntity
8
Geo
100
AcDbLine
10
-3.34276169265037
20
8.60722699680224
30
0.000000000000000
11
-3.24276169265037
21
8.63087078789358
31
0.000000000000000
  0
LINE
  5
F1072F
330
F10730
100
AcDbEntity
8
Geo
100
AcDbLine
10
-3.24276169265037
20
8.63087078789358
30
0.000000000000000
11
-3.14276169265037
21
8.65485566331572
31
0.000000000000000
  0
LINE
  5
F10731
330
F10732
100
AcDbEntity
8
Geo
100
AcDbLine
10
-3.14276169265037
20
8.65485566331572
30
0.000000000000000
11
-3.04276169265037
21
8.67918181498267
31
0.000000000000000
  0
LINE
  5
F10733
330
F10734
100
AcDbEntity
8
Geo
100
AcDbLine
10
-3.04276169265037
20
8.67918181498267
30
0.000000000000000
11
-2.94276169265036
21
8.70384941565152
31
0.000000000000000
  0
LINE
  5
F10735
330
F10736
100
AcDbEntity
8
Geo
100
AcDbLine
10
-2.94276169265036
20
8.70384941565152
30
0.000000000000000
11
-2.84276169265036
21
8.72885861802056
31
0.000000000000000
  0
LINE
  5
F10737
330
F10738
100
AcDbEntity
8
Geo
100
AcDbLine
10
-2.84276169265036
20
8.72885861802056
30
0.000000000000000
11
-2.74276169265036
21
8.75420955381509
31
0.000000000000000
  0
LINE
  5
F10739
330
F1073A
100
AcDbEntity
8
Geo
100
AcDbLine
10
-2.74276169265036
20
8.75420955381509
30
0.000000000000000
11
-2.64276169265036
21
8.77990233286086
31
0.000000000000000
  0
LINE
  5
F1073B
330
F1073C
100
AcDbEntity
8
Geo
100
AcDbLine
10
-2.64276169265036
20
8.77990233286086
30
0.000000000000000
11
-2.54276169265036
21
8.80593704214509
31
0.000000000000000
  0
LINE
  5
F1073D
330
F1073E
100
AcDbEntity
8
Geo
100
AcDbLine
10
-2.54276169265036
20
8.80593704214509
30
0.000000000000000
11
-2.44276169265036
21
8.83231374486541
31
0.000000000000000
  0
LINE
  5
F1073F
330
F10740
100
AcDbEntity
8
Geo
100
AcDbLine
10
-2.44276169265036
20
8.83231374486541
30
0.000000000000000
11
-2.34276169265036
21
8.85903247946641
31
0.000000000000000
  0
LINE
  5
F10741
330
F10742
100
AcDbEntity
8
Geo
100
AcDbLine
10
-2.34276169265036
20
8.85903247946641
30
0.000000000000000
11
-2.24276169265035
21
8.88609325866419
31
0.000000000000000
  0
LINE
  5
F10743
330
F10744
100
AcDbEntity
8
Geo
100
AcDbLine
10
-2.24276169265035
20
8.88609325866419
30
0.000000000000000
11
-2.14276169265035
21
8.91349606845877
31
0.000000000000000
  0
LINE
  5
F10745
330
F10746
100
AcDbEntity
8
Geo
100
AcDbLine
10
-2.14276169265035
20
8.91349606845877
30
0.000000000000000
11
-2.04276169265035
21
8.94124086713450
31
0.000000000000000
  0
LINE
  5
F10747
330
F10748
100
AcDbEntity
8
Geo
100
AcDbLine
10
-2.04276169265035
20
8.94124086713450
30
0.000000000000000
11
-1.94276169265035
21
8.96932758424856
31
0.000000000000000
  0
LINE
  5
F10749
330
F1074A
100
AcDbEntity
8
Geo
100
AcDbLine
10
-1.94276169265035
20
8.96932758424856
30
0.000000000000000
11
-1.84276169265035
21
8.99775611960761
31
0.000000000000000
  0
LINE
  5
F1074B
330
F1074C
100
AcDbEntity
8
Geo
100
AcDbLine
10
-1.84276169265035
20
8.99775611960761
30
0.000000000000000
11
-1.74276169265042
21
9.02652634223267
31
0.000000000000000
  0
LINE
  5
F1074D
330
F1074E
100
AcDbEntity
8
Geo
100
AcDbLine
10
-32.7427616926504
20
13.5607643008358
30
0.000000000000000
11
-32.6427616926504
21
13.5532977784099
31
0.000000000000000
  0
LINE
  5
F1074F
330
F10750
100
AcDbEntity
8
Geo
100
AcDbLine
10
-32.7427616926504
20
2.93077879757379
30
0.000000000000000
11
-32.6427616926504
21
2.82431664401980
31
0.000000000000000
  0
LINE
  5
F10751
330
F10752
100
AcDbEntity
8
Geo
100
AcDbLine
10
-32.6427616926504
20
13.5532977784099
30
0.000000000000000
11
-32.5427616926504
21
13.5433433691291
31
0.000000000000000
  0
LINE
  5
F10753
330
F10754
100
AcDbEntity
8
Geo
100
AcDbLine
10
-32.6427616926504
20
2.82431664401980
30
0.000000000000000
11
-32.5427616926504
21
2.71859226290221
31
0.000000000000000
  0
LINE
  5
F10755
330
F10756
100
AcDbEntity
8
Geo
100
AcDbLine
10
-32.5427616926504
20
13.5433433691291
30
0.000000000000000
11
-32.4427616926504
21
13.4753521426409
31
0.000000000000000
  0
LINE
  5
F10757
330
F10758
100
AcDbEntity
8
Geo
100
AcDbLine
10
-32.5427616926504
20
2.71859226290221
30
0.000000000000000
11
-32.4427616926504
21
2.71187895053322
31
0.000000000000000
  0
LINE
  5
F10759
330
F1075A
100
AcDbEntity
8
Geo
100
AcDbLine
10
-32.4427616926504
20
13.4753521426409
30
0.000000000000000
11
-32.3427616926504
21
13.4068023396668
31
0.000000000000000
  0
LINE
  5
F1075B
330
F1075C
100
AcDbEntity
8
Geo
100
AcDbLine
10
-32.4427616926504
20
2.71187895053322
30
0.000000000000000
11
-32.3427616926504
21
2.70615366241766
31
0.000000000000000
  0
LINE
  5
F1075D
330
F1075E
100
AcDbEntity
8
Geo
100
AcDbLine
10
-32.3427616926504
20
13.4068023396668
30
0.000000000000000
11
-32.2427616926504
21
13.3377038101104
31
0.000000000000000
  0
LINE
  5
F1075F
330
F10760
100
AcDbEntity
8
Geo
100
AcDbLine
10
-32.3427616926504
20
2.70615366241766
30
0.000000000000000
11
-32.2427616926504
21
2.70141722122073
31
0.000000000000000
  0
LINE
  5
F10761
330
F10762
100
AcDbEntity
8
Geo
100
AcDbLine
10
-32.2427616926504
20
13.3377038101104
30
0.000000000000000
11
-32.1427616926504
21
13.2680664827222
31
0.000000000000000
  0
LINE
  5
F10763
330
F10764
100
AcDbEntity
8
Geo
100
AcDbLine
10
-32.2427616926504
20
2.70141722122073
30
0.000000000000000
11
-32.1427616926504
21
2.69767030752048
31
0.000000000000000
  0
LINE
  5
F10765
330
F10766
100
AcDbEntity
8
Geo
100
AcDbLine
10
-32.1427616926504
20
13.2680664827222
30
0.000000000000000
11
-32.0427616926504
21
13.1979003636720
31
0.000000000000000
  0
LINE
  5
F10767
330
F10768
100
AcDbEntity
8
Geo
100
AcDbLine
10
-32.1427616926504
20
2.69767030752048
30
0.000000000000000
11
-32.0427616926504
21
2.69491345970998
31
0.000000000000000
  0
LINE
  5
F10769
330
F1076A
100
AcDbEntity
8
Geo
100
AcDbLine
10
-32.0427616926504
20
13.1979003636720
30
0.000000000000000
11
-31.9427616926504
21
13.1272155351116
31
0.000000000000000
  0
LINE
  5
F1076B
330
F1076C
100
AcDbEntity
8
Geo
100
AcDbLine
10
-32.0427616926504
20
2.69491345970998
30
0.000000000000000
11
-31.9427616926504
21
2.69314707392001
31
0.000000000000000
  0
LINE
  5
F1076D
330
F1076E
100
AcDbEntity
8
Geo
100
AcDbLine
10
-31.9427616926504
20
13.1272155351116
30
0.000000000000000
11
-31.8427616926504
21
13.0560221537264
31
0.000000000000000
  0
LINE
  5
F1076F
330
F10770
100
AcDbEntity
8
Geo
100
AcDbLine
10
-31.9427616926504
20
2.69314707392001
30
0.000000000000000
11
-31.8427616926504
21
2.69237140396207
31
0.000000000000000
  0
LINE
  5
F10771
330
F10772
100
AcDbEntity
8
Geo
100
AcDbLine
10
-31.8427616926504
20
13.0560221537264
30
0.000000000000000
11
-31.7427616926504
21
12.9843304492751
31
0.000000000000000
  0
LINE
  5
F10773
330
F10774
100
AcDbEntity
8
Geo
100
AcDbLine
10
-31.7427616926504
20
12.9843304492751
30
0.000000000000000
11
-31.6427616926504
21
12.9121507231207
31
0.000000000000000
  0
LINE
  5
F10775
330
F10776
100
AcDbEntity
8
Geo
100
AcDbLine
10
-31.6427616926504
20
12.9121507231207
30
0.000000000000000
11
-31.5427616926504
21
12.8394933467498
31
0.000000000000000
  0
LINE
  5
F10777
330
F10778
100
AcDbEntity
8
Geo
100
AcDbLine
10
-31.5427616926504
20
12.8394933467498
30
0.000000000000000
11
-31.4427616926504
21
12.7663687602823
31
0.000000000000000
  0
LINE
  5
F10779
330
F1077A
100
AcDbEntity
8
Geo
100
AcDbLine
10
-31.4427616926504
20
12.7663687602823
30
0.000000000000000
11
-31.3427616926504
21
12.6927874709717
31
0.000000000000000
  0
LINE
  5
F1077B
330
F1077C
100
AcDbEntity
8
Geo
100
AcDbLine
10
-31.3427616926504
20
12.6927874709717
30
0.000000000000000
11
-31.2427616926504
21
12.6187600516947
31
0.000000000000000
  0
LINE
  5
F1077D
330
F1077E
100
AcDbEntity
8
Geo
100
AcDbLine
10
-31.2427616926504
20
12.6187600516947
30
0.000000000000000
11
-31.1427616926504
21
12.5442971394326
31
0.000000000000000
  0
LINE
  5
F1077F
330
F10780
100
AcDbEntity
8
Geo
100
AcDbLine
10
-31.1427616926504
20
12.5442971394326
30
0.000000000000000
11
-31.0427616926504
21
12.4694094337422
31
0.000000000000000
  0
LINE
  5
F10781
330
F10782
100
AcDbEntity
8
Geo
100
AcDbLine
10
-31.0427616926504
20
12.4694094337422
30
0.000000000000000
11
-30.9427616926504
21
12.3941076952192
31
0.000000000000000
  0
LINE
  5
F10783
330
F10784
100
AcDbEntity
8
Geo
100
AcDbLine
10
-30.9427616926504
20
12.3941076952192
30
0.000000000000000
11
-30.8427616926504
21
12.3184027439512
31
0.000000000000000
  0
LINE
  5
F10785
330
F10786
100
AcDbEntity
8
Geo
100
AcDbLine
10
-30.8427616926504
20
12.3184027439512
30
0.000000000000000
11
-30.7427616926504
21
12.2423054579635
31
0.000000000000000
  0
LINE
  5
F10787
330
F10788
100
AcDbEntity
8
Geo
100
AcDbLine
10
-30.7427616926504
20
12.2423054579635
30
0.000000000000000
11
-30.6427616926504
21
12.1658267716560
31
0.000000000000000
  0
LINE
  5
F10789
330
F1078A
100
AcDbEntity
8
Geo
100
AcDbLine
10
-30.6427616926504
20
12.1658267716560
30
0.000000000000000
11
-30.5427616926504
21
12.0889776742317
31
0.000000000000000
  0
LINE
  5
F1078B
330
F1078C
100
AcDbEntity
8
Geo
100
AcDbLine
10
-30.5427616926504
20
12.0889776742317
30
0.000000000000000
11
-30.4427616926504
21
12.0117692081179
31
0.000000000000000
  0
LINE
  5
F1078D
330
F1078E
100
AcDbEntity
8
Geo
100
AcDbLine
10
-30.4427616926504
20
12.0117692081179
30
0.000000000000000
11
-30.3427616926504
21
11.9342124673797
31
0.000000000000000
  0
LINE
  5
F1078F
330
F10790
100
AcDbEntity
8
Geo
100
AcDbLine
10
-30.3427616926504
20
11.9342124673797
30
0.000000000000000
11
-30.2427616926504
21
11.8563185961255
31
0.000000000000000
  0
LINE
  5
F10791
330
F10792
100
AcDbEntity
8
Geo
100
AcDbLine
10
-30.2427616926504
20
11.8563185961255
30
0.000000000000000
11
-30.1427616926504
21
11.7780987869058
31
0.000000000000000
  0
LINE
  5
F10793
330
F10794
100
AcDbEntity
8
Geo
100
AcDbLine
10
-30.1427616926504
20
11.7780987869058
30
0.000000000000000
11
-30.0427616926504
21
11.6995642791054
31
0.000000000000000
  0
LINE
  5
F10795
330
F10796
100
AcDbEntity
8
Geo
100
AcDbLine
10
-30.0427616926504
20
11.6995642791054
30
0.000000000000000
11
-29.9427616926504
21
11.6207263573278
31
0.000000000000000
  0
LINE
  5
F10797
330
F10798
100
AcDbEntity
8
Geo
100
AcDbLine
10
-29.9427616926504
20
11.6207263573278
30
0.000000000000000
11
-29.8427616926504
21
11.5415963497740
31
0.000000000000000
  0
LINE
  5
F10799
330
F1079A
100
AcDbEntity
8
Geo
100
AcDbLine
10
-29.8427616926504
20
11.5415963497740
30
0.000000000000000
11
-29.7427616926504
21
11.4621856266147
31
0.000000000000000
  0
LINE
  5
F1079B
330
F1079C
100
AcDbEntity
8
Geo
100
AcDbLine
10
-29.7427616926504
20
11.4621856266147
30
0.000000000000000
11
-29.6427616926504
21
11.3825055983568
31
0.000000000000000
  0
LINE
  5
F1079D
330
F1079E
100
AcDbEntity
8
Geo
100
AcDbLine
10
-29.6427616926504
20
11.3825055983568
30
0.000000000000000
11
-29.5427616926504
21
11.3025677142032
31
0.000000000000000
  0
LINE
  5
F1079F
330
F107A0
100
AcDbEntity
8
Geo
100
AcDbLine
10
-29.5427616926504
20
11.3025677142032
30
0.000000000000000
11
-29.4427616926504
21
11.2223834604083
31
0.000000000000000
  0
LINE
  5
F107A1
330
F107A2
100
AcDbEntity
8
Geo
100
AcDbLine
10
-29.4427616926504
20
11.2223834604083
30
0.000000000000000
11
-29.3427616926504
21
11.1419643586274
31
0.000000000000000
  0
LINE
  5
F107A3
330
F107A4
100
AcDbEntity
8
Geo
100
AcDbLine
10
-29.3427616926504
20
11.1419643586274
30
0.000000000000000
11
-29.2427616926504
21
11.0613219642606
31
0.000000000000000
  0
LINE
  5
F107A5
330
F107A6
100
AcDbEntity
8
Geo
100
AcDbLine
10
-29.2427616926504
20
11.0613219642606
30
0.000000000000000
11
-29.1427616926504
21
10.9804678647934
31
0.000000000000000
  0
LINE
  5
F107A7
330
F107A8
100
AcDbEntity
8
Geo
100
AcDbLine
10
-29.1427616926504
20
10.9804678647934
30
0.000000000000000
11
-29.0427616926504
21
10.8994136781308
31
0.000000000000000
  0
LINE
  5
F107A9
330
F107AA
100
AcDbEntity
8
Geo
100
AcDbLine
10
-29.0427616926504
20
10.8994136781308
30
0.000000000000000
11
-28.9427616926504
21
10.8181710509283
31
0.000000000000000
  0
LINE
  5
F107AB
330
F107AC
100
AcDbEntity
8
Geo
100
AcDbLine
10
-28.9427616926504
20
10.8181710509283
30
0.000000000000000
11
-28.8427616926504
21
10.7367516569185
31
0.000000000000000
  0
LINE
  5
F107AD
330
F107AE
100
AcDbEntity
8
Geo
100
AcDbLine
10
-28.8427616926504
20
10.7367516569185
30
0.000000000000000
11
-28.7427616926504
21
10.6551671952336
31
0.000000000000000
  0
LINE
  5
F107AF
330
F107B0
100
AcDbEntity
8
Geo
100
AcDbLine
10
-28.7427616926504
20
10.6551671952336
30
0.000000000000000
11
-28.6427616926504
21
10.5734293887242
31
0.000000000000000
  0
LINE
  5
F107B1
330
F107B2
100
AcDbEntity
8
Geo
100
AcDbLine
10
-28.6427616926504
20
10.5734293887242
30
0.000000000000000
11
-28.5427616926504
21
10.4915499822749
31
0.000000000000000
  0
LINE
  5
F107B3
330
F107B4
100
AcDbEntity
8
Geo
100
AcDbLine
10
-28.5427616926504
20
10.4915499822749
30
0.000000000000000
11
-28.4427616926504
21
10.4095407411171
31
0.000000000000000
  0
LINE
  5
F107B5
330
F107B6
100
AcDbEntity
8
Geo
100
AcDbLine
10
-28.4427616926504
20
10.4095407411171
30
0.000000000000000
11
-28.3427616926504
21
10.3274134491378
31
0.000000000000000
  0
LINE
  5
F107B7
330
F107B8
100
AcDbEntity
8
Geo
100
AcDbLine
10
-28.3427616926504
20
10.3274134491378
30
0.000000000000000
11
-28.2427616926504
21
10.2451799071869
31
0.000000000000000
  0
LINE
  5
F107B9
330
F107BA
100
AcDbEntity
8
Geo
100
AcDbLine
10
-28.2427616926504
20
10.2451799071869
30
0.000000000000000
11
-28.1427616926504
21
10.1628519313811
31
0.000000000000000
  0
LINE
  5
F107BB
330
F107BC
100
AcDbEntity
8
Geo
100
AcDbLine
10
-28.1427616926504
20
10.1628519313811
30
0.000000000000000
11
-28.0427616926504
21
10.0804413514065
31
0.000000000000000
  0
LINE
  5
F107BD
330
F107BE
100
AcDbEntity
8
Geo
100
AcDbLine
10
-28.0427616926504
20
10.0804413514065
30
0.000000000000000
11
-27.9427616926504
21
9.99796000881847
31
0.000000000000000
  0
LINE
  5
F107BF
330
F107C0
100
AcDbEntity
8
Geo
100
AcDbLine
10
-27.9427616926504
20
9.99796000881847
30
0.000000000000000
11
-27.8427616926504
21
9.91541975534023
31
0.000000000000000
  0
LINE
  5
F107C1
330
F107C2
100
AcDbEntity
8
Geo
100
AcDbLine
10
-27.8427616926504
20
9.91541975534023
30
0.000000000000000
11
-27.7427616926504
21
9.83283245115994
31
0.000000000000000
  0
LINE
  5
F107C3
330
F107C4
100
AcDbEntity
8
Geo
100
AcDbLine
10
-27.7427616926504
20
9.83283245115994
30
0.000000000000000
11
-27.6427616926504
21
9.75020996322643
31
0.000000000000000
  0
LINE
  5
F107C5
330
F107C6
100
AcDbEntity
8
Geo
100
AcDbLine
10
-27.6427616926504
20
9.75020996322643
30
0.000000000000000
11
-27.5427616926504
21
9.66756416354408
31
0.000000000000000
  0
LINE
  5
F107C7
330
F107C8
100
AcDbEntity
8
Geo
100
AcDbLine
10
-27.5427616926504
20
9.66756416354408
30
0.000000000000000
11
-27.4427616926504
21
9.58490692746695
31
0.000000000000000
  0
LINE
  5
F107C9
330
F107CA
100
AcDbEntity
8
Geo
100
AcDbLine
10
-27.4427616926504
20
9.58490692746695
30
0.000000000000000
11
-27.3427616926504
21
9.50225013199237
31
0.000000000000000
  0
LINE
  5
F107CB
330
F107CC
100
AcDbEntity
8
Geo
100
AcDbLine
10
-27.3427616926504
20
9.50225013199237
30
0.000000000000000
11
-27.2427616926504
21
9.41960565405437
31
0.000000000000000
  0
LINE
  5
F107CD
330
F107CE
100
AcDbEntity
8
Geo
100
AcDbLine
10
-27.2427616926504
20
9.41960565405437
30
0.000000000000000
11
-27.1427616926504
21
9.33698536881706
31
0.000000000000000
  0
LINE
  5
F107CF
330
F107D0
100
AcDbEntity
8
Geo
100
AcDbLine
10
-27.1427616926504
20
9.33698536881706
30
0.000000000000000
11
-27.0427616926504
21
9.25440114796834
31
0.000000000000000
  0
LINE
  5
F107D1
330
F107D2
100
AcDbEntity
8
Geo
100
AcDbLine
10
-27.0427616926504
20
9.25440114796834
30
0.000000000000000
11
-26.9427616926504
21
9.17186485801398
31
0.000000000000000
  0
LINE
  5
F107D3
330
F107D4
100
AcDbEntity
8
Geo
100
AcDbLine
10
-26.9427616926504
20
9.17186485801398
30
0.000000000000000
11
-26.8427616926504
21
9.08938835857263
31
0.000000000000000
  0
LINE
  5
F107D5
330
F107D6
100
AcDbEntity
8
Geo
100
AcDbLine
10
-26.8427616926504
20
9.08938835857263
30
0.000000000000000
11
-26.7427616926504
21
9.00698350067160
31
0.000000000000000
  0
LINE
  5
F107D7
330
F107D8
100
AcDbEntity
8
Geo
100
AcDbLine
10
-26.7427616926504
20
9.00698350067160
30
0.000000000000000
11
-26.6427616926504
21
8.92466212504408
31
0.000000000000000
  0
LINE
  5
F107D9
330
F107DA
100
AcDbEntity
8
Geo
100
AcDbLine
10
-26.6427616926504
20
8.92466212504408
30
0.000000000000000
11
-26.5427616926504
21
8.84243606042771
31
0.000000000000000
  0
LINE
  5
F107DB
330
F107DC
100
AcDbEntity
8
Geo
100
AcDbLine
10
-26.5427616926504
20
8.84243606042771
30
0.000000000000000
11
-26.4427616926504
21
8.76031712186490
31
0.000000000000000
  0
LINE
  5
F107DD
330
F107DE
100
AcDbEntity
8
Geo
100
AcDbLine
10
-26.4427616926504
20
8.76031712186490
30
0.000000000000000
11
-26.3427616926504
21
8.67831710900515
31
0.000000000000000
  0
LINE
  5
F107DF
330
F107E0
100
AcDbEntity
8
Geo
100
AcDbLine
10
-26.3427616926504
20
8.67831710900515
30
0.000000000000000
11
-26.2427616926504
21
8.59644780440957
31
0.000000000000000
  0
LINE
  5
F107E1
330
F107E2
100
AcDbEntity
8
Geo
100
AcDbLine
10
-26.2427616926504
20
8.59644780440957
30
0.000000000000000
11
-26.1427616926504
21
8.51472097185782
31
0.000000000000000
  0
LINE
  5
F107E3
330
F107E4
100
AcDbEntity
8
Geo
100
AcDbLine
10
-26.1427616926504
20
8.51472097185782
30
0.000000000000000
11
-26.0427616926504
21
8.43314835465778
31
0.000000000000000
  0
LINE
  5
F107E5
330
F107E6
100
AcDbEntity
8
Geo
100
AcDbLine
10
-26.0427616926504
20
8.43314835465778
30
0.000000000000000
11
-25.9427616926504
21
8.35174167395818
31
0.000000000000000
  0
LINE
  5
F107E7
330
F107E8
100
AcDbEntity
8
Geo
100
AcDbLine
10
-25.9427616926504
20
8.35174167395818
30
0.000000000000000
11
-25.8427616926504
21
8.27051262706438
31
0.000000000000000
  0
LINE
  5
F107E9
330
F107EA
100
AcDbEntity
8
Geo
100
AcDbLine
10
-25.8427616926504
20
8.27051262706438
30
0.000000000000000
11
-25.7427616926504
21
8.18947288575755
31
0.000000000000000
  0
LINE
  5
F107EB
330
F107EC
100
AcDbEntity
8
Geo
100
AcDbLine
10
-25.7427616926504
20
8.18947288575755
30
0.000000000000000
11
-25.6427616926504
21
8.10863409461764
31
0.000000000000000
  0
LINE
  5
F107ED
330
F107EE
100
AcDbEntity
8
Geo
100
AcDbLine
10
-25.6427616926504
20
8.10863409461764
30
0.000000000000000
11
-25.5427616926504
21
8.02800786935008
31
0.000000000000000
  0
LINE
  5
F107EF
330
F107F0
100
AcDbEntity
8
Geo
100
AcDbLine
10
-25.5427616926504
20
8.02800786935008
30
0.000000000000000
11
-25.4427616926504
21
7.94760579511678
31
0.000000000000000
  0
LINE
  5
F107F1
330
F107F2
100
AcDbEntity
8
Geo
100
AcDbLine
10
-25.4427616926504
20
7.94760579511678
30
0.000000000000000
11
-25.3427616926504
21
7.86743942487144
31
0.000000000000000
  0
LINE
  5
F107F3
330
F107F4
100
AcDbEntity
8
Geo
100
AcDbLine
10
-25.3427616926504
20
7.86743942487144
30
0.000000000000000
11
-25.2427616926504
21
7.78752027769952
31
0.000000000000000
  0
LINE
  5
F107F5
330
F107F6
100
AcDbEntity
8
Geo
100
AcDbLine
10
-25.2427616926504
20
7.78752027769952
30
0.000000000000000
11
-25.1427616926504
21
7.70785983716305
31
0.000000000000000
  0
LINE
  5
F107F7
330
F107F8
100
AcDbEntity
8
Geo
100
AcDbLine
10
-25.1427616926504
20
7.70785983716305
30
0.000000000000000
11
-25.0427616926504
21
7.62846954965057
31
0.000000000000000
  0
LINE
  5
F107F9
330
F107FA
100
AcDbEntity
8
Geo
100
AcDbLine
10
-25.0427616926504
20
7.62846954965057
30
0.000000000000000
11
-24.9427616926504
21
7.54936082273242
31
0.000000000000000
  0
LINE
  5
F107FB
330
F107FC
100
AcDbEntity
8
Geo
100
AcDbLine
10
-24.9427616926504
20
7.54936082273242
30
0.000000000000000
11
-24.8427616926504
21
7.47054502352153
31
0.000000000000000
  0
LINE
  5
F107FD
330
F107FE
100
AcDbEntity
8
Geo
100
AcDbLine
10
-24.8427616926504
20
7.47054502352153
30
0.000000000000000
11
-24.7427616926504
21
7.39203347704017
31
0.000000000000000
  0
LINE
  5
F107FF
330
F10800
100
AcDbEntity
8
Geo
100
AcDbLine
10
-24.7427616926504
20
7.39203347704017
30
0.000000000000000
11
-24.6427616926504
21
7.31383746459257
31
0.000000000000000
  0
LINE
  5
F10801
330
F10802
100
AcDbEntity
8
Geo
100
AcDbLine
10
-24.6427616926504
20
7.31383746459257
30
0.000000000000000
11
-24.5427616926504
21
7.23596822214398
31
0.000000000000000
  0
LINE
  5
F10803
330
F10804
100
AcDbEntity
8
Geo
100
AcDbLine
10
-24.5427616926504
20
7.23596822214398
30
0.000000000000000
11
-24.4427616926504
21
7.15843693870615
31
0.000000000000000
  0
LINE
  5
F10805
330
F10806
100
AcDbEntity
8
Geo
100
AcDbLine
10
-24.4427616926504
20
7.15843693870615
30
0.000000000000000
11
-24.3427616926504
21
7.08125475472956
31
0.000000000000000
  0
LINE
  5
F10807
330
F10808
100
AcDbEntity
8
Geo
100
AcDbLine
10
-24.3427616926504
20
7.08125475472956
30
0.000000000000000
11
-24.2427616926504
21
7.00443276050272
31
0.000000000000000
  0
LINE
  5
F10809
330
F1080A
100
AcDbEntity
8
Geo
100
AcDbLine
10
-24.2427616926504
20
7.00443276050272
30
0.000000000000000
11
-24.1427616926504
21
6.92798199455852
31
0.000000000000000
  0
LINE
  5
F1080B
330
F1080C
100
AcDbEntity
8
Geo
100
AcDbLine
10
-24.1427616926504
20
6.92798199455852
30
0.000000000000000
11
-24.0427616926504
21
6.85191344208818
31
0.000000000000000
  0
LINE
  5
F1080D
330
F1080E
100
AcDbEntity
8
Geo
100
AcDbLine
10
-24.0427616926504
20
6.85191344208818
30
0.000000000000000
11
-23.9427616926504
21
6.77623803336277
31
0.000000000000000
  0
LINE
  5
F1080F
330
F10810
100
AcDbEntity
8
Geo
100
AcDbLine
10
-23.9427616926504
20
6.77623803336277
30
0.000000000000000
11
-23.8427616926504
21
6.70096664216260
31
0.000000000000000
  0
LINE
  5
F10811
330
F10812
100
AcDbEntity
8
Geo
100
AcDbLine
10
-23.8427616926504
20
6.70096664216260
30
0.000000000000000
11
-23.7427616926504
21
6.62611008421484
31
0.000000000000000
  0
LINE
  5
F10813
330
F10814
100
AcDbEntity
8
Geo
100
AcDbLine
10
-23.7427616926504
20
6.62611008421484
30
0.000000000000000
11
-23.6427616926504
21
6.55167911563936
31
0.000000000000000
  0
LINE
  5
F10815
330
F10816
100
AcDbEntity
8
Geo
100
AcDbLine
10
-23.6427616926504
20
6.55167911563936
30
0.000000000000000
11
-23.5427616926504
21
6.47768443140319
31
0.000000000000000
  0
LINE
  5
F10817
330
F10818
100
AcDbEntity
8
Geo
100
AcDbLine
10
-23.5427616926504
20
6.47768443140319
30
0.000000000000000
11
-23.4427616926504
21
6.40413666378379
31
0.000000000000000
  0
LINE
  5
F10819
330
F1081A
100
AcDbEntity
8
Geo
100
AcDbLine
10
-23.4427616926504
20
6.40413666378379
30
0.000000000000000
11
-23.3427616926504
21
6.33104638084129
31
0.000000000000000
  0
LINE
  5
F1081B
330
F1081C
100
AcDbEntity
8
Geo
100
AcDbLine
10
-23.3427616926504
20
6.33104638084129
30
0.000000000000000
11
-23.2427616926504
21
6.25842408489993
31
0.000000000000000
  0
LINE
  5
F1081D
330
F1081E
100
AcDbEntity
8
Geo
100
AcDbLine
10
-23.2427616926504
20
6.25842408489993
30
0.000000000000000
11
-23.1427616926504
21
6.18628021103906
31
0.000000000000000
  0
LINE
  5
F1081F
330
F10820
100
AcDbEntity
8
Geo
100
AcDbLine
10
-23.1427616926504
20
6.18628021103906
30
0.000000000000000
11
-23.0427616926504
21
6.11462512559365
31
0.000000000000000
  0
LINE
  5
F10821
330
F10822
100
AcDbEntity
8
Geo
100
AcDbLine
10
-23.0427616926504
20
6.11462512559365
30
0.000000000000000
11
-22.9427616926504
21
6.04346912466479
31
0.000000000000000
  0
LINE
  5
F10823
330
F10824
100
AcDbEntity
8
Geo
100
AcDbLine
10
-23.0427616926504
20
16.4835516233956
30
0.000000000000000
11
-22.9427616926504
21
16.4827024439945
31
0.000000000000000
  0
LINE
  5
F10825
330
F10826
100
AcDbEntity
8
Geo
100
AcDbLine
10
-22.9427616926504
20
6.04346912466479
30
0.000000000000000
11
-22.8427616926504
21
5.97282243264025
31
0.000000000000000
  0
LINE
  5
F10827
330
F10828
100
AcDbEntity
8
Geo
100
AcDbLine
10
-22.9427616926504
20
16.4827024439945
30
0.000000000000000
11
-22.8427616926504
21
16.4808625627036
31
0.000000000000000
  0
LINE
  5
F10829
330
F1082A
100
AcDbEntity
8
Geo
100
AcDbLine
10
-22.8427616926504
20
5.97282243264025
30
0.000000000000000
11
-22.7427616926504
21
5.90269520072535
31
0.000000000000000
  0
LINE
  5
F1082B
330
F1082C
100
AcDbEntity
8
Geo
100
AcDbLine
10
-22.8427616926504
20
16.4808625627036
30
0.000000000000000
11
-22.7427616926504
21
16.4780322438949
31
0.000000000000000
  0
LINE
  5
F1082D
330
F1082E
100
AcDbEntity
8
Geo
100
AcDbLine
10
-22.7427616926504
20
5.90269520072535
30
0.000000000000000
11
-22.6427616926504
21
5.83309750548428
31
0.000000000000000
  0
LINE
  5
F1082F
330
F10830
100
AcDbEntity
8
Geo
100
AcDbLine
10
-22.7427616926504
20
16.4780322438949
30
0.000000000000000
11
-22.6427616926504
21
16.4742118942563
31
0.000000000000000
  0
LINE
  5
F10831
330
F10832
100
AcDbEntity
8
Geo
100
AcDbLine
10
-22.6427616926504
20
5.83309750548428
30
0.000000000000000
11
-22.5427616926504
21
5.76403934739226
31
0.000000000000000
  0
LINE
  5
F10833
330
F10834
100
AcDbEntity
8
Geo
100
AcDbLine
10
-22.6427616926504
20
16.4742118942563
30
0.000000000000000
11
-22.5427616926504
21
16.4694020627327
31
0.000000000000000
  0
LINE
  5
F10835
330
F10836
100
AcDbEntity
8
Geo
100
AcDbLine
10
-22.5427616926504
20
5.76403934739226
30
0.000000000000000
11
-22.4427616926504
21
5.69553064939855
31
0.000000000000000
  0
LINE
  5
F10837
330
F10838
100
AcDbEntity
8
Geo
100
AcDbLine
10
-22.5427616926504
20
16.4694020627327
30
0.000000000000000
11
-22.4427616926504
21
16.4636034404477
31
0.000000000000000
  0
LINE
  5
F10839
330
F1083A
100
AcDbEntity
8
Geo
100
AcDbLine
10
-22.4427616926504
20
5.69553064939855
30
0.000000000000000
11
-22.3427616926504
21
5.62758125550064
31
0.000000000000000
  0
LINE
  5
F1083B
330
F1083C
100
AcDbEntity
8
Geo
100
AcDbLine
10
-22.4427616926504
20
16.4636034404477
30
0.000000000000000
11
-22.3427616926504
21
16.4568168606039
31
0.000000000000000
  0
LINE
  5
F1083D
330
F1083E
100
AcDbEntity
8
Geo
100
AcDbLine
10
-22.3427616926504
20
5.62758125550064
30
0.000000000000000
11
-22.2427616926504
21
5.56020092932975
31
0.000000000000000
  0
LINE
  5
F1083F
330
F10840
100
AcDbEntity
8
Geo
100
AcDbLine
10
-22.3427616926504
20
16.4568168606039
30
0.000000000000000
11
-22.2427616926504
21
16.4490432983632
31
0.000000000000000
  0
LINE
  5
F10841
330
F10842
100
AcDbEntity
8
Geo
100
AcDbLine
10
-22.2427616926504
20
5.56020092932975
30
0.000000000000000
11
-22.1427616926504
21
5.49339935274788
31
0.000000000000000
  0
LINE
  5
F10843
330
F10844
100
AcDbEntity
8
Geo
100
AcDbLine
10
-22.2427616926504
20
16.4490432983632
30
0.000000000000000
11
-22.1427616926504
21
16.4402838707068
31
0.000000000000000
  0
LINE
  5
F10845
330
F10846
100
AcDbEntity
8
Geo
100
AcDbLine
10
-22.1427616926504
20
5.49339935274788
30
0.000000000000000
11
-22.0427616926504
21
5.42718612445667
31
0.000000000000000
  0
LINE
  5
F10847
330
F10848
100
AcDbEntity
8
Geo
100
AcDbLine
10
-22.1427616926504
20
16.4402838707068
30
0.000000000000000
11
-22.0427616926504
21
16.4305398362746
31
0.000000000000000
  0
LINE
  5
F10849
330
F1084A
100
AcDbEntity
8
Geo
100
AcDbLine
10
-22.0427616926504
20
5.42718612445667
30
0.000000000000000
11
-21.9427616926504
21
5.36157075861815
31
0.000000000000000
  0
LINE
  5
F1084B
330
F1084C
100
AcDbEntity
8
Geo
100
AcDbLine
10
-22.0427616926504
20
16.4305398362746
30
0.000000000000000
11
-21.9427616926504
21
16.4198125951844
31
0.000000000000000
  0
LINE
  5
F1084D
330
F1084E
100
AcDbEntity
8
Geo
100
AcDbLine
10
-21.9427616926504
20
5.36157075861815
30
0.000000000000000
11
-21.8427616926504
21
5.29656268348763
31
0.000000000000000
  0
LINE
  5
F1084F
330
F10850
100
AcDbEntity
8
Geo
100
AcDbLine
10
-21.9427616926504
20
16.4198125951844
30
0.000000000000000
11
-21.8427616926504
21
16.4081036888309
31
0.000000000000000
  0
LINE
  5
F10851
330
F10852
100
AcDbEntity
8
Geo
100
AcDbLine
10
-21.8427616926504
20
5.29656268348763
30
0.000000000000000
11
-21.7427616926504
21
5.23217124005896
31
0.000000000000000
  0
LINE
  5
F10853
330
F10854
100
AcDbEntity
8
Geo
100
AcDbLine
10
-21.8427616926504
20
16.4081036888309
30
0.000000000000000
11
-21.7427616926504
21
16.3954147996638
31
0.000000000000000
  0
LINE
  5
F10855
330
F10856
100
AcDbEntity
8
Geo
100
AcDbLine
10
-21.7427616926504
20
5.23217124005896
30
0.000000000000000
11
-21.6427616926504
21
5.16840568072238
31
0.000000000000000
  0
LINE
  5
F10857
330
F10858
100
AcDbEntity
8
Geo
100
AcDbLine
10
-21.7427616926504
20
16.3954147996638
30
0.000000000000000
11
-21.6427616926504
21
16.3817477509464
31
0.000000000000000
  0
LINE
  5
F10859
330
F1085A
100
AcDbEntity
8
Geo
100
AcDbLine
10
-21.6427616926504
20
5.16840568072238
30
0.000000000000000
11
-21.5427616926504
21
5.10527516793496
31
0.000000000000000
  0
LINE
  5
F1085B
330
F1085C
100
AcDbEntity
8
Geo
100
AcDbLine
10
-21.6427616926504
20
16.3817477509464
30
0.000000000000000
11
-21.5427616926504
21
16.3671045064935
31
0.000000000000000
  0
LINE
  5
F1085D
330
F1085E
100
AcDbEntity
8
Geo
100
AcDbLine
10
-21.5427616926504
20
5.10527516793496
30
0.000000000000000
11
-21.4427616926504
21
5.04278877290411
31
0.000000000000000
  0
LINE
  5
F1085F
330
F10860
100
AcDbEntity
8
Geo
100
AcDbLine
10
-21.5427616926504
20
16.3671045064935
30
0.000000000000000
11
-21.4427616926504
21
16.3514871703891
31
0.000000000000000
  0
LINE
  5
F10861
330
F10862
100
AcDbEntity
8
Geo
100
AcDbLine
10
-21.4427616926504
20
5.04278877290411
30
0.000000000000000
11
-21.3427616926504
21
4.98095547428412
31
0.000000000000000
  0
LINE
  5
F10863
330
F10864
100
AcDbEntity
8
Geo
100
AcDbLine
10
-21.4427616926504
20
16.3514871703891
30
0.000000000000000
11
-21.3427616926504
21
16.3348979866844
31
0.000000000000000
  0
LINE
  5
F10865
330
F10866
100
AcDbEntity
8
Geo
100
AcDbLine
10
-21.3427616926504
20
4.98095547428412
30
0.000000000000000
11
-21.2427616926504
21
4.91978415688603
31
0.000000000000000
  0
LINE
  5
F10867
330
F10868
100
AcDbEntity
8
Geo
100
AcDbLine
10
-21.3427616926504
20
16.3348979866844
30
0.000000000000000
11
-21.2427616926504
21
16.3173393390749
31
0.000000000000000
  0
LINE
  5
F10869
330
F1086A
100
AcDbEntity
8
Geo
100
AcDbLine
10
-21.2427616926504
20
4.91978415688603
30
0.000000000000000
11
-21.1427616926504
21
4.85928361040095
31
0.000000000000000
  0
LINE
  5
F1086B
330
F1086C
100
AcDbEntity
8
Geo
100
AcDbLine
10
-21.2427616926504
20
16.3173393390749
30
0.000000000000000
11
-21.1427616926504
21
16.2988137505582
31
0.000000000000000
  0
LINE
  5
F1086D
330
F1086E
100
AcDbEntity
8
Geo
100
AcDbLine
10
-21.1427616926504
20
4.85928361040095
30
0.000000000000000
11
-21.0427616926504
21
4.79946252813710
31
0.000000000000000
  0
LINE
  5
F1086F
330
F10870
100
AcDbEntity
8
Geo
100
AcDbLine
10
-21.1427616926504
20
16.2988137505582
30
0.000000000000000
11
-21.0427616926504
21
16.2793238830716
31
0.000000000000000
  0
LINE
  5
F10871
330
F10872
100
AcDbEntity
8
Geo
100
AcDbLine
10
-21.0427616926504
20
4.79946252813710
30
0.000000000000000
11
-20.9427616926504
21
4.74032950577065
31
0.000000000000000
  0
LINE
  5
F10873
330
F10874
100
AcDbEntity
8
Geo
100
AcDbLine
10
-21.0427616926504
20
16.2793238830716
30
0.000000000000000
11
-20.9427616926504
21
16.2588725371090
31
0.000000000000000
  0
LINE
  5
F10875
330
F10876
100
AcDbEntity
8
Geo
100
AcDbLine
10
-20.9427616926504
20
4.74032950577065
30
0.000000000000000
11
-20.8427616926504
21
4.68189304011062
31
0.000000000000000
  0
LINE
  5
F10877
330
F10878
100
AcDbEntity
8
Geo
100
AcDbLine
10
-20.9427616926504
20
16.2588725371090
30
0.000000000000000
11
-20.8427616926504
21
16.2374626513194
31
0.000000000000000
  0
LINE
  5
F10879
330
F1087A
100
AcDbEntity
8
Geo
100
AcDbLine
10
-20.8427616926504
20
4.68189304011062
30
0.000000000000000
11
-20.7427616926504
21
4.62416152787799
31
0.000000000000000
  0
LINE
  5
F1087B
330
F1087C
100
AcDbEntity
8
Geo
100
AcDbLine
10
-20.8427616926504
20
16.2374626513194
30
0.000000000000000
11
-20.7427616926504
21
16.2150973020836
31
0.000000000000000
  0
LINE
  5
F1087D
330
F1087E
100
AcDbEntity
8
Geo
100
AcDbLine
10
-20.7427616926504
20
4.62416152787799
30
0.000000000000000
11
-20.6427616926504
21
4.56714326449912
31
0.000000000000000
  0
LINE
  5
F1087F
330
F10880
100
AcDbEntity
8
Geo
100
AcDbLine
10
-20.7427616926504
20
16.2150973020836
30
0.000000000000000
11
-20.6427616926504
21
16.1917797030731
31
0.000000000000000
  0
LINE
  5
F10881
330
F10882
100
AcDbEntity
8
Geo
100
AcDbLine
10
-20.6427616926504
20
4.56714326449912
30
0.000000000000000
11
-20.5427616926504
21
4.51084644291386
31
0.000000000000000
  0
LINE
  5
F10883
330
F10884
100
AcDbEntity
8
Geo
100
AcDbLine
10
-20.6427616926504
20
16.1917797030731
30
0.000000000000000
11
-20.5427616926504
21
16.1675132047879
31
0.000000000000000
  0
LINE
  5
F10885
330
F10886
100
AcDbEntity
8
Geo
100
AcDbLine
10
-20.5427616926504
20
4.51084644291386
30
0.000000000000000
11
-20.4427616926504
21
4.45527915239826
31
0.000000000000000
  0
LINE
  5
F10887
330
F10888
100
AcDbEntity
8
Geo
100
AcDbLine
10
-20.5427616926504
20
16.1675132047879
30
0.000000000000000
11
-20.4427616926504
21
16.1423012940748
31
0.000000000000000
  0
LINE
  5
F10889
330
F1088A
100
AcDbEntity
8
Geo
100
AcDbLine
10
-20.4427616926504
20
4.45527915239826
30
0.000000000000000
11
-20.3427616926504
21
4.40044937740223
31
0.000000000000000
  0
LINE
  5
F1088B
330
F1088C
100
AcDbEntity
8
Geo
100
AcDbLine
10
-20.4427616926504
20
16.1423012940748
30
0.000000000000000
11
-20.3427616926504
21
16.1161475936270
31
0.000000000000000
  0
LINE
  5
F1088D
330
F1088E
100
AcDbEntity
8
Geo
100
AcDbLine
10
-20.3427616926504
20
4.40044937740223
30
0.000000000000000
11
-20.2427616926504
21
4.34636499640227
31
0.000000000000000
  0
LINE
  5
F1088F
330
F10890
100
AcDbEntity
8
Geo
100
AcDbLine
10
-20.3427616926504
20
16.1161475936270
30
0.000000000000000
11
-20.2427616926504
21
16.0890558614630
31
0.000000000000000
  0
LINE
  5
F10891
330
F10892
100
AcDbEntity
8
Geo
100
AcDbLine
10
-20.2427616926504
20
4.34636499640227
30
0.000000000000000
11
-20.1427616926504
21
4.29303378076940
31
0.000000000000000
  0
LINE
  5
F10893
330
F10894
100
AcDbEntity
8
Geo
100
AcDbLine
10
-20.2427616926504
20
16.0890558614630
30
0.000000000000000
11
-20.1427616926504
21
16.0610299903871
31
0.000000000000000
  0
LINE
  5
F10895
330
F10896
100
AcDbEntity
8
Geo
100
AcDbLine
10
-20.1427616926504
20
4.29303378076940
30
0.000000000000000
11
-20.0427616926504
21
4.24046339365249
31
0.000000000000000
  0
LINE
  5
F10897
330
F10898
100
AcDbEntity
8
Geo
100
AcDbLine
10
-20.1427616926504
20
16.0610299903871
30
0.000000000000000
11
-20.0427616926504
21
16.0320740074294
31
0.000000000000000
  0
LINE
  5
F10899
330
F1089A
100
AcDbEntity
8
Geo
100
AcDbLine
10
-20.0427616926504
20
4.24046339365249
30
0.000000000000000
11
-19.9427616926505
21
4.18866138887718
31
0.000000000000000
  0
LINE
  5
F1089B
330
F1089C
100
AcDbEntity
8
Geo
100
AcDbLine
10
-20.0427616926504
20
16.0320740074294
30
0.000000000000000
11
-19.9427616926505
21
16.0021920732680
31
0.000000000000000
  0
LINE
  5
F1089D
330
F1089E
100
AcDbEntity
8
Geo
100
AcDbLine
10
-19.9427616926505
20
4.18866138887718
30
0.000000000000000
11
-19.8427616926504
21
4.13763520986041
31
0.000000000000000
  0
LINE
  5
F1089F
330
F108A0
100
AcDbEntity
8
Geo
100
AcDbLine
10
-19.9427616926505
20
16.0021920732680
30
0.000000000000000
11
-19.8427616926504
21
15.9713884816303
31
0.000000000000000
  0
LINE
  5
F108A1
330
F108A2
100
AcDbEntity
8
Geo
100
AcDbLine
10
-19.8427616926504
20
4.13763520986041
30
0.000000000000000
11
-19.7427616926504
21
4.08739218854094
31
0.000000000000000
  0
LINE
  5
F108A3
330
F108A4
100
AcDbEntity
8
Geo
100
AcDbLine
10
-19.8427616926504
20
15.9713884816303
30
0.000000000000000
11
-19.7427616926504
21
15.9396676586767
31
0.000000000000000
  0
LINE
  5
F108A5
330
F108A6
100
AcDbEntity
8
Geo
100
AcDbLine
10
-19.7427616926504
20
4.08739218854094
30
0.000000000000000
11
-19.6427616926504
21
4.03793954432579
31
0.000000000000000
  0
LINE
  5
F108A7
330
F108A8
100
AcDbEntity
8
Geo
100
AcDbLine
10
-19.7427616926504
20
15.9396676586767
30
0.000000000000000
11
-19.6427616926504
21
15.9070341623641
31
0.000000000000000
  0
LINE
  5
F108A9
330
F108AA
100
AcDbEntity
8
Geo
100
AcDbLine
10
-19.6427616926504
20
4.03793954432579
30
0.000000000000000
11
-19.5427616926505
21
3.98928438305290
31
0.000000000000000
  0
LINE
  5
F108AB
330
F108AC
100
AcDbEntity
8
Geo
100
AcDbLine
10
-19.6427616926504
20
15.9070341623641
30
0.000000000000000
11
-19.5427616926505
21
15.8734926817914
31
0.000000000000000
  0
LINE
  5
F108AD
330
F108AE
100
AcDbEntity
8
Geo
100
AcDbLine
10
-19.5427616926505
20
3.98928438305290
30
0.000000000000000
11
-19.4427616926505
21
3.94143369597007
31
0.000000000000000
  0
LINE
  5
F108AF
330
F108B0
100
AcDbEntity
8
Geo
100
AcDbLine
10
-19.5427616926505
20
15.8734926817914
30
0.000000000000000
11
-19.4427616926505
21
15.8390480365255
31
0.000000000000000
  0
LINE
  5
F108B1
330
F108B2
100
AcDbEntity
8
Geo
100
AcDbLine
10
-19.4427616926505
20
3.94143369597007
30
0.000000000000000
11
-19.3427616926504
21
3.89439435873042
31
0.000000000000000
  0
LINE
  5
F108B3
330
F108B4
100
AcDbEntity
8
Geo
100
AcDbLine
10
-19.4427616926505
20
15.8390480365255
30
0.000000000000000
11
-19.3427616926504
21
15.8037051759086
31
0.000000000000000
  0
LINE
  5
F108B5
330
F108B6
100
AcDbEntity
8
Geo
100
AcDbLine
10
-19.3427616926504
20
3.89439435873042
30
0.000000000000000
11
-19.2427616926505
21
3.84817313040443
31
0.000000000000000
  0
LINE
  5
F108B7
330
F108B8
100
AcDbEntity
8
Geo
100
AcDbLine
10
-19.3427616926504
20
15.8037051759086
30
0.000000000000000
11
-19.2427616926505
21
15.7674691783476
31
0.000000000000000
  0
LINE
  5
F108B9
330
F108BA
100
AcDbEntity
8
Geo
100
AcDbLine
10
-19.2427616926505
20
3.84817313040443
30
0.000000000000000
11
-19.1427616926505
21
3.80277665250869
31
0.000000000000000
  0
LINE
  5
F108BB
330
F108BC
100
AcDbEntity
8
Geo
100
AcDbLine
10
-19.2427616926505
20
15.7674691783476
30
0.000000000000000
11
-19.1427616926505
21
15.7303452505837
31
0.000000000000000
  0
LINE
  5
F108BD
330
F108BE
100
AcDbEntity
8
Geo
100
AcDbLine
10
-19.1427616926505
20
3.80277665250869
30
0.000000000000000
11
-19.0427616926505
21
3.75821144805162
31
0.000000000000000
  0
LINE
  5
F108BF
330
F108C0
100
AcDbEntity
8
Geo
100
AcDbLine
10
-19.1427616926505
20
15.7303452505837
30
0.000000000000000
11
-19.0427616926505
21
15.6923387269447
31
0.000000000000000
  0
LINE
  5
F108C1
330
F108C2
100
AcDbEntity
8
Geo
100
AcDbLine
10
-19.0427616926505
20
3.75821144805162
30
0.000000000000000
11
-18.9427616926505
21
3.71448392059618
31
0.000000000000000
  0
LINE
  5
F108C3
330
F108C4
100
AcDbEntity
8
Geo
100
AcDbLine
10
-19.0427616926505
20
15.6923387269447
30
0.000000000000000
11
-18.9427616926505
21
15.6534550685783
31
0.000000000000000
  0
LINE
  5
F108C5
330
F108C6
100
AcDbEntity
8
Geo
100
AcDbLine
10
-18.9427616926505
20
3.71448392059618
30
0.000000000000000
11
-18.8427616926505
21
3.67160035333972
31
0.000000000000000
  0
LINE
  5
F108C7
330
F108C8
100
AcDbEntity
8
Geo
100
AcDbLine
10
-18.9427616926505
20
15.6534550685783
30
0.000000000000000
11
-18.8427616926505
21
15.6136998626677
31
0.000000000000000
  0
LINE
  5
F108C9
330
F108CA
100
AcDbEntity
8
Geo
100
AcDbLine
10
-18.8427616926505
20
3.67160035333972
30
0.000000000000000
11
-18.7427616926505
21
3.62956690821117
31
0.000000000000000
  0
LINE
  5
F108CB
330
F108CC
100
AcDbEntity
8
Geo
100
AcDbLine
10
-18.8427616926505
20
15.6136998626677
30
0.000000000000000
11
-18.7427616926505
21
15.5730788216283
31
0.000000000000000
  0
LINE
  5
F108CD
330
F108CE
100
AcDbEntity
8
Geo
100
AcDbLine
10
-18.7427616926505
20
3.62956690821117
30
0.000000000000000
11
-18.6427616926505
21
3.58838962498562
31
0.000000000000000
  0
LINE
  5
F108CF
330
F108D0
100
AcDbEntity
8
Geo
100
AcDbLine
10
-18.7427616926505
20
15.5730788216283
30
0.000000000000000
11
-18.6427616926505
21
15.5315977822872
31
0.000000000000000
  0
LINE
  5
F108D1
330
F108D2
100
AcDbEntity
8
Geo
100
AcDbLine
10
-18.6427616926505
20
3.58838962498562
30
0.000000000000000
11
-18.5427616926505
21
3.54807442041649
31
0.000000000000000
  0
LINE
  5
F108D3
330
F108D4
100
AcDbEntity
8
Geo
100
AcDbLine
10
-18.6427616926505
20
15.5315977822872
30
0.000000000000000
11
-18.5427616926505
21
15.4892627050444
31
0.000000000000000
  0
LINE
  5
F108D5
330
F108D6
100
AcDbEntity
8
Geo
100
AcDbLine
10
-18.5427616926505
20
3.54807442041649
30
0.000000000000000
11
-18.4427616926505
21
3.50862708738531
31
0.000000000000000
  0
LINE
  5
F108D7
330
F108D8
100
AcDbEntity
8
Geo
100
AcDbLine
10
-18.5427616926505
20
15.4892627050444
30
0.000000000000000
11
-18.4427616926505
21
15.4460796730165
31
0.000000000000000
  0
LINE
  5
F108D9
330
F108DA
100
AcDbEntity
8
Geo
100
AcDbLine
10
-18.4427616926505
20
3.50862708738531
30
0.000000000000000
11
-18.3427616926505
21
3.47005329406939
31
0.000000000000000
  0
LINE
  5
F108DB
330
F108DC
100
AcDbEntity
8
Geo
100
AcDbLine
10
-18.4427616926505
20
15.4460796730165
30
0.000000000000000
11
-18.3427616926505
21
15.4020548911624
31
0.000000000000000
  0
LINE
  5
F108DD
330
F108DE
100
AcDbEntity
8
Geo
100
AcDbLine
10
-18.3427616926505
20
3.47005329406939
30
0.000000000000000
11
-18.2427616926505
21
3.43235858312732
31
0.000000000000000
  0
LINE
  5
F108DF
330
F108E0
100
AcDbEntity
8
Geo
100
AcDbLine
10
-18.3427616926505
20
15.4020548911624
30
0.000000000000000
11
-18.2427616926505
21
15.3571946853919
31
0.000000000000000
  0
LINE
  5
F108E1
330
F108E2
100
AcDbEntity
8
Geo
100
AcDbLine
10
-18.2427616926505
20
3.43235858312732
30
0.000000000000000
11
-18.1427616926505
21
3.39554837090259
31
0.000000000000000
  0
LINE
  5
F108E3
330
F108E4
100
AcDbEntity
8
Geo
100
AcDbLine
10
-18.2427616926505
20
15.3571946853919
30
0.000000000000000
11
-18.1427616926505
21
15.3115055016567
31
0.000000000000000
  0
LINE
  5
F108E5
330
F108E6
100
AcDbEntity
8
Geo
100
AcDbLine
10
-18.1427616926505
20
3.39554837090259
30
0.000000000000000
11
-18.0427616926505
21
3.35962794664528
31
0.000000000000000
  0
LINE
  5
F108E7
330
F108E8
100
AcDbEntity
8
Geo
100
AcDbLine
10
-18.1427616926505
20
15.3115055016567
30
0.000000000000000
11
-18.0427616926505
21
15.2649939050238
31
0.000000000000000
  0
LINE
  5
F108E9
330
F108EA
100
AcDbEntity
8
Geo
100
AcDbLine
10
-18.0427616926505
20
3.35962794664528
30
0.000000000000000
11
-17.9427616926505
21
3.32460247175206
31
0.000000000000000
  0
LINE
  5
F108EB
330
F108EC
100
AcDbEntity
8
Geo
100
AcDbLine
10
-18.0427616926505
20
15.2649939050238
30
0.000000000000000
11
-17.9427616926505
21
15.2176665787330
31
0.000000000000000
  0
LINE
  5
F108ED
330
F108EE
100
AcDbEntity
8
Geo
100
AcDbLine
10
-17.9427616926505
20
3.32460247175206
30
0.000000000000000
11
-17.8427616926505
21
3.29047697902454
31
0.000000000000000
  0
LINE
  5
F108EF
330
F108F0
100
AcDbEntity
8
Geo
100
AcDbLine
10
-17.9427616926505
20
15.2176665787330
30
0.000000000000000
11
-17.8427616926505
21
15.1695303232357
31
0.000000000000000
  0
LINE
  5
F108F1
330
F108F2
100
AcDbEntity
8
Geo
100
AcDbLine
10
-17.8427616926505
20
3.29047697902454
30
0.000000000000000
11
-17.7427616926505
21
3.25725637194616
31
0.000000000000000
  0
LINE
  5
F108F3
330
F108F4
100
AcDbEntity
8
Geo
100
AcDbLine
10
-17.8427616926505
20
15.1695303232357
30
0.000000000000000
11
-17.7427616926505
21
15.1205920552184
31
0.000000000000000
  0
LINE
  5
F108F5
330
F108F6
100
AcDbEntity
8
Geo
100
AcDbLine
10
-17.7427616926505
20
3.25725637194616
30
0.000000000000000
11
-17.6427616926505
21
3.22494542397752
31
0.000000000000000
  0
LINE
  5
F108F7
330
F108F8
100
AcDbEntity
8
Geo
100
AcDbLine
10
-17.7427616926505
20
15.1205920552184
30
0.000000000000000
11
-17.6427616926505
21
15.0708588066083
31
0.000000000000000
  0
LINE
  5
F108F9
330
F108FA
100
AcDbEntity
8
Geo
100
AcDbLine
10
-17.6427616926505
20
3.22494542397752
30
0.000000000000000
11
-17.5427616926505
21
3.19354877787058
31
0.000000000000000
  0
LINE
  5
F108FB
330
F108FC
100
AcDbEntity
8
Geo
100
AcDbLine
10
-17.6427616926505
20
15.0708588066083
30
0.000000000000000
11
-17.5427616926505
21
15.0203377235634
31
0.000000000000000
  0
LINE
  5
F108FD
330
F108FE
100
AcDbEntity
8
Geo
100
AcDbLine
10
-17.5427616926505
20
3.19354877787058
30
0.000000000000000
11
-17.4427616926505
21
3.16307094500146
31
0.000000000000000
  0
LINE
  5
F108FF
330
F10900
100
AcDbEntity
8
Geo
100
AcDbLine
10
-17.5427616926505
20
15.0203377235634
30
0.000000000000000
11
-17.4427616926505
21
14.9690360654453
31
0.000000000000000
  0
LINE
  5
F10901
330
F10902
100
AcDbEntity
8
Geo
100
AcDbLine
10
-17.4427616926505
20
3.16307094500146
30
0.000000000000000
11
-17.3427616926505
21
3.13351630472227
31
0.000000000000000
  0
LINE
  5
F10903
330
F10904
100
AcDbEntity
8
Geo
100
AcDbLine
10
-17.4427616926505
20
14.9690360654453
30
0.000000000000000
11
-17.3427616926505
21
14.9169612037763
31
0.000000000000000
  0
LINE
  5
F10905
330
F10906
100
AcDbEntity
8
Geo
100
AcDbLine
10
-17.3427616926505
20
3.13351630472227
30
0.000000000000000
11
-17.2427616926505
21
3.10488910373177
31
0.000000000000000
  0
LINE
  5
F10907
330
F10908
100
AcDbEntity
8
Geo
100
AcDbLine
10
-17.3427616926505
20
14.9169612037763
30
0.000000000000000
11
-17.2427616926505
21
14.8641206211800
31
0.000000000000000
  0
LINE
  5
F10909
330
F1090A
100
AcDbEntity
8
Geo
100
AcDbLine
10
-17.2427616926505
20
3.10488910373177
30
0.000000000000000
11
-17.1427616926505
21
3.07719345546524
31
0.000000000000000
  0
LINE
  5
F1090B
330
F1090C
100
AcDbEntity
8
Geo
100
AcDbLine
10
-17.2427616926505
20
14.8641206211800
30
0.000000000000000
11
-17.1427616926505
21
14.8105219103065
31
0.000000000000000
  0
LINE
  5
F1090D
330
F1090E
100
AcDbEntity
8
Geo
100
AcDbLine
10
-17.1427616926505
20
3.07719345546524
30
0.000000000000000
11
-17.0427616926505
21
3.05043333950337
31
0.000000000000000
  0
LINE
  5
F1090F
330
F10910
100
AcDbEntity
8
Geo
100
AcDbLine
10
-17.1427616926505
20
14.8105219103065
30
0.000000000000000
11
-17.0427616926505
21
14.7561727727410
31
0.000000000000000
  0
LINE
  5
F10911
330
F10912
100
AcDbEntity
8
Geo
100
AcDbLine
10
-17.0427616926505
20
3.05043333950337
30
0.000000000000000
11
-16.9427616926505
21
3.02461260100045
31
0.000000000000000
  0
LINE
  5
F10913
330
F10914
100
AcDbEntity
8
Geo
100
AcDbLine
10
-17.0427616926505
20
14.7561727727410
30
0.000000000000000
11
-16.9427616926505
21
14.7010810178972
31
0.000000000000000
  0
LINE
  5
F10915
330
F10916
100
AcDbEntity
8
Geo
100
AcDbLine
10
-16.9427616926505
20
3.02461260100045
30
0.000000000000000
11
-16.8427616926505
21
2.99973495013186
31
0.000000000000000
  0
LINE
  5
F10917
330
F10918
100
AcDbEntity
8
Geo
100
AcDbLine
10
-16.9427616926505
20
14.7010810178972
30
0.000000000000000
11
-16.8427616926505
21
14.6452545618954
31
0.000000000000000
  0
LINE
  5
F10919
330
F1091A
100
AcDbEntity
8
Geo
100
AcDbLine
10
-16.8427616926505
20
2.99973495013186
30
0.000000000000000
11
-16.7427616926505
21
2.97580396156096
31
0.000000000000000
  0
LINE
  5
F1091B
330
F1091C
100
AcDbEntity
8
Geo
100
AcDbLine
10
-16.8427616926505
20
14.6452545618954
30
0.000000000000000
11
-16.7427616926505
21
14.5887014264251
31
0.000000000000000
  0
LINE
  5
F1091D
330
F1091E
100
AcDbEntity
8
Geo
100
AcDbLine
10
-16.7427616926505
20
2.97580396156096
30
0.000000000000000
11
-16.6427616926505
21
2.95282307392545
31
0.000000000000000
  0
LINE
  5
F1091F
330
F10920
100
AcDbEntity
8
Geo
100
AcDbLine
10
-16.7427616926505
20
14.5887014264251
30
0.000000000000000
11
-16.6427616926505
21
14.5314297375919
31
0.000000000000000
  0
LINE
  5
F10921
330
F10922
100
AcDbEntity
8
Geo
100
AcDbLine
10
-16.6427616926505
20
2.95282307392545
30
0.000000000000000
11
-16.5427616926505
21
2.93079558934325
31
0.000000000000000
  0
LINE
  5
F10923
330
F10924
100
AcDbEntity
8
Geo
100
AcDbLine
10
-16.6427616926505
20
14.5314297375919
30
0.000000000000000
11
-16.5427616926505
21
14.4734477247503
31
0.000000000000000
  0
LINE
  5
F10925
330
F10926
100
AcDbEntity
8
Geo
100
AcDbLine
10
-16.5427616926505
20
2.93079558934325
30
0.000000000000000
11
-16.4427616926505
21
2.90972467293805
31
0.000000000000000
  0
LINE
  5
F10927
330
F10928
100
AcDbEntity
8
Geo
100
AcDbLine
10
-16.5427616926505
20
14.4734477247503
30
0.000000000000000
11
-16.4427616926505
21
14.4147637193210
31
0.000000000000000
  0
LINE
  5
F10929
330
F1092A
100
AcDbEntity
8
Geo
100
AcDbLine
10
-16.4427616926505
20
2.90972467293805
30
0.000000000000000
11
-16.3427616926505
21
2.88961335238449
31
0.000000000000000
  0
LINE
  5
F1092B
330
F1092C
100
AcDbEntity
8
Geo
100
AcDbLine
10
-16.4427616926505
20
14.4147637193210
30
0.000000000000000
11
-16.3427616926505
21
14.3553861535940
31
0.000000000000000
  0
LINE
  5
F1092D
330
F1092E
100
AcDbEntity
8
Geo
100
AcDbLine
10
-16.3427616926505
20
2.88961335238449
30
0.000000000000000
11
-16.2427616926505
21
2.87046451747314
31
0.000000000000000
  0
LINE
  5
F1092F
330
F10930
100
AcDbEntity
8
Geo
100
AcDbLine
10
-16.3427616926505
20
14.3553861535940
30
0.000000000000000
11
-16.2427616926505
21
14.2953235595167
31
0.000000000000000
  0
LINE
  5
F10931
330
F10932
100
AcDbEntity
8
Geo
100
AcDbLine
10
-16.2427616926505
20
2.87046451747314
30
0.000000000000000
11
-16.1427616926505
21
2.85228091969524
31
0.000000000000000
  0
LINE
  5
F10933
330
F10934
100
AcDbEntity
8
Geo
100
AcDbLine
10
-16.2427616926505
20
14.2953235595167
30
0.000000000000000
11
-16.1427616926505
21
14.2345845674679
31
0.000000000000000
  0
LINE
  5
F10935
330
F10936
100
AcDbEntity
8
Geo
100
AcDbLine
10
-16.1427616926505
20
2.85228091969524
30
0.000000000000000
11
-16.0427616926505
21
2.83506517184736
31
0.000000000000000
  0
LINE
  5
F10937
330
F10938
100
AcDbEntity
8
Geo
100
AcDbLine
10
-16.1427616926505
20
14.2345845674679
30
0.000000000000000
11
-16.0427616926505
21
14.1731779050182
31
0.000000000000000
  0
LINE
  5
F10939
330
F1093A
100
AcDbEntity
8
Geo
100
AcDbLine
10
-16.0427616926505
20
2.83506517184736
30
0.000000000000000
11
-15.9427616926505
21
2.81881974765594
31
0.000000000000000
  0
LINE
  5
F1093B
330
F1093C
100
AcDbEntity
8
Geo
100
AcDbLine
10
-16.0427616926505
20
14.1731779050182
30
0.000000000000000
11
-15.9427616926505
21
14.1111123956752
31
0.000000000000000
  0
LINE
  5
F1093D
330
F1093E
100
AcDbEntity
8
Geo
100
AcDbLine
10
-15.9427616926505
20
2.81881974765594
30
0.000000000000000
11
-15.8427616926504
21
2.80354698142187
31
0.000000000000000
  0
LINE
  5
F1093F
330
F10940
100
AcDbEntity
8
Geo
100
AcDbLine
10
-15.9427616926505
20
14.1111123956752
30
0.000000000000000
11
-15.8427616926504
21
14.0483969576163
31
0.000000000000000
  0
LINE
  5
F10941
330
F10942
100
AcDbEntity
8
Geo
100
AcDbLine
10
-15.8427616926504
20
2.80354698142187
30
0.000000000000000
11
-15.7427616926504
21
2.78924906768508
31
0.000000000000000
  0
LINE
  5
F10943
330
F10944
100
AcDbEntity
8
Geo
100
AcDbLine
10
-15.8427616926504
20
14.0483969576163
30
0.000000000000000
11
-15.7427616926504
21
13.9850406024070
31
0.000000000000000
  0
LINE
  5
F10945
330
F10946
100
AcDbEntity
8
Geo
100
AcDbLine
10
-15.7427616926504
20
2.78924906768508
30
0.000000000000000
11
-15.6427616926504
21
2.77592806090917
31
0.000000000000000
  0
LINE
  5
F10947
330
F10948
100
AcDbEntity
8
Geo
100
AcDbLine
10
-15.7427616926504
20
13.9850406024070
30
0.000000000000000
11
-15.6427616926504
21
13.9210524337058
31
0.000000000000000
  0
LINE
  5
F10949
330
F1094A
100
AcDbEntity
8
Geo
100
AcDbLine
10
-15.6427616926504
20
2.77592806090917
30
0.000000000000000
11
-15.5427616926504
21
2.76358587518623
31
0.000000000000000
  0
LINE
  5
F1094B
330
F1094C
100
AcDbEntity
8
Geo
100
AcDbLine
10
-15.6427616926504
20
13.9210524337058
30
0.000000000000000
11
-15.5427616926504
21
13.8564416459566
31
0.000000000000000
  0
LINE
  5
F1094D
330
F1094E
100
AcDbEntity
8
Geo
100
AcDbLine
10
-15.5427616926504
20
2.76358587518623
30
0.000000000000000
11
-15.4427616926504
21
2.75222428396181
31
0.000000000000000
  0
LINE
  5
F1094F
330
F10950
100
AcDbEntity
8
Geo
100
AcDbLine
10
-15.5427616926504
20
13.8564416459566
30
0.000000000000000
11
-15.4427616926504
21
13.7912175230671
31
0.000000000000000
  0
LINE
  5
F10951
330
F10952
100
AcDbEntity
8
Geo
100
AcDbLine
10
-15.4427616926504
20
2.75222428396181
30
0.000000000000000
11
-15.3427616926504
21
2.74184491978007
31
0.000000000000000
  0
LINE
  5
F10953
330
F10954
100
AcDbEntity
8
Geo
100
AcDbLine
10
-15.4427616926504
20
13.7912175230671
30
0.000000000000000
11
-15.3427616926504
21
13.7253894370751
31
0.000000000000000
  0
LINE
  5
F10955
330
F10956
100
AcDbEntity
8
Geo
100
AcDbLine
10
-15.3427616926504
20
2.74184491978007
30
0.000000000000000
11
-15.2427616926504
21
2.73244927404923
31
0.000000000000000
  0
LINE
  5
F10957
330
F10958
100
AcDbEntity
8
Geo
100
AcDbLine
10
-15.3427616926504
20
13.7253894370751
30
0.000000000000000
11
-15.2427616926504
21
13.6589668468014
31
0.000000000000000
  0
LINE
  5
F10959
330
F1095A
100
AcDbEntity
8
Geo
100
AcDbLine
10
-15.2427616926504
20
2.73244927404923
30
0.000000000000000
11
-15.1427616926504
21
2.72403869682724
31
0.000000000000000
  0
LINE
  5
F1095B
330
F1095C
100
AcDbEntity
8
Geo
100
AcDbLine
10
-15.2427616926504
20
13.6589668468014
30
0.000000000000000
11
-15.1427616926504
21
13.5919592964914
31
0.000000000000000
  0
LINE
  5
F1095D
330
F1095E
100
AcDbEntity
8
Geo
100
AcDbLine
10
-15.1427616926504
20
2.72403869682724
30
0.000000000000000
11
-15.0427616926504
21
2.71661439662782
31
0.000000000000000
  0
LINE
  5
F1095F
330
F10960
100
AcDbEntity
8
Geo
100
AcDbLine
10
-15.1427616926504
20
13.5919592964914
30
0.000000000000000
11
-15.0427616926504
21
13.5243764144429
31
0.000000000000000
  0
LINE
  5
F10961
330
F10962
100
AcDbEntity
8
Geo
100
AcDbLine
10
-15.0427616926504
20
2.71661439662782
30
0.000000000000000
11
-14.9427616926504
21
2.71017744024678
31
0.000000000000000
  0
LINE
  5
F10963
330
F10964
100
AcDbEntity
8
Geo
100
AcDbLine
10
-15.0427616926504
20
13.5243764144429
30
0.000000000000000
11
-14.9427616926504
21
13.4562279116233
31
0.000000000000000
  0
LINE
  5
F10965
330
F10966
100
AcDbEntity
8
Geo
100
AcDbLine
10
-14.9427616926504
20
2.71017744024678
30
0.000000000000000
11
-14.8427616926504
21
2.70472875260877
31
0.000000000000000
  0
LINE
  5
F10967
330
F10968
100
AcDbEntity
8
Geo
100
AcDbLine
10
-14.9427616926504
20
13.4562279116233
30
0.000000000000000
11
-14.8427616926504
21
13.3875235802735
31
0.000000000000000
  0
LINE
  5
F10969
330
F1096A
100
AcDbEntity
8
Geo
100
AcDbLine
10
-14.8427616926504
20
2.70472875260877
30
0.000000000000000
11
-14.7427616926504
21
2.70026911663432
31
0.000000000000000
  0
LINE
  5
F1096B
330
F1096C
100
AcDbEntity
8
Geo
100
AcDbLine
10
-14.8427616926504
20
13.3875235802735
30
0.000000000000000
11
-14.7427616926504
21
13.3182732925017
31
0.000000000000000
  0
LINE
  5
F1096D
330
F1096E
100
AcDbEntity
8
Geo
100
AcDbLine
10
-14.7427616926504
20
2.70026911663432
30
0.000000000000000
11
-14.6427616926504
21
2.69679917312740
31
0.000000000000000
  0
LINE
  5
F1096F
330
F10970
100
AcDbEntity
8
Geo
100
AcDbLine
10
-14.7427616926504
20
13.3182732925017
30
0.000000000000000
11
-14.6427616926504
21
13.2484869988641
31
0.000000000000000
  0
LINE
  5
F10971
330
F10972
100
AcDbEntity
8
Geo
100
AcDbLine
10
-14.6427616926504
20
2.69679917312740
30
0.000000000000000
11
-14.5427616926504
21
2.69431942068331
31
0.000000000000000
  0
LINE
  5
F10973
330
F10974
100
AcDbEntity
8
Geo
100
AcDbLine
10
-14.6427616926504
20
13.2484869988641
30
0.000000000000000
11
-14.5427616926504
21
13.1781747269355
31
0.000000000000000
  0
LINE
  5
F10975
330
F10976
100
AcDbEntity
8
Geo
100
AcDbLine
10
-14.5427616926504
20
2.69431942068331
30
0.000000000000000
11
-14.4427616926504
21
2.69283021561707
31
0.000000000000000
  0
LINE
  5
F10977
330
F10978
100
AcDbEntity
8
Geo
100
AcDbLine
10
-14.5427616926504
20
13.1781747269355
30
0.000000000000000
11
-14.4427616926504
21
13.1073465798687
31
0.000000000000000
  0
LINE
  5
F10979
330
F1097A
100
AcDbEntity
8
Geo
100
AcDbLine
10
-14.4427616926504
20
2.69283021561707
30
0.000000000000000
11
-14.3427616926504
21
2.69233177191215
31
0.000000000000000
  0
LINE
  5
F1097B
330
F1097C
100
AcDbEntity
8
Geo
100
AcDbLine
10
-14.4427616926504
20
13.1073465798687
30
0.000000000000000
11
-14.3427616926504
21
13.0360127349421
31
0.000000000000000
  0
LINE
  5
F1097D
330
F1097E
100
AcDbEntity
8
Geo
100
AcDbLine
10
-14.3427616926504
20
13.0360127349421
30
0.000000000000000
11
-14.2427616926504
21
12.9641834420977
31
0.000000000000000
  0
LINE
  5
F1097F
330
F10980
100
AcDbEntity
8
Geo
100
AcDbLine
10
-14.2427616926504
20
12.9641834420977
30
0.000000000000000
11
-14.1427616926504
21
12.8918690224687
31
0.000000000000000
  0
LINE
  5
F10981
330
F10982
100
AcDbEntity
8
Geo
100
AcDbLine
10
-14.1427616926504
20
12.8918690224687
30
0.000000000000000
11
-14.0427616926504
21
12.8190798668955
31
0.000000000000000
  0
LINE
  5
F10983
330
F10984
100
AcDbEntity
8
Geo
100
AcDbLine
10
-14.0427616926504
20
12.8190798668955
30
0.000000000000000
11
-13.9427616926504
21
12.7458264344335
31
0.000000000000000
  0
LINE
  5
F10985
330
F10986
100
AcDbEntity
8
Geo
100
AcDbLine
10
-13.9427616926504
20
12.7458264344335
30
0.000000000000000
11
-13.8427616926504
21
12.6721192508500
31
0.000000000000000
  0
LINE
  5
F10987
330
F10988
100
AcDbEntity
8
Geo
100
AcDbLine
10
-13.8427616926504
20
12.6721192508500
30
0.000000000000000
11
-13.7427616926504
21
12.5979689071115
31
0.000000000000000
  0
LINE
  5
F10989
330
F1098A
100
AcDbEntity
8
Geo
100
AcDbLine
10
-13.7427616926504
20
12.5979689071115
30
0.000000000000000
11
-13.6427616926504
21
12.5233860578620
31
0.000000000000000
  0
LINE
  5
F1098B
330
F1098C
100
AcDbEntity
8
Geo
100
AcDbLine
10
-13.6427616926504
20
12.5233860578620
30
0.000000000000000
11
-13.5427616926504
21
12.4483814198924
31
0.000000000000000
  0
LINE
  5
F1098D
330
F1098E
100
AcDbEntity
8
Geo
100
AcDbLine
10
-13.5427616926504
20
12.4483814198924
30
0.000000000000000
11
-13.4427616926504
21
12.3729657706001
31
0.000000000000000
  0
LINE
  5
F1098F
330
F10990
100
AcDbEntity
8
Geo
100
AcDbLine
10
-13.4427616926504
20
12.3729657706001
30
0.000000000000000
11
-13.3427616926504
21
12.2971499464406
31
0.000000000000000
  0
LINE
  5
F10991
330
F10992
100
AcDbEntity
8
Geo
100
AcDbLine
10
-13.3427616926504
20
12.2971499464406
30
0.000000000000000
11
-13.2427616926504
21
12.2209448413706
31
0.000000000000000
  0
LINE
  5
F10993
330
F10994
100
AcDbEntity
8
Geo
100
AcDbLine
10
-13.2427616926504
20
12.2209448413706
30
0.000000000000000
11
-13.1427616926504
21
12.1443614052823
31
0.000000000000000
  0
LINE
  5
F10995
330
F10996
100
AcDbEntity
8
Geo
100
AcDbLine
10
-13.1427616926504
20
12.1443614052823
30
0.000000000000000
11
-13.0427616926504
21
12.0674106424303
31
0.000000000000000
  0
LINE
  5
F10997
330
F10998
100
AcDbEntity
8
Geo
100
AcDbLine
10
-13.0427616926504
20
12.0674106424303
30
0.000000000000000
11
-12.9427616926504
21
11.9901036098502
31
0.000000000000000
  0
LINE
  5
F10999
330
F1099A
100
AcDbEntity
8
Geo
100
AcDbLine
10
-12.9427616926504
20
11.9901036098502
30
0.000000000000000
11
-12.8427616926504
21
11.9124514157699
31
0.000000000000000
  0
LINE
  5
F1099B
330
F1099C
100
AcDbEntity
8
Geo
100
AcDbLine
10
-12.8427616926504
20
11.9124514157699
30
0.000000000000000
11
-12.7427616926504
21
11.8344652180136
31
0.000000000000000
  0
LINE
  5
F1099D
330
F1099E
100
AcDbEntity
8
Geo
100
AcDbLine
10
-12.7427616926504
20
11.8344652180136
30
0.000000000000000
11
-12.6427616926504
21
11.7561562223983
31
0.000000000000000
  0
LINE
  5
F1099F
330
F109A0
100
AcDbEntity
8
Geo
100
AcDbLine
10
-12.6427616926504
20
11.7561562223983
30
0.000000000000000
11
-12.5427616926504
21
11.6775356811238
31
0.000000000000000
  0
LINE
  5
F109A1
330
F109A2
100
AcDbEntity
8
Geo
100
AcDbLine
10
-12.5427616926504
20
11.6775356811238
30
0.000000000000000
11
-12.4427616926504
21
11.5986148911557
31
0.000000000000000
  0
LINE
  5
F109A3
330
F109A4
100
AcDbEntity
8
Geo
100
AcDbLine
10
-12.4427616926504
20
11.5986148911557
30
0.000000000000000
11
-12.3427616926504
21
11.5194051926024
31
0.000000000000000
  0
LINE
  5
F109A5
330
F109A6
100
AcDbEntity
8
Geo
100
AcDbLine
10
-12.3427616926504
20
11.5194051926024
30
0.000000000000000
11
-12.2427616926504
21
11.4399179670855
31
0.000000000000000
  0
LINE
  5
F109A7
330
F109A8
100
AcDbEntity
8
Geo
100
AcDbLine
10
-12.2427616926504
20
11.4399179670855
30
0.000000000000000
11
-12.1427616926504
21
11.3601646361041
31
0.000000000000000
  0
LINE
  5
F109A9
330
F109AA
100
AcDbEntity
8
Geo
100
AcDbLine
10
-12.1427616926504
20
11.3601646361041
30
0.000000000000000
11
-12.0427616926504
21
11.2801566593944
31
0.000000000000000
  0
LINE
  5
F109AB
330
F109AC
100
AcDbEntity
8
Geo
100
AcDbLine
10
-12.0427616926504
20
11.2801566593944
30
0.000000000000000
11
-11.9427616926504
21
11.1999055332822
31
0.000000000000000
  0
LINE
  5
F109AD
330
F109AE
100
AcDbEntity
8
Geo
100
AcDbLine
10
-11.9427616926504
20
11.1999055332822
30
0.000000000000000
11
-11.8427616926504
21
11.1194227890316
31
0.000000000000000
  0
LINE
  5
F109AF
330
F109B0
100
AcDbEntity
8
Geo
100
AcDbLine
10
-11.8427616926504
20
11.1194227890316
30
0.000000000000000
11
-11.7427616926504
21
11.0387199911876
31
0.000000000000000
  0
LINE
  5
F109B1
330
F109B2
100
AcDbEntity
8
Geo
100
AcDbLine
10
-11.7427616926504
20
11.0387199911876
30
0.000000000000000
11
-11.6427616926504
21
10.9578087359149
31
0.000000000000000
  0
LINE
  5
F109B3
330
F109B4
100
AcDbEntity
8
Geo
100
AcDbLine
10
-11.6427616926504
20
10.9578087359149
30
0.000000000000000
11
-11.5427616926504
21
10.8767006493313
31
0.000000000000000
  0
LINE
  5
F109B5
330
F109B6
100
AcDbEntity
8
Geo
100
AcDbLine
10
-11.5427616926504
20
10.8767006493313
30
0.000000000000000
11
-11.4427616926504
21
10.7954073858372
31
0.000000000000000
  0
LINE
  5
F109B7
330
F109B8
100
AcDbEntity
8
Geo
100
AcDbLine
10
-11.4427616926504
20
10.7954073858372
30
0.000000000000000
11
-11.3427616926504
21
10.7139406264411
31
0.000000000000000
  0
LINE
  5
F109B9
330
F109BA
100
AcDbEntity
8
Geo
100
AcDbLine
10
-11.3427616926504
20
10.7139406264411
30
0.000000000000000
11
-11.2427616926504
21
10.6323120770811
31
0.000000000000000
  0
LINE
  5
F109BB
330
F109BC
100
AcDbEntity
8
Geo
100
AcDbLine
10
-11.2427616926504
20
10.6323120770811
30
0.000000000000000
11
-11.1427616926504
21
10.5505334669426
31
0.000000000000000
  0
LINE
  5
F109BD
330
F109BE
100
AcDbEntity
8
Geo
100
AcDbLine
10
-11.1427616926504
20
10.5505334669426
30
0.000000000000000
11
-11.0427616926504
21
10.4686165467736
31
0.000000000000000
  0
LINE
  5
F109BF
330
F109C0
100
AcDbEntity
8
Geo
100
AcDbLine
10
-11.0427616926504
20
10.4686165467736
30
0.000000000000000
11
-10.9427616926504
21
10.3865730871956
31
0.000000000000000
  0
LINE
  5
F109C1
330
F109C2
100
AcDbEntity
8
Geo
100
AcDbLine
10
-10.9427616926504
20
10.3865730871956
30
0.000000000000000
11
-10.8427616926504
21
10.3044148770124
31
0.000000000000000
  0
LINE
  5
F109C3
330
F109C4
100
AcDbEntity
8
Geo
100
AcDbLine
10
-10.8427616926504
20
10.3044148770124
30
0.000000000000000
11
-10.7427616926504
21
10.2221537215167
31
0.000000000000000
  0
LINE
  5
F109C5
330
F109C6
100
AcDbEntity
8
Geo
100
AcDbLine
10
-10.7427616926504
20
10.2221537215167
30
0.000000000000000
11
-10.6427616926504
21
10.1398014407928
31
0.000000000000000
  0
LINE
  5
F109C7
330
F109C8
100
AcDbEntity
8
Geo
100
AcDbLine
10
-10.6427616926504
20
10.1398014407928
30
0.000000000000000
11
-10.5427616926504
21
10.0573698680193
31
0.000000000000000
  0
LINE
  5
F109C9
330
F109CA
100
AcDbEntity
8
Geo
100
AcDbLine
10
-10.5427616926504
20
10.0573698680193
30
0.000000000000000
11
-10.4427616926504
21
9.97487084776799
31
0.000000000000000
  0
LINE
  5
F109CB
330
F109CC
100
AcDbEntity
8
Geo
100
AcDbLine
10
-10.4427616926504
20
9.97487084776799
30
0.000000000000000
11
-10.3427616926504
21
9.89231623430218
31
0.000000000000000
  0
LINE
  5
F109CD
330
F109CE
100
AcDbEntity
8
Geo
100
AcDbLine
10
-10.3427616926504
20
9.89231623430218
30
0.000000000000000
11
-10.2427616926504
21
9.80971788987340
31
0.000000000000000
  0
LINE
  5
F109CF
330
F109D0
100
AcDbEntity
8
Geo
100
AcDbLine
10
-10.2427616926504
20
9.80971788987340
30
0.000000000000000
11
-10.1427616926504
21
9.72708768301687
31
0.000000000000000
  0
LINE
  5
F109D1
330
F109D2
100
AcDbEntity
8
Geo
100
AcDbLine
10
-10.1427616926504
20
9.72708768301687
30
0.000000000000000
11
-10.0427616926504
21
9.64443748684610
31
0.000000000000000
  0
LINE
  5
F109D3
330
F109D4
100
AcDbEntity
8
Geo
100
AcDbLine
10
-10.0427616926504
20
9.64443748684610
30
0.000000000000000
11
-9.94276169265036
21
9.56177917734687
31
0.000000000000000
  0
LINE
  5
F109D5
330
F109D6
100
AcDbEntity
8
Geo
100
AcDbLine
10
-9.94276169265036
20
9.56177917734687
30
0.000000000000000
11
-9.84276169265036
21
9.47912463167075
31
0.000000000000000
  0
LINE
  5
F109D7
330
F109D8
100
AcDbEntity
8
Geo
100
AcDbLine
10
-9.84276169265036
20
9.47912463167075
30
0.000000000000000
11
-9.74276169265036
21
9.39648572642848
31
0.000000000000000
  0
LINE
  5
F109D9
330
F109DA
100
AcDbEntity
8
Geo
100
AcDbLine
10
-9.74276169265036
20
9.39648572642848
30
0.000000000000000
11
-9.64276169265036
21
9.31387433598348
31
0.000000000000000
  0
LINE
  5
F109DB
330
F109DC
100
AcDbEntity
8
Geo
100
AcDbLine
10
-9.64276169265036
20
9.31387433598348
30
0.000000000000000
11
-9.54276169265036
21
9.23130233074551
31
0.000000000000000
  0
LINE
  5
F109DD
330
F109DE
100
AcDbEntity
8
Geo
100
AcDbLine
10
-9.54276169265036
20
9.23130233074551
30
0.000000000000000
11
-9.44276169265036
21
9.14878157546512
31
0.000000000000000
  0
LINE
  5
F109DF
330
F109E0
100
AcDbEntity
8
Geo
100
AcDbLine
10
-9.44276169265036
20
9.14878157546512
30
0.000000000000000
11
-9.34276169265036
21
9.06632392752875
31
0.000000000000000
  0
LINE
  5
F109E1
330
F109E2
100
AcDbEntity
8
Geo
100
AcDbLine
10
-9.34276169265036
20
9.06632392752875
30
0.000000000000000
11
-9.24276169265035
21
8.98394123525497
31
0.000000000000000
  0
LINE
  5
F109E3
330
F109E4
100
AcDbEntity
8
Geo
100
AcDbLine
10
-9.24276169265035
20
8.98394123525497
30
0.000000000000000
11
-9.14276169265035
21
8.90164533619199
31
0.000000000000000
  0
LINE
  5
F109E5
330
F109E6
100
AcDbEntity
8
Geo
100
AcDbLine
10
-9.14276169265035
20
8.90164533619199
30
0.000000000000000
11
-9.04276169265035
21
8.81944805541672
31
0.000000000000000
  0
LINE
  5
F109E7
330
F109E8
100
AcDbEntity
8
Geo
100
AcDbLine
10
-9.04276169265035
20
8.81944805541672
30
0.000000000000000
11
-8.94276169265035
21
8.73736120383563
31
0.000000000000000
  0
LINE
  5
F109E9
330
F109EA
100
AcDbEntity
8
Geo
100
AcDbLine
10
-8.94276169265035
20
8.73736120383563
30
0.000000000000000
11
-8.84276169265035
21
8.65539657648766
31
0.000000000000000
  0
LINE
  5
F109EB
330
F109EC
100
AcDbEntity
8
Geo
100
AcDbLine
10
-8.84276169265035
20
8.65539657648766
30
0.000000000000000
11
-8.74276169265035
21
8.57356595084938
31
0.000000000000000
  0
LINE
  5
F109ED
330
F109EE
100
AcDbEntity
8
Geo
100
AcDbLine
10
-8.74276169265035
20
8.57356595084938
30
0.000000000000000
11
-8.64276169265035
21
8.49188108514267
31
0.000000000000000
  0
LINE
  5
F109EF
330
F109F0
100
AcDbEntity
8
Geo
100
AcDbLine
10
-8.64276169265035
20
8.49188108514267
30
0.000000000000000
11
-8.54276169265034
21
8.41035371664522
31
0.000000000000000
  0
LINE
  5
F109F1
330
F109F2
100
AcDbEntity
8
Geo
100
AcDbLine
10
-8.54276169265034
20
8.41035371664522
30
0.000000000000000
11
-8.44276169265034
21
8.32899556000398
31
0.000000000000000
  0
LINE
  5
F109F3
330
F109F4
100
AcDbEntity
8
Geo
100
AcDbLine
10
-8.44276169265034
20
8.32899556000398
30
0.000000000000000
11
-8.34276169265034
21
8.24781830555188
31
0.000000000000000
  0
LINE
  5
F109F5
330
F109F6
100
AcDbEntity
8
Geo
100
AcDbLine
10
-8.34276169265034
20
8.24781830555188
30
0.000000000000000
11
-8.24276169265034
21
8.16683361762809
31
0.000000000000000
  0
LINE
  5
F109F7
330
F109F8
100
AcDbEntity
8
Geo
100
AcDbLine
10
-8.24276169265034
20
8.16683361762809
30
0.000000000000000
11
-8.14276169265034
21
8.08605313290192
31
0.000000000000000
  0
LINE
  5
F109F9
330
F109FA
100
AcDbEntity
8
Geo
100
AcDbLine
10
-8.14276169265034
20
8.08605313290192
30
0.000000000000000
11
-8.04276169265034
21
8.00548845870077
31
0.000000000000000
  0
LINE
  5
F109FB
330
F109FC
100
AcDbEntity
8
Geo
100
AcDbLine
10
-8.04276169265034
20
8.00548845870077
30
0.000000000000000
11
-7.94276169265034
21
7.92515117134230
31
0.000000000000000
  0
LINE
  5
F109FD
330
F109FE
100
AcDbEntity
8
Geo
100
AcDbLine
10
-7.94276169265034
20
7.92515117134230
30
0.000000000000000
11
-7.84276169265033
21
7.84505281447100
31
0.000000000000000
  0
LINE
  5
F109FF
330
F10A00
100
AcDbEntity
8
Geo
100
AcDbLine
10
-7.84276169265033
20
7.84505281447100
30
0.000000000000000
11
-7.74276169265033
21
7.76520489739950
31
0.000000000000000
  0
LINE
  5
F10A01
330
F10A02
100
AcDbEntity
8
Geo
100
AcDbLine
10
-7.74276169265033
20
7.76520489739950
30
0.000000000000000
11
-7.64276169265033
21
7.68561889345480
31
0.000000000000000
  0
LINE
  5
F10A03
330
F10A04
100
AcDbEntity
8
Geo
100
AcDbLine
10
-7.64276169265033
20
7.68561889345480
30
0.000000000000000
11
-7.54276169265033
21
7.60630623832968
31
0.000000000000000
  0
LINE
  5
F10A05
330
F10A06
100
AcDbEntity
8
Geo
100
AcDbLine
10
-7.54276169265033
20
7.60630623832968
30
0.000000000000000
11
-7.44276169265033
21
7.52727832843946
31
0.000000000000000
  0
LINE
  5
F10A07
330
F10A08
100
AcDbEntity
8
Geo
100
AcDbLine
10
-7.44276169265033
20
7.52727832843946
30
0.000000000000000
11
-7.34276169265033
21
7.44854651928455
31
0.000000000000000
  0
LINE
  5
F10A09
330
F10A0A
100
AcDbEntity
8
Geo
100
AcDbLine
10
-7.34276169265033
20
7.44854651928455
30
0.000000000000000
11
-7.24276169265033
21
7.37012212381863
31
0.000000000000000
  0
LINE
  5
F10A0B
330
F10A0C
100
AcDbEntity
8
Geo
100
AcDbLine
10
-7.24276169265033
20
7.37012212381863
30
0.000000000000000
11
-7.14276169265032
21
7.29201641082331
31
0.000000000000000
  0
LINE
  5
F10A0D
330
F10A0E
100
AcDbEntity
8
Geo
100
AcDbLine
10
-7.14276169265032
20
7.29201641082331
30
0.000000000000000
11
-7.04276169265032
21
7.21424060328869
31
0.000000000000000
  0
LINE
  5
F10A0F
330
F10A10
100
AcDbEntity
8
Geo
100
AcDbLine
10
-7.04276169265032
20
7.21424060328869
30
0.000000000000000
11
-6.94276169265032
21
7.13680587680086
31
0.000000000000000
  0
LINE
  5
F10A11
330
F10A12
100
AcDbEntity
8
Geo
100
AcDbLine
10
-6.94276169265032
20
7.13680587680086
30
0.000000000000000
11
-6.84276169265032
21
7.05972335793610
31
0.000000000000000
  0
LINE
  5
F10A13
330
F10A14
100
AcDbEntity
8
Geo
100
AcDbLine
10
-6.84276169265032
20
7.05972335793610
30
0.000000000000000
11
-6.84276169265032
21
8.02707917423985
31
0.000000000000000
  0
LINE
  5
F10A15
330
F10A16
100
AcDbEntity
8
Geo
100
AcDbLine
10
-6.84276169265032
20
7.05972335793610
30
0.000000000000000
11
-6.84276169265032
21
4.64822165653024
31
0.000000000000000
  0
LINE
  5
F10A17
330
F10A18
100
AcDbEntity
8
Geo
100
AcDbLine
10
-32.7427616926504
20
9.58797327394207
30
0.000000000000000
11
-32.7427616926504
21
9.58797327394207
31
0.000000000000000
  0
LINE
  5
F10A19
330
F10A1A
100
AcDbEntity
8
Geo
100
AcDbLine
10
-32.7427616926504
20
9.58797327394207
30
0.000000000000000
11
-32.7427616926504
21
9.58797327394207
31
0.000000000000000
  0
LINE
  5
F10A1B
330
F10A1C
100
AcDbEntity
8
Geo
100
AcDbLine
10
50.2572383073496
20
15.7879732739421
30
0.000000000000000
11
50.2572383073496
21
9.58797327394207
31
0.000000000000000
  0
LINE
  5
F10A1D
330
F10A1E
100
AcDbEntity
8
Geo
100
AcDbLine
10
-32.7427616926504
20
9.58797327394207
30
0.000000000000000
11
-32.7427616926504
21
2.78797327394207
31
0.000000000000000
  0
LINE
  5
F10A1F
330
F10A20
100
AcDbEntity
8
Geo
100
AcDbLine
10
-32.7427616926504
20
2.78797327394207
30
0.000000000000000
11
-32.5427616926504
21
2.58797327394207
31
0.000000000000000
  0
LINE
  5
F10A21
330
F10A22
100
AcDbEntity
8
Geo
100
AcDbLine
10
-32.5427616926504
20
2.58797327394207
30
0.000000000000000
11
-6.74276169265042
21
2.58797327394207
31
0.000000000000000
  0
LINE
  5
F10A23
330
F10A24
100
AcDbEntity
8
Geo
100
AcDbLine
10
-6.74276169265042
20
2.58797327394207
30
0.000000000000000
11
-6.74276169265042
21
2.83797327394207
31
0.000000000000000
  0
LINE
  5
F10A25
330
F10A26
100
AcDbEntity
8
Geo
100
AcDbLine
10
-6.74276169265042
20
2.83797327394207
30
0.000000000000000
11
5.25723830734958
21
2.83797327394207
31
0.000000000000000
  0
LINE
  5
F10A27
330
F10A28
100
AcDbEntity
8
Geo
100
AcDbLine
10
5.25723830734958
20
2.83797327394207
30
0.000000000000000
11
5.25723830734958
21
2.58797327394207
31
0.000000000000000
  0
LINE
  5
F10A29
330
F10A2A
100
AcDbEntity
8
Geo
100
AcDbLine
10
5.25723830734958
20
2.58797327394207
30
0.000000000000000
11
49.4572383073496
21
2.58797327394207
31
0.000000000000000
  0
LINE
  5
F10A2B
330
F10A2C
100
AcDbEntity
8
Geo
100
AcDbLine
10
49.4572383073496
20
2.58797327394207
30
0.000000000000000
11
50.2572383073496
21
3.38797327394207
31
0.000000000000000
  0
LINE
  5
F10A2D
330
F10A2E
100
AcDbEntity
8
Geo
100
AcDbLine
10
-32.7427616926504
20
16.3879732739421
30
0.000000000000000
11
-32.7427616926504
21
2.78797327394207
31
0.000000000000000
  0
LINE
  5
F10A2F
330
F10A30
100
AcDbEntity
8
Geo
100
AcDbLine
10
-32.5427616926504
20
16.5879732739421
30
0.000000000000000
11
-32.5427616926504
21
2.58797327394207
31
0.000000000000000
  0
LINE
  5
F10A31
330
F10A32
100
AcDbEntity
8
Geo
100
AcDbLine
10
-6.74276169265042
20
16.5879732739421
30
0.000000000000000
11
-6.74276169265042
21
2.58797327394207
31
0.000000000000000
  0
LINE
  5
F10A33
330
F10A34
100
AcDbEntity
8
Geo
100
AcDbLine
10
-6.74276169265042
20
16.3379732739421
30
0.000000000000000
11
-6.74276169265042
21
2.83797327394207
31
0.000000000000000
  0
LINE
  5
F10A35
330
F10A36
100
AcDbEntity
8
Geo
100
AcDbLine
10
5.25723830734958
20
16.3379732739421
30
0.000000000000000
11
5.25723830734958
21
2.83797327394207
31
0.000000000000000
  0
LINE
  5
F10A37
330
F10A38
100
AcDbEntity
8
Geo
100
AcDbLine
10
5.25723830734958
20
16.5879732739421
30
0.000000000000000
11
5.25723830734958
21
2.58797327394207
31
0.000000000000000
  0
LINE
  5
F10A39
330
F10A3A
100
AcDbEntity
8
Geo
100
AcDbLine
10
49.4572383073496
20
16.5879732739421
30
0.000000000000000
11
49.4572383073496
21
2.58797327394207
31
0.000000000000000
  0
LINE
  5
F10A3B
330
F10A3C
100
AcDbEntity
8
Geo
100
AcDbLine
10
50.2572383073496
20
15.7879732739421
30
0.000000000000000
11
50.2572383073496
21
3.38797327394207
31
0.000000000000000
  0
LWPOLYLINE
  5
F10A3D
330
F10A3E
100
AcDbEntity
8
Rahmen
100
AcDbPolyline
90
   4
70
   1
43
   0.0
 10
-134.699331848552
 20
99.8552338530067
 10
143.351893095768
 20
99.8552338530067
 10
143.351893095768
 20
-100.089086859688
 10
-134.699331848552
 20
-100.089086859688
  0
TEXT
  5
F10A3F
330
F10A40
 100
AcDbEntity
8
Text
100
AcDbText
10
-133.530066815145
20
-99.5890868596882
30
0.000000000000000
40
1.00000000000000
1
ISBESketcher
100
AcDbText
  0
LWPOLYLINE
  5
F10A41
330
F10A42
100
AcDbEntity
8
Rahmen
100
AcDbPolyline
90
   4
70
   1
43
   0.0
 10
103.363028953229
 20
-97.0489977728285
 10
143.351893095768
 20
-97.0489977728285
 10
143.351893095768
 20
-100.089086859688
 10
103.363028953229
 20
-100.089086859688
  0
TEXT
  5
F10A43
330
F10A44
 100
AcDbEntity
8
Text
100
AcDbText
10
104.298440979955
20
-98.0489977728285
30
0.000000000000000
40
0.750000000000000
1
Ers. durch:
100
AcDbText
  0
TEXT
  5
F10A45
330
F10A46
 100
AcDbEntity
8
Text
100
AcDbText
10
131.425389755011
20
-99.4521158129176
30
0.000000000000000
40
0.750000000000000
1

100
AcDbText
  0
LWPOLYLINE
  5
F10A47
330
F10A48
100
AcDbEntity
8
Rahmen
100
AcDbPolyline
90
   4
70
   1
43
   0.0
 10
63.3741648106903
 20
-97.0489977728285
 10
103.363028953229
 20
-97.0489977728285
 10
103.363028953229
 20
-100.089086859688
 10
63.3741648106903
 20
-100.089086859688
  0
TEXT
  5
F10A49
330
F10A4A
 100
AcDbEntity
8
Text
100
AcDbText
10
64.3095768374164
20
-98.0489977728285
30
0.000000000000000
40
0.750000000000000
1
Ers. für:
100
AcDbText
  0
TEXT
  5
F10A4B
330
F10A4C
 100
AcDbEntity
8
Text
100
AcDbText
10
91.2026726057905
20
-99.4521158129176
30
0.000000000000000
40
0.750000000000000
1

100
AcDbText
  0
LWPOLYLINE
  5
F10A4D
330
F10A4E
100
AcDbEntity
8
Rahmen
100
AcDbPolyline
90
   4
70
   1
43
   0.0
 10
130.022271714922
 20
-94.0089086859688
 10
143.351893095768
 20
-94.0089086859688
 10
143.351893095768
 20
-97.0489977728285
 10
130.022271714922
 20
-97.0489977728285
  0
TEXT
  5
F10A4F
330
F10A50
 100
AcDbEntity
8
Text
100
AcDbText
10
130.957683741648
20
-95.0089086859688
30
0.000000000000000
40
0.750000000000000
1
Blätter
100
AcDbText
  0
TEXT
  5
F10A51
330
F10A52
 100
AcDbEntity
8
Text
100
AcDbText
10
141.247216035635
20
-96.4120267260579
30
0.000000000000000
40
0.750000000000000
1

100
AcDbText
  0
LWPOLYLINE
  5
F10A53
330
F10A54
100
AcDbEntity
8
Rahmen
100
AcDbPolyline
90
   4
70
   1
43
   0.0
 10
130.022271714922
 20
-91.2026726057906
 10
143.351893095768
 20
-91.2026726057906
 10
143.351893095768
 20
-94.0089086859688
 10
130.022271714922
 20
-94.0089086859688
  0
TEXT
  5
F10A55
330
F10A56
 100
AcDbEntity
8
Text
100
AcDbText
10
130.957683741648
20
-92.2026726057906
30
0.000000000000000
40
0.750000000000000
1
Blatt
100
AcDbText
  0
TEXT
  5
F10A57
330
F10A58
 100
AcDbEntity
8
Text
100
AcDbText
10
141.247216035635
20
-93.6057906458797
30
0.000000000000000
40
0.750000000000000
1

100
AcDbText
  0
LWPOLYLINE
  5
F10A59
330
F10A5A
100
AcDbEntity
8
Rahmen
100
AcDbPolyline
90
   4
70
   1
43
   0.0
 10
63.3741648106903
 20
-91.2026726057906
 10
130.022271714922
 20
-91.2026726057906
 10
130.022271714922
 20
-97.0489977728285
 10
63.3741648106903
 20
-97.0489977728285
  0
TEXT
  5
F10A5B
330
F10A5C
 100
AcDbEntity
8
Text
100
AcDbText
10
64.3095768374164
20
-92.2026726057906
30
0.000000000000000
40
0.750000000000000
1
Datum:
100
AcDbText
  0
TEXT
  5
F10A5D
330
F10A5E
 100
AcDbEntity
8
Text
100
AcDbText
10
90.2672605790645
20
-95.0089086859688
30
0.000000000000000
40
0.750000000000000
1
27.08.2013
100
AcDbText
  0
LWPOLYLINE
  5
F10A5F
330
F10A60
100
AcDbEntity
8
Rahmen
100
AcDbPolyline
90
   4
70
   1
43
   0.0
 10
63.3741648106903
 20
-85.1224944320713
 10
143.351893095768
 20
-85.1224944320713
 10
143.351893095768
 20
-91.2026726057906
 10
63.3741648106903
 20
-91.2026726057906
  0
TEXT
  5
F10A61
330
F10A62
 100
AcDbEntity
8
Text
100
AcDbText
10
-230.111358574610
20
102.766146993318
30
0.000000000000000
40
1.50000000000000
1

100
AcDbText
  0
TEXT
  5
F10A63
330
F10A64
 100
AcDbEntity
8
Text
100
AcDbText
10
92.3719376391981
20
-88.9235337787676
30
0.000000000000000
40
2.50000000000000
1
1835-140W
100
AcDbText
  0
LWPOLYLINE
  5
F10A65
330
F10A66
100
AcDbEntity
8
Rahmen
100
AcDbPolyline
90
   4
70
   1
43
   0.0
 10
103.363028953229
 20
-79.0423162583519
 10
143.351893095768
 20
-79.0423162583519
 10
143.351893095768
 20
-85.1224944320713
 10
103.363028953229
 20
-85.1224944320713
  0
TEXT
  5
F10A67
330
F10A68
 100
AcDbEntity
8
Text
100
AcDbText
10
104.298440979955
20
-80.0423162583519
30
0.000000000000000
40
0.750000000000000
1
Zu bearb. Material:
100
AcDbText
  0
TEXT
  5
F10A69
330
F10A6A
 100
AcDbEntity
8
Text
100
AcDbText
10
123.240534521158
20
-84.4855233853007
30
0.000000000000000
40
0.750000000000000
1

100
AcDbText
  0
LWPOLYLINE
  5
F10A6B
330
F10A6C
100
AcDbEntity
8
Rahmen
100
AcDbPolyline
90
   4
70
   1
43
   0.0
 10
63.3741648106903
 20
-79.0423162583519
 10
103.363028953229
 20
-79.0423162583519
 10
103.363028953229
 20
-85.1224944320713
 10
63.3741648106903
 20
-85.1224944320713
  0
TEXT
  5
F10A6D
330
F10A6E
 100
AcDbEntity
8
Text
100
AcDbText
10
64.3095768374164
20
-80.0423162583519
30
0.000000000000000
40
0.750000000000000
1
Werkstoff:
100
AcDbText
  0
TEXT
  5
F10A6F
330
F10A70
 100
AcDbEntity
8
Text
100
AcDbText
10
83.2516703786190
20
-84.4855233853007
30
0.000000000000000
40
0.750000000000000
1

100
AcDbText
  0
LWPOLYLINE
  5
F10A71
330
F10A72
100
AcDbEntity
8
Rahmen
100
AcDbPolyline
90
   4
70
   1
43
   0.0
 10
103.363028953229
 20
-76.0022271714922
 10
143.351893095768
 20
-76.0022271714922
 10
143.351893095768
 20
-79.0423162583519
 10
103.363028953229
 20
-79.0423162583519
  0
TEXT
  5
F10A73
330
F10A74
 100
AcDbEntity
8
Text
100
AcDbText
10
-230.111358574610
20
102.766146993318
30
0.000000000000000
40
1.50000000000000
1

100
AcDbText
  0
TEXT
  5
F10A75
330
F10A76
 100
AcDbEntity
8
Text
100
AcDbText
10
123.240534521158
20
-78.4053452115813
30
0.000000000000000
40
0.750000000000000
1

100
AcDbText
  0
LWPOLYLINE
  5
F10A77
330
F10A78
100
AcDbEntity
8
Rahmen
100
AcDbPolyline
90
   4
70
   1
43
   0.0
 10
63.3741648106903
 20
-76.0022271714922
 10
103.363028953229
 20
-76.0022271714922
 10
103.363028953229
 20
-79.0423162583519
 10
63.3741648106903
 20
-79.0423162583519
  0
TEXT
  5
F10A79
330
F10A7A
 100
AcDbEntity
8
Text
100
AcDbText
10
64.3095768374164
20
-77.0022271714922
30
0.000000000000000
40
0.750000000000000
1
Maßstab:
100
AcDbText
  0
TEXT
  5
F10A7B
330
F10A7C
 100
AcDbEntity
8
Text
100
AcDbText
10
88.6302895322939
20
-77.0022271714922
30
0.000000000000000
40
0.750000000000000
1
1 : 1
100
AcDbText
0
VIEWPORT
5
294
102
{ACAD_XDICTIONARY
360
58A
102
}
330
25D
100
AcDbEntity
67
1
8
0
60
1
100
AcDbViewport
10
0.0
20
0.0
30
0.0
40
10.0
41
10.0
68
-1
69
1
12
0.0
22
0.0
13
0.0
23
0.0
14
1.0
24
1.0
15
0.0
25
0.0
16
0.0
26
0.0
36
1.0
17
0.0
27
0.0
37
0.0
42
0.0
43
0.0
44
0.0
45
10.0
50
0.0
51
0.0000000000007958
72
100
90
32800
1

281
0
71
0
74
0
110
0.0
120
0.0
130
0.0
111
1.0
121
0.0
131
0.0
112
0.0
122
1.0
132
0.0
79
0
146
0.0
1001
VD_INVISIBLE_NOT_FOR_READ
1000
VD_INVISIBLE_NOT_FOR_READ
0
VIEWPORT
5
295
102
{ACAD_XDICTIONARY
360
58C
102
}
330
25D
100
AcDbEntity
67
1
8
0
60
1
100
AcDbViewport
10
0.0
20
0.0
30
0.0
40
10.0
41
10.0
68
0
69
2
12
0.0
22
0.0
13
0.0
23
0.0
14
1.0
24
1.0
15
0.0
25
0.0
16
0.0
26
0.0
36
1.0
17
0.0
27
0.0
37
0.0
42
0.0
43
0.0
44
0.0
45
10.0
50
0.0
51
0.0000000000007958
72
100
90
163872
1

281
0
71
0
74
0
110
0.0
120
0.0
130
0.0
111
1.0
121
0.0
131
0.0
112
0.0
122
1.0
132
0.0
79
0
146
0.0
1001
VD_INVISIBLE_NOT_FOR_READ
1000
VD_INVISIBLE_NOT_FOR_READ
0
ENDSEC
0
SECTION
2
OBJECTS
0
DICTIONARY
5
13
330
0
100
AcDbDictionary
281
1
3
ACAD_COLOR
350
FA7
3
ACAD_GROUP
350
14
3
ACAD_LAYOUT
350
FCF
3
ACAD_MATERIAL
350
F7A
3
ACAD_MLEADERSTYLE
350
FCD
3
ACAD_MLINESTYLE
350
16
3
ACAD_PLOTSETTINGS
350
17
3
ACAD_PLOTSTYLENAME
350
18
3
ACAD_SCALELIST
350
FAB
3
ACAD_TABLESTYLE
350
FA8
3
ACAD_VISUALSTYLE
350
F93
3
ACDB_RECOMPOSE_DATA
350
107E
3
AcDbVariableDictionary
350
FF0
3
DWGPROPS
350
107F
0
DICTIONARY
5
F1000F
330
F1000E
100
AcDbDictionary
280
1
281
1
3
ACAD_MTEXT_2008_RT
360
F10010
0
DICTIONARY
5
F10014
330
F10013
100
AcDbDictionary
280
1
281
1
3
ACAD_MTEXT_2008_RT
360
F10015
0
DICTIONARY
5
F1001E
330
F1001D
100
AcDbDictionary
280
1
281
1
3
ACAD_MTEXT_2008_RT
360
F1001F
0
DICTIONARY
5
F10023
330
F10022
100
AcDbDictionary
280
1
281
1
3
ACAD_MTEXT_2008_RT
360
F10024
0
DICTIONARY
5
F10005
330
F10004
100
AcDbDictionary
280
1
281
1
3
ACAD_MTEXT_2008_RT
360
F10006
0
DICTIONARY
5
F1000A
330
F10009
100
AcDbDictionary
280
1
281
1
3
ACAD_MTEXT_2008_RT
360
F1000B
0
DICTIONARY
5
F10019
330
F10018
100
AcDbDictionary
280
1
281
1
3
ACAD_MTEXT_2008_RT
360
F1001A
0
DICTIONARY
5
FA7
102
{ACAD_REACTORS
330
13
102
}
330
13
100
AcDbDictionary
281
1
0
DICTIONARY
5
14
330
13
100
AcDbDictionary
281
1
0
DICTIONARY
5
FCF
102
{ACAD_REACTORS
330
13
102
}
330
13
100
AcDbDictionary
281
1
3
Layout1
350
FD1
3
Model
350
FD0
0
DICTIONARY
5
F7A
102
{ACAD_REACTORS
330
13
102
}
330
13
100
AcDbDictionary
281
1
3
ByBlock
350
F83
3
ByLayer
350
F7B
3
Global
350
F8B
0
DICTIONARY
5
FCD
102
{ACAD_REACTORS
330
13
102
}
330
13
100
AcDbDictionary
281
1
3
Standard
350
FCE
0
DICTIONARY
5
16
330
13
100
AcDbDictionary
281
1
3
Standard
350
FAA
0
DICTIONARY
5
17
102
{ACAD_REACTORS
330
13
102
}
330
13
100
AcDbDictionary
281
1
0
ACDBDICTIONARYWDFLT
5
18
102
{ACAD_REACTORS
330
13
102
}
330
13
100
AcDbDictionary
281
1
3
Normal
350
19
100
AcDbDictionaryWithDefault
340
19
0
DICTIONARY
5
FAB
102
{ACAD_REACTORS
330
13
102
}
330
13
100
AcDbDictionary
281
1
3
A0
350
FAC
3
A1
350
FAD
3
A2
350
FAE
3
A3
350
FAF
3
A4
350
FB0
3
A5
350
FB1
3
A6
350
FB2
3
A7
350
FB3
3
A8
350
FB4
3
A9
350
FB5
3
B0
350
FB6
3
B1
350
FB7
3
B2
350
FB8
3
B3
350
FB9
3
B4
350
FBA
3
B5
350
FBB
3
B6
350
FBC
3
B7
350
FBD
3
B8
350
FBE
3
B9
350
FBF
3
C0
350
FC0
3
C1
350
FC1
3
C2
350
FC2
3
C3
350
FC3
3
C4
350
FC4
3
C5
350
FC5
3
C6
350
FC6
3
C7
350
FC7
3
C8
350
FC8
3
C9
350
FC9
3
D0
350
FCA
3
D1
350
FCB
3
D2
350
FCC
0
DICTIONARY
5
FA8
102
{ACAD_REACTORS
330
13
102
}
330
13
100
AcDbDictionary
281
1
3
Standard
350
FA9
0
DICTIONARY
5
F93
102
{ACAD_REACTORS
330
13
102
}
330
13
100
AcDbDictionary
281
1
3
2dWireframe
350
F99
3
3D Hidden
350
F9B
3
3dWireframe
350
F9A
3
Basic
350
F98
3
Brighten
350
F9F
3
ColorChange
350
FA3
3
Conceptual
350
F9C
3
Dim
350
F9E
3
EdgeColorOff
350
FA6
3
Facepattern
350
FA2
3
Flat
350
F94
3
FlatWithEdges
350
F95
3
Gouraud
350
F96
3
GouraudWithEdges
350
F97
3
JitterOff
350
FA4
3
Linepattern
350
FA1
3
OverhangOff
350
FA5
3
Realistic
350
F9D
3
Thicken
350
FA0
0
XRECORD
5
107E
102
{ACAD_REACTORS
330
13
102
}
330
13
100
AcDbXrecord
280
1
90
1
330
FA9
330
F1000E
330
F10013
330
F1001D
330
F10022
330
F10004
330
F10009
330
F10018
0
XRECORD
5
F10010
102
{ACAD_REACTORS
330
F1000F
102
}
330
F1000F
100
AcDbXrecord
280
1
40
48458.0
1
\A1;38
0
XRECORD
5
F10015
102
{ACAD_REACTORS
330
F10014
102
}
330
F10014
100
AcDbXrecord
280
1
40
48458.0
1
\A1;45
0
XRECORD
5
F1001F
102
{ACAD_REACTORS
330
F1001E
102
}
330
F1001E
100
AcDbXrecord
280
1
40
48458.0
1
\A1;26
0
XRECORD
5
F10024
102
{ACAD_REACTORS
330
F10023
102
}
330
F10023
100
AcDbXrecord
280
1
40
48458.0
1
\A1;83
0
XRECORD
5
F10006
102
{ACAD_REACTORS
330
F10005
102
}
330
F10005
100
AcDbXrecord
280
1
40
48458.0
1
\A1;14
0
XRECORD
5
F1000B
102
{ACAD_REACTORS
330
F1000A
102
}
330
F1000A
100
AcDbXrecord
280
1
40
48458.0
1
\A1;13.5
0
LAYOUT
5
FD1
102
{ACAD_XDICTIONARY
360
10A9
102
}
102
{ACAD_REACTORS
330
FCF
102
}
330
FCF
100
AcDbPlotSettings
1

2
Microsoft XPS Document Writer
4

6

40
0.0
41
0.0
42
0.0
43
0.0
44
0.0
45
0.0
46
0.0
47
0.0
48
0.0
49
0.0
140
0.0
141
0.0
142
1.0
143
1.0
70
688
72
0
73
0
74
5
7

75
16
147
1.0
148
0.0
149
0.0
100
AcDbLayout
1
Layout1
70
1
71
1
10
0.0
20
0.0
11
12.0
21
9.0
12
0.0
22
0.0
32
0.0
14
1.000000000000000E+20
24
1.000000000000000E+20
34
1.000000000000000E+20
15
-1.000000000000000E+20
25
-1.000000000000000E+20
35
-1.000000000000000E+20
146
0.0
13
0.0
23
0.0
33
0.0
16
1.0
26
0.0
36
0.0
17
0.0
27
1.0
37
0.0
76
0
330
25D
0
LAYOUT
5
FD0
102
{ACAD_XDICTIONARY
360
10A7
102
}
102
{ACAD_REACTORS
330
FCF
102
}
330
FCF
100
AcDbPlotSettings
1

2
Microsoft XPS Document Writer
4

6

40
0.0
41
0.0
42
0.0
43
0.0
44
0.0
45
0.0
46
0.0
47
0.0
48
0.0
49
0.0
140
0.0
141
0.0
142
1.0
143
1.0
70
1712
72
0
73
0
74
0
7

75
0
147
1.0
148
0.0
149
0.0
100
AcDbLayout
1
Model
70
1
71
0
10
0.0
20
0.0
11
12.0
21
9.0
12
0.0
22
0.0
32
0.0
14
0.0
24
0.0
34
0.0
15
0.0
25
0.0
35
0.0
146
0.0
13
0.0
23
0.0
33
0.0
16
1.0
26
0.0
36
0.0
17
0.0
27
1.0
37
0.0
76
0
330
261
331
26B
0
MATERIAL
5
F83
102
{ACAD_XDICTIONARY
360
F84
102
}
102
{ACAD_REACTORS
330
F7A
102
}
330
F7A
100
AcDbMaterial
1
ByBlock
72
0
43
0.0208333333333333
43
0.0
43
0.0
43
0.0
43
0.0
43
0.0208333333333333
43
0.0
43
0.0
43
0.0
43
0.0
43
1.0
43
0.0
43
0.0
43
0.0
43
0.0
43
1.0
77
0
47
0.0208333333333333
47
0.0
47
0.0
47
0.0
47
0.0
47
0.0208333333333333
47
0.0
47
0.0
47
0.0
47
0.0
47
1.0
47
0.0
47
0.0
47
0.0
47
0.0
47
1.0
171
0
49
0.0208333333333333
49
0.0
49
0.0
49
0.0
49
0.0
49
0.0208333333333333
49
0.0
49
0.0
49
0.0
49
0.0
49
1.0
49
0.0
49
0.0
49
0.0
49
0.0
49
1.0
175
0
142
0.0208333333333333
142
0.0
142
0.0
142
0.0
142
0.0
142
0.0208333333333333
142
0.0
142
0.0
142
0.0
142
0.0
142
1.0
142
0.0
142
0.0
142
0.0
142
0.0
142
1.0
179
0
144
0.0208333333333333
144
0.0
144
0.0
144
0.0
144
0.0
144
0.0208333333333333
144
0.0
144
0.0
144
0.0
144
0.0
144
1.0
144
0.0
144
0.0
144
0.0
144
0.0
144
1.0
147
0.0208333333333333
147
0.0
147
0.0
147
0.0
147
0.0
147
0.0208333333333333
147
0.0
147
0.0
147
0.0
147
0.0
147
1.0
147
0.0
147
0.0
147
0.0
147
0.0
147
1.0
0
MATERIAL
5
F7B
102
{ACAD_XDICTIONARY
360
F7C
102
}
102
{ACAD_REACTORS
330
F7A
102
}
330
F7A
100
AcDbMaterial
1
ByLayer
72
0
43
0.0208333333333333
43
0.0
43
0.0
43
0.0
43
0.0
43
0.0208333333333333
43
0.0
43
0.0
43
0.0
43
0.0
43
1.0
43
0.0
43
0.0
43
0.0
43
0.0
43
1.0
77
0
47
0.0208333333333333
47
0.0
47
0.0
47
0.0
47
0.0
47
0.0208333333333333
47
0.0
47
0.0
47
0.0
47
0.0
47
1.0
47
0.0
47
0.0
47
0.0
47
0.0
47
1.0
171
0
49
0.0208333333333333
49
0.0
49
0.0
49
0.0
49
0.0
49
0.0208333333333333
49
0.0
49
0.0
49
0.0
49
0.0
49
1.0
49
0.0
49
0.0
49
0.0
49
0.0
49
1.0
175
0
142
0.0208333333333333
142
0.0
142
0.0
142
0.0
142
0.0
142
0.0208333333333333
142
0.0
142
0.0
142
0.0
142
0.0
142
1.0
142
0.0
142
0.0
142
0.0
142
0.0
142
1.0
179
0
144
0.0208333333333333
144
0.0
144
0.0
144
0.0
144
0.0
144
0.0208333333333333
144
0.0
144
0.0
144
0.0
144
0.0
144
1.0
144
0.0
144
0.0
144
0.0
144
0.0
144
1.0
147
0.0208333333333333
147
0.0
147
0.0
147
0.0
147
0.0
147
0.0208333333333333
147
0.0
147
0.0
147
0.0
147
0.0
147
1.0
147
0.0
147
0.0
147
0.0
147
0.0
147
1.0
0
MATERIAL
5
F8B
102
{ACAD_XDICTIONARY
360
F8C
102
}
102
{ACAD_REACTORS
330
F7A
102
}
330
F7A
100
AcDbMaterial
1
Global
72
0
43
0.0208333333333333
43
0.0
43
0.0
43
0.0
43
0.0
43
0.0208333333333333
43
0.0
43
0.0
43
0.0
43
0.0
43
1.0
43
0.0
43
0.0
43
0.0
43
0.0
43
1.0
77
0
47
0.0208333333333333
47
0.0
47
0.0
47
0.0
47
0.0
47
0.0208333333333333
47
0.0
47
0.0
47
0.0
47
0.0
47
1.0
47
0.0
47
0.0
47
0.0
47
0.0
47
1.0
171
0
49
0.0208333333333333
49
0.0
49
0.0
49
0.0
49
0.0
49
0.0208333333333333
49
0.0
49
0.0
49
0.0
49
0.0
49
1.0
49
0.0
49
0.0
49
0.0
49
0.0
49
1.0
175
0
142
0.0208333333333333
142
0.0
142
0.0
142
0.0
142
0.0
142
0.0208333333333333
142
0.0
142
0.0
142
0.0
142
0.0
142
1.0
142
0.0
142
0.0
142
0.0
142
0.0
142
1.0
179
0
144
0.0208333333333333
144
0.0
144
0.0
144
0.0
144
0.0
144
0.0208333333333333
144
0.0
144
0.0
144
0.0
144
0.0
144
1.0
144
0.0
144
0.0
144
0.0
144
0.0
144
1.0
147
0.0208333333333333
147
0.0
147
0.0
147
0.0
147
0.0
147
0.0208333333333333
147
0.0
147
0.0
147
0.0
147
0.0
147
1.0
147
0.0
147
0.0
147
0.0
147
0.0
147
1.0
0
MLEADERSTYLE
5
FCE
102
{ACAD_REACTORS
330
FCD
102
}
330
FCD
100
AcDbMLeaderStyle
170
2
171
1
172
0
90
2
40
0.0
41
0.0
173
1
91
-1056964608
340
256
92
-2
290
1
42
0.09
291
1
43
0.36
3
Standard
44
0.18
300

342
253
174
1
178
6
175
1
176
0
93
-1056964608
45
0.18
292
0
297
0
46
0.18
94
-1056964608
47
1.0
49
1.0
140
1.0
293
1
141
0.0
294
1
177
0
142
1.0
295
0
296
0
143
0.125
1001
ACAD_MLEADERVER
1070
2
0
MLINESTYLE
5
FAA
102
{ACAD_REACTORS
330
16
102
}
330
16
100
AcDbMlineStyle
2
STANDARD
70
0
3

62
256
51
90.0
52
90.0
71
2
49
0.5
62
256
6
BYLAYER
49
-0.5
62
256
6
BYLAYER
0
ACDBPLACEHOLDER
5
19
102
{ACAD_REACTORS
330
18
102
}
330
18
0
SCALE
5
FAC
102
{ACAD_REACTORS
330
FAB
102
}
330
FAB
100
AcDbScale
70
0
300
1:1
140
1.0
141
1.0
290
1
0
SCALE
5
FAD
102
{ACAD_REACTORS
330
FAB
102
}
330
FAB
100
AcDbScale
70
0
300
1:2
140
1.0
141
2.0
290
0
0
SCALE
5
FAE
102
{ACAD_REACTORS
330
FAB
102
}
330
FAB
100
AcDbScale
70
0
300
1:4
140
1.0
141
4.0
290
0
0
SCALE
5
FAF
102
{ACAD_REACTORS
330
FAB
102
}
330
FAB
100
AcDbScale
70
0
300
1:5
140
1.0
141
5.0
290
0
0
SCALE
5
FB0
102
{ACAD_REACTORS
330
FAB
102
}
330
FAB
100
AcDbScale
70
0
300
1:8
140
1.0
141
8.0
290
0
0
SCALE
5
FB1
102
{ACAD_REACTORS
330
FAB
102
}
330
FAB
100
AcDbScale
70
0
300
1:10
140
1.0
141
10.0
290
0
0
SCALE
5
FB2
102
{ACAD_REACTORS
330
FAB
102
}
330
FAB
100
AcDbScale
70
0
300
1:16
140
1.0
141
16.0
290
0
0
SCALE
5
FB3
102
{ACAD_REACTORS
330
FAB
102
}
330
FAB
100
AcDbScale
70
0
300
1:20
140
1.0
141
20.0
290
0
0
SCALE
5
FB4
102
{ACAD_REACTORS
330
FAB
102
}
330
FAB
100
AcDbScale
70
0
300
1:30
140
1.0
141
30.0
290
0
0
SCALE
5
FB5
102
{ACAD_REACTORS
330
FAB
102
}
330
FAB
100
AcDbScale
70
0
300
1:40
140
1.0
141
40.0
290
0
0
SCALE
5
FB6
102
{ACAD_REACTORS
330
FAB
102
}
330
FAB
100
AcDbScale
70
0
300
1:50
140
1.0
141
50.0
290
0
0
SCALE
5
FB7
102
{ACAD_REACTORS
330
FAB
102
}
330
FAB
100
AcDbScale
70
0
300
1:100
140
1.0
141
100.0
290
0
0
SCALE
5
FB8
102
{ACAD_REACTORS
330
FAB
102
}
330
FAB
100
AcDbScale
70
0
300
2:1
140
2.0
141
1.0
290
0
0
SCALE
5
FB9
102
{ACAD_REACTORS
330
FAB
102
}
330
FAB
100
AcDbScale
70
0
300
4:1
140
4.0
141
1.0
290
0
0
SCALE
5
FBA
102
{ACAD_REACTORS
330
FAB
102
}
330
FAB
100
AcDbScale
70
0
300
8:1
140
8.0
141
1.0
290
0
0
SCALE
5
FBB
102
{ACAD_REACTORS
330
FAB
102
}
330
FAB
100
AcDbScale
70
0
300
10:1
140
10.0
141
1.0
290
0
0
SCALE
5
FBC
102
{ACAD_REACTORS
330
FAB
102
}
330
FAB
100
AcDbScale
70
0
300
100:1
140
100.0
141
1.0
290
0
0
SCALE
5
FBD
102
{ACAD_REACTORS
330
FAB
102
}
330
FAB
100
AcDbScale
70
0
300
1/128" = 1'-0"
140
0.0078125
141
12.0
290
0
0
SCALE
5
FBE
102
{ACAD_REACTORS
330
FAB
102
}
330
FAB
100
AcDbScale
70
0
300
1/64" = 1'-0"
140
0.015625
141
12.0
290
0
0
SCALE
5
FBF
102
{ACAD_REACTORS
330
FAB
102
}
330
FAB
100
AcDbScale
70
0
300
1/32" = 1'-0"
140
0.03125
141
12.0
290
0
0
SCALE
5
FC0
102
{ACAD_REACTORS
330
FAB
102
}
330
FAB
100
AcDbScale
70
0
300
1/16" = 1'-0"
140
0.0625
141
12.0
290
0
0
SCALE
5
FC1
102
{ACAD_REACTORS
330
FAB
102
}
330
FAB
100
AcDbScale
70
0
300
3/32" = 1'-0"
140
0.09375
141
12.0
290
0
0
SCALE
5
FC2
102
{ACAD_REACTORS
330
FAB
102
}
330
FAB
100
AcDbScale
70
0
300
1/8" = 1'-0"
140
0.125
141
12.0
290
0
0
SCALE
5
FC3
102
{ACAD_REACTORS
330
FAB
102
}
330
FAB
100
AcDbScale
70
0
300
3/16" = 1'-0"
140
0.1875
141
12.0
290
0
0
SCALE
5
FC4
102
{ACAD_REACTORS
330
FAB
102
}
330
FAB
100
AcDbScale
70
0
300
1/4" = 1'-0"
140
0.25
141
12.0
290
0
0
SCALE
5
FC5
102
{ACAD_REACTORS
330
FAB
102
}
330
FAB
100
AcDbScale
70
0
300
3/8" = 1'-0"
140
0.375
141
12.0
290
0
0
SCALE
5
FC6
102
{ACAD_REACTORS
330
FAB
102
}
330
FAB
100
AcDbScale
70
0
300
1/2" = 1'-0"
140
0.5
141
12.0
290
0
0
SCALE
5
FC7
102
{ACAD_REACTORS
330
FAB
102
}
330
FAB
100
AcDbScale
70
0
300
3/4" = 1'-0"
140
0.75
141
12.0
290
0
0
SCALE
5
FC8
102
{ACAD_REACTORS
330
FAB
102
}
330
FAB
100
AcDbScale
70
0
300
1" = 1'-0"
140
1.0
141
12.0
290
0
0
SCALE
5
FC9
102
{ACAD_REACTORS
330
FAB
102
}
330
FAB
100
AcDbScale
70
0
300
1-1/2" = 1'-0"
140
1.5
141
12.0
290
0
0
SCALE
5
FCA
102
{ACAD_REACTORS
330
FAB
102
}
330
FAB
100
AcDbScale
70
0
300
3" = 1'-0"
140
3.0
141
12.0
290
0
0
SCALE
5
FCB
102
{ACAD_REACTORS
330
FAB
102
}
330
FAB
100
AcDbScale
70
0
300
6" = 1'-0"
140
6.0
141
12.0
290
0
0
SCALE
5
FCC
102
{ACAD_REACTORS
330
FAB
102
}
330
FAB
100
AcDbScale
70
0
300
1'-0" = 1'-0"
140
12.0
141
12.0
290
0
0
TABLESTYLE
5
FA9
102
{ACAD_XDICTIONARY
360
FF8
102
}
102
{ACAD_REACTORS
330
FA8
102
}
330
FA8
100
AcDbTableStyle
3
Standard
70
0
71
0
40
0.06
41
0.06
280
0
281
0
7
Standard
140
0.18
170
2
62
0
63
7
283
0
274
-2
284
1
64
0
275
-2
285
1
65
0
276
-2
286
1
66
0
277
-2
287
1
67
0
278
-2
288
1
68
0
279
-2
289
1
69
0
7
Standard
140
0.25
170
5
62
0
63
7
283
0
274
-2
284
1
64
0
275
-2
285
1
65
0
276
-2
286
1
66
0
277
-2
287
1
67
0
278
-2
288
1
68
0
279
-2
289
1
69
0
7
Standard
140
0.18
170
5
62
0
63
7
283
0
274
-2
284
1
64
0
275
-2
285
1
65
0
276
-2
286
1
66
0
277
-2
287
1
67
0
278
-2
288
1
68
0
279
-2
289
1
69
0
0
VISUALSTYLE
5
F99
102
{ACAD_XDICTIONARY
360
108A
102
}
102
{ACAD_REACTORS
330
F93
102
}
330
F93
100
AcDbVisualStyle
2

70
4
71
0
72
2
73
0
90
0
40
-0.6
41
-30.0
62
5
63
7
74
1
91
4
64
7
65
257
75
1
175
1
42
1.0
92
0
66
257
43
1.0
76
1
77
6
78
2
67
7
79
5
170
0
171
0
290
0
174
0
93
1
44
0.0
173
0
291
0
45
0.0
1001
ACAD
1000
AcDbSavedByObjectVersion
1070
0
0
VISUALSTYLE
5
F9B
102
{ACAD_XDICTIONARY
360
108E
102
}
102
{ACAD_REACTORS
330
F93
102
}
330
F93
100
AcDbVisualStyle
2

70
6
71
1
72
2
73
2
90
0
40
-0.6
41
-30.0
62
5
63
7
74
2
91
2
64
7
65
257
75
2
175
1
42
179.0
92
0
66
257
43
1.0
76
1
77
6
78
2
67
7
79
3
170
0
171
0
290
0
174
0
93
1
44
0.0
173
0
291
0
45
0.0
1001
ACAD
1000
AcDbSavedByObjectVersion
1070
0
0
VISUALSTYLE
5
F9A
102
{ACAD_XDICTIONARY
360
108C
102
}
102
{ACAD_REACTORS
330
F93
102
}
330
F93
100
AcDbVisualStyle
2

70
5
71
0
72
2
73
0
90
0
40
-0.6
41
-30.0
62
5
63
7
74
1
91
4
64
7
65
257
75
1
175
1
42
1.0
92
0
66
257
43
1.0
76
1
77
6
78
2
67
7
79
5
170
0
171
0
290
0
174
0
93
1
44
0.0
173
0
291
0
45
0.0
1001
ACAD
1000
AcDbSavedByObjectVersion
1070
0
0
VISUALSTYLE
5
F98
102
{ACAD_XDICTIONARY
360
1088
102
}
102
{ACAD_REACTORS
330
F93
102
}
330
F93
100
AcDbVisualStyle
2

70
7
71
1
72
0
73
1
90
0
40
-0.6
41
-30.0
62
5
63
7
74
0
91
4
64
7
65
257
75
1
175
1
42
1.0
92
8
66
7
43
1.0
76
1
77
6
78
2
67
7
79
5
170
0
171
0
290
0
174
0
93
1
44
0.0
173
0
291
1
45
0.0
1001
ACAD
1000
AcDbSavedByObjectVersion
1070
0
0
VISUALSTYLE
5
F9F
102
{ACAD_XDICTIONARY
360
1096
102
}
102
{ACAD_REACTORS
330
F93
102
}
330
F93
100
AcDbVisualStyle
2

70
12
71
2
72
2
73
0
90
0
40
-0.6
41
-30.0
62
5
63
7
74
1
91
4
64
7
65
257
75
1
175
1
42
1.0
92
8
66
7
43
1.0
76
1
77
6
78
2
67
7
79
5
170
0
171
0
290
0
174
0
93
1
44
50.0
173
0
291
1
45
0.0
1001
ACAD
1000
AcDbSavedByObjectVersion
1070
0
0
VISUALSTYLE
5
FA3
102
{ACAD_XDICTIONARY
360
109E
102
}
102
{ACAD_REACTORS
330
F93
102
}
330
F93
100
AcDbVisualStyle
2

70
16
71
2
72
2
73
3
90
0
40
-0.6
41
-30.0
62
5
63
8
74
1
91
4
64
7
65
257
75
1
175
1
42
1.0
92
8
66
8
43
1.0
76
1
77
6
78
2
67
7
79
5
170
0
171
0
290
0
174
0
93
1
44
0.0
173
0
291
1
45
0.0
1001
ACAD
1000
AcDbSavedByObjectVersion
1070
0
0
VISUALSTYLE
5
F9C
102
{ACAD_XDICTIONARY
360
1090
102
}
102
{ACAD_REACTORS
330
F93
102
}
330
F93
100
AcDbVisualStyle
2

70
9
71
3
72
2
73
0
90
0
40
-0.6
41
-30.0
62
5
63
7
74
2
91
2
64
7
65
257
75
1
175
1
42
179.0
92
8
66
7
43
1.0
76
1
77
6
78
2
67
7
79
3
170
0
171
0
290
0
174
0
93
1
44
0.0
173
0
291
0
45
0.0
1001
ACAD
1000
AcDbSavedByObjectVersion
1070
0
0
VISUALSTYLE
5
F9E
102
{ACAD_XDICTIONARY
360
1094
102
}
102
{ACAD_REACTORS
330
F93
102
}
330
F93
100
AcDbVisualStyle
2

70
11
71
2
72
2
73
0
90
0
40
-0.6
41
-30.0
62
5
63
7
74
1
91
4
64
7
65
257
75
1
175
1
42
1.0
92
8
66
7
43
1.0
76
1
77
6
78
2
67
7
79
5
170
0
171
0
290
0
174
0
93
1
44
-50.0
173
0
291
1
45
0.0
1001
ACAD
1000
AcDbSavedByObjectVersion
1070
0
0
VISUALSTYLE
5
FA6
102
{ACAD_XDICTIONARY
360
10A4
102
}
102
{ACAD_REACTORS
330
F93
102
}
330
F93
100
AcDbVisualStyle
2

70
22
71
2
72
2
73
0
90
0
40
-0.6
41
-30.0
62
5
63
7
74
1
91
4
64
7
65
257
75
1
175
1
42
1.0
92
8
66
7
43
1.0
76
1
77
6
78
2
67
7
79
5
170
0
171
0
290
0
174
0
93
1
44
0.0
173
0
291
1
45
0.0
1001
ACAD
1000
AcDbSavedByObjectVersion
1070
0
0
VISUALSTYLE
5
FA2
102
{ACAD_XDICTIONARY
360
109C
102
}
102
{ACAD_REACTORS
330
F93
102
}
330
F93
100
AcDbVisualStyle
2

70
15
71
2
72
2
73
0
90
0
40
-0.6
41
-30.0
62
5
63
7
74
1
91
4
64
7
65
257
75
1
175
1
42
1.0
92
8
66
7
43
1.0
76
1
77
6
78
2
67
7
79
5
170
0
171
0
290
0
174
0
93
1
44
0.0
173
0
291
1
45
0.0
1001
ACAD
1000
AcDbSavedByObjectVersion
1070
0
0
VISUALSTYLE
5
F94
102
{ACAD_XDICTIONARY
360
1080
102
}
102
{ACAD_REACTORS
330
F93
102
}
330
F93
100
AcDbVisualStyle
2

70
0
71
2
72
1
73
1
90
2
40
-0.6
41
30.0
62
5
63
7
74
0
91
4
64
7
65
257
75
1
175
1
42
1.0
92
8
66
7
43
1.0
76
1
77
6
78
2
67
7
79
5
170
0
171
0
290
0
174
0
93
13
44
0.0
173
0
291
1
45
0.0
1001
ACAD
1000
AcDbSavedByObjectVersion
1070
0
0
VISUALSTYLE
5
F95
102
{ACAD_XDICTIONARY
360
1082
102
}
102
{ACAD_REACTORS
330
F93
102
}
330
F93
100
AcDbVisualStyle
2

70
1
71
2
72
1
73
1
90
2
40
-0.6
41
30.0
62
5
63
7
74
1
91
4
64
7
65
257
75
1
175
1
42
1.0
92
0
66
257
43
1.0
76
1
77
6
78
2
67
7
79
5
170
0
171
0
290
0
174
0
93
13
44
0.0
173
0
291
1
45
0.0
1001
ACAD
1000
AcDbSavedByObjectVersion
1070
0
0
VISUALSTYLE
5
F96
102
{ACAD_XDICTIONARY
360
1084
102
}
102
{ACAD_REACTORS
330
F93
102
}
330
F93
100
AcDbVisualStyle
2

70
2
71
2
72
2
73
1
90
2
40
-0.6
41
30.0
62
5
63
7
74
0
91
4
64
7
65
257
75
1
175
1
42
1.0
92
0
66
7
43
1.0
76
1
77
6
78
2
67
7
79
5
170
0
171
0
290
0
174
0
93
13
44
0.0
173
0
291
1
45
0.0
1001
ACAD
1000
AcDbSavedByObjectVersion
1070
0
0
VISUALSTYLE
5
F97
102
{ACAD_XDICTIONARY
360
1086
102
}
102
{ACAD_REACTORS
330
F93
102
}
330
F93
100
AcDbVisualStyle
2

70
3
71
2
72
2
73
1
90
2
40
-0.6
41
30.0
62
5
63
7
74
1
91
4
64
7
65
257
75
1
175
1
42
1.0
92
0
66
257
43
1.0
76
1
77
6
78
2
67
7
79
5
170
0
171
0
290
0
174
0
93
13
44
0.0
173
0
291
1
45
0.0
1001
ACAD
1000
AcDbSavedByObjectVersion
1070
0
0
VISUALSTYLE
5
FA4
102
{ACAD_XDICTIONARY
360
10A0
102
}
102
{ACAD_REACTORS
330
F93
102
}
330
F93
100
AcDbVisualStyle
2

70
20
71
2
72
2
73
0
90
0
40
-0.6
41
-30.0
62
5
63
7
74
1
91
4
64
7
65
257
75
1
175
1
42
1.0
92
10
66
7
43
1.0
76
1
77
6
78
2
67
7
79
5
170
0
171
0
290
0
174
0
93
1
44
0.0
173
0
291
1
45
0.0
1001
ACAD
1000
AcDbSavedByObjectVersion
1070
0
0
VISUALSTYLE
5
FA1
102
{ACAD_XDICTIONARY
360
109A
102
}
102
{ACAD_REACTORS
330
F93
102
}
330
F93
100
AcDbVisualStyle
2

70
14
71
2
72
2
73
0
90
0
40
-0.6
41
-30.0
62
5
63
7
74
1
91
4
64
7
65
257
75
7
175
7
42
1.0
92
8
66
7
43
1.0
76
1
77
6
78
2
67
7
79
5
170
0
171
0
290
0
174
0
93
1
44
0.0
173
0
291
1
45
0.0
1001
ACAD
1000
AcDbSavedByObjectVersion
1070
0
0
VISUALSTYLE
5
FA5
102
{ACAD_XDICTIONARY
360
10A2
102
}
102
{ACAD_REACTORS
330
F93
102
}
330
F93
100
AcDbVisualStyle
2

70
21
71
2
72
2
73
0
90
0
40
-0.6
41
-30.0
62
5
63
7
74
1
91
4
64
7
65
257
75
1
175
1
42
1.0
92
9
66
7
43
1.0
76
1
77
6
78
2
67
7
79
5
170
0
171
0
290
0
174
0
93
1
44
0.0
173
0
291
1
45
0.0
1001
ACAD
1000
AcDbSavedByObjectVersion
1070
0
0
VISUALSTYLE
5
F9D
102
{ACAD_XDICTIONARY
360
1092
102
}
102
{ACAD_REACTORS
330
F93
102
}
330
F93
100
AcDbVisualStyle
2

70
8
71
2
72
2
73
0
90
0
40
-0.6
41
-30.0
62
5
63
7
74
1
91
0
64
7
65
257
75
1
175
1
42
1.0
92
8
66
8
43
1.0
76
1
77
6
78
2
67
7
79
5
170
0
171
0
290
0
174
0
93
13
44
0.0
173
0
291
0
45
0.0
1001
ACAD
1000
AcDbSavedByObjectVersion
1070
0
0
VISUALSTYLE
5
FA0
102
{ACAD_XDICTIONARY
360
1098
102
}
102
{ACAD_REACTORS
330
F93
102
}
330
F93
100
AcDbVisualStyle
2

70
13
71
2
72
2
73
0
90
0
40
-0.6
41
-30.0
62
5
63
7
74
1
91
4
64
7
65
257
75
1
175
1
42
1.0
92
12
66
7
43
1.0
76
1
77
6
78
2
67
7
79
5
170
0
171
0
290
0
174
0
93
1
44
0.0
173
0
291
1
45
0.0
1001
ACAD
1000
AcDbSavedByObjectVersion
1070
0
0
DICTIONARYVAR
5
FF3
102
{ACAD_REACTORS
330
FF0
102
}
330
FF0
100
DictionaryVariables
280
0
1
1:1
0
DICTIONARYVAR
5
FF2
102
{ACAD_REACTORS
330
FF0
102
}
330
FF0
100
DictionaryVariables
280
0
1
STANDARD
0
DICTIONARYVAR
5
FF1
102
{ACAD_REACTORS
330
FF0
102
}
330
FF0
100
DictionaryVariables
280
0
1
STANDARD
0
DICTIONARYVAR
5
FF6
102
{ACAD_REACTORS
330
FF0
102
}
330
FF0
100
DictionaryVariables
280
0
1
1
0
DICTIONARYVAR
5
FF5
102
{ACAD_REACTORS
330
FF0
102
}
330
FF0
100
DictionaryVariables
280
0
1
0
0
DICTIONARYVAR
5
FF4
102
{ACAD_REACTORS
330
FF0
102
}
330
FF0
100
DictionaryVariables
280
0
1
127
0
DICTIONARYVAR
5
1078
102
{ACAD_REACTORS
330
FF0
102
}
330
FF0
100
DictionaryVariables
280
0
1
2
0
DICTIONARY
5
10A9
330
FD1
100
AcDbDictionary
280
1
281
1
3
ACAD_XREC_ROUNDTRIP
360
10AA
0
DICTIONARY
5
10A7
330
FD0
100
AcDbDictionary
280
1
281
1
3
ACAD_XREC_ROUNDTRIP
360
10A8
0
DICTIONARY
5
F84
330
F83
100
AcDbDictionary
280
1
281
1
3
ACAD_XREC_ROUNDTRIP
360
FFF
3
BUMPTILE
360
F86
3
DIFFUSETILE
360
F85
3
OPACITYTILE
360
F89
3
REFLECTIONTILE
360
F88
3
REFRACTIONTILE
360
F8A
3
SPECULARTILE
360
F87
0
DICTIONARY
5
F7C
330
F7B
100
AcDbDictionary
280
1
281
1
3
ACAD_XREC_ROUNDTRIP
360
FFE
3
BUMPTILE
360
F7E
3
DIFFUSETILE
360
F7D
3
OPACITYTILE
360
F81
3
REFLECTIONTILE
360
F80
3
REFRACTIONTILE
360
F82
3
SPECULARTILE
360
F7F
0
DICTIONARY
5
F8C
330
F8B
100
AcDbDictionary
280
1
281
1
3
ACAD_XREC_ROUNDTRIP
360
1000
3
BUMPTILE
360
F8E
3
DIFFUSETILE
360
F8D
3
OPACITYTILE
360
F91
3
REFLECTIONTILE
360
F90
3
REFRACTIONTILE
360
F92
3
SPECULARTILE
360
F8F
0
DICTIONARY
5
FF8
330
FA9
100
AcDbDictionary
280
1
281
1
3
ACAD_ROUNDTRIP_2008_TABLESTYLE_CELLSTYLEMAP
360
1079
3
ACAD_XREC_ROUNDTRIP
360
10A6
0
DICTIONARY
5
108A
330
F99
100
AcDbDictionary
280
1
281
1
3
ACAD_XREC_ROUNDTRIP
360
108B
0
DICTIONARY
5
108E
330
F9B
100
AcDbDictionary
280
1
281
1
3
ACAD_XREC_ROUNDTRIP
360
108F
0
DICTIONARY
5
108C
330
F9A
100
AcDbDictionary
280
1
281
1
3
ACAD_XREC_ROUNDTRIP
360
108D
0
DICTIONARY
5
1088
330
F98
100
AcDbDictionary
280
1
281
1
3
ACAD_XREC_ROUNDTRIP
360
1089
0
DICTIONARY
5
1096
330
F9F
100
AcDbDictionary
280
1
281
1
3
ACAD_XREC_ROUNDTRIP
360
1097
0
DICTIONARY
5
109E
330
FA3
100
AcDbDictionary
280
1
281
1
3
ACAD_XREC_ROUNDTRIP
360
109F
0
DICTIONARY
5
1090
330
F9C
100
AcDbDictionary
280
1
281
1
3
ACAD_XREC_ROUNDTRIP
360
1091
0
DICTIONARY
5
1094
330
F9E
100
AcDbDictionary
280
1
281
1
3
ACAD_XREC_ROUNDTRIP
360
1095
0
DICTIONARY
5
10A4
330
FA6
100
AcDbDictionary
280
1
281
1
3
ACAD_XREC_ROUNDTRIP
360
10A5
0
DICTIONARY
5
109C
330
FA2
100
AcDbDictionary
280
1
281
1
3
ACAD_XREC_ROUNDTRIP
360
109D
0
DICTIONARY
5
1080
330
F94
100
AcDbDictionary
280
1
281
1
3
ACAD_XREC_ROUNDTRIP
360
1081
0
DICTIONARY
5
1082
330
F95
100
AcDbDictionary
280
1
281
1
3
ACAD_XREC_ROUNDTRIP
360
1083
0
DICTIONARY
5
1084
330
F96
100
AcDbDictionary
280
1
281
1
3
ACAD_XREC_ROUNDTRIP
360
1085
0
DICTIONARY
5
1086
330
F97
100
AcDbDictionary
280
1
281
1
3
ACAD_XREC_ROUNDTRIP
360
1087
0
DICTIONARY
5
10A0
330
FA4
100
AcDbDictionary
280
1
281
1
3
ACAD_XREC_ROUNDTRIP
360
10A1
0
DICTIONARY
5
109A
330
FA1
100
AcDbDictionary
280
1
281
1
3
ACAD_XREC_ROUNDTRIP
360
109B
0
DICTIONARY
5
10A2
330
FA5
100
AcDbDictionary
280
1
281
1
3
ACAD_XREC_ROUNDTRIP
360
10A3
0
DICTIONARY
5
1092
330
F9D
100
AcDbDictionary
280
1
281
1
3
ACAD_XREC_ROUNDTRIP
360
1093
0
DICTIONARY
5
1098
330
FA0
100
AcDbDictionary
280
1
281
1
3
ACAD_XREC_ROUNDTRIP
360
1099
0
XRECORD
5
10AA
102
{ACAD_REACTORS
330
10A9
102
}
330
10A9
100
AcDbXrecord
280
1
102
SHADEPLOT
70
0
102
SHADEPLOTRESLEVEL
70
2
102
SHADEPLOTCUSTOMDPI
70
300
0
XRECORD
5
10A8
102
{ACAD_REACTORS
330
10A7
102
}
330
10A7
100
AcDbXrecord
280
1
102
SHADEPLOT
70
0
102
SHADEPLOTRESLEVEL
70
2
102
SHADEPLOTCUSTOMDPI
70
300
0
XRECORD
5
FFF
102
{ACAD_REACTORS
330
F84
102
}
330
F84
100
AcDbXrecord
280
1
102
MATERIAL
148
0.0
149
0.0
149
0.0
93
0
94
127
282
0
72
0
77
0
171
0
175
0
179
0
273
0
0
XRECORD
5
F86
102
{ACAD_REACTORS
330
F84
102
}
330
F84
100
AcDbXrecord
280
1
270
1
271
1
0
XRECORD
5
F85
102
{ACAD_REACTORS
330
F84
102
}
330
F84
100
AcDbXrecord
280
1
270
1
271
1
0
XRECORD
5
F89
102
{ACAD_REACTORS
330
F84
102
}
330
F84
100
AcDbXrecord
280
1
270
1
271
1
0
XRECORD
5
F88
102
{ACAD_REACTORS
330
F84
102
}
330
F84
100
AcDbXrecord
280
1
270
1
271
1
0
XRECORD
5
F8A
102
{ACAD_REACTORS
330
F84
102
}
330
F84
100
AcDbXrecord
280
1
270
1
271
1
0
XRECORD
5
F87
102
{ACAD_REACTORS
330
F84
102
}
330
F84
100
AcDbXrecord
280
1
270
1
271
1
0
XRECORD
5
FFE
102
{ACAD_REACTORS
330
F7C
102
}
330
F7C
100
AcDbXrecord
280
1
102
MATERIAL
148
0.0
149
0.0
149
0.0
93
0
94
127
282
0
72
0
77
0
171
0
175
0
179
0
273
0
0
XRECORD
5
F7E
102
{ACAD_REACTORS
330
F7C
102
}
330
F7C
100
AcDbXrecord
280
1
270
1
271
1
0
XRECORD
5
F7D
102
{ACAD_REACTORS
330
F7C
102
}
330
F7C
100
AcDbXrecord
280
1
270
1
271
1
0
XRECORD
5
F81
102
{ACAD_REACTORS
330
F7C
102
}
330
F7C
100
AcDbXrecord
280
1
270
1
271
1
0
XRECORD
5
F80
102
{ACAD_REACTORS
330
F7C
102
}
330
F7C
100
AcDbXrecord
280
1
270
1
271
1
0
XRECORD
5
F82
102
{ACAD_REACTORS
330
F7C
102
}
330
F7C
100
AcDbXrecord
280
1
270
1
271
1
0
XRECORD
5
F7F
102
{ACAD_REACTORS
330
F7C
102
}
330
F7C
100
AcDbXrecord
280
1
270
1
271
1
0
XRECORD
5
1000
102
{ACAD_REACTORS
330
F8C
102
}
330
F8C
100
AcDbXrecord
280
1
102
MATERIAL
148
0.0
149
0.0
149
0.0
93
0
94
127
282
0
72
0
77
0
171
0
175
0
179
0
273
0
0
XRECORD
5
F8E
102
{ACAD_REACTORS
330
F8C
102
}
330
F8C
100
AcDbXrecord
280
1
270
1
271
1
0
XRECORD
5
F8D
102
{ACAD_REACTORS
330
F8C
102
}
330
F8C
100
AcDbXrecord
280
1
270
1
271
1
0
XRECORD
5
F91
102
{ACAD_REACTORS
330
F8C
102
}
330
F8C
100
AcDbXrecord
280
1
270
1
271
1
0
XRECORD
5
F90
102
{ACAD_REACTORS
330
F8C
102
}
330
F8C
100
AcDbXrecord
280
1
270
1
271
1
0
XRECORD
5
F92
102
{ACAD_REACTORS
330
F8C
102
}
330
F8C
100
AcDbXrecord
280
1
270
1
271
1
0
XRECORD
5
F8F
102
{ACAD_REACTORS
330
F8C
102
}
330
F8C
100
AcDbXrecord
280
1
270
1
271
1
0
CELLSTYLEMAP
5
1079
102
{ACAD_REACTORS
330
FF8
102
}
330
FF8
100
AcDbCellStyleMap
90
3
300
CELLSTYLE
1
TABLEFORMAT_BEGIN
90
5
170
1
91
0
92
32768
62
257
93
1
300
CONTENTFORMAT
1
CONTENTFORMAT_BEGIN
90
0
91
0
92
512
93
0
300

40
0.0
140
1.0
94
5
62
0
340
253
144
0.25
309
CONTENTFORMAT_END
171
1
301
MARGIN
1
CELLMARGIN_BEGIN
40
0.06
40
0.06
40
0.06
40
0.06
40
0.18
40
0.18
309
CELLMARGIN_END
94
6
95
1
302
GRIDFORMAT
1
GRIDFORMAT_BEGIN
90
0
91
1
62
0
92
-2
340
0
93
0
40
0.045
309
GRIDFORMAT_END
95
2
302
GRIDFORMAT
1
GRIDFORMAT_BEGIN
90
0
91
1
62
0
92
-2
340
0
93
0
40
0.045
309
GRIDFORMAT_END
95
4
302
GRIDFORMAT
1
GRIDFORMAT_BEGIN
90
0
91
1
62
0
92
-2
340
0
93
0
40
0.045
309
GRIDFORMAT_END
95
8
302
GRIDFORMAT
1
GRIDFORMAT_BEGIN
90
0
91
1
62
0
92
-2
340
0
93
0
40
0.045
309
GRIDFORMAT_END
95
16
302
GRIDFORMAT
1
GRIDFORMAT_BEGIN
90
0
91
1
62
0
92
-2
340
0
93
0
40
0.045
309
GRIDFORMAT_END
95
32
302
GRIDFORMAT
1
GRIDFORMAT_BEGIN
90
0
91
1
62
0
92
-2
340
0
93
0
40
0.045
309
GRIDFORMAT_END
309
TABLEFORMAT_END
1
CELLSTYLE_BEGIN
90
1
91
1
300
_TITLE
309
CELLSTYLE_END
300
CELLSTYLE
1
TABLEFORMAT_BEGIN
90
5
170
1
91
0
92
0
62
257
93
1
300
CONTENTFORMAT
1
CONTENTFORMAT_BEGIN
90
0
91
0
92
512
93
0
300

40
0.0
140
1.0
94
5
62
0
340
253
144
0.18
309
CONTENTFORMAT_END
171
1
301
MARGIN
1
CELLMARGIN_BEGIN
40
0.06
40
0.06
40
0.06
40
0.06
40
0.18
40
0.18
309
CELLMARGIN_END
94
6
95
1
302
GRIDFORMAT
1
GRIDFORMAT_BEGIN
90
0
91
1
62
0
92
-2
340
0
93
0
40
0.045
309
GRIDFORMAT_END
95
2
302
GRIDFORMAT
1
GRIDFORMAT_BEGIN
90
0
91
1
62
0
92
-2
340
0
93
0
40
0.045
309
GRIDFORMAT_END
95
4
302
GRIDFORMAT
1
GRIDFORMAT_BEGIN
90
0
91
1
62
0
92
-2
340
0
93
0
40
0.045
309
GRIDFORMAT_END
95
8
302
GRIDFORMAT
1
GRIDFORMAT_BEGIN
90
0
91
1
62
0
92
-2
340
0
93
0
40
0.045
309
GRIDFORMAT_END
95
16
302
GRIDFORMAT
1
GRIDFORMAT_BEGIN
90
0
91
1
62
0
92
-2
340
0
93
0
40
0.045
309
GRIDFORMAT_END
95
32
302
GRIDFORMAT
1
GRIDFORMAT_BEGIN
90
0
91
1
62
0
92
-2
340
0
93
0
40
0.045
309
GRIDFORMAT_END
309
TABLEFORMAT_END
1
CELLSTYLE_BEGIN
90
2
91
1
300
_HEADER
309
CELLSTYLE_END
300
CELLSTYLE
1
TABLEFORMAT_BEGIN
90
5
170
1
91
0
92
0
62
257
93
1
300
CONTENTFORMAT
1
CONTENTFORMAT_BEGIN
90
0
91
0
92
512
93
0
300

40
0.0
140
1.0
94
2
62
0
340
253
144
0.18
309
CONTENTFORMAT_END
171
1
301
MARGIN
1
CELLMARGIN_BEGIN
40
0.06
40
0.06
40
0.06
40
0.06
40
0.18
40
0.18
309
CELLMARGIN_END
94
6
95
1
302
GRIDFORMAT
1
GRIDFORMAT_BEGIN
90
0
91
1
62
0
92
-2
340
0
93
0
40
0.045
309
GRIDFORMAT_END
95
2
302
GRIDFORMAT
1
GRIDFORMAT_BEGIN
90
0
91
1
62
0
92
-2
340
0
93
0
40
0.045
309
GRIDFORMAT_END
95
4
302
GRIDFORMAT
1
GRIDFORMAT_BEGIN
90
0
91
1
62
0
92
-2
340
0
93
0
40
0.045
309
GRIDFORMAT_END
95
8
302
GRIDFORMAT
1
GRIDFORMAT_BEGIN
90
0
91
1
62
0
92
-2
340
0
93
0
40
0.045
309
GRIDFORMAT_END
95
16
302
GRIDFORMAT
1
GRIDFORMAT_BEGIN
90
0
91
1
62
0
92
-2
340
0
93
0
40
0.045
309
GRIDFORMAT_END
95
32
302
GRIDFORMAT
1
GRIDFORMAT_BEGIN
90
0
91
1
62
0
92
-2
340
0
93
0
40
0.045
309
GRIDFORMAT_END
309
TABLEFORMAT_END
1
CELLSTYLE_BEGIN
90
3
91
2
300
_DATA
309
CELLSTYLE_END
0
XRECORD
5
10A6
102
{ACAD_REACTORS
330
FF8
102
}
330
FF8
100
AcDbXrecord
280
1
102
ACAD_ROUNDTRIP_PRE2007_TABLESTYLE
90
512
91
0
1

92
512
93
0
2

94
512
95
0
3

0
XRECORD
5
108B
102
{ACAD_REACTORS
330
108A
102
}
330
108A
100
AcDbXrecord
280
1
102
RTVSPropertyOp0
70
1
102
RTVSPropertyOp1
70
1
102
RTVSPropertyOp2
70
1
102
RTVSPropertyOp3
70
1
102
RTVSPropertyOp4
70
1
102
RTVSPropertyOp5
70
1
102
RTVSPropertyOp6
70
1
102
RTVSPropertyOp7
70
1
102
RTVSPropertyOp8
70
1
102
RTVSPropertyOp9
70
1
102
RTVSPropertyOp10
70
1
102
RTVSPropertyOp11
70
1
102
RTVSPropertyOp12
70
1
102
RTVSPropertyOp13
70
1
102
RTVSPropertyOp14
70
1
102
RTVSPropertyOp15
70
1
102
RTVSPropertyOp16
70
1
102
RTVSPropertyOp17
70
1
102
RTVSPropertyOp18
70
1
102
RTVSPropertyOp19
70
1
102
RTVSPropertyOp20
70
1
102
RTVSPropertyOp21
70
1
102
RTVSPropertyOp22
70
1
102
RTVSPropertyOp23
70
1
102
RTVSPropertyOp24
70
1
102
RTVSPropertyOp25
70
1
102
RTVSPropertyOp26
70
1
102
RTVSPropertyOp27
70
1
0
XRECORD
5
108F
102
{ACAD_REACTORS
330
108E
102
}
330
108E
100
AcDbXrecord
280
1
102
RTVSPropertyOp0
70
1
102
RTVSPropertyOp1
70
1
102
RTVSPropertyOp2
70
1
102
RTVSPropertyOp3
70
1
102
RTVSPropertyOp4
70
1
102
RTVSPropertyOp5
70
1
102
RTVSPropertyOp6
70
1
102
RTVSPropertyOp7
70
1
102
RTVSPropertyOp8
70
1
102
RTVSPropertyOp9
70
1
102
RTVSPropertyOp10
70
1
102
RTVSPropertyOp11
70
1
102
RTVSPropertyOp12
70
1
102
RTVSPropertyOp13
70
1
102
RTVSPropertyOp14
70
1
102
RTVSPropertyOp15
70
1
102
RTVSPropertyOp16
70
1
102
RTVSPropertyOp17
70
1
102
RTVSPropertyOp18
70
1
102
RTVSPropertyOp19
70
1
102
RTVSPropertyOp20
70
1
102
RTVSPropertyOp21
70
1
102
RTVSPropertyOp22
70
1
102
RTVSPropertyOp23
70
1
102
RTVSPropertyOp24
70
1
102
RTVSPropertyOp25
70
1
102
RTVSPropertyOp26
70
1
102
RTVSPropertyOp27
70
1
0
XRECORD
5
108D
102
{ACAD_REACTORS
330
108C
102
}
330
108C
100
AcDbXrecord
280
1
102
RTVSPropertyOp0
70
1
102
RTVSPropertyOp1
70
1
102
RTVSPropertyOp2
70
1
102
RTVSPropertyOp3
70
1
102
RTVSPropertyOp4
70
1
102
RTVSPropertyOp5
70
1
102
RTVSPropertyOp6
70
1
102
RTVSPropertyOp7
70
1
102
RTVSPropertyOp8
70
1
102
RTVSPropertyOp9
70
1
102
RTVSPropertyOp10
70
1
102
RTVSPropertyOp11
70
1
102
RTVSPropertyOp12
70
1
102
RTVSPropertyOp13
70
1
102
RTVSPropertyOp14
70
1
102
RTVSPropertyOp15
70
1
102
RTVSPropertyOp16
70
1
102
RTVSPropertyOp17
70
1
102
RTVSPropertyOp18
70
1
102
RTVSPropertyOp19
70
1
102
RTVSPropertyOp20
70
1
102
RTVSPropertyOp21
70
1
102
RTVSPropertyOp22
70
1
102
RTVSPropertyOp23
70
1
102
RTVSPropertyOp24
70
1
102
RTVSPropertyOp25
70
1
102
RTVSPropertyOp26
70
1
102
RTVSPropertyOp27
70
1
0
XRECORD
5
1089
102
{ACAD_REACTORS
330
1088
102
}
330
1088
100
AcDbXrecord
280
1
102
RTVSPropertyOp0
70
1
102
RTVSPropertyOp1
70
1
102
RTVSPropertyOp2
70
1
102
RTVSPropertyOp3
70
1
102
RTVSPropertyOp4
70
1
102
RTVSPropertyOp5
70
1
102
RTVSPropertyOp6
70
1
102
RTVSPropertyOp7
70
1
102
RTVSPropertyOp8
70
1
102
RTVSPropertyOp9
70
1
102
RTVSPropertyOp10
70
1
102
RTVSPropertyOp11
70
1
102
RTVSPropertyOp12
70
1
102
RTVSPropertyOp13
70
1
102
RTVSPropertyOp14
70
1
102
RTVSPropertyOp15
70
1
102
RTVSPropertyOp16
70
1
102
RTVSPropertyOp17
70
1
102
RTVSPropertyOp18
70
1
102
RTVSPropertyOp19
70
1
102
RTVSPropertyOp20
70
1
102
RTVSPropertyOp21
70
1
102
RTVSPropertyOp22
70
1
102
RTVSPropertyOp23
70
1
102
RTVSPropertyOp24
70
1
102
RTVSPropertyOp25
70
1
102
RTVSPropertyOp26
70
1
102
RTVSPropertyOp27
70
1
0
XRECORD
5
1097
102
{ACAD_REACTORS
330
1096
102
}
330
1096
100
AcDbXrecord
280
1
102
RTVSPropertyOp0
70
1
102
RTVSPropertyOp1
70
1
102
RTVSPropertyOp2
70
1
102
RTVSPropertyOp3
70
1
102
RTVSPropertyOp4
70
1
102
RTVSPropertyOp5
70
1
102
RTVSPropertyOp6
70
1
102
RTVSPropertyOp7
70
1
102
RTVSPropertyOp8
70
1
102
RTVSPropertyOp9
70
1
102
RTVSPropertyOp10
70
1
102
RTVSPropertyOp11
70
1
102
RTVSPropertyOp12
70
1
102
RTVSPropertyOp13
70
1
102
RTVSPropertyOp14
70
1
102
RTVSPropertyOp15
70
1
102
RTVSPropertyOp16
70
1
102
RTVSPropertyOp17
70
1
102
RTVSPropertyOp18
70
1
102
RTVSPropertyOp19
70
1
102
RTVSPropertyOp20
70
1
102
RTVSPropertyOp21
70
1
102
RTVSPropertyOp22
70
1
102
RTVSPropertyOp23
70
1
102
RTVSPropertyOp24
70
1
102
RTVSPropertyOp25
70
1
102
RTVSPropertyOp26
70
1
102
RTVSPropertyOp27
70
1
0
XRECORD
5
109F
102
{ACAD_REACTORS
330
109E
102
}
330
109E
100
AcDbXrecord
280
1
102
RTVSPropertyOp0
70
1
102
RTVSPropertyOp1
70
1
102
RTVSPropertyOp2
70
1
102
RTVSPropertyOp3
70
1
102
RTVSPropertyOp4
70
1
102
RTVSPropertyOp5
70
1
102
RTVSPropertyOp6
70
1
102
RTVSPropertyOp7
70
1
102
RTVSPropertyOp8
70
1
102
RTVSPropertyOp9
70
1
102
RTVSPropertyOp10
70
1
102
RTVSPropertyOp11
70
1
102
RTVSPropertyOp12
70
1
102
RTVSPropertyOp13
70
1
102
RTVSPropertyOp14
70
1
102
RTVSPropertyOp15
70
1
102
RTVSPropertyOp16
70
1
102
RTVSPropertyOp17
70
1
102
RTVSPropertyOp18
70
1
102
RTVSPropertyOp19
70
1
102
RTVSPropertyOp20
70
1
102
RTVSPropertyOp21
70
1
102
RTVSPropertyOp22
70
1
102
RTVSPropertyOp23
70
1
102
RTVSPropertyOp24
70
1
102
RTVSPropertyOp25
70
1
102
RTVSPropertyOp26
70
1
102
RTVSPropertyOp27
70
1
0
XRECORD
5
1091
102
{ACAD_REACTORS
330
1090
102
}
330
1090
100
AcDbXrecord
280
1
102
RTVSPropertyOp0
70
1
102
RTVSPropertyOp1
70
1
102
RTVSPropertyOp2
70
1
102
RTVSPropertyOp3
70
1
102
RTVSPropertyOp4
70
1
102
RTVSPropertyOp5
70
1
102
RTVSPropertyOp6
70
1
102
RTVSPropertyOp7
70
1
102
RTVSPropertyOp8
70
1
102
RTVSPropertyOp9
70
1
102
RTVSPropertyOp10
70
1
102
RTVSPropertyOp11
70
1
102
RTVSPropertyOp12
70
1
102
RTVSPropertyOp13
70
1
102
RTVSPropertyOp14
70
1
102
RTVSPropertyOp15
70
1
102
RTVSPropertyOp16
70
1
102
RTVSPropertyOp17
70
1
102
RTVSPropertyOp18
70
1
102
RTVSPropertyOp19
70
1
102
RTVSPropertyOp20
70
1
102
RTVSPropertyOp21
70
1
102
RTVSPropertyOp22
70
1
102
RTVSPropertyOp23
70
1
102
RTVSPropertyOp24
70
1
102
RTVSPropertyOp25
70
1
102
RTVSPropertyOp26
70
1
102
RTVSPropertyOp27
70
1
0
XRECORD
5
1095
102
{ACAD_REACTORS
330
1094
102
}
330
1094
100
AcDbXrecord
280
1
102
RTVSPropertyOp0
70
1
102
RTVSPropertyOp1
70
1
102
RTVSPropertyOp2
70
1
102
RTVSPropertyOp3
70
1
102
RTVSPropertyOp4
70
1
102
RTVSPropertyOp5
70
1
102
RTVSPropertyOp6
70
1
102
RTVSPropertyOp7
70
1
102
RTVSPropertyOp8
70
1
102
RTVSPropertyOp9
70
1
102
RTVSPropertyOp10
70
1
102
RTVSPropertyOp11
70
1
102
RTVSPropertyOp12
70
1
102
RTVSPropertyOp13
70
1
102
RTVSPropertyOp14
70
1
102
RTVSPropertyOp15
70
1
102
RTVSPropertyOp16
70
1
102
RTVSPropertyOp17
70
1
102
RTVSPropertyOp18
70
1
102
RTVSPropertyOp19
70
1
102
RTVSPropertyOp20
70
1
102
RTVSPropertyOp21
70
1
102
RTVSPropertyOp22
70
1
102
RTVSPropertyOp23
70
1
102
RTVSPropertyOp24
70
1
102
RTVSPropertyOp25
70
1
102
RTVSPropertyOp26
70
1
102
RTVSPropertyOp27
70
1
0
XRECORD
5
10A5
102
{ACAD_REACTORS
330
10A4
102
}
330
10A4
100
AcDbXrecord
280
1
102
RTVSPropertyOp0
70
0
102
RTVSPropertyOp1
70
0
102
RTVSPropertyOp2
70
0
102
RTVSPropertyOp3
70
0
102
RTVSPropertyOp4
70
0
102
RTVSPropertyOp5
70
0
102
RTVSPropertyOp6
70
0
102
RTVSPropertyOp7
70
0
102
RTVSPropertyOp8
70
0
102
RTVSPropertyOp9
70
0
102
RTVSPropertyOp10
70
0
102
RTVSPropertyOp11
70
0
102
RTVSPropertyOp12
70
0
102
RTVSPropertyOp13
70
0
102
RTVSPropertyOp14
70
2
102
RTVSPropertyOp15
70
0
102
RTVSPropertyOp16
70
0
102
RTVSPropertyOp17
70
0
102
RTVSPropertyOp18
70
0
102
RTVSPropertyOp19
70
0
102
RTVSPropertyOp20
70
0
102
RTVSPropertyOp21
70
0
102
RTVSPropertyOp22
70
0
102
RTVSPropertyOp23
70
0
102
RTVSPropertyOp24
70
0
102
RTVSPropertyOp25
70
0
102
RTVSPropertyOp26
70
0
102
RTVSPropertyOp27
70
0
0
XRECORD
5
109D
102
{ACAD_REACTORS
330
109C
102
}
330
109C
100
AcDbXrecord
280
1
102
RTVSPropertyOp0
70
1
102
RTVSPropertyOp1
70
1
102
RTVSPropertyOp2
70
1
102
RTVSPropertyOp3
70
1
102
RTVSPropertyOp4
70
1
102
RTVSPropertyOp5
70
1
102
RTVSPropertyOp6
70
1
102
RTVSPropertyOp7
70
1
102
RTVSPropertyOp8
70
1
102
RTVSPropertyOp9
70
1
102
RTVSPropertyOp10
70
1
102
RTVSPropertyOp11
70
1
102
RTVSPropertyOp12
70
1
102
RTVSPropertyOp13
70
1
102
RTVSPropertyOp14
70
1
102
RTVSPropertyOp15
70
1
102
RTVSPropertyOp16
70
1
102
RTVSPropertyOp17
70
1
102
RTVSPropertyOp18
70
1
102
RTVSPropertyOp19
70
1
102
RTVSPropertyOp20
70
1
102
RTVSPropertyOp21
70
1
102
RTVSPropertyOp22
70
1
102
RTVSPropertyOp23
70
1
102
RTVSPropertyOp24
70
1
102
RTVSPropertyOp25
70
1
102
RTVSPropertyOp26
70
1
102
RTVSPropertyOp27
70
1
0
XRECORD
5
1081
102
{ACAD_REACTORS
330
1080
102
}
330
1080
100
AcDbXrecord
280
1
102
RTVSPropertyOp0
70
1
102
RTVSPropertyOp1
70
1
102
RTVSPropertyOp2
70
1
102
RTVSPropertyOp3
70
1
102
RTVSPropertyOp4
70
1
102
RTVSPropertyOp5
70
1
102
RTVSPropertyOp6
70
1
102
RTVSPropertyOp7
70
1
102
RTVSPropertyOp8
70
1
102
RTVSPropertyOp9
70
1
102
RTVSPropertyOp10
70
1
102
RTVSPropertyOp11
70
1
102
RTVSPropertyOp12
70
1
102
RTVSPropertyOp13
70
1
102
RTVSPropertyOp14
70
1
102
RTVSPropertyOp15
70
1
102
RTVSPropertyOp16
70
1
102
RTVSPropertyOp17
70
1
102
RTVSPropertyOp18
70
1
102
RTVSPropertyOp19
70
1
102
RTVSPropertyOp20
70
1
102
RTVSPropertyOp21
70
1
102
RTVSPropertyOp22
70
1
102
RTVSPropertyOp23
70
1
102
RTVSPropertyOp24
70
1
102
RTVSPropertyOp25
70
1
102
RTVSPropertyOp26
70
1
102
RTVSPropertyOp27
70
1
0
XRECORD
5
1083
102
{ACAD_REACTORS
330
1082
102
}
330
1082
100
AcDbXrecord
280
1
102
RTVSPropertyOp0
70
1
102
RTVSPropertyOp1
70
1
102
RTVSPropertyOp2
70
1
102
RTVSPropertyOp3
70
1
102
RTVSPropertyOp4
70
1
102
RTVSPropertyOp5
70
1
102
RTVSPropertyOp6
70
1
102
RTVSPropertyOp7
70
1
102
RTVSPropertyOp8
70
1
102
RTVSPropertyOp9
70
1
102
RTVSPropertyOp10
70
1
102
RTVSPropertyOp11
70
1
102
RTVSPropertyOp12
70
1
102
RTVSPropertyOp13
70
1
102
RTVSPropertyOp14
70
1
102
RTVSPropertyOp15
70
1
102
RTVSPropertyOp16
70
1
102
RTVSPropertyOp17
70
1
102
RTVSPropertyOp18
70
1
102
RTVSPropertyOp19
70
1
102
RTVSPropertyOp20
70
1
102
RTVSPropertyOp21
70
1
102
RTVSPropertyOp22
70
1
102
RTVSPropertyOp23
70
1
102
RTVSPropertyOp24
70
1
102
RTVSPropertyOp25
70
1
102
RTVSPropertyOp26
70
1
102
RTVSPropertyOp27
70
1
0
XRECORD
5
1085
102
{ACAD_REACTORS
330
1084
102
}
330
1084
100
AcDbXrecord
280
1
102
RTVSPropertyOp0
70
1
102
RTVSPropertyOp1
70
1
102
RTVSPropertyOp2
70
1
102
RTVSPropertyOp3
70
1
102
RTVSPropertyOp4
70
1
102
RTVSPropertyOp5
70
1
102
RTVSPropertyOp6
70
1
102
RTVSPropertyOp7
70
1
102
RTVSPropertyOp8
70
1
102
RTVSPropertyOp9
70
1
102
RTVSPropertyOp10
70
1
102
RTVSPropertyOp11
70
1
102
RTVSPropertyOp12
70
1
102
RTVSPropertyOp13
70
1
102
RTVSPropertyOp14
70
1
102
RTVSPropertyOp15
70
1
102
RTVSPropertyOp16
70
1
102
RTVSPropertyOp17
70
1
102
RTVSPropertyOp18
70
1
102
RTVSPropertyOp19
70
1
102
RTVSPropertyOp20
70
1
102
RTVSPropertyOp21
70
1
102
RTVSPropertyOp22
70
1
102
RTVSPropertyOp23
70
1
102
RTVSPropertyOp24
70
1
102
RTVSPropertyOp25
70
1
102
RTVSPropertyOp26
70
1
102
RTVSPropertyOp27
70
1
0
XRECORD
5
1087
102
{ACAD_REACTORS
330
1086
102
}
330
1086
100
AcDbXrecord
280
1
102
RTVSPropertyOp0
70
1
102
RTVSPropertyOp1
70
1
102
RTVSPropertyOp2
70
1
102
RTVSPropertyOp3
70
1
102
RTVSPropertyOp4
70
1
102
RTVSPropertyOp5
70
1
102
RTVSPropertyOp6
70
1
102
RTVSPropertyOp7
70
1
102
RTVSPropertyOp8
70
1
102
RTVSPropertyOp9
70
1
102
RTVSPropertyOp10
70
1
102
RTVSPropertyOp11
70
1
102
RTVSPropertyOp12
70
1
102
RTVSPropertyOp13
70
1
102
RTVSPropertyOp14
70
1
102
RTVSPropertyOp15
70
1
102
RTVSPropertyOp16
70
1
102
RTVSPropertyOp17
70
1
102
RTVSPropertyOp18
70
1
102
RTVSPropertyOp19
70
1
102
RTVSPropertyOp20
70
1
102
RTVSPropertyOp21
70
1
102
RTVSPropertyOp22
70
1
102
RTVSPropertyOp23
70
1
102
RTVSPropertyOp24
70
1
102
RTVSPropertyOp25
70
1
102
RTVSPropertyOp26
70
1
102
RTVSPropertyOp27
70
1
0
XRECORD
5
10A1
102
{ACAD_REACTORS
330
10A0
102
}
330
10A0
100
AcDbXrecord
280
1
102
RTVSPropertyOp0
70
0
102
RTVSPropertyOp1
70
0
102
RTVSPropertyOp2
70
0
102
RTVSPropertyOp3
70
0
102
RTVSPropertyOp4
70
0
102
RTVSPropertyOp5
70
0
102
RTVSPropertyOp6
70
0
102
RTVSPropertyOp7
70
0
102
RTVSPropertyOp8
70
0
102
RTVSPropertyOp9
70
0
102
RTVSPropertyOp10
70
0
102
RTVSPropertyOp11
70
0
102
RTVSPropertyOp12
70
0
102
RTVSPropertyOp13
70
0
102
RTVSPropertyOp14
70
2
102
RTVSPropertyOp15
70
0
102
RTVSPropertyOp16
70
0
102
RTVSPropertyOp17
70
0
102
RTVSPropertyOp18
70
0
102
RTVSPropertyOp19
70
0
102
RTVSPropertyOp20
70
0
102
RTVSPropertyOp21
70
0
102
RTVSPropertyOp22
70
0
102
RTVSPropertyOp23
70
0
102
RTVSPropertyOp24
70
0
102
RTVSPropertyOp25
70
0
102
RTVSPropertyOp26
70
0
102
RTVSPropertyOp27
70
0
0
XRECORD
5
109B
102
{ACAD_REACTORS
330
109A
102
}
330
109A
100
AcDbXrecord
280
1
102
RTVSPropertyOp0
70
1
102
RTVSPropertyOp1
70
1
102
RTVSPropertyOp2
70
1
102
RTVSPropertyOp3
70
1
102
RTVSPropertyOp4
70
1
102
RTVSPropertyOp5
70
1
102
RTVSPropertyOp6
70
1
102
RTVSPropertyOp7
70
1
102
RTVSPropertyOp8
70
1
102
RTVSPropertyOp9
70
1
102
RTVSPropertyOp10
70
1
102
RTVSPropertyOp11
70
1
102
RTVSPropertyOp12
70
1
102
RTVSPropertyOp13
70
1
102
RTVSPropertyOp14
70
1
102
RTVSPropertyOp15
70
1
102
RTVSPropertyOp16
70
1
102
RTVSPropertyOp17
70
1
102
RTVSPropertyOp18
70
1
102
RTVSPropertyOp19
70
1
102
RTVSPropertyOp20
70
1
102
RTVSPropertyOp21
70
1
102
RTVSPropertyOp22
70
1
102
RTVSPropertyOp23
70
1
102
RTVSPropertyOp24
70
1
102
RTVSPropertyOp25
70
1
102
RTVSPropertyOp26
70
1
102
RTVSPropertyOp27
70
1
0
XRECORD
5
10A3
102
{ACAD_REACTORS
330
10A2
102
}
330
10A2
100
AcDbXrecord
280
1
102
RTVSPropertyOp0
70
0
102
RTVSPropertyOp1
70
0
102
RTVSPropertyOp2
70
0
102
RTVSPropertyOp3
70
0
102
RTVSPropertyOp4
70
0
102
RTVSPropertyOp5
70
0
102
RTVSPropertyOp6
70
0
102
RTVSPropertyOp7
70
0
102
RTVSPropertyOp8
70
0
102
RTVSPropertyOp9
70
0
102
RTVSPropertyOp10
70
0
102
RTVSPropertyOp11
70
0
102
RTVSPropertyOp12
70
0
102
RTVSPropertyOp13
70
0
102
RTVSPropertyOp14
70
2
102
RTVSPropertyOp15
70
0
102
RTVSPropertyOp16
70
0
102
RTVSPropertyOp17
70
0
102
RTVSPropertyOp18
70
0
102
RTVSPropertyOp19
70
0
102
RTVSPropertyOp20
70
0
102
RTVSPropertyOp21
70
0
102
RTVSPropertyOp22
70
0
102
RTVSPropertyOp23
70
0
102
RTVSPropertyOp24
70
0
102
RTVSPropertyOp25
70
0
102
RTVSPropertyOp26
70
0
102
RTVSPropertyOp27
70
0
0
XRECORD
5
1093
102
{ACAD_REACTORS
330
1092
102
}
330
1092
100
AcDbXrecord
280
1
102
RTVSPropertyOp0
70
1
102
RTVSPropertyOp1
70
1
102
RTVSPropertyOp2
70
1
102
RTVSPropertyOp3
70
1
102
RTVSPropertyOp4
70
1
102
RTVSPropertyOp5
70
1
102
RTVSPropertyOp6
70
1
102
RTVSPropertyOp7
70
1
102
RTVSPropertyOp8
70
1
102
RTVSPropertyOp9
70
1
102
RTVSPropertyOp10
70
1
102
RTVSPropertyOp11
70
1
102
RTVSPropertyOp12
70
1
102
RTVSPropertyOp13
70
1
102
RTVSPropertyOp14
70
1
102
RTVSPropertyOp15
70
1
102
RTVSPropertyOp16
70
1
102
RTVSPropertyOp17
70
1
102
RTVSPropertyOp18
70
1
102
RTVSPropertyOp19
70
1
102
RTVSPropertyOp20
70
1
102
RTVSPropertyOp21
70
1
102
RTVSPropertyOp22
70
1
102
RTVSPropertyOp23
70
1
102
RTVSPropertyOp24
70
1
102
RTVSPropertyOp25
70
1
102
RTVSPropertyOp26
70
1
102
RTVSPropertyOp27
70
1
0
XRECORD
5
1099
102
{ACAD_REACTORS
330
1098
102
}
330
1098
100
AcDbXrecord
280
1
102
RTVSPropertyOp0
70
1
102
RTVSPropertyOp1
70
1
102
RTVSPropertyOp2
70
1
102
RTVSPropertyOp3
70
1
102
RTVSPropertyOp4
70
1
102
RTVSPropertyOp5
70
1
102
RTVSPropertyOp6
70
1
102
RTVSPropertyOp7
70
1
102
RTVSPropertyOp8
70
1
102
RTVSPropertyOp9
70
1
102
RTVSPropertyOp10
70
1
102
RTVSPropertyOp11
70
1
102
RTVSPropertyOp12
70
1
102
RTVSPropertyOp13
70
1
102
RTVSPropertyOp14
70
1
102
RTVSPropertyOp15
70
1
102
RTVSPropertyOp16
70
1
102
RTVSPropertyOp17
70
1
102
RTVSPropertyOp18
70
1
102
RTVSPropertyOp19
70
1
102
RTVSPropertyOp20
70
1
102
RTVSPropertyOp21
70
1
102
RTVSPropertyOp22
70
1
102
RTVSPropertyOp23
70
1
102
RTVSPropertyOp24
70
1
102
RTVSPropertyOp25
70
1
102
RTVSPropertyOp26
70
1
102
RTVSPropertyOp27
70
1
0
ENDSEC
0
EOF
