  0
SECTION
  2
HEADER
  9
$ACADVER
  1
AC1015
  9
$ACADMAINTVER
 70
    20
  9
$DWGCODEPAGE
  3
ANSI_1252
  9
$INSBASE
 10
0.0
 20
0.0
 30
0.0
  9
$EXTMIN
 10
-208.09585492228
 20
-100.103626943005
 30
0.0
  9
$EXTMAX
 10
143.354922279793
 20
106.7646657571623
 30
0.0
  9
$LIMMIN
 10
0.0
 20
0.0
  9
$LIMMAX
 10
12.0
 20
9.0
  9
$ORTHOMODE
 70
     0
  9
$REGENMODE
 70
     1
  9
$FILLMODE
 70
     1
  9
$QTEXTMODE
 70
     0
  9
$MIRRTEXT
 70
     1
  9
$LTSCALE
 40
1.0
  9
$ATTMODE
 70
     1
  9
$TEXTSIZE
 40
0.2
  9
$TRACEWID
 40
0.05
  9
$TEXTSTYLE
  7
Standard
  9
$CLAYER
  8
0
  9
$CELTYPE
  6
ByLayer
  9
$CECOLOR
 62
   256
  9
$CELTSCALE
 40
1.0
  9
$DISPSILH
 70
     0
  9
$DIMSCALE
 40
1.0
  9
$DIMASZ
 40
2.5
  9
$DIMEXO
 40
0.625
  9
$DIMDLI
 40
0.38
  9
$DIMRND
 40
0.0
  9
$DIMDLE
 40
0.0
  9
$DIMEXE
 40
1.25
  9
$DIMTP
 40
0.0
  9
$DIMTM
 40
0.000000001
  9
$DIMTXT
 40
2.5
  9
$DIMCEN
 40
0.09
  9
$DIMTSZ
 40
0.0
  9
$DIMTOL
 70
     1
  9
$DIMLIM
 70
     0
  9
$DIMTIH
 70
     0
  9
$DIMTOH
 70
     0
  9
$DIMSE1
 70
     0
  9
$DIMSE2
 70
     0
  9
$DIMTAD
 70
     1
  9
$DIMZIN
 70
     0
  9
$DIMBLK
  1
VDDIM_DEFAULT
  9
$DIMASO
 70
     1
  9
$DIMSHO
 70
     1
  9
$DIMPOST
  1

  9
$DIMAPOST
  1

  9
$DIMALT
 70
     0
  9
$DIMALTD
 70
     2
  9
$DIMALTF
 40
25.4
  9
$DIMLFAC
 40
1.0
  9
$DIMTOFL
 70
     0
  9
$DIMTVP
 40
0.0
  9
$DIMTIX
 70
     0
  9
$DIMSOXD
 70
     0
  9
$DIMSAH
 70
     0
  9
$DIMBLK1
  1

  9
$DIMBLK2
  1

  9
$DIMSTYLE
  2
BEM-ISBE
  9
$DIMCLRD
 70
     0
  9
$DIMCLRE
 70
     0
  9
$DIMCLRT
 70
     0
  9
$DIMTFAC
 40
0.5
  9
$DIMGAP
 40
0.625
  9
$DIMJUST
 70
     0
  9
$DIMSD1
 70
     0
  9
$DIMSD2
 70
     0
  9
$DIMTOLJ
 70
     1
  9
$DIMTZIN
 70
     0
  9
$DIMALTZ
 70
     0
  9
$DIMALTTZ
 70
     0
  9
$DIMUPT
 70
     0
  9
$DIMDEC
 70
     3
  9
$DIMTDEC
 70
     3
  9
$DIMALTU
 70
     2
  9
$DIMALTTD
 70
     2
  9
$DIMTXSTY
  7
Standard
  9
$DIMAUNIT
 70
     0
  9
$DIMADEC
 70
     3
  9
$DIMALTRND
 40
0.0
  9
$DIMAZIN
 70
     0
  9
$DIMDSEP
 70
    46
  9
$DIMATFIT
 70
     3
  9
$DIMFRAC
 70
     0
  9
$DIMLDRBLK
  1

  9
$DIMLUNIT
 70
     2
  9
$DIMLWD
 70
    -2
  9
$DIMLWE
 70
    -2
  9
$DIMTMOVE
 70
     0
  9
$LUNITS
 70
     2
  9
$LUPREC
 70
     4
  9
$SKETCHINC
 40
0.1
  9
$FILLETRAD
 40
0.0
  9
$AUNITS
 70
     0
  9
$AUPREC
 70
     0
  9
$MENU
  1
.
  9
$ELEVATION
 40
0.0
  9
$PELEVATION
 40
0.0
  9
$THICKNESS
 40
0.0
  9
$LIMCHECK
 70
     0
  9
$CHAMFERA
 40
0.5
  9
$CHAMFERB
 40
0.5
  9
$CHAMFERC
 40
1.0
  9
$CHAMFERD
 40
0.0
  9
$SKPOLY
 70
     0
  9
$TDCREATE
 40
2457002.613211933
  9
$TDUCREATE
 40
2457002.571545266
  9
$TDUPDATE
 40
2457002.614701076
  9
$TDUUPDATE
 40
2457002.573034410
  9
$TDINDWG
 40
0.0014902778
  9
$TDUSRTIMER
 40
0.0014902431
  9
$USRTIMER
 70
     1
  9
$ANGBASE
 50
0.0
  9
$ANGDIR
 70
     0
  9
$PDMODE
 70
     0
  9
$PDSIZE
 40
0.0
  9
$PLINEWID
 40
0.0
  9
$SPLFRAME
 70
     0
  9
$SPLINETYPE
 70
     6
  9
$SPLINESEGS
 70
     8
  9
$HANDSEED
  5
F10A1C
  9
$SURFTAB1
 70
     6
  9
$SURFTAB2
 70
     6
  9
$SURFTYPE
 70
     6
  9
$SURFU
 70
     6
  9
$SURFV
 70
     6
  9
$UCSBASE
  2

  9
$UCSNAME
  2

  9
$UCSORG
 10
-8.871565464476844
 20
8.779603629633459
 30
0.0
  9
$UCSXDIR
 10
1.0
 20
0.0
 30
0.0
  9
$UCSYDIR
 10
0.0
 20
1.0
 30
0.0
  9
$UCSORTHOREF
  2

  9
$UCSORTHOVIEW
 70
     0
  9
$UCSORGTOP
 10
0.0
 20
0.0
 30
0.0
  9
$UCSORGBOTTOM
 10
0.0
 20
0.0
 30
0.0
  9
$UCSORGLEFT
 10
0.0
 20
0.0
 30
0.0
  9
$UCSORGRIGHT
 10
0.0
 20
0.0
 30
0.0
  9
$UCSORGFRONT
 10
0.0
 20
0.0
 30
0.0
  9
$UCSORGBACK
 10
0.0
 20
0.0
 30
0.0
  9
$PUCSBASE
  2

  9
$PUCSNAME
  2

  9
$PUCSORG
 10
0.0
 20
0.0
 30
0.0
  9
$PUCSXDIR
 10
1.0
 20
0.0
 30
0.0
  9
$PUCSYDIR
 10
0.0
 20
1.0
 30
0.0
  9
$PUCSORTHOREF
  2

  9
$PUCSORTHOVIEW
 70
     0
  9
$PUCSORGTOP
 10
0.0
 20
0.0
 30
0.0
  9
$PUCSORGBOTTOM
 10
0.0
 20
0.0
 30
0.0
  9
$PUCSORGLEFT
 10
0.0
 20
0.0
 30
0.0
  9
$PUCSORGRIGHT
 10
0.0
 20
0.0
 30
0.0
  9
$PUCSORGFRONT
 10
0.0
 20
0.0
 30
0.0
  9
$PUCSORGBACK
 10
0.0
 20
0.0
 30
0.0
  9
$USERI1
 70
     0
  9
$USERI2
 70
     0
  9
$USERI3
 70
     0
  9
$USERI4
 70
     0
  9
$USERI5
 70
     0
  9
$USERR1
 40
0.0
  9
$USERR2
 40
0.0
  9
$USERR3
 40
0.0
  9
$USERR4
 40
0.0
  9
$USERR5
 40
0.0
  9
$WORLDVIEW
 70
     1
  9
$SHADEDGE
 70
     3
  9
$SHADEDIF
 70
    70
  9
$TILEMODE
 70
     1
  9
$MAXACTVP
 70
    64
  9
$PINSBASE
 10
0.0
 20
0.0
 30
0.0
  9
$PLIMCHECK
 70
     0
  9
$PEXTMIN
 10
1.000000000000000E+20
 20
1.000000000000000E+20
 30
1.000000000000000E+20
  9
$PEXTMAX
 10
-1.000000000000000E+20
 20
-1.000000000000000E+20
 30
-1.000000000000000E+20
  9
$PLIMMIN
 10
0.0
 20
0.0
  9
$PLIMMAX
 10
12.0
 20
9.0
  9
$UNITMODE
 70
     0
  9
$VISRETAIN
 70
     1
  9
$PLINEGEN
 70
     0
  9
$PSLTSCALE
 70
     1
  9
$TREEDEPTH
 70
  3020
  9
$CMLSTYLE
  2
Standard
  9
$CMLJUST
 70
     0
  9
$CMLSCALE
 40
1.0
  9
$PROXYGRAPHICS
 70
     1
  9
$MEASUREMENT
 70
     0
  9
$CELWEIGHT
370
    -1
  9
$ENDCAPS
280
     0
  9
$JOINSTYLE
280
     0
  9
$LWDISPLAY
290
     0
  9
$INSUNITS
 70
     4
  9
$HYPERLINKBASE
  1

  9
$STYLESHEET
  1

  9
$XEDIT
290
     1
  9
$CEPSNTYPE
380
     0
  9
$PSTYLEMODE
290
     0
  9
$FINGERPRINTGUID
  2
{FAEB1C30-E019-11D5-929B-00C0DF256EC4}
  9
$VERSIONGUID
  2
{91DFF103-72D4-4A76-9974-517D720CA86C}
  9
$EXTNAMES
290
     1
  9
$PSVPSCALE
 40
0.0
  9
$OLESTARTUP
290
     0
  0
ENDSEC
  0
SECTION
  2
CLASSES
  0
CLASS
  1
ACDBDICTIONARYWDFLT
  2
AcDbDictionaryWithDefault
  3
ObjectDBX Classes
 90
        0
280
     0
281
     0
  0
CLASS
  1
MATERIAL
  2
AcDbMaterial
  3
ObjectDBX Classes
 90
     1153
280
     0
281
     0
  0
CLASS
  1
MLEADERSTYLE
  2
AcDbMLeaderStyle
  3
ACDB_MLEADERSTYLE_CLASS
 90
     4095
280
     0
281
     0
  0
CLASS
  1
SCALE
  2
AcDbScale
  3
ObjectDBX Classes
 90
     1153
280
     0
281
     0
  0
CLASS
  1
TABLESTYLE
  2
AcDbTableStyle
  3
ObjectDBX Classes
 90
     4095
280
     0
281
     0
  0
CLASS
  1
VISUALSTYLE
  2
AcDbVisualStyle
  3
ObjectDBX Classes
 90
     4095
280
     0
281
     0
  0
CLASS
  1
DICTIONARYVAR
  2
AcDbDictionaryVar
  3
ObjectDBX Classes
 90
        0
280
     0
281
     0
  0
CLASS
  1
CELLSTYLEMAP
  2
AcDbCellStyleMap
  3
ObjectDBX Classes
 90
     1152
280
     0
281
     0
  0
CLASS
  1
AMGSETTINGSOBJ
  2
AmgSettingsObj
  3
"AcadM|Product Description: AutoCAD Mechanical|Company: Autodesk, Inc."
 90
     1024
280
     0
281
     0
  0
CLASS
  1
ACME_DOCUMENT
  2
AcMeDbDoc
  3
AcMeServices
 90
     1024
280
     0
281
     0
  0
CLASS
  1
ACMESCOPE
  2
AcMeScope
  3
AcMeServices
 90
     1024
280
     0
281
     0
  0
CLASS
  1
ACMECOMMANDHISTORY
  2
AcMeCommandHistory
  3
AcMeServices
 90
     1024
280
     0
281
     0
  0
CLASS
  1
ACIMSYSVARMAN
  2
AcImSysVarManager
  3
AcMeServices
 90
     1024
280
     0
281
     0
  0
CLASS
  1
ACIMINTSYSVAR
  2
AcImIntSysVar
  3
AcMeServices
 90
     1024
280
     0
281
     0
  0
CLASS
  1
ACMESTATEMGR
  2
AcMeStateMgr
  3
AcMeServices
 90
     1024
280
     0
281
     0
  0
CLASS
  1
ACDBENTITYCACHE
  2
AcMeEntityCache
  3
AcMeServices
 90
     1024
280
     0
281
     0
  0
CLASS
  1
ACGREFMASTER
  2
AcGrefMaster
  3
AcAttribServices
 90
     1024
280
     0
281
     0
  0
CLASS
  1
AM_DRAWING_MGR
  2
AcDmDwgMgr
  3
AcMechDwgViewMgmt
 90
     1024
280
     0
281
     0
  0
CLASS
  1
AM_DWG_DOCUMENT
  2
AcDmDwgDocument
  3
AcMechDwgViewMgmt
 90
     1024
280
     0
281
     0
  0
CLASS
  1
AM_DWG_SHEET
  2
AcDmSheet
  3
AcMechDwgViewMgmt
 90
     1024
280
     0
281
     0
  0
CLASS
  1
AM_VIEWDIMPARMAP
  2
AcDmViewDimParMap
  3
AcMechDwgViewMgmt
 90
     1024
280
     0
281
     0
  0
CLASS
  1
AMDTINTERNALREACTOR
  2
AmdtInternalReactor
  3
AcMeServices
 90
     1024
280
     0
281
     0
  0
CLASS
  1
ACIMREALSYSVAR
  2
AcImRealSysVar
  3
AcMeServices
 90
     1024
280
     0
281
     0
  0
CLASS
  1
AM_DWGMGR_NAME
  2
AcDmDwgMgrName
  3
AcMechDwgViewMgmt
 90
     1024
280
     0
281
     0
  0
CLASS
  1
ACME_DATABASE
  2
AcMeDbDatabase
  3
AcMeServices
 90
     1024
280
     0
281
     0
  0
CLASS
  1
ACRFINSADJUSTERMGR
  2
AcRfInsAdjusterMgr
  3
AcMeServices
 90
     1024
280
     0
281
     0
  0
CLASS
  1
ACGREFACADMASTER
  2
AcGrefacadMaster
  3
AcGrefServices
 90
     1024
280
     0
281
     0
  0
CLASS
  1
AMDTMENUSTATEMGR
  2
AmdtMenuStateMgr
  3
McadcomServices
 90
     1024
280
     0
281
     0
  0
CLASS
  1
AMDTMCOMMENUSTATE
  2
AmdtMcomMenuState
  3
McadcomServices
 90
     1024
280
     0
281
     0
  0
CLASS
  1
AMIMASTER
  2
AmiMaster
  3
AmiServices
 90
     1024
280
     0
281
     0
  0
CLASS
  1
MAPIAMMOUDLE
  2
MApiAmModule
  3
MApiAmServices
 90
     1024
280
     0
281
     0
  0
CLASS
  1
ACIMSTRSYSVAR
  2
AcImStrSysVar
  3
AcMeServices
 90
     1024
280
     0
281
     0
  0
CLASS
  1
AMDTDMMENUSTATE
  2
AmdtDmMenuState
  3
AcMechDwgViewMgmt
 90
     1024
280
     0
281
     0
  0
CLASS
  1
AMDTAMMENUSTATE
  2
AmdtAmMenuState
  3
DesignerAssemblies
 90
     1024
280
     0
281
     0
  0
CLASS
  1
ACAMPROJECT
  2
AcAmProject
  3
DesignerAssemblies
 90
     1024
280
     0
281
     0
  0
CLASS
  1
ACAMGRCOMPDEF
  2
AcAmGrCompDef
  3
DesignerAssemblies
 90
     1024
280
     0
281
     0
  0
CLASS
  1
ACAMCOMPDEF
  2
AcAmCompDef
  3
DesignerAssemblies
 90
     1024
280
     0
281
     0
  0
CLASS
  1
ACAMCOMPDEFMGR
  2
AcAmCompDefMgr
  3
DesignerAssemblies
 90
     1024
280
     0
281
     0
  0
CLASS
  1
AMCONTEXTMGR
  2
AcAmContextMgr
  3
DesignerAssemblies
 90
     1024
280
     0
281
     0
  0
CLASS
  1
ACAMCONTEXTMODELER
  2
AcAmContextModeler
  3
DesignerAssemblies
 90
     1024
280
     0
281
     0
  0
CLASS
  1
ACMDATADICTIONARY
  2
AcmDataDictionary
  3
"AcmSymBB|Product Description: AutoCAD Mechanical|Company: Autodesk, Inc."
 90
     1024
280
     0
281
     0
  0
CLASS
  1
ACAMGRCOMPDEFSET
  2
AcAmGrCompDefSet
  3
DesignerAssemblies
 90
     1024
280
     0
281
     0
  0
CLASS
  1
AMDTBROWSERDBTAB
  2
AmdtBrowserDbTab
  3
McadcomServices
 90
     1024
280
     0
281
     0
  0
CLASS
  1
CBROWSERAPPOBJECT
  2
CBrowserAppObject
  3
McadcomServices
 90
     1024
280
     0
281
     0
  0
CLASS
  1
DM_PLACEHOLDER
  2
AcDmSelsetPlaceholder
  3
AcMechDwgViewMgmt
 90
     1024
280
     0
281
     0
  0
CLASS
  1
EXACXREFPANELOBJECT
  2
ExAcXREFPanelObject
  3
EXAC_ESW
 90
     1025
280
     0
281
     0
  0
CLASS
  1
NPOCOLLECTION
  2
AcDbImpNonPersistentObjectsCollection
  3
ObjectDBX Classes
 90
     1153
280
     0
281
     0
  0
CLASS
  1
ACMSTANDARDANSI
  2
AcmStandardANSI
  3
"Amdt_StdImp|Product Description: AutoCAD Mechanical|Company: Autodesk, Inc."
 90
     1024
280
     0
281
     0
  0
CLASS
  1
ACMSURFSTANDARDANSI
  2
AcmSurfTextStdANSI
  3
"Amdt_StdImp|Product Description: AutoCAD Mechanical|Company: Autodesk, Inc."
 90
     1024
280
     0
281
     0
  0
CLASS
  1
ACMFCFSTANDARDANSI
  2
AcmFCFStdANSI
  3
"Amdt_StdImp|Product Description: AutoCAD Mechanical|Company: Autodesk, Inc."
 90
     1024
280
     0
281
     0
  0
CLASS
  1
ACMWELDSTANDARDANSI
  2
AcmWeldingStdANSI
  3
"Amdt_StdImp|Product Description: AutoCAD Mechanical|Company: Autodesk, Inc."
 90
     1024
280
     0
281
     0
  0
CLASS
  1
ACMIDSTANDARDANSI
  2
AcmIdStdANSI
  3
"Amdt_StdImp|Product Description: AutoCAD Mechanical|Company: Autodesk, Inc."
 90
     1024
280
     0
281
     0
  0
CLASS
  1
ACMDATUMSTANDARDANSI
  2
AcmDatumStdANSI
  3
"Amdt_StdImp|Product Description: AutoCAD Mechanical|Company: Autodesk, Inc."
 90
     1024
280
     0
281
     0
  0
CLASS
  1
ACMBOMSTANDARDANSI
  2
AcmBOMStdANSI
  3
"Amdt_StdImp|Product Description: AutoCAD Mechanical|Company: Autodesk, Inc."
 90
     1024
280
     0
281
     0
  0
CLASS
  1
ACMDETAILSTANDARDANSI
  2
AmdtDetailSymStdANSI
  3
"Amdt_StdImp|Product Description: AutoCAD Mechanical|Company: Autodesk, Inc."
 90
     1024
280
     0
281
     0
  0
CLASS
  1
ACMSECTIONSTANDARDANSI
  2
AmdtSectionSymStdANSI
  3
"Amdt_StdImp|Product Description: AutoCAD Mechanical|Company: Autodesk, Inc."
 90
     1024
280
     0
281
     0
  0
CLASS
  1
ACMCENTERLINESTANDARDANSI
  2
AmdtCenterLineStdANSI
  3
"Amdt_StdImp|Product Description: AutoCAD Mechanical|Company: Autodesk, Inc."
 90
     1024
280
     0
281
     0
  0
CLASS
  1
ACMTHREADLINESTANDARDANSI
  2
AmdtThreadLineStdANSI
  3
"Amdt_StdImp|Product Description: AutoCAD Mechanical|Company: Autodesk, Inc."
 90
     1024
280
     0
281
     0
  0
CLASS
  1
ACMNOTESTANDARDANSI
  2
AmdtNoteStdANSI
  3
"Amdt_StdImp|Product Description: AutoCAD Mechanical|Company: Autodesk, Inc."
 90
     1024
280
     0
281
     0
  0
CLASS
  1
ACMTAPERSTANDARDANSI
  2
AcmTaperStdANSI
  3
"Amdt_StdImp|Product Description: AutoCAD Mechanical|Company: Autodesk, Inc."
 90
     1024
280
     0
281
     0
  0
CLASS
  1
ACMANOOTATIONVIEWSTANDARDANSI
  2
AmdtAnViewStdANSI
  3
"Amdt_StdImp|Product Description: AutoCAD Mechanical|Company: Autodesk, Inc."
 90
     1024
280
     0
281
     0
  0
CLASS
  1
ACAMGLAYSTD
  2
AcAmgLayStd
  3
"AmgLay|Product Description: AutoCAD Mechanical|Company: Autodesk, Inc."
 90
     1024
280
     0
281
     0
  0
CLASS
  1
ACAMGDIMSTD
  2
AcAmgDimStd
  3
"AmgDim|Product Description: AutoCAD Mechanical|Company: Autodesk, Inc."
 90
     1024
280
     0
281
     0
  0
CLASS
  1
AMGOBJPROPCFG
  2
AmgObjPropCfg
  3
"AmgLay|Product Description: AutoCAD Mechanical|Company: Autodesk, Inc."
 90
     1025
280
     0
281
     0
  0
CLASS
  1
ACAMGHOLECHARTSTDANSI
  2
AcAmgHoleChartStdANSI
  3
AmgDim|Product Description: AutoCAD Mechanical|Company: Autodesk, Inc.
 90
     1024
280
     0
281
     0
  0
CLASS
  1
ACAMGTITLESTD
  2
AcAmgTitleStd
  3
"AmgTitle|Product Description: AutoCAD Mechanical|Company: Autodesk, Inc."
 90
     4095
280
     0
281
     0
  0
CLASS
  1
AMDTNOTETEMPLATEDB
  2
AmdtNoteTemplateDB
  3
AcmSymBB|Product Description: AutoCAD Mechanical|Company: Autodesk, Inc.
 90
     1024
280
     0
281
     0
  0
CLASS
  1
ACAMGFILTERDAT
  2
AcAmgFilterDat
  3
"AcadM|Product Description: AutoCAD Mechanical|Company: Autodesk, Inc."
 90
     1024
280
     0
281
     0
  0
CLASS
  1
ACDBPLACEHOLDER
  2
AcDbPlaceHolder
  3
ObjectDBX Classes
 90
        0
280
     0
281
     0
  0
CLASS
  1
LAYOUT
  2
AcDbLayout
  3
ObjectDBX Classes
 90
        0
280
     0
281
     0
  0
ENDSEC
  0
SECTION
  2
TABLES
  0
TABLE
  2
VPORT
  5
24A
330
0
100
AcDbSymbolTable
 70
     1
  0
VPORT
  5
26B
330
24A
100
AcDbSymbolTableRecord
100
AcDbViewportTableRecord
  2
*Active
 70
     0
 10
0.0
 20
0.0
 11
1.0
 21
1.0
 12
-13.52622769889697
 22
-1.163251419703726
 13
0.0
 23
0.0
 14
10.0
 24
10.0
 15
10.0
 25
10.0
 16
0.0
 26
0.0
 36
1.0
 17
0.0
 27
0.0
 37
0.0
 40
248.7692551908787
 41
1.492489270386266
 42
1.0
 43
0.0
 44
0.0
 50
0.0
 51
0.0000000000007958
 71
     0
 72
   100
 73
     1
 74
     3
 75
     0
 76
     0
 77
     0
 78
     1
281
     0
 65
     0
110
0.0
120
0.0
130
0.0
111
1.0
121
0.0
131
0.0
112
0.0
122
1.0
132
0.0
 79
     0
146
0.0
  0
ENDTAB
  0
TABLE
  2
LTYPE
  5
247
330
0
100
AcDbSymbolTable
 70
    36
  0
LTYPE
  5
256
330
247
100
AcDbSymbolTableRecord
100
AcDbLinetypeTableRecord
  2
ByBlock
 70
     0
  3

 72
    65
 73
     0
 40
0.0
  0
LTYPE
  5
257
330
247
100
AcDbSymbolTableRecord
100
AcDbLinetypeTableRecord
  2
ByLayer
 70
     0
  3

 72
    65
 73
     0
 40
0.0
  0
LTYPE
  5
258
330
247
100
AcDbSymbolTableRecord
100
AcDbLinetypeTableRecord
  2
Continuous
 70
     0
  3
Solid line
 72
    65
 73
     0
 40
0.0
  0
LTYPE
  5
273
330
247
100
AcDbSymbolTableRecord
100
AcDbLinetypeTableRecord
  2
CENTER
 70
     0
  3
Center ____ _ ____ _ ____ _ ____ _ ____ _ ____
 72
    65
 73
     4
 40
2.0
 49
1.25
 74
     0
 49
-0.25
 74
     0
 49
0.25
 74
     0
 49
-0.25
 74
     0
  0
LTYPE
  5
274
330
247
100
AcDbSymbolTableRecord
100
AcDbLinetypeTableRecord
  2
DASHDOT
 70
     0
  3
Dashdot __ . __ . __ . __ . __ . __ . __ . __
 72
    65
 73
     4
 40
1.0
 49
0.5
 74
     0
 49
-0.25
 74
     0
 49
0.0
 74
     0
 49
-0.25
 74
     0
  0
LTYPE
  5
275
330
247
100
AcDbSymbolTableRecord
100
AcDbLinetypeTableRecord
  2
DASHED
 70
     0
  3
Dashed __ __ __ __ __ __ __ __ __ __ __ __ __ _
 72
    65
 73
     2
 40
0.75
 49
0.5
 74
     0
 49
-0.25
 74
     0
  0
LTYPE
  5
276
330
247
100
AcDbSymbolTableRecord
100
AcDbLinetypeTableRecord
  2
HIDDEN
 70
     0
  3
Hidden __ __ __ __ __ __ __ __ __ __ __ __ __ __
 72
    65
 73
     2
 40
0.375
 49
0.25
 74
     0
 49
-0.125
 74
     0
  0
LTYPE
  5
277
330
247
100
AcDbSymbolTableRecord
100
AcDbLinetypeTableRecord
  2
HIDDEN2
 70
     0
  3
Hidden2 _ _ _ _ _ _ _ _ _ _ _ _ _ _ _ _ _
 72
    65
 73
     2
 40
0.1875
 49
0.125
 74
     0
 49
-0.0625
 74
     0
  0
LTYPE
  5
278
330
247
100
AcDbSymbolTableRecord
100
AcDbLinetypeTableRecord
  2
BORDER
 70
     0
  3
Border __ __ . __ __ . __ __ . __ __ . __ __ .
 72
    65
 73
     6
 40
1.75
 49
0.5
 74
     0
 49
-0.25
 74
     0
 49
0.5
 74
     0
 49
-0.25
 74
     0
 49
0.0
 74
     0
 49
-0.25
 74
     0
  0
LTYPE
  5
279
330
247
100
AcDbSymbolTableRecord
100
AcDbLinetypeTableRecord
  2
BORDER2
 70
     0
  3
Border2 __.__.__.__.__.__.__.__.__.__.__.
 72
    65
 73
     6
 40
0.875
 49
0.25
 74
     0
 49
-0.125
 74
     0
 49
0.25
 74
     0
 49
-0.125
 74
     0
 49
0.0
 74
     0
 49
-0.125
 74
     0
  0
LTYPE
  5
27A
330
247
100
AcDbSymbolTableRecord
100
AcDbLinetypeTableRecord
  2
BORDERX2
 70
     0
  3
Borderx2  ____  ____  .  ____  ____  .  ___
 72
    65
 73
     6
 40
3.5
 49
1.0
 74
     0
 49
-0.5
 74
     0
 49
1.0
 74
     0
 49
-0.5
 74
     0
 49
0.0
 74
     0
 49
-0.5
 74
     0
  0
LTYPE
  5
27B
330
247
100
AcDbSymbolTableRecord
100
AcDbLinetypeTableRecord
  2
CENTER2
 70
     0
  3
Center2  ___ _ ___ _ ___ _ ___ _ ___ _ ___
 72
    65
 73
     4
 40
1.125
 49
0.75
 74
     0
 49
-0.125
 74
     0
 49
0.125
 74
     0
 49
-0.125
 74
     0
  0
LTYPE
  5
27C
330
247
100
AcDbSymbolTableRecord
100
AcDbLinetypeTableRecord
  2
CENTERX2
 70
     0
  3
Centerx2  ________  __  ________  __  _____
 72
    65
 73
     4
 40
4.0
 49
2.5
 74
     0
 49
-0.5
 74
     0
 49
0.5
 74
     0
 49
-0.5
 74
     0
  0
LTYPE
  5
27D
330
247
100
AcDbSymbolTableRecord
100
AcDbLinetypeTableRecord
  2
DASHDOT2
 70
     0
  3
Dashdot2  _._._._._._._._._._._._._._._.
 72
    65
 73
     4
 40
0.5
 49
0.25
 74
     0
 49
-0.125
 74
     0
 49
0.0
 74
     0
 49
-0.125
 74
     0
  0
LTYPE
  5
27E
330
247
100
AcDbSymbolTableRecord
100
AcDbLinetypeTableRecord
  2
DASHDOTX2
 70
     0
  3
Dashdotx2 ____  .  ____  .  ____  .  ___
 72
    65
 73
     4
 40
2.0
 49
1.0
 74
     0
 49
-0.5
 74
     0
 49
0.0
 74
     0
 49
-0.5
 74
     0
  0
LTYPE
  5
27F
330
247
100
AcDbSymbolTableRecord
100
AcDbLinetypeTableRecord
  2
DASHED2
 70
     0
  3
Dashed2 _ _ _ _ _ _ _ _ _ _ _ _ _ _ _ _ _
 72
    65
 73
     2
 40
0.375
 49
0.25
 74
     0
 49
-0.125
 74
     0
  0
LTYPE
  5
280
330
247
100
AcDbSymbolTableRecord
100
AcDbLinetypeTableRecord
  2
DASHEDX2
 70
     0
  3
Dashedx2 ____  ____  ____  ____  ____  ___
 72
    65
 73
     2
 40
1.5
 49
1.0
 74
     0
 49
-0.5
 74
     0
  0
LTYPE
  5
281
330
247
100
AcDbSymbolTableRecord
100
AcDbLinetypeTableRecord
  2
DIVIDE
 70
     0
  3
Divide ____ . . ____ . . ____ . . ____ . . ____
 72
    65
 73
     6
 40
1.25
 49
0.5
 74
     0
 49
-0.25
 74
     0
 49
0.0
 74
     0
 49
-0.25
 74
     0
 49
0.0
 74
     0
 49
-0.25
 74
     0
  0
LTYPE
  5
282
330
247
100
AcDbSymbolTableRecord
100
AcDbLinetypeTableRecord
  2
DIVIDE2
 70
     0
  3
Divide2 __..__..__..__..__..__..__..__.._
 72
    65
 73
     6
 40
0.625
 49
0.25
 74
     0
 49
-0.125
 74
     0
 49
0.0
 74
     0
 49
-0.125
 74
     0
 49
0.0
 74
     0
 49
-0.125
 74
     0
  0
LTYPE
  5
283
330
247
100
AcDbSymbolTableRecord
100
AcDbLinetypeTableRecord
  2
DIVIDEX2
 70
     0
  3
Dividex2 ________  .  .  ________  .  .  _
 72
    65
 73
     6
 40
2.5
 49
1.0
 74
     0
 49
-0.5
 74
     0
 49
0.0
 74
     0
 49
-0.5
 74
     0
 49
0.0
 74
     0
 49
-0.5
 74
     0
  0
LTYPE
  5
284
330
247
100
AcDbSymbolTableRecord
100
AcDbLinetypeTableRecord
  2
DOT
 70
     0
  3
Dot . . . . . . . . . . . . . . . . . . . . . . . .
 72
    65
 73
     2
 40
0.25
 49
0.0
 74
     0
 49
-0.25
 74
     0
  0
LTYPE
  5
285
330
247
100
AcDbSymbolTableRecord
100
AcDbLinetypeTableRecord
  2
DOT2
 70
     0
  3
Dot2 ........................................
 72
    65
 73
     2
 40
0.125
 49
0.0
 74
     0
 49
-0.125
 74
     0
  0
LTYPE
  5
286
330
247
100
AcDbSymbolTableRecord
100
AcDbLinetypeTableRecord
  2
DOTX2
 70
     0
  3
Dotx2 .  .  .  .  .  .  .  .  .  .  .  .  .  .
 72
    65
 73
     2
 40
0.5
 49
0.0
 74
     0
 49
-0.5
 74
     0
  0
LTYPE
  5
287
330
247
100
AcDbSymbolTableRecord
100
AcDbLinetypeTableRecord
  2
HIDDENX2
 70
     0
  3
Hiddenx2 ____ ____ ____ ____ ____ ____ ____
 72
    65
 73
     2
 40
0.75
 49
0.5
 74
     0
 49
-0.25
 74
     0
  0
LTYPE
  5
288
330
247
100
AcDbSymbolTableRecord
100
AcDbLinetypeTableRecord
  2
PHANTOM
 70
     0
  3
Phantom ______  __  __  ______  __  __  ______
 72
    65
 73
     6
 40
2.5
 49
1.25
 74
     0
 49
-0.25
 74
     0
 49
0.25
 74
     0
 49
-0.25
 74
     0
 49
0.25
 74
     0
 49
-0.25
 74
     0
  0
LTYPE
  5
289
330
247
100
AcDbSymbolTableRecord
100
AcDbLinetypeTableRecord
  2
PHANTOM2
 70
     0
  3
Phantom2 ___ _ _ ___ _ _ ___ _ _ ___ _ _
 72
    65
 73
     6
 40
1.25
 49
0.625
 74
     0
 49
-0.125
 74
     0
 49
0.125
 74
     0
 49
-0.125
 74
     0
 49
0.125
 74
     0
 49
-0.125
 74
     0
  0
LTYPE
  5
28A
330
247
100
AcDbSymbolTableRecord
100
AcDbLinetypeTableRecord
  2
PHANTOMX2
 70
     0
  3
Phantomx2 ____________    ____    ____   _
 72
    65
 73
     6
 40
5.0
 49
2.5
 74
     0
 49
-0.5
 74
     0
 49
0.5
 74
     0
 49
-0.5
 74
     0
 49
0.5
 74
     0
 49
-0.5
 74
     0
  0
LTYPE
  5
F10883
330
247
100
AcDbSymbolTableRecord
100
AcDbLinetypeTableRecord
  2
AM_ISO02W050
 70
     0
  3
__ __ __ __ __ __ __ __ __ __ __ __ __ __ __
 72
    65
 73
     2
 40
7.5
 49
6.0
 74
     0
 49
-1.5
 74
     0
  0
LTYPE
  5
F10884
330
247
100
AcDbSymbolTableRecord
100
AcDbLinetypeTableRecord
  2
AM_ISO08W050
 70
     0
  3
____ . ____ . ____ . ____ . ____ . ____ . ____
 72
    65
 73
     4
 40
18.0
 49
12.0
 74
     0
 49
-1.5
 74
     0
 49
3.0
 74
     0
 49
-1.5
 74
     0
  0
LTYPE
  5
F10885
330
247
100
AcDbSymbolTableRecord
100
AcDbLinetypeTableRecord
  2
AM_ISO09W050
 70
     0
  3
_____ . . _____ . . _____ . . ____ .. ____
 72
    65
 73
     6
 40
22.5
 49
12.0
 74
     0
 49
-1.5
 74
     0
 49
3.0
 74
     0
 49
-1.5
 74
     0
 49
3.0
 74
     0
 49
-1.5
 74
     0
  0
LTYPE
  5
F10886
330
247
100
AcDbSymbolTableRecord
100
AcDbLinetypeTableRecord
  2
Amconstr
 70
     0
  3
_______________________
 72
    65
 73
     2
 40
9999.0
 49
9999.0
 74
     0
 49
0.0
 74
     0
  0
LTYPE
  5
F10887
330
247
100
AcDbSymbolTableRecord
100
AcDbLinetypeTableRecord
  2
AM_ISO08W050x2
 70
     0
  3
__ . __ . __ . __ . __ . __
 72
    65
 73
     4
 40
9.0
 49
6.0
 74
     0
 49
-0.75
 74
     0
 49
1.5
 74
     0
 49
-0.75
 74
     0
  0
LTYPE
  5
F10888
330
247
100
AcDbSymbolTableRecord
100
AcDbLinetypeTableRecord
  2
AM_ISO02W050x2
 70
     0
  3
 _ _ _ _ _ _ _ _ _ _ _ _
 72
    65
 73
     2
 40
3.75
 49
3.0
 74
     0
 49
-0.75
 74
     0
  0
LTYPE
  5
F1088B
330
247
100
AcDbSymbolTableRecord
100
AcDbLinetypeTableRecord
  2
Amzigzag
 70
     0
  3
/\/-/\/-/\/-/\/-/\/-/\/
 72
    65
 73
     2
 40
11.0001
 49
0.0001
 74
     4
 75
   136
340
F1088A
 46
0.04
 50
0.0
 44
0.0
 45
0.0
 49
-11.0
 74
     0
  0
LTYPE
  5
F1088C
330
247
100
AcDbSymbolTableRecord
100
AcDbLinetypeTableRecord
  2
Amzigzag2
 70
     0
  3
/\/-/\/-/\/-/\/-/\/-/\/
 72
    65
 73
     2
 40
0.4401
 49
0.0001
 74
     4
 75
   136
340
F1088A
 46
0.0016
 50
0.0
 44
0.0
 45
0.0
 49
-0.4400000000000001
 74
     0
  0
LTYPE
  5
F1089A
330
247
100
AcDbSymbolTableRecord
100
AcDbLinetypeTableRecord
  2
ACANSTGB
 70
     0
  3
__ . . __ . .
 72
    65
 73
     6
 40
0.35433070866
 49
0.15748031496
 74
     0
 49
-0.03937007874
 74
     0
 49
0.03937007874
 74
     0
 49
-0.03937007874
 74
     0
 49
0.03937007874
 74
     0
 49
-0.03937007874
 74
     0
  0
LTYPE
  5
F1089B
330
247
100
AcDbSymbolTableRecord
100
AcDbLinetypeTableRecord
  2
ACANSTGL
 70
     0
  3
_ _ _ _ _
 72
    65
 73
     2
 40
0.11811023622
 49
0.07874015748
 74
     0
 49
-0.03937007874
 74
     0
  0
ENDTAB
  0
TABLE
  2
LAYER
  5
244
330
0
100
AcDbSymbolTable
 70
     6
  0
LAYER
  5
252
102
{ACAD_XDICTIONARY
360
F109BD
102
}
330
244
100
AcDbSymbolTableRecord
100
AcDbLayerTableRecord
  2
0
 70
     0
 62
     7
  6
Continuous
370
     0
390
19
  0
LAYER
  5
23F
102
{ACAD_XDICTIONARY
360
F109BF
102
}
330
244
100
AcDbSymbolTableRecord
100
AcDbLayerTableRecord
  2
Bemassung
 70
     0
 62
     7
  6
Continuous
370
     0
390
19
  0
LAYER
  5
240
102
{ACAD_XDICTIONARY
360
F109C1
102
}
330
244
100
AcDbSymbolTableRecord
100
AcDbLayerTableRecord
  2
Rahmen
 70
     0
 62
     7
  6
Continuous
370
     0
390
19
  0
LAYER
  5
241
102
{ACAD_XDICTIONARY
360
F109C3
102
}
330
244
100
AcDbSymbolTableRecord
100
AcDbLayerTableRecord
  2
Geo
 70
     0
 62
     7
  6
Continuous
370
     0
390
19
  0
LAYER
  5
33A
330
244
100
AcDbSymbolTableRecord
100
AcDbLayerTableRecord
  2
Defpoints
 70
     0
 62
     7
  6
Continuous
290
     0
370
    -3
390
19
  0
LAYER
  5
57E
102
{ACAD_XDICTIONARY
360
F109C5
102
}
330
244
100
AcDbSymbolTableRecord
100
AcDbLayerTableRecord
  2
Text
 70
     0
 62
     7
  6
Continuous
370
     0
390
19
1001
AcAecLayerStandard
1000

1000

  0
ENDTAB
  0
TABLE
  2
STYLE
  5
245
330
0
100
AcDbSymbolTable
 70
     5
  0
STYLE
  5
253
330
245
100
AcDbSymbolTableRecord
100
AcDbTextStyleTableRecord
  2
Standard
 70
     0
 40
0.0
 41
1.0
 50
0.0
 71
     0
 42
0.2
  3
Arial
  4

1001
ACAD
1000
Arial
1071
        0
  0
STYLE
  5
132
330
245
100
AcDbSymbolTableRecord
100
AcDbTextStyleTableRecord
  2
Beschriftung
 70
     0
 40
0.0
 41
1.0
 50
0.0
 71
     0
 42
0.2
  3
Arial
  4

1001
ACAD
1000
Arial
1071
        0
1001
AcadAnnotative
1000
AnnotativeData
1070
     1
1070
     1
  0
STYLE
  5
F1088A
330
245
100
AcDbSymbolTableRecord
100
AcDbTextStyleTableRecord
  2

 70
     1
 40
0.0
 41
1.0
 50
0.0
 71
     0
 42
0.2
  3
genltshp.shx
  4

  0
STYLE
  5
F10898
330
245
100
AcDbSymbolTableRecord
100
AcDbTextStyleTableRecord
  2
ACANSTS
 70
     0
 40
1.0
 41
1.0
 50
0.0
 71
     0
 42
0.2
  3
romans.shx
  4

  0
STYLE
  5
F10899
330
245
100
AcDbSymbolTableRecord
100
AcDbTextStyleTableRecord
  2
ACANSGDT
 70
     0
 40
0.0
 41
1.0
 50
0.0
 71
     0
 42
0.2
  3
amgdt.shx
  4

  0
ENDTAB
  0
TABLE
  2
VIEW
  5
248
330
0
100
AcDbSymbolTable
 70
     0
  0
ENDTAB
  0
TABLE
  2
UCS
  5
249
330
0
100
AcDbSymbolTable
 70
     0
  0
ENDTAB
  0
TABLE
  2
APPID
  5
24B
330
0
100
AcDbSymbolTable
 70
    28
  0
APPID
  5
254
330
24B
100
AcDbSymbolTableRecord
100
AcDbRegAppTableRecord
  2
ACAD
 70
     0
  0
APPID
  5
26C
330
24B
100
AcDbSymbolTableRecord
100
AcDbRegAppTableRecord
  2
VD_INVISIBLE_NOT_FOR_READ
 70
     0
  0
APPID
  5
26D
330
24B
100
AcDbSymbolTableRecord
100
AcDbRegAppTableRecord
  2
VD_TEMPHATCH
 70
     0
  0
APPID
  5
26E
330
24B
100
AcDbSymbolTableRecord
100
AcDbRegAppTableRecord
  2
VDEXTRAPARAM
 70
     0
  0
APPID
  5
26F
330
24B
100
AcDbSymbolTableRecord
100
AcDbRegAppTableRecord
  2
PE_URL
 70
     0
  0
APPID
  5
270
330
24B
100
AcDbSymbolTableRecord
100
AcDbRegAppTableRecord
  2
VD_UNKNOWN
 70
     0
  0
APPID
  5
28F
330
24B
100
AcDbSymbolTableRecord
100
AcDbRegAppTableRecord
  2
AcadAnnotative
 70
     0
  0
APPID
  5
290
330
24B
100
AcDbSymbolTableRecord
100
AcDbRegAppTableRecord
  2
ACAD_DSTYLE_DIMJAG
 70
     0
  0
APPID
  5
291
330
24B
100
AcDbSymbolTableRecord
100
AcDbRegAppTableRecord
  2
ACAD_DSTYLE_DIMTALN
 70
     0
  0
APPID
  5
293
330
24B
100
AcDbSymbolTableRecord
100
AcDbRegAppTableRecord
  2
ACAD_PSEXT
 70
     0
  0
APPID
  5
42A
330
24B
100
AcDbSymbolTableRecord
100
AcDbRegAppTableRecord
  2
ACAD_MLEADERVER
 70
     0
  0
APPID
  5
532
330
24B
100
AcDbSymbolTableRecord
100
AcDbRegAppTableRecord
  2
ACAD_EXEMPT_FROM_CAD_STANDARDS
 70
     0
  0
APPID
  5
57F
330
24B
100
AcDbSymbolTableRecord
100
AcDbRegAppTableRecord
  2
AcAecLayerStandard
 70
     0
  0
APPID
  5
F1081D
330
24B
100
AcDbSymbolTableRecord
100
AcDbRegAppTableRecord
  2
MCAD_NO_VIS
 70
     0
  0
APPID
  5
F1081E
330
24B
100
AcDbSymbolTableRecord
100
AcDbRegAppTableRecord
  2
ACAD_TEMP_GRAPHIC
 70
     0
  0
APPID
  5
F10847
330
24B
100
AcDbSymbolTableRecord
100
AcDbRegAppTableRecord
  2
AD_DRAW
 70
     0
  0
APPID
  5
F1084A
330
24B
100
AcDbSymbolTableRecord
100
AcDbRegAppTableRecord
  2
ACATTRIBSERVICES
 70
     0
  0
APPID
  5
F10863
330
24B
100
AcDbSymbolTableRecord
100
AcDbRegAppTableRecord
  2
DESIGNERASSEMBLIES
 70
     0
  0
APPID
  5
F10868
330
24B
100
AcDbSymbolTableRecord
100
AcDbRegAppTableRecord
  2
ACADM_DIM_EDIT
 70
     0
  0
APPID
  5
F10869
330
24B
100
AcDbSymbolTableRecord
100
AcDbRegAppTableRecord
  2
AMDT_DM_ADJ
 70
     0
  0
APPID
  5
F10881
330
24B
100
AcDbSymbolTableRecord
100
AcDbRegAppTableRecord
  2
ACAD_DSTYLE_DIMBREAK
 70
     0
  0
APPID
  5
F108A2
330
24B
100
AcDbSymbolTableRecord
100
AcDbRegAppTableRecord
  2
GENIUS_GENSCREG_15
 70
     0
  0
APPID
  5
F108A3
330
24B
100
AcDbSymbolTableRecord
100
AcDbRegAppTableRecord
  2
GENIUS_GENOBJ-N-SDF_13
 70
     0
  0
APPID
  5
F108A4
330
24B
100
AcDbSymbolTableRecord
100
AcDbRegAppTableRecord
  2
GENIUS_GENODEF_13
 70
     0
  0
APPID
  5
F10A15
330
24B
100
AcDbSymbolTableRecord
100
AcDbRegAppTableRecord
  2
ACAD_DSTYLE_DIMARC_LENGTH_SYMBOL
 70
     0
  0
APPID
  5
F10A16
330
24B
100
AcDbSymbolTableRecord
100
AcDbRegAppTableRecord
  2
ACAD_DSTYLE_DIM_LINETYPE
 70
     0
  0
APPID
  5
F10A17
330
24B
100
AcDbSymbolTableRecord
100
AcDbRegAppTableRecord
  2
ACAD_DSTYLE_DIM_EXT1_LINETYPE
 70
     0
  0
APPID
  5
F10A18
330
24B
100
AcDbSymbolTableRecord
100
AcDbRegAppTableRecord
  2
ACAD_DSTYLE_DIM_EXT2_LINETYPE
 70
     0
  0
ENDTAB
  0
TABLE
  2
DIMSTYLE
  5
24C
330
0
100
AcDbSymbolTable
 70
     9
100
AcDbDimStyleTable
 71
     2
340
27
340
269
  0
DIMSTYLE
105
269
330
24C
100
AcDbSymbolTableRecord
100
AcDbDimStyleTableRecord
  2
Standard
 70
     0
172
     1
174
     1
288
     1
340
253
342
23C
  0
DIMSTYLE
105
137
330
24C
100
AcDbSymbolTableRecord
100
AcDbDimStyleTableRecord
  2
Beschriftung
 70
     0
 41
2.5
 42
0.625
 44
1.25
 73
     0
 74
     0
 77
     1
140
2.5
147
0.625
172
     1
174
     1
271
     2
288
     1
340
253
342
23C
1001
AcadAnnotative
1000
AnnotativeData
1070
     1
1070
     1
1001
ACAD_DSTYLE_DIMJAG
1070
   388
1040
1.5
1001
ACAD_DSTYLE_DIMTALN
1070
   392
1070
     0
  0
DIMSTYLE
105
27
102
{ACAD_REACTORS
330
F10012
330
F1001C
330
F10026
330
F1002B
330
F10008
330
F1000D
330
F10021
102
}
330
24C
100
AcDbSymbolTableRecord
100
AcDbDimStyleTableRecord
  2
BEM-ISBE
 70
     0
 41
2.5
 42
0.625
 44
1.25
 48
0.000000001
 71
     1
 73
     0
 74
     0
 77
     1
140
2.5
146
0.5
147
0.625
171
     3
172
     1
179
     3
271
     3
272
     3
274
     3
340
253
342
23C
1001
ACAD_DSTYLE_DIMJAG
1070
   388
1040
1.5
1001
ACAD_DSTYLE_DIMTALN
1070
   392
1070
     1
  0
DIMSTYLE
105
F10880
102
{ACAD_REACTORS
330
F10870
102
}
330
24C
100
AcDbSymbolTableRecord
100
AcDbDimStyleTableRecord
  2
AM_ANSI
 70
     0
  4
mm
 41
0.12
 42
0.05
 43
0.5
 44
0.1
 47
0.1
 48
0.1
 78
     7
 79
     2
140
0.12
141
0.0
146
0.71
147
0.06
176
   256
177
   256
178
     2
274
     4
284
     7
340
253
371
    -1
372
    -1
1001
ACAD_DSTYLE_DIMJAG
1070
   388
1040
1.5
1001
ACAD_DSTYLE_DIMBREAK
1070
   391
1040
0.125
1001
ACAD_DSTYLE_DIMARC_LENGTH_SYMBOL
1070
   379
1070
     1
1001
ACAD_DSTYLE_DIM_LINETYPE
1070
   380
1005
256
1001
ACAD_DSTYLE_DIM_EXT1_LINETYPE
1070
   381
1005
256
1001
ACAD_DSTYLE_DIM_EXT2_LINETYPE
1070
   382
1005
256
  0
DIMSTYLE
105
F1088D
330
24C
100
AcDbSymbolTableRecord
100
AcDbDimStyleTableRecord
  2
AM_ANSI$3
 70
     0
  4
mm
 41
0.12
 42
0.05
 43
0.5
 44
0.1
 47
0.1
 48
0.1
 78
     7
 79
     2
140
0.12
141
0.0
146
0.71
147
0.06
176
   256
177
   256
178
     2
274
     4
284
     7
288
     1
289
     0
340
253
371
    -1
372
    -1
1001
ACAD_DSTYLE_DIMBREAK
1070
   391
1040
0.125
1001
ACAD_DSTYLE_DIMJAG
1070
   388
1040
1.5
1001
ACAD_DSTYLE_DIMARC_LENGTH_SYMBOL
1070
   379
1070
     1
1001
ACAD_DSTYLE_DIM_LINETYPE
1070
   380
1005
256
1001
ACAD_DSTYLE_DIM_EXT1_LINETYPE
1070
   381
1005
256
1001
ACAD_DSTYLE_DIM_EXT2_LINETYPE
1070
   382
1005
256
  0
DIMSTYLE
105
F1088E
330
24C
100
AcDbSymbolTableRecord
100
AcDbDimStyleTableRecord
  2
AM_ANSI$4
 70
     0
  4
mm
 41
0.12
 42
0.05
 43
0.5
 44
0.1
 47
0.1
 48
0.1
 78
     7
 79
     2
140
0.12
141
0.0
146
0.71
147
0.06
176
   256
177
   256
178
     2
274
     4
284
     7
288
     1
289
     0
340
253
371
    -1
372
    -1
1001
ACAD_DSTYLE_DIMBREAK
1070
   391
1040
0.125
1001
ACAD_DSTYLE_DIMJAG
1070
   388
1040
1.5
1001
ACAD_DSTYLE_DIMARC_LENGTH_SYMBOL
1070
   379
1070
     1
1001
ACAD_DSTYLE_DIM_LINETYPE
1070
   380
1005
256
1001
ACAD_DSTYLE_DIM_EXT1_LINETYPE
1070
   381
1005
256
1001
ACAD_DSTYLE_DIM_EXT2_LINETYPE
1070
   382
1005
256
  0
DIMSTYLE
105
F1088F
330
24C
100
AcDbSymbolTableRecord
100
AcDbDimStyleTableRecord
  2
AM_ANSI$7
 70
     0
  4
mm
 41
0.12
 42
0.05
 43
0.5
 44
0.1
 47
0.1
 48
0.1
 78
     7
 79
     2
140
0.12
141
0.0
146
0.71
147
0.06
176
   256
177
   256
178
     2
274
     4
284
     7
340
253
371
    -1
372
    -1
1001
ACAD_DSTYLE_DIMBREAK
1070
   391
1040
0.125
1001
ACAD_DSTYLE_DIMJAG
1070
   388
1040
1.5
1001
ACAD_DSTYLE_DIMARC_LENGTH_SYMBOL
1070
   379
1070
     1
1001
ACAD_DSTYLE_DIM_LINETYPE
1070
   380
1005
256
1001
ACAD_DSTYLE_DIM_EXT1_LINETYPE
1070
   381
1005
256
1001
ACAD_DSTYLE_DIM_EXT2_LINETYPE
1070
   382
1005
256
  0
DIMSTYLE
105
F10890
330
24C
100
AcDbSymbolTableRecord
100
AcDbDimStyleTableRecord
  2
AM_ANSI$SF
 70
     0
  4
mm
 41
0.12
 42
0.05
 43
0.5
 44
0.1
 47
0.1
 48
0.1
 75
     1
 76
     1
 78
     7
 79
     2
140
0.12
141
0.0
146
0.71
147
0.06
176
   256
177
   256
178
     2
274
     4
284
     7
340
253
371
    -1
372
    -1
1001
ACAD_DSTYLE_DIMBREAK
1070
   391
1040
0.125
1001
ACAD_DSTYLE_DIMJAG
1070
   388
1040
1.5
1001
ACAD_DSTYLE_DIMARC_LENGTH_SYMBOL
1070
   379
1070
     1
1001
ACAD_DSTYLE_DIM_LINETYPE
1070
   380
1005
256
1001
ACAD_DSTYLE_DIM_EXT1_LINETYPE
1070
   381
1005
256
1001
ACAD_DSTYLE_DIM_EXT2_LINETYPE
1070
   382
1005
256
  0
DIMSTYLE
105
F10895
330
24C
100
AcDbSymbolTableRecord
100
AcDbDimStyleTableRecord
  2
AM_ANSI$SH
 70
     0
  4
mm
 41
0.12
 42
0.05
 43
0.5
 44
0.1
 47
0.1
 48
0.1
 75
     1
 76
     1
 78
     7
 79
     2
140
0.12
141
0.0
146
0.71
147
0.06
173
     1
176
   256
177
   256
178
     2
274
     4
284
     7
340
253
343
F10891
371
    -1
372
    -1
1001
ACAD_DSTYLE_DIMBREAK
1070
   391
1040
0.125
1001
ACAD_DSTYLE_DIMJAG
1070
   388
1040
1.5
1001
ACAD_DSTYLE_DIMARC_LENGTH_SYMBOL
1070
   379
1070
     1
1001
ACAD_DSTYLE_DIM_LINETYPE
1070
   380
1005
256
1001
ACAD_DSTYLE_DIM_EXT1_LINETYPE
1070
   381
1005
256
1001
ACAD_DSTYLE_DIM_EXT2_LINETYPE
1070
   382
1005
256
  0
ENDTAB
  0
TABLE
  2
BLOCK_RECORD
  5
243
330
0
100
AcDbSymbolTable
 70
    14
  0
BLOCK_RECORD
  5
261
330
243
100
AcDbSymbolTableRecord
100
AcDbBlockTableRecord
  2
*Model_Space
340
FD0
  0
BLOCK_RECORD
  5
25D
330
243
100
AcDbSymbolTableRecord
100
AcDbBlockTableRecord
  2
*Paper_Space
340
FD1
  0
BLOCK_RECORD
  5
265
330
243
100
AcDbSymbolTableRecord
100
AcDbBlockTableRecord
  2
*Paper_Space0
340
0
  0
BLOCK_RECORD
  5
23C
330
243
100
AcDbSymbolTableRecord
100
AcDbBlockTableRecord
  2
VDDIM_DEFAULT
340
0
102
{BLKREFS
331
F108B2
331
F108B3
331
F108D8
331
F108D9
331
F1097D
331
F1097E
331
F10988
331
F10989
331
F10991
331
F10992
331
F1099A
331
F1099B
331
F109A5
331
F109A6
331
F109AE
331
F109AF
331
F109B7
331
F109B8
102
}
  0
BLOCK_RECORD
  5
23E
330
243
100
AcDbSymbolTableRecord
100
AcDbBlockTableRecord
  2
VDDIM_NONE
340
0
  0
BLOCK_RECORD
  5
F10002
330
243
100
AcDbSymbolTableRecord
100
AcDbBlockTableRecord
  2
*D3
340
0
  0
BLOCK_RECORD
  5
F10011
330
243
100
AcDbSymbolTableRecord
100
AcDbBlockTableRecord
  2
*D4
340
0
  0
BLOCK_RECORD
  5
F1001B
330
243
100
AcDbSymbolTableRecord
100
AcDbBlockTableRecord
  2
*D5
340
0
  0
BLOCK_RECORD
  5
F10025
330
243
100
AcDbSymbolTableRecord
100
AcDbBlockTableRecord
  2
*D6
340
0
  0
BLOCK_RECORD
  5
F1002A
330
243
100
AcDbSymbolTableRecord
100
AcDbBlockTableRecord
  2
*D7
340
0
  0
BLOCK_RECORD
  5
F10016
330
243
100
AcDbSymbolTableRecord
100
AcDbBlockTableRecord
  2
*D8
340
0
  0
BLOCK_RECORD
  5
F10007
330
243
100
AcDbSymbolTableRecord
100
AcDbBlockTableRecord
  2
*D9
340
0
  0
BLOCK_RECORD
  5
F1000C
330
243
100
AcDbSymbolTableRecord
100
AcDbBlockTableRecord
  2
*D10
340
0
  0
BLOCK_RECORD
  5
F10020
330
243
100
AcDbSymbolTableRecord
100
AcDbBlockTableRecord
  2
*D11
340
0
  0
BLOCK_RECORD
  5
F10891
330
243
100
AcDbSymbolTableRecord
100
AcDbBlockTableRecord
  2
GENAXEH
340
0
  0
ENDTAB
  0
ENDSEC
  0
SECTION
  2
BLOCKS
  0
BLOCK
  5
262
330
261
100
AcDbEntity
  8
0
100
AcDbBlockBegin
  2
*Model_Space
 70
     0
 10
0.0
 20
0.0
 30
0.0
  3
*Model_Space
  1

  0
ENDBLK
  5
263
330
261
100
AcDbEntity
  8
0
100
AcDbBlockEnd
  0
BLOCK
  5
25E
330
25D
100
AcDbEntity
 67
     1
  8
0
100
AcDbBlockBegin
  2
*Paper_Space
 70
     0
 10
0.0
 20
0.0
 30
0.0
  3
*Paper_Space
  1

  0
ENDBLK
  5
25F
330
25D
100
AcDbEntity
 67
     1
  8
0
100
AcDbBlockEnd
  0
BLOCK
  5
266
330
265
100
AcDbEntity
  8
0
100
AcDbBlockBegin
  2
*Paper_Space0
 70
     0
 10
0.0
 20
0.0
 30
0.0
  3
*Paper_Space0
  1

  0
VIEWPORT
  5
296
102
{ACAD_XDICTIONARY
360
F109D8
102
}
330
265
100
AcDbEntity
  8
0
 60
     1
100
AcDbViewport
 10
0.0
 20
0.0
 30
0.0
 40
10.0
 41
10.0
 69
     0
 12
0.0
 22
0.0
 13
0.0
 23
0.0
 14
1.0
 24
1.0
 15
0.0
 25
0.0
 16
0.0
 26
0.0
 36
1.0
 17
0.0
 27
0.0
 37
0.0
 42
0.0
 43
0.0
 44
0.0
 45
10.0
 50
0.0
 51
0.0000000000007958
 72
   100
 90
   163872
  1

281
     0
 71
     0
 74
     0
110
0.0
120
0.0
130
0.0
111
1.0
121
0.0
131
0.0
112
0.0
122
1.0
132
0.0
 79
     0
146
0.0
1001
VD_INVISIBLE_NOT_FOR_READ
1000
VD_INVISIBLE_NOT_FOR_READ
  0
VIEWPORT
  5
297
102
{ACAD_XDICTIONARY
360
F109DA
102
}
330
265
100
AcDbEntity
  8
0
 60
     1
100
AcDbViewport
 10
0.0
 20
0.0
 30
0.0
 40
10.0
 41
10.0
 69
     0
 12
0.0
 22
0.0
 13
0.0
 23
0.0
 14
1.0
 24
1.0
 15
0.0
 25
0.0
 16
0.0
 26
0.0
 36
1.0
 17
0.0
 27
0.0
 37
0.0
 42
0.0
 43
0.0
 44
0.0
 45
10.0
 50
0.0
 51
0.0000000000007958
 72
   100
 90
   163872
  1

281
     0
 71
     0
 74
     0
110
0.0
120
0.0
130
0.0
111
1.0
121
0.0
131
0.0
112
0.0
122
1.0
132
0.0
 79
     0
146
0.0
1001
VD_INVISIBLE_NOT_FOR_READ
1000
VD_INVISIBLE_NOT_FOR_READ
  0
ENDBLK
  5
267
330
265
100
AcDbEntity
  8
0
100
AcDbBlockEnd
  0
BLOCK
  5
28B
330
23C
100
AcDbEntity
  8
0
100
AcDbBlockBegin
  2
VDDIM_DEFAULT
 70
     0
 10
0.0
 20
0.0
 30
0.0
  3
VDDIM_DEFAULT
  1

  0
LWPOLYLINE
  5
23D
330
23C
100
AcDbEntity
  8
0
  6
Continuous
 62
     0
100
AcDbPolyline
 90
        4
 70
     0
 43
0.0
 10
0.0
 20
0.0
 10
-1.0
 20
-0.1665
 10
-1.0
 20
0.1665
 10
0.0
 20
0.0
1001
VDEXTRAPARAM
1071
        1
1071
        0
1071
        0
1040
1.0
1000

1000

1040
0.0
1040
0.0
  0
HATCH
  5
292
330
23C
100
AcDbEntity
  8
0
  6
Continuous
 62
     0
100
AcDbHatch
 10
0.0
 20
0.0
 30
0.0
210
0.0
220
0.0
230
1.0
  2
SOLID
 70
     1
 71
     0
 91
        1
 92
        2
 72
     0
 73
     1
 93
        3
 10
0.0
 20
0.0
 10
-1.0
 20
-0.1665
 10
-1.0
 20
0.1665
 97
        0
 75
     0
 76
     1
 98
        1
 10
0.0
 20
0.0
1001
VDEXTRAPARAM
1071
        1
1071
        0
1071
        0
1040
1.0
1000

1000

1040
0.0
1040
0.0
1001
VD_TEMPHATCH
1000
VD_TEMPHATCH
  0
ENDBLK
  5
28C
330
23C
100
AcDbEntity
  8
0
100
AcDbBlockEnd
  0
BLOCK
  5
28D
330
23E
100
AcDbEntity
  8
0
100
AcDbBlockBegin
  2
VDDIM_NONE
 70
     0
 10
0.0
 20
0.0
 30
0.0
  3
VDDIM_NONE
  1

  0
ENDBLK
  5
28E
330
23E
100
AcDbEntity
  8
0
100
AcDbBlockEnd
  0
BLOCK
  5
F1002F
330
F10002
100
AcDbEntity
  8
0
100
AcDbBlockBegin
  2
*D3
 70
     1
 10
0.0
 20
0.0
 30
0.0
  3
*D3
  1

  0
LINE
  5
F108AD
330
F10002
100
AcDbEntity
  8
Bemassung
 62
     0
370
    -2
100
AcDbLine
 10
-83.27989000418011
 20
7.599686636232999
 30
0.0
 11
-83.27989000418011
 21
36.224686636233
 31
0.0
  0
LINE
  5
F108AE
330
F10002
100
AcDbEntity
  8
Bemassung
 62
     0
370
    -2
100
AcDbLine
 10
-83.2198900041801
 20
24.599686636233
 30
0.0
 11
-83.2198900041801
 21
36.224686636233
 31
0.0
  0
LINE
  5
F108AF
330
F10002
100
AcDbEntity
  8
Bemassung
 62
     0
370
    -2
100
AcDbLine
 10
-85.77989000418011
 20
34.974686636233
 30
0.0
 11
-88.27989000418011
 21
34.974686636233
 31
0.0
  0
LINE
  5
F108B0
330
F10002
100
AcDbEntity
  8
Bemassung
 62
     0
370
    -2
100
AcDbLine
 10
-80.7198900041801
 20
34.974686636233
 30
0.0
 11
-66.03963761673125
 21
34.974686636233
 31
0.0
  0
LINE
  5
F108B1
330
F10002
100
AcDbEntity
  8
Bemassung
 62
     0
370
    -2
100
AcDbLine
 10
-83.27989000418011
 20
34.974686636233
 30
0.0
 11
-83.2198900041801
 21
34.974686636233
 31
0.0
  0
INSERT
  5
F108B2
330
F10002
100
AcDbEntity
  8
Bemassung
 62
     0
370
    -2
100
AcDbBlockReference
  2
VDDIM_DEFAULT
 10
-83.27989000418011
 20
34.974686636233
 30
0.0
 41
2.5
 42
2.5
 43
2.5
  0
INSERT
  5
F108B3
330
F10002
100
AcDbEntity
  8
Bemassung
 62
     0
370
    -2
100
AcDbBlockReference
  2
VDDIM_DEFAULT
 10
-83.2198900041801
 20
34.974686636233
 30
0.0
 41
2.5
 42
2.5
 43
2.5
 50
180.0
  0
MTEXT
  5
F108B4
102
{ACAD_XDICTIONARY
360
F10A19
102
}
330
F10002
100
AcDbEntity
  8
Bemassung
 62
     0
100
AcDbMText
 10
-72.12976381045568
 20
35.599686636233
 30
0.0
 40
2.5
 41
0.0
 71
     8
 72
     1
  1
\A1;0.06{\H1.250000;\U+00B10.03}
 73
     1
 44
1.0
1001
ACAD
1000
MTEXTBEGIN
1070
    73
1070
     1
1070
    44
1040
1.0
1070
    74
1070
     0
1000
MTEXTEND
  0
POINT
  5
F108B5
330
F10002
100
AcDbEntity
  8
Defpoints
 62
     0
100
AcDbPoint
 10
-83.27989000418011
 20
6.974686636232999
 30
0.0
  0
POINT
  5
F108B6
330
F10002
100
AcDbEntity
  8
Defpoints
 62
     0
100
AcDbPoint
 10
-83.2198900041801
 20
23.974686636233
 30
0.0
  0
POINT
  5
F108B7
330
F10002
100
AcDbEntity
  8
Defpoints
 62
     0
100
AcDbPoint
 10
-83.2198900041801
 20
34.974686636233
 30
0.0
  0
ENDBLK
  5
F10038
330
F10002
100
AcDbEntity
  8
0
100
AcDbBlockEnd
  0
BLOCK
  5
F10039
330
F10011
100
AcDbEntity
  8
0
100
AcDbBlockBegin
  2
*D4
 70
     1
 10
0.0
 20
0.0
 30
0.0
  3
*D4
  1

  0
LINE
  5
F1098E
330
F10011
100
AcDbEntity
  8
Bemassung
 62
     0
370
    -2
100
AcDbLine
 10
-29.87156546447685
 20
8.154603629633459
 30
0.0
 11
-29.87156546447685
 21
-13.43978872693246
 31
0.0
  0
LINE
  5
F1098F
330
F10011
100
AcDbEntity
  8
Bemassung
 62
     0
370
    -2
100
AcDbLine
 10
-13.87156546447685
 20
10.05460362963346
 30
0.0
 11
-13.87156546447685
 21
-13.43978872693246
 31
0.0
  0
LINE
  5
F10990
330
F10011
100
AcDbEntity
  8
Bemassung
 62
     0
370
    -2
100
AcDbLine
 10
-27.37156546447685
 20
-12.18978872693246
 30
0.0
 11
-16.37156546447685
 21
-12.18978872693246
 31
0.0
  0
INSERT
  5
F10991
330
F10011
100
AcDbEntity
  8
Bemassung
 62
     0
370
    -2
100
AcDbBlockReference
  2
VDDIM_DEFAULT
 10
-29.87156546447685
 20
-12.18978872693246
 30
0.0
 41
2.5
 42
2.5
 43
2.5
 50
180.0
  0
INSERT
  5
F10992
330
F10011
100
AcDbEntity
  8
Bemassung
 62
     0
370
    -2
100
AcDbBlockReference
  2
VDDIM_DEFAULT
 10
-13.87156546447685
 20
-12.18978872693246
 30
0.0
 41
2.5
 42
2.5
 43
2.5
  0
MTEXT
  5
F10993
330
F10011
100
AcDbEntity
  8
Bemassung
 62
     0
100
AcDbMText
 10
-21.58685605590572
 20
-11.56478872693246
 30
0.0
 40
2.5
 41
0.0
 71
     8
 72
     1
  1
\A1;16
 73
     1
 44
1.0
1001
ACAD
1000
MTEXTBEGIN
1070
    73
1070
     1
1070
    44
1040
1.0
1070
    74
1070
     0
1000
MTEXTEND
  0
POINT
  5
F10994
330
F10011
100
AcDbEntity
  8
Defpoints
 62
     0
100
AcDbPoint
 10
-29.87156546447685
 20
8.779603629633459
 30
0.0
  0
POINT
  5
F10995
330
F10011
100
AcDbEntity
  8
Defpoints
 62
     0
100
AcDbPoint
 10
-13.87156546447685
 20
10.67960362963346
 30
0.0
  0
POINT
  5
F10996
330
F10011
100
AcDbEntity
  8
Defpoints
 62
     0
100
AcDbPoint
 10
-13.87156546447685
 20
-12.18978872693246
 30
0.0
  0
ENDBLK
  5
F10042
330
F10011
100
AcDbEntity
  8
0
100
AcDbBlockEnd
  0
BLOCK
  5
F10043
330
F1001B
100
AcDbEntity
  8
0
100
AcDbBlockBegin
  2
*D5
 70
     1
 10
0.0
 20
0.0
 30
0.0
  3
*D5
  1

  0
LINE
  5
F10997
330
F1001B
100
AcDbEntity
  8
Bemassung
 62
     0
370
    -2
100
AcDbLine
 10
-8.871565464476844
 20
5.154603629633459
 30
0.0
 11
-8.871565464476846
 21
-14.47039637036654
 31
0.0
  0
LINE
  5
F10998
330
F1001B
100
AcDbEntity
  8
Bemassung
 62
     0
370
    -2
100
AcDbLine
 10
27.12843453552315
 20
-14.59539637036654
 30
0.0
 11
27.12843453552315
 21
-11.97039637036654
 31
0.0
  0
LINE
  5
F10999
330
F1001B
100
AcDbEntity
  8
Bemassung
 62
     0
370
    -2
100
AcDbLine
 10
-6.371565464476846
 20
-13.22039637036654
 30
0.0
 11
24.62843453552315
 21
-13.22039637036654
 31
0.0
  0
INSERT
  5
F1099A
330
F1001B
100
AcDbEntity
  8
Bemassung
 62
     0
370
    -2
100
AcDbBlockReference
  2
VDDIM_DEFAULT
 10
-8.871565464476846
 20
-13.22039637036654
 30
0.0
 41
2.5
 42
2.5
 43
2.5
 50
180.0
  0
INSERT
  5
F1099B
330
F1001B
100
AcDbEntity
  8
Bemassung
 62
     0
370
    -2
100
AcDbBlockReference
  2
VDDIM_DEFAULT
 10
27.12843453552315
 20
-13.22039637036654
 30
0.0
 41
2.5
 42
2.5
 43
2.5
  0
MTEXT
  5
F1099C
330
F1001B
100
AcDbEntity
  8
Bemassung
 62
     0
100
AcDbMText
 10
9.128434535523151
 20
-12.59539637036654
 30
0.0
 40
2.5
 41
0.0
 71
     8
 72
     1
  1
\A1;36
 73
     1
 44
1.0
1001
ACAD
1000
MTEXTBEGIN
1070
    73
1070
     1
1070
    44
1040
1.0
1070
    74
1070
     0
1000
MTEXTEND
  0
POINT
  5
F1099D
330
F1001B
100
AcDbEntity
  8
Defpoints
 62
     0
100
AcDbPoint
 10
-8.871565464476844
 20
5.779603629633459
 30
0.0
  0
POINT
  5
F1099E
330
F1001B
100
AcDbEntity
  8
Defpoints
 62
     0
100
AcDbPoint
 10
27.12843453552315
 20
-15.22039637036654
 30
0.0
  0
POINT
  5
F1099F
330
F1001B
100
AcDbEntity
  8
Defpoints
 62
     0
100
AcDbPoint
 10
27.12843453552315
 20
-13.22039637036654
 30
0.0
  0
ENDBLK
  5
F1004C
330
F1001B
100
AcDbEntity
  8
0
100
AcDbBlockEnd
  0
BLOCK
  5
F1004D
330
F10025
100
AcDbEntity
  8
0
100
AcDbBlockBegin
  2
*D6
 70
     1
 10
0.0
 20
0.0
 30
0.0
  3
*D6
  1

  0
LINE
  5
F109AB
330
F10025
100
AcDbEntity
  8
Bemassung
 62
     0
370
    -2
100
AcDbLine
 10
-18.87156546447685
 20
6.254603629633457
 30
0.0
 11
-18.87156546447685
 21
-5.470396370366543
 31
0.0
  0
LINE
  5
F109AC
330
F10025
100
AcDbEntity
  8
Bemassung
 62
     0
370
    -2
100
AcDbLine
 10
-29.87156546447685
 20
8.154603629633459
 30
0.0
 11
-29.87156546447685
 21
-5.470396370366543
 31
0.0
  0
LINE
  5
F109AD
330
F10025
100
AcDbEntity
  8
Bemassung
 62
     0
370
    -2
100
AcDbLine
 10
-21.37156546447685
 20
-4.220396370366543
 30
0.0
 11
-27.37156546447685
 21
-4.220396370366543
 31
0.0
  0
INSERT
  5
F109AE
330
F10025
100
AcDbEntity
  8
Bemassung
 62
     0
370
    -2
100
AcDbBlockReference
  2
VDDIM_DEFAULT
 10
-18.87156546447685
 20
-4.220396370366543
 30
0.0
 41
2.5
 42
2.5
 43
2.5
  0
INSERT
  5
F109AF
330
F10025
100
AcDbEntity
  8
Bemassung
 62
     0
370
    -2
100
AcDbBlockReference
  2
VDDIM_DEFAULT
 10
-29.87156546447685
 20
-4.220396370366543
 30
0.0
 41
2.5
 42
2.5
 43
2.5
 50
180.0
  0
MTEXT
  5
F109B0
330
F10025
100
AcDbEntity
  8
Bemassung
 62
     0
100
AcDbMText
 10
-24.37156546447685
 20
-3.595396370366543
 30
0.0
 40
2.5
 41
0.0
 71
     8
 72
     1
  1
\A1;11
 73
     1
 44
1.0
1001
ACAD
1000
MTEXTBEGIN
1070
    73
1070
     1
1070
    44
1040
1.0
1070
    74
1070
     0
1000
MTEXTEND
  0
POINT
  5
F109B1
330
F10025
100
AcDbEntity
  8
Defpoints
 62
     0
100
AcDbPoint
 10
-18.87156546447685
 20
6.879603629633457
 30
0.0
  0
POINT
  5
F109B2
330
F10025
100
AcDbEntity
  8
Defpoints
 62
     0
100
AcDbPoint
 10
-29.87156546447685
 20
8.779603629633459
 30
0.0
  0
POINT
  5
F109B3
330
F10025
100
AcDbEntity
  8
Defpoints
 62
     0
100
AcDbPoint
 10
-29.87156546447685
 20
-4.220396370366543
 30
0.0
  0
ENDBLK
  5
F10056
330
F10025
100
AcDbEntity
  8
0
100
AcDbBlockEnd
  0
BLOCK
  5
F10057
330
F1002A
100
AcDbEntity
  8
0
100
AcDbBlockBegin
  2
*D7
 70
     1
 10
0.0
 20
0.0
 30
0.0
  3
*D7
  1

  0
LINE
  5
F109B4
330
F1002A
100
AcDbEntity
  8
Bemassung
 62
     0
370
    -2
100
AcDbLine
 10
27.12843453552315
 20
-14.59539637036654
 30
0.0
 11
27.12843453552315
 21
43.02960362963346
 31
0.0
  0
LINE
  5
F109B5
330
F1002A
100
AcDbEntity
  8
Bemassung
 62
     0
370
    -2
100
AcDbLine
 10
-29.87156546447685
 20
9.404603629633459
 30
0.0
 11
-29.87156546447685
 21
43.02960362963346
 31
0.0
  0
LINE
  5
F109B6
330
F1002A
100
AcDbEntity
  8
Bemassung
 62
     0
370
    -2
100
AcDbLine
 10
24.62843453552315
 20
41.77960362963346
 30
0.0
 11
-27.37156546447685
 21
41.77960362963346
 31
0.0
  0
INSERT
  5
F109B7
330
F1002A
100
AcDbEntity
  8
Bemassung
 62
     0
370
    -2
100
AcDbBlockReference
  2
VDDIM_DEFAULT
 10
27.12843453552315
 20
41.77960362963346
 30
0.0
 41
2.5
 42
2.5
 43
2.5
  0
INSERT
  5
F109B8
330
F1002A
100
AcDbEntity
  8
Bemassung
 62
     0
370
    -2
100
AcDbBlockReference
  2
VDDIM_DEFAULT
 10
-29.87156546447685
 20
41.77960362963346
 30
0.0
 41
2.5
 42
2.5
 43
2.5
 50
180.0
  0
MTEXT
  5
F109B9
330
F1002A
100
AcDbEntity
  8
Bemassung
 62
     0
100
AcDbMText
 10
-1.371565464476848
 20
42.40460362963346
 30
0.0
 40
2.5
 41
0.0
 71
     8
 72
     1
  1
\A1;57
 73
     1
 44
1.0
1001
ACAD
1000
MTEXTBEGIN
1070
    73
1070
     1
1070
    44
1040
1.0
1070
    74
1070
     0
1000
MTEXTEND
  0
POINT
  5
F109BA
330
F1002A
100
AcDbEntity
  8
Defpoints
 62
     0
100
AcDbPoint
 10
27.12843453552315
 20
-15.22039637036654
 30
0.0
  0
POINT
  5
F109BB
330
F1002A
100
AcDbEntity
  8
Defpoints
 62
     0
100
AcDbPoint
 10
-29.87156546447685
 20
8.779603629633459
 30
0.0
  0
POINT
  5
F109BC
330
F1002A
100
AcDbEntity
  8
Defpoints
 62
     0
100
AcDbPoint
 10
-29.87156546447685
 20
41.77960362963346
 30
0.0
  0
ENDBLK
  5
F10060
330
F1002A
100
AcDbEntity
  8
0
100
AcDbBlockEnd
  0
BLOCK
  5
F10061
330
F10016
100
AcDbEntity
  8
0
100
AcDbBlockBegin
  2
*D8
 70
     1
 10
0.0
 20
0.0
 30
0.0
  3
*D8
  1

  0
ARC
  5
F108D7
330
F10016
100
AcDbEntity
  8
Bemassung
 62
     0
370
    -2
100
AcDbCircle
 10
-65.37463411585432
 20
24.97468663623301
 30
0.0
 40
32.12373787297726
100
AcDbArc
 50
4.460116739363042
 51
25.53988326063695
  0
INSERT
  5
F108D8
330
F10016
100
AcDbEntity
  8
Bemassung
 62
     0
370
    -2
100
AcDbBlockReference
  2
VDDIM_DEFAULT
 10
-33.25089624287706
 20
24.97468663623302
 30
0.0
 41
2.5
 42
2.5
 43
2.5
 50
272.2300583696815
  0
INSERT
  5
F108D9
330
F10016
100
AcDbEntity
  8
Bemassung
 62
     0
370
    -2
100
AcDbBlockReference
  2
VDDIM_DEFAULT
 10
-37.55466105334372
 20
41.03655557272162
 30
0.0
 41
2.5
 42
2.5
 43
2.5
 50
117.7699416303184
  0
MTEXT
  5
F108DA
102
{ACAD_XDICTIONARY
360
F109D0
102
}
330
F10016
100
AcDbEntity
  8
Bemassung
 62
     0
100
AcDbMText
 10
-33.74178242597466
 20
33.45068370082973
 30
0.0
 40
2.5
 41
0.0
 71
     8
 72
     1
  1
\A1;30\U+00B0{\H0.5x;\S+5°^ +5°;}
 11
0.2588190451025214
 21
-0.9659258262890681
 31
0.0
 73
     1
 44
1.0
1001
ACAD
1000
MTEXTBEGIN
1070
    73
1070
     1
1070
    44
1040
1.0
1070
    74
1070
     0
1000
MTEXTEND
  0
POINT
  5
F108DB
330
F10016
100
AcDbEntity
  8
Defpoints
 62
     0
100
AcDbPoint
 10
-33.73892800281441
 20
30.55291517772567
 30
0.0
  0
POINT
  5
F108DC
330
F10016
100
AcDbEntity
  8
Defpoints
 62
     0
100
AcDbPoint
 10
-35.82261024577491
 20
42.03655557272161
 30
0.0
  0
POINT
  5
F108DD
330
F10016
100
AcDbEntity
  8
Defpoints
 62
     0
100
AcDbPoint
 10
-65.37463411585432
 20
24.97468663623301
 30
0.0
  0
POINT
  5
F108DE
330
F10016
100
AcDbEntity
  8
Defpoints
 62
     0
100
AcDbPoint
 10
-31.2508962428771
 20
24.97468663623301
 30
0.0
  0
POINT
  5
F108DF
330
F10016
100
AcDbEntity
  8
Defpoints
 62
     0
100
AcDbPoint
 10
-65.37463411585432
 20
24.97468663623301
 30
0.0
  0
ENDBLK
  5
F1006C
330
F10016
100
AcDbEntity
  8
0
100
AcDbBlockEnd
  0
BLOCK
  5
F1006D
330
F10007
100
AcDbEntity
  8
0
100
AcDbBlockBegin
  2
*D9
 70
     1
 10
0.0
 20
0.0
 30
0.0
  3
*D9
  1

  0
LINE
  5
F10978
330
F10007
100
AcDbEntity
  8
Bemassung
 62
     0
370
    -2
100
AcDbLine
 10
-30.43656546447685
 20
6.77960362963346
 30
0.0
 11
-46.12156546447684
 21
6.779603629633465
 31
0.0
  0
LINE
  5
F10979
330
F10007
100
AcDbEntity
  8
Bemassung
 62
     0
370
    -2
100
AcDbLine
 10
-30.43656546447685
 20
10.77960362963346
 30
0.0
 11
-46.12156546447684
 21
10.77960362963346
 31
0.0
  0
LINE
  5
F1097A
330
F10007
100
AcDbEntity
  8
Bemassung
 62
     0
370
    -2
100
AcDbLine
 10
-44.87156546447684
 20
4.279603629633464
 30
0.0
 11
-44.87156546447684
 21
1.779603629633464
 31
0.0
  0
LINE
  5
F1097B
330
F10007
100
AcDbEntity
  8
Bemassung
 62
     0
370
    -2
100
AcDbLine
 10
-44.87156546447684
 20
13.27960362963346
 30
0.0
 11
-44.87156546447683
 21
21.37817116032923
 31
0.0
  0
LINE
  5
F1097C
330
F10007
100
AcDbEntity
  8
Bemassung
 62
     0
370
    -2
100
AcDbLine
 10
-44.87156546447684
 20
6.779603629633464
 30
0.0
 11
-44.87156546447684
 21
10.77960362963346
 31
0.0
  0
INSERT
  5
F1097D
330
F10007
100
AcDbEntity
  8
Bemassung
 62
     0
370
    -2
100
AcDbBlockReference
  2
VDDIM_DEFAULT
 10
-44.87156546447684
 20
6.779603629633464
 30
0.0
 41
2.5
 42
2.5
 43
2.5
 50
90.0
  0
INSERT
  5
F1097E
330
F10007
100
AcDbEntity
  8
Bemassung
 62
     0
370
    -2
100
AcDbBlockReference
  2
VDDIM_DEFAULT
 10
-44.87156546447684
 20
10.77960362963346
 30
0.0
 41
2.5
 42
2.5
 43
2.5
 50
270.0
  0
MTEXT
  5
F1097F
330
F10007
100
AcDbEntity
  8
Bemassung
 62
     0
100
AcDbMText
 10
-45.49656546447684
 20
18.57888739498134
 30
0.0
 40
2.5
 41
0.0
 71
     8
 72
     1
  1
\A1;%%c4
 11
0.0000000000000001
 21
1.0
 31
0.0
 73
     1
 44
1.0
1001
ACAD
1000
MTEXTBEGIN
1070
    73
1070
     1
1070
    44
1040
1.0
1070
    74
1070
     0
1000
MTEXTEND
  0
POINT
  5
F10980
330
F10007
100
AcDbEntity
  8
Defpoints
 62
     0
100
AcDbPoint
 10
-29.81156546447685
 20
6.779603629633459
 30
0.0
  0
POINT
  5
F10981
330
F10007
100
AcDbEntity
  8
Defpoints
 62
     0
100
AcDbPoint
 10
-29.81156546447685
 20
10.77960362963346
 30
0.0
  0
POINT
  5
F10982
330
F10007
100
AcDbEntity
  8
Defpoints
 62
     0
100
AcDbPoint
 10
-44.87156546447684
 20
10.77960362963346
 30
0.0
  0
ENDBLK
  5
F10076
330
F10007
100
AcDbEntity
  8
0
100
AcDbBlockEnd
  0
BLOCK
  5
F10077
330
F1000C
100
AcDbEntity
  8
0
100
AcDbBlockBegin
  2
*D10
 70
     1
 10
0.0
 20
0.0
 30
0.0
  3
*D10
  1

  0
LINE
  5
F10983
330
F1000C
100
AcDbEntity
  8
Bemassung
 62
     0
370
    -2
100
AcDbLine
 10
-18.24656546447685
 20
6.879603629633457
 30
0.0
 11
-15.36329103281208
 21
6.879603629633456
 31
0.0
  0
LINE
  5
F10984
330
F1000C
100
AcDbEntity
  8
Bemassung
 62
     0
370
    -2
100
AcDbLine
 10
-18.24656546447685
 20
10.67960362963346
 30
0.0
 11
-15.36329103281208
 21
10.67960362963346
 31
0.0
  0
LINE
  5
F10985
330
F1000C
100
AcDbEntity
  8
Bemassung
 62
     0
370
    -2
100
AcDbLine
 10
-16.61329103281208
 20
4.379603629633456
 30
0.0
 11
-16.61329103281208
 21
1.879603629633457
 31
0.0
  0
LINE
  5
F10986
330
F1000C
100
AcDbEntity
  8
Bemassung
 62
     0
370
    -2
100
AcDbLine
 10
-16.61329103281207
 20
13.17960362963346
 30
0.0
 11
-16.61329103281207
 21
24.20620663099772
 31
0.0
  0
LINE
  5
F10987
330
F1000C
100
AcDbEntity
  8
Bemassung
 62
     0
370
    -2
100
AcDbLine
 10
-16.61329103281208
 20
6.879603629633456
 30
0.0
 11
-16.61329103281207
 21
10.67960362963346
 31
0.0
  0
INSERT
  5
F10988
330
F1000C
100
AcDbEntity
  8
Bemassung
 62
     0
370
    -2
100
AcDbBlockReference
  2
VDDIM_DEFAULT
 10
-16.61329103281208
 20
6.879603629633456
 30
0.0
 41
2.5
 42
2.5
 43
2.5
 50
90.0
  0
INSERT
  5
F10989
330
F1000C
100
AcDbEntity
  8
Bemassung
 62
     0
370
    -2
100
AcDbBlockReference
  2
VDDIM_DEFAULT
 10
-16.61329103281207
 20
10.67960362963346
 30
0.0
 41
2.5
 42
2.5
 43
2.5
 50
270.0
  0
MTEXT
  5
F1098A
330
F1000C
100
AcDbEntity
  8
Bemassung
 62
     0
100
AcDbMText
 10
-17.23829103281208
 20
19.94290513031558
 30
0.0
 40
2.5
 41
0.0
 71
     8
 72
     1
  1
\A1;%%c3.8
 11
0.0000000000000001
 21
1.0
 31
0.0
 73
     1
 44
1.0
1001
ACAD
1000
MTEXTBEGIN
1070
    73
1070
     1
1070
    44
1040
1.0
1070
    74
1070
     0
1000
MTEXTEND
  0
POINT
  5
F1098B
330
F1000C
100
AcDbEntity
  8
Defpoints
 62
     0
100
AcDbPoint
 10
-18.87156546447685
 20
6.879603629633457
 30
0.0
  0
POINT
  5
F1098C
330
F1000C
100
AcDbEntity
  8
Defpoints
 62
     0
100
AcDbPoint
 10
-18.87156546447685
 20
10.67960362963346
 30
0.0
  0
POINT
  5
F1098D
330
F1000C
100
AcDbEntity
  8
Defpoints
 62
     0
100
AcDbPoint
 10
-16.61329103281207
 20
10.67960362963346
 30
0.0
  0
ENDBLK
  5
F10080
330
F1000C
100
AcDbEntity
  8
0
100
AcDbBlockEnd
  0
BLOCK
  5
F10081
330
F10020
100
AcDbEntity
  8
0
100
AcDbBlockBegin
  2
*D11
 70
     1
 10
0.0
 20
0.0
 30
0.0
  3
*D11
  1

  0
LINE
  5
F109A0
330
F10020
100
AcDbEntity
  8
Bemassung
 62
     0
370
    -2
100
AcDbLine
 10
27.25343453552315
 20
5.779603629633459
 30
0.0
 11
38.37843453552316
 21
5.779603629633456
 31
0.0
  0
LINE
  5
F109A1
330
F10020
100
AcDbEntity
  8
Bemassung
 62
     0
370
    -2
100
AcDbLine
 10
27.25343453552315
 20
11.77960362963346
 30
0.0
 11
38.37843453552316
 21
11.77960362963345
 31
0.0
  0
LINE
  5
F109A2
330
F10020
100
AcDbEntity
  8
Bemassung
 62
     0
370
    -2
100
AcDbLine
 10
37.12843453552316
 20
3.279603629633456
 30
0.0
 11
37.12843453552316
 21
0.7796036296334571
 31
0.0
  0
LINE
  5
F109A3
330
F10020
100
AcDbEntity
  8
Bemassung
 62
     0
370
    -2
100
AcDbLine
 10
37.12843453552316
 20
14.27960362963345
 30
0.0
 11
37.12843453552316
 21
27.2417455123074
 31
0.0
  0
LINE
  5
F109A4
330
F10020
100
AcDbEntity
  8
Bemassung
 62
     0
370
    -2
100
AcDbLine
 10
37.12843453552316
 20
5.779603629633457
 30
0.0
 11
37.12843453552316
 21
11.77960362963345
 31
0.0
  0
INSERT
  5
F109A5
330
F10020
100
AcDbEntity
  8
Bemassung
 62
     0
370
    -2
100
AcDbBlockReference
  2
VDDIM_DEFAULT
 10
37.12843453552316
 20
5.779603629633457
 30
0.0
 41
2.5
 42
2.5
 43
2.5
 50
90.0
  0
INSERT
  5
F109A6
330
F10020
100
AcDbEntity
  8
Bemassung
 62
     0
370
    -2
100
AcDbBlockReference
  2
VDDIM_DEFAULT
 10
37.12843453552316
 20
11.77960362963345
 30
0.0
 41
2.5
 42
2.5
 43
2.5
 50
270.0
  0
MTEXT
  5
F109A7
330
F10020
100
AcDbEntity
  8
Bemassung
 62
     0
100
AcDbMText
 10
36.50343453552316
 20
22.01067457097043
 30
0.0
 40
2.5
 41
0.0
 71
     8
 72
     1
  1
\A1;%%c6 h6
 11
0.0000000000000001
 21
1.0
 31
0.0
 73
     1
 44
1.0
1001
ACAD
1000
MTEXTBEGIN
1070
    73
1070
     1
1070
    44
1040
1.0
1070
    74
1070
     0
1000
MTEXTEND
  0
POINT
  5
F109A8
330
F10020
100
AcDbEntity
  8
Defpoints
 62
     0
100
AcDbPoint
 10
26.62843453552315
 20
5.779603629633459
 30
0.0
  0
POINT
  5
F109A9
330
F10020
100
AcDbEntity
  8
Defpoints
 62
     0
100
AcDbPoint
 10
26.62843453552315
 20
11.77960362963346
 30
0.0
  0
POINT
  5
F109AA
330
F10020
100
AcDbEntity
  8
Defpoints
 62
     0
100
AcDbPoint
 10
37.12843453552316
 20
11.77960362963345
 30
0.0
  0
ENDBLK
  5
F1008A
330
F10020
100
AcDbEntity
  8
0
100
AcDbBlockEnd
  0
BLOCK
  5
F10893
330
F10891
100
AcDbEntity
  8
0
100
AcDbBlockBegin
  2
GENAXEH
 70
     0
 10
0.0
 20
0.0
 30
0.0
  3
GENAXEH
  1

  0
LINE
  5
F10892
330
F10891
100
AcDbEntity
  8
0
100
AcDbLine
 10
-1.0
 20
0.0
 30
0.0
 11
1.0
 21
0.0
 31
0.0
  0
ENDBLK
  5
F10894
330
F10891
100
AcDbEntity
  8
0
100
AcDbBlockEnd
  0
ENDSEC
  0
SECTION
  2
ENTITIES
  0
DIMENSION
  5
F10012
330
261
100
AcDbEntity
  8
Bemassung
100
AcDbDimension
  2
*D4
 10
-13.87156546447685
 20
-12.18978872693246
 30
0.0
 11
-21.58685605590572
 21
-12.18978872693246
 31
0.0
 70
   160
  1
<>
 71
     8
 42
16.0
  3
BEM-ISBE
100
AcDbAlignedDimension
 13
-29.87156546447685
 23
8.779603629633459
 33
0.0
 14
-13.87156546447685
 24
10.67960362963346
 34
0.0
100
AcDbRotatedDimension
1001
ACAD
1000
DSTYLE
1002
{
1070
   147
1040
0.625
1070
    72
1070
     0
1070
    71
1070
     0
1070
   284
1070
     8
1070
    78
1070
     8
1070
   144
1040
1.0
1070
    47
1040
0.5
1070
    48
1040
0.0
1002
}
  0
DIMENSION
  5
F1001C
330
261
100
AcDbEntity
  8
Bemassung
100
AcDbDimension
  2
*D5
 10
27.12843453552315
 20
-13.22039637036654
 30
0.0
 11
9.128434535523151
 21
-11.31811124076217
 31
0.0
 70
    32
  1
<>
 71
     8
 42
36.0
  3
BEM-ISBE
100
AcDbAlignedDimension
 13
-8.871565464476844
 23
5.779603629633459
 33
0.0
 14
27.12843453552315
 24
-15.22039637036654
 34
0.0
100
AcDbRotatedDimension
1001
ACAD
1000
DSTYLE
1002
{
1070
   147
1040
0.625
1070
    72
1070
     0
1070
    71
1070
     0
1070
   284
1070
     8
1070
    78
1070
     8
1070
   144
1040
1.0
1070
    47
1040
2.0
1070
    48
1040
0.0
1002
}
  0
DIMENSION
  5
F10026
330
261
100
AcDbEntity
  8
Bemassung
100
AcDbDimension
  2
*D6
 10
-29.87156546447685
 20
-4.220396370366543
 30
0.0
 11
-24.37156546447685
 21
-2.340280408565725
 31
0.0
 70
    32
  1
<>
 71
     8
 42
11.0
  3
BEM-ISBE
100
AcDbAlignedDimension
 13
-18.87156546447685
 23
6.879603629633457
 33
0.0
 14
-29.87156546447685
 24
8.779603629633459
 34
0.0
100
AcDbRotatedDimension
1001
ACAD
1000
DSTYLE
1002
{
1070
   147
1040
0.625
1070
    72
1070
     0
1070
    71
1070
     0
1070
   284
1070
     8
1070
    78
1070
     8
1070
   144
1040
1.0
1070
    47
1040
1.5
1070
    48
1040
0.0
1002
}
  0
DIMENSION
  5
F1002B
330
261
100
AcDbEntity
  8
Bemassung
100
AcDbDimension
  2
*D7
 10
-29.87156546447685
 20
41.77960362963346
 30
0.0
 11
-1.371565464476848
 21
43.67592013713687
 31
0.0
 70
    32
  1
<>
 71
     8
 42
57.0
  3
BEM-ISBE
100
AcDbAlignedDimension
 13
27.12843453552315
 23
-15.22039637036654
 33
0.0
 14
-29.87156546447685
 24
8.779603629633459
 34
0.0
100
AcDbRotatedDimension
1001
ACAD
1000
DSTYLE
1002
{
1070
   147
1040
0.625
1070
    72
1070
     0
1070
    71
1070
     0
1070
   284
1070
     8
1070
    78
1070
     8
1070
   144
1040
1.0
1070
    47
1040
2.0
1070
    48
1040
0.0
1002
}
  0
DIMENSION
  5
F10008
330
261
100
AcDbEntity
  8
Bemassung
100
AcDbDimension
  2
*D9
 10
-44.87156546447684
 20
10.77960362963346
 30
0.0
 11
-46.84291607839226
 21
18.57888739498134
 31
0.0
 70
    32
  1
%%c<>
 71
     8
 42
3.999999999999999
  3
BEM-ISBE
100
AcDbAlignedDimension
 13
-29.81156546447685
 23
6.779603629633459
 33
0.0
 14
-29.81156546447685
 24
10.77960362963346
 34
0.0
 50
90.0
100
AcDbRotatedDimension
1001
ACAD
1000
DSTYLE
1002
{
1070
   147
1040
0.625
1070
    72
1070
     0
1070
    71
1070
     0
1070
   284
1070
     8
1070
    78
1070
     8
1070
   144
1040
1.0
1070
    47
1040
0.0
1070
    48
1040
-0.048
1002
}
  0
DIMENSION
  5
F1000D
330
261
100
AcDbEntity
  8
Bemassung
100
AcDbDimension
  2
*D10
 10
-16.61329103281207
 20
10.67960362963346
 30
0.0
 11
-16.61329103281208
 21
19.94290513031558
 31
0.0
 70
   160
  1
%%c<>
 71
     8
 42
3.800000000000001
  3
BEM-ISBE
100
AcDbAlignedDimension
 13
-18.87156546447685
 23
6.879603629633457
 33
0.0
 14
-18.87156546447685
 24
10.67960362963346
 34
0.0
 50
90.0
100
AcDbRotatedDimension
1001
ACAD
1000
DSTYLE
1002
{
1070
   147
1040
0.625
1070
    72
1070
     0
1070
    71
1070
     0
1070
   284
1070
     8
1070
    78
1070
     8
1070
   144
1040
1.0
1070
    47
1040
0.0
1070
    48
1040
-0.1
1002
}
  0
DIMENSION
  5
F10021
330
261
100
AcDbEntity
  8
Bemassung
100
AcDbDimension
  2
*D11
 10
37.12843453552316
 20
11.77960362963345
 30
0.0
 11
35.15708392160774
 21
22.01067457097043
 31
0.0
 70
    32
  1
%%c<> h6
 71
     8
 42
5.999999999999999
  3
BEM-ISBE
100
AcDbAlignedDimension
 13
26.62843453552315
 23
5.779603629633459
 33
0.0
 14
26.62843453552315
 24
11.77960362963346
 34
0.0
 50
90.0
100
AcDbRotatedDimension
1001
ACAD
1000
DSTYLE
1002
{
1070
   284
1070
     8
1070
    78
1070
     8
1070
   144
1040
1.0
1070
   147
1040
0.625
1070
    72
1070
     0
1070
    71
1070
     0
1002
}
  0
LINE
  5
F1008B
330
261
100
AcDbEntity
  8
Geo
100
AcDbLine
 10
-29.87156546447685
 20
8.779603629633459
 30
0.0
 11
-29.87156546447685
 21
10.71960362963346
 31
0.0
  0
LINE
  5
F1008D
330
261
100
AcDbEntity
  8
Geo
100
AcDbLine
 10
-29.87156546447685
 20
10.71960362963346
 30
0.0
 11
-29.81156546447685
 21
10.77960362963346
 31
0.0
  0
LINE
  5
F1008F
330
261
100
AcDbEntity
  8
Geo
100
AcDbLine
 10
-29.81156546447685
 20
10.77960362963346
 30
0.0
 11
-18.87156546447685
 21
10.77960362963346
 31
0.0
  0
LINE
  5
F10091
330
261
100
AcDbEntity
  8
Geo
100
AcDbLine
 10
-18.87156546447685
 20
10.77960362963346
 30
0.0
 11
-18.87156546447685
 21
10.67960362963346
 31
0.0
  0
LINE
  5
F10093
330
261
100
AcDbEntity
  8
Geo
100
AcDbLine
 10
-18.87156546447685
 20
10.67960362963346
 30
0.0
 11
-13.87156546447685
 21
10.67960362963346
 31
0.0
  0
LINE
  5
F10095
330
261
100
AcDbEntity
  8
Geo
100
AcDbLine
 10
-13.87156546447685
 20
10.67960362963346
 30
0.0
 11
-11.96630957615105
 21
11.77960362963346
 31
0.0
  0
LINE
  5
F10097
330
261
100
AcDbEntity
  8
Geo
100
AcDbLine
 10
-11.96630957615105
 20
11.77960362963346
 30
0.0
 11
-8.871565464476844
 21
11.77960362963346
 31
0.0
  0
LINE
  5
F10099
330
261
100
AcDbEntity
  8
Geo
100
AcDbLine
 10
-8.871565464476844
 20
11.77960362963346
 30
0.0
 11
6.128434535523155
 21
11.77960362963346
 31
0.0
  0
LINE
  5
F1009B
330
261
100
AcDbEntity
  8
Geo
100
AcDbLine
 10
6.128434535523155
 20
11.77960362963346
 30
0.0
 11
7.028434535523153
 21
10.87960362963346
 31
0.0
  0
LINE
  5
F1009D
330
261
100
AcDbEntity
  8
Geo
100
AcDbLine
 10
7.028434535523153
 20
10.87960362963346
 30
0.0
 11
11.22843453552315
 21
10.87960362963346
 31
0.0
  0
LINE
  5
F1009F
330
261
100
AcDbEntity
  8
Geo
100
AcDbLine
 10
11.22843453552315
 20
10.87960362963346
 30
0.0
 11
12.12843453552315
 21
11.77960362963346
 31
0.0
  0
LINE
  5
F100A1
330
261
100
AcDbEntity
  8
Geo
100
AcDbLine
 10
12.12843453552315
 20
11.77960362963346
 30
0.0
 11
26.62843453552315
 21
11.77960362963346
 31
0.0
  0
LINE
  5
F100A3
330
261
100
AcDbEntity
  8
Geo
100
AcDbLine
 10
26.62843453552315
 20
11.77960362963346
 30
0.0
 11
27.12843453552315
 21
11.27960362963346
 31
0.0
  0
LINE
  5
F100A5
330
261
100
AcDbEntity
  8
Geo
100
AcDbLine
 10
-28.57156546447684
 20
10.77905202551896
 30
0.0
 11
-28.47156546447685
 21
10.77949880095835
 31
0.0
  0
LINE
  5
F100A7
330
261
100
AcDbEntity
  8
Geo
100
AcDbLine
 10
-28.47156546447685
 20
10.77949880095835
 30
0.0
 11
-28.37156546447685
 21
10.77767110252916
 31
0.0
  0
LINE
  5
F100A9
330
261
100
AcDbEntity
  8
Geo
100
AcDbLine
 10
-28.37156546447685
 20
10.77767110252916
 30
0.0
 11
-28.27156546447684
 21
10.77357100886645
 31
0.0
  0
LINE
  5
F100AB
330
261
100
AcDbEntity
  8
Geo
100
AcDbLine
 10
-28.27156546447684
 20
10.77357100886645
 30
0.0
 11
-28.17156546447685
 21
10.76720318299275
 31
0.0
  0
LINE
  5
F100AD
330
261
100
AcDbEntity
  8
Geo
100
AcDbLine
 10
-28.17156546447685
 20
10.76720318299275
 30
0.0
 11
-28.07156546447684
 21
10.75857486701425
 31
0.0
  0
LINE
  5
F100AF
330
261
100
AcDbEntity
  8
Geo
100
AcDbLine
 10
-28.07156546447684
 20
10.75857486701425
 30
0.0
 11
-27.97156546447685
 21
10.74769587388495
 31
0.0
  0
LINE
  5
F100B1
330
261
100
AcDbEntity
  8
Geo
100
AcDbLine
 10
-27.97156546447685
 20
10.74769587388495
 30
0.0
 11
-27.87156546447685
 21
10.73457857624615
 31
0.0
  0
LINE
  5
F100B3
330
261
100
AcDbEntity
  8
Geo
100
AcDbLine
 10
-27.87156546447685
 20
10.73457857624615
 30
0.0
 11
-27.77156546447685
 21
10.71923789235516
 31
0.0
  0
LINE
  5
F100B5
330
261
100
AcDbEntity
  8
Geo
100
AcDbLine
 10
-27.77156546447685
 20
10.71923789235516
 30
0.0
 11
-27.67156546447685
 21
10.70169126911876
 31
0.0
  0
LINE
  5
F100B7
330
261
100
AcDbEntity
  8
Geo
100
AcDbLine
 10
-27.67156546447685
 20
10.70169126911876
 30
0.0
 11
-27.57156546447684
 21
10.68195866225085
 31
0.0
  0
LINE
  5
F100B9
330
261
100
AcDbEntity
  8
Geo
100
AcDbLine
 10
-27.57156546447684
 20
10.68195866225085
 30
0.0
 11
-27.47156546447685
 21
10.66006251357716
 31
0.0
  0
LINE
  5
F100BB
330
261
100
AcDbEntity
  8
Geo
100
AcDbLine
 10
-27.47156546447685
 20
10.66006251357716
 30
0.0
 11
-27.37156546447685
 21
10.63602772551185
 31
0.0
  0
LINE
  5
F100BD
330
261
100
AcDbEntity
  8
Geo
100
AcDbLine
 10
-27.37156546447685
 20
10.63602772551185
 30
0.0
 11
-27.27156546447684
 21
10.60988163273645
 31
0.0
  0
LINE
  5
F100BF
330
261
100
AcDbEntity
  8
Geo
100
AcDbLine
 10
-27.27156546447684
 20
10.60988163273645
 30
0.0
 11
-27.17156546447685
 21
10.58165397111176
 31
0.0
  0
LINE
  5
F100C1
330
261
100
AcDbEntity
  8
Geo
100
AcDbLine
 10
-27.17156546447685
 20
10.58165397111176
 30
0.0
 11
-27.07156546447684
 21
10.55137684385995
 31
0.0
  0
LINE
  5
F100C3
330
261
100
AcDbEntity
  8
Geo
100
AcDbLine
 10
-27.07156546447684
 20
10.55137684385995
 30
0.0
 11
-26.97156546447685
 21
10.51908468505325
 31
0.0
  0
LINE
  5
F100C5
330
261
100
AcDbEntity
  8
Geo
100
AcDbLine
 10
-26.97156546447685
 20
10.51908468505325
 30
0.0
 11
-26.87156546447685
 21
10.48481422045216
 31
0.0
  0
LINE
  5
F100C7
330
261
100
AcDbEntity
  8
Geo
100
AcDbLine
 10
-26.87156546447685
 20
10.48481422045216
 30
0.0
 11
-26.77156546447684
 21
10.44860442573776
 31
0.0
  0
LINE
  5
F100C9
330
261
100
AcDbEntity
  8
Geo
100
AcDbLine
 10
-26.77156546447684
 20
10.44860442573776
 30
0.0
 11
-26.67156546447685
 21
10.41049648218445
 31
0.0
  0
LINE
  5
F100CB
330
261
100
AcDbEntity
  8
Geo
100
AcDbLine
 10
-26.67156546447685
 20
10.41049648218445
 30
0.0
 11
-26.57156546447684
 21
10.37053372982486
 31
0.0
  0
LINE
  5
F100CD
330
261
100
AcDbEntity
  8
Geo
100
AcDbLine
 10
-26.57156546447684
 20
10.37053372982486
 30
0.0
 11
-26.47156546447685
 21
10.32876161815906
 31
0.0
  0
LINE
  5
F100CF
330
261
100
AcDbEntity
  8
Geo
100
AcDbLine
 10
-26.47156546447685
 20
10.32876161815906
 30
0.0
 11
-26.37156546447685
 21
10.28522765446535
 31
0.0
  0
LINE
  5
F100D1
330
261
100
AcDbEntity
  8
Geo
100
AcDbLine
 10
-26.37156546447685
 20
10.28522765446535
 30
0.0
 11
-26.27156546447685
 21
10.23998134977015
 31
0.0
  0
LINE
  5
F100D3
330
261
100
AcDbEntity
  8
Geo
100
AcDbLine
 10
-26.27156546447685
 20
10.23998134977015
 30
0.0
 11
-26.17156546447685
 21
10.19307416253965
 31
0.0
  0
LINE
  5
F100D5
330
261
100
AcDbEntity
  8
Geo
100
AcDbLine
 10
-26.17156546447685
 20
10.19307416253965
 30
0.0
 11
-26.07156546447684
 21
10.14455944015566
 31
0.0
  0
LINE
  5
F100D7
330
261
100
AcDbEntity
  8
Geo
100
AcDbLine
 10
-26.07156546447684
 20
10.14455944015566
 30
0.0
 11
-25.97156546447685
 21
10.09449235824445
 31
0.0
  0
LINE
  5
F100D9
330
261
100
AcDbEntity
  8
Geo
100
AcDbLine
 10
-25.97156546447685
 20
10.09449235824445
 30
0.0
 11
-25.87156546447686
 21
10.04292985792515
 31
0.0
  0
LINE
  5
F100DB
330
261
100
AcDbEntity
  8
Geo
100
AcDbLine
 10
-25.87156546447686
 20
10.04292985792515
 30
0.0
 11
-25.77156546447684
 21
9.989930581051257
 31
0.0
  0
LINE
  5
F100DD
330
261
100
AcDbEntity
  8
Geo
100
AcDbLine
 10
-25.77156546447684
 20
9.989930581051257
 30
0.0
 11
-25.67156546447685
 21
9.935554803517355
 31
0.0
  0
LINE
  5
F100DF
330
261
100
AcDbEntity
  8
Geo
100
AcDbLine
 10
-25.67156546447685
 20
9.935554803517355
 30
0.0
 11
-25.57156546447684
 21
9.879864366707256
 31
0.0
  0
LINE
  5
F100E1
330
261
100
AcDbEntity
  8
Geo
100
AcDbLine
 10
-25.57156546447684
 20
9.879864366707256
 30
0.0
 11
-25.47156546447685
 21
9.822922607162354
 31
0.0
  0
LINE
  5
F100E3
330
261
100
AcDbEntity
  8
Geo
100
AcDbLine
 10
-25.47156546447685
 20
9.822922607162354
 30
0.0
 11
-25.37156546447685
 21
9.764794284549058
 31
0.0
  0
LINE
  5
F100E5
330
261
100
AcDbEntity
  8
Geo
100
AcDbLine
 10
-25.37156546447685
 20
9.764794284549058
 30
0.0
 11
-25.27156546447685
 21
9.705545508007855
 31
0.0
  0
LINE
  5
F100E7
330
261
100
AcDbEntity
  8
Geo
100
AcDbLine
 10
-25.27156546447685
 20
9.705545508007855
 30
0.0
 11
-25.17156546447685
 21
9.645243660967558
 31
0.0
  0
LINE
  5
F100E9
330
261
100
AcDbEntity
  8
Geo
100
AcDbLine
 10
-25.17156546447685
 20
9.645243660967558
 30
0.0
 11
-25.07156546447684
 21
9.583957324510357
 31
0.0
  0
LINE
  5
F100EB
330
261
100
AcDbEntity
  8
Geo
100
AcDbLine
 10
-25.07156546447684
 20
9.583957324510357
 30
0.0
 11
-24.97156546447685
 21
9.521756199375154
 31
0.0
  0
LINE
  5
F100ED
330
261
100
AcDbEntity
  8
Geo
100
AcDbLine
 10
-24.97156546447685
 20
9.521756199375154
 30
0.0
 11
-24.87156546447685
 21
9.458711026686657
 31
0.0
  0
LINE
  5
F100EF
330
261
100
AcDbEntity
  8
Geo
100
AcDbLine
 10
-24.87156546447685
 20
9.458711026686657
 30
0.0
 11
-24.77156546447684
 21
9.394893507501755
 31
0.0
  0
LINE
  5
F100F1
330
261
100
AcDbEntity
  8
Geo
100
AcDbLine
 10
-24.77156546447684
 20
9.394893507501755
 30
0.0
 11
-24.67156546447685
 21
9.330376221264657
 31
0.0
  0
LINE
  5
F100F3
330
261
100
AcDbEntity
  8
Geo
100
AcDbLine
 10
-24.67156546447685
 20
9.330376221264657
 30
0.0
 11
-24.57156546447684
 21
9.265232543262058
 31
0.0
  0
LINE
  5
F100F5
330
261
100
AcDbEntity
  8
Geo
100
AcDbLine
 10
-24.57156546447684
 20
9.265232543262058
 30
0.0
 11
-24.47156546447685
 21
9.199536561173758
 31
0.0
  0
LINE
  5
F100F7
330
261
100
AcDbEntity
  8
Geo
100
AcDbLine
 10
-24.47156546447685
 20
9.199536561173758
 30
0.0
 11
-24.37156546447685
 21
9.133362990813459
 31
0.0
  0
LINE
  5
F100F9
330
261
100
AcDbEntity
  8
Geo
100
AcDbLine
 10
-24.37156546447685
 20
9.133362990813459
 30
0.0
 11
-24.27156546447684
 21
9.066787091153859
 31
0.0
  0
LINE
  5
F100FB
330
261
100
AcDbEntity
  8
Geo
100
AcDbLine
 10
-24.27156546447684
 20
9.066787091153859
 30
0.0
 11
-24.17156546447685
 21
8.999884578735759
 31
0.0
  0
LINE
  5
F100FD
330
261
100
AcDbEntity
  8
Geo
100
AcDbLine
 10
-24.17156546447685
 20
8.999884578735759
 30
0.0
 11
-24.07156546447684
 21
8.932731541555355
 31
0.0
  0
LINE
  5
F100FF
330
261
100
AcDbEntity
  8
Geo
100
AcDbLine
 10
-24.07156546447684
 20
8.932731541555355
 30
0.0
 11
-23.97156546447685
 21
8.865404352529758
 31
0.0
  0
LINE
  5
F10101
330
261
100
AcDbEntity
  8
Geo
100
AcDbLine
 10
-23.97156546447685
 20
8.865404352529758
 30
0.0
 11
-23.87156546447685
 21
8.797979582638458
 31
0.0
  0
LINE
  5
F10103
330
261
100
AcDbEntity
  8
Geo
100
AcDbLine
 10
-23.87156546447685
 20
8.797979582638458
 30
0.0
 11
-23.77156546447684
 21
8.730533913839256
 31
0.0
  0
LINE
  5
F10105
330
261
100
AcDbEntity
  8
Geo
100
AcDbLine
 10
-23.77156546447684
 20
8.730533913839256
 30
0.0
 11
-23.67156546447685
 21
8.663144051858356
 31
0.0
  0
LINE
  5
F10107
330
261
100
AcDbEntity
  8
Geo
100
AcDbLine
 10
-23.67156546447685
 20
8.663144051858356
 30
0.0
 11
-23.57156546447684
 21
8.595886638952855
 31
0.0
  0
LINE
  5
F10109
330
261
100
AcDbEntity
  8
Geo
100
AcDbLine
 10
-23.57156546447684
 20
8.595886638952855
 30
0.0
 11
-23.47156546447685
 21
8.528838166746062
 31
0.0
  0
LINE
  5
F1010B
330
261
100
AcDbEntity
  8
Geo
100
AcDbLine
 10
-23.47156546447685
 20
8.528838166746062
 30
0.0
 11
-23.37156546447685
 21
8.462074889233853
 31
0.0
  0
LINE
  5
F1010D
330
261
100
AcDbEntity
  8
Geo
100
AcDbLine
 10
-23.37156546447685
 20
8.462074889233853
 30
0.0
 11
-23.27156546447684
 21
8.395672736061062
 31
0.0
  0
LINE
  5
F1010F
330
261
100
AcDbEntity
  8
Geo
100
AcDbLine
 10
-23.27156546447684
 20
8.395672736061062
 30
0.0
 11
-23.17156546447685
 21
8.329707226166956
 31
0.0
  0
LINE
  5
F10111
330
261
100
AcDbEntity
  8
Geo
100
AcDbLine
 10
-23.17156546447685
 20
8.329707226166956
 30
0.0
 11
-23.07156546447684
 21
8.264253381898058
 31
0.0
  0
LINE
  5
F10113
330
261
100
AcDbEntity
  8
Geo
100
AcDbLine
 10
-23.07156546447684
 20
8.264253381898058
 30
0.0
 11
-22.97156546447685
 21
8.199385643685356
 31
0.0
  0
LINE
  5
F10115
330
261
100
AcDbEntity
  8
Geo
100
AcDbLine
 10
-22.97156546447685
 20
8.199385643685356
 30
0.0
 11
-22.87156546447685
 21
8.135177785383454
 31
0.0
  0
LINE
  5
F10117
330
261
100
AcDbEntity
  8
Geo
100
AcDbLine
 10
-22.87156546447685
 20
8.135177785383454
 30
0.0
 11
-22.77156546447685
 21
8.071702830367655
 31
0.0
  0
LINE
  5
F10119
330
261
100
AcDbEntity
  8
Geo
100
AcDbLine
 10
-22.77156546447685
 20
8.071702830367655
 30
0.0
 11
-22.67156546447685
 21
8.009032968484959
 31
0.0
  0
LINE
  5
F1011B
330
261
100
AcDbEntity
  8
Geo
100
AcDbLine
 10
-22.67156546447685
 20
8.009032968484959
 30
0.0
 11
-22.57156546447684
 21
7.947239473952855
 31
0.0
  0
LINE
  5
F1011D
330
261
100
AcDbEntity
  8
Geo
100
AcDbLine
 10
-22.57156546447684
 20
7.947239473952855
 30
0.0
 11
-22.47156546447685
 21
7.886392624299059
 31
0.0
  0
LINE
  5
F1011F
330
261
100
AcDbEntity
  8
Geo
100
AcDbLine
 10
-22.47156546447685
 20
7.886392624299059
 30
0.0
 11
-22.37156546447685
 21
7.826561620435654
 31
0.0
  0
LINE
  5
F10121
330
261
100
AcDbEntity
  8
Geo
100
AcDbLine
 10
-22.37156546447685
 20
7.826561620435654
 30
0.0
 11
-22.27156546447684
 21
7.767814507956355
 31
0.0
  0
LINE
  5
F10123
330
261
100
AcDbEntity
  8
Geo
100
AcDbLine
 10
-22.27156546447684
 20
7.767814507956355
 30
0.0
 11
-22.17156546447685
 21
7.710218099749457
 31
0.0
  0
LINE
  5
F10125
330
261
100
AcDbEntity
  8
Geo
100
AcDbLine
 10
-22.17156546447685
 20
7.710218099749457
 30
0.0
 11
-22.07156546447684
 21
7.653837900010856
 31
0.0
  0
LINE
  5
F10127
330
261
100
AcDbEntity
  8
Geo
100
AcDbLine
 10
-22.07156546447684
 20
7.653837900010856
 30
0.0
 11
-21.97156546447684
 21
7.598738029746957
 31
0.0
  0
LINE
  5
F10129
330
261
100
AcDbEntity
  8
Geo
100
AcDbLine
 10
-21.97156546447684
 20
7.598738029746957
 30
0.0
 11
-21.87156546447685
 21
7.544981153849757
 31
0.0
  0
LINE
  5
F1012B
330
261
100
AcDbEntity
  8
Geo
100
AcDbLine
 10
-21.87156546447685
 20
7.544981153849757
 30
0.0
 11
-21.77156546447684
 21
7.492628409828657
 31
0.0
  0
LINE
  5
F1012D
330
261
100
AcDbEntity
  8
Geo
100
AcDbLine
 10
-21.77156546447684
 20
7.492628409828657
 30
0.0
 11
-21.67156546447685
 21
7.441739338278456
 31
0.0
  0
LINE
  5
F1012F
330
261
100
AcDbEntity
  8
Geo
100
AcDbLine
 10
-21.67156546447685
 20
7.441739338278456
 30
0.0
 11
-21.57156546447684
 21
7.392371815164356
 31
0.0
  0
LINE
  5
F10131
330
261
100
AcDbEntity
  8
Geo
100
AcDbLine
 10
-21.57156546447684
 20
7.392371815164356
 30
0.0
 11
-21.47156546447685
 21
7.344581985999855
 31
0.0
  0
LINE
  5
F10133
330
261
100
AcDbEntity
  8
Geo
100
AcDbLine
 10
-21.47156546447685
 20
7.344581985999855
 30
0.0
 11
-21.37156546447685
 21
7.298424201992656
 31
0.0
  0
LINE
  5
F10135
330
261
100
AcDbEntity
  8
Geo
100
AcDbLine
 10
-21.37156546447685
 20
7.298424201992656
 30
0.0
 11
-21.27156546447684
 21
7.253950958230856
 31
0.0
  0
LINE
  5
F10137
330
261
100
AcDbEntity
  8
Geo
100
AcDbLine
 10
-21.27156546447684
 20
7.253950958230856
 30
0.0
 11
-21.17156546447685
 21
7.211212833980955
 31
0.0
  0
LINE
  5
F10139
330
261
100
AcDbEntity
  8
Geo
100
AcDbLine
 10
-21.17156546447685
 20
7.211212833980955
 30
0.0
 11
-21.07156546447684
 21
7.170258435164157
 31
0.0
  0
LINE
  5
F1013B
330
261
100
AcDbEntity
  8
Geo
100
AcDbLine
 10
-21.07156546447684
 20
7.170258435164157
 30
0.0
 11
-20.97156546447685
 21
7.131134339076659
 31
0.0
  0
LINE
  5
F1013D
330
261
100
AcDbEntity
  8
Geo
100
AcDbLine
 10
-20.97156546447685
 20
7.131134339076659
 30
0.0
 11
-20.87156546447685
 21
7.093885041417657
 31
0.0
  0
LINE
  5
F1013F
330
261
100
AcDbEntity
  8
Geo
100
AcDbLine
 10
-20.87156546447685
 20
7.093885041417657
 30
0.0
 11
-20.77156546447684
 21
7.058552905684756
 31
0.0
  0
LINE
  5
F10141
330
261
100
AcDbEntity
  8
Geo
100
AcDbLine
 10
-20.77156546447684
 20
7.058552905684756
 30
0.0
 11
-20.67156546447685
 21
7.025178114993856
 31
0.0
  0
LINE
  5
F10143
330
261
100
AcDbEntity
  8
Geo
100
AcDbLine
 10
-20.67156546447685
 20
7.025178114993856
 30
0.0
 11
-20.57156546447684
 21
6.993798626379156
 31
0.0
  0
LINE
  5
F10145
330
261
100
AcDbEntity
  8
Geo
100
AcDbLine
 10
-20.57156546447684
 20
6.993798626379156
 30
0.0
 11
-20.47156546447685
 21
6.964450127624559
 31
0.0
  0
LINE
  5
F10147
330
261
100
AcDbEntity
  8
Geo
100
AcDbLine
 10
-20.47156546447685
 20
6.964450127624559
 30
0.0
 11
-20.37156546447685
 21
6.937165996676256
 31
0.0
  0
LINE
  5
F10149
330
261
100
AcDbEntity
  8
Geo
100
AcDbLine
 10
-20.37156546447685
 20
6.937165996676256
 30
0.0
 11
-20.27156546447685
 21
6.91197726368226
 31
0.0
  0
LINE
  5
F1014B
330
261
100
AcDbEntity
  8
Geo
100
AcDbLine
 10
-20.27156546447685
 20
6.91197726368226
 30
0.0
 11
-20.17156546447685
 21
6.888912575701457
 31
0.0
  0
LINE
  5
F1014D
330
261
100
AcDbEntity
  8
Geo
100
AcDbLine
 10
-20.17156546447685
 20
6.888912575701457
 30
0.0
 11
-20.07156546447684
 21
6.867998164123758
 31
0.0
  0
LINE
  5
F1014F
330
261
100
AcDbEntity
  8
Geo
100
AcDbLine
 10
-20.07156546447684
 20
6.867998164123758
 30
0.0
 11
-19.97156546447684
 21
6.849257814837354
 31
0.0
  0
LINE
  5
F10151
330
261
100
AcDbEntity
  8
Geo
100
AcDbLine
 10
-19.97156546447684
 20
6.849257814837354
 30
0.0
 11
-19.87156546447685
 21
6.832712841176558
 31
0.0
  0
LINE
  5
F10153
330
261
100
AcDbEntity
  8
Geo
100
AcDbLine
 10
-19.87156546447685
 20
6.832712841176558
 30
0.0
 11
-19.77156546447684
 21
6.818382059682857
 31
0.0
  0
LINE
  5
F10155
330
261
100
AcDbEntity
  8
Geo
100
AcDbLine
 10
-19.77156546447684
 20
6.818382059682857
 30
0.0
 11
-19.67156546447685
 21
6.806281768704558
 31
0.0
  0
LINE
  5
F10157
330
261
100
AcDbEntity
  8
Geo
100
AcDbLine
 10
-19.67156546447685
 20
6.806281768704558
 30
0.0
 11
-19.57156546447684
 21
6.796425729860658
 31
0.0
  0
LINE
  5
F10159
330
261
100
AcDbEntity
  8
Geo
100
AcDbLine
 10
-19.57156546447684
 20
6.796425729860658
 30
0.0
 11
-19.47156546447684
 21
6.788825152390259
 31
0.0
  0
LINE
  5
F1015B
330
261
100
AcDbEntity
  8
Geo
100
AcDbLine
 10
-19.47156546447684
 20
6.788825152390259
 30
0.0
 11
-19.37156546447685
 21
6.783488680403657
 31
0.0
  0
LINE
  5
F1015D
330
261
100
AcDbEntity
  8
Geo
100
AcDbLine
 10
-19.37156546447685
 20
6.783488680403657
 30
0.0
 11
-19.27156546447684
 21
6.780422383052155
 31
0.0
  0
LINE
  5
F1015F
330
261
100
AcDbEntity
  8
Geo
100
AcDbLine
 10
-29.87156546447685
 20
10.15139078513536
 30
0.0
 11
-29.87156546447685
 21
10.15139078513536
 31
0.0
  0
LINE
  5
F10161
330
261
100
AcDbEntity
  8
Geo
100
AcDbLine
 10
-29.87156546447685
 20
10.15139078513536
 30
0.0
 11
-29.87156546447685
 21
10.19381719200656
 31
0.0
  0
LINE
  5
F10163
330
261
100
AcDbEntity
  8
Geo
100
AcDbLine
 10
-29.87156546447685
 20
10.19381719200656
 30
0.0
 11
-29.77156546447684
 21
10.14532708817865
 31
0.0
  0
LINE
  5
F10165
330
261
100
AcDbEntity
  8
Geo
100
AcDbLine
 10
-29.77156546447684
 20
10.14532708817865
 30
0.0
 11
-29.67156546447685
 21
10.09528375177996
 31
0.0
  0
LINE
  5
F10167
330
261
100
AcDbEntity
  8
Geo
100
AcDbLine
 10
-29.67156546447685
 20
10.09528375177996
 30
0.0
 11
-29.57156546447684
 21
10.04374409692415
 31
0.0
  0
LINE
  5
F10169
330
261
100
AcDbEntity
  8
Geo
100
AcDbLine
 10
-29.57156546447684
 20
10.04374409692415
 30
0.0
 11
-29.47156546447685
 21
9.990766739482559
 31
0.0
  0
LINE
  5
F1016B
330
261
100
AcDbEntity
  8
Geo
100
AcDbLine
 10
-29.47156546447685
 20
9.990766739482559
 30
0.0
 11
-29.37156546447685
 21
9.936411930420852
 31
0.0
  0
LINE
  5
F1016D
330
261
100
AcDbEntity
  8
Geo
100
AcDbLine
 10
-29.37156546447685
 20
9.936411930420852
 30
0.0
 11
-29.27156546447685
 21
9.880741487275454
 31
0.0
  0
LINE
  5
F1016F
330
261
100
AcDbEntity
  8
Geo
100
AcDbLine
 10
-29.27156546447685
 20
9.880741487275454
 30
0.0
 11
-29.17156546447685
 21
9.823818723849061
 31
0.0
  0
LINE
  5
F10171
330
261
100
AcDbEntity
  8
Geo
100
AcDbLine
 10
-29.17156546447685
 20
9.823818723849061
 30
0.0
 11
-29.07156546447684
 21
9.765708378203857
 31
0.0
  0
LINE
  5
F10173
330
261
100
AcDbEntity
  8
Geo
100
AcDbLine
 10
-29.07156546447684
 20
9.765708378203857
 30
0.0
 11
-28.97156546447685
 21
9.706476539035257
 31
0.0
  0
LINE
  5
F10175
330
261
100
AcDbEntity
  8
Geo
100
AcDbLine
 10
-28.97156546447685
 20
9.706476539035257
 30
0.0
 11
-28.87156546447685
 21
9.646190570509059
 31
0.0
  0
LINE
  5
F10177
330
261
100
AcDbEntity
  8
Geo
100
AcDbLine
 10
-28.87156546447685
 20
9.646190570509059
 30
0.0
 11
-28.77156546447685
 21
9.58491903564926
 31
0.0
  0
LINE
  5
F10179
330
261
100
AcDbEntity
  8
Geo
100
AcDbLine
 10
-28.77156546447685
 20
9.58491903564926
 30
0.0
 11
-28.67156546447685
 21
9.522731618360456
 31
0.0
  0
LINE
  5
F1017B
330
261
100
AcDbEntity
  8
Geo
100
AcDbLine
 10
-28.67156546447685
 20
9.522731618360456
 30
0.0
 11
-28.57156546447684
 21
9.45969904417776
 31
0.0
  0
LINE
  5
F1017D
330
261
100
AcDbEntity
  8
Geo
100
AcDbLine
 10
-28.57156546447684
 20
9.45969904417776
 30
0.0
 11
-28.47156546447685
 21
9.395892999829857
 31
0.0
  0
LINE
  5
F1017F
330
261
100
AcDbEntity
  8
Geo
100
AcDbLine
 10
-28.47156546447685
 20
9.395892999829857
 30
0.0
 11
-28.37156546447685
 21
9.331386051710456
 31
0.0
  0
LINE
  5
F10181
330
261
100
AcDbEntity
  8
Geo
100
AcDbLine
 10
-28.37156546447685
 20
9.331386051710456
 30
0.0
 11
-28.27156546447684
 21
9.266251563348959
 31
0.0
  0
LINE
  5
F10183
330
261
100
AcDbEntity
  8
Geo
100
AcDbLine
 10
-28.27156546447684
 20
9.266251563348959
 30
0.0
 11
-28.17156546447685
 21
9.200563611973855
 31
0.0
  0
LINE
  5
F10185
330
261
100
AcDbEntity
  8
Geo
100
AcDbLine
 10
-28.17156546447685
 20
9.200563611973855
 30
0.0
 11
-28.07156546447684
 21
9.134396904265258
 31
0.0
  0
LINE
  5
F10187
330
261
100
AcDbEntity
  8
Geo
100
AcDbLine
 10
-28.07156546447684
 20
9.134396904265258
 30
0.0
 11
-27.97156546447685
 21
9.067826691391257
 31
0.0
  0
LINE
  5
F10189
330
261
100
AcDbEntity
  8
Geo
100
AcDbLine
 10
-27.97156546447685
 20
9.067826691391257
 30
0.0
 11
-27.87156546447685
 21
9.000928683424955
 31
0.0
  0
LINE
  5
F1018B
330
261
100
AcDbEntity
  8
Geo
100
AcDbLine
 10
-27.87156546447685
 20
9.000928683424955
 30
0.0
 11
-27.77156546447685
 21
8.933778963239657
 31
0.0
  0
LINE
  5
F1018D
330
261
100
AcDbEntity
  8
Geo
100
AcDbLine
 10
-27.77156546447685
 20
8.933778963239657
 30
0.0
 11
-27.67156546447685
 21
8.866453899980157
 31
0.0
  0
LINE
  5
F1018F
330
261
100
AcDbEntity
  8
Geo
100
AcDbLine
 10
-27.67156546447685
 20
8.866453899980157
 30
0.0
 11
-27.57156546447684
 21
8.79903006220826
 31
0.0
  0
LINE
  5
F10191
330
261
100
AcDbEntity
  8
Geo
100
AcDbLine
 10
-27.57156546447684
 20
8.79903006220826
 30
0.0
 11
-27.47156546447685
 21
8.731584130821655
 31
0.0
  0
LINE
  5
F10193
330
261
100
AcDbEntity
  8
Geo
100
AcDbLine
 10
-27.47156546447685
 20
8.731584130821655
 30
0.0
 11
-27.37156546447685
 21
8.664192811845257
 31
0.0
  0
LINE
  5
F10195
330
261
100
AcDbEntity
  8
Geo
100
AcDbLine
 10
-27.37156546447685
 20
8.664192811845257
 30
0.0
 11
-27.27156546447684
 21
8.596932749193062
 31
0.0
  0
LINE
  5
F10197
330
261
100
AcDbEntity
  8
Geo
100
AcDbLine
 10
-27.27156546447684
 20
8.596932749193062
 30
0.0
 11
-27.17156546447685
 21
8.529880437502157
 31
0.0
  0
LINE
  5
F10199
330
261
100
AcDbEntity
  8
Geo
100
AcDbLine
 10
-27.17156546447685
 20
8.529880437502157
 30
0.0
 11
-27.07156546447684
 21
8.463112135134757
 31
0.0
  0
LINE
  5
F1019B
330
261
100
AcDbEntity
  8
Geo
100
AcDbLine
 10
-27.07156546447684
 20
8.463112135134757
 30
0.0
 11
-26.97156546447685
 21
8.396703777450561
 31
0.0
  0
LINE
  5
F1019D
330
261
100
AcDbEntity
  8
Geo
100
AcDbLine
 10
-26.97156546447685
 20
8.396703777450561
 30
0.0
 11
-26.87156546447685
 21
8.330730890445355
 31
0.0
  0
LINE
  5
F1019F
330
261
100
AcDbEntity
  8
Geo
100
AcDbLine
 10
-26.87156546447685
 20
8.330730890445355
 30
0.0
 11
-26.77156546447684
 21
8.265268504855558
 31
0.0
  0
LINE
  5
F101A1
330
261
100
AcDbEntity
  8
Geo
100
AcDbLine
 10
-26.77156546447684
 20
8.265268504855558
 30
0.0
 11
-26.67156546447685
 21
8.200391070826057
 31
0.0
  0
LINE
  5
F101A3
330
261
100
AcDbEntity
  8
Geo
100
AcDbLine
 10
-26.67156546447685
 20
8.200391070826057
 30
0.0
 11
-26.57156546447684
 21
8.136172373238455
 31
0.0
  0
LINE
  5
F101A5
330
261
100
AcDbEntity
  8
Geo
100
AcDbLine
 10
-26.57156546447684
 20
8.136172373238455
 30
0.0
 11
-26.47156546447685
 21
8.072685447795759
 31
0.0
  0
LINE
  5
F101A7
330
261
100
AcDbEntity
  8
Geo
100
AcDbLine
 10
-26.47156546447685
 20
8.072685447795759
 30
0.0
 11
-26.37156546447685
 21
8.010002497958655
 31
0.0
  0
LINE
  5
F101A9
330
261
100
AcDbEntity
  8
Geo
100
AcDbLine
 10
-26.37156546447685
 20
8.010002497958655
 30
0.0
 11
-26.27156546447685
 21
7.948194812829758
 31
0.0
  0
LINE
  5
F101AB
330
261
100
AcDbEntity
  8
Geo
100
AcDbLine
 10
-26.27156546447685
 20
7.948194812829758
 30
0.0
 11
-26.17156546447685
 21
7.887332686075456
 31
0.0
  0
LINE
  5
F101AD
330
261
100
AcDbEntity
  8
Geo
100
AcDbLine
 10
-26.17156546447685
 20
7.887332686075456
 30
0.0
 11
-26.07156546447684
 21
7.827485335982558
 31
0.0
  0
LINE
  5
F101AF
330
261
100
AcDbEntity
  8
Geo
100
AcDbLine
 10
-26.07156546447684
 20
7.827485335982558
 30
0.0
 11
-25.97156546447685
 21
7.768720826735357
 31
0.0
  0
LINE
  5
F101B1
330
261
100
AcDbEntity
  8
Geo
100
AcDbLine
 10
-25.97156546447685
 20
7.768720826735357
 30
0.0
 11
-25.87156546447686
 21
7.711105991007155
 31
0.0
  0
LINE
  5
F101B3
330
261
100
AcDbEntity
  8
Geo
100
AcDbLine
 10
-25.87156546447686
 20
7.711105991007155
 30
0.0
 11
-25.77156546447684
 21
7.654706353951656
 31
0.0
  0
LINE
  5
F101B5
330
261
100
AcDbEntity
  8
Geo
100
AcDbLine
 10
-25.77156546447684
 20
7.654706353951656
 30
0.0
 11
-25.67156546447685
 21
7.599586058681257
 31
0.0
  0
LINE
  5
F101B7
330
261
100
AcDbEntity
  8
Geo
100
AcDbLine
 10
-25.67156546447685
 20
7.599586058681257
 30
0.0
 11
-25.57156546447684
 21
7.545807793317155
 31
0.0
  0
LINE
  5
F101B9
330
261
100
AcDbEntity
  8
Geo
100
AcDbLine
 10
-25.57156546447684
 20
7.545807793317155
 30
0.0
 11
-25.47156546447685
 21
7.493432719694958
 31
0.0
  0
LINE
  5
F101BB
330
261
100
AcDbEntity
  8
Geo
100
AcDbLine
 10
-25.47156546447685
 20
7.493432719694958
 30
0.0
 11
-25.37156546447685
 21
7.442520403804756
 31
0.0
  0
LINE
  5
F101BD
330
261
100
AcDbEntity
  8
Geo
100
AcDbLine
 10
-25.37156546447685
 20
7.442520403804756
 30
0.0
 11
-25.27156546447685
 21
7.393128748047558
 31
0.0
  0
LINE
  5
F101BF
330
261
100
AcDbEntity
  8
Geo
100
AcDbLine
 10
-25.27156546447685
 20
7.393128748047558
 30
0.0
 11
-25.17156546447685
 21
7.345313925382956
 31
0.0
  0
LINE
  5
F101C1
330
261
100
AcDbEntity
  8
Geo
100
AcDbLine
 10
-25.17156546447685
 20
7.345313925382956
 30
0.0
 11
-25.07156546447684
 21
7.299130315443257
 31
0.0
  0
LINE
  5
F101C3
330
261
100
AcDbEntity
  8
Geo
100
AcDbLine
 10
-25.07156546447684
 20
7.299130315443257
 30
0.0
 11
-24.97156546447685
 21
7.254630442688757
 31
0.0
  0
LINE
  5
F101C5
330
261
100
AcDbEntity
  8
Geo
100
AcDbLine
 10
-24.97156546447685
 20
7.254630442688757
 30
0.0
 11
-24.87156546447685
 21
7.211864916670858
 31
0.0
  0
LINE
  5
F101C7
330
261
100
AcDbEntity
  8
Geo
100
AcDbLine
 10
-24.87156546447685
 20
7.211864916670858
 30
0.0
 11
-24.77156546447684
 21
7.170882374474558
 31
0.0
  0
LINE
  5
F101C9
330
261
100
AcDbEntity
  8
Geo
100
AcDbLine
 10
-24.77156546447684
 20
7.170882374474558
 30
0.0
 11
-24.67156546447685
 21
7.131729425403559
 31
0.0
  0
LINE
  5
F101CB
330
261
100
AcDbEntity
  8
Geo
100
AcDbLine
 10
-24.67156546447685
 20
7.131729425403559
 30
0.0
 11
-24.57156546447684
 21
7.094450597971455
 31
0.0
  0
LINE
  5
F101CD
330
261
100
AcDbEntity
  8
Geo
100
AcDbLine
 10
-24.57156546447684
 20
7.094450597971455
 30
0.0
 11
-24.47156546447685
 21
7.059088289259957
 31
0.0
  0
LINE
  5
F101CF
330
261
100
AcDbEntity
  8
Geo
100
AcDbLine
 10
-24.47156546447685
 20
7.059088289259957
 30
0.0
 11
-24.37156546447685
 21
7.025682716700558
 31
0.0
  0
LINE
  5
F101D1
330
261
100
AcDbEntity
  8
Geo
100
AcDbLine
 10
-24.37156546447685
 20
7.025682716700558
 30
0.0
 11
-24.27156546447684
 21
6.994271872335559
 31
0.0
  0
LINE
  5
F101D3
330
261
100
AcDbEntity
  8
Geo
100
AcDbLine
 10
-24.27156546447684
 20
6.994271872335559
 30
0.0
 11
-24.17156546447685
 21
6.964891479609658
 31
0.0
  0
LINE
  5
F101D5
330
261
100
AcDbEntity
  8
Geo
100
AcDbLine
 10
-24.17156546447685
 20
6.964891479609658
 30
0.0
 11
-24.07156546447684
 21
6.937574952741957
 31
0.0
  0
LINE
  5
F101D7
330
261
100
AcDbEntity
  8
Geo
100
AcDbLine
 10
-24.07156546447684
 20
6.937574952741957
 30
0.0
 11
-23.97156546447685
 21
6.912353358724256
 31
0.0
  0
LINE
  5
F101D9
330
261
100
AcDbEntity
  8
Geo
100
AcDbLine
 10
-23.97156546447685
 20
6.912353358724256
 30
0.0
 11
-23.87156546447685
 21
6.889255381988157
 31
0.0
  0
LINE
  5
F101DB
330
261
100
AcDbEntity
  8
Geo
100
AcDbLine
 10
-23.87156546447685
 20
6.889255381988157
 30
0.0
 11
-23.77156546447684
 21
6.868307291782855
 31
0.0
  0
LINE
  5
F101DD
330
261
100
AcDbEntity
  8
Geo
100
AcDbLine
 10
-23.77156546447684
 20
6.868307291782855
 30
0.0
 11
-23.67156546447685
 21
6.849532912298855
 31
0.0
  0
LINE
  5
F101DF
330
261
100
AcDbEntity
  8
Geo
100
AcDbLine
 10
-23.67156546447685
 20
6.849532912298855
 30
0.0
 11
-23.57156546447684
 21
6.832953595573258
 31
0.0
  0
LINE
  5
F101E1
330
261
100
AcDbEntity
  8
Geo
100
AcDbLine
 10
-23.57156546447684
 20
6.832953595573258
 30
0.0
 11
-23.47156546447685
 21
6.818588197205457
 31
0.0
  0
LINE
  5
F101E3
330
261
100
AcDbEntity
  8
Geo
100
AcDbLine
 10
-23.47156546447685
 20
6.818588197205457
 30
0.0
 11
-23.37156546447685
 21
6.806453054913657
 31
0.0
  0
LINE
  5
F101E5
330
261
100
AcDbEntity
  8
Geo
100
AcDbLine
 10
-23.37156546447685
 20
6.806453054913657
 30
0.0
 11
-23.27156546447684
 21
6.796561969953057
 31
0.0
  0
LINE
  5
F101E7
330
261
100
AcDbEntity
  8
Geo
100
AcDbLine
 10
-23.27156546447684
 20
6.796561969953057
 30
0.0
 11
-23.17156546447685
 21
6.788926191420458
 31
0.0
  0
LINE
  5
F101E9
330
261
100
AcDbEntity
  8
Geo
100
AcDbLine
 10
-23.17156546447685
 20
6.788926191420458
 30
0.0
 11
-23.07156546447684
 21
6.783554403460353
 31
0.0
  0
LINE
  5
F101EB
330
261
100
AcDbEntity
  8
Geo
100
AcDbLine
 10
-23.07156546447684
 20
6.783554403460353
 30
0.0
 11
-22.97156546447685
 21
6.780452715388758
 31
0.0
  0
LINE
  5
F101ED
330
261
100
AcDbEntity
  8
Geo
100
AcDbLine
 10
-29.87156546447685
 20
9.64419434616806
 30
0.0
 11
-29.87156546447685
 21
9.64419434616806
 31
0.0
  0
LINE
  5
F101EF
330
261
100
AcDbEntity
  8
Geo
100
AcDbLine
 10
-29.87156546447685
 20
9.64419434616806
 30
0.0
 11
-29.87156546447685
 21
9.670934265236155
 31
0.0
  0
LINE
  5
F101F1
330
261
100
AcDbEntity
  8
Geo
100
AcDbLine
 10
-29.87156546447685
 20
9.670934265236155
 30
0.0
 11
-29.77156546447684
 21
9.610056878173352
 31
0.0
  0
LINE
  5
F101F3
330
261
100
AcDbEntity
  8
Geo
100
AcDbLine
 10
-29.77156546447684
 20
9.610056878173352
 30
0.0
 11
-29.67156546447685
 21
9.548235019500353
 31
0.0
  0
LINE
  5
F101F5
330
261
100
AcDbEntity
  8
Geo
100
AcDbLine
 10
-29.67156546447685
 20
9.548235019500353
 30
0.0
 11
-29.57156546447684
 21
9.485538999003356
 31
0.0
  0
LINE
  5
F101F7
330
261
100
AcDbEntity
  8
Geo
100
AcDbLine
 10
-29.57156546447684
 20
9.485538999003356
 30
0.0
 11
-29.47156546447685
 21
9.422040120649761
 31
0.0
  0
LINE
  5
F101F9
330
261
100
AcDbEntity
  8
Geo
100
AcDbLine
 10
-29.47156546447685
 20
9.422040120649761
 30
0.0
 11
-29.37156546447685
 21
9.357810601494559
 31
0.0
  0
LINE
  5
F101FB
330
261
100
AcDbEntity
  8
Geo
100
AcDbLine
 10
-29.37156546447685
 20
9.357810601494559
 30
0.0
 11
-29.27156546447685
 21
9.292923489548055
 31
0.0
  0
LINE
  5
F101FD
330
261
100
AcDbEntity
  8
Geo
100
AcDbLine
 10
-29.27156546447685
 20
9.292923489548055
 30
0.0
 11
-29.17156546447685
 21
9.227452580698461
 31
0.0
  0
LINE
  5
F101FF
330
261
100
AcDbEntity
  8
Geo
100
AcDbLine
 10
-29.17156546447685
 20
9.227452580698461
 30
0.0
 11
-29.07156546447684
 21
9.161472334784058
 31
0.0
  0
LINE
  5
F10201
330
261
100
AcDbEntity
  8
Geo
100
AcDbLine
 10
-29.07156546447684
 20
9.161472334784058
 30
0.0
 11
-28.97156546447685
 21
9.095057790910757
 31
0.0
  0
LINE
  5
F10203
330
261
100
AcDbEntity
  8
Geo
100
AcDbLine
 10
-28.97156546447685
 20
9.095057790910757
 30
0.0
 11
-28.87156546447685
 21
9.028284482109757
 31
0.0
  0
LINE
  5
F10205
330
261
100
AcDbEntity
  8
Geo
100
AcDbLine
 10
-28.87156546447685
 20
9.028284482109757
 30
0.0
 11
-28.77156546447685
 21
8.96122834943446
 31
0.0
  0
LINE
  5
F10207
330
261
100
AcDbEntity
  8
Geo
100
AcDbLine
 10
-28.77156546447685
 20
8.96122834943446
 30
0.0
 11
-28.67156546447685
 21
8.893965655592758
 31
0.0
  0
LINE
  5
F10209
330
261
100
AcDbEntity
  8
Geo
100
AcDbLine
 10
-28.67156546447685
 20
8.893965655592758
 30
0.0
 11
-28.57156546447684
 21
8.826572898214156
 31
0.0
  0
LINE
  5
F1020B
330
261
100
AcDbEntity
  8
Geo
100
AcDbLine
 10
-28.57156546447684
 20
8.826572898214156
 30
0.0
 11
-28.47156546447685
 21
8.759126722848655
 31
0.0
  0
LINE
  5
F1020D
330
261
100
AcDbEntity
  8
Geo
100
AcDbLine
 10
-28.47156546447685
 20
8.759126722848655
 30
0.0
 11
-28.37156546447685
 21
8.691703835798456
 31
0.0
  0
LINE
  5
F1020F
330
261
100
AcDbEntity
  8
Geo
100
AcDbLine
 10
-28.37156546447685
 20
8.691703835798456
 30
0.0
 11
-28.27156546447684
 21
8.624380916880156
 31
0.0
  0
LINE
  5
F10211
330
261
100
AcDbEntity
  8
Geo
100
AcDbLine
 10
-28.27156546447684
 20
8.624380916880156
 30
0.0
 11
-28.17156546447685
 21
8.557234532216657
 31
0.0
  0
LINE
  5
F10213
330
261
100
AcDbEntity
  8
Geo
100
AcDbLine
 10
-28.17156546447685
 20
8.557234532216657
 30
0.0
 11
-28.07156546447684
 21
8.490341047159454
 31
0.0
  0
LINE
  5
F10215
330
261
100
AcDbEntity
  8
Geo
100
AcDbLine
 10
-28.07156546447684
 20
8.490341047159454
 30
0.0
 11
-27.97156546447685
 21
8.423776539437856
 31
0.0
  0
LINE
  5
F10217
330
261
100
AcDbEntity
  8
Geo
100
AcDbLine
 10
-27.97156546447685
 20
8.423776539437856
 30
0.0
 11
-27.87156546447685
 21
8.35761671263646
 31
0.0
  0
LINE
  5
F10219
330
261
100
AcDbEntity
  8
Geo
100
AcDbLine
 10
-27.87156546447685
 20
8.35761671263646
 30
0.0
 11
-27.77156546447685
 21
8.291936810097855
 31
0.0
  0
LINE
  5
F1021B
330
261
100
AcDbEntity
  8
Geo
100
AcDbLine
 10
-27.77156546447685
 20
8.291936810097855
 30
0.0
 11
-27.67156546447685
 21
8.226811529348157
 31
0.0
  0
LINE
  5
F1021D
330
261
100
AcDbEntity
  8
Geo
100
AcDbLine
 10
-27.67156546447685
 20
8.226811529348157
 30
0.0
 11
-27.57156546447684
 21
8.162314937144156
 31
0.0
  0
LINE
  5
F1021F
330
261
100
AcDbEntity
  8
Geo
100
AcDbLine
 10
-27.57156546447684
 20
8.162314937144156
 30
0.0
 11
-27.47156546447685
 21
8.098520385237357
 31
0.0
  0
LINE
  5
F10221
330
261
100
AcDbEntity
  8
Geo
100
AcDbLine
 10
-27.47156546447685
 20
8.098520385237357
 30
0.0
 11
-27.37156546447685
 21
8.035500426951259
 31
0.0
  0
LINE
  5
F10223
330
261
100
AcDbEntity
  8
Geo
100
AcDbLine
 10
-27.37156546447685
 20
8.035500426951259
 30
0.0
 11
-27.27156546447684
 21
7.973326734666557
 31
0.0
  0
LINE
  5
F10225
330
261
100
AcDbEntity
  8
Geo
100
AcDbLine
 10
-27.27156546447684
 20
7.973326734666557
 30
0.0
 11
-27.17156546447685
 21
7.912070018308856
 31
0.0
  0
LINE
  5
F10227
330
261
100
AcDbEntity
  8
Geo
100
AcDbLine
 10
-27.17156546447685
 20
7.912070018308856
 30
0.0
 11
-27.07156546447684
 21
7.851799944929855
 31
0.0
  0
LINE
  5
F10229
330
261
100
AcDbEntity
  8
Geo
100
AcDbLine
 10
-27.07156546447684
 20
7.851799944929855
 30
0.0
 11
-26.97156546447685
 21
7.792585059475957
 31
0.0
  0
LINE
  5
F1022B
330
261
100
AcDbEntity
  8
Geo
100
AcDbLine
 10
-26.97156546447685
 20
7.792585059475957
 30
0.0
 11
-26.87156546447685
 21
7.734492706831559
 31
0.0
  0
LINE
  5
F1022D
330
261
100
AcDbEntity
  8
Geo
100
AcDbLine
 10
-26.87156546447685
 20
7.734492706831559
 30
0.0
 11
-26.77156546447684
 21
7.677588955228756
 31
0.0
  0
LINE
  5
F1022F
330
261
100
AcDbEntity
  8
Geo
100
AcDbLine
 10
-26.77156546447684
 20
7.677588955228756
 30
0.0
 11
-26.67156546447685
 21
7.621938521107658
 31
0.0
  0
LINE
  5
F10231
330
261
100
AcDbEntity
  8
Geo
100
AcDbLine
 10
-26.67156546447685
 20
7.621938521107658
 30
0.0
 11
-26.57156546447684
 21
7.567604695514656
 31
0.0
  0
LINE
  5
F10233
330
261
100
AcDbEntity
  8
Geo
100
AcDbLine
 10
-26.57156546447684
 20
7.567604695514656
 30
0.0
 11
-26.47156546447685
 21
7.514649272121957
 31
0.0
  0
LINE
  5
F10235
330
261
100
AcDbEntity
  8
Geo
100
AcDbLine
 10
-26.47156546447685
 20
7.514649272121957
 30
0.0
 11
-26.37156546447685
 21
7.463132476949457
 31
0.0
  0
LINE
  5
F10237
330
261
100
AcDbEntity
  8
Geo
100
AcDbLine
 10
-26.37156546447685
 20
7.463132476949457
 30
0.0
 11
-26.27156546447685
 21
7.413112899870458
 31
0.0
  0
LINE
  5
F10239
330
261
100
AcDbEntity
  8
Geo
100
AcDbLine
 10
-26.27156546447685
 20
7.413112899870458
 30
0.0
 11
-26.17156546447685
 21
7.364647427977057
 31
0.0
  0
LINE
  5
F1023B
330
261
100
AcDbEntity
  8
Geo
100
AcDbLine
 10
-26.17156546447685
 20
7.364647427977057
 30
0.0
 11
-26.07156546447684
 21
7.317791180883059
 31
0.0
  0
LINE
  5
F1023D
330
261
100
AcDbEntity
  8
Geo
100
AcDbLine
 10
-26.07156546447684
 20
7.317791180883059
 30
0.0
 11
-25.97156546447685
 21
7.272597448036357
 31
0.0
  0
LINE
  5
F1023F
330
261
100
AcDbEntity
  8
Geo
100
AcDbLine
 10
-25.97156546447685
 20
7.272597448036357
 30
0.0
 11
-25.87156546447686
 21
7.229117628113154
 31
0.0
  0
LINE
  5
F10241
330
261
100
AcDbEntity
  8
Geo
100
AcDbLine
 10
-25.87156546447686
 20
7.229117628113154
 30
0.0
 11
-25.77156546447684
 21
7.187401170562459
 31
0.0
  0
LINE
  5
F10243
330
261
100
AcDbEntity
  8
Geo
100
AcDbLine
 10
-25.77156546447684
 20
7.187401170562459
 30
0.0
 11
-25.67156546447685
 21
7.147495519367357
 31
0.0
  0
LINE
  5
F10245
330
261
100
AcDbEntity
  8
Geo
100
AcDbLine
 10
-25.67156546447685
 20
7.147495519367357
 30
0.0
 11
-25.57156546447684
 21
7.109446059086955
 31
0.0
  0
LINE
  5
F10247
330
261
100
AcDbEntity
  8
Geo
100
AcDbLine
 10
-25.57156546447684
 20
7.109446059086955
 30
0.0
 11
-25.47156546447685
 21
7.073296063241059
 31
0.0
  0
LINE
  5
F10249
330
261
100
AcDbEntity
  8
Geo
100
AcDbLine
 10
-25.47156546447685
 20
7.073296063241059
 30
0.0
 11
-25.37156546447685
 21
7.039086645094958
 31
0.0
  0
LINE
  5
F1024B
330
261
100
AcDbEntity
  8
Geo
100
AcDbLine
 10
-25.37156546447685
 20
7.039086645094958
 30
0.0
 11
-25.27156546447685
 21
7.006856710901857
 31
0.0
  0
LINE
  5
F1024D
330
261
100
AcDbEntity
  8
Geo
100
AcDbLine
 10
-25.27156546447685
 20
7.006856710901857
 30
0.0
 11
-25.17156546447685
 21
6.976642915654355
 31
0.0
  0
LINE
  5
F1024F
330
261
100
AcDbEntity
  8
Geo
100
AcDbLine
 10
-25.17156546447685
 20
6.976642915654355
 30
0.0
 11
-25.07156546447684
 21
6.948479621397559
 31
0.0
  0
LINE
  5
F10251
330
261
100
AcDbEntity
  8
Geo
100
AcDbLine
 10
-25.07156546447684
 20
6.948479621397559
 30
0.0
 11
-24.97156546447685
 21
6.92239885814876
 31
0.0
  0
LINE
  5
F10253
330
261
100
AcDbEntity
  8
Geo
100
AcDbLine
 10
-24.97156546447685
 20
6.92239885814876
 30
0.0
 11
-24.87156546447685
 21
6.898430287469658
 31
0.0
  0
LINE
  5
F10255
330
261
100
AcDbEntity
  8
Geo
100
AcDbLine
 10
-24.87156546447685
 20
6.898430287469658
 30
0.0
 11
-24.77156546447684
 21
6.876601168733056
 31
0.0
  0
LINE
  5
F10257
330
261
100
AcDbEntity
  8
Geo
100
AcDbLine
 10
-24.77156546447684
 20
6.876601168733056
 30
0.0
 11
-24.67156546447685
 21
6.856936328120259
 31
0.0
  0
LINE
  5
F10259
330
261
100
AcDbEntity
  8
Geo
100
AcDbLine
 10
-24.67156546447685
 20
6.856936328120259
 30
0.0
 11
-24.57156546447684
 21
6.839458130386557
 31
0.0
  0
LINE
  5
F1025B
330
261
100
AcDbEntity
  8
Geo
100
AcDbLine
 10
-24.57156546447684
 20
6.839458130386557
 30
0.0
 11
-24.47156546447685
 21
6.82418645342576
 31
0.0
  0
LINE
  5
F1025D
330
261
100
AcDbEntity
  8
Geo
100
AcDbLine
 10
-24.47156546447685
 20
6.82418645342576
 30
0.0
 11
-24.37156546447685
 21
6.811138665663456
 31
0.0
  0
LINE
  5
F1025F
330
261
100
AcDbEntity
  8
Geo
100
AcDbLine
 10
-24.37156546447685
 20
6.811138665663456
 30
0.0
 11
-24.27156546447684
 21
6.800329606303357
 31
0.0
  0
LINE
  5
F10261
330
261
100
AcDbEntity
  8
Geo
100
AcDbLine
 10
-24.27156546447684
 20
6.800329606303357
 30
0.0
 11
-24.17156546447685
 21
6.791771568451558
 31
0.0
  0
LINE
  5
F10263
330
261
100
AcDbEntity
  8
Geo
100
AcDbLine
 10
-24.17156546447685
 20
6.791771568451558
 30
0.0
 11
-24.07156546447684
 21
6.785474285134853
 31
0.0
  0
LINE
  5
F10265
330
261
100
AcDbEntity
  8
Geo
100
AcDbLine
 10
-24.07156546447684
 20
6.785474285134853
 30
0.0
 11
-23.97156546447685
 21
6.781444918231755
 31
0.0
  0
LINE
  5
F10267
330
261
100
AcDbEntity
  8
Geo
100
AcDbLine
 10
-23.97156546447685
 20
6.781444918231755
 30
0.0
 11
-23.87156546447685
 21
6.779688050327354
 31
0.0
  0
LINE
  5
F10269
330
261
100
AcDbEntity
  8
Geo
100
AcDbLine
 10
-29.87156546447685
 20
7.407816474131557
 30
0.0
 11
-29.87156546447685
 21
7.407816474131557
 31
0.0
  0
LINE
  5
F1026B
330
261
100
AcDbEntity
  8
Geo
100
AcDbLine
 10
-29.87156546447685
 20
7.407816474131557
 30
0.0
 11
-29.87156546447685
 21
7.365390067260356
 31
0.0
  0
LINE
  5
F1026D
330
261
100
AcDbEntity
  8
Geo
100
AcDbLine
 10
-29.87156546447685
 20
7.365390067260356
 30
0.0
 11
-29.77156546447684
 21
7.318508343630757
 31
0.0
  0
LINE
  5
F1026F
330
261
100
AcDbEntity
  8
Geo
100
AcDbLine
 10
-29.77156546447684
 20
7.318508343630757
 30
0.0
 11
-29.67156546447685
 21
7.273288318621656
 31
0.0
  0
LINE
  5
F10271
330
261
100
AcDbEntity
  8
Geo
100
AcDbLine
 10
-29.67156546447685
 20
7.273288318621656
 30
0.0
 11
-29.57156546447684
 21
7.229781420811459
 31
0.0
  0
LINE
  5
F10273
330
261
100
AcDbEntity
  8
Geo
100
AcDbLine
 10
-29.57156546447684
 20
7.229781420811459
 30
0.0
 11
-29.47156546447685
 21
7.188037130444559
 31
0.0
  0
LINE
  5
F10275
330
261
100
AcDbEntity
  8
Geo
100
AcDbLine
 10
-29.47156546447685
 20
7.188037130444559
 30
0.0
 11
-29.37156546447685
 21
7.148102923158155
 31
0.0
  0
LINE
  5
F10277
330
261
100
AcDbEntity
  8
Geo
100
AcDbLine
 10
-29.37156546447685
 20
7.148102923158155
 30
0.0
 11
-29.27156546447685
 21
7.110024215988353
 31
0.0
  0
LINE
  5
F10279
330
261
100
AcDbEntity
  8
Geo
100
AcDbLine
 10
-29.27156546447685
 20
7.110024215988353
 30
0.0
 11
-29.17156546447685
 21
7.073844315717156
 31
0.0
  0
LINE
  5
F1027B
330
261
100
AcDbEntity
  8
Geo
100
AcDbLine
 10
-29.17156546447685
 20
7.073844315717156
 30
0.0
 11
-29.07156546447684
 21
7.039604369620157
 31
0.0
  0
LINE
  5
F1027D
330
261
100
AcDbEntity
  8
Geo
100
AcDbLine
 10
-29.07156546447684
 20
7.039604369620157
 30
0.0
 11
-28.97156546447685
 21
7.007343318669757
 31
0.0
  0
LINE
  5
F1027F
330
261
100
AcDbEntity
  8
Geo
100
AcDbLine
 10
-28.97156546447685
 20
7.007343318669757
 30
0.0
 11
-28.87156546447685
 21
6.977097853247759
 31
0.0
  0
LINE
  5
F10281
330
261
100
AcDbEntity
  8
Geo
100
AcDbLine
 10
-28.87156546447685
 20
6.977097853247759
 30
0.0
 11
-28.77156546447685
 21
6.948902371417457
 31
0.0
  0
LINE
  5
F10283
330
261
100
AcDbEntity
  8
Geo
100
AcDbLine
 10
-28.77156546447685
 20
6.948902371417457
 30
0.0
 11
-28.67156546447685
 21
6.922788939802956
 31
0.0
  0
LINE
  5
F10285
330
261
100
AcDbEntity
  8
Geo
100
AcDbLine
 10
-28.67156546447685
 20
6.922788939802956
 30
0.0
 11
-28.57156546447684
 21
6.898787257119657
 31
0.0
  0
LINE
  5
F10287
330
261
100
AcDbEntity
  8
Geo
100
AcDbLine
 10
-28.57156546447684
 20
6.898787257119657
 30
0.0
 11
-28.47156546447685
 21
6.876924620398561
 31
0.0
  0
LINE
  5
F10289
330
261
100
AcDbEntity
  8
Geo
100
AcDbLine
 10
-28.47156546447685
 20
6.876924620398561
 30
0.0
 11
-28.37156546447685
 21
6.857225893940857
 31
0.0
  0
LINE
  5
F1028B
330
261
100
AcDbEntity
  8
Geo
100
AcDbLine
 10
-28.37156546447685
 20
6.857225893940857
 30
0.0
 11
-28.27156546447684
 21
6.839713481039854
 31
0.0
  0
LINE
  5
F1028D
330
261
100
AcDbEntity
  8
Geo
100
AcDbLine
 10
-28.27156546447684
 20
6.839713481039854
 30
0.0
 11
-28.17156546447685
 21
6.824407298502457
 31
0.0
  0
LINE
  5
F1028F
330
261
100
AcDbEntity
  8
Geo
100
AcDbLine
 10
-28.17156546447685
 20
6.824407298502457
 30
0.0
 11
-28.07156546447684
 21
6.811324753997158
 31
0.0
  0
LINE
  5
F10291
330
261
100
AcDbEntity
  8
Geo
100
AcDbLine
 10
-28.07156546447684
 20
6.811324753997158
 30
0.0
 11
-27.97156546447685
 21
6.800480726256559
 31
0.0
  0
LINE
  5
F10293
330
261
100
AcDbEntity
  8
Geo
100
AcDbLine
 10
-27.97156546447685
 20
6.800480726256559
 30
0.0
 11
-27.87156546447685
 21
6.791887548155955
 31
0.0
  0
LINE
  5
F10295
330
261
100
AcDbEntity
  8
Geo
100
AcDbLine
 10
-27.87156546447685
 20
6.791887548155955
 30
0.0
 11
-27.77156546447685
 21
6.785554992687156
 31
0.0
  0
LINE
  5
F10297
330
261
100
AcDbEntity
  8
Geo
100
AcDbLine
 10
-27.77156546447685
 20
6.785554992687156
 30
0.0
 11
-27.67156546447685
 21
6.781490261843558
 31
0.0
  0
LINE
  5
F10299
330
261
100
AcDbEntity
  8
Geo
100
AcDbLine
 10
-27.67156546447685
 20
6.781490261843558
 30
0.0
 11
-27.57156546447684
 21
6.77969797842956
 31
0.0
  0
LINE
  5
F1029B
330
261
100
AcDbEntity
  8
Geo
100
AcDbLine
 10
-29.87156546447685
 20
7.042916296552956
 30
0.0
 11
-29.87156546447685
 21
7.042916296552956
 31
0.0
  0
LINE
  5
F1029D
330
261
100
AcDbEntity
  8
Geo
100
AcDbLine
 10
-29.87156546447685
 20
7.042916296552956
 30
0.0
 11
-29.87156546447685
 21
6.989204317179357
 31
0.0
  0
LINE
  5
F1029F
330
261
100
AcDbEntity
  8
Geo
100
AcDbLine
 10
-29.87156546447685
 20
6.989204317179357
 30
0.0
 11
-29.77156546447684
 21
6.960167617571059
 31
0.0
  0
LINE
  5
F102A1
330
261
100
AcDbEntity
  8
Geo
100
AcDbLine
 10
-29.77156546447684
 20
6.960167617571059
 30
0.0
 11
-29.67156546447685
 21
6.933200156253057
 31
0.0
  0
LINE
  5
F102A3
330
261
100
AcDbEntity
  8
Geo
100
AcDbLine
 10
-29.67156546447685
 20
6.933200156253057
 30
0.0
 11
-29.57156546447684
 21
6.908332603225854
 31
0.0
  0
LINE
  5
F102A5
330
261
100
AcDbEntity
  8
Geo
100
AcDbLine
 10
-29.57156546447684
 20
6.908332603225854
 30
0.0
 11
-29.47156546447685
 21
6.88559324027156
 31
0.0
  0
LINE
  5
F102A7
330
261
100
AcDbEntity
  8
Geo
100
AcDbLine
 10
-29.47156546447685
 20
6.88559324027156
 30
0.0
 11
-29.37156546447685
 21
6.865007928789257
 31
0.0
  0
LINE
  5
F102A9
330
261
100
AcDbEntity
  8
Geo
100
AcDbLine
 10
-29.37156546447685
 20
6.865007928789257
 30
0.0
 11
-29.27156546447685
 21
6.846600080382355
 31
0.0
  0
LINE
  5
F102AB
330
261
100
AcDbEntity
  8
Geo
100
AcDbLine
 10
-29.27156546447685
 20
6.846600080382355
 30
0.0
 11
-29.17156546447685
 21
6.830390630233456
 31
0.0
  0
LINE
  5
F102AD
330
261
100
AcDbEntity
  8
Geo
100
AcDbLine
 10
-29.17156546447685
 20
6.830390630233456
 30
0.0
 11
-29.07156546447684
 21
6.816398013294058
 31
0.0
  0
LINE
  5
F102AF
330
261
100
AcDbEntity
  8
Geo
100
AcDbLine
 10
-29.07156546447684
 20
6.816398013294058
 30
0.0
 11
-28.97156546447685
 21
6.804638143319156
 31
0.0
  0
LINE
  5
F102B1
330
261
100
AcDbEntity
  8
Geo
100
AcDbLine
 10
-28.97156546447685
 20
6.804638143319156
 30
0.0
 11
-28.87156546447685
 21
6.795124394768158
 31
0.0
  0
LINE
  5
F102B3
330
261
100
AcDbEntity
  8
Geo
100
AcDbLine
 10
-28.87156546447685
 20
6.795124394768158
 30
0.0
 11
-28.77156546447685
 21
6.787867587594458
 31
0.0
  0
LINE
  5
F102B5
330
261
100
AcDbEntity
  8
Geo
100
AcDbLine
 10
-28.77156546447685
 20
6.787867587594458
 30
0.0
 11
-28.67156546447685
 21
6.782875974939759
 31
0.0
  0
LINE
  5
F102B7
330
261
100
AcDbEntity
  8
Geo
100
AcDbLine
 10
-28.67156546447685
 20
6.782875974939759
 30
0.0
 11
-28.57156546447684
 21
6.780155233747958
 31
0.0
  0
LINE
  5
F102B9
330
261
100
AcDbEntity
  8
Geo
100
AcDbLine
 10
-19.27156546447684
 20
10.77878487621476
 30
0.0
 11
-19.17156546447685
 21
10.77957751164186
 31
0.0
  0
LINE
  5
F102BB
330
261
100
AcDbEntity
  8
Geo
100
AcDbLine
 10
-19.17156546447685
 20
10.77957751164186
 30
0.0
 11
-19.07156546447684
 21
10.77809558368306
 31
0.0
  0
LINE
  5
F102BD
330
261
100
AcDbEntity
  8
Geo
100
AcDbLine
 10
-19.07156546447684
 20
10.77809558368306
 30
0.0
 11
-18.97156546447684
 21
10.77434077772976
 31
0.0
  0
LINE
  5
F102BF
330
261
100
AcDbEntity
  8
Geo
100
AcDbLine
 10
-18.97156546447684
 20
10.77434077772976
 30
0.0
 11
-18.87156546447685
 21
10.76831736410986
 31
0.0
  0
LINE
  5
F102C1
330
261
100
AcDbEntity
  8
Geo
100
AcDbLine
 10
-18.87156546447685
 20
10.76831736410986
 30
0.0
 11
-18.87156546447685
 21
10.76831736410986
 31
0.0
  0
LINE
  5
F102C3
330
261
100
AcDbEntity
  8
Geo
100
AcDbLine
 10
-18.87156546447685
 20
10.76831736410986
 30
0.0
 11
-18.87156546447685
 21
10.66888167738605
 31
0.0
  0
LINE
  5
F102C5
330
261
100
AcDbEntity
  8
Geo
100
AcDbLine
 10
-18.87156546447685
 20
10.66888167738605
 30
0.0
 11
-18.87156546447685
 21
10.76831736410986
 31
0.0
  0
LINE
  5
F102C7
330
261
100
AcDbEntity
  8
Geo
100
AcDbLine
 10
-18.87156546447685
 20
10.76831736410986
 30
0.0
 11
-18.87156546447685
 21
10.76831736410986
 31
0.0
  0
LINE
  5
F102C9
330
261
100
AcDbEntity
  8
Geo
100
AcDbLine
 10
-18.87156546447685
 20
10.76831736410986
 30
0.0
 11
-18.77156546447684
 21
10.65964838629576
 31
0.0
  0
LINE
  5
F102CB
330
261
100
AcDbEntity
  8
Geo
100
AcDbLine
 10
-18.77156546447684
 20
10.65964838629576
 30
0.0
 11
-18.67156546447685
 21
10.64695142391306
 31
0.0
  0
LINE
  5
F102CD
330
261
100
AcDbEntity
  8
Geo
100
AcDbLine
 10
-18.67156546447685
 20
10.64695142391306
 30
0.0
 11
-18.57156546447684
 21
10.63039501024386
 31
0.0
  0
LINE
  5
F102CF
330
261
100
AcDbEntity
  8
Geo
100
AcDbLine
 10
-18.57156546447684
 20
10.63039501024386
 30
0.0
 11
-18.47156546447684
 21
10.60957691823495
 31
0.0
  0
LINE
  5
F102D1
330
261
100
AcDbEntity
  8
Geo
100
AcDbLine
 10
-18.47156546447684
 20
10.60957691823495
 30
0.0
 11
-18.37156546447685
 21
10.58409184916845
 31
0.0
  0
LINE
  5
F102D3
330
261
100
AcDbEntity
  8
Geo
100
AcDbLine
 10
-18.37156546447685
 20
10.58409184916845
 30
0.0
 11
-18.27156546447684
 21
10.55353531463656
 31
0.0
  0
LINE
  5
F102D5
330
261
100
AcDbEntity
  8
Geo
100
AcDbLine
 10
-18.27156546447684
 20
10.55353531463656
 30
0.0
 11
-18.17156546447685
 21
10.51750805077215
 31
0.0
  0
LINE
  5
F102D7
330
261
100
AcDbEntity
  8
Geo
100
AcDbLine
 10
-18.17156546447685
 20
10.51750805077215
 30
0.0
 11
-18.07156546447684
 21
10.47562098475026
 31
0.0
  0
LINE
  5
F102D9
330
261
100
AcDbEntity
  8
Geo
100
AcDbLine
 10
-18.07156546447684
 20
10.47562098475026
 30
0.0
 11
-17.97156546447684
 21
10.42750076648236
 31
0.0
  0
LINE
  5
F102DB
330
261
100
AcDbEntity
  8
Geo
100
AcDbLine
 10
-17.97156546447684
 20
10.42750076648236
 30
0.0
 11
-17.87156546447685
 21
10.37279586977245
 31
0.0
  0
LINE
  5
F102DD
330
261
100
AcDbEntity
  8
Geo
100
AcDbLine
 10
-17.87156546447685
 20
10.37279586977245
 30
0.0
 11
-17.77156546447684
 21
10.31118325688535
 31
0.0
  0
LINE
  5
F102DF
330
261
100
AcDbEntity
  8
Geo
100
AcDbLine
 10
-17.77156546447684
 20
10.31118325688535
 30
0.0
 11
-17.67156546447685
 21
10.24237558839456
 31
0.0
  0
LINE
  5
F102E1
330
261
100
AcDbEntity
  8
Geo
100
AcDbLine
 10
-17.67156546447685
 20
10.24237558839456
 30
0.0
 11
-17.57156546447684
 21
10.16612894627636
 31
0.0
  0
LINE
  5
F102E3
330
261
100
AcDbEntity
  8
Geo
100
AcDbLine
 10
-17.57156546447684
 20
10.16612894627636
 30
0.0
 11
-17.47156546447684
 21
10.08225102245575
 31
0.0
  0
LINE
  5
F102E5
330
261
100
AcDbEntity
  8
Geo
100
AcDbLine
 10
-17.47156546447684
 20
10.08225102245575
 30
0.0
 11
-17.37156546447685
 21
9.990609707417057
 31
0.0
  0
LINE
  5
F102E7
330
261
100
AcDbEntity
  8
Geo
100
AcDbLine
 10
-17.37156546447685
 20
9.990609707417057
 30
0.0
 11
-17.27156546447684
 21
9.891141994114757
 31
0.0
  0
LINE
  5
F102E9
330
261
100
AcDbEntity
  8
Geo
100
AcDbLine
 10
-17.27156546447684
 20
9.891141994114757
 30
0.0
 11
-17.17156546447685
 21
9.783863091398256
 31
0.0
  0
LINE
  5
F102EB
330
261
100
AcDbEntity
  8
Geo
100
AcDbLine
 10
-17.17156546447685
 20
9.783863091398256
 30
0.0
 11
-17.07156546447684
 21
9.668875618694059
 31
0.0
  0
LINE
  5
F102ED
330
261
100
AcDbEntity
  8
Geo
100
AcDbLine
 10
-17.07156546447684
 20
9.668875618694059
 30
0.0
 11
-16.97156546447684
 21
9.546378730037559
 31
0.0
  0
LINE
  5
F102EF
330
261
100
AcDbEntity
  8
Geo
100
AcDbLine
 10
-16.97156546447684
 20
9.546378730037559
 30
0.0
 11
-16.87156546447685
 21
9.416676991101759
 31
0.0
  0
LINE
  5
F102F1
330
261
100
AcDbEntity
  8
Geo
100
AcDbLine
 10
-16.87156546447685
 20
9.416676991101759
 30
0.0
 11
-16.87156546447685
 21
9.416676991101759
 31
0.0
  0
LINE
  5
F102F3
330
261
100
AcDbEntity
  8
Geo
100
AcDbLine
 10
-22.97156546447685
 20
10.77875454387815
 30
0.0
 11
-22.87156546447685
 21
10.77958260452215
 31
0.0
  0
LINE
  5
F102F5
330
261
100
AcDbEntity
  8
Geo
100
AcDbLine
 10
-22.87156546447685
 20
10.77958260452215
 30
0.0
 11
-22.77156546447685
 21
10.77813609598815
 31
0.0
  0
LINE
  5
F102F7
330
261
100
AcDbEntity
  8
Geo
100
AcDbLine
 10
-22.77156546447685
 20
10.77813609598815
 30
0.0
 11
-22.67156546447685
 21
10.77441666338516
 31
0.0
  0
LINE
  5
F102F9
330
261
100
AcDbEntity
  8
Geo
100
AcDbLine
 10
-22.67156546447685
 20
10.77441666338516
 30
0.0
 11
-22.57156546447684
 21
10.76842853681115
 31
0.0
  0
LINE
  5
F102FB
330
261
100
AcDbEntity
  8
Geo
100
AcDbLine
 10
-22.57156546447684
 20
10.76842853681115
 30
0.0
 11
-22.47156546447685
 21
10.76017852654176
 31
0.0
  0
LINE
  5
F102FD
330
261
100
AcDbEntity
  8
Geo
100
AcDbLine
 10
-22.47156546447685
 20
10.76017852654176
 30
0.0
 11
-22.37156546447685
 21
10.74967601528506
 31
0.0
  0
LINE
  5
F102FF
330
261
100
AcDbEntity
  8
Geo
100
AcDbLine
 10
-22.37156546447685
 20
10.74967601528506
 30
0.0
 11
-22.27156546447684
 21
10.73693294751095
 31
0.0
  0
LINE
  5
F10301
330
261
100
AcDbEntity
  8
Geo
100
AcDbLine
 10
-22.27156546447684
 20
10.73693294751095
 30
0.0
 11
-22.17156546447685
 21
10.72196381586626
 31
0.0
  0
LINE
  5
F10303
330
261
100
AcDbEntity
  8
Geo
100
AcDbLine
 10
-22.17156546447685
 20
10.72196381586626
 30
0.0
 11
-22.07156546447684
 21
10.70478564469276
 31
0.0
  0
LINE
  5
F10305
330
261
100
AcDbEntity
  8
Geo
100
AcDbLine
 10
-22.07156546447684
 20
10.70478564469276
 30
0.0
 11
-21.97156546447684
 21
10.68541797066525
 31
0.0
  0
LINE
  5
F10307
330
261
100
AcDbEntity
  8
Geo
100
AcDbLine
 10
-21.97156546447684
 20
10.68541797066525
 30
0.0
 11
-21.87156546447685
 21
10.66388282057235
 31
0.0
  0
LINE
  5
F10309
330
261
100
AcDbEntity
  8
Geo
100
AcDbLine
 10
-21.87156546447685
 20
10.66388282057235
 30
0.0
 11
-21.77156546447684
 21
10.64020468626585
 31
0.0
  0
LINE
  5
F1030B
330
261
100
AcDbEntity
  8
Geo
100
AcDbLine
 10
-21.77156546447684
 20
10.64020468626585
 30
0.0
 11
-21.67156546447685
 21
10.61441049680626
 31
0.0
  0
LINE
  5
F1030D
330
261
100
AcDbEntity
  8
Geo
100
AcDbLine
 10
-21.67156546447685
 20
10.61441049680626
 30
0.0
 11
-21.57156546447684
 21
10.58652958783595
 31
0.0
  0
LINE
  5
F1030F
330
261
100
AcDbEntity
  8
Geo
100
AcDbLine
 10
-21.57156546447684
 20
10.58652958783595
 30
0.0
 11
-21.47156546447685
 21
10.55659366821645
 31
0.0
  0
LINE
  5
F10311
330
261
100
AcDbEntity
  8
Geo
100
AcDbLine
 10
-21.47156546447685
 20
10.55659366821645
 30
0.0
 11
-21.37156546447685
 21
10.52463678396565
 31
0.0
  0
LINE
  5
F10313
330
261
100
AcDbEntity
  8
Geo
100
AcDbLine
 10
-21.37156546447685
 20
10.52463678396565
 30
0.0
 11
-21.27156546447684
 21
10.49069527953766
 31
0.0
  0
LINE
  5
F10315
330
261
100
AcDbEntity
  8
Geo
100
AcDbLine
 10
-21.27156546447684
 20
10.49069527953766
 30
0.0
 11
-21.17156546447685
 21
10.45480775648815
 31
0.0
  0
LINE
  5
F10317
330
261
100
AcDbEntity
  8
Geo
100
AcDbLine
 10
-21.17156546447685
 20
10.45480775648815
 30
0.0
 11
-21.07156546447684
 21
10.41701502957316
 31
0.0
  0
LINE
  5
F10319
330
261
100
AcDbEntity
  8
Geo
100
AcDbLine
 10
-21.07156546447684
 20
10.41701502957316
 30
0.0
 11
-20.97156546447685
 21
10.37736008033035
 31
0.0
  0
LINE
  5
F1031B
330
261
100
AcDbEntity
  8
Geo
100
AcDbLine
 10
-20.97156546447685
 20
10.37736008033035
 30
0.0
 11
-20.87156546447685
 21
10.33588800819656
 31
0.0
  0
LINE
  5
F1031D
330
261
100
AcDbEntity
  8
Geo
100
AcDbLine
 10
-20.87156546447685
 20
10.33588800819656
 30
0.0
 11
-20.77156546447684
 21
10.29264597921605
 31
0.0
  0
LINE
  5
F1031F
330
261
100
AcDbEntity
  8
Geo
100
AcDbLine
 10
-20.77156546447684
 20
10.29264597921605
 30
0.0
 11
-20.67156546447685
 21
10.24768317239906
 31
0.0
  0
LINE
  5
F10321
330
261
100
AcDbEntity
  8
Geo
100
AcDbLine
 10
-20.67156546447685
 20
10.24768317239906
 30
0.0
 11
-20.57156546447684
 21
10.20105072379035
 31
0.0
  0
LINE
  5
F10323
330
261
100
AcDbEntity
  8
Geo
100
AcDbLine
 10
-20.57156546447684
 20
10.20105072379035
 30
0.0
 11
-20.47156546447685
 21
10.15280166831266
 31
0.0
  0
LINE
  5
F10325
330
261
100
AcDbEntity
  8
Geo
100
AcDbLine
 10
-20.47156546447685
 20
10.15280166831266
 30
0.0
 11
-20.37156546447685
 21
10.10299087945015
 31
0.0
  0
LINE
  5
F10327
330
261
100
AcDbEntity
  8
Geo
100
AcDbLine
 10
-20.37156546447685
 20
10.10299087945015
 30
0.0
 11
-20.27156546447685
 21
10.05167500684075
 31
0.0
  0
LINE
  5
F10329
330
261
100
AcDbEntity
  8
Geo
100
AcDbLine
 10
-20.27156546447685
 20
10.05167500684075
 30
0.0
 11
-20.17156546447685
 21
9.998912411849158
 31
0.0
  0
LINE
  5
F1032B
330
261
100
AcDbEntity
  8
Geo
100
AcDbLine
 10
-20.17156546447685
 20
9.998912411849158
 30
0.0
 11
-20.07156546447684
 21
9.944763101192357
 31
0.0
  0
LINE
  5
F1032D
330
261
100
AcDbEntity
  8
Geo
100
AcDbLine
 10
-20.07156546447684
 20
9.944763101192357
 30
0.0
 11
-19.97156546447684
 21
9.889288658694255
 31
0.0
  0
LINE
  5
F1032F
330
261
100
AcDbEntity
  8
Geo
100
AcDbLine
 10
-19.97156546447684
 20
9.889288658694255
 30
0.0
 11
-19.87156546447685
 21
9.832552175246657
 31
0.0
  0
LINE
  5
F10331
330
261
100
AcDbEntity
  8
Geo
100
AcDbLine
 10
-19.87156546447685
 20
9.832552175246657
 30
0.0
 11
-19.77156546447684
 21
9.774618177056058
 31
0.0
  0
LINE
  5
F10333
330
261
100
AcDbEntity
  8
Geo
100
AcDbLine
 10
-19.77156546447684
 20
9.774618177056058
 30
0.0
 11
-19.67156546447685
 21
9.715552552258561
 31
0.0
  0
LINE
  5
F10335
330
261
100
AcDbEntity
  8
Geo
100
AcDbLine
 10
-19.67156546447685
 20
9.715552552258561
 30
0.0
 11
-19.57156546447684
 21
9.655422475985158
 31
0.0
  0
LINE
  5
F10337
330
261
100
AcDbEntity
  8
Geo
100
AcDbLine
 10
-19.57156546447684
 20
9.655422475985158
 30
0.0
 11
-19.47156546447684
 21
9.594296333963853
 31
0.0
  0
LINE
  5
F10339
330
261
100
AcDbEntity
  8
Geo
100
AcDbLine
 10
-19.47156546447684
 20
9.594296333963853
 30
0.0
 11
-19.37156546447685
 21
9.532243644744657
 31
0.0
  0
LINE
  5
F1033B
330
261
100
AcDbEntity
  8
Geo
100
AcDbLine
 10
-19.37156546447685
 20
9.532243644744657
 30
0.0
 11
-19.27156546447684
 21
9.469334980636656
 31
0.0
  0
LINE
  5
F1033D
330
261
100
AcDbEntity
  8
Geo
100
AcDbLine
 10
-19.27156546447684
 20
9.469334980636656
 30
0.0
 11
-19.17156546447685
 21
9.405641887446353
 31
0.0
  0
LINE
  5
F1033F
330
261
100
AcDbEntity
  8
Geo
100
AcDbLine
 10
-19.17156546447685
 20
9.405641887446353
 30
0.0
 11
-19.07156546447684
 21
9.341236803108355
 31
0.0
  0
LINE
  5
F10341
330
261
100
AcDbEntity
  8
Geo
100
AcDbLine
 10
-19.07156546447684
 20
9.341236803108355
 30
0.0
 11
-18.97156546447684
 21
9.276192975302656
 31
0.0
  0
LINE
  5
F10343
330
261
100
AcDbEntity
  8
Geo
100
AcDbLine
 10
-18.97156546447684
 20
9.276192975302656
 30
0.0
 11
-18.87156546447685
 21
9.210584378149956
 31
0.0
  0
LINE
  5
F10345
330
261
100
AcDbEntity
  8
Geo
100
AcDbLine
 10
-18.87156546447685
 20
9.210584378149956
 30
0.0
 11
-18.87156546447685
 21
9.210584378149857
 31
0.0
  0
LINE
  5
F10347
330
261
100
AcDbEntity
  8
Geo
100
AcDbLine
 10
-18.87156546447685
 20
9.210584378149857
 30
0.0
 11
-18.87156546447685
 21
9.189035340724061
 31
0.0
  0
LINE
  5
F10349
330
261
100
AcDbEntity
  8
Geo
100
AcDbLine
 10
-18.87156546447685
 20
9.189035340724061
 30
0.0
 11
-18.87156546447685
 21
9.210584378149857
 31
0.0
  0
LINE
  5
F1034B
330
261
100
AcDbEntity
  8
Geo
100
AcDbLine
 10
-18.87156546447685
 20
9.210584378149857
 30
0.0
 11
-18.87156546447685
 21
9.210584378149857
 31
0.0
  0
LINE
  5
F1034D
330
261
100
AcDbEntity
  8
Geo
100
AcDbLine
 10
-18.87156546447685
 20
9.210584378149857
 30
0.0
 11
-18.77156546447684
 21
9.197024639948658
 31
0.0
  0
LINE
  5
F1034F
330
261
100
AcDbEntity
  8
Geo
100
AcDbLine
 10
-18.77156546447684
 20
9.197024639948658
 30
0.0
 11
-18.67156546447685
 21
9.205382082629856
 31
0.0
  0
LINE
  5
F10351
330
261
100
AcDbEntity
  8
Geo
100
AcDbLine
 10
-18.67156546447685
 20
9.205382082629856
 30
0.0
 11
-18.57156546447684
 21
9.214106339959858
 31
0.0
  0
LINE
  5
F10353
330
261
100
AcDbEntity
  8
Geo
100
AcDbLine
 10
-18.57156546447684
 20
9.214106339959858
 30
0.0
 11
-18.47156546447684
 21
9.223195982669356
 31
0.0
  0
LINE
  5
F10355
330
261
100
AcDbEntity
  8
Geo
100
AcDbLine
 10
-18.47156546447684
 20
9.223195982669356
 30
0.0
 11
-18.37156546447685
 21
9.232649475730259
 31
0.0
  0
LINE
  5
F10357
330
261
100
AcDbEntity
  8
Geo
100
AcDbLine
 10
-18.37156546447685
 20
9.232649475730259
 30
0.0
 11
-18.27156546447684
 21
9.242465172849659
 31
0.0
  0
LINE
  5
F10359
330
261
100
AcDbEntity
  8
Geo
100
AcDbLine
 10
-18.27156546447684
 20
9.242465172849659
 30
0.0
 11
-18.17156546447685
 21
9.252641310755958
 31
0.0
  0
LINE
  5
F1035B
330
261
100
AcDbEntity
  8
Geo
100
AcDbLine
 10
-18.17156546447685
 20
9.252641310755958
 30
0.0
 11
-18.07156546447684
 21
9.263176003279856
 31
0.0
  0
LINE
  5
F1035D
330
261
100
AcDbEntity
  8
Geo
100
AcDbLine
 10
-18.07156546447684
 20
9.263176003279856
 30
0.0
 11
-17.97156546447684
 21
9.274067235235655
 31
0.0
  0
LINE
  5
F1035F
330
261
100
AcDbEntity
  8
Geo
100
AcDbLine
 10
-17.97156546447684
 20
9.274067235235655
 30
0.0
 11
-17.87156546447685
 21
9.285312856103757
 31
0.0
  0
LINE
  5
F10361
330
261
100
AcDbEntity
  8
Geo
100
AcDbLine
 10
-17.87156546447685
 20
9.285312856103757
 30
0.0
 11
-17.77156546447684
 21
9.29691057352046
 31
0.0
  0
LINE
  5
F10363
330
261
100
AcDbEntity
  8
Geo
100
AcDbLine
 10
-17.77156546447684
 20
9.29691057352046
 30
0.0
 11
-17.67156546447685
 21
9.308857946578157
 31
0.0
  0
LINE
  5
F10365
330
261
100
AcDbEntity
  8
Geo
100
AcDbLine
 10
-17.67156546447685
 20
9.308857946578157
 30
0.0
 11
-17.57156546447684
 21
9.321152378940855
 31
0.0
  0
LINE
  5
F10367
330
261
100
AcDbEntity
  8
Geo
100
AcDbLine
 10
-17.57156546447684
 20
9.321152378940855
 30
0.0
 11
-17.47156546447684
 21
9.333791111779355
 31
0.0
  0
LINE
  5
F10369
330
261
100
AcDbEntity
  8
Geo
100
AcDbLine
 10
-17.47156546447684
 20
9.333791111779355
 30
0.0
 11
-17.37156546447685
 21
9.346771216531955
 31
0.0
  0
LINE
  5
F1036B
330
261
100
AcDbEntity
  8
Geo
100
AcDbLine
 10
-17.37156546447685
 20
9.346771216531955
 30
0.0
 11
-17.27156546447684
 21
9.360089587495853
 31
0.0
  0
LINE
  5
F1036D
330
261
100
AcDbEntity
  8
Geo
100
AcDbLine
 10
-17.27156546447684
 20
9.360089587495853
 30
0.0
 11
-17.17156546447685
 21
9.373742934255258
 31
0.0
  0
LINE
  5
F1036F
330
261
100
AcDbEntity
  8
Geo
100
AcDbLine
 10
-17.17156546447685
 20
9.373742934255258
 30
0.0
 11
-17.07156546447684
 21
9.387727773952256
 31
0.0
  0
LINE
  5
F10371
330
261
100
AcDbEntity
  8
Geo
100
AcDbLine
 10
-17.07156546447684
 20
9.387727773952256
 30
0.0
 11
-16.97156546447684
 21
9.402040423408354
 31
0.0
  0
LINE
  5
F10373
330
261
100
AcDbEntity
  8
Geo
100
AcDbLine
 10
-16.97156546447684
 20
9.402040423408354
 30
0.0
 11
-16.87156546447685
 21
9.416676991101759
 31
0.0
  0
LINE
  5
F10375
330
261
100
AcDbEntity
  8
Geo
100
AcDbLine
 10
-16.87156546447685
 20
9.416676991101759
 30
0.0
 11
-16.87156546447685
 21
9.416676991101759
 31
0.0
  0
LINE
  5
F10377
330
261
100
AcDbEntity
  8
Geo
100
AcDbLine
 10
-23.87156546447685
 20
10.77951920893956
 30
0.0
 11
-23.77156546447684
 21
10.77900157976545
 31
0.0
  0
LINE
  5
F10379
330
261
100
AcDbEntity
  8
Geo
100
AcDbLine
 10
-23.77156546447684
 20
10.77900157976545
 30
0.0
 11
-23.67156546447685
 21
10.77621004221065
 31
0.0
  0
LINE
  5
F1037B
330
261
100
AcDbEntity
  8
Geo
100
AcDbLine
 10
-23.67156546447685
 20
10.77621004221065
 30
0.0
 11
-23.57156546447684
 21
10.77114777108135
 31
0.0
  0
LINE
  5
F1037D
330
261
100
AcDbEntity
  8
Geo
100
AcDbLine
 10
-23.57156546447684
 20
10.77114777108135
 30
0.0
 11
-23.47156546447685
 21
10.76382052368075
 31
0.0
  0
LINE
  5
F1037F
330
261
100
AcDbEntity
  8
Geo
100
AcDbLine
 10
-23.47156546447685
 20
10.76382052368075
 30
0.0
 11
-23.37156546447685
 21
10.75423663326226
 31
0.0
  0
LINE
  5
F10381
330
261
100
AcDbEntity
  8
Geo
100
AcDbLine
 10
-23.37156546447685
 20
10.75423663326226
 30
0.0
 11
-23.27156546447684
 21
10.74240699955125
 31
0.0
  0
LINE
  5
F10383
330
261
100
AcDbEntity
  8
Geo
100
AcDbLine
 10
-23.27156546447684
 20
10.74240699955125
 30
0.0
 11
-23.17156546447685
 21
10.72834507634925
 31
0.0
  0
LINE
  5
F10385
330
261
100
AcDbEntity
  8
Geo
100
AcDbLine
 10
-23.17156546447685
 20
10.72834507634925
 30
0.0
 11
-23.07156546447684
 21
10.71206685623285
 31
0.0
  0
LINE
  5
F10387
330
261
100
AcDbEntity
  8
Geo
100
AcDbLine
 10
-23.07156546447684
 20
10.71206685623285
 30
0.0
 11
-22.97156546447685
 21
10.69359085236576
 31
0.0
  0
LINE
  5
F10389
330
261
100
AcDbEntity
  8
Geo
100
AcDbLine
 10
-22.97156546447685
 20
10.69359085236576
 30
0.0
 11
-22.87156546447685
 21
10.67293807744306
 31
0.0
  0
LINE
  5
F1038B
330
261
100
AcDbEntity
  8
Geo
100
AcDbLine
 10
-22.87156546447685
 20
10.67293807744306
 30
0.0
 11
-22.77156546447685
 21
10.65013201979456
 31
0.0
  0
LINE
  5
F1038D
330
261
100
AcDbEntity
  8
Geo
100
AcDbLine
 10
-22.77156546447685
 20
10.65013201979456
 30
0.0
 11
-22.67156546447685
 21
10.62519861667076
 31
0.0
  0
LINE
  5
F1038F
330
261
100
AcDbEntity
  8
Geo
100
AcDbLine
 10
-22.67156546447685
 20
10.62519861667076
 30
0.0
 11
-22.57156546447684
 21
10.59816622474475
 31
0.0
  0
LINE
  5
F10391
330
261
100
AcDbEntity
  8
Geo
100
AcDbLine
 10
-22.57156546447684
 20
10.59816622474475
 30
0.0
 11
-22.47156546447685
 21
10.56906558786265
 31
0.0
  0
LINE
  5
F10393
330
261
100
AcDbEntity
  8
Geo
100
AcDbLine
 10
-22.47156546447685
 20
10.56906558786265
 30
0.0
 11
-22.37156546447685
 21
10.53792980207815
 31
0.0
  0
LINE
  5
F10395
330
261
100
AcDbEntity
  8
Geo
100
AcDbLine
 10
-22.37156546447685
 20
10.53792980207815
 30
0.0
 11
-22.27156546447684
 21
10.50479427801295
 31
0.0
  0
LINE
  5
F10397
330
261
100
AcDbEntity
  8
Geo
100
AcDbLine
 10
-22.27156546447684
 20
10.50479427801295
 30
0.0
 11
-22.17156546447685
 21
10.46969670058385
 31
0.0
  0
LINE
  5
F10399
330
261
100
AcDbEntity
  8
Geo
100
AcDbLine
 10
-22.17156546447685
 20
10.46969670058385
 30
0.0
 11
-22.07156546447684
 21
10.43267698614465
 31
0.0
  0
LINE
  5
F1039B
330
261
100
AcDbEntity
  8
Geo
100
AcDbLine
 10
-22.07156546447684
 20
10.43267698614465
 30
0.0
 11
-21.97156546447684
 21
10.39377723708856
 31
0.0
  0
LINE
  5
F1039D
330
261
100
AcDbEntity
  8
Geo
100
AcDbLine
 10
-21.97156546447684
 20
10.39377723708856
 30
0.0
 11
-21.87156546447685
 21
10.35304169396575
 31
0.0
  0
LINE
  5
F1039F
330
261
100
AcDbEntity
  8
Geo
100
AcDbLine
 10
-21.87156546447685
 20
10.35304169396575
 30
0.0
 11
-21.77156546447684
 21
10.31051668516876
 31
0.0
  0
LINE
  5
F103A1
330
261
100
AcDbEntity
  8
Geo
100
AcDbLine
 10
-21.77156546447684
 20
10.31051668516876
 30
0.0
 11
-21.67156546447685
 21
10.26625057424305
 31
0.0
  0
LINE
  5
F103A3
330
261
100
AcDbEntity
  8
Geo
100
AcDbLine
 10
-21.67156546447685
 20
10.26625057424305
 30
0.0
 11
-21.57156546447684
 21
10.22029370488376
 31
0.0
  0
LINE
  5
F103A5
330
261
100
AcDbEntity
  8
Geo
100
AcDbLine
 10
-21.57156546447684
 20
10.22029370488376
 30
0.0
 11
-21.47156546447685
 21
10.17269834367956
 31
0.0
  0
LINE
  5
F103A7
330
261
100
AcDbEntity
  8
Geo
100
AcDbLine
 10
-21.47156546447685
 20
10.17269834367956
 30
0.0
 11
-21.37156546447685
 21
10.12351862067026
 31
0.0
  0
LINE
  5
F103A9
330
261
100
AcDbEntity
  8
Geo
100
AcDbLine
 10
-21.37156546447685
 20
10.12351862067026
 30
0.0
 11
-21.27156546447684
 21
10.07281046778506
 31
0.0
  0
LINE
  5
F103AB
330
261
100
AcDbEntity
  8
Geo
100
AcDbLine
 10
-21.27156546447684
 20
10.07281046778506
 30
0.0
 11
-21.17156546447685
 21
10.02063155523085
 31
0.0
  0
LINE
  5
F103AD
330
261
100
AcDbEntity
  8
Geo
100
AcDbLine
 10
-21.17156546447685
 20
10.02063155523085
 30
0.0
 11
-21.07156546447684
 21
9.967041225904758
 31
0.0
  0
LINE
  5
F103AF
330
261
100
AcDbEntity
  8
Geo
100
AcDbLine
 10
-21.07156546447684
 20
9.967041225904758
 30
0.0
 11
-20.97156546447685
 21
9.912100427903155
 31
0.0
  0
LINE
  5
F103B1
330
261
100
AcDbEntity
  8
Geo
100
AcDbLine
 10
-20.97156546447685
 20
9.912100427903155
 30
0.0
 11
-20.87156546447685
 21
9.855871645205656
 31
0.0
  0
LINE
  5
F103B3
330
261
100
AcDbEntity
  8
Geo
100
AcDbLine
 10
-20.87156546447685
 20
9.855871645205656
 30
0.0
 11
-20.77156546447684
 21
9.798418826612657
 31
0.0
  0
LINE
  5
F103B5
330
261
100
AcDbEntity
  8
Geo
100
AcDbLine
 10
-20.77156546447684
 20
9.798418826612657
 30
0.0
 11
-20.67156546447685
 21
9.739807313016154
 31
0.0
  0
LINE
  5
F103B7
330
261
100
AcDbEntity
  8
Geo
100
AcDbLine
 10
-20.67156546447685
 20
9.739807313016154
 30
0.0
 11
-20.57156546447684
 21
9.680103763088158
 31
0.0
  0
LINE
  5
F103B9
330
261
100
AcDbEntity
  8
Geo
100
AcDbLine
 10
-20.57156546447684
 20
9.680103763088158
 30
0.0
 11
-20.47156546447685
 21
9.619376077469656
 31
0.0
  0
LINE
  5
F103BB
330
261
100
AcDbEntity
  8
Geo
100
AcDbLine
 10
-20.47156546447685
 20
9.619376077469656
 30
0.0
 11
-20.37156546447685
 21
9.55769332154766
 31
0.0
  0
LINE
  5
F103BD
330
261
100
AcDbEntity
  8
Geo
100
AcDbLine
 10
-20.37156546447685
 20
9.55769332154766
 30
0.0
 11
-20.27156546447685
 21
9.495125646907457
 31
0.0
  0
LINE
  5
F103BF
330
261
100
AcDbEntity
  8
Geo
100
AcDbLine
 10
-20.27156546447685
 20
9.495125646907457
 30
0.0
 11
-20.17156546447685
 21
9.431744211549155
 31
0.0
  0
LINE
  5
F103C1
330
261
100
AcDbEntity
  8
Geo
100
AcDbLine
 10
-20.17156546447685
 20
9.431744211549155
 30
0.0
 11
-20.07156546447684
 21
9.36762109896026
 31
0.0
  0
LINE
  5
F103C3
330
261
100
AcDbEntity
  8
Geo
100
AcDbLine
 10
-20.07156546447684
 20
9.36762109896026
 30
0.0
 11
-19.97156546447684
 21
9.302829236135156
 31
0.0
  0
LINE
  5
F103C5
330
261
100
AcDbEntity
  8
Geo
100
AcDbLine
 10
-19.97156546447684
 20
9.302829236135156
 30
0.0
 11
-19.87156546447685
 21
9.237442310635561
 31
0.0
  0
LINE
  5
F103C7
330
261
100
AcDbEntity
  8
Geo
100
AcDbLine
 10
-19.87156546447685
 20
9.237442310635561
 30
0.0
 11
-19.77156546447684
 21
9.171534686785857
 31
0.0
  0
LINE
  5
F103C9
330
261
100
AcDbEntity
  8
Geo
100
AcDbLine
 10
-19.77156546447684
 20
9.171534686785857
 30
0.0
 11
-19.67156546447685
 21
9.10518132109906
 31
0.0
  0
LINE
  5
F103CB
330
261
100
AcDbEntity
  8
Geo
100
AcDbLine
 10
-19.67156546447685
 20
9.10518132109906
 30
0.0
 11
-19.57156546447684
 21
9.038457677028659
 31
0.0
  0
LINE
  5
F103CD
330
261
100
AcDbEntity
  8
Geo
100
AcDbLine
 10
-19.57156546447684
 20
9.038457677028659
 30
0.0
 11
-19.47156546447684
 21
8.971439639144456
 31
0.0
  0
LINE
  5
F103CF
330
261
100
AcDbEntity
  8
Geo
100
AcDbLine
 10
-19.47156546447684
 20
8.971439639144456
 30
0.0
 11
-19.37156546447685
 21
8.90420342682956
 31
0.0
  0
LINE
  5
F103D1
330
261
100
AcDbEntity
  8
Geo
100
AcDbLine
 10
-19.37156546447685
 20
8.90420342682956
 30
0.0
 11
-19.27156546447684
 21
8.836825507595655
 31
0.0
  0
LINE
  5
F103D3
330
261
100
AcDbEntity
  8
Geo
100
AcDbLine
 10
-19.27156546447684
 20
8.836825507595655
 30
0.0
 11
-19.17156546447685
 21
8.769382510117758
 31
0.0
  0
LINE
  5
F103D5
330
261
100
AcDbEntity
  8
Geo
100
AcDbLine
 10
-19.17156546447685
 20
8.769382510117758
 30
0.0
 11
-19.07156546447684
 21
8.701951137083757
 31
0.0
  0
LINE
  5
F103D7
330
261
100
AcDbEntity
  8
Geo
100
AcDbLine
 10
-19.07156546447684
 20
8.701951137083757
 30
0.0
 11
-18.97156546447684
 21
8.634608077961157
 31
0.0
  0
LINE
  5
F103D9
330
261
100
AcDbEntity
  8
Geo
100
AcDbLine
 10
-18.97156546447684
 20
8.634608077961157
 30
0.0
 11
-18.87156546447685
 21
8.567429921778657
 31
0.0
  0
LINE
  5
F103DB
330
261
100
AcDbEntity
  8
Geo
100
AcDbLine
 10
-18.87156546447685
 20
8.567429921778657
 30
0.0
 11
-18.87156546447685
 21
8.567429921778558
 31
0.0
  0
LINE
  5
F103DD
330
261
100
AcDbEntity
  8
Geo
100
AcDbLine
 10
-18.87156546447685
 20
8.567429921778558
 30
0.0
 11
-18.87156546447685
 21
8.578038607171357
 31
0.0
  0
LINE
  5
F103DF
330
261
100
AcDbEntity
  8
Geo
100
AcDbLine
 10
-18.87156546447685
 20
8.578038607171357
 30
0.0
 11
-18.87156546447685
 21
8.567429921778558
 31
0.0
  0
LINE
  5
F103E1
330
261
100
AcDbEntity
  8
Geo
100
AcDbLine
 10
-18.87156546447685
 20
8.567429921778558
 30
0.0
 11
-18.87156546447685
 21
8.567429921778558
 31
0.0
  0
LINE
  5
F103E3
330
261
100
AcDbEntity
  8
Geo
100
AcDbLine
 10
-18.87156546447685
 20
8.567429921778558
 30
0.0
 11
-18.77156546447684
 21
8.504955285479457
 31
0.0
  0
LINE
  5
F103E5
330
261
100
AcDbEntity
  8
Geo
100
AcDbLine
 10
-18.77156546447684
 20
8.504955285479457
 30
0.0
 11
-18.67156546447685
 21
8.428872656950556
 31
0.0
  0
LINE
  5
F103E7
330
261
100
AcDbEntity
  8
Geo
100
AcDbLine
 10
-18.67156546447685
 20
8.428872656950556
 30
0.0
 11
-18.57156546447684
 21
8.349986049152459
 31
0.0
  0
LINE
  5
F103E9
330
261
100
AcDbEntity
  8
Geo
100
AcDbLine
 10
-18.57156546447684
 20
8.349986049152459
 30
0.0
 11
-18.47156546447684
 21
8.268528524580354
 31
0.0
  0
LINE
  5
F103EB
330
261
100
AcDbEntity
  8
Geo
100
AcDbLine
 10
-18.47156546447684
 20
8.268528524580354
 30
0.0
 11
-18.37156546447685
 21
8.184774019106654
 31
0.0
  0
LINE
  5
F103ED
330
261
100
AcDbEntity
  8
Geo
100
AcDbLine
 10
-18.37156546447685
 20
8.184774019106654
 30
0.0
 11
-18.27156546447684
 21
8.099040350472556
 31
0.0
  0
LINE
  5
F103EF
330
261
100
AcDbEntity
  8
Geo
100
AcDbLine
 10
-18.27156546447684
 20
8.099040350472556
 30
0.0
 11
-18.17156546447685
 21
8.011692031214259
 31
0.0
  0
LINE
  5
F103F1
330
261
100
AcDbEntity
  8
Geo
100
AcDbLine
 10
-18.17156546447685
 20
8.011692031214259
 30
0.0
 11
-18.07156546447684
 21
7.923142812583154
 31
0.0
  0
LINE
  5
F103F3
330
261
100
AcDbEntity
  8
Geo
100
AcDbLine
 10
-18.07156546447684
 20
7.923142812583154
 30
0.0
 11
-17.97156546447684
 21
7.833857878194358
 31
0.0
  0
LINE
  5
F103F5
330
261
100
AcDbEntity
  8
Geo
100
AcDbLine
 10
-17.97156546447684
 20
7.833857878194358
 30
0.0
 11
-17.87156546447685
 21
7.744355598502355
 31
0.0
  0
LINE
  5
F103F7
330
261
100
AcDbEntity
  8
Geo
100
AcDbLine
 10
-17.87156546447685
 20
7.744355598502355
 30
0.0
 11
-17.77156546447684
 21
7.65520874998176
 31
0.0
  0
LINE
  5
F103F9
330
261
100
AcDbEntity
  8
Geo
100
AcDbLine
 10
-17.77156546447684
 20
7.65520874998176
 30
0.0
 11
-17.67156546447685
 21
7.567045096340258
 31
0.0
  0
LINE
  5
F103FB
330
261
100
AcDbEntity
  8
Geo
100
AcDbLine
 10
-17.67156546447685
 20
7.567045096340258
 30
0.0
 11
-17.57156546447684
 21
7.480547223503059
 31
0.0
  0
LINE
  5
F103FD
330
261
100
AcDbEntity
  8
Geo
100
AcDbLine
 10
-17.57156546447684
 20
7.480547223503059
 30
0.0
 11
-17.47156546447684
 21
7.396451515810355
 31
0.0
  0
LINE
  5
F103FF
330
261
100
AcDbEntity
  8
Geo
100
AcDbLine
 10
-17.47156546447684
 20
7.396451515810355
 30
0.0
 11
-17.37156546447685
 21
7.315546158230457
 31
0.0
  0
LINE
  5
F10401
330
261
100
AcDbEntity
  8
Geo
100
AcDbLine
 10
-17.37156546447685
 20
7.315546158230457
 30
0.0
 11
-17.27156546447684
 21
7.238668048797457
 31
0.0
  0
LINE
  5
F10403
330
261
100
AcDbEntity
  8
Geo
100
AcDbLine
 10
-17.27156546447684
 20
7.238668048797457
 30
0.0
 11
-17.17156546447685
 21
7.166698507359956
 31
0.0
  0
LINE
  5
F10405
330
261
100
AcDbEntity
  8
Geo
100
AcDbLine
 10
-17.17156546447685
 20
7.166698507359956
 30
0.0
 11
-17.07156546447684
 21
7.100557671515559
 31
0.0
  0
LINE
  5
F10407
330
261
100
AcDbEntity
  8
Geo
100
AcDbLine
 10
-17.07156546447684
 20
7.100557671515559
 30
0.0
 11
-16.97156546447684
 21
7.041197478758355
 31
0.0
  0
LINE
  5
F10409
330
261
100
AcDbEntity
  8
Geo
100
AcDbLine
 10
-16.97156546447684
 20
7.041197478758355
 30
0.0
 11
-16.87156546447685
 21
6.989593145835257
 31
0.0
  0
LINE
  5
F1040B
330
261
100
AcDbEntity
  8
Geo
100
AcDbLine
 10
-16.87156546447685
 20
6.989593145835257
 30
0.0
 11
-16.87156546447685
 21
6.989593145835257
 31
0.0
  0
LINE
  5
F1040D
330
261
100
AcDbEntity
  8
Geo
100
AcDbLine
 10
-27.57156546447684
 20
10.77950928083735
 30
0.0
 11
-27.47156546447685
 21
10.77902707846416
 31
0.0
  0
LINE
  5
F1040F
330
261
100
AcDbEntity
  8
Geo
100
AcDbLine
 10
-27.47156546447685
 20
10.77902707846416
 30
0.0
 11
-27.37156546447685
 21
10.77627093871065
 31
0.0
  0
LINE
  5
F10411
330
261
100
AcDbEntity
  8
Geo
100
AcDbLine
 10
-27.37156546447685
 20
10.77627093871065
 30
0.0
 11
-27.27156546447684
 21
10.77124399612515
 31
0.0
  0
LINE
  5
F10413
330
261
100
AcDbEntity
  8
Geo
100
AcDbLine
 10
-27.27156546447684
 20
10.77124399612515
 30
0.0
 11
-27.17156546447685
 21
10.76395196783216
 31
0.0
  0
LINE
  5
F10415
330
261
100
AcDbEntity
  8
Geo
100
AcDbLine
 10
-27.17156546447685
 20
10.76395196783216
 30
0.0
 11
-27.07156546447684
 21
10.75440314703006
 31
0.0
  0
LINE
  5
F10417
330
261
100
AcDbEntity
  8
Geo
100
AcDbLine
 10
-27.07156546447684
 20
10.75440314703006
 30
0.0
 11
-26.97156546447685
 21
10.74260839356006
 31
0.0
  0
LINE
  5
F10419
330
261
100
AcDbEntity
  8
Geo
100
AcDbLine
 10
-26.97156546447685
 20
10.74260839356006
 30
0.0
 11
-26.87156546447685
 21
10.72858112155426
 31
0.0
  0
LINE
  5
F1041B
330
261
100
AcDbEntity
  8
Geo
100
AcDbLine
 10
-26.87156546447685
 20
10.72858112155426
 30
0.0
 11
-26.77156546447684
 21
10.71233728418076
 31
0.0
  0
LINE
  5
F1041D
330
261
100
AcDbEntity
  8
Geo
100
AcDbLine
 10
-26.77156546447684
 20
10.71233728418076
 30
0.0
 11
-26.67156546447685
 21
10.69389535549965
 31
0.0
  0
LINE
  5
F1041F
330
261
100
AcDbEntity
  8
Geo
100
AcDbLine
 10
-26.67156546447685
 20
10.69389535549965
 30
0.0
 11
-26.57156546447684
 21
10.67327630945275
 31
0.0
  0
LINE
  5
F10421
330
261
100
AcDbEntity
  8
Geo
100
AcDbLine
 10
-26.57156546447684
 20
10.67327630945275
 30
0.0
 11
-26.47156546447685
 21
10.65050359600986
 31
0.0
  0
LINE
  5
F10423
330
261
100
AcDbEntity
  8
Geo
100
AcDbLine
 10
-26.47156546447685
 20
10.65050359600986
 30
0.0
 11
-26.37156546447685
 21
10.62560311449925
 31
0.0
  0
LINE
  5
F10425
330
261
100
AcDbEntity
  8
Geo
100
AcDbLine
 10
-26.37156546447685
 20
10.62560311449925
 30
0.0
 11
-26.27156546447685
 21
10.59860318415266
 31
0.0
  0
LINE
  5
F10427
330
261
100
AcDbEntity
  8
Geo
100
AcDbLine
 10
-26.27156546447685
 20
10.59860318415266
 30
0.0
 11
-26.17156546447685
 21
10.56953451189735
 31
0.0
  0
LINE
  5
F10429
330
261
100
AcDbEntity
  8
Geo
100
AcDbLine
 10
-26.17156546447685
 20
10.56953451189735
 30
0.0
 11
-26.07156546447684
 21
10.53843015743406
 31
0.0
  0
LINE
  5
F1042B
330
261
100
AcDbEntity
  8
Geo
100
AcDbLine
 10
-26.07156546447684
 20
10.53843015743406
 30
0.0
 11
-25.97156546447685
 21
10.50532549563755
 31
0.0
  0
LINE
  5
F1042D
330
261
100
AcDbEntity
  8
Geo
100
AcDbLine
 10
-25.97156546447685
 20
10.50532549563755
 30
0.0
 11
-25.87156546447686
 21
10.47025817632536
 31
0.0
  0
LINE
  5
F1042F
330
261
100
AcDbEntity
  8
Geo
100
AcDbLine
 10
-25.87156546447686
 20
10.47025817632536
 30
0.0
 11
-25.77156546447684
 21
10.43326808143856
 31
0.0
  0
LINE
  5
F10431
330
261
100
AcDbEntity
  8
Geo
100
AcDbLine
 10
-25.77156546447684
 20
10.43326808143856
 30
0.0
 11
-25.67156546447685
 21
10.39439727968415
 31
0.0
  0
LINE
  5
F10433
330
261
100
AcDbEntity
  8
Geo
100
AcDbLine
 10
-25.67156546447685
 20
10.39439727968415
 30
0.0
 11
-25.57156546447684
 21
10.35368997869075
 31
0.0
  0
LINE
  5
F10435
330
261
100
AcDbEntity
  8
Geo
100
AcDbLine
 10
-25.57156546447684
 20
10.35368997869075
 30
0.0
 11
-25.47156546447685
 21
10.31119247473125
 31
0.0
  0
LINE
  5
F10437
330
261
100
AcDbEntity
  8
Geo
100
AcDbLine
 10
-25.47156546447685
 20
10.31119247473125
 30
0.0
 11
-25.37156546447685
 21
10.26695310006985
 31
0.0
  0
LINE
  5
F10439
330
261
100
AcDbEntity
  8
Geo
100
AcDbLine
 10
-25.37156546447685
 20
10.26695310006985
 30
0.0
 11
-25.27156546447685
 21
10.22102216799476
 31
0.0
  0
LINE
  5
F1043B
330
261
100
AcDbEntity
  8
Geo
100
AcDbLine
 10
-25.27156546447685
 20
10.22102216799476
 30
0.0
 11
-25.17156546447685
 21
10.17345191559606
 31
0.0
  0
LINE
  5
F1043D
330
261
100
AcDbEntity
  8
Geo
100
AcDbLine
 10
-25.17156546447685
 20
10.17345191559606
 30
0.0
 11
-25.07156546447684
 21
10.12429644435765
 31
0.0
  0
LINE
  5
F1043F
330
261
100
AcDbEntity
  8
Geo
100
AcDbLine
 10
-25.07156546447684
 20
10.12429644435765
 30
0.0
 11
-24.97156546447685
 21
10.07361165862695
 31
0.0
  0
LINE
  5
F10441
330
261
100
AcDbEntity
  8
Geo
100
AcDbLine
 10
-24.97156546447685
 20
10.07361165862695
 30
0.0
 11
-24.87156546447685
 21
10.02145520203585
 31
0.0
  0
LINE
  5
F10443
330
261
100
AcDbEntity
  8
Geo
100
AcDbLine
 10
-24.87156546447685
 20
10.02145520203585
 30
0.0
 11
-24.77156546447684
 21
9.967886391942155
 31
0.0
  0
LINE
  5
F10445
330
261
100
AcDbEntity
  8
Geo
100
AcDbLine
 10
-24.77156546447684
 20
9.967886391942155
 30
0.0
 11
-24.67156546447685
 21
9.912966151968458
 31
0.0
  0
LINE
  5
F10447
330
261
100
AcDbEntity
  8
Geo
100
AcDbLine
 10
-24.67156546447685
 20
9.912966151968458
 30
0.0
 11
-24.57156546447684
 21
9.85675694271396
 31
0.0
  0
LINE
  5
F10449
330
261
100
AcDbEntity
  8
Geo
100
AcDbLine
 10
-24.57156546447684
 20
9.85675694271396
 30
0.0
 11
-24.47156546447685
 21
9.799322690718156
 31
0.0
  0
LINE
  5
F1044B
330
261
100
AcDbEntity
  8
Geo
100
AcDbLine
 10
-24.47156546447685
 20
9.799322690718156
 30
0.0
 11
-24.37156546447685
 21
9.740728715757352
 31
0.0
  0
LINE
  5
F1044D
330
261
100
AcDbEntity
  8
Geo
100
AcDbLine
 10
-24.37156546447685
 20
9.740728715757352
 30
0.0
 11
-24.27156546447684
 21
9.681041656556857
 31
0.0
  0
LINE
  5
F1044F
330
261
100
AcDbEntity
  8
Geo
100
AcDbLine
 10
-24.27156546447684
 20
9.681041656556857
 30
0.0
 11
-24.17156546447685
 21
9.620329395002855
 31
0.0
  0
LINE
  5
F10451
330
261
100
AcDbEntity
  8
Geo
100
AcDbLine
 10
-24.17156546447685
 20
9.620329395002855
 30
0.0
 11
-24.07156546447684
 21
9.558660978940658
 31
0.0
  0
LINE
  5
F10453
330
261
100
AcDbEntity
  8
Geo
100
AcDbLine
 10
-24.07156546447684
 20
9.558660978940658
 30
0.0
 11
-23.97156546447685
 21
9.496106543646757
 31
0.0
  0
LINE
  5
F10455
330
261
100
AcDbEntity
  8
Geo
100
AcDbLine
 10
-23.97156546447685
 20
9.496106543646757
 30
0.0
 11
-23.87156546447685
 21
9.432737232064354
 31
0.0
  0
LINE
  5
F10457
330
261
100
AcDbEntity
  8
Geo
100
AcDbLine
 10
-23.87156546447685
 20
9.432737232064354
 30
0.0
 11
-23.77156546447684
 21
9.368625113892559
 31
0.0
  0
LINE
  5
F10459
330
261
100
AcDbEntity
  8
Geo
100
AcDbLine
 10
-23.77156546447684
 20
9.368625113892559
 30
0.0
 11
-23.67156546447685
 21
9.303843103621758
 31
0.0
  0
LINE
  5
F1045B
330
261
100
AcDbEntity
  8
Geo
100
AcDbLine
 10
-23.67156546447685
 20
9.303843103621758
 30
0.0
 11
-23.57156546447684
 21
9.23846487760856
 31
0.0
  0
LINE
  5
F1045D
330
261
100
AcDbEntity
  8
Geo
100
AcDbLine
 10
-23.57156546447684
 20
9.23846487760856
 30
0.0
 11
-23.47156546447685
 21
9.172564790283352
 31
0.0
  0
LINE
  5
F1045F
330
261
100
AcDbEntity
  8
Geo
100
AcDbLine
 10
-23.47156546447685
 20
9.172564790283352
 30
0.0
 11
-23.37156546447685
 21
9.106217789587958
 31
0.0
  0
LINE
  5
F10461
330
261
100
AcDbEntity
  8
Geo
100
AcDbLine
 10
-23.37156546447685
 20
9.106217789587958
 30
0.0
 11
-23.27156546447684
 21
9.039499331736852
 31
0.0
  0
LINE
  5
F10463
330
261
100
AcDbEntity
  8
Geo
100
AcDbLine
 10
-23.27156546447684
 20
9.039499331736852
 30
0.0
 11
-23.17156546447685
 21
8.972485295401657
 31
0.0
  0
LINE
  5
F10465
330
261
100
AcDbEntity
  8
Geo
100
AcDbLine
 10
-23.17156546447685
 20
8.972485295401657
 30
0.0
 11
-23.07156546447684
 21
8.905251895414455
 31
0.0
  0
LINE
  5
F10467
330
261
100
AcDbEntity
  8
Geo
100
AcDbLine
 10
-23.07156546447684
 20
8.905251895414455
 30
0.0
 11
-22.97156546447685
 21
8.837875596088654
 31
0.0
  0
LINE
  5
F10469
330
261
100
AcDbEntity
  8
Geo
100
AcDbLine
 10
-22.97156546447685
 20
8.837875596088654
 30
0.0
 11
-22.87156546447685
 21
8.770433024256757
 31
0.0
  0
LINE
  5
F1046B
330
261
100
AcDbEntity
  8
Geo
100
AcDbLine
 10
-22.87156546447685
 20
8.770433024256757
 30
0.0
 11
-22.77156546447685
 21
8.703000882122758
 31
0.0
  0
LINE
  5
F1046D
330
261
100
AcDbEntity
  8
Geo
100
AcDbLine
 10
-22.77156546447685
 20
8.703000882122758
 30
0.0
 11
-22.67156546447685
 21
8.635655860028755
 31
0.0
  0
LINE
  5
F1046F
330
261
100
AcDbEntity
  8
Geo
100
AcDbLine
 10
-22.67156546447685
 20
8.635655860028755
 30
0.0
 11
-22.57156546447684
 21
8.568474549235755
 31
0.0
  0
LINE
  5
F10471
330
261
100
AcDbEntity
  8
Geo
100
AcDbLine
 10
-22.57156546447684
 20
8.568474549235755
 30
0.0
 11
-22.47156546447685
 21
8.501533354816459
 31
0.0
  0
LINE
  5
F10473
330
261
100
AcDbEntity
  8
Geo
100
AcDbLine
 10
-22.47156546447685
 20
8.501533354816459
 30
0.0
 11
-22.37156546447685
 21
8.434908408759959
 31
0.0
  0
LINE
  5
F10475
330
261
100
AcDbEntity
  8
Geo
100
AcDbLine
 10
-22.37156546447685
 20
8.434908408759959
 30
0.0
 11
-22.27156546447684
 21
8.368675483387256
 31
0.0
  0
LINE
  5
F10477
330
261
100
AcDbEntity
  8
Geo
100
AcDbLine
 10
-22.27156546447684
 20
8.368675483387256
 30
0.0
 11
-22.17156546447685
 21
8.302909905175454
 31
0.0
  0
LINE
  5
F10479
330
261
100
AcDbEntity
  8
Geo
100
AcDbLine
 10
-22.17156546447685
 20
8.302909905175454
 30
0.0
 11
-22.07156546447684
 21
8.237686469089457
 31
0.0
  0
LINE
  5
F1047B
330
261
100
AcDbEntity
  8
Geo
100
AcDbLine
 10
-22.07156546447684
 20
8.237686469089457
 30
0.0
 11
-21.97156546447684
 21
8.17307935351776
 31
0.0
  0
LINE
  5
F1047D
330
261
100
AcDbEntity
  8
Geo
100
AcDbLine
 10
-21.97156546447684
 20
8.17307935351776
 30
0.0
 11
-21.87156546447685
 21
8.109162035909758
 31
0.0
  0
LINE
  5
F1047F
330
261
100
AcDbEntity
  8
Geo
100
AcDbLine
 10
-21.87156546447685
 20
8.109162035909758
 30
0.0
 11
-21.77156546447684
 21
8.046007209209854
 31
0.0
  0
LINE
  5
F10481
330
261
100
AcDbEntity
  8
Geo
100
AcDbLine
 10
-21.77156546447684
 20
8.046007209209854
 30
0.0
 11
-21.67156546447685
 21
7.983686699184257
 31
0.0
  0
LINE
  5
F10483
330
261
100
AcDbEntity
  8
Geo
100
AcDbLine
 10
-21.67156546447685
 20
7.983686699184257
 30
0.0
 11
-21.57156546447684
 21
7.922271382733757
 31
0.0
  0
LINE
  5
F10485
330
261
100
AcDbEntity
  8
Geo
100
AcDbLine
 10
-21.57156546447684
 20
7.922271382733757
 30
0.0
 11
-21.47156546447685
 21
7.861831107285457
 31
0.0
  0
LINE
  5
F10487
330
261
100
AcDbEntity
  8
Geo
100
AcDbLine
 10
-21.47156546447685
 20
7.861831107285457
 30
0.0
 11
-21.37156546447685
 21
7.802434611355959
 31
0.0
  0
LINE
  5
F10489
330
261
100
AcDbEntity
  8
Geo
100
AcDbLine
 10
-21.37156546447685
 20
7.802434611355959
 30
0.0
 11
-21.27156546447684
 21
7.744149446374656
 31
0.0
  0
LINE
  5
F1048B
330
261
100
AcDbEntity
  8
Geo
100
AcDbLine
 10
-21.27156546447684
 20
7.744149446374656
 30
0.0
 11
-21.17156546447685
 21
7.687041899858456
 31
0.0
  0
LINE
  5
F1048D
330
261
100
AcDbEntity
  8
Geo
100
AcDbLine
 10
-21.17156546447685
 20
7.687041899858456
 30
0.0
 11
-21.07156546447684
 21
7.631176920022657
 31
0.0
  0
LINE
  5
F1048F
330
261
100
AcDbEntity
  8
Geo
100
AcDbLine
 10
-21.07156546447684
 20
7.631176920022657
 30
0.0
 11
-20.97156546447685
 21
7.576618041915757
 31
0.0
  0
LINE
  5
F10491
330
261
100
AcDbEntity
  8
Geo
100
AcDbLine
 10
-20.97156546447685
 20
7.576618041915757
 30
0.0
 11
-20.87156546447685
 21
7.523427315161455
 31
0.0
  0
LINE
  5
F10493
330
261
100
AcDbEntity
  8
Geo
100
AcDbLine
 10
-20.87156546447685
 20
7.523427315161455
 30
0.0
 11
-20.77156546447684
 21
7.471665233389355
 31
0.0
  0
LINE
  5
F10495
330
261
100
AcDbEntity
  8
Geo
100
AcDbLine
 10
-20.77156546447684
 20
7.471665233389355
 30
0.0
 11
-20.67156546447685
 21
7.421390665436355
 31
0.0
  0
LINE
  5
F10497
330
261
100
AcDbEntity
  8
Geo
100
AcDbLine
 10
-20.67156546447685
 20
7.421390665436355
 30
0.0
 11
-20.57156546447684
 21
7.37266078839476
 31
0.0
  0
LINE
  5
F10499
330
261
100
AcDbEntity
  8
Geo
100
AcDbLine
 10
-20.57156546447684
 20
7.37266078839476
 30
0.0
 11
-20.47156546447685
 21
7.325531022585458
 31
0.0
  0
LINE
  5
F1049B
330
261
100
AcDbEntity
  8
Geo
100
AcDbLine
 10
-20.47156546447685
 20
7.325531022585458
 30
0.0
 11
-20.37156546447685
 21
7.280054968528155
 31
0.0
  0
LINE
  5
F1049D
330
261
100
AcDbEntity
  8
Geo
100
AcDbLine
 10
-20.37156546447685
 20
7.280054968528155
 30
0.0
 11
-20.27156546447685
 21
7.236284345982156
 31
0.0
  0
LINE
  5
F1049F
330
261
100
AcDbEntity
  8
Geo
100
AcDbLine
 10
-20.27156546447685
 20
7.236284345982156
 30
0.0
 11
-20.17156546447685
 21
7.194268935125155
 31
0.0
  0
LINE
  5
F104A1
330
261
100
AcDbEntity
  8
Geo
100
AcDbLine
 10
-20.17156546447685
 20
7.194268935125155
 30
0.0
 11
-20.07156546447684
 21
7.154056519938855
 31
0.0
  0
LINE
  5
F104A3
330
261
100
AcDbEntity
  8
Geo
100
AcDbLine
 10
-20.07156546447684
 20
7.154056519938855
 30
0.0
 11
-19.97156546447684
 21
7.115692833863956
 31
0.0
  0
LINE
  5
F104A5
330
261
100
AcDbEntity
  8
Geo
100
AcDbLine
 10
-19.97156546447684
 20
7.115692833863956
 30
0.0
 11
-19.87156546447685
 21
7.079221507788155
 31
0.0
  0
LINE
  5
F104A7
330
261
100
AcDbEntity
  8
Geo
100
AcDbLine
 10
-19.87156546447685
 20
7.079221507788155
 30
0.0
 11
-19.77156546447684
 21
7.044684020424657
 31
0.0
  0
LINE
  5
F104A9
330
261
100
AcDbEntity
  8
Geo
100
AcDbLine
 10
-19.77156546447684
 20
7.044684020424657
 30
0.0
 11
-19.67156546447685
 21
7.012119651138355
 31
0.0
  0
LINE
  5
F104AB
330
261
100
AcDbEntity
  8
Geo
100
AcDbLine
 10
-19.67156546447685
 20
7.012119651138355
 30
0.0
 11
-19.57156546447684
 21
6.981565435274056
 31
0.0
  0
LINE
  5
F104AD
330
261
100
AcDbEntity
  8
Geo
100
AcDbLine
 10
-19.57156546447684
 20
6.981565435274056
 30
0.0
 11
-19.47156546447684
 21
6.953056122035857
 31
0.0
  0
LINE
  5
F104AF
330
261
100
AcDbEntity
  8
Geo
100
AcDbLine
 10
-19.47156546447684
 20
6.953056122035857
 30
0.0
 11
-19.37156546447685
 21
6.926624134967259
 31
0.0
  0
LINE
  5
F104B1
330
261
100
AcDbEntity
  8
Geo
100
AcDbLine
 10
-19.37156546447685
 20
6.926624134967259
 30
0.0
 11
-19.27156546447684
 21
6.902299535075758
 31
0.0
  0
LINE
  5
F104B3
330
261
100
AcDbEntity
  8
Geo
100
AcDbLine
 10
-19.27156546447684
 20
6.902299535075758
 30
0.0
 11
-19.17156546447685
 21
6.880109986644757
 31
0.0
  0
LINE
  5
F104B5
330
261
100
AcDbEntity
  8
Geo
100
AcDbLine
 10
-19.17156546447685
 20
6.880109986644757
 30
0.0
 11
-19.07156546447684
 21
6.860080725771059
 31
0.0
  0
LINE
  5
F104B7
330
261
100
AcDbEntity
  8
Geo
100
AcDbLine
 10
-19.07156546447684
 20
6.860080725771059
 30
0.0
 11
-18.97156546447684
 21
6.842234531663759
 31
0.0
  0
LINE
  5
F104B9
330
261
100
AcDbEntity
  8
Geo
100
AcDbLine
 10
-18.97156546447684
 20
6.842234531663759
 30
0.0
 11
-18.87156546447685
 21
6.826591700737957
 31
0.0
  0
LINE
  5
F104BB
330
261
100
AcDbEntity
  8
Geo
100
AcDbLine
 10
-18.87156546447685
 20
6.826591700737957
 30
0.0
 11
-18.87156546447685
 21
6.826591700737957
 31
0.0
  0
LINE
  5
F104BD
330
261
100
AcDbEntity
  8
Geo
100
AcDbLine
 10
-18.87156546447685
 20
6.826591700737957
 30
0.0
 11
-18.87156546447685
 21
6.924242297182757
 31
0.0
  0
LINE
  5
F104BF
330
261
100
AcDbEntity
  8
Geo
100
AcDbLine
 10
-18.87156546447685
 20
6.924242297182757
 30
0.0
 11
-18.87156546447685
 21
6.826591700737957
 31
0.0
  0
LINE
  5
F104C1
330
261
100
AcDbEntity
  8
Geo
100
AcDbLine
 10
-18.87156546447685
 20
6.826591700737957
 30
0.0
 11
-18.87156546447685
 21
6.826591700737957
 31
0.0
  0
LINE
  5
F104C3
330
261
100
AcDbEntity
  8
Geo
100
AcDbLine
 10
-18.87156546447685
 20
6.826591700737957
 30
0.0
 11
-18.77156546447684
 21
6.926023391244157
 31
0.0
  0
LINE
  5
F104C5
330
261
100
AcDbEntity
  8
Geo
100
AcDbLine
 10
-18.77156546447684
 20
6.926023391244157
 30
0.0
 11
-18.67156546447685
 21
6.92792528041506
 31
0.0
  0
LINE
  5
F104C7
330
261
100
AcDbEntity
  8
Geo
100
AcDbLine
 10
-18.67156546447685
 20
6.92792528041506
 30
0.0
 11
-18.57156546447684
 21
6.929953015404155
 31
0.0
  0
LINE
  5
F104C9
330
261
100
AcDbEntity
  8
Geo
100
AcDbLine
 10
-18.57156546447684
 20
6.929953015404155
 30
0.0
 11
-18.47156546447684
 21
6.932111863933759
 31
0.0
  0
LINE
  5
F104CB
330
261
100
AcDbEntity
  8
Geo
100
AcDbLine
 10
-18.47156546447684
 20
6.932111863933759
 30
0.0
 11
-18.37156546447685
 21
6.934407309093455
 31
0.0
  0
LINE
  5
F104CD
330
261
100
AcDbEntity
  8
Geo
100
AcDbLine
 10
-18.37156546447685
 20
6.934407309093455
 30
0.0
 11
-18.27156546447684
 21
6.936845047558357
 31
0.0
  0
LINE
  5
F104CF
330
261
100
AcDbEntity
  8
Geo
100
AcDbLine
 10
-18.27156546447684
 20
6.936845047558357
 30
0.0
 11
-18.17156546447685
 21
6.939430987667957
 31
0.0
  0
LINE
  5
F104D1
330
261
100
AcDbEntity
  8
Geo
100
AcDbLine
 10
-18.17156546447685
 20
6.939430987667957
 30
0.0
 11
-18.07156546447684
 21
6.942171247354856
 31
0.0
  0
LINE
  5
F104D3
330
261
100
AcDbEntity
  8
Geo
100
AcDbLine
 10
-18.07156546447684
 20
6.942171247354856
 30
0.0
 11
-17.97156546447684
 21
6.945072151916356
 31
0.0
  0
LINE
  5
F104D5
330
261
100
AcDbEntity
  8
Geo
100
AcDbLine
 10
-17.97156546447684
 20
6.945072151916356
 30
0.0
 11
-17.87156546447685
 21
6.948140231620058
 31
0.0
  0
LINE
  5
F104D7
330
261
100
AcDbEntity
  8
Geo
100
AcDbLine
 10
-17.87156546447685
 20
6.948140231620058
 30
0.0
 11
-17.77156546447684
 21
6.951382219134654
 31
0.0
  0
LINE
  5
F104D9
330
261
100
AcDbEntity
  8
Geo
100
AcDbLine
 10
-17.77156546447684
 20
6.951382219134654
 30
0.0
 11
-17.67156546447685
 21
6.954805046776854
 31
0.0
  0
LINE
  5
F104DB
330
261
100
AcDbEntity
  8
Geo
100
AcDbLine
 10
-17.67156546447685
 20
6.954805046776854
 30
0.0
 11
-17.57156546447684
 21
6.958415843565354
 31
0.0
  0
LINE
  5
F104DD
330
261
100
AcDbEntity
  8
Geo
100
AcDbLine
 10
-17.57156546447684
 20
6.958415843565354
 30
0.0
 11
-17.47156546447684
 21
6.96222193207156
 31
0.0
  0
LINE
  5
F104DF
330
261
100
AcDbEntity
  8
Geo
100
AcDbLine
 10
-17.47156546447684
 20
6.96222193207156
 30
0.0
 11
-17.37156546447685
 21
6.966230825058559
 31
0.0
  0
LINE
  5
F104E1
330
261
100
AcDbEntity
  8
Geo
100
AcDbLine
 10
-17.37156546447685
 20
6.966230825058559
 30
0.0
 11
-17.27156546447684
 21
6.970450221896957
 31
0.0
  0
LINE
  5
F104E3
330
261
100
AcDbEntity
  8
Geo
100
AcDbLine
 10
-17.27156546447684
 20
6.970450221896957
 30
0.0
 11
-17.17156546447685
 21
6.97488800474856
 31
0.0
  0
LINE
  5
F104E5
330
261
100
AcDbEntity
  8
Geo
100
AcDbLine
 10
-17.17156546447685
 20
6.97488800474856
 30
0.0
 11
-17.07156546447684
 21
6.979552234507057
 31
0.0
  0
LINE
  5
F104E7
330
261
100
AcDbEntity
  8
Geo
100
AcDbLine
 10
-17.07156546447684
 20
6.979552234507057
 30
0.0
 11
-16.97156546447684
 21
6.984451146484655
 31
0.0
  0
LINE
  5
F104E9
330
261
100
AcDbEntity
  8
Geo
100
AcDbLine
 10
-16.97156546447684
 20
6.984451146484655
 30
0.0
 11
-16.87156546447685
 21
6.989593145835257
 31
0.0
  0
LINE
  5
F104EB
330
261
100
AcDbEntity
  8
Geo
100
AcDbLine
 10
-16.87156546447685
 20
6.989593145835257
 30
0.0
 11
-16.87156546447685
 21
6.989593145835257
 31
0.0
  0
LINE
  5
F104ED
330
261
100
AcDbEntity
  8
Geo
100
AcDbLine
 10
-29.87156546447685
 20
10.00678451544946
 30
0.0
 11
-29.77156546447684
 21
9.992545277094958
 31
0.0
  0
LINE
  5
F104EF
330
261
100
AcDbEntity
  8
Geo
100
AcDbLine
 10
-29.87156546447685
 20
7.298847833939458
 30
0.0
 11
-29.77156546447684
 21
7.211260207766155
 31
0.0
  0
LINE
  5
F104F1
330
261
100
AcDbEntity
  8
Geo
100
AcDbLine
 10
-29.77156546447684
 20
9.992545277094958
 30
0.0
 11
-29.67156546447685
 21
9.938972516380559
 31
0.0
  0
LINE
  5
F104F3
330
261
100
AcDbEntity
  8
Geo
100
AcDbLine
 10
-29.77156546447684
 20
7.211260207766155
 30
0.0
 11
-29.67156546447685
 21
7.171252824148655
 31
0.0
  0
LINE
  5
F104F5
330
261
100
AcDbEntity
  8
Geo
100
AcDbLine
 10
-29.67156546447685
 20
9.938972516380559
 30
0.0
 11
-29.57156546447684
 21
9.884081209437059
 31
0.0
  0
LINE
  5
F104F7
330
261
100
AcDbEntity
  8
Geo
100
AcDbLine
 10
-29.67156546447685
 20
7.171252824148655
 30
0.0
 11
-29.57156546447684
 21
7.133074612345257
 31
0.0
  0
LINE
  5
F104F9
330
261
100
AcDbEntity
  8
Geo
100
AcDbLine
 10
-29.57156546447684
 20
9.884081209437059
 30
0.0
 11
-29.47156546447685
 21
9.827933783958062
 31
0.0
  0
LINE
  5
F104FB
330
261
100
AcDbEntity
  8
Geo
100
AcDbLine
 10
-29.57156546447684
 20
7.133074612345257
 30
0.0
 11
-29.47156546447685
 21
7.096768992304259
 31
0.0
  0
LINE
  5
F104FD
330
261
100
AcDbEntity
  8
Geo
100
AcDbLine
 10
-29.47156546447685
 20
9.827933783958062
 30
0.0
 11
-29.37156546447685
 21
9.770594096216559
 31
0.0
  0
LINE
  5
F104FF
330
261
100
AcDbEntity
  8
Geo
100
AcDbLine
 10
-29.47156546447685
 20
7.096768992304259
 30
0.0
 11
-29.37156546447685
 21
7.062377254282154
 31
0.0
  0
LINE
  5
F10501
330
261
100
AcDbEntity
  8
Geo
100
AcDbLine
 10
-29.37156546447685
 20
9.770594096216559
 30
0.0
 11
-29.27156546447685
 21
9.712127358441357
 31
0.0
  0
LINE
  5
F10503
330
261
100
AcDbEntity
  8
Geo
100
AcDbLine
 10
-29.37156546447685
 20
7.062377254282154
 30
0.0
 11
-29.27156546447685
 21
7.029938511883457
 31
0.0
  0
LINE
  5
F10505
330
261
100
AcDbEntity
  8
Geo
100
AcDbLine
 10
-29.27156546447685
 20
9.712127358441357
 30
0.0
 11
-29.17156546447685
 21
9.652600064651352
 31
0.0
  0
LINE
  5
F10507
330
261
100
AcDbEntity
  8
Geo
100
AcDbLine
 10
-29.27156546447685
 20
7.029938511883457
 30
0.0
 11
-29.17156546447685
 21
6.99948965757806
 31
0.0
  0
LINE
  5
F10509
330
261
100
AcDbEntity
  8
Geo
100
AcDbLine
 10
-29.17156546447685
 20
9.652600064651352
 30
0.0
 11
-29.07156546447684
 21
9.592079915032059
 31
0.0
  0
LINE
  5
F1050B
330
261
100
AcDbEntity
  8
Geo
100
AcDbLine
 10
-29.17156546447685
 20
6.99948965757806
 30
0.0
 11
-29.07156546447684
 21
6.971065320742656
 31
0.0
  0
LINE
  5
F1050D
330
261
100
AcDbEntity
  8
Geo
100
AcDbLine
 10
-29.07156546447684
 20
9.592079915032059
 30
0.0
 11
-28.97156546447685
 21
9.53063573894056
 31
0.0
  0
LINE
  5
F1050F
330
261
100
AcDbEntity
  8
Geo
100
AcDbLine
 10
-29.07156546447684
 20
6.971065320742656
 30
0.0
 11
-28.97156546447685
 21
6.944697828277259
 31
0.0
  0
LINE
  5
F10511
330
261
100
AcDbEntity
  8
Geo
100
AcDbLine
 10
-28.97156546447685
 20
9.53063573894056
 30
0.0
 11
-28.87156546447685
 21
9.468337416625956
 31
0.0
  0
LINE
  5
F10513
330
261
100
AcDbEntity
  8
Geo
100
AcDbLine
 10
-28.97156546447685
 20
6.944697828277259
 30
0.0
 11
-28.87156546447685
 21
6.92041716784006
 31
0.0
  0
LINE
  5
F10515
330
261
100
AcDbEntity
  8
Geo
100
AcDbLine
 10
-28.87156546447685
 20
9.468337416625956
 30
0.0
 11
-28.77156546447685
 21
9.405255799755156
 31
0.0
  0
LINE
  5
F10517
330
261
100
AcDbEntity
  8
Geo
100
AcDbLine
 10
-28.87156546447685
 20
6.92041716784006
 30
0.0
 11
-28.77156546447685
 21
6.898250953742259
 31
0.0
  0
LINE
  5
F10519
330
261
100
AcDbEntity
  8
Geo
100
AcDbLine
 10
-28.77156546447685
 20
9.405255799755156
 30
0.0
 11
-28.67156546447685
 21
9.341462630832857
 31
0.0
  0
LINE
  5
F1051B
330
261
100
AcDbEntity
  8
Geo
100
AcDbLine
 10
-28.77156546447685
 20
6.898250953742259
 30
0.0
 11
-28.67156546447685
 21
6.878224395542559
 31
0.0
  0
LINE
  5
F1051D
330
261
100
AcDbEntity
  8
Geo
100
AcDbLine
 10
-28.67156546447685
 20
9.341462630832857
 30
0.0
 11
-28.57156546447684
 21
9.277030461609758
 31
0.0
  0
LINE
  5
F1051F
330
261
100
AcDbEntity
  8
Geo
100
AcDbLine
 10
-28.67156546447685
 20
6.878224395542559
 30
0.0
 11
-28.57156546447684
 21
6.860360269376354
 31
0.0
  0
LINE
  5
F10521
330
261
100
AcDbEntity
  8
Geo
100
AcDbLine
 10
-28.57156546447684
 20
9.277030461609758
 30
0.0
 11
-28.47156546447685
 21
9.212032570569256
 31
0.0
  0
LINE
  5
F10523
330
261
100
AcDbEntity
  8
Geo
100
AcDbLine
 10
-28.57156546447684
 20
6.860360269376354
 30
0.0
 11
-28.47156546447685
 21
6.844678892052655
 31
0.0
  0
LINE
  5
F10525
330
261
100
AcDbEntity
  8
Geo
100
AcDbLine
 10
-28.47156546447685
 20
9.212032570569256
 30
0.0
 11
-28.37156546447685
 21
9.146542879588352
 31
0.0
  0
LINE
  5
F10527
330
261
100
AcDbEntity
  8
Geo
100
AcDbLine
 10
-28.47156546447685
 20
6.844678892052655
 30
0.0
 11
-28.37156546447685
 21
6.831198097947758
 31
0.0
  0
LINE
  5
F10529
330
261
100
AcDbEntity
  8
Geo
100
AcDbLine
 10
-28.37156546447685
 20
9.146542879588352
 30
0.0
 11
-28.27156546447684
 21
9.080635869866259
 31
0.0
  0
LINE
  5
F1052B
330
261
100
AcDbEntity
  8
Geo
100
AcDbLine
 10
-28.37156546447685
 20
6.831198097947758
 30
0.0
 11
-28.27156546447684
 21
6.819933218722155
 31
0.0
  0
LINE
  5
F1052D
330
261
100
AcDbEntity
  8
Geo
100
AcDbLine
 10
-28.27156546447684
 20
9.080635869866259
 30
0.0
 11
-28.17156546447685
 21
9.014386497217358
 31
0.0
  0
LINE
  5
F1052F
330
261
100
AcDbEntity
  8
Geo
100
AcDbLine
 10
-28.27156546447684
 20
6.819933218722155
 30
0.0
 11
-28.17156546447685
 21
6.810897065884059
 31
0.0
  0
LINE
  5
F10531
330
261
100
AcDbEntity
  8
Geo
100
AcDbLine
 10
-28.17156546447685
 20
9.014386497217358
 30
0.0
 11
-28.07156546447684
 21
8.947870106824456
 31
0.0
  0
LINE
  5
F10533
330
261
100
AcDbEntity
  8
Geo
100
AcDbLine
 10
-28.17156546447685
 20
6.810897065884059
 30
0.0
 11
-28.07156546447684
 21
6.804099916218959
 31
0.0
  0
LINE
  5
F10535
330
261
100
AcDbEntity
  8
Geo
100
AcDbLine
 10
-28.07156546447684
 20
8.947870106824456
 30
0.0
 11
-27.97156546447685
 21
8.881162347548354
 31
0.0
  0
LINE
  5
F10537
330
261
100
AcDbEntity
  8
Geo
100
AcDbLine
 10
-28.07156546447684
 20
6.804099916218959
 30
0.0
 11
-27.97156546447685
 21
6.799549500101559
 31
0.0
  0
LINE
  5
F10539
330
261
100
AcDbEntity
  8
Geo
100
AcDbLine
 10
-27.97156546447685
 20
8.881162347548354
 30
0.0
 11
-27.87156546447685
 21
8.814339085893358
 31
0.0
  0
LINE
  5
F1053B
330
261
100
AcDbEntity
  8
Geo
100
AcDbLine
 10
-27.97156546447685
 20
6.799549500101559
 30
0.0
 11
-27.87156546447685
 21
6.797250992704455
 31
0.0
  0
LINE
  5
F1053D
330
261
100
AcDbEntity
  8
Geo
100
AcDbLine
 10
-27.87156546447685
 20
8.814339085893358
 30
0.0
 11
-27.77156546447685
 21
8.747476319723855
 31
0.0
  0
LINE
  5
F1053F
330
261
100
AcDbEntity
  8
Geo
100
AcDbLine
 10
-27.77156546447685
 20
8.747476319723855
 30
0.0
 11
-27.67156546447685
 21
8.680650091832955
 31
0.0
  0
LINE
  5
F10541
330
261
100
AcDbEntity
  8
Geo
100
AcDbLine
 10
-27.77156546447685
 20
10.76200025115476
 30
0.0
 11
-27.67156546447685
 21
10.75978966291865
 31
0.0
  0
LINE
  5
F10543
330
261
100
AcDbEntity
  8
Geo
100
AcDbLine
 10
-27.67156546447685
 20
8.680650091832955
 30
0.0
 11
-27.57156546447684
 21
8.613936403458758
 31
0.0
  0
LINE
  5
F10545
330
261
100
AcDbEntity
  8
Geo
100
AcDbLine
 10
-27.67156546447685
 20
10.75978966291865
 30
0.0
 11
-27.57156546447684
 21
10.75532701594856
 31
0.0
  0
LINE
  5
F10547
330
261
100
AcDbEntity
  8
Geo
100
AcDbLine
 10
-27.57156546447684
 20
8.613936403458758
 30
0.0
 11
-27.47156546447685
 21
8.547411127848356
 31
0.0
  0
LINE
  5
F10549
330
261
100
AcDbEntity
  8
Geo
100
AcDbLine
 10
-27.57156546447684
 20
10.75532701594856
 30
0.0
 11
-27.47156546447685
 21
10.74861738559756
 31
0.0
  0
LINE
  5
F1054B
330
261
100
AcDbEntity
  8
Geo
100
AcDbLine
 10
-27.47156546447685
 20
8.547411127848356
 30
0.0
 11
-27.37156546447685
 21
8.481149923968157
 31
0.0
  0
LINE
  5
F1054D
330
261
100
AcDbEntity
  8
Geo
100
AcDbLine
 10
-27.47156546447685
 20
10.74861738559756
 30
0.0
 11
-27.37156546447685
 21
10.73966840270486
 31
0.0
  0
LINE
  5
F1054F
330
261
100
AcDbEntity
  8
Geo
100
AcDbLine
 10
-27.37156546447685
 20
8.481149923968157
 30
0.0
 11
-27.27156546447684
 21
8.415228150456155
 31
0.0
  0
LINE
  5
F10551
330
261
100
AcDbEntity
  8
Geo
100
AcDbLine
 10
-27.37156546447685
 20
10.73966840270486
 30
0.0
 11
-27.27156546447684
 21
10.72849024491795
 31
0.0
  0
LINE
  5
F10553
330
261
100
AcDbEntity
  8
Geo
100
AcDbLine
 10
-27.27156546447684
 20
8.415228150456155
 30
0.0
 11
-27.17156546447685
 21
8.349720779917657
 31
0.0
  0
LINE
  5
F10555
330
261
100
AcDbEntity
  8
Geo
100
AcDbLine
 10
-27.27156546447684
 20
10.72849024491795
 30
0.0
 11
-27.17156546447685
 21
10.71509562511706
 31
0.0
  0
LINE
  5
F10557
330
261
100
AcDbEntity
  8
Geo
100
AcDbLine
 10
-27.17156546447685
 20
8.349720779917657
 30
0.0
 11
-27.07156546447684
 21
8.284702313658854
 31
0.0
  0
LINE
  5
F10559
330
261
100
AcDbEntity
  8
Geo
100
AcDbLine
 10
-27.17156546447685
 20
10.71509562511706
 30
0.0
 11
-27.07156546447684
 21
10.69949977695696
 31
0.0
  0
LINE
  5
F1055B
330
261
100
AcDbEntity
  8
Geo
100
AcDbLine
 10
-27.07156546447684
 20
8.284702313658854
 30
0.0
 11
-26.97156546447685
 21
8.220246696956856
 31
0.0
  0
LINE
  5
F1055D
330
261
100
AcDbEntity
  8
Geo
100
AcDbLine
 10
-27.07156546447684
 20
10.69949977695696
 30
0.0
 11
-26.97156546447685
 21
10.68172043754185
 31
0.0
  0
LINE
  5
F1055F
330
261
100
AcDbEntity
  8
Geo
100
AcDbLine
 10
-26.97156546447685
 20
8.220246696956856
 30
0.0
 11
-26.87156546447685
 21
8.156427234961757
 31
0.0
  0
LINE
  5
F10561
330
261
100
AcDbEntity
  8
Geo
100
AcDbLine
 10
-26.97156546447685
 20
10.68172043754185
 30
0.0
 11
-26.87156546447685
 21
10.66177782725306
 31
0.0
  0
LINE
  5
F10563
330
261
100
AcDbEntity
  8
Geo
100
AcDbLine
 10
-26.87156546447685
 20
8.156427234961757
 30
0.0
 11
-26.77156546447684
 21
8.093316509327156
 31
0.0
  0
LINE
  5
F10565
330
261
100
AcDbEntity
  8
Geo
100
AcDbLine
 10
-26.87156546447685
 20
10.66177782725306
 30
0.0
 11
-26.77156546447684
 21
10.63969462675235
 31
0.0
  0
LINE
  5
F10567
330
261
100
AcDbEntity
  8
Geo
100
AcDbLine
 10
-26.77156546447684
 20
8.093316509327156
 30
0.0
 11
-26.67156546447685
 21
8.030986295663353
 31
0.0
  0
LINE
  5
F10569
330
261
100
AcDbEntity
  8
Geo
100
AcDbLine
 10
-26.77156546447684
 20
10.63969462675235
 30
0.0
 11
-26.67156546447685
 21
10.61549595118735
 31
0.0
  0
LINE
  5
F1056B
330
261
100
AcDbEntity
  8
Geo
100
AcDbLine
 10
-26.67156546447685
 20
8.030986295663353
 30
0.0
 11
-26.57156546447684
 21
7.969507481906958
 31
0.0
  0
LINE
  5
F1056D
330
261
100
AcDbEntity
  8
Geo
100
AcDbLine
 10
-26.67156546447685
 20
10.61549595118735
 30
0.0
 11
-26.57156546447684
 21
10.58920932162815
 31
0.0
  0
LINE
  5
F1056F
330
261
100
AcDbEntity
  8
Geo
100
AcDbLine
 10
-26.57156546447684
 20
7.969507481906958
 30
0.0
 11
-26.47156546447685
 21
7.908949987700456
 31
0.0
  0
LINE
  5
F10571
330
261
100
AcDbEntity
  8
Geo
100
AcDbLine
 10
-26.57156546447684
 20
10.58920932162815
 30
0.0
 11
-26.47156546447685
 21
10.56086463376785
 31
0.0
  0
LINE
  5
F10573
330
261
100
AcDbEntity
  8
Geo
100
AcDbLine
 10
-26.47156546447685
 20
7.908949987700456
 30
0.0
 11
-26.37156546447685
 21
7.849382684872757
 31
0.0
  0
LINE
  5
F10575
330
261
100
AcDbEntity
  8
Geo
100
AcDbLine
 10
-26.47156546447685
 20
10.56086463376785
 30
0.0
 11
-26.37156546447685
 21
10.53049412392185
 31
0.0
  0
LINE
  5
F10577
330
261
100
AcDbEntity
  8
Geo
100
AcDbLine
 10
-26.37156546447685
 20
7.849382684872757
 30
0.0
 11
-26.27156546447685
 21
7.790873319111458
 31
0.0
  0
LINE
  5
F10579
330
261
100
AcDbEntity
  8
Geo
100
AcDbLine
 10
-26.37156546447685
 20
10.53049412392185
 30
0.0
 11
-26.27156546447685
 21
10.49813233236615
 31
0.0
  0
LINE
  5
F1057B
330
261
100
AcDbEntity
  8
Geo
100
AcDbLine
 10
-26.27156546447685
 20
7.790873319111458
 30
0.0
 11
-26.17156546447685
 21
7.733488432916256
 31
0.0
  0
LINE
  5
F1057D
330
261
100
AcDbEntity
  8
Geo
100
AcDbLine
 10
-26.27156546447685
 20
10.49813233236615
 30
0.0
 11
-26.17156546447685
 21
10.46381606405446
 31
0.0
  0
LINE
  5
F1057F
330
261
100
AcDbEntity
  8
Geo
100
AcDbLine
 10
-26.17156546447685
 20
7.733488432916256
 30
0.0
 11
-26.07156546447684
 21
7.677293289919855
 31
0.0
  0
LINE
  5
F10581
330
261
100
AcDbEntity
  8
Geo
100
AcDbLine
 10
-26.17156546447685
 20
10.46381606405446
 30
0.0
 11
-26.07156546447684
 21
10.42758434676015
 31
0.0
  0
LINE
  5
F10583
330
261
100
AcDbEntity
  8
Geo
100
AcDbLine
 10
-26.07156546447684
 20
7.677293289919855
 30
0.0
 11
-25.97156546447685
 21
7.622351800664358
 31
0.0
  0
LINE
  5
F10585
330
261
100
AcDbEntity
  8
Geo
100
AcDbLine
 10
-26.07156546447684
 20
10.42758434676015
 30
0.0
 11
-25.97156546447685
 21
10.38947838669016
 31
0.0
  0
LINE
  5
F10587
330
261
100
AcDbEntity
  8
Geo
100
AcDbLine
 10
-25.97156546447685
 20
7.622351800664358
 30
0.0
 11
-25.87156546447686
 21
7.568726449915455
 31
0.0
  0
LINE
  5
F10589
330
261
100
AcDbEntity
  8
Geo
100
AcDbLine
 10
-25.97156546447685
 20
10.38947838669016
 30
0.0
 11
-25.87156546447686
 21
10.34954152162126
 31
0.0
  0
LINE
  5
F1058B
330
261
100
AcDbEntity
  8
Geo
100
AcDbLine
 10
-25.87156546447686
 20
7.568726449915455
 30
0.0
 11
-25.77156546447684
 21
7.516478225599357
 31
0.0
  0
LINE
  5
F1058D
330
261
100
AcDbEntity
  8
Geo
100
AcDbLine
 10
-25.87156546447686
 20
10.34954152162126
 30
0.0
 11
-25.77156546447684
 21
10.30781917161196
 31
0.0
  0
LINE
  5
F1058F
330
261
100
AcDbEntity
  8
Geo
100
AcDbLine
 10
-25.77156546447684
 20
7.516478225599357
 30
0.0
 11
-25.67156546447685
 21
7.465666549441156
 31
0.0
  0
LINE
  5
F10591
330
261
100
AcDbEntity
  8
Geo
100
AcDbLine
 10
-25.77156546447684
 20
10.30781917161196
 30
0.0
 11
-25.67156546447685
 21
10.26435878734686
 31
0.0
  0
LINE
  5
F10593
330
261
100
AcDbEntity
  8
Geo
100
AcDbLine
 10
-25.67156546447685
 20
7.465666549441156
 30
0.0
 11
-25.57156546447684
 21
7.41634920938446
 31
0.0
  0
LINE
  5
F10595
330
261
100
AcDbEntity
  8
Geo
100
AcDbLine
 10
-25.67156546447685
 20
10.26435878734686
 30
0.0
 11
-25.57156546447684
 21
10.21920979617086
 31
0.0
  0
LINE
  5
F10597
330
261
100
AcDbEntity
  8
Geo
100
AcDbLine
 10
-25.57156546447684
 20
7.41634920938446
 30
0.0
 11
-25.47156546447685
 21
7.368582293869856
 31
0.0
  0
LINE
  5
F10599
330
261
100
AcDbEntity
  8
Geo
100
AcDbLine
 10
-25.57156546447684
 20
10.21920979617086
 30
0.0
 11
-25.47156546447685
 21
10.17242354587565
 31
0.0
  0
LINE
  5
F1059B
330
261
100
AcDbEntity
  8
Geo
100
AcDbLine
 10
-25.47156546447685
 20
7.368582293869856
 30
0.0
 11
-25.37156546447685
 21
7.322420128045155
 31
0.0
  0
LINE
  5
F1059D
330
261
100
AcDbEntity
  8
Geo
100
AcDbLine
 10
-25.47156546447685
 20
10.17242354587565
 30
0.0
 11
-25.37156546447685
 21
10.12405324630185
 31
0.0
  0
LINE
  5
F1059F
330
261
100
AcDbEntity
  8
Geo
100
AcDbLine
 10
-25.37156546447685
 20
7.322420128045155
 30
0.0
 11
-25.27156546447685
 21
7.277915211982257
 31
0.0
  0
LINE
  5
F105A1
330
261
100
AcDbEntity
  8
Geo
100
AcDbLine
 10
-25.37156546447685
 20
10.12405324630185
 30
0.0
 11
-25.27156546447685
 21
10.07415390882425
 31
0.0
  0
LINE
  5
F105A3
330
261
100
AcDbEntity
  8
Geo
100
AcDbLine
 10
-25.27156546447685
 20
7.277915211982257
 30
0.0
 11
-25.17156546447685
 21
7.235118160968156
 31
0.0
  0
LINE
  5
F105A5
330
261
100
AcDbEntity
  8
Geo
100
AcDbLine
 10
-25.27156546447685
 20
10.07415390882425
 30
0.0
 11
-25.17156546447685
 21
10.02278228378695
 31
0.0
  0
LINE
  5
F105A7
330
261
100
AcDbEntity
  8
Geo
100
AcDbLine
 10
-25.17156546447685
 20
7.235118160968156
 30
0.0
 11
-25.07156546447684
 21
7.194077647941355
 31
0.0
  0
LINE
  5
F105A9
330
261
100
AcDbEntity
  8
Geo
100
AcDbLine
 10
-25.17156546447685
 20
10.02278228378695
 30
0.0
 11
-25.07156546447684
 21
9.96999679596146
 31
0.0
  0
LINE
  5
F105AB
330
261
100
AcDbEntity
  8
Geo
100
AcDbLine
 10
-25.07156546447684
 20
7.194077647941355
 30
0.0
 11
-24.97156546447685
 21
7.154840348135458
 31
0.0
  0
LINE
  5
F105AD
330
261
100
AcDbEntity
  8
Geo
100
AcDbLine
 10
-25.07156546447684
 20
9.96999679596146
 30
0.0
 11
-24.97156546447685
 21
9.915857478100761
 31
0.0
  0
LINE
  5
F105AF
330
261
100
AcDbEntity
  8
Geo
100
AcDbLine
 10
-24.97156546447685
 20
7.154840348135458
 30
0.0
 11
-24.87156546447685
 21
7.117450885995957
 31
0.0
  0
LINE
  5
F105B1
330
261
100
AcDbEntity
  8
Geo
100
AcDbLine
 10
-24.97156546447685
 20
9.915857478100761
 30
0.0
 11
-24.87156546447685
 21
9.860425902664157
 31
0.0
  0
LINE
  5
F105B3
330
261
100
AcDbEntity
  8
Geo
100
AcDbLine
 10
-24.87156546447685
 20
7.117450885995957
 30
0.0
 11
-24.77156546447684
 21
7.081951784428856
 31
0.0
  0
LINE
  5
F105B5
330
261
100
AcDbEntity
  8
Geo
100
AcDbLine
 10
-24.87156546447685
 20
9.860425902664157
 30
0.0
 11
-24.77156546447684
 21
9.803765111790653
 31
0.0
  0
LINE
  5
F105B7
330
261
100
AcDbEntity
  8
Geo
100
AcDbLine
 10
-24.77156546447684
 20
7.081951784428856
 30
0.0
 11
-24.67156546447685
 21
7.048383416439854
 31
0.0
  0
LINE
  5
F105B9
330
261
100
AcDbEntity
  8
Geo
100
AcDbLine
 10
-24.77156546447684
 20
9.803765111790653
 30
0.0
 11
-24.67156546447685
 21
9.745939545602055
 31
0.0
  0
LINE
  5
F105BB
330
261
100
AcDbEntity
  8
Geo
100
AcDbLine
 10
-24.67156546447685
 20
7.048383416439854
 30
0.0
 11
-24.57156546447684
 21
7.016783959217857
 31
0.0
  0
LINE
  5
F105BD
330
261
100
AcDbEntity
  8
Geo
100
AcDbLine
 10
-24.67156546447685
 20
9.745939545602055
 30
0.0
 11
-24.57156546447684
 21
9.687014968914954
 31
0.0
  0
LINE
  5
F105BF
330
261
100
AcDbEntity
  8
Geo
100
AcDbLine
 10
-24.57156546447684
 20
7.016783959217857
 30
0.0
 11
-24.47156546447685
 21
6.987189350716356
 31
0.0
  0
LINE
  5
F105C1
330
261
100
AcDbEntity
  8
Geo
100
AcDbLine
 10
-24.57156546447684
 20
9.687014968914954
 30
0.0
 11
-24.47156546447685
 21
9.627058396446955
 31
0.0
  0
LINE
  5
F105C3
330
261
100
AcDbEntity
  8
Geo
100
AcDbLine
 10
-24.47156546447685
 20
6.987189350716356
 30
0.0
 11
-24.37156546447685
 21
6.959633248781258
 31
0.0
  0
LINE
  5
F105C5
330
261
100
AcDbEntity
  8
Geo
100
AcDbLine
 10
-24.47156546447685
 20
9.627058396446955
 30
0.0
 11
-24.37156546447685
 21
9.566138016600557
 31
0.0
  0
LINE
  5
F105C7
330
261
100
AcDbEntity
  8
Geo
100
AcDbLine
 10
-24.37156546447685
 20
6.959633248781258
 30
0.0
 11
-24.27156546447684
 21
6.934146992872257
 31
0.0
  0
LINE
  5
F105C9
330
261
100
AcDbEntity
  8
Geo
100
AcDbLine
 10
-24.37156546447685
 20
9.566138016600557
 30
0.0
 11
-24.27156546447684
 21
9.504323113913457
 31
0.0
  0
LINE
  5
F105CB
330
261
100
AcDbEntity
  8
Geo
100
AcDbLine
 10
-24.27156546447684
 20
6.934146992872257
 30
0.0
 11
-24.17156546447685
 21
6.910759568420154
 31
0.0
  0
LINE
  5
F105CD
330
261
100
AcDbEntity
  8
Geo
100
AcDbLine
 10
-24.27156546447684
 20
9.504323113913457
 30
0.0
 11
-24.17156546447685
 21
9.441683990260855
 31
0.0
  0
LINE
  5
F105CF
330
261
100
AcDbEntity
  8
Geo
100
AcDbLine
 10
-24.17156546447685
 20
6.910759568420154
 30
0.0
 11
-24.07156546447684
 21
6.88949757386176
 31
0.0
  0
LINE
  5
F105D1
330
261
100
AcDbEntity
  8
Geo
100
AcDbLine
 10
-24.17156546447685
 20
9.441683990260855
 30
0.0
 11
-24.07156546447684
 21
9.378291884901656
 31
0.0
  0
LINE
  5
F105D3
330
261
100
AcDbEntity
  8
Geo
100
AcDbLine
 10
-24.07156546447684
 20
6.88949757386176
 30
0.0
 11
-23.97156546447685
 21
6.870385190390155
 31
0.0
  0
LINE
  5
F105D5
330
261
100
AcDbEntity
  8
Geo
100
AcDbLine
 10
-24.07156546447684
 20
9.378291884901656
 30
0.0
 11
-23.97156546447685
 21
9.314218893458154
 31
0.0
  0
LINE
  5
F105D7
330
261
100
AcDbEntity
  8
Geo
100
AcDbLine
 10
-23.97156546447685
 20
6.870385190390155
 30
0.0
 11
-23.87156546447685
 21
6.853444154453057
 31
0.0
  0
LINE
  5
F105D9
330
261
100
AcDbEntity
  8
Geo
100
AcDbLine
 10
-23.97156546447685
 20
9.314218893458154
 30
0.0
 11
-23.87156546447685
 21
9.249537885922354
 31
0.0
  0
LINE
  5
F105DB
330
261
100
AcDbEntity
  8
Geo
100
AcDbLine
 10
-23.87156546447685
 20
6.853444154453057
 30
0.0
 11
-23.77156546447684
 21
6.838693733032059
 31
0.0
  0
LINE
  5
F105DD
330
261
100
AcDbEntity
  8
Geo
100
AcDbLine
 10
-23.87156546447685
 20
9.249537885922354
 30
0.0
 11
-23.77156546447684
 21
9.184322423780457
 31
0.0
  0
LINE
  5
F105DF
330
261
100
AcDbEntity
  8
Geo
100
AcDbLine
 10
-23.77156546447684
 20
6.838693733032059
 30
0.0
 11
-23.67156546447685
 21
6.826150701730558
 31
0.0
  0
LINE
  5
F105E1
330
261
100
AcDbEntity
  8
Geo
100
AcDbLine
 10
-23.77156546447684
 20
9.184322423780457
 30
0.0
 11
-23.67156546447685
 21
9.118646676352355
 31
0.0
  0
LINE
  5
F105E3
330
261
100
AcDbEntity
  8
Geo
100
AcDbLine
 10
-23.67156546447685
 20
6.826150701730558
 30
0.0
 11
-23.57156546447684
 21
6.815829325694558
 31
0.0
  0
LINE
  5
F105E5
330
261
100
AcDbEntity
  8
Geo
100
AcDbLine
 10
-23.67156546447685
 20
9.118646676352355
 30
0.0
 11
-23.57156546447684
 21
9.052585336438557
 31
0.0
  0
LINE
  5
F105E7
330
261
100
AcDbEntity
  8
Geo
100
AcDbLine
 10
-23.57156546447684
 20
6.815829325694558
 30
0.0
 11
-23.47156546447685
 21
6.807741343389455
 31
0.0
  0
LINE
  5
F105E9
330
261
100
AcDbEntity
  8
Geo
100
AcDbLine
 10
-23.57156546447684
 20
9.052585336438557
 30
0.0
 11
-23.47156546447685
 21
8.986213535372854
 31
0.0
  0
LINE
  5
F105EB
330
261
100
AcDbEntity
  8
Geo
100
AcDbLine
 10
-23.47156546447685
 20
6.807741343389455
 30
0.0
 11
-23.37156546447685
 21
6.801895953249658
 31
0.0
  0
LINE
  5
F105ED
330
261
100
AcDbEntity
  8
Geo
100
AcDbLine
 10
-23.47156546447685
 20
8.986213535372854
 30
0.0
 11
-23.37156546447685
 21
8.919606757575156
 31
0.0
  0
LINE
  5
F105EF
330
261
100
AcDbEntity
  8
Geo
100
AcDbLine
 10
-23.37156546447685
 20
6.801895953249658
 30
0.0
 11
-23.27156546447684
 21
6.798299803217059
 31
0.0
  0
LINE
  5
F105F1
330
261
100
AcDbEntity
  8
Geo
100
AcDbLine
 10
-23.37156546447685
 20
8.919606757575156
 30
0.0
 11
-23.27156546447684
 21
8.852840754703759
 31
0.0
  0
LINE
  5
F105F3
330
261
100
AcDbEntity
  8
Geo
100
AcDbLine
 10
-23.27156546447684
 20
6.798299803217059
 30
0.0
 11
-23.17156546447685
 21
6.796956983180656
 31
0.0
  0
LINE
  5
F105F5
330
261
100
AcDbEntity
  8
Geo
100
AcDbLine
 10
-23.27156546447684
 20
8.852840754703759
 30
0.0
 11
-23.17156546447685
 21
8.785991459503158
 31
0.0
  0
LINE
  5
F105F7
330
261
100
AcDbEntity
  8
Geo
100
AcDbLine
 10
-23.17156546447685
 20
8.785991459503158
 30
0.0
 11
-23.07156546447684
 21
8.719134899445656
 31
0.0
  0
LINE
  5
F105F9
330
261
100
AcDbEntity
  8
Geo
100
AcDbLine
 10
-23.07156546447684
 20
10.76133823894176
 30
0.0
 11
-22.97156546447685
 21
10.75817238187316
 31
0.0
  0
LINE
  5
F105FB
330
261
100
AcDbEntity
  8
Geo
100
AcDbLine
 10
-23.07156546447684
 20
8.719134899445656
 30
0.0
 11
-22.97156546447685
 21
8.65234711026606
 31
0.0
  0
LINE
  5
F105FD
330
261
100
AcDbEntity
  8
Geo
100
AcDbLine
 10
-22.97156546447685
 20
10.75817238187316
 30
0.0
 11
-22.87156546447685
 21
10.75275630539876
 31
0.0
  0
LINE
  5
F105FF
330
261
100
AcDbEntity
  8
Geo
100
AcDbLine
 10
-22.97156546447685
 20
8.65234711026606
 30
0.0
 11
-22.87156546447685
 21
8.58570404948626
 31
0.0
  0
LINE
  5
F10601
330
261
100
AcDbEntity
  8
Geo
100
AcDbLine
 10
-22.87156546447685
 20
10.75275630539876
 30
0.0
 11
-22.77156546447685
 21
10.74509616920356
 31
0.0
  0
LINE
  5
F10603
330
261
100
AcDbEntity
  8
Geo
100
AcDbLine
 10
-22.87156546447685
 20
8.58570404948626
 30
0.0
 11
-22.77156546447685
 21
8.51928151002906
 31
0.0
  0
LINE
  5
F10605
330
261
100
AcDbEntity
  8
Geo
100
AcDbLine
 10
-22.77156546447685
 20
10.74509616920356
 30
0.0
 11
-22.67156546447685
 21
10.73520068513396
 31
0.0
  0
LINE
  5
F10607
330
261
100
AcDbEntity
  8
Geo
100
AcDbLine
 10
-22.77156546447685
 20
8.51928151002906
 30
0.0
 11
-22.67156546447685
 21
8.453155034018958
 31
0.0
  0
LINE
  5
F10609
330
261
100
AcDbEntity
  8
Geo
100
AcDbLine
 10
-22.67156546447685
 20
10.73520068513396
 30
0.0
 11
-22.57156546447684
 21
10.72308110728996
 31
0.0
  0
LINE
  5
F1060B
330
261
100
AcDbEntity
  8
Geo
100
AcDbLine
 10
-22.67156546447685
 20
8.453155034018958
 30
0.0
 11
-22.57156546447684
 21
8.387399826868858
 31
0.0
  0
LINE
  5
F1060D
330
261
100
AcDbEntity
  8
Geo
100
AcDbLine
 10
-22.57156546447684
 20
10.72308110728996
 30
0.0
 11
-22.47156546447685
 21
10.70875121922535
 31
0.0
  0
LINE
  5
F1060F
330
261
100
AcDbEntity
  8
Geo
100
AcDbLine
 10
-22.57156546447684
 20
8.387399826868858
 30
0.0
 11
-22.47156546447685
 21
8.322090671748455
 31
0.0
  0
LINE
  5
F10611
330
261
100
AcDbEntity
  8
Geo
100
AcDbLine
 10
-22.47156546447685
 20
10.70875121922535
 30
0.0
 11
-22.37156546447685
 21
10.69222731827256
 31
0.0
  0
LINE
  5
F10613
330
261
100
AcDbEntity
  8
Geo
100
AcDbLine
 10
-22.47156546447685
 20
8.322090671748455
 30
0.0
 11
-22.37156546447685
 21
8.257301844534456
 31
0.0
  0
LINE
  5
F10615
330
261
100
AcDbEntity
  8
Geo
100
AcDbLine
 10
-22.37156546447685
 20
10.69222731827256
 30
0.0
 11
-22.27156546447684
 21
10.67352819700685
 31
0.0
  0
LINE
  5
F10617
330
261
100
AcDbEntity
  8
Geo
100
AcDbLine
 10
-22.37156546447685
 20
8.257301844534456
 30
0.0
 11
-22.27156546447684
 21
8.193107029335955
 31
0.0
  0
LINE
  5
F10619
330
261
100
AcDbEntity
  8
Geo
100
AcDbLine
 10
-22.27156546447684
 20
10.67352819700685
 30
0.0
 11
-22.17156546447685
 21
10.65267512187426
 31
0.0
  0
LINE
  5
F1061B
330
261
100
AcDbEntity
  8
Geo
100
AcDbLine
 10
-22.27156546447684
 20
8.193107029335955
 30
0.0
 11
-22.17156546447685
 21
8.12957923469456
 31
0.0
  0
LINE
  5
F1061D
330
261
100
AcDbEntity
  8
Geo
100
AcDbLine
 10
-22.17156546447685
 20
10.65267512187426
 30
0.0
 11
-22.07156546447684
 21
10.62969180900526
 31
0.0
  0
LINE
  5
F1061F
330
261
100
AcDbEntity
  8
Geo
100
AcDbLine
 10
-22.17156546447685
 20
8.12957923469456
 30
0.0
 11
-22.07156546447684
 21
8.066790710551757
 31
0.0
  0
LINE
  5
F10621
330
261
100
AcDbEntity
  8
Geo
100
AcDbLine
 10
-22.07156546447684
 20
10.62969180900526
 30
0.0
 11
-21.97156546447684
 21
10.60460439724195
 31
0.0
  0
LINE
  5
F10623
330
261
100
AcDbEntity
  8
Geo
100
AcDbLine
 10
-22.07156546447684
 20
8.066790710551757
 30
0.0
 11
-21.97156546447684
 21
8.004812866078957
 31
0.0
  0
LINE
  5
F10625
330
261
100
AcDbEntity
  8
Geo
100
AcDbLine
 10
-21.97156546447684
 20
10.60460439724195
 30
0.0
 11
-21.87156546447685
 21
10.57744141841116
 31
0.0
  0
LINE
  5
F10627
330
261
100
AcDbEntity
  8
Geo
100
AcDbLine
 10
-21.97156546447684
 20
8.004812866078957
 30
0.0
 11
-21.87156546447685
 21
7.943716188464559
 31
0.0
  0
LINE
  5
F10629
330
261
100
AcDbEntity
  8
Geo
100
AcDbLine
 10
-21.87156546447685
 20
10.57744141841116
 30
0.0
 11
-21.77156546447684
 21
10.54823376487486
 31
0.0
  0
LINE
  5
F1062B
330
261
100
AcDbEntity
  8
Geo
100
AcDbLine
 10
-21.87156546447685
 20
7.943716188464559
 30
0.0
 11
-21.77156546447684
 21
7.883570162748956
 31
0.0
  0
LINE
  5
F1062D
330
261
100
AcDbEntity
  8
Geo
100
AcDbLine
 10
-21.77156546447684
 20
10.54823376487486
 30
0.0
 11
-21.67156546447685
 21
10.51701465439645
 31
0.0
  0
LINE
  5
F1062F
330
261
100
AcDbEntity
  8
Geo
100
AcDbLine
 10
-21.77156546447684
 20
7.883570162748956
 30
0.0
 11
-21.67156546447685
 21
7.824443192799456
 31
0.0
  0
LINE
  5
F10631
330
261
100
AcDbEntity
  8
Geo
100
AcDbLine
 10
-21.67156546447685
 20
10.51701465439645
 30
0.0
 11
-21.57156546447684
 21
10.48381959236245
 31
0.0
  0
LINE
  5
F10633
330
261
100
AcDbEntity
  8
Geo
100
AcDbLine
 10
-21.67156546447685
 20
7.824443192799456
 30
0.0
 11
-21.57156546447684
 21
7.76640252351456
 31
0.0
  0
LINE
  5
F10635
330
261
100
AcDbEntity
  8
Geo
100
AcDbLine
 10
-21.57156546447684
 20
10.48381959236245
 30
0.0
 11
-21.47156546447685
 21
10.44868633140225
 31
0.0
  0
LINE
  5
F10637
330
261
100
AcDbEntity
  8
Geo
100
AcDbLine
 10
-21.57156546447684
 20
7.76640252351456
 30
0.0
 11
-21.47156546447685
 21
7.709514164346956
 31
0.0
  0
LINE
  5
F10639
330
261
100
AcDbEntity
  8
Geo
100
AcDbLine
 10
-21.47156546447685
 20
10.44868633140225
 30
0.0
 11
-21.37156546447685
 21
10.41165482845215
 31
0.0
  0
LINE
  5
F1063B
330
261
100
AcDbEntity
  8
Geo
100
AcDbLine
 10
-21.47156546447685
 20
7.709514164346956
 30
0.0
 11
-21.37156546447685
 21
7.653842814231058
 31
0.0
  0
LINE
  5
F1063D
330
261
100
AcDbEntity
  8
Geo
100
AcDbLine
 10
-21.37156546447685
 20
10.41165482845215
 30
0.0
 11
-21.27156546447684
 21
10.37276719931245
 31
0.0
  0
LINE
  5
F1063F
330
261
100
AcDbEntity
  8
Geo
100
AcDbLine
 10
-21.37156546447685
 20
7.653842814231058
 30
0.0
 11
-21.27156546447684
 21
7.599451788000958
 31
0.0
  0
LINE
  5
F10641
330
261
100
AcDbEntity
  8
Geo
100
AcDbLine
 10
-21.27156546447684
 20
10.37276719931245
 30
0.0
 11
-21.17156546447685
 21
10.33206767074945
 31
0.0
  0
LINE
  5
F10643
330
261
100
AcDbEntity
  8
Geo
100
AcDbLine
 10
-21.27156546447684
 20
7.599451788000958
 30
0.0
 11
-21.17156546447685
 21
7.546402944382759
 31
0.0
  0
LINE
  5
F10645
330
261
100
AcDbEntity
  8
Geo
100
AcDbLine
 10
-21.17156546447685
 20
10.33206767074945
 30
0.0
 11
-21.07156546447684
 21
10.28960253019635
 31
0.0
  0
LINE
  5
F10647
330
261
100
AcDbEntity
  8
Geo
100
AcDbLine
 10
-21.17156546447685
 20
7.546402944382759
 30
0.0
 11
-21.07156546447684
 21
7.494756615643154
 31
0.0
  0
LINE
  5
F10649
330
261
100
AcDbEntity
  8
Geo
100
AcDbLine
 10
-21.07156546447684
 20
10.28960253019635
 30
0.0
 11
-20.97156546447685
 21
10.24542007311076
 31
0.0
  0
LINE
  5
F1064B
330
261
100
AcDbEntity
  8
Geo
100
AcDbLine
 10
-21.07156546447684
 20
7.494756615643154
 30
0.0
 11
-20.97156546447685
 21
7.444571538973256
 31
0.0
  0
LINE
  5
F1064D
330
261
100
AcDbEntity
  8
Geo
100
AcDbLine
 10
-20.97156546447685
 20
10.24542007311076
 30
0.0
 11
-20.87156546447685
 21
10.19957054804856
 31
0.0
  0
LINE
  5
F1064F
330
261
100
AcDbEntity
  8
Geo
100
AcDbLine
 10
-20.97156546447685
 20
7.444571538973256
 30
0.0
 11
-20.87156546447685
 21
7.395904789687559
 31
0.0
  0
LINE
  5
F10651
330
261
100
AcDbEntity
  8
Geo
100
AcDbLine
 10
-20.87156546447685
 20
10.19957054804856
 30
0.0
 11
-20.77156546447684
 21
10.15210609951606
 31
0.0
  0
LINE
  5
F10653
330
261
100
AcDbEntity
  8
Geo
100
AcDbLine
 10
-20.87156546447685
 20
7.395904789687559
 30
0.0
 11
-20.77156546447684
 21
7.348811716311654
 31
0.0
  0
LINE
  5
F10655
330
261
100
AcDbEntity
  8
Geo
100
AcDbLine
 10
-20.77156546447684
 20
10.15210609951606
 30
0.0
 11
-20.67156546447685
 21
10.10308070866665
 31
0.0
  0
LINE
  5
F10657
330
261
100
AcDbEntity
  8
Geo
100
AcDbLine
 10
-20.77156546447684
 20
7.348811716311654
 30
0.0
 11
-20.67156546447685
 21
7.303345877635354
 31
0.0
  0
LINE
  5
F10659
330
261
100
AcDbEntity
  8
Geo
100
AcDbLine
 10
-20.67156546447685
 20
10.10308070866665
 30
0.0
 11
-20.57156546447684
 21
10.05255013190805
 31
0.0
  0
LINE
  5
F1065B
330
261
100
AcDbEntity
  8
Geo
100
AcDbLine
 10
-20.67156546447685
 20
7.303345877635354
 30
0.0
 11
-20.57156546447684
 21
7.259558981799756
 31
0.0
  0
LINE
  5
F1065D
330
261
100
AcDbEntity
  8
Geo
100
AcDbLine
 10
-20.57156546447684
 20
10.05255013190805
 30
0.0
 11
-20.47156546447685
 21
10.00057183749046
 31
0.0
  0
LINE
  5
F1065F
330
261
100
AcDbEntity
  8
Geo
100
AcDbLine
 10
-20.57156546447684
 20
7.259558981799756
 30
0.0
 11
-20.47156546447685
 21
7.217500827490354
 31
0.0
  0
LINE
  5
F10661
330
261
100
AcDbEntity
  8
Geo
100
AcDbLine
 10
-20.47156546447685
 20
10.00057183749046
 30
0.0
 11
-20.37156546447685
 21
9.947204940148658
 31
0.0
  0
LINE
  5
F10663
330
261
100
AcDbEntity
  8
Geo
100
AcDbLine
 10
-20.47156546447685
 20
7.217500827490354
 30
0.0
 11
-20.37156546447685
 21
7.177219247300655
 31
0.0
  0
LINE
  5
F10665
330
261
100
AcDbEntity
  8
Geo
100
AcDbLine
 10
-20.37156546447685
 20
9.947204940148658
 30
0.0
 11
-20.27156546447685
 21
9.892510133870455
 31
0.0
  0
LINE
  5
F10667
330
261
100
AcDbEntity
  8
Geo
100
AcDbLine
 10
-20.37156546447685
 20
7.177219247300655
 30
0.0
 11
-20.27156546447685
 21
7.138760053332557
 31
0.0
  0
LINE
  5
F10669
330
261
100
AcDbEntity
  8
Geo
100
AcDbLine
 10
-20.27156546447685
 20
9.892510133870455
 30
0.0
 11
-20.17156546447685
 21
9.836549622870258
 31
0.0
  0
LINE
  5
F1066B
330
261
100
AcDbEntity
  8
Geo
100
AcDbLine
 10
-20.27156546447685
 20
7.138760053332557
 30
0.0
 11
-20.17156546447685
 21
7.102166985094658
 31
0.0
  0
LINE
  5
F1066D
330
261
100
AcDbEntity
  8
Geo
100
AcDbLine
 10
-20.17156546447685
 20
9.836549622870258
 30
0.0
 11
-20.07156546447684
 21
9.779387050843656
 31
0.0
  0
LINE
  5
F1066F
330
261
100
AcDbEntity
  8
Geo
100
AcDbLine
 10
-20.17156546447685
 20
7.102166985094658
 30
0.0
 11
-20.07156546447684
 21
7.067481659756857
 31
0.0
  0
LINE
  5
F10671
330
261
100
AcDbEntity
  8
Geo
100
AcDbLine
 10
-20.07156546447684
 20
9.779387050843656
 30
0.0
 11
-19.97156546447684
 21
9.721087428586557
 31
0.0
  0
LINE
  5
F10673
330
261
100
AcDbEntity
  8
Geo
100
AcDbLine
 10
-20.07156546447684
 20
7.067481659756857
 30
0.0
 11
-19.97156546447684
 21
7.034743524819955
 31
0.0
  0
LINE
  5
F10675
330
261
100
AcDbEntity
  8
Geo
100
AcDbLine
 10
-19.97156546447684
 20
9.721087428586557
 30
0.0
 11
-19.87156546447685
 21
9.661717060057657
 31
0.0
  0
LINE
  5
F10677
330
261
100
AcDbEntity
  8
Geo
100
AcDbLine
 10
-19.97156546447684
 20
7.034743524819955
 30
0.0
 11
-19.87156546447685
 21
7.003989813251656
 31
0.0
  0
LINE
  5
F10679
330
261
100
AcDbEntity
  8
Geo
100
AcDbLine
 10
-19.87156546447685
 20
9.661717060057657
 30
0.0
 11
-19.77156546447684
 21
9.601343466972259
 31
0.0
  0
LINE
  5
F1067B
330
261
100
AcDbEntity
  8
Geo
100
AcDbLine
 10
-19.87156546447685
 20
7.003989813251656
 30
0.0
 11
-19.77156546447684
 21
6.975255501141759
 31
0.0
  0
LINE
  5
F1067D
330
261
100
AcDbEntity
  8
Geo
100
AcDbLine
 10
-19.77156546447684
 20
9.601343466972259
 30
0.0
 11
-19.67156546447685
 21
9.540035312008857
 31
0.0
  0
LINE
  5
F1067F
330
261
100
AcDbEntity
  8
Geo
100
AcDbLine
 10
-19.77156546447684
 20
6.975255501141759
 30
0.0
 11
-19.67156546447685
 21
6.948573267924356
 31
0.0
  0
LINE
  5
F10681
330
261
100
AcDbEntity
  8
Geo
100
AcDbLine
 10
-19.67156546447685
 20
9.540035312008857
 30
0.0
 11
-19.57156546447684
 21
9.477862320720561
 31
0.0
  0
LINE
  5
F10683
330
261
100
AcDbEntity
  8
Geo
100
AcDbLine
 10
-19.67156546447685
 20
6.948573267924356
 30
0.0
 11
-19.57156546447684
 21
6.923973459210955
 31
0.0
  0
LINE
  5
F10685
330
261
100
AcDbEntity
  8
Geo
100
AcDbLine
 10
-19.57156546447684
 20
9.477862320720561
 30
0.0
 11
-19.47156546447684
 21
9.414895202235353
 31
0.0
  0
LINE
  5
F10687
330
261
100
AcDbEntity
  8
Geo
100
AcDbLine
 10
-19.57156546447684
 20
6.923973459210955
 30
0.0
 11
-19.47156546447684
 21
6.901484052279059
 31
0.0
  0
LINE
  5
F10689
330
261
100
AcDbEntity
  8
Geo
100
AcDbLine
 10
-19.47156546447684
 20
9.414895202235353
 30
0.0
 11
-19.37156546447685
 21
9.351205568839656
 31
0.0
  0
LINE
  5
F1068B
330
261
100
AcDbEntity
  8
Geo
100
AcDbLine
 10
-19.47156546447684
 20
6.901484052279059
 30
0.0
 11
-19.37156546447685
 21
6.881130624253458
 31
0.0
  0
LINE
  5
F1068D
330
261
100
AcDbEntity
  8
Geo
100
AcDbLine
 10
-19.37156546447685
 20
9.351205568839656
 30
0.0
 11
-19.27156546447684
 21
9.286865854533356
 31
0.0
  0
LINE
  5
F1068F
330
261
100
AcDbEntity
  8
Geo
100
AcDbLine
 10
-19.37156546447685
 20
6.881130624253458
 30
0.0
 11
-19.27156546447684
 21
6.862936323017457
 31
0.0
  0
LINE
  5
F10691
330
261
100
AcDbEntity
  8
Geo
100
AcDbLine
 10
-19.27156546447684
 20
9.286865854533356
 30
0.0
 11
-19.17156546447685
 21
9.221949232651354
 31
0.0
  0
LINE
  5
F10693
330
261
100
AcDbEntity
  8
Geo
100
AcDbLine
 10
-19.27156546447684
 20
6.862936323017457
 30
0.0
 11
-19.17156546447685
 21
6.846921840887155
 31
0.0
  0
LINE
  5
F10695
330
261
100
AcDbEntity
  8
Geo
100
AcDbLine
 10
-19.17156546447685
 20
9.221949232651354
 30
0.0
 11
-19.07156546447684
 21
9.156529532643354
 31
0.0
  0
LINE
  5
F10697
330
261
100
AcDbEntity
  8
Geo
100
AcDbLine
 10
-19.17156546447685
 20
6.846921840887155
 30
0.0
 11
-19.07156546447684
 21
6.833105391077559
 31
0.0
  0
LINE
  5
F10699
330
261
100
AcDbEntity
  8
Geo
100
AcDbLine
 10
-19.07156546447684
 20
9.156529532643354
 30
0.0
 11
-18.97156546447684
 21
9.090681156108157
 31
0.0
  0
LINE
  5
F1069B
330
261
100
AcDbEntity
  8
Geo
100
AcDbLine
 10
-19.07156546447684
 20
6.833105391077559
 30
0.0
 11
-18.97156546447684
 21
6.821502686989457
 31
0.0
  0
LINE
  5
F1069D
330
261
100
AcDbEntity
  8
Geo
100
AcDbLine
 10
-18.97156546447684
 20
9.090681156108157
 30
0.0
 11
-18.87156546447685
 21
9.024478992176955
 31
0.0
  0
LINE
  5
F1069F
330
261
100
AcDbEntity
  8
Geo
100
AcDbLine
 10
-18.97156546447684
 20
6.821502686989457
 30
0.0
 11
-18.87156546447685
 21
6.812126924338059
 31
0.0
  0
LINE
  5
F106A1
330
261
100
AcDbEntity
  8
Geo
100
AcDbLine
 10
-18.87156546447685
 20
9.024478992176955
 30
0.0
 11
-18.87156546447685
 21
9.210584378149956
 31
0.0
  0
LINE
  5
F106A3
330
261
100
AcDbEntity
  8
Geo
100
AcDbLine
 10
-18.87156546447685
 20
9.024478992176955
 30
0.0
 11
-18.87156546447685
 21
8.567429921778657
 31
0.0
  0
LINE
  5
F106A5
330
261
100
AcDbEntity
  8
Geo
100
AcDbLine
 10
-18.87156546447685
 20
6.812126924338059
 30
0.0
 11
-18.87156546447685
 21
6.826591700737957
 31
0.0
  0
LINE
  5
F106A7
330
261
100
AcDbEntity
  8
Geo
100
AcDbLine
 10
-18.87156546447685
 20
6.812126924338059
 30
0.0
 11
-18.87156546447685
 21
6.790889895157057
 31
0.0
  0
LINE
  5
F106A9
330
261
100
AcDbEntity
  8
Geo
100
AcDbLine
 10
-29.87156546447685
 20
8.779603629633459
 30
0.0
 11
-29.87156546447685
 21
8.779603629633459
 31
0.0
  0
LINE
  5
F106AB
330
261
100
AcDbEntity
  8
Geo
100
AcDbLine
 10
-29.87156546447685
 20
8.779603629633459
 30
0.0
 11
-29.87156546447685
 21
8.779603629633459
 31
0.0
  0
LINE
  5
F106AD
330
261
100
AcDbEntity
  8
Geo
100
AcDbLine
 10
27.12843453552315
 20
11.27960362963346
 30
0.0
 11
27.12843453552315
 21
8.779603629633459
 31
0.0
  0
LINE
  5
F106AF
330
261
100
AcDbEntity
  8
Geo
100
AcDbLine
 10
-29.87156546447685
 20
8.779603629633459
 30
0.0
 11
-29.87156546447685
 21
6.839603629633458
 31
0.0
  0
LINE
  5
F106B1
330
261
100
AcDbEntity
  8
Geo
100
AcDbLine
 10
-29.87156546447685
 20
6.839603629633458
 30
0.0
 11
-29.81156546447685
 21
6.779603629633459
 31
0.0
  0
LINE
  5
F106B3
330
261
100
AcDbEntity
  8
Geo
100
AcDbLine
 10
-29.81156546447685
 20
6.779603629633459
 30
0.0
 11
-18.87156546447685
 21
6.779603629633459
 31
0.0
  0
LINE
  5
F106B5
330
261
100
AcDbEntity
  8
Geo
100
AcDbLine
 10
-18.87156546447685
 20
6.779603629633459
 30
0.0
 11
-18.87156546447685
 21
6.879603629633457
 31
0.0
  0
LINE
  5
F106B7
330
261
100
AcDbEntity
  8
Geo
100
AcDbLine
 10
-18.87156546447685
 20
6.879603629633457
 30
0.0
 11
-13.87156546447685
 21
6.879603629633457
 31
0.0
  0
LINE
  5
F106B9
330
261
100
AcDbEntity
  8
Geo
100
AcDbLine
 10
-13.87156546447685
 20
6.879603629633457
 30
0.0
 11
-11.96630957615105
 21
5.779603629633459
 31
0.0
  0
LINE
  5
F106BB
330
261
100
AcDbEntity
  8
Geo
100
AcDbLine
 10
-11.96630957615105
 20
5.779603629633459
 30
0.0
 11
-8.871565464476844
 21
5.779603629633459
 31
0.0
  0
LINE
  5
F106BD
330
261
100
AcDbEntity
  8
Geo
100
AcDbLine
 10
-8.871565464476844
 20
5.779603629633459
 30
0.0
 11
26.62843453552315
 21
5.779603629633459
 31
0.0
  0
LINE
  5
F106BF
330
261
100
AcDbEntity
  8
Geo
100
AcDbLine
 10
26.62843453552315
 20
5.779603629633459
 30
0.0
 11
27.12843453552315
 21
6.279603629633459
 31
0.0
  0
LINE
  5
F106C1
330
261
100
AcDbEntity
  8
Geo
100
AcDbLine
 10
-29.87156546447685
 20
10.71960362963346
 30
0.0
 11
-29.87156546447685
 21
6.839603629633458
 31
0.0
  0
LINE
  5
F106C3
330
261
100
AcDbEntity
  8
Geo
100
AcDbLine
 10
-29.81156546447685
 20
10.77960362963346
 30
0.0
 11
-29.81156546447685
 21
6.779603629633459
 31
0.0
  0
LINE
  5
F106C5
330
261
100
AcDbEntity
  8
Geo
100
AcDbLine
 10
-18.87156546447685
 20
10.77960362963346
 30
0.0
 11
-18.87156546447685
 21
6.779603629633459
 31
0.0
  0
LINE
  5
F106C7
330
261
100
AcDbEntity
  8
Geo
100
AcDbLine
 10
-18.87156546447685
 20
10.67960362963346
 30
0.0
 11
-18.87156546447685
 21
6.879603629633457
 31
0.0
  0
LINE
  5
F106C9
330
261
100
AcDbEntity
  8
Geo
100
AcDbLine
 10
-13.87156546447685
 20
10.67960362963346
 30
0.0
 11
-13.87156546447685
 21
6.879603629633457
 31
0.0
  0
LINE
  5
F106CB
330
261
100
AcDbEntity
  8
Geo
100
AcDbLine
 10
-11.96630957615105
 20
11.77960362963346
 30
0.0
 11
-11.96630957615105
 21
5.779603629633459
 31
0.0
  0
LINE
  5
F106CD
330
261
100
AcDbEntity
  8
Geo
100
AcDbLine
 10
-8.871565464476844
 20
11.77960362963346
 30
0.0
 11
-8.871565464476844
 21
5.779603629633459
 31
0.0
  0
LINE
  5
F106CF
330
261
100
AcDbEntity
  8
Geo
100
AcDbLine
 10
26.62843453552315
 20
11.77960362963346
 30
0.0
 11
26.62843453552315
 21
5.779603629633459
 31
0.0
  0
LINE
  5
F106D1
330
261
100
AcDbEntity
  8
Geo
100
AcDbLine
 10
27.12843453552315
 20
11.27960362963346
 30
0.0
 11
27.12843453552315
 21
6.279603629633459
 31
0.0
  0
TEXT
  5
F1078D
330
261
100
AcDbEntity
  8
Text
100
AcDbText
 10
-59.8445595854922
 20
-86.7210708117444
 30
0.0
 40
2.0
  1

100
AcDbText
  0
TEXT
  5
F10791
330
261
100
AcDbEntity
  8
Text
100
AcDbText
 10
-44.6113989637306
 20
-86.7210708117444
 30
0.0
 40
2.0
  1

100
AcDbText
  0
TEXT
  5
F10795
330
261
100
AcDbEntity
  8
Text
100
AcDbText
 10
30.1943005181347
 20
-86.7210708117444
 30
0.0
 40
2.0
  1

100
AcDbText
  0
TEXT
  5
F10799
330
261
100
AcDbEntity
  8
Text
100
AcDbText
 10
50.32383419689121
 20
-86.7210708117444
 30
0.0
 40
2.0
  1

100
AcDbText
  0
TEXT
  5
F1079D
330
261
100
AcDbEntity
  8
Text
100
AcDbText
 10
-59.8445595854922
 20
-90.80138169257342
 30
0.0
 40
2.0
  1

100
AcDbText
  0
TEXT
  5
F107A1
330
261
100
AcDbEntity
  8
Text
100
AcDbText
 10
-44.6113989637306
 20
-90.80138169257342
 30
0.0
 40
2.0
  1

100
AcDbText
  0
TEXT
  5
F107A5
330
261
100
AcDbEntity
  8
Text
100
AcDbText
 10
30.1943005181347
 20
-90.80138169257342
 30
0.0
 40
2.0
  1

100
AcDbText
  0
TEXT
  5
F107A9
330
261
100
AcDbEntity
  8
Text
100
AcDbText
 10
50.32383419689121
 20
-90.80138169257342
 30
0.0
 40
2.0
  1

100
AcDbText
  0
LWPOLYLINE
  5
F107CF
330
261
100
AcDbEntity
  8
Rahmen
100
AcDbPolyline
 90
        4
 70
     1
 43
0.0
 10
-134.650259067358
 20
99.8316062176166
 10
143.354922279793
 20
99.8316062176166
 10
143.354922279793
 20
-100.103626943005
 10
-134.650259067358
 20
-100.103626943005
  0
LWPOLYLINE
  5
F107D3
330
261
100
AcDbEntity
  8
Rahmen
100
AcDbPolyline
 90
        4
 70
     1
 43
0.0
 10
103.367875647668
 20
-97.11139896373062
 10
143.354922279793
 20
-97.11139896373062
 10
143.354922279793
 20
-100.103626943005
 10
103.367875647668
 20
-100.103626943005
  0
TEXT
  5
F107D5
330
261
100
AcDbEntity
  8
Text
100
AcDbText
 10
104.455958549223
 20
-98.11139896373061
 30
0.0
 40
0.75
  1
Ers. durch:
100
AcDbText
  0
LWPOLYLINE
  5
F107D9
330
261
100
AcDbEntity
  8
Rahmen
100
AcDbPolyline
 90
        4
 70
     1
 43
0.0
 10
63.380829015544
 20
-97.11139896373062
 10
103.367875647668
 20
-97.11139896373062
 10
103.367875647668
 20
-100.103626943005
 10
63.380829015544
 20
-100.103626943005
  0
TEXT
  5
F107DB
330
261
100
AcDbEntity
  8
Text
100
AcDbText
 10
64.46891191709839
 20
-98.11139896373061
 30
0.0
 40
0.75
  1
Ers. für:
100
AcDbText
  0
TEXT
  5
F107DD
330
261
100
AcDbEntity
  8
Text
100
AcDbText
 10
91.39896373056991
 20
-99.4715025906736
 30
0.0
 40
0.75
  1

100
AcDbText
  0
LWPOLYLINE
  5
F107DF
330
261
100
AcDbEntity
  8
Rahmen
100
AcDbPolyline
 90
        4
 70
     1
 43
0.0
 10
130.025906735751
 20
-94.119170984456
 10
143.354922279793
 20
-94.119170984456
 10
143.354922279793
 20
-97.11139896373062
 10
130.025906735751
 20
-97.11139896373062
  0
TEXT
  5
F107E1
330
261
100
AcDbEntity
  8
Text
100
AcDbText
 10
131.113989637306
 20
-95.119170984456
 30
0.0
 40
0.75
  1
Blätter
100
AcDbText
  0
TEXT
  5
F107E3
330
261
100
AcDbEntity
  8
Text
100
AcDbText
 10
141.178756476684
 20
-96.479274611399
 30
0.0
 40
0.75
  1

100
AcDbText
  0
LWPOLYLINE
  5
F107E5
330
261
100
AcDbEntity
  8
Rahmen
100
AcDbPolyline
 90
        4
 70
     1
 43
0.0
 10
130.025906735751
 20
-91.12694300518128
 10
143.354922279793
 20
-91.12694300518128
 10
143.354922279793
 20
-94.119170984456
 10
130.025906735751
 20
-94.119170984456
  0
TEXT
  5
F107E7
330
261
100
AcDbEntity
  8
Text
100
AcDbText
 10
131.113989637306
 20
-92.12694300518128
 30
0.0
 40
0.75
  1
Blatt
100
AcDbText
  0
TEXT
  5
F107E9
330
261
100
AcDbEntity
  8
Text
100
AcDbText
 10
141.178756476684
 20
-93.48704663212428
 30
0.0
 40
0.75
  1

100
AcDbText
  0
LWPOLYLINE
  5
F107EB
330
261
100
AcDbEntity
  8
Rahmen
100
AcDbPolyline
 90
        4
 70
     1
 43
0.0
 10
63.380829015544
 20
-91.12694300518128
 10
130.025906735751
 20
-91.12694300518128
 10
130.025906735751
 20
-97.11139896373062
 10
63.380829015544
 20
-97.11139896373062
  0
TEXT
  5
F107ED
330
261
100
AcDbEntity
  8
Text
100
AcDbText
 10
64.46891191709839
 20
-92.12694300518128
 30
0.0
 40
0.75
  1
Datum:
100
AcDbText
  0
TEXT
  5
F107EF
330
261
100
AcDbEntity
  8
Text
100
AcDbText
 10
91.67098445595859
 20
-95.119170984456
 30
0.0
 40
0.75
  1
10.12.2014
100
AcDbText
  0
LWPOLYLINE
  5
F107F1
330
261
100
AcDbEntity
  8
Rahmen
100
AcDbPolyline
 90
        4
 70
     1
 43
0.0
 10
63.380829015544
 20
-85.14248704663208
 10
143.354922279793
 20
-85.14248704663208
 10
143.354922279793
 20
-91.12694300518128
 10
63.380829015544
 20
-91.12694300518128
  0
TEXT
  5
F107F3
330
261
100
AcDbEntity
  8
Text
100
AcDbText
 10
-208.09585492228
 20
103.0
 30
0.0
 40
1.5
  1

100
AcDbText
  0
TEXT
  5
F107F5
330
261
100
AcDbEntity
  8
Text
100
AcDbText
 10
80.24611398963729
 20
-89.01986183074269
 30
0.0
 40
2.5
  1
3000-040
100
AcDbText
  0
LWPOLYLINE
  5
F107F7
330
261
100
AcDbEntity
  8
Rahmen
100
AcDbPolyline
 90
        4
 70
     1
 43
0.0
 10
103.367875647668
 20
-79.1580310880829
 10
143.354922279793
 20
-79.1580310880829
 10
143.354922279793
 20
-85.14248704663208
 10
103.367875647668
 20
-85.14248704663208
  0
TEXT
  5
F107F9
330
261
100
AcDbEntity
  8
Text
100
AcDbText
 10
104.455958549223
 20
-80.1580310880829
 30
0.0
 40
0.75
  1
Zu bearb. Material:
100
AcDbText
  0
TEXT
  5
F107FB
330
261
100
AcDbEntity
  8
Text
100
AcDbText
 10
123.225388601036
 20
-84.5103626943005
 30
0.0
 40
0.75
  1

100
AcDbText
  0
LWPOLYLINE
  5
F107FD
330
261
100
AcDbEntity
  8
Rahmen
100
AcDbPolyline
 90
        4
 70
     1
 43
0.0
 10
63.380829015544
 20
-79.1580310880829
 10
103.367875647668
 20
-79.1580310880829
 10
103.367875647668
 20
-85.14248704663208
 10
63.380829015544
 20
-85.14248704663208
  0
TEXT
  5
F107FF
330
261
100
AcDbEntity
  8
Text
100
AcDbText
 10
64.46891191709839
 20
-80.1580310880829
 30
0.0
 40
0.75
  1
Werkstoff:
100
AcDbText
  0
LWPOLYLINE
  5
F10803
330
261
100
AcDbEntity
  8
Rahmen
100
AcDbPolyline
 90
        4
 70
     1
 43
0.0
 10
103.367875647668
 20
-76.16580310880831
 10
143.354922279793
 20
-76.16580310880831
 10
143.354922279793
 20
-79.1580310880829
 10
103.367875647668
 20
-79.1580310880829
  0
TEXT
  5
F10805
330
261
100
AcDbEntity
  8
Text
100
AcDbText
 10
-208.09585492228
 20
103.0
 30
0.0
 40
1.5
  1

100
AcDbText
  0
LWPOLYLINE
  5
F10809
330
261
100
AcDbEntity
  8
Rahmen
100
AcDbPolyline
 90
        4
 70
     1
 43
0.0
 10
63.380829015544
 20
-76.16580310880831
 10
103.367875647668
 20
-76.16580310880831
 10
103.367875647668
 20
-79.1580310880829
 10
63.380829015544
 20
-79.1580310880829
  0
TEXT
  5
F1080B
330
261
100
AcDbEntity
  8
Text
100
AcDbText
 10
64.46891191709839
 20
-77.1658031088083
 30
0.0
 40
0.75
  1
Maßstab:
100
AcDbText
  0
TEXT
  5
F1080D
330
261
100
AcDbEntity
  8
Text
100
AcDbText
 10
89.49481865284978
 20
-77.1658031088083
 30
0.0
 40
0.75
  1
1: 1
100
AcDbText
  0
VIEWPORT
  5
294
102
{ACAD_XDICTIONARY
360
F109D4
102
}
330
25D
100
AcDbEntity
 67
     1
  8
0
 60
     1
100
AcDbViewport
 10
0.0
 20
0.0
 30
0.0
 40
10.0
 41
10.0
 68
    -1
 69
     1
 12
0.0
 22
0.0
 13
0.0
 23
0.0
 14
1.0
 24
1.0
 15
0.0
 25
0.0
 16
0.0
 26
0.0
 36
1.0
 17
0.0
 27
0.0
 37
0.0
 42
0.0
 43
0.0
 44
0.0
 45
10.0
 50
0.0
 51
0.0000000000007958
 72
   100
 90
    32800
  1

281
     0
 71
     0
 74
     0
110
0.0
120
0.0
130
0.0
111
1.0
121
0.0
131
0.0
112
0.0
122
1.0
132
0.0
 79
     0
146
0.0
1001
VD_INVISIBLE_NOT_FOR_READ
1000
VD_INVISIBLE_NOT_FOR_READ
1001
GENIUS_GENSCREG_15
1000
PF
1040
1.0
1000
DF
1040
1.0
1000
MIN
1011
-5.0
1021
-5.0
1031
0.0
1000
MAX
1011
5.0
1021
5.0
1031
0.0
1000
FLAGS
1070
     4
1001
GENIUS_GENOBJ-N-SDF_13
1002
{
1000
OWNER
1000
GEN
1002
}
1001
GENIUS_GENODEF_13
1002
{
1000
HIER
1070
     0
1002
}
1002
{
1000
MANEDIT
1070
     0
1002
}
1002
{
1000
NOSEL
1070
     0
1002
}
1002
{
1000
BEHIND
1070
     0
1002
}
1002
{
1000
OTHER
1070
     0
1002
}
1002
{
1000
REACTOR
1002
}
  0
VIEWPORT
  5
295
102
{ACAD_XDICTIONARY
360
F109D6
102
}
330
25D
100
AcDbEntity
 67
     1
  8
0
 60
     1
100
AcDbViewport
 10
0.0
 20
0.0
 30
0.0
 40
10.0
 41
10.0
 68
     0
 69
     2
 12
0.0
 22
0.0
 13
0.0
 23
0.0
 14
1.0
 24
1.0
 15
0.0
 25
0.0
 16
0.0
 26
0.0
 36
1.0
 17
0.0
 27
0.0
 37
0.0
 42
0.0
 43
0.0
 44
0.0
 45
10.0
 50
0.0
 51
0.0000000000007958
 72
   100
 90
   163872
  1

281
     0
 71
     0
 74
     0
110
0.0
120
0.0
130
0.0
111
1.0
121
0.0
131
0.0
112
0.0
122
1.0
132
0.0
 79
     0
146
0.0
1001
VD_INVISIBLE_NOT_FOR_READ
1000
VD_INVISIBLE_NOT_FOR_READ
1001
GENIUS_GENSCREG_15
1000
PF
1040
1.0
1000
DF
1040
1.0
1000
MIN
1011
-5.0
1021
-5.0
1031
0.0
1000
MAX
1011
5.0
1021
5.0
1031
0.0
1000
FLAGS
1070
     4
1001
GENIUS_GENOBJ-N-SDF_13
1002
{
1000
OWNER
1000
GEN
1002
}
1001
GENIUS_GENODEF_13
1002
{
1000
HIER
1070
     0
1002
}
1002
{
1000
MANEDIT
1070
     0
1002
}
1002
{
1000
NOSEL
1070
     0
1002
}
1002
{
1000
BEHIND
1070
     0
1002
}
1002
{
1000
OTHER
1070
     0
1002
}
1002
{
1000
REACTOR
1002
}
  0
ENDSEC
  0
SECTION
  2
OBJECTS
  0
DICTIONARY
  5
13
330
0
100
AcDbDictionary
281
     1
  3
ACAD_COLOR
350
FA7
  3
ACAD_GROUP
350
14
  3
ACAD_LAYOUT
350
FCF
  3
ACAD_MATERIAL
350
F7A
  3
ACAD_MLEADERSTYLE
350
FCD
  3
ACAD_MLINESTYLE
350
16
  3
ACAD_PLOTSETTINGS
350
17
  3
ACAD_PLOTSTYLENAME
350
18
  3
ACAD_SCALELIST
350
FAB
  3
ACAD_TABLESTYLE
350
FA8
  3
ACAD_VISUALSTYLE
350
F93
  3
ACDB_RECOMPOSE_DATA
350
F109D2
  3
AcDbVariableDictionary
350
F109C7
  3
AcmDictionary
350
F10864
  3
AMG
350
F10818
  3
AMGSNAPSETTINGS
350
F108A5
  3
DWGPROPS
350
F109D3
  0
DICTIONARY
  5
F109BD
330
252
100
AcDbDictionary
280
     1
281
     1
  3
ADSK_XREC_LAYER_RECONCILED
360
F109BE
  0
DICTIONARY
  5
F109BF
330
23F
100
AcDbDictionary
280
     1
281
     1
  3
ADSK_XREC_LAYER_RECONCILED
360
F109C0
  0
DICTIONARY
  5
F109C1
330
240
100
AcDbDictionary
280
     1
281
     1
  3
ADSK_XREC_LAYER_RECONCILED
360
F109C2
  0
DICTIONARY
  5
F109C3
330
241
100
AcDbDictionary
280
     1
281
     1
  3
ADSK_XREC_LAYER_RECONCILED
360
F109C4
  0
DICTIONARY
  5
F109C5
330
57E
100
AcDbDictionary
280
     1
281
     1
  3
ADSK_XREC_LAYER_RECONCILED
360
F109C6
  0
DICTIONARY
  5
F109D8
330
296
100
AcDbDictionary
280
     1
281
     1
  3
ACAD_XREC_ROUNDTRIP
360
F109D9
  0
DICTIONARY
  5
F109DA
330
297
100
AcDbDictionary
280
     1
281
     1
  3
ACAD_XREC_ROUNDTRIP
360
F109DB
  0
DICTIONARY
  5
F10A19
330
F108B4
100
AcDbDictionary
280
     1
281
     1
  3
ACAD_MTEXT_RT
360
F10A1A
  0
DICTIONARY
  5
F109D0
330
F108DA
100
AcDbDictionary
280
     1
281
     1
  3
ACAD_MTEXT_2008_RT
360
F109D1
  3
ACAD_MTEXT_RT
360
F10A1B
  0
DICTIONARY
  5
F109D4
330
294
100
AcDbDictionary
280
     1
281
     1
  3
ACAD_XREC_ROUNDTRIP
360
F109D5
  0
DICTIONARY
  5
F109D6
330
295
100
AcDbDictionary
280
     1
281
     1
  3
ACAD_XREC_ROUNDTRIP
360
F109D7
  0
DICTIONARY
  5
FA7
102
{ACAD_REACTORS
330
13
102
}
330
13
100
AcDbDictionary
281
     1
  0
DICTIONARY
  5
14
330
13
100
AcDbDictionary
281
     1
  0
DICTIONARY
  5
FCF
102
{ACAD_REACTORS
330
13
102
}
330
13
100
AcDbDictionary
281
     1
  3
Layout1
350
FD1
  3
Model
350
FD0
  0
DICTIONARY
  5
F7A
102
{ACAD_REACTORS
330
13
102
}
330
13
100
AcDbDictionary
281
     1
  3
ByBlock
350
F83
  3
ByLayer
350
F7B
  3
Global
350
F8B
  0
DICTIONARY
  5
FCD
102
{ACAD_REACTORS
330
13
102
}
330
13
100
AcDbDictionary
281
     1
  3
Standard
350
FCE
  0
DICTIONARY
  5
16
330
13
100
AcDbDictionary
281
     1
  3
Standard
350
FAA
  0
DICTIONARY
  5
17
102
{ACAD_REACTORS
330
13
102
}
330
13
100
AcDbDictionary
281
     1
  0
ACDBDICTIONARYWDFLT
  5
18
102
{ACAD_REACTORS
330
13
102
}
330
13
100
AcDbDictionary
281
     1
  3
Normal
350
19
100
AcDbDictionaryWithDefault
340
19
  0
DICTIONARY
  5
FAB
102
{ACAD_REACTORS
330
13
102
}
330
13
100
AcDbDictionary
281
     1
  3
A0
350
FAC
  3
A1
350
FAD
  3
A2
350
FAE
  3
A3
350
FAF
  3
A4
350
FB0
  3
A5
350
FB1
  3
A6
350
FB2
  3
A7
350
FB3
  3
A8
350
FB4
  3
A9
350
FB5
  3
B0
350
FB6
  3
B1
350
FB7
  3
B2
350
FB8
  3
B3
350
FB9
  3
B4
350
FBA
  3
B5
350
FBB
  3
B6
350
FBC
  3
B7
350
FBD
  3
B8
350
FBE
  3
B9
350
FBF
  3
C0
350
FC0
  3
C1
350
FC1
  3
C2
350
FC2
  3
C3
350
FC3
  3
C4
350
FC4
  3
C5
350
FC5
  3
C6
350
FC6
  3
C7
350
FC7
  3
C8
350
FC8
  3
C9
350
FC9
  3
D0
350
FCA
  3
D1
350
FCB
  3
D2
350
FCC
  0
DICTIONARY
  5
FA8
102
{ACAD_REACTORS
330
13
102
}
330
13
100
AcDbDictionary
281
     1
  3
Standard
350
FA9
  0
DICTIONARY
  5
F93
102
{ACAD_REACTORS
330
13
102
}
330
13
100
AcDbDictionary
281
     1
  3
2dWireframe
350
F99
  3
3D Hidden
350
F9B
  3
3dWireframe
350
F9A
  3
Basic
350
F98
  3
Brighten
350
F9F
  3
ColorChange
350
FA3
  3
Conceptual
350
F9C
  3
Dim
350
F9E
  3
EdgeColorOff
350
FA6
  3
Facepattern
350
FA2
  3
Flat
350
F94
  3
FlatWithEdges
350
F95
  3
Gouraud
350
F96
  3
GouraudWithEdges
350
F97
  3
Hidden
350
F10810
  3
JitterOff
350
FA4
  3
Linepattern
350
FA1
  3
OverhangOff
350
FA5
  3
Realistic
350
F9D
  3
Shaded
350
F10815
  3
Shaded with edges
350
F10814
  3
Shades of Gray
350
F10811
  3
Sketchy
350
F10812
  3
Thicken
350
FA0
  3
Wireframe
350
F1080F
  3
X-Ray
350
F10813
  0
XRECORD
  5
F109D2
102
{ACAD_REACTORS
330
13
102
}
330
13
100
AcDbXrecord
280
     1
 90
        1
330
FA9
330
F108DA
  0
DICTIONARY
  5
F109C7
102
{ACAD_REACTORS
330
13
102
}
330
13
100
AcDbDictionary
281
     1
  3
CANNOSCALE
350
F109CA
  3
CMLEADERSTYLE
350
F109C9
  3
CTABLESTYLE
350
F109C8
  3
DIMASSOC
350
F109CD
  3
INDEXCTL
350
F109CC
  3
SORTENTS
350
F109CB
  3
XCLIPFRAME
350
F109CE
  0
DICTIONARY
  5
F10864
102
{ACAD_REACTORS
330
13
102
}
330
13
100
AcDbDictionary
281
     1
  3
AcmStdDictionary
350
F1086F
  0
DICTIONARY
  5
F10818
102
{ACAD_REACTORS
330
13
102
}
330
13
100
AcDbDictionary
281
     1
  0
DICTIONARY
  5
F108A5
102
{ACAD_REACTORS
330
13
102
}
330
13
100
AcDbDictionary
281
     1
  0
XRECORD
  5
F109D3
102
{ACAD_REACTORS
330
13
102
}
330
13
100
AcDbXrecord
280
     1
  1
DWGPROPS COOKIE
  2

  3

  4

  6

  7

  8
Steigner
  9

300
=
301
=
302
=
303
=
304
=
305
=
306
=
307
=
308
=
309
=
 40
0.00149
 41
2457002.613211933
 42
2457002.614701076
  1

 90
        0
  0
XRECORD
  5
F109BE
102
{ACAD_REACTORS
330
F109BD
102
}
330
F109BD
100
AcDbXrecord
280
     1
290
     1
  0
XRECORD
  5
F109C0
102
{ACAD_REACTORS
330
F109BF
102
}
330
F109BF
100
AcDbXrecord
280
     1
290
     1
  0
XRECORD
  5
F109C2
102
{ACAD_REACTORS
330
F109C1
102
}
330
F109C1
100
AcDbXrecord
280
     1
290
     1
  0
XRECORD
  5
F109C4
102
{ACAD_REACTORS
330
F109C3
102
}
330
F109C3
100
AcDbXrecord
280
     1
290
     1
  0
XRECORD
  5
F109C6
102
{ACAD_REACTORS
330
F109C5
102
}
330
F109C5
100
AcDbXrecord
280
     1
290
     1
  0
XRECORD
  5
F109D9
102
{ACAD_REACTORS
330
F109D8
102
}
330
F109D8
100
AcDbXrecord
280
     1
102
SHADEPLOT
 70
     0
  0
XRECORD
  5
F109DB
102
{ACAD_REACTORS
330
F109DA
102
}
330
F109DA
100
AcDbXrecord
280
     1
102
SHADEPLOT
 70
     0
  0
XRECORD
  5
F10A1A
102
{ACAD_REACTORS
330
F10A19
102
}
330
F10A19
100
AcDbXrecord
280
     1
 40
31810.0
  1
\A1;0.06{\H1.250000;±0.03}
  0
XRECORD
  5
F109D1
102
{ACAD_REACTORS
330
F109D0
102
}
330
F109D0
100
AcDbXrecord
280
     1
 40
30518.0
  1
\A1;30\U+00B0{\H1.250000;\S+5\U+00B0~.+5\U+00B0;}
  0
XRECORD
  5
F10A1B
102
{ACAD_REACTORS
330
F109D0
102
}
330
F109D0
100
AcDbXrecord
280
     1
 40
28745.0
  1
\A1;30°{\H0.5x;\S+5°^ +5°;}
  0
XRECORD
  5
F109D5
102
{ACAD_REACTORS
330
F109D4
102
}
330
F109D4
100
AcDbXrecord
280
     1
102
SHADEPLOT
 70
     0
  0
XRECORD
  5
F109D7
102
{ACAD_REACTORS
330
F109D6
102
}
330
F109D6
100
AcDbXrecord
280
     1
102
SHADEPLOT
 70
     0
  0
LAYOUT
  5
FD1
102
{ACAD_XDICTIONARY
360
F10A05
102
}
102
{ACAD_REACTORS
330
FCF
102
}
330
FCF
100
AcDbPlotSettings
  1

  2
Microsoft XPS Document Writer
  4

  6

 40
0.0
 41
0.0
 42
0.0
 43
0.0
 44
0.0
 45
0.0
 46
0.0
 47
0.0
 48
0.0
 49
0.0
140
0.0
141
0.0
142
1.0
143
1.0
 70
   688
 72
     0
 73
     0
 74
     5
  7

 75
    16
147
1.0
148
0.0
149
0.0
100
AcDbLayout
  1
Layout1
 70
     1
 71
     1
 10
0.0
 20
0.0
 11
12.0
 21
9.0
 12
0.0
 22
0.0
 32
0.0
 14
1.000000000000000E+20
 24
1.000000000000000E+20
 34
1.000000000000000E+20
 15
-1.000000000000000E+20
 25
-1.000000000000000E+20
 35
-1.000000000000000E+20
146
0.0
 13
0.0
 23
0.0
 33
0.0
 16
1.0
 26
0.0
 36
0.0
 17
0.0
 27
1.0
 37
0.0
 76
     0
330
25D
  0
LAYOUT
  5
FD0
102
{ACAD_XDICTIONARY
360
F10A03
102
}
102
{ACAD_REACTORS
330
FCF
102
}
330
FCF
100
AcDbPlotSettings
  1

  2
Microsoft XPS Document Writer
  4

  6

 40
0.0
 41
0.0
 42
0.0
 43
0.0
 44
0.0
 45
0.0
 46
0.0
 47
0.0
 48
0.0
 49
0.0
140
0.0
141
0.0
142
1.0
143
1.0
 70
  1712
 72
     0
 73
     0
 74
     0
  7

 75
     0
147
1.0
148
0.0
149
0.0
100
AcDbLayout
  1
Model
 70
     1
 71
     0
 10
0.0
 20
0.0
 11
12.0
 21
9.0
 12
0.0
 22
0.0
 32
0.0
 14
0.0
 24
0.0
 34
0.0
 15
0.0
 25
0.0
 35
0.0
146
0.0
 13
0.0
 23
0.0
 33
0.0
 16
1.0
 26
0.0
 36
0.0
 17
0.0
 27
1.0
 37
0.0
 76
     0
330
261
331
26B
  0
MATERIAL
  5
F83
102
{ACAD_XDICTIONARY
360
F84
102
}
102
{ACAD_REACTORS
330
F7A
102
}
330
F7A
100
AcDbMaterial
  1
ByBlock
 72
     0
 43
0.0208333333333333
 43
0.0
 43
0.0
 43
0.0
 43
0.0
 43
0.0208333333333333
 43
0.0
 43
0.0
 43
0.0
 43
0.0
 43
1.0
 43
0.0
 43
0.0
 43
0.0
 43
0.0
 43
1.0
 77
     0
 47
0.0208333333333333
 47
0.0
 47
0.0
 47
0.0
 47
0.0
 47
0.0208333333333333
 47
0.0
 47
0.0
 47
0.0
 47
0.0
 47
1.0
 47
0.0
 47
0.0
 47
0.0
 47
0.0
 47
1.0
171
     0
 49
0.0208333333333333
 49
0.0
 49
0.0
 49
0.0
 49
0.0
 49
0.0208333333333333
 49
0.0
 49
0.0
 49
0.0
 49
0.0
 49
1.0
 49
0.0
 49
0.0
 49
0.0
 49
0.0
 49
1.0
175
     0
142
0.0208333333333333
142
0.0
142
0.0
142
0.0
142
0.0
142
0.0208333333333333
142
0.0
142
0.0
142
0.0
142
0.0
142
1.0
142
0.0
142
0.0
142
0.0
142
0.0
142
1.0
179
     0
144
0.0208333333333333
144
0.0
144
0.0
144
0.0
144
0.0
144
0.0208333333333333
144
0.0
144
0.0
144
0.0
144
0.0
144
1.0
144
0.0
144
0.0
144
0.0
144
0.0
144
1.0
147
0.0208333333333333
147
0.0
147
0.0
147
0.0
147
0.0
147
0.0208333333333333
147
0.0
147
0.0
147
0.0
147
0.0
147
1.0
147
0.0
147
0.0
147
0.0
147
0.0
147
1.0
  0
MATERIAL
  5
F7B
102
{ACAD_XDICTIONARY
360
F7C
102
}
102
{ACAD_REACTORS
330
F7A
102
}
330
F7A
100
AcDbMaterial
  1
ByLayer
 72
     0
 43
0.0208333333333333
 43
0.0
 43
0.0
 43
0.0
 43
0.0
 43
0.0208333333333333
 43
0.0
 43
0.0
 43
0.0
 43
0.0
 43
1.0
 43
0.0
 43
0.0
 43
0.0
 43
0.0
 43
1.0
 77
     0
 47
0.0208333333333333
 47
0.0
 47
0.0
 47
0.0
 47
0.0
 47
0.0208333333333333
 47
0.0
 47
0.0
 47
0.0
 47
0.0
 47
1.0
 47
0.0
 47
0.0
 47
0.0
 47
0.0
 47
1.0
171
     0
 49
0.0208333333333333
 49
0.0
 49
0.0
 49
0.0
 49
0.0
 49
0.0208333333333333
 49
0.0
 49
0.0
 49
0.0
 49
0.0
 49
1.0
 49
0.0
 49
0.0
 49
0.0
 49
0.0
 49
1.0
175
     0
142
0.0208333333333333
142
0.0
142
0.0
142
0.0
142
0.0
142
0.0208333333333333
142
0.0
142
0.0
142
0.0
142
0.0
142
1.0
142
0.0
142
0.0
142
0.0
142
0.0
142
1.0
179
     0
144
0.0208333333333333
144
0.0
144
0.0
144
0.0
144
0.0
144
0.0208333333333333
144
0.0
144
0.0
144
0.0
144
0.0
144
1.0
144
0.0
144
0.0
144
0.0
144
0.0
144
1.0
147
0.0208333333333333
147
0.0
147
0.0
147
0.0
147
0.0
147
0.0208333333333333
147
0.0
147
0.0
147
0.0
147
0.0
147
1.0
147
0.0
147
0.0
147
0.0
147
0.0
147
1.0
  0
MATERIAL
  5
F8B
102
{ACAD_XDICTIONARY
360
F8C
102
}
102
{ACAD_REACTORS
330
F7A
102
}
330
F7A
100
AcDbMaterial
  1
Global
 72
     0
 43
0.0208333333333333
 43
0.0
 43
0.0
 43
0.0
 43
0.0
 43
0.0208333333333333
 43
0.0
 43
0.0
 43
0.0
 43
0.0
 43
1.0
 43
0.0
 43
0.0
 43
0.0
 43
0.0
 43
1.0
 77
     0
 47
0.0208333333333333
 47
0.0
 47
0.0
 47
0.0
 47
0.0
 47
0.0208333333333333
 47
0.0
 47
0.0
 47
0.0
 47
0.0
 47
1.0
 47
0.0
 47
0.0
 47
0.0
 47
0.0
 47
1.0
171
     0
 49
0.0208333333333333
 49
0.0
 49
0.0
 49
0.0
 49
0.0
 49
0.0208333333333333
 49
0.0
 49
0.0
 49
0.0
 49
0.0
 49
1.0
 49
0.0
 49
0.0
 49
0.0
 49
0.0
 49
1.0
175
     0
142
0.0208333333333333
142
0.0
142
0.0
142
0.0
142
0.0
142
0.0208333333333333
142
0.0
142
0.0
142
0.0
142
0.0
142
1.0
142
0.0
142
0.0
142
0.0
142
0.0
142
1.0
179
     0
144
0.0208333333333333
144
0.0
144
0.0
144
0.0
144
0.0
144
0.0208333333333333
144
0.0
144
0.0
144
0.0
144
0.0
144
1.0
144
0.0
144
0.0
144
0.0
144
0.0
144
1.0
147
0.0208333333333333
147
0.0
147
0.0
147
0.0
147
0.0
147
0.0208333333333333
147
0.0
147
0.0
147
0.0
147
0.0
147
1.0
147
0.0
147
0.0
147
0.0
147
0.0
147
1.0
  0
MLEADERSTYLE
  5
FCE
102
{ACAD_REACTORS
330
FCD
102
}
330
FCD
100
AcDbMLeaderStyle
170
     2
171
     1
172
     0
 90
        2
 40
0.0
 41
0.0
173
     1
 91
-1056964608
340
256
 92
       -2
290
     1
 42
0.09
291
     1
 43
0.36
  3
Standard
 44
0.18
300

342
253
174
     1
178
     6
175
     1
176
     0
 93
-1056964608
 45
0.18
292
     0
297
     0
 46
0.18
 94
-1056964608
 47
1.0
 49
1.0
140
1.0
293
     1
141
0.0
294
     1
177
     0
142
1.0
295
     0
296
     0
143
0.125
1001
ACAD_MLEADERVER
1070
     2
  0
MLINESTYLE
  5
FAA
102
{ACAD_REACTORS
330
16
102
}
330
16
100
AcDbMlineStyle
  2
STANDARD
 70
     0
  3

 62
   256
 51
90.0
 52
90.0
 71
     2
 49
0.5
 62
   256
  6
BYLAYER
 49
-0.5
 62
   256
  6
BYLAYER
  0
ACDBPLACEHOLDER
  5
19
102
{ACAD_REACTORS
330
18
102
}
330
18
  0
SCALE
  5
FAC
102
{ACAD_REACTORS
330
FAB
102
}
330
FAB
100
AcDbScale
 70
     0
300
1:1
140
1.0
141
1.0
290
     1
  0
SCALE
  5
FAD
102
{ACAD_REACTORS
330
FAB
102
}
330
FAB
100
AcDbScale
 70
     0
300
1:2
140
1.0
141
2.0
290
     0
  0
SCALE
  5
FAE
102
{ACAD_REACTORS
330
FAB
102
}
330
FAB
100
AcDbScale
 70
     0
300
1:4
140
1.0
141
4.0
290
     0
  0
SCALE
  5
FAF
102
{ACAD_REACTORS
330
FAB
102
}
330
FAB
100
AcDbScale
 70
     0
300
1:5
140
1.0
141
5.0
290
     0
  0
SCALE
  5
FB0
102
{ACAD_REACTORS
330
FAB
102
}
330
FAB
100
AcDbScale
 70
     0
300
1:8
140
1.0
141
8.0
290
     0
  0
SCALE
  5
FB1
102
{ACAD_REACTORS
330
FAB
102
}
330
FAB
100
AcDbScale
 70
     0
300
1:10
140
1.0
141
10.0
290
     0
  0
SCALE
  5
FB2
102
{ACAD_REACTORS
330
FAB
102
}
330
FAB
100
AcDbScale
 70
     0
300
1:16
140
1.0
141
16.0
290
     0
  0
SCALE
  5
FB3
102
{ACAD_REACTORS
330
FAB
102
}
330
FAB
100
AcDbScale
 70
     0
300
1:20
140
1.0
141
20.0
290
     0
  0
SCALE
  5
FB4
102
{ACAD_REACTORS
330
FAB
102
}
330
FAB
100
AcDbScale
 70
     0
300
1:30
140
1.0
141
30.0
290
     0
  0
SCALE
  5
FB5
102
{ACAD_REACTORS
330
FAB
102
}
330
FAB
100
AcDbScale
 70
     0
300
1:40
140
1.0
141
40.0
290
     0
  0
SCALE
  5
FB6
102
{ACAD_REACTORS
330
FAB
102
}
330
FAB
100
AcDbScale
 70
     0
300
1:50
140
1.0
141
50.0
290
     0
  0
SCALE
  5
FB7
102
{ACAD_REACTORS
330
FAB
102
}
330
FAB
100
AcDbScale
 70
     0
300
1:100
140
1.0
141
100.0
290
     0
  0
SCALE
  5
FB8
102
{ACAD_REACTORS
330
FAB
102
}
330
FAB
100
AcDbScale
 70
     0
300
2:1
140
2.0
141
1.0
290
     0
  0
SCALE
  5
FB9
102
{ACAD_REACTORS
330
FAB
102
}
330
FAB
100
AcDbScale
 70
     0
300
4:1
140
4.0
141
1.0
290
     0
  0
SCALE
  5
FBA
102
{ACAD_REACTORS
330
FAB
102
}
330
FAB
100
AcDbScale
 70
     0
300
8:1
140
8.0
141
1.0
290
     0
  0
SCALE
  5
FBB
102
{ACAD_REACTORS
330
FAB
102
}
330
FAB
100
AcDbScale
 70
     0
300
10:1
140
10.0
141
1.0
290
     0
  0
SCALE
  5
FBC
102
{ACAD_REACTORS
330
FAB
102
}
330
FAB
100
AcDbScale
 70
     0
300
100:1
140
100.0
141
1.0
290
     0
  0
SCALE
  5
FBD
102
{ACAD_REACTORS
330
FAB
102
}
330
FAB
100
AcDbScale
 70
     0
300
1/128" = 1'-0"
140
0.0078125
141
12.0
290
     0
  0
SCALE
  5
FBE
102
{ACAD_REACTORS
330
FAB
102
}
330
FAB
100
AcDbScale
 70
     0
300
1/64" = 1'-0"
140
0.015625
141
12.0
290
     0
  0
SCALE
  5
FBF
102
{ACAD_REACTORS
330
FAB
102
}
330
FAB
100
AcDbScale
 70
     0
300
1/32" = 1'-0"
140
0.03125
141
12.0
290
     0
  0
SCALE
  5
FC0
102
{ACAD_REACTORS
330
FAB
102
}
330
FAB
100
AcDbScale
 70
     0
300
1/16" = 1'-0"
140
0.0625
141
12.0
290
     0
  0
SCALE
  5
FC1
102
{ACAD_REACTORS
330
FAB
102
}
330
FAB
100
AcDbScale
 70
     0
300
3/32" = 1'-0"
140
0.09375
141
12.0
290
     0
  0
SCALE
  5
FC2
102
{ACAD_REACTORS
330
FAB
102
}
330
FAB
100
AcDbScale
 70
     0
300
1/8" = 1'-0"
140
0.125
141
12.0
290
     0
  0
SCALE
  5
FC3
102
{ACAD_REACTORS
330
FAB
102
}
330
FAB
100
AcDbScale
 70
     0
300
3/16" = 1'-0"
140
0.1875
141
12.0
290
     0
  0
SCALE
  5
FC4
102
{ACAD_REACTORS
330
FAB
102
}
330
FAB
100
AcDbScale
 70
     0
300
1/4" = 1'-0"
140
0.25
141
12.0
290
     0
  0
SCALE
  5
FC5
102
{ACAD_REACTORS
330
FAB
102
}
330
FAB
100
AcDbScale
 70
     0
300
3/8" = 1'-0"
140
0.375
141
12.0
290
     0
  0
SCALE
  5
FC6
102
{ACAD_REACTORS
330
FAB
102
}
330
FAB
100
AcDbScale
 70
     0
300
1/2" = 1'-0"
140
0.5
141
12.0
290
     0
  0
SCALE
  5
FC7
102
{ACAD_REACTORS
330
FAB
102
}
330
FAB
100
AcDbScale
 70
     0
300
3/4" = 1'-0"
140
0.75
141
12.0
290
     0
  0
SCALE
  5
FC8
102
{ACAD_REACTORS
330
FAB
102
}
330
FAB
100
AcDbScale
 70
     0
300
1" = 1'-0"
140
1.0
141
12.0
290
     0
  0
SCALE
  5
FC9
102
{ACAD_REACTORS
330
FAB
102
}
330
FAB
100
AcDbScale
 70
     0
300
1-1/2" = 1'-0"
140
1.5
141
12.0
290
     0
  0
SCALE
  5
FCA
102
{ACAD_REACTORS
330
FAB
102
}
330
FAB
100
AcDbScale
 70
     0
300
3" = 1'-0"
140
3.0
141
12.0
290
     0
  0
SCALE
  5
FCB
102
{ACAD_REACTORS
330
FAB
102
}
330
FAB
100
AcDbScale
 70
     0
300
6" = 1'-0"
140
6.0
141
12.0
290
     0
  0
SCALE
  5
FCC
102
{ACAD_REACTORS
330
FAB
102
}
330
FAB
100
AcDbScale
 70
     0
300
1'-0" = 1'-0"
140
12.0
141
12.0
290
     0
  0
TABLESTYLE
  5
FA9
102
{ACAD_XDICTIONARY
360
FF8
102
}
102
{ACAD_REACTORS
330
FA8
102
}
330
FA8
100
AcDbTableStyle
  3
Standard
 70
     0
 71
     0
 40
0.06
 41
0.06
280
     0
281
     0
  7
Standard
140
0.18
170
     2
 62
     0
 63
     7
283
     0
274
    -2
284
     1
 64
     0
275
    -2
285
     1
 65
     0
276
    -2
286
     1
 66
     0
277
    -2
287
     1
 67
     0
278
    -2
288
     1
 68
     0
279
    -2
289
     1
 69
     0
  7
Standard
140
0.25
170
     5
 62
     0
 63
     7
283
     0
274
    -2
284
     1
 64
     0
275
    -2
285
     1
 65
     0
276
    -2
286
     1
 66
     0
277
    -2
287
     1
 67
     0
278
    -2
288
     1
 68
     0
279
    -2
289
     1
 69
     0
  7
Standard
140
0.18
170
     5
 62
     0
 63
     7
283
     0
274
    -2
284
     1
 64
     0
275
    -2
285
     1
 65
     0
276
    -2
286
     1
 66
     0
277
    -2
287
     1
 67
     0
278
    -2
288
     1
 68
     0
279
    -2
289
     1
 69
     0
  0
VISUALSTYLE
  5
F99
102
{ACAD_XDICTIONARY
360
F109E6
102
}
102
{ACAD_REACTORS
330
F93
102
}
330
F93
100
AcDbVisualStyle
  2

 70
     4
 71
     0
 72
     2
 73
     0
 90
        0
 40
-0.6
 41
-30.0
 62
     5
 63
     7
 74
     1
 91
        4
 64
     7
 65
   257
 75
     1
175
     1
 42
1.0
 92
        0
 66
   257
 43
1.0
 76
     1
 77
     6
 78
     2
 67
     7
 79
     5
170
     0
171
     0
290
     0
174
     0
 93
        1
 44
0.0
173
     0
291
     0
 45
0.0
1001
ACAD
1000
AcDbSavedByObjectVersion
1070
     0
  0
VISUALSTYLE
  5
F9B
102
{ACAD_XDICTIONARY
360
F109EA
102
}
102
{ACAD_REACTORS
330
F93
102
}
330
F93
100
AcDbVisualStyle
  2

 70
     6
 71
     1
 72
     2
 73
     2
 90
        0
 40
-0.6
 41
-30.0
 62
     5
 63
     7
 74
     2
 91
        2
 64
     7
 65
   257
 75
     2
175
     1
 42
179.0
 92
        0
 66
   257
 43
1.0
 76
     1
 77
     6
 78
     2
 67
     7
 79
     3
170
     0
171
     0
290
     0
174
     0
 93
        1
 44
0.0
173
     0
291
     0
 45
0.0
1001
ACAD
1000
AcDbSavedByObjectVersion
1070
     0
  0
VISUALSTYLE
  5
F9A
102
{ACAD_XDICTIONARY
360
F109E8
102
}
102
{ACAD_REACTORS
330
F93
102
}
330
F93
100
AcDbVisualStyle
  2

 70
     5
 71
     0
 72
     2
 73
     0
 90
        0
 40
-0.6
 41
-30.0
 62
     5
 63
     7
 74
     1
 91
        4
 64
     7
 65
   257
 75
     1
175
     1
 42
1.0
 92
        0
 66
   257
 43
1.0
 76
     1
 77
     6
 78
     2
 67
     7
 79
     5
170
     0
171
     0
290
     0
174
     0
 93
        1
 44
0.0
173
     0
291
     0
 45
0.0
1001
ACAD
1000
AcDbSavedByObjectVersion
1070
     0
  0
VISUALSTYLE
  5
F98
102
{ACAD_XDICTIONARY
360
F109E4
102
}
102
{ACAD_REACTORS
330
F93
102
}
330
F93
100
AcDbVisualStyle
  2

 70
     7
 71
     1
 72
     0
 73
     1
 90
        0
 40
-0.6
 41
-30.0
 62
     5
 63
     7
 74
     0
 91
        4
 64
     7
 65
   257
 75
     1
175
     1
 42
1.0
 92
        8
 66
     7
 43
1.0
 76
     1
 77
     6
 78
     2
 67
     7
 79
     5
170
     0
171
     0
290
     0
174
     0
 93
        1
 44
0.0
173
     0
291
     1
 45
0.0
1001
ACAD
1000
AcDbSavedByObjectVersion
1070
     0
  0
VISUALSTYLE
  5
F9F
102
{ACAD_XDICTIONARY
360
F109F2
102
}
102
{ACAD_REACTORS
330
F93
102
}
330
F93
100
AcDbVisualStyle
  2

 70
    12
 71
     2
 72
     2
 73
     0
 90
        0
 40
-0.6
 41
-30.0
 62
     5
 63
     7
 74
     1
 91
        4
 64
     7
 65
   257
 75
     1
175
     1
 42
1.0
 92
        8
 66
     7
 43
1.0
 76
     1
 77
     6
 78
     2
 67
     7
 79
     5
170
     0
171
     0
290
     0
174
     0
 93
        1
 44
50.0
173
     0
291
     1
 45
0.0
1001
ACAD
1000
AcDbSavedByObjectVersion
1070
     0
  0
VISUALSTYLE
  5
FA3
102
{ACAD_XDICTIONARY
360
F109FA
102
}
102
{ACAD_REACTORS
330
F93
102
}
330
F93
100
AcDbVisualStyle
  2

 70
    16
 71
     2
 72
     2
 73
     3
 90
        0
 40
-0.6
 41
-30.0
 62
     5
 63
     8
 74
     1
 91
        4
 64
     7
 65
   257
 75
     1
175
     1
 42
1.0
 92
        8
 66
     8
 43
1.0
 76
     1
 77
     6
 78
     2
 67
     7
 79
     5
170
     0
171
     0
290
     0
174
     0
 93
        1
 44
0.0
173
     0
291
     1
 45
0.0
1001
ACAD
1000
AcDbSavedByObjectVersion
1070
     0
  0
VISUALSTYLE
  5
F9C
102
{ACAD_XDICTIONARY
360
F109EC
102
}
102
{ACAD_REACTORS
330
F93
102
}
330
F93
100
AcDbVisualStyle
  2

 70
     9
 71
     3
 72
     2
 73
     0
 90
        0
 40
-0.6
 41
-30.0
 62
     5
 63
     7
 74
     2
 91
        2
 64
     7
 65
   257
 75
     1
175
     1
 42
179.0
 92
        8
 66
     7
 43
1.0
 76
     1
 77
     6
 78
     2
 67
     7
 79
     3
170
     0
171
     0
290
     0
174
     0
 93
        1
 44
0.0
173
     0
291
     0
 45
0.0
1001
ACAD
1000
AcDbSavedByObjectVersion
1070
     0
  0
VISUALSTYLE
  5
F9E
102
{ACAD_XDICTIONARY
360
F109F0
102
}
102
{ACAD_REACTORS
330
F93
102
}
330
F93
100
AcDbVisualStyle
  2

 70
    11
 71
     2
 72
     2
 73
     0
 90
        0
 40
-0.6
 41
-30.0
 62
     5
 63
     7
 74
     1
 91
        4
 64
     7
 65
   257
 75
     1
175
     1
 42
1.0
 92
        8
 66
     7
 43
1.0
 76
     1
 77
     6
 78
     2
 67
     7
 79
     5
170
     0
171
     0
290
     0
174
     0
 93
        1
 44
-50.0
173
     0
291
     1
 45
0.0
1001
ACAD
1000
AcDbSavedByObjectVersion
1070
     0
  0
VISUALSTYLE
  5
FA6
102
{ACAD_XDICTIONARY
360
F10A00
102
}
102
{ACAD_REACTORS
330
F93
102
}
330
F93
100
AcDbVisualStyle
  2

 70
    22
 71
     2
 72
     2
 73
     0
 90
        0
 40
-0.6
 41
-30.0
 62
     5
 63
     7
 74
     1
 91
        4
 64
     7
 65
   257
 75
     1
175
     1
 42
1.0
 92
        8
 66
     7
 43
1.0
 76
     1
 77
     6
 78
     2
 67
     7
 79
     5
170
     0
171
     0
290
     0
174
     0
 93
        1
 44
0.0
173
     0
291
     1
 45
0.0
1001
ACAD
1000
AcDbSavedByObjectVersion
1070
     0
  0
VISUALSTYLE
  5
FA2
102
{ACAD_XDICTIONARY
360
F109F8
102
}
102
{ACAD_REACTORS
330
F93
102
}
330
F93
100
AcDbVisualStyle
  2

 70
    15
 71
     2
 72
     2
 73
     0
 90
        0
 40
-0.6
 41
-30.0
 62
     5
 63
     7
 74
     1
 91
        4
 64
     7
 65
   257
 75
     1
175
     1
 42
1.0
 92
        8
 66
     7
 43
1.0
 76
     1
 77
     6
 78
     2
 67
     7
 79
     5
170
     0
171
     0
290
     0
174
     0
 93
        1
 44
0.0
173
     0
291
     1
 45
0.0
1001
ACAD
1000
AcDbSavedByObjectVersion
1070
     0
  0
VISUALSTYLE
  5
F94
102
{ACAD_XDICTIONARY
360
F109DC
102
}
102
{ACAD_REACTORS
330
F93
102
}
330
F93
100
AcDbVisualStyle
  2

 70
     0
 71
     2
 72
     1
 73
     1
 90
        2
 40
-0.6
 41
30.0
 62
     5
 63
     7
 74
     0
 91
        4
 64
     7
 65
   257
 75
     1
175
     1
 42
1.0
 92
        8
 66
     7
 43
1.0
 76
     1
 77
     6
 78
     2
 67
     7
 79
     5
170
     0
171
     0
290
     0
174
     0
 93
       13
 44
0.0
173
     0
291
     1
 45
0.0
1001
ACAD
1000
AcDbSavedByObjectVersion
1070
     0
  0
VISUALSTYLE
  5
F95
102
{ACAD_XDICTIONARY
360
F109DE
102
}
102
{ACAD_REACTORS
330
F93
102
}
330
F93
100
AcDbVisualStyle
  2

 70
     1
 71
     2
 72
     1
 73
     1
 90
        2
 40
-0.6
 41
30.0
 62
     5
 63
     7
 74
     1
 91
        4
 64
     7
 65
   257
 75
     1
175
     1
 42
1.0
 92
        0
 66
   257
 43
1.0
 76
     1
 77
     6
 78
     2
 67
     7
 79
     5
170
     0
171
     0
290
     0
174
     0
 93
       13
 44
0.0
173
     0
291
     1
 45
0.0
1001
ACAD
1000
AcDbSavedByObjectVersion
1070
     0
  0
VISUALSTYLE
  5
F96
102
{ACAD_XDICTIONARY
360
F109E0
102
}
102
{ACAD_REACTORS
330
F93
102
}
330
F93
100
AcDbVisualStyle
  2

 70
     2
 71
     2
 72
     2
 73
     1
 90
        2
 40
-0.6
 41
30.0
 62
     5
 63
     7
 74
     0
 91
        4
 64
     7
 65
   257
 75
     1
175
     1
 42
1.0
 92
        0
 66
     7
 43
1.0
 76
     1
 77
     6
 78
     2
 67
     7
 79
     5
170
     0
171
     0
290
     0
174
     0
 93
       13
 44
0.0
173
     0
291
     1
 45
0.0
1001
ACAD
1000
AcDbSavedByObjectVersion
1070
     0
  0
VISUALSTYLE
  5
F97
102
{ACAD_XDICTIONARY
360
F109E2
102
}
102
{ACAD_REACTORS
330
F93
102
}
330
F93
100
AcDbVisualStyle
  2

 70
     3
 71
     2
 72
     2
 73
     1
 90
        2
 40
-0.6
 41
30.0
 62
     5
 63
     7
 74
     1
 91
        4
 64
     7
 65
   257
 75
     1
175
     1
 42
1.0
 92
        0
 66
   257
 43
1.0
 76
     1
 77
     6
 78
     2
 67
     7
 79
     5
170
     0
171
     0
290
     0
174
     0
 93
       13
 44
0.0
173
     0
291
     1
 45
0.0
1001
ACAD
1000
AcDbSavedByObjectVersion
1070
     0
  0
VISUALSTYLE
  5
F10810
102
{ACAD_XDICTIONARY
360
F10A09
102
}
102
{ACAD_REACTORS
330
F93
102
}
330
F93
100
AcDbVisualStyle
  2
Hidden
 70
     6
 71
     1
 72
     2
 73
     2
 90
        0
 40
-0.6
 41
-30.0
 62
     5
 63
     7
 74
     2
 91
        2
 64
     7
 65
   257
 75
     2
175
     1
 42
40.0
 92
        0
 66
   257
 43
1.0
 76
     1
 77
     6
 78
     2
 67
     7
 79
     3
170
     0
171
     0
290
     0
174
     0
 93
        1
 44
0.0
173
     0
291
     0
 45
0.0
1001
ACAD
1000
AcDbSavedByObjectVersion
1070
     0
  0
VISUALSTYLE
  5
FA4
102
{ACAD_XDICTIONARY
360
F109FC
102
}
102
{ACAD_REACTORS
330
F93
102
}
330
F93
100
AcDbVisualStyle
  2

 70
    20
 71
     2
 72
     2
 73
     0
 90
        0
 40
-0.6
 41
-30.0
 62
     5
 63
     7
 74
     1
 91
        4
 64
     7
 65
   257
 75
     1
175
     1
 42
1.0
 92
       10
 66
     7
 43
1.0
 76
     1
 77
     6
 78
     2
 67
     7
 79
     5
170
     0
171
     0
290
     0
174
     0
 93
        1
 44
0.0
173
     0
291
     1
 45
0.0
1001
ACAD
1000
AcDbSavedByObjectVersion
1070
     0
  0
VISUALSTYLE
  5
FA1
102
{ACAD_XDICTIONARY
360
F109F6
102
}
102
{ACAD_REACTORS
330
F93
102
}
330
F93
100
AcDbVisualStyle
  2

 70
    14
 71
     2
 72
     2
 73
     0
 90
        0
 40
-0.6
 41
-30.0
 62
     5
 63
     7
 74
     1
 91
        4
 64
     7
 65
   257
 75
     7
175
     7
 42
1.0
 92
        8
 66
     7
 43
1.0
 76
     1
 77
     6
 78
     2
 67
     7
 79
     5
170
     0
171
     0
290
     0
174
     0
 93
        1
 44
0.0
173
     0
291
     1
 45
0.0
1001
ACAD
1000
AcDbSavedByObjectVersion
1070
     0
  0
VISUALSTYLE
  5
FA5
102
{ACAD_XDICTIONARY
360
F109FE
102
}
102
{ACAD_REACTORS
330
F93
102
}
330
F93
100
AcDbVisualStyle
  2

 70
    21
 71
     2
 72
     2
 73
     0
 90
        0
 40
-0.6
 41
-30.0
 62
     5
 63
     7
 74
     1
 91
        4
 64
     7
 65
   257
 75
     1
175
     1
 42
1.0
 92
        9
 66
     7
 43
1.0
 76
     1
 77
     6
 78
     2
 67
     7
 79
     5
170
     0
171
     0
290
     0
174
     0
 93
        1
 44
0.0
173
     0
291
     1
 45
0.0
1001
ACAD
1000
AcDbSavedByObjectVersion
1070
     0
  0
VISUALSTYLE
  5
F9D
102
{ACAD_XDICTIONARY
360
F109EE
102
}
102
{ACAD_REACTORS
330
F93
102
}
330
F93
100
AcDbVisualStyle
  2

 70
     8
 71
     2
 72
     2
 73
     0
 90
        0
 40
-0.6
 41
-30.0
 62
     5
 63
     7
 74
     1
 91
        0
 64
     7
 65
   257
 75
     1
175
     1
 42
1.0
 92
        8
 66
     8
 43
1.0
 76
     1
 77
     6
 78
     2
 67
     7
 79
     5
170
     0
171
     0
290
     0
174
     0
 93
       13
 44
0.0
173
     0
291
     0
 45
0.0
1001
ACAD
1000
AcDbSavedByObjectVersion
1070
     0
  0
VISUALSTYLE
  5
F10815
102
{ACAD_XDICTIONARY
360
F10A13
102
}
102
{ACAD_REACTORS
330
F93
102
}
330
F93
100
AcDbVisualStyle
  2
Shaded
 70
    27
 71
     2
 72
     2
 73
     1
 90
        2
 40
-0.6
 41
30.0
 62
     5
 63
     7
 74
     0
 91
        4
 64
     7
 65
   257
 75
     1
175
     1
 42
1.0
 92
        8
 66
   257
 43
1.0
 76
     1
 77
     6
 78
     2
 67
     8
 79
     3
170
     0
171
     0
290
     0
174
     0
 93
        5
 44
0.0
173
     0
291
     0
 45
0.0
1001
ACAD
1000
AcDbSavedByObjectVersion
1070
     0
  0
VISUALSTYLE
  5
F10814
102
{ACAD_XDICTIONARY
360
F10A11
102
}
102
{ACAD_REACTORS
330
F93
102
}
330
F93
100
AcDbVisualStyle
  2
Shaded with edges
 70
    26
 71
     2
 72
     2
 73
     1
 90
        2
 40
-0.6
 41
30.0
 62
     5
 63
     7
 74
     1
 91
       10
 64
     7
 65
   257
 75
     2
175
     1
 42
1.0
 92
        8
 66
   257
 43
1.0
 76
     1
 77
     6
 78
     2
 67
     7
 79
     3
170
     0
171
     0
290
     0
174
     0
 93
        5
 44
0.0
173
     0
291
     0
 45
0.0
1001
ACAD
1000
AcDbSavedByObjectVersion
1070
     0
  0
VISUALSTYLE
  5
F10811
102
{ACAD_XDICTIONARY
360
F10A0B
102
}
102
{ACAD_REACTORS
330
F93
102
}
330
F93
100
AcDbVisualStyle
  2
Shades of Gray
 70
    23
 71
     2
 72
     2
 73
     3
 90
        0
 40
-0.6
 41
-30.0
 62
     5
 63
     7
 74
     2
 91
        2
 64
     7
 65
     7
 75
     1
175
     1
 42
40.0
 92
        8
 66
     7
 43
1.0
 76
     1
 77
     6
 78
     2
 67
     7
 79
     3
170
     0
171
     0
290
     0
174
     0
 93
        1
 44
0.0
173
     0
291
     0
 45
0.0
1001
ACAD
1000
AcDbSavedByObjectVersion
1070
     0
  0
VISUALSTYLE
  5
F10812
102
{ACAD_XDICTIONARY
360
F10A0D
102
}
102
{ACAD_REACTORS
330
F93
102
}
330
F93
100
AcDbVisualStyle
  2
Sketchy
 70
    24
 71
     1
 72
     2
 73
     2
 90
        0
 40
-0.6
 41
-30.0
 62
     5
 63
     7
 74
     2
 91
        2
 64
     7
 65
     7
 75
     1
175
     1
 42
40.0
 92
       11
 66
     7
 43
1.0
 76
     1
 77
     6
 78
     2
 67
     7
 79
     6
170
     0
171
     0
290
     0
174
     0
 93
        1
 44
0.0
173
     0
291
     0
 45
0.0
1001
ACAD
1000
AcDbSavedByObjectVersion
1070
     0
  0
VISUALSTYLE
  5
FA0
102
{ACAD_XDICTIONARY
360
F109F4
102
}
102
{ACAD_REACTORS
330
F93
102
}
330
F93
100
AcDbVisualStyle
  2

 70
    13
 71
     2
 72
     2
 73
     0
 90
        0
 40
-0.6
 41
-30.0
 62
     5
 63
     7
 74
     1
 91
        4
 64
     7
 65
   257
 75
     1
175
     1
 42
1.0
 92
       12
 66
     7
 43
1.0
 76
     1
 77
     6
 78
     2
 67
     7
 79
     5
170
     0
171
     0
290
     0
174
     0
 93
        1
 44
0.0
173
     0
291
     1
 45
0.0
1001
ACAD
1000
AcDbSavedByObjectVersion
1070
     0
  0
VISUALSTYLE
  5
F1080F
102
{ACAD_XDICTIONARY
360
F10A07
102
}
102
{ACAD_REACTORS
330
F93
102
}
330
F93
100
AcDbVisualStyle
  2
Wireframe
 70
     5
 71
     0
 72
     2
 73
     0
 90
        0
 40
-0.6
 41
-30.0
 62
     5
 63
     7
 74
     1
 91
        4
 64
     7
 65
   257
 75
     1
175
     1
 42
1.0
 92
        0
 66
   257
 43
1.0
 76
     1
 77
     6
 78
     2
 67
     7
 79
     3
170
     0
171
     0
290
     0
174
     0
 93
        1
 44
0.0
173
     0
291
     0
 45
0.0
1001
ACAD
1000
AcDbSavedByObjectVersion
1070
     0
  0
VISUALSTYLE
  5
F10813
102
{ACAD_XDICTIONARY
360
F10A0F
102
}
102
{ACAD_REACTORS
330
F93
102
}
330
F93
100
AcDbVisualStyle
  2
X-Ray
 70
    25
 71
     2
 72
     2
 73
     1
 90
        1
 40
0.5
 41
-30.0
 62
     5
 63
     7
 74
     1
 91
        0
 64
     7
 65
   257
 75
     1
175
     1
 42
1.0
 92
        8
 66
     7
 43
1.0
 76
     1
 77
     6
 78
     2
 67
     7
 79
     3
170
     0
171
     0
290
     0
174
     0
 93
       13
 44
0.0
173
     0
291
     0
 45
0.0
1001
ACAD
1000
AcDbSavedByObjectVersion
1070
     0
  0
DICTIONARYVAR
  5
F109CA
102
{ACAD_REACTORS
330
F109C7
102
}
330
F109C7
100
DictionaryVariables
280
     0
  1
1:1
  0
DICTIONARYVAR
  5
F109C9
102
{ACAD_REACTORS
330
F109C7
102
}
330
F109C7
100
DictionaryVariables
280
     0
  1
STANDARD
  0
DICTIONARYVAR
  5
F109C8
102
{ACAD_REACTORS
330
F109C7
102
}
330
F109C7
100
DictionaryVariables
280
     0
  1
STANDARD
  0
DICTIONARYVAR
  5
F109CD
102
{ACAD_REACTORS
330
F109C7
102
}
330
F109C7
100
DictionaryVariables
280
     0
  1
1
  0
DICTIONARYVAR
  5
F109CC
102
{ACAD_REACTORS
330
F109C7
102
}
330
F109C7
100
DictionaryVariables
280
     0
  1
0
  0
DICTIONARYVAR
  5
F109CB
102
{ACAD_REACTORS
330
F109C7
102
}
330
F109C7
100
DictionaryVariables
280
     0
  1
127
  0
DICTIONARYVAR
  5
F109CE
102
{ACAD_REACTORS
330
F109C7
102
}
330
F109C7
100
DictionaryVariables
280
     0
  1
2
  0
DICTIONARY
  5
F1086F
102
{ACAD_REACTORS
330
F10864
102
}
330
F10864
100
AcDbDictionary
281
     1
  0
DICTIONARY
  5
F10A05
330
FD1
100
AcDbDictionary
280
     1
281
     1
  3
ACAD_XREC_ROUNDTRIP
360
F10A06
  0
DICTIONARY
  5
F10A03
330
FD0
100
AcDbDictionary
280
     1
281
     1
  3
ACAD_XREC_ROUNDTRIP
360
F10A04
  0
DICTIONARY
  5
F84
330
F83
100
AcDbDictionary
280
     1
281
     1
  3
ACAD_XREC_ROUNDTRIP
360
FFF
  3
BUMPTILE
360
F86
  3
DIFFUSETILE
360
F85
  3
OPACITYTILE
360
F89
  3
REFLECTIONTILE
360
F88
  3
REFRACTIONTILE
360
F8A
  3
SPECULARTILE
360
F87
  0
DICTIONARY
  5
F7C
330
F7B
100
AcDbDictionary
280
     1
281
     1
  3
ACAD_XREC_ROUNDTRIP
360
FFE
  3
BUMPTILE
360
F7E
  3
DIFFUSETILE
360
F7D
  3
OPACITYTILE
360
F81
  3
REFLECTIONTILE
360
F80
  3
REFRACTIONTILE
360
F82
  3
SPECULARTILE
360
F7F
  0
DICTIONARY
  5
F8C
330
F8B
100
AcDbDictionary
280
     1
281
     1
  3
ACAD_XREC_ROUNDTRIP
360
1000
  3
BUMPTILE
360
F8E
  3
DIFFUSETILE
360
F8D
  3
OPACITYTILE
360
F91
  3
REFLECTIONTILE
360
F90
  3
REFRACTIONTILE
360
F92
  3
SPECULARTILE
360
F8F
  0
DICTIONARY
  5
FF8
330
FA9
100
AcDbDictionary
280
     1
281
     1
  3
ACAD_ROUNDTRIP_2008_TABLESTYLE_CELLSTYLEMAP
360
F109CF
  3
ACAD_XREC_ROUNDTRIP
360
F10A02
  0
DICTIONARY
  5
F109E6
330
F99
100
AcDbDictionary
280
     1
281
     1
  3
ACAD_XREC_ROUNDTRIP
360
F109E7
  0
DICTIONARY
  5
F109EA
330
F9B
100
AcDbDictionary
280
     1
281
     1
  3
ACAD_XREC_ROUNDTRIP
360
F109EB
  0
DICTIONARY
  5
F109E8
330
F9A
100
AcDbDictionary
280
     1
281
     1
  3
ACAD_XREC_ROUNDTRIP
360
F109E9
  0
DICTIONARY
  5
F109E4
330
F98
100
AcDbDictionary
280
     1
281
     1
  3
ACAD_XREC_ROUNDTRIP
360
F109E5
  0
DICTIONARY
  5
F109F2
330
F9F
100
AcDbDictionary
280
     1
281
     1
  3
ACAD_XREC_ROUNDTRIP
360
F109F3
  0
DICTIONARY
  5
F109FA
330
FA3
100
AcDbDictionary
280
     1
281
     1
  3
ACAD_XREC_ROUNDTRIP
360
F109FB
  0
DICTIONARY
  5
F109EC
330
F9C
100
AcDbDictionary
280
     1
281
     1
  3
ACAD_XREC_ROUNDTRIP
360
F109ED
  0
DICTIONARY
  5
F109F0
330
F9E
100
AcDbDictionary
280
     1
281
     1
  3
ACAD_XREC_ROUNDTRIP
360
F109F1
  0
DICTIONARY
  5
F10A00
330
FA6
100
AcDbDictionary
280
     1
281
     1
  3
ACAD_XREC_ROUNDTRIP
360
F10A01
  0
DICTIONARY
  5
F109F8
330
FA2
100
AcDbDictionary
280
     1
281
     1
  3
ACAD_XREC_ROUNDTRIP
360
F109F9
  0
DICTIONARY
  5
F109DC
330
F94
100
AcDbDictionary
280
     1
281
     1
  3
ACAD_XREC_ROUNDTRIP
360
F109DD
  0
DICTIONARY
  5
F109DE
330
F95
100
AcDbDictionary
280
     1
281
     1
  3
ACAD_XREC_ROUNDTRIP
360
F109DF
  0
DICTIONARY
  5
F109E0
330
F96
100
AcDbDictionary
280
     1
281
     1
  3
ACAD_XREC_ROUNDTRIP
360
F109E1
  0
DICTIONARY
  5
F109E2
330
F97
100
AcDbDictionary
280
     1
281
     1
  3
ACAD_XREC_ROUNDTRIP
360
F109E3
  0
DICTIONARY
  5
F10A09
330
F10810
100
AcDbDictionary
280
     1
281
     1
  3
ACAD_XREC_ROUNDTRIP
360
F10A0A
  0
DICTIONARY
  5
F109FC
330
FA4
100
AcDbDictionary
280
     1
281
     1
  3
ACAD_XREC_ROUNDTRIP
360
F109FD
  0
DICTIONARY
  5
F109F6
330
FA1
100
AcDbDictionary
280
     1
281
     1
  3
ACAD_XREC_ROUNDTRIP
360
F109F7
  0
DICTIONARY
  5
F109FE
330
FA5
100
AcDbDictionary
280
     1
281
     1
  3
ACAD_XREC_ROUNDTRIP
360
F109FF
  0
DICTIONARY
  5
F109EE
330
F9D
100
AcDbDictionary
280
     1
281
     1
  3
ACAD_XREC_ROUNDTRIP
360
F109EF
  0
DICTIONARY
  5
F10A13
330
F10815
100
AcDbDictionary
280
     1
281
     1
  3
ACAD_XREC_ROUNDTRIP
360
F10A14
  0
DICTIONARY
  5
F10A11
330
F10814
100
AcDbDictionary
280
     1
281
     1
  3
ACAD_XREC_ROUNDTRIP
360
F10A12
  0
DICTIONARY
  5
F10A0B
330
F10811
100
AcDbDictionary
280
     1
281
     1
  3
ACAD_XREC_ROUNDTRIP
360
F10A0C
  0
DICTIONARY
  5
F10A0D
330
F10812
100
AcDbDictionary
280
     1
281
     1
  3
ACAD_XREC_ROUNDTRIP
360
F10A0E
  0
DICTIONARY
  5
F109F4
330
FA0
100
AcDbDictionary
280
     1
281
     1
  3
ACAD_XREC_ROUNDTRIP
360
F109F5
  0
DICTIONARY
  5
F10A07
330
F1080F
100
AcDbDictionary
280
     1
281
     1
  3
ACAD_XREC_ROUNDTRIP
360
F10A08
  0
DICTIONARY
  5
F10A0F
330
F10813
100
AcDbDictionary
280
     1
281
     1
  3
ACAD_XREC_ROUNDTRIP
360
F10A10
  0
XRECORD
  5
F10A06
102
{ACAD_REACTORS
330
F10A05
102
}
330
F10A05
100
AcDbXrecord
280
     1
102
SHADEPLOT
 70
     0
102
SHADEPLOTRESLEVEL
 70
     2
102
SHADEPLOTCUSTOMDPI
 70
   300
  0
XRECORD
  5
F10A04
102
{ACAD_REACTORS
330
F10A03
102
}
330
F10A03
100
AcDbXrecord
280
     1
102
SHADEPLOT
 70
     0
102
SHADEPLOTRESLEVEL
 70
     2
102
SHADEPLOTCUSTOMDPI
 70
   300
  0
XRECORD
  5
FFF
102
{ACAD_REACTORS
330
F84
102
}
330
F84
100
AcDbXrecord
280
     1
102
MATERIAL
148
0.0
149
0.0
149
0.0
 93
        0
 94
      127
282
     0
 72
     0
 77
     0
171
     0
175
     0
179
     0
273
     0
  0
XRECORD
  5
F86
102
{ACAD_REACTORS
330
F84
102
}
330
F84
100
AcDbXrecord
280
     1
270
     1
271
     1
  0
XRECORD
  5
F85
102
{ACAD_REACTORS
330
F84
102
}
330
F84
100
AcDbXrecord
280
     1
270
     1
271
     1
  0
XRECORD
  5
F89
102
{ACAD_REACTORS
330
F84
102
}
330
F84
100
AcDbXrecord
280
     1
270
     1
271
     1
  0
XRECORD
  5
F88
102
{ACAD_REACTORS
330
F84
102
}
330
F84
100
AcDbXrecord
280
     1
270
     1
271
     1
  0
XRECORD
  5
F8A
102
{ACAD_REACTORS
330
F84
102
}
330
F84
100
AcDbXrecord
280
     1
270
     1
271
     1
  0
XRECORD
  5
F87
102
{ACAD_REACTORS
330
F84
102
}
330
F84
100
AcDbXrecord
280
     1
270
     1
271
     1
  0
XRECORD
  5
FFE
102
{ACAD_REACTORS
330
F7C
102
}
330
F7C
100
AcDbXrecord
280
     1
102
MATERIAL
148
0.0
149
0.0
149
0.0
 93
        0
 94
      127
282
     0
 72
     0
 77
     0
171
     0
175
     0
179
     0
273
     0
  0
XRECORD
  5
F7E
102
{ACAD_REACTORS
330
F7C
102
}
330
F7C
100
AcDbXrecord
280
     1
270
     1
271
     1
  0
XRECORD
  5
F7D
102
{ACAD_REACTORS
330
F7C
102
}
330
F7C
100
AcDbXrecord
280
     1
270
     1
271
     1
  0
XRECORD
  5
F81
102
{ACAD_REACTORS
330
F7C
102
}
330
F7C
100
AcDbXrecord
280
     1
270
     1
271
     1
  0
XRECORD
  5
F80
102
{ACAD_REACTORS
330
F7C
102
}
330
F7C
100
AcDbXrecord
280
     1
270
     1
271
     1
  0
XRECORD
  5
F82
102
{ACAD_REACTORS
330
F7C
102
}
330
F7C
100
AcDbXrecord
280
     1
270
     1
271
     1
  0
XRECORD
  5
F7F
102
{ACAD_REACTORS
330
F7C
102
}
330
F7C
100
AcDbXrecord
280
     1
270
     1
271
     1
  0
XRECORD
  5
1000
102
{ACAD_REACTORS
330
F8C
102
}
330
F8C
100
AcDbXrecord
280
     1
102
MATERIAL
148
0.0
149
0.0
149
0.0
 93
        0
 94
      127
282
     0
 72
     0
 77
     0
171
     0
175
     0
179
     0
273
     0
  0
XRECORD
  5
F8E
102
{ACAD_REACTORS
330
F8C
102
}
330
F8C
100
AcDbXrecord
280
     1
270
     1
271
     1
  0
XRECORD
  5
F8D
102
{ACAD_REACTORS
330
F8C
102
}
330
F8C
100
AcDbXrecord
280
     1
270
     1
271
     1
  0
XRECORD
  5
F91
102
{ACAD_REACTORS
330
F8C
102
}
330
F8C
100
AcDbXrecord
280
     1
270
     1
271
     1
  0
XRECORD
  5
F90
102
{ACAD_REACTORS
330
F8C
102
}
330
F8C
100
AcDbXrecord
280
     1
270
     1
271
     1
  0
XRECORD
  5
F92
102
{ACAD_REACTORS
330
F8C
102
}
330
F8C
100
AcDbXrecord
280
     1
270
     1
271
     1
  0
XRECORD
  5
F8F
102
{ACAD_REACTORS
330
F8C
102
}
330
F8C
100
AcDbXrecord
280
     1
270
     1
271
     1
  0
CELLSTYLEMAP
  5
F109CF
102
{ACAD_REACTORS
330
FF8
102
}
330
FF8
100
AcDbCellStyleMap
 90
        3
300
CELLSTYLE
  1
TABLEFORMAT_BEGIN
 90
        5
170
     1
 91
        0
 92
    32768
 62
   257
 93
        1
300
CONTENTFORMAT
  1
CONTENTFORMAT_BEGIN
 90
        0
 91
        0
 92
      512
 93
        0
300

 40
0.0
140
1.0
 94
        5
 62
     0
340
253
144
0.25
309
CONTENTFORMAT_END
171
     1
301
MARGIN
  1
CELLMARGIN_BEGIN
 40
0.06
 40
0.06
 40
0.06
 40
0.06
 40
0.18
 40
0.18
309
CELLMARGIN_END
 94
        6
 95
        1
302
GRIDFORMAT
  1
GRIDFORMAT_BEGIN
 90
        0
 91
        1
 62
     0
 92
       -2
340
0
 93
        0
 40
0.045
309
GRIDFORMAT_END
 95
        2
302
GRIDFORMAT
  1
GRIDFORMAT_BEGIN
 90
        0
 91
        1
 62
     0
 92
       -2
340
0
 93
        0
 40
0.045
309
GRIDFORMAT_END
 95
        4
302
GRIDFORMAT
  1
GRIDFORMAT_BEGIN
 90
        0
 91
        1
 62
     0
 92
       -2
340
0
 93
        0
 40
0.045
309
GRIDFORMAT_END
 95
        8
302
GRIDFORMAT
  1
GRIDFORMAT_BEGIN
 90
        0
 91
        1
 62
     0
 92
       -2
340
0
 93
        0
 40
0.045
309
GRIDFORMAT_END
 95
       16
302
GRIDFORMAT
  1
GRIDFORMAT_BEGIN
 90
        0
 91
        1
 62
     0
 92
       -2
340
0
 93
        0
 40
0.045
309
GRIDFORMAT_END
 95
       32
302
GRIDFORMAT
  1
GRIDFORMAT_BEGIN
 90
        0
 91
        1
 62
     0
 92
       -2
340
0
 93
        0
 40
0.045
309
GRIDFORMAT_END
309
TABLEFORMAT_END
  1
CELLSTYLE_BEGIN
 90
        1
 91
        1
300
_TITLE
309
CELLSTYLE_END
300
CELLSTYLE
  1
TABLEFORMAT_BEGIN
 90
        5
170
     1
 91
        0
 92
        0
 62
   257
 93
        1
300
CONTENTFORMAT
  1
CONTENTFORMAT_BEGIN
 90
        0
 91
        0
 92
      512
 93
        0
300

 40
0.0
140
1.0
 94
        5
 62
     0
340
253
144
0.18
309
CONTENTFORMAT_END
171
     1
301
MARGIN
  1
CELLMARGIN_BEGIN
 40
0.06
 40
0.06
 40
0.06
 40
0.06
 40
0.18
 40
0.18
309
CELLMARGIN_END
 94
        6
 95
        1
302
GRIDFORMAT
  1
GRIDFORMAT_BEGIN
 90
        0
 91
        1
 62
     0
 92
       -2
340
0
 93
        0
 40
0.045
309
GRIDFORMAT_END
 95
        2
302
GRIDFORMAT
  1
GRIDFORMAT_BEGIN
 90
        0
 91
        1
 62
     0
 92
       -2
340
0
 93
        0
 40
0.045
309
GRIDFORMAT_END
 95
        4
302
GRIDFORMAT
  1
GRIDFORMAT_BEGIN
 90
        0
 91
        1
 62
     0
 92
       -2
340
0
 93
        0
 40
0.045
309
GRIDFORMAT_END
 95
        8
302
GRIDFORMAT
  1
GRIDFORMAT_BEGIN
 90
        0
 91
        1
 62
     0
 92
       -2
340
0
 93
        0
 40
0.045
309
GRIDFORMAT_END
 95
       16
302
GRIDFORMAT
  1
GRIDFORMAT_BEGIN
 90
        0
 91
        1
 62
     0
 92
       -2
340
0
 93
        0
 40
0.045
309
GRIDFORMAT_END
 95
       32
302
GRIDFORMAT
  1
GRIDFORMAT_BEGIN
 90
        0
 91
        1
 62
     0
 92
       -2
340
0
 93
        0
 40
0.045
309
GRIDFORMAT_END
309
TABLEFORMAT_END
  1
CELLSTYLE_BEGIN
 90
        2
 91
        1
300
_HEADER
309
CELLSTYLE_END
300
CELLSTYLE
  1
TABLEFORMAT_BEGIN
 90
        5
170
     1
 91
        0
 92
        0
 62
   257
 93
        1
300
CONTENTFORMAT
  1
CONTENTFORMAT_BEGIN
 90
        0
 91
        0
 92
      512
 93
        0
300

 40
0.0
140
1.0
 94
        2
 62
     0
340
253
144
0.18
309
CONTENTFORMAT_END
171
     1
301
MARGIN
  1
CELLMARGIN_BEGIN
 40
0.06
 40
0.06
 40
0.06
 40
0.06
 40
0.18
 40
0.18
309
CELLMARGIN_END
 94
        6
 95
        1
302
GRIDFORMAT
  1
GRIDFORMAT_BEGIN
 90
        0
 91
        1
 62
     0
 92
       -2
340
0
 93
        0
 40
0.045
309
GRIDFORMAT_END
 95
        2
302
GRIDFORMAT
  1
GRIDFORMAT_BEGIN
 90
        0
 91
        1
 62
     0
 92
       -2
340
0
 93
        0
 40
0.045
309
GRIDFORMAT_END
 95
        4
302
GRIDFORMAT
  1
GRIDFORMAT_BEGIN
 90
        0
 91
        1
 62
     0
 92
       -2
340
0
 93
        0
 40
0.045
309
GRIDFORMAT_END
 95
        8
302
GRIDFORMAT
  1
GRIDFORMAT_BEGIN
 90
        0
 91
        1
 62
     0
 92
       -2
340
0
 93
        0
 40
0.045
309
GRIDFORMAT_END
 95
       16
302
GRIDFORMAT
  1
GRIDFORMAT_BEGIN
 90
        0
 91
        1
 62
     0
 92
       -2
340
0
 93
        0
 40
0.045
309
GRIDFORMAT_END
 95
       32
302
GRIDFORMAT
  1
GRIDFORMAT_BEGIN
 90
        0
 91
        1
 62
     0
 92
       -2
340
0
 93
        0
 40
0.045
309
GRIDFORMAT_END
309
TABLEFORMAT_END
  1
CELLSTYLE_BEGIN
 90
        3
 91
        2
300
_DATA
309
CELLSTYLE_END
  0
XRECORD
  5
F10A02
102
{ACAD_REACTORS
330
FF8
102
}
330
FF8
100
AcDbXrecord
280
     1
102
ACAD_ROUNDTRIP_PRE2007_TABLESTYLE
 90
      512
 91
        0
  1

 92
      512
 93
        0
  2

 94
      512
 95
        0
  3

  0
XRECORD
  5
F109E7
102
{ACAD_REACTORS
330
F109E6
102
}
330
F109E6
100
AcDbXrecord
280
     1
102
RTVSPropertyOp0
 70
     1
102
RTVSPropertyOp1
 70
     1
102
RTVSPropertyOp2
 70
     1
102
RTVSPropertyOp3
 70
     1
102
RTVSPropertyOp4
 70
     1
102
RTVSPropertyOp5
 70
     1
102
RTVSPropertyOp6
 70
     1
102
RTVSPropertyOp7
 70
     1
102
RTVSPropertyOp8
 70
     1
102
RTVSPropertyOp9
 70
     1
102
RTVSPropertyOp10
 70
     1
102
RTVSPropertyOp11
 70
     1
102
RTVSPropertyOp12
 70
     1
102
RTVSPropertyOp13
 70
     1
102
RTVSPropertyOp14
 70
     1
102
RTVSPropertyOp15
 70
     1
102
RTVSPropertyOp16
 70
     1
102
RTVSPropertyOp17
 70
     1
102
RTVSPropertyOp18
 70
     1
102
RTVSPropertyOp19
 70
     1
102
RTVSPropertyOp20
 70
     1
102
RTVSPropertyOp21
 70
     1
102
RTVSPropertyOp22
 70
     1
102
RTVSPropertyOp23
 70
     1
102
RTVSPropertyOp24
 70
     1
102
RTVSPropertyOp25
 70
     1
102
RTVSPropertyOp26
 70
     1
102
RTVSPropertyOp27
 70
     1
102
RTVSPropertyOp28
 70
     1
102
RTVSPropertyOp29
 70
     1
102
RTVSPropertyOp30
 70
     1
102
RTVSPropertyOp31
 70
     1
102
RTVSPropertyOp32
 70
     1
  0
XRECORD
  5
F109EB
102
{ACAD_REACTORS
330
F109EA
102
}
330
F109EA
100
AcDbXrecord
280
     1
102
RTVSPropertyOp0
 70
     1
102
RTVSPropertyOp1
 70
     1
102
RTVSPropertyOp2
 70
     1
102
RTVSPropertyOp3
 70
     1
102
RTVSPropertyOp4
 70
     1
102
RTVSPropertyOp5
 70
     1
102
RTVSPropertyOp6
 70
     1
102
RTVSPropertyOp7
 70
     1
102
RTVSPropertyOp8
 70
     1
102
RTVSPropertyOp9
 70
     1
102
RTVSPropertyOp10
 70
     1
102
RTVSPropertyOp11
 70
     1
102
RTVSPropertyOp12
 70
     1
102
RTVSPropertyOp13
 70
     1
102
RTVSPropertyOp14
 70
     1
102
RTVSPropertyOp15
 70
     1
102
RTVSPropertyOp16
 70
     1
102
RTVSPropertyOp17
 70
     1
102
RTVSPropertyOp18
 70
     1
102
RTVSPropertyOp19
 70
     1
102
RTVSPropertyOp20
 70
     1
102
RTVSPropertyOp21
 70
     1
102
RTVSPropertyOp22
 70
     1
102
RTVSPropertyOp23
 70
     1
102
RTVSPropertyOp24
 70
     1
102
RTVSPropertyOp25
 70
     1
102
RTVSPropertyOp26
 70
     1
102
RTVSPropertyOp27
 70
     1
102
RTVSPropertyOp28
 70
     1
102
RTVSPropertyOp29
 70
     1
102
RTVSPropertyOp30
 70
     1
102
RTVSPropertyOp31
 70
     1
102
RTVSPropertyOp32
 70
     1
  0
XRECORD
  5
F109E9
102
{ACAD_REACTORS
330
F109E8
102
}
330
F109E8
100
AcDbXrecord
280
     1
102
RTVSPropertyOp0
 70
     1
102
RTVSPropertyOp1
 70
     1
102
RTVSPropertyOp2
 70
     1
102
RTVSPropertyOp3
 70
     1
102
RTVSPropertyOp4
 70
     1
102
RTVSPropertyOp5
 70
     1
102
RTVSPropertyOp6
 70
     1
102
RTVSPropertyOp7
 70
     1
102
RTVSPropertyOp8
 70
     1
102
RTVSPropertyOp9
 70
     1
102
RTVSPropertyOp10
 70
     1
102
RTVSPropertyOp11
 70
     1
102
RTVSPropertyOp12
 70
     1
102
RTVSPropertyOp13
 70
     1
102
RTVSPropertyOp14
 70
     1
102
RTVSPropertyOp15
 70
     1
102
RTVSPropertyOp16
 70
     1
102
RTVSPropertyOp17
 70
     1
102
RTVSPropertyOp18
 70
     1
102
RTVSPropertyOp19
 70
     1
102
RTVSPropertyOp20
 70
     1
102
RTVSPropertyOp21
 70
     1
102
RTVSPropertyOp22
 70
     1
102
RTVSPropertyOp23
 70
     1
102
RTVSPropertyOp24
 70
     1
102
RTVSPropertyOp25
 70
     1
102
RTVSPropertyOp26
 70
     1
102
RTVSPropertyOp27
 70
     1
102
RTVSPropertyOp28
 70
     1
102
RTVSPropertyOp29
 70
     1
102
RTVSPropertyOp30
 70
     1
102
RTVSPropertyOp31
 70
     1
102
RTVSPropertyOp32
 70
     1
  0
XRECORD
  5
F109E5
102
{ACAD_REACTORS
330
F109E4
102
}
330
F109E4
100
AcDbXrecord
280
     1
102
RTVSPropertyOp0
 70
     1
102
RTVSPropertyOp1
 70
     1
102
RTVSPropertyOp2
 70
     1
102
RTVSPropertyOp3
 70
     1
102
RTVSPropertyOp4
 70
     1
102
RTVSPropertyOp5
 70
     1
102
RTVSPropertyOp6
 70
     1
102
RTVSPropertyOp7
 70
     1
102
RTVSPropertyOp8
 70
     1
102
RTVSPropertyOp9
 70
     1
102
RTVSPropertyOp10
 70
     1
102
RTVSPropertyOp11
 70
     1
102
RTVSPropertyOp12
 70
     1
102
RTVSPropertyOp13
 70
     1
102
RTVSPropertyOp14
 70
     1
102
RTVSPropertyOp15
 70
     1
102
RTVSPropertyOp16
 70
     1
102
RTVSPropertyOp17
 70
     1
102
RTVSPropertyOp18
 70
     1
102
RTVSPropertyOp19
 70
     1
102
RTVSPropertyOp20
 70
     1
102
RTVSPropertyOp21
 70
     1
102
RTVSPropertyOp22
 70
     1
102
RTVSPropertyOp23
 70
     1
102
RTVSPropertyOp24
 70
     1
102
RTVSPropertyOp25
 70
     1
102
RTVSPropertyOp26
 70
     1
102
RTVSPropertyOp27
 70
     1
102
RTVSPropertyOp28
 70
     1
102
RTVSPropertyOp29
 70
     1
102
RTVSPropertyOp30
 70
     1
102
RTVSPropertyOp31
 70
     1
102
RTVSPropertyOp32
 70
     1
  0
XRECORD
  5
F109F3
102
{ACAD_REACTORS
330
F109F2
102
}
330
F109F2
100
AcDbXrecord
280
     1
102
RTVSPropertyOp0
 70
     1
102
RTVSPropertyOp1
 70
     1
102
RTVSPropertyOp2
 70
     1
102
RTVSPropertyOp3
 70
     1
102
RTVSPropertyOp4
 70
     1
102
RTVSPropertyOp5
 70
     1
102
RTVSPropertyOp6
 70
     1
102
RTVSPropertyOp7
 70
     1
102
RTVSPropertyOp8
 70
     1
102
RTVSPropertyOp9
 70
     1
102
RTVSPropertyOp10
 70
     1
102
RTVSPropertyOp11
 70
     1
102
RTVSPropertyOp12
 70
     1
102
RTVSPropertyOp13
 70
     1
102
RTVSPropertyOp14
 70
     1
102
RTVSPropertyOp15
 70
     1
102
RTVSPropertyOp16
 70
     1
102
RTVSPropertyOp17
 70
     1
102
RTVSPropertyOp18
 70
     1
102
RTVSPropertyOp19
 70
     1
102
RTVSPropertyOp20
 70
     1
102
RTVSPropertyOp21
 70
     1
102
RTVSPropertyOp22
 70
     1
102
RTVSPropertyOp23
 70
     1
102
RTVSPropertyOp24
 70
     1
102
RTVSPropertyOp25
 70
     1
102
RTVSPropertyOp26
 70
     1
102
RTVSPropertyOp27
 70
     1
102
RTVSPropertyOp28
 70
     1
102
RTVSPropertyOp29
 70
     1
102
RTVSPropertyOp30
 70
     1
102
RTVSPropertyOp31
 70
     1
102
RTVSPropertyOp32
 70
     1
  0
XRECORD
  5
F109FB
102
{ACAD_REACTORS
330
F109FA
102
}
330
F109FA
100
AcDbXrecord
280
     1
102
RTVSPropertyOp0
 70
     1
102
RTVSPropertyOp1
 70
     1
102
RTVSPropertyOp2
 70
     1
102
RTVSPropertyOp3
 70
     1
102
RTVSPropertyOp4
 70
     1
102
RTVSPropertyOp5
 70
     1
102
RTVSPropertyOp6
 70
     1
102
RTVSPropertyOp7
 70
     1
102
RTVSPropertyOp8
 70
     1
102
RTVSPropertyOp9
 70
     1
102
RTVSPropertyOp10
 70
     1
102
RTVSPropertyOp11
 70
     1
102
RTVSPropertyOp12
 70
     1
102
RTVSPropertyOp13
 70
     1
102
RTVSPropertyOp14
 70
     1
102
RTVSPropertyOp15
 70
     1
102
RTVSPropertyOp16
 70
     1
102
RTVSPropertyOp17
 70
     1
102
RTVSPropertyOp18
 70
     1
102
RTVSPropertyOp19
 70
     1
102
RTVSPropertyOp20
 70
     1
102
RTVSPropertyOp21
 70
     1
102
RTVSPropertyOp22
 70
     1
102
RTVSPropertyOp23
 70
     1
102
RTVSPropertyOp24
 70
     1
102
RTVSPropertyOp25
 70
     1
102
RTVSPropertyOp26
 70
     1
102
RTVSPropertyOp27
 70
     1
102
RTVSPropertyOp28
 70
     1
102
RTVSPropertyOp29
 70
     1
102
RTVSPropertyOp30
 70
     1
102
RTVSPropertyOp31
 70
     1
102
RTVSPropertyOp32
 70
     1
  0
XRECORD
  5
F109ED
102
{ACAD_REACTORS
330
F109EC
102
}
330
F109EC
100
AcDbXrecord
280
     1
102
RTVSPropertyOp0
 70
     1
102
RTVSPropertyOp1
 70
     1
102
RTVSPropertyOp2
 70
     1
102
RTVSPropertyOp3
 70
     1
102
RTVSPropertyOp4
 70
     1
102
RTVSPropertyOp5
 70
     1
102
RTVSPropertyOp6
 70
     1
102
RTVSPropertyOp7
 70
     1
102
RTVSPropertyOp8
 70
     1
102
RTVSPropertyOp9
 70
     1
102
RTVSPropertyOp10
 70
     1
102
RTVSPropertyOp11
 70
     1
102
RTVSPropertyOp12
 70
     1
102
RTVSPropertyOp13
 70
     1
102
RTVSPropertyOp14
 70
     1
102
RTVSPropertyOp15
 70
     1
102
RTVSPropertyOp16
 70
     1
102
RTVSPropertyOp17
 70
     1
102
RTVSPropertyOp18
 70
     1
102
RTVSPropertyOp19
 70
     1
102
RTVSPropertyOp20
 70
     1
102
RTVSPropertyOp21
 70
     1
102
RTVSPropertyOp22
 70
     1
102
RTVSPropertyOp23
 70
     1
102
RTVSPropertyOp24
 70
     1
102
RTVSPropertyOp25
 70
     1
102
RTVSPropertyOp26
 70
     1
102
RTVSPropertyOp27
 70
     1
102
RTVSPropertyOp28
 70
     1
102
RTVSPropertyOp29
 70
     1
102
RTVSPropertyOp30
 70
     1
102
RTVSPropertyOp31
 70
     1
102
RTVSPropertyOp32
 70
     1
  0
XRECORD
  5
F109F1
102
{ACAD_REACTORS
330
F109F0
102
}
330
F109F0
100
AcDbXrecord
280
     1
102
RTVSPropertyOp0
 70
     1
102
RTVSPropertyOp1
 70
     1
102
RTVSPropertyOp2
 70
     1
102
RTVSPropertyOp3
 70
     1
102
RTVSPropertyOp4
 70
     1
102
RTVSPropertyOp5
 70
     1
102
RTVSPropertyOp6
 70
     1
102
RTVSPropertyOp7
 70
     1
102
RTVSPropertyOp8
 70
     1
102
RTVSPropertyOp9
 70
     1
102
RTVSPropertyOp10
 70
     1
102
RTVSPropertyOp11
 70
     1
102
RTVSPropertyOp12
 70
     1
102
RTVSPropertyOp13
 70
     1
102
RTVSPropertyOp14
 70
     1
102
RTVSPropertyOp15
 70
     1
102
RTVSPropertyOp16
 70
     1
102
RTVSPropertyOp17
 70
     1
102
RTVSPropertyOp18
 70
     1
102
RTVSPropertyOp19
 70
     1
102
RTVSPropertyOp20
 70
     1
102
RTVSPropertyOp21
 70
     1
102
RTVSPropertyOp22
 70
     1
102
RTVSPropertyOp23
 70
     1
102
RTVSPropertyOp24
 70
     1
102
RTVSPropertyOp25
 70
     1
102
RTVSPropertyOp26
 70
     1
102
RTVSPropertyOp27
 70
     1
102
RTVSPropertyOp28
 70
     1
102
RTVSPropertyOp29
 70
     1
102
RTVSPropertyOp30
 70
     1
102
RTVSPropertyOp31
 70
     1
102
RTVSPropertyOp32
 70
     1
  0
XRECORD
  5
F10A01
102
{ACAD_REACTORS
330
F10A00
102
}
330
F10A00
100
AcDbXrecord
280
     1
102
RTVSPropertyOp0
 70
     0
102
RTVSPropertyOp1
 70
     0
102
RTVSPropertyOp2
 70
     0
102
RTVSPropertyOp3
 70
     0
102
RTVSPropertyOp4
 70
     0
102
RTVSPropertyOp5
 70
     0
102
RTVSPropertyOp6
 70
     0
102
RTVSPropertyOp7
 70
     0
102
RTVSPropertyOp8
 70
     0
102
RTVSPropertyOp9
 70
     0
102
RTVSPropertyOp10
 70
     0
102
RTVSPropertyOp11
 70
     0
102
RTVSPropertyOp12
 70
     0
102
RTVSPropertyOp13
 70
     0
102
RTVSPropertyOp14
 70
     2
102
RTVSPropertyOp15
 70
     0
102
RTVSPropertyOp16
 70
     0
102
RTVSPropertyOp17
 70
     0
102
RTVSPropertyOp18
 70
     0
102
RTVSPropertyOp19
 70
     0
102
RTVSPropertyOp20
 70
     0
102
RTVSPropertyOp21
 70
     0
102
RTVSPropertyOp22
 70
     0
102
RTVSPropertyOp23
 70
     0
102
RTVSPropertyOp24
 70
     0
102
RTVSPropertyOp25
 70
     0
102
RTVSPropertyOp26
 70
     0
102
RTVSPropertyOp27
 70
     0
102
RTVSPropertyOp28
 70
     1
102
RTVSPropertyOp29
 70
     1
102
RTVSPropertyOp30
 70
     1
102
RTVSPropertyOp31
 70
     1
102
RTVSPropertyOp32
 70
     1
  0
XRECORD
  5
F109F9
102
{ACAD_REACTORS
330
F109F8
102
}
330
F109F8
100
AcDbXrecord
280
     1
102
RTVSPropertyOp0
 70
     1
102
RTVSPropertyOp1
 70
     1
102
RTVSPropertyOp2
 70
     1
102
RTVSPropertyOp3
 70
     1
102
RTVSPropertyOp4
 70
     1
102
RTVSPropertyOp5
 70
     1
102
RTVSPropertyOp6
 70
     1
102
RTVSPropertyOp7
 70
     1
102
RTVSPropertyOp8
 70
     1
102
RTVSPropertyOp9
 70
     1
102
RTVSPropertyOp10
 70
     1
102
RTVSPropertyOp11
 70
     1
102
RTVSPropertyOp12
 70
     1
102
RTVSPropertyOp13
 70
     1
102
RTVSPropertyOp14
 70
     1
102
RTVSPropertyOp15
 70
     1
102
RTVSPropertyOp16
 70
     1
102
RTVSPropertyOp17
 70
     1
102
RTVSPropertyOp18
 70
     1
102
RTVSPropertyOp19
 70
     1
102
RTVSPropertyOp20
 70
     1
102
RTVSPropertyOp21
 70
     1
102
RTVSPropertyOp22
 70
     1
102
RTVSPropertyOp23
 70
     1
102
RTVSPropertyOp24
 70
     1
102
RTVSPropertyOp25
 70
     1
102
RTVSPropertyOp26
 70
     1
102
RTVSPropertyOp27
 70
     1
102
RTVSPropertyOp28
 70
     1
102
RTVSPropertyOp29
 70
     1
102
RTVSPropertyOp30
 70
     1
102
RTVSPropertyOp31
 70
     1
102
RTVSPropertyOp32
 70
     1
  0
XRECORD
  5
F109DD
102
{ACAD_REACTORS
330
F109DC
102
}
330
F109DC
100
AcDbXrecord
280
     1
102
RTVSPropertyOp0
 70
     1
102
RTVSPropertyOp1
 70
     1
102
RTVSPropertyOp2
 70
     1
102
RTVSPropertyOp3
 70
     1
102
RTVSPropertyOp4
 70
     1
102
RTVSPropertyOp5
 70
     1
102
RTVSPropertyOp6
 70
     1
102
RTVSPropertyOp7
 70
     1
102
RTVSPropertyOp8
 70
     1
102
RTVSPropertyOp9
 70
     1
102
RTVSPropertyOp10
 70
     1
102
RTVSPropertyOp11
 70
     1
102
RTVSPropertyOp12
 70
     1
102
RTVSPropertyOp13
 70
     1
102
RTVSPropertyOp14
 70
     1
102
RTVSPropertyOp15
 70
     1
102
RTVSPropertyOp16
 70
     1
102
RTVSPropertyOp17
 70
     1
102
RTVSPropertyOp18
 70
     1
102
RTVSPropertyOp19
 70
     1
102
RTVSPropertyOp20
 70
     1
102
RTVSPropertyOp21
 70
     1
102
RTVSPropertyOp22
 70
     1
102
RTVSPropertyOp23
 70
     1
102
RTVSPropertyOp24
 70
     1
102
RTVSPropertyOp25
 70
     1
102
RTVSPropertyOp26
 70
     1
102
RTVSPropertyOp27
 70
     1
102
RTVSPropertyOp28
 70
     1
102
RTVSPropertyOp29
 70
     1
102
RTVSPropertyOp30
 70
     1
102
RTVSPropertyOp31
 70
     1
102
RTVSPropertyOp32
 70
     1
  0
XRECORD
  5
F109DF
102
{ACAD_REACTORS
330
F109DE
102
}
330
F109DE
100
AcDbXrecord
280
     1
102
RTVSPropertyOp0
 70
     1
102
RTVSPropertyOp1
 70
     1
102
RTVSPropertyOp2
 70
     1
102
RTVSPropertyOp3
 70
     1
102
RTVSPropertyOp4
 70
     1
102
RTVSPropertyOp5
 70
     1
102
RTVSPropertyOp6
 70
     1
102
RTVSPropertyOp7
 70
     1
102
RTVSPropertyOp8
 70
     1
102
RTVSPropertyOp9
 70
     1
102
RTVSPropertyOp10
 70
     1
102
RTVSPropertyOp11
 70
     1
102
RTVSPropertyOp12
 70
     1
102
RTVSPropertyOp13
 70
     1
102
RTVSPropertyOp14
 70
     1
102
RTVSPropertyOp15
 70
     1
102
RTVSPropertyOp16
 70
     1
102
RTVSPropertyOp17
 70
     1
102
RTVSPropertyOp18
 70
     1
102
RTVSPropertyOp19
 70
     1
102
RTVSPropertyOp20
 70
     1
102
RTVSPropertyOp21
 70
     1
102
RTVSPropertyOp22
 70
     1
102
RTVSPropertyOp23
 70
     1
102
RTVSPropertyOp24
 70
     1
102
RTVSPropertyOp25
 70
     1
102
RTVSPropertyOp26
 70
     1
102
RTVSPropertyOp27
 70
     1
102
RTVSPropertyOp28
 70
     1
102
RTVSPropertyOp29
 70
     1
102
RTVSPropertyOp30
 70
     1
102
RTVSPropertyOp31
 70
     1
102
RTVSPropertyOp32
 70
     1
  0
XRECORD
  5
F109E1
102
{ACAD_REACTORS
330
F109E0
102
}
330
F109E0
100
AcDbXrecord
280
     1
102
RTVSPropertyOp0
 70
     1
102
RTVSPropertyOp1
 70
     1
102
RTVSPropertyOp2
 70
     1
102
RTVSPropertyOp3
 70
     1
102
RTVSPropertyOp4
 70
     1
102
RTVSPropertyOp5
 70
     1
102
RTVSPropertyOp6
 70
     1
102
RTVSPropertyOp7
 70
     1
102
RTVSPropertyOp8
 70
     1
102
RTVSPropertyOp9
 70
     1
102
RTVSPropertyOp10
 70
     1
102
RTVSPropertyOp11
 70
     1
102
RTVSPropertyOp12
 70
     1
102
RTVSPropertyOp13
 70
     1
102
RTVSPropertyOp14
 70
     1
102
RTVSPropertyOp15
 70
     1
102
RTVSPropertyOp16
 70
     1
102
RTVSPropertyOp17
 70
     1
102
RTVSPropertyOp18
 70
     1
102
RTVSPropertyOp19
 70
     1
102
RTVSPropertyOp20
 70
     1
102
RTVSPropertyOp21
 70
     1
102
RTVSPropertyOp22
 70
     1
102
RTVSPropertyOp23
 70
     1
102
RTVSPropertyOp24
 70
     1
102
RTVSPropertyOp25
 70
     1
102
RTVSPropertyOp26
 70
     1
102
RTVSPropertyOp27
 70
     1
102
RTVSPropertyOp28
 70
     1
102
RTVSPropertyOp29
 70
     1
102
RTVSPropertyOp30
 70
     1
102
RTVSPropertyOp31
 70
     1
102
RTVSPropertyOp32
 70
     1
  0
XRECORD
  5
F109E3
102
{ACAD_REACTORS
330
F109E2
102
}
330
F109E2
100
AcDbXrecord
280
     1
102
RTVSPropertyOp0
 70
     1
102
RTVSPropertyOp1
 70
     1
102
RTVSPropertyOp2
 70
     1
102
RTVSPropertyOp3
 70
     1
102
RTVSPropertyOp4
 70
     1
102
RTVSPropertyOp5
 70
     1
102
RTVSPropertyOp6
 70
     1
102
RTVSPropertyOp7
 70
     1
102
RTVSPropertyOp8
 70
     1
102
RTVSPropertyOp9
 70
     1
102
RTVSPropertyOp10
 70
     1
102
RTVSPropertyOp11
 70
     1
102
RTVSPropertyOp12
 70
     1
102
RTVSPropertyOp13
 70
     1
102
RTVSPropertyOp14
 70
     1
102
RTVSPropertyOp15
 70
     1
102
RTVSPropertyOp16
 70
     1
102
RTVSPropertyOp17
 70
     1
102
RTVSPropertyOp18
 70
     1
102
RTVSPropertyOp19
 70
     1
102
RTVSPropertyOp20
 70
     1
102
RTVSPropertyOp21
 70
     1
102
RTVSPropertyOp22
 70
     1
102
RTVSPropertyOp23
 70
     1
102
RTVSPropertyOp24
 70
     1
102
RTVSPropertyOp25
 70
     1
102
RTVSPropertyOp26
 70
     1
102
RTVSPropertyOp27
 70
     1
102
RTVSPropertyOp28
 70
     1
102
RTVSPropertyOp29
 70
     1
102
RTVSPropertyOp30
 70
     1
102
RTVSPropertyOp31
 70
     1
102
RTVSPropertyOp32
 70
     1
  0
XRECORD
  5
F10A0A
102
{ACAD_REACTORS
330
F10A09
102
}
330
F10A09
100
AcDbXrecord
280
     1
102
RTVSPropertyOp0
 70
     1
102
RTVSPropertyOp1
 70
     1
102
RTVSPropertyOp2
 70
     1
102
RTVSPropertyOp3
 70
     1
102
RTVSPropertyOp4
 70
     1
102
RTVSPropertyOp5
 70
     1
102
RTVSPropertyOp6
 70
     1
102
RTVSPropertyOp7
 70
     1
102
RTVSPropertyOp8
 70
     1
102
RTVSPropertyOp9
 70
     1
102
RTVSPropertyOp10
 70
     1
102
RTVSPropertyOp11
 70
     1
102
RTVSPropertyOp12
 70
     1
102
RTVSPropertyOp13
 70
     1
102
RTVSPropertyOp14
 70
     1
102
RTVSPropertyOp15
 70
     1
102
RTVSPropertyOp16
 70
     1
102
RTVSPropertyOp17
 70
     1
102
RTVSPropertyOp18
 70
     1
102
RTVSPropertyOp19
 70
     1
102
RTVSPropertyOp20
 70
     1
102
RTVSPropertyOp21
 70
     1
102
RTVSPropertyOp22
 70
     1
102
RTVSPropertyOp23
 70
     1
102
RTVSPropertyOp24
 70
     1
102
RTVSPropertyOp25
 70
     1
102
RTVSPropertyOp26
 70
     1
102
RTVSPropertyOp27
 70
     1
102
RTVSPropertyOp28
 70
     1
102
RTVSPropertyOp29
 70
     1
102
RTVSPropertyOp30
 70
     1
102
RTVSPropertyOp31
 70
     1
102
RTVSPropertyOp32
 70
     1
  0
XRECORD
  5
F109FD
102
{ACAD_REACTORS
330
F109FC
102
}
330
F109FC
100
AcDbXrecord
280
     1
102
RTVSPropertyOp0
 70
     0
102
RTVSPropertyOp1
 70
     0
102
RTVSPropertyOp2
 70
     0
102
RTVSPropertyOp3
 70
     0
102
RTVSPropertyOp4
 70
     0
102
RTVSPropertyOp5
 70
     0
102
RTVSPropertyOp6
 70
     0
102
RTVSPropertyOp7
 70
     0
102
RTVSPropertyOp8
 70
     0
102
RTVSPropertyOp9
 70
     0
102
RTVSPropertyOp10
 70
     0
102
RTVSPropertyOp11
 70
     0
102
RTVSPropertyOp12
 70
     0
102
RTVSPropertyOp13
 70
     0
102
RTVSPropertyOp14
 70
     2
102
RTVSPropertyOp15
 70
     0
102
RTVSPropertyOp16
 70
     0
102
RTVSPropertyOp17
 70
     0
102
RTVSPropertyOp18
 70
     0
102
RTVSPropertyOp19
 70
     0
102
RTVSPropertyOp20
 70
     0
102
RTVSPropertyOp21
 70
     0
102
RTVSPropertyOp22
 70
     0
102
RTVSPropertyOp23
 70
     0
102
RTVSPropertyOp24
 70
     0
102
RTVSPropertyOp25
 70
     0
102
RTVSPropertyOp26
 70
     0
102
RTVSPropertyOp27
 70
     0
102
RTVSPropertyOp28
 70
     1
102
RTVSPropertyOp29
 70
     1
102
RTVSPropertyOp30
 70
     1
102
RTVSPropertyOp31
 70
     1
102
RTVSPropertyOp32
 70
     1
  0
XRECORD
  5
F109F7
102
{ACAD_REACTORS
330
F109F6
102
}
330
F109F6
100
AcDbXrecord
280
     1
102
RTVSPropertyOp0
 70
     1
102
RTVSPropertyOp1
 70
     1
102
RTVSPropertyOp2
 70
     1
102
RTVSPropertyOp3
 70
     1
102
RTVSPropertyOp4
 70
     1
102
RTVSPropertyOp5
 70
     1
102
RTVSPropertyOp6
 70
     1
102
RTVSPropertyOp7
 70
     1
102
RTVSPropertyOp8
 70
     1
102
RTVSPropertyOp9
 70
     1
102
RTVSPropertyOp10
 70
     1
102
RTVSPropertyOp11
 70
     1
102
RTVSPropertyOp12
 70
     1
102
RTVSPropertyOp13
 70
     1
102
RTVSPropertyOp14
 70
     1
102
RTVSPropertyOp15
 70
     1
102
RTVSPropertyOp16
 70
     1
102
RTVSPropertyOp17
 70
     1
102
RTVSPropertyOp18
 70
     1
102
RTVSPropertyOp19
 70
     1
102
RTVSPropertyOp20
 70
     1
102
RTVSPropertyOp21
 70
     1
102
RTVSPropertyOp22
 70
     1
102
RTVSPropertyOp23
 70
     1
102
RTVSPropertyOp24
 70
     1
102
RTVSPropertyOp25
 70
     1
102
RTVSPropertyOp26
 70
     1
102
RTVSPropertyOp27
 70
     1
102
RTVSPropertyOp28
 70
     1
102
RTVSPropertyOp29
 70
     1
102
RTVSPropertyOp30
 70
     1
102
RTVSPropertyOp31
 70
     1
102
RTVSPropertyOp32
 70
     1
  0
XRECORD
  5
F109FF
102
{ACAD_REACTORS
330
F109FE
102
}
330
F109FE
100
AcDbXrecord
280
     1
102
RTVSPropertyOp0
 70
     0
102
RTVSPropertyOp1
 70
     0
102
RTVSPropertyOp2
 70
     0
102
RTVSPropertyOp3
 70
     0
102
RTVSPropertyOp4
 70
     0
102
RTVSPropertyOp5
 70
     0
102
RTVSPropertyOp6
 70
     0
102
RTVSPropertyOp7
 70
     0
102
RTVSPropertyOp8
 70
     0
102
RTVSPropertyOp9
 70
     0
102
RTVSPropertyOp10
 70
     0
102
RTVSPropertyOp11
 70
     0
102
RTVSPropertyOp12
 70
     0
102
RTVSPropertyOp13
 70
     0
102
RTVSPropertyOp14
 70
     2
102
RTVSPropertyOp15
 70
     0
102
RTVSPropertyOp16
 70
     0
102
RTVSPropertyOp17
 70
     0
102
RTVSPropertyOp18
 70
     0
102
RTVSPropertyOp19
 70
     0
102
RTVSPropertyOp20
 70
     0
102
RTVSPropertyOp21
 70
     0
102
RTVSPropertyOp22
 70
     0
102
RTVSPropertyOp23
 70
     0
102
RTVSPropertyOp24
 70
     0
102
RTVSPropertyOp25
 70
     0
102
RTVSPropertyOp26
 70
     0
102
RTVSPropertyOp27
 70
     0
102
RTVSPropertyOp28
 70
     1
102
RTVSPropertyOp29
 70
     1
102
RTVSPropertyOp30
 70
     1
102
RTVSPropertyOp31
 70
     1
102
RTVSPropertyOp32
 70
     1
  0
XRECORD
  5
F109EF
102
{ACAD_REACTORS
330
F109EE
102
}
330
F109EE
100
AcDbXrecord
280
     1
102
RTVSPropertyOp0
 70
     1
102
RTVSPropertyOp1
 70
     1
102
RTVSPropertyOp2
 70
     1
102
RTVSPropertyOp3
 70
     1
102
RTVSPropertyOp4
 70
     1
102
RTVSPropertyOp5
 70
     1
102
RTVSPropertyOp6
 70
     1
102
RTVSPropertyOp7
 70
     1
102
RTVSPropertyOp8
 70
     1
102
RTVSPropertyOp9
 70
     1
102
RTVSPropertyOp10
 70
     1
102
RTVSPropertyOp11
 70
     1
102
RTVSPropertyOp12
 70
     1
102
RTVSPropertyOp13
 70
     1
102
RTVSPropertyOp14
 70
     1
102
RTVSPropertyOp15
 70
     1
102
RTVSPropertyOp16
 70
     1
102
RTVSPropertyOp17
 70
     1
102
RTVSPropertyOp18
 70
     1
102
RTVSPropertyOp19
 70
     1
102
RTVSPropertyOp20
 70
     1
102
RTVSPropertyOp21
 70
     1
102
RTVSPropertyOp22
 70
     1
102
RTVSPropertyOp23
 70
     1
102
RTVSPropertyOp24
 70
     1
102
RTVSPropertyOp25
 70
     1
102
RTVSPropertyOp26
 70
     1
102
RTVSPropertyOp27
 70
     1
102
RTVSPropertyOp28
 70
     1
102
RTVSPropertyOp29
 70
     1
102
RTVSPropertyOp30
 70
     1
102
RTVSPropertyOp31
 70
     1
102
RTVSPropertyOp32
 70
     1
  0
XRECORD
  5
F10A14
102
{ACAD_REACTORS
330
F10A13
102
}
330
F10A13
100
AcDbXrecord
280
     1
102
RTVSPropertyOp0
 70
     1
102
RTVSPropertyOp1
 70
     1
102
RTVSPropertyOp2
 70
     1
102
RTVSPropertyOp3
 70
     1
102
RTVSPropertyOp4
 70
     1
102
RTVSPropertyOp5
 70
     1
102
RTVSPropertyOp6
 70
     1
102
RTVSPropertyOp7
 70
     1
102
RTVSPropertyOp8
 70
     1
102
RTVSPropertyOp9
 70
     1
102
RTVSPropertyOp10
 70
     1
102
RTVSPropertyOp11
 70
     1
102
RTVSPropertyOp12
 70
     1
102
RTVSPropertyOp13
 70
     1
102
RTVSPropertyOp14
 70
     1
102
RTVSPropertyOp15
 70
     1
102
RTVSPropertyOp16
 70
     1
102
RTVSPropertyOp17
 70
     1
102
RTVSPropertyOp18
 70
     1
102
RTVSPropertyOp19
 70
     1
102
RTVSPropertyOp20
 70
     1
102
RTVSPropertyOp21
 70
     1
102
RTVSPropertyOp22
 70
     1
102
RTVSPropertyOp23
 70
     1
102
RTVSPropertyOp24
 70
     1
102
RTVSPropertyOp25
 70
     1
102
RTVSPropertyOp26
 70
     1
102
RTVSPropertyOp27
 70
     1
102
RTVSPropertyOp28
 70
     1
102
RTVSPropertyOp29
 70
     1
102
RTVSPropertyOp30
 70
     1
102
RTVSPropertyOp31
 70
     1
102
RTVSPropertyOp32
 70
     1
  0
XRECORD
  5
F10A12
102
{ACAD_REACTORS
330
F10A11
102
}
330
F10A11
100
AcDbXrecord
280
     1
102
RTVSPropertyOp0
 70
     1
102
RTVSPropertyOp1
 70
     1
102
RTVSPropertyOp2
 70
     1
102
RTVSPropertyOp3
 70
     1
102
RTVSPropertyOp4
 70
     1
102
RTVSPropertyOp5
 70
     1
102
RTVSPropertyOp6
 70
     1
102
RTVSPropertyOp7
 70
     1
102
RTVSPropertyOp8
 70
     1
102
RTVSPropertyOp9
 70
     1
102
RTVSPropertyOp10
 70
     1
102
RTVSPropertyOp11
 70
     1
102
RTVSPropertyOp12
 70
     1
102
RTVSPropertyOp13
 70
     1
102
RTVSPropertyOp14
 70
     1
102
RTVSPropertyOp15
 70
     1
102
RTVSPropertyOp16
 70
     1
102
RTVSPropertyOp17
 70
     1
102
RTVSPropertyOp18
 70
     1
102
RTVSPropertyOp19
 70
     1
102
RTVSPropertyOp20
 70
     1
102
RTVSPropertyOp21
 70
     1
102
RTVSPropertyOp22
 70
     1
102
RTVSPropertyOp23
 70
     1
102
RTVSPropertyOp24
 70
     1
102
RTVSPropertyOp25
 70
     1
102
RTVSPropertyOp26
 70
     1
102
RTVSPropertyOp27
 70
     1
102
RTVSPropertyOp28
 70
     1
102
RTVSPropertyOp29
 70
     1
102
RTVSPropertyOp30
 70
     1
102
RTVSPropertyOp31
 70
     1
102
RTVSPropertyOp32
 70
     1
  0
XRECORD
  5
F10A0C
102
{ACAD_REACTORS
330
F10A0B
102
}
330
F10A0B
100
AcDbXrecord
280
     1
102
RTVSPropertyOp0
 70
     1
102
RTVSPropertyOp1
 70
     1
102
RTVSPropertyOp2
 70
     1
102
RTVSPropertyOp3
 70
     1
102
RTVSPropertyOp4
 70
     1
102
RTVSPropertyOp5
 70
     1
102
RTVSPropertyOp6
 70
     1
102
RTVSPropertyOp7
 70
     1
102
RTVSPropertyOp8
 70
     1
102
RTVSPropertyOp9
 70
     1
102
RTVSPropertyOp10
 70
     1
102
RTVSPropertyOp11
 70
     1
102
RTVSPropertyOp12
 70
     1
102
RTVSPropertyOp13
 70
     1
102
RTVSPropertyOp14
 70
     1
102
RTVSPropertyOp15
 70
     1
102
RTVSPropertyOp16
 70
     1
102
RTVSPropertyOp17
 70
     1
102
RTVSPropertyOp18
 70
     1
102
RTVSPropertyOp19
 70
     1
102
RTVSPropertyOp20
 70
     1
102
RTVSPropertyOp21
 70
     1
102
RTVSPropertyOp22
 70
     1
102
RTVSPropertyOp23
 70
     1
102
RTVSPropertyOp24
 70
     1
102
RTVSPropertyOp25
 70
     1
102
RTVSPropertyOp26
 70
     1
102
RTVSPropertyOp27
 70
     1
102
RTVSPropertyOp28
 70
     1
102
RTVSPropertyOp29
 70
     1
102
RTVSPropertyOp30
 70
     1
102
RTVSPropertyOp31
 70
     1
102
RTVSPropertyOp32
 70
     1
  0
XRECORD
  5
F10A0E
102
{ACAD_REACTORS
330
F10A0D
102
}
330
F10A0D
100
AcDbXrecord
280
     1
102
RTVSPropertyOp0
 70
     1
102
RTVSPropertyOp1
 70
     1
102
RTVSPropertyOp2
 70
     1
102
RTVSPropertyOp3
 70
     1
102
RTVSPropertyOp4
 70
     1
102
RTVSPropertyOp5
 70
     1
102
RTVSPropertyOp6
 70
     1
102
RTVSPropertyOp7
 70
     1
102
RTVSPropertyOp8
 70
     1
102
RTVSPropertyOp9
 70
     1
102
RTVSPropertyOp10
 70
     1
102
RTVSPropertyOp11
 70
     1
102
RTVSPropertyOp12
 70
     1
102
RTVSPropertyOp13
 70
     1
102
RTVSPropertyOp14
 70
     1
102
RTVSPropertyOp15
 70
     1
102
RTVSPropertyOp16
 70
     1
102
RTVSPropertyOp17
 70
     1
102
RTVSPropertyOp18
 70
     1
102
RTVSPropertyOp19
 70
     1
102
RTVSPropertyOp20
 70
     1
102
RTVSPropertyOp21
 70
     1
102
RTVSPropertyOp22
 70
     1
102
RTVSPropertyOp23
 70
     1
102
RTVSPropertyOp24
 70
     1
102
RTVSPropertyOp25
 70
     1
102
RTVSPropertyOp26
 70
     1
102
RTVSPropertyOp27
 70
     1
102
RTVSPropertyOp28
 70
     1
102
RTVSPropertyOp29
 70
     1
102
RTVSPropertyOp30
 70
     1
102
RTVSPropertyOp31
 70
     1
102
RTVSPropertyOp32
 70
     1
  0
XRECORD
  5
F109F5
102
{ACAD_REACTORS
330
F109F4
102
}
330
F109F4
100
AcDbXrecord
280
     1
102
RTVSPropertyOp0
 70
     1
102
RTVSPropertyOp1
 70
     1
102
RTVSPropertyOp2
 70
     1
102
RTVSPropertyOp3
 70
     1
102
RTVSPropertyOp4
 70
     1
102
RTVSPropertyOp5
 70
     1
102
RTVSPropertyOp6
 70
     1
102
RTVSPropertyOp7
 70
     1
102
RTVSPropertyOp8
 70
     1
102
RTVSPropertyOp9
 70
     1
102
RTVSPropertyOp10
 70
     1
102
RTVSPropertyOp11
 70
     1
102
RTVSPropertyOp12
 70
     1
102
RTVSPropertyOp13
 70
     1
102
RTVSPropertyOp14
 70
     1
102
RTVSPropertyOp15
 70
     1
102
RTVSPropertyOp16
 70
     1
102
RTVSPropertyOp17
 70
     1
102
RTVSPropertyOp18
 70
     1
102
RTVSPropertyOp19
 70
     1
102
RTVSPropertyOp20
 70
     1
102
RTVSPropertyOp21
 70
     1
102
RTVSPropertyOp22
 70
     1
102
RTVSPropertyOp23
 70
     1
102
RTVSPropertyOp24
 70
     1
102
RTVSPropertyOp25
 70
     1
102
RTVSPropertyOp26
 70
     1
102
RTVSPropertyOp27
 70
     1
102
RTVSPropertyOp28
 70
     1
102
RTVSPropertyOp29
 70
     1
102
RTVSPropertyOp30
 70
     1
102
RTVSPropertyOp31
 70
     1
102
RTVSPropertyOp32
 70
     1
  0
XRECORD
  5
F10A08
102
{ACAD_REACTORS
330
F10A07
102
}
330
F10A07
100
AcDbXrecord
280
     1
102
RTVSPropertyOp0
 70
     1
102
RTVSPropertyOp1
 70
     1
102
RTVSPropertyOp2
 70
     1
102
RTVSPropertyOp3
 70
     1
102
RTVSPropertyOp4
 70
     1
102
RTVSPropertyOp5
 70
     1
102
RTVSPropertyOp6
 70
     1
102
RTVSPropertyOp7
 70
     1
102
RTVSPropertyOp8
 70
     1
102
RTVSPropertyOp9
 70
     1
102
RTVSPropertyOp10
 70
     1
102
RTVSPropertyOp11
 70
     1
102
RTVSPropertyOp12
 70
     1
102
RTVSPropertyOp13
 70
     1
102
RTVSPropertyOp14
 70
     1
102
RTVSPropertyOp15
 70
     1
102
RTVSPropertyOp16
 70
     1
102
RTVSPropertyOp17
 70
     1
102
RTVSPropertyOp18
 70
     1
102
RTVSPropertyOp19
 70
     1
102
RTVSPropertyOp20
 70
     1
102
RTVSPropertyOp21
 70
     1
102
RTVSPropertyOp22
 70
     1
102
RTVSPropertyOp23
 70
     1
102
RTVSPropertyOp24
 70
     1
102
RTVSPropertyOp25
 70
     1
102
RTVSPropertyOp26
 70
     1
102
RTVSPropertyOp27
 70
     1
102
RTVSPropertyOp28
 70
     1
102
RTVSPropertyOp29
 70
     1
102
RTVSPropertyOp30
 70
     1
102
RTVSPropertyOp31
 70
     1
102
RTVSPropertyOp32
 70
     1
  0
XRECORD
  5
F10A10
102
{ACAD_REACTORS
330
F10A0F
102
}
330
F10A0F
100
AcDbXrecord
280
     1
102
RTVSPropertyOp0
 70
     1
102
RTVSPropertyOp1
 70
     1
102
RTVSPropertyOp2
 70
     1
102
RTVSPropertyOp3
 70
     1
102
RTVSPropertyOp4
 70
     1
102
RTVSPropertyOp5
 70
     1
102
RTVSPropertyOp6
 70
     1
102
RTVSPropertyOp7
 70
     1
102
RTVSPropertyOp8
 70
     1
102
RTVSPropertyOp9
 70
     1
102
RTVSPropertyOp10
 70
     1
102
RTVSPropertyOp11
 70
     1
102
RTVSPropertyOp12
 70
     1
102
RTVSPropertyOp13
 70
     1
102
RTVSPropertyOp14
 70
     1
102
RTVSPropertyOp15
 70
     1
102
RTVSPropertyOp16
 70
     1
102
RTVSPropertyOp17
 70
     1
102
RTVSPropertyOp18
 70
     1
102
RTVSPropertyOp19
 70
     1
102
RTVSPropertyOp20
 70
     1
102
RTVSPropertyOp21
 70
     1
102
RTVSPropertyOp22
 70
     1
102
RTVSPropertyOp23
 70
     1
102
RTVSPropertyOp24
 70
     1
102
RTVSPropertyOp25
 70
     1
102
RTVSPropertyOp26
 70
     1
102
RTVSPropertyOp27
 70
     1
102
RTVSPropertyOp28
 70
     1
102
RTVSPropertyOp29
 70
     1
102
RTVSPropertyOp30
 70
     1
102
RTVSPropertyOp31
 70
     1
102
RTVSPropertyOp32
 70
     1
  0
ENDSEC
  0
EOF
