  0
SECTION
  2
HEADER
  9
$ACADVER
  1
AC1015
  9
$ACADMAINTVER
 70
    20
  9
$DWGCODEPAGE
  3
ANSI_1252
  9
$INSBASE
 10
0.0
 20
0.0
 30
0.0
  9
$EXTMIN
 10
-134.524070021882
 20
-100.175054704595
 30
0.0
  9
$EXTMAX
 10
143.484682713348
 20
99.945295404814
 30
0.0
  9
$LIMMIN
 10
0.0
 20
0.0
  9
$LIMMAX
 10
12.0
 20
9.0
  9
$ORTHOMODE
 70
     0
  9
$REGENMODE
 70
     1
  9
$FILLMODE
 70
     1
  9
$QTEXTMODE
 70
     0
  9
$MIRRTEXT
 70
     1
  9
$LTSCALE
 40
1.0
  9
$ATTMODE
 70
     1
  9
$TEXTSIZE
 40
0.2
  9
$TRACEWID
 40
0.05
  9
$TEXTSTYLE
  7
Standard
  9
$CLAYER
  8
0
  9
$CELTYPE
  6
ByLayer
  9
$CECOLOR
 62
   256
  9
$CELTSCALE
 40
1.0
  9
$DISPSILH
 70
     0
  9
$DIMSCALE
 40
1.0
  9
$DIMASZ
 40
2.5
  9
$DIMEXO
 40
0.625
  9
$DIMDLI
 40
0.38
  9
$DIMRND
 40
0.0
  9
$DIMDLE
 40
0.0
  9
$DIMEXE
 40
1.25
  9
$DIMTP
 40
0.0
  9
$DIMTM
 40
0.000000001
  9
$DIMTXT
 40
2.5
  9
$DIMCEN
 40
0.09
  9
$DIMTSZ
 40
0.0
  9
$DIMTOL
 70
     1
  9
$DIMLIM
 70
     0
  9
$DIMTIH
 70
     0
  9
$DIMTOH
 70
     0
  9
$DIMSE1
 70
     0
  9
$DIMSE2
 70
     0
  9
$DIMTAD
 70
     1
  9
$DIMZIN
 70
     0
  9
$DIMBLK
  1
VDDIM_DEFAULT
  9
$DIMASO
 70
     1
  9
$DIMSHO
 70
     1
  9
$DIMPOST
  1

  9
$DIMAPOST
  1

  9
$DIMALT
 70
     0
  9
$DIMALTD
 70
     2
  9
$DIMALTF
 40
25.4
  9
$DIMLFAC
 40
1.0
  9
$DIMTOFL
 70
     0
  9
$DIMTVP
 40
0.0
  9
$DIMTIX
 70
     0
  9
$DIMSOXD
 70
     0
  9
$DIMSAH
 70
     0
  9
$DIMBLK1
  1

  9
$DIMBLK2
  1

  9
$DIMSTYLE
  2
BEM-ISBE
  9
$DIMCLRD
 70
     0
  9
$DIMCLRE
 70
     0
  9
$DIMCLRT
 70
     0
  9
$DIMTFAC
 40
0.5
  9
$DIMGAP
 40
0.625
  9
$DIMJUST
 70
     0
  9
$DIMSD1
 70
     0
  9
$DIMSD2
 70
     0
  9
$DIMTOLJ
 70
     1
  9
$DIMTZIN
 70
     0
  9
$DIMALTZ
 70
     0
  9
$DIMALTTZ
 70
     0
  9
$DIMUPT
 70
     0
  9
$DIMDEC
 70
     3
  9
$DIMTDEC
 70
     3
  9
$DIMALTU
 70
     2
  9
$DIMALTTD
 70
     2
  9
$DIMTXSTY
  7
Standard
  9
$DIMAUNIT
 70
     0
  9
$DIMADEC
 70
     3
  9
$DIMALTRND
 40
0.0
  9
$DIMAZIN
 70
     0
  9
$DIMDSEP
 70
    46
  9
$DIMATFIT
 70
     3
  9
$DIMFRAC
 70
     0
  9
$DIMLDRBLK
  1

  9
$DIMLUNIT
 70
     2
  9
$DIMLWD
 70
    -2
  9
$DIMLWE
 70
    -2
  9
$DIMTMOVE
 70
     0
  9
$LUNITS
 70
     2
  9
$LUPREC
 70
     4
  9
$SKETCHINC
 40
0.1
  9
$FILLETRAD
 40
0.5
  9
$AUNITS
 70
     0
  9
$AUPREC
 70
     0
  9
$MENU
  1
.
  9
$ELEVATION
 40
0.0
  9
$PELEVATION
 40
0.0
  9
$THICKNESS
 40
0.0
  9
$LIMCHECK
 70
     0
  9
$CHAMFERA
 40
0.5
  9
$CHAMFERB
 40
0.5
  9
$CHAMFERC
 40
1.0
  9
$CHAMFERD
 40
0.0
  9
$SKPOLY
 70
     0
  9
$TDCREATE
 40
2456884.312375278
  9
$TDUCREATE
 40
2456884.229041944
  9
$TDUPDATE
 40
2456884.406422269
  9
$TDUUPDATE
 40
2456884.323088935
  9
$TDINDWG
 40
0.0160544213
  9
$TDUSRTIMER
 40
0.0160543403
  9
$USRTIMER
 70
     1
  9
$ANGBASE
 50
0.0
  9
$ANGDIR
 70
     0
  9
$PDMODE
 70
     0
  9
$PDSIZE
 40
0.0
  9
$PLINEWID
 40
0.0
  9
$SPLFRAME
 70
     0
  9
$SPLINETYPE
 70
     6
  9
$SPLINESEGS
 70
     8
  9
$HANDSEED
  5
F10756
  9
$SURFTAB1
 70
     6
  9
$SURFTAB2
 70
     6
  9
$SURFTYPE
 70
     6
  9
$SURFU
 70
     6
  9
$SURFV
 70
     6
  9
$UCSBASE
  2

  9
$UCSNAME
  2

  9
$UCSORG
 10
-15.64319823932264
 20
0.6637500516577594
 30
0.0
  9
$UCSXDIR
 10
1.0
 20
0.0
 30
0.0
  9
$UCSYDIR
 10
0.0
 20
1.0
 30
0.0
  9
$UCSORTHOREF
  2

  9
$UCSORTHOVIEW
 70
     0
  9
$UCSORGTOP
 10
0.0
 20
0.0
 30
0.0
  9
$UCSORGBOTTOM
 10
0.0
 20
0.0
 30
0.0
  9
$UCSORGLEFT
 10
0.0
 20
0.0
 30
0.0
  9
$UCSORGRIGHT
 10
0.0
 20
0.0
 30
0.0
  9
$UCSORGFRONT
 10
0.0
 20
0.0
 30
0.0
  9
$UCSORGBACK
 10
0.0
 20
0.0
 30
0.0
  9
$PUCSBASE
  2

  9
$PUCSNAME
  2

  9
$PUCSORG
 10
0.0
 20
0.0
 30
0.0
  9
$PUCSXDIR
 10
1.0
 20
0.0
 30
0.0
  9
$PUCSYDIR
 10
0.0
 20
1.0
 30
0.0
  9
$PUCSORTHOREF
  2

  9
$PUCSORTHOVIEW
 70
     0
  9
$PUCSORGTOP
 10
0.0
 20
0.0
 30
0.0
  9
$PUCSORGBOTTOM
 10
0.0
 20
0.0
 30
0.0
  9
$PUCSORGLEFT
 10
0.0
 20
0.0
 30
0.0
  9
$PUCSORGRIGHT
 10
0.0
 20
0.0
 30
0.0
  9
$PUCSORGFRONT
 10
0.0
 20
0.0
 30
0.0
  9
$PUCSORGBACK
 10
0.0
 20
0.0
 30
0.0
  9
$USERI1
 70
     0
  9
$USERI2
 70
     0
  9
$USERI3
 70
     0
  9
$USERI4
 70
     0
  9
$USERI5
 70
     0
  9
$USERR1
 40
0.0
  9
$USERR2
 40
0.0
  9
$USERR3
 40
0.0
  9
$USERR4
 40
0.0
  9
$USERR5
 40
0.0
  9
$WORLDVIEW
 70
     1
  9
$SHADEDGE
 70
     3
  9
$SHADEDIF
 70
    70
  9
$TILEMODE
 70
     1
  9
$MAXACTVP
 70
    64
  9
$PINSBASE
 10
0.0
 20
0.0
 30
0.0
  9
$PLIMCHECK
 70
     0
  9
$PEXTMIN
 10
1.000000000000000E+20
 20
1.000000000000000E+20
 30
1.000000000000000E+20
  9
$PEXTMAX
 10
-1.000000000000000E+20
 20
-1.000000000000000E+20
 30
-1.000000000000000E+20
  9
$PLIMMIN
 10
0.0
 20
0.0
  9
$PLIMMAX
 10
12.0
 20
9.0
  9
$UNITMODE
 70
     0
  9
$VISRETAIN
 70
     1
  9
$PLINEGEN
 70
     0
  9
$PSLTSCALE
 70
     1
  9
$TREEDEPTH
 70
  3020
  9
$CMLSTYLE
  2
Standard
  9
$CMLJUST
 70
     0
  9
$CMLSCALE
 40
1.0
  9
$PROXYGRAPHICS
 70
     1
  9
$MEASUREMENT
 70
     0
  9
$CELWEIGHT
370
    -1
  9
$ENDCAPS
280
     0
  9
$JOINSTYLE
280
     0
  9
$LWDISPLAY
290
     0
  9
$INSUNITS
 70
     4
  9
$HYPERLINKBASE
  1

  9
$STYLESHEET
  1

  9
$XEDIT
290
     1
  9
$CEPSNTYPE
380
     0
  9
$PSTYLEMODE
290
     0
  9
$FINGERPRINTGUID
  2
{FAEB1C30-E019-11D5-929B-00C0DF256EC4}
  9
$VERSIONGUID
  2
{0925425B-755E-497A-A863-CAD454663B0F}
  9
$EXTNAMES
290
     1
  9
$PSVPSCALE
 40
0.0
  9
$OLESTARTUP
290
     0
  0
ENDSEC
  0
SECTION
  2
CLASSES
  0
CLASS
  1
ACDBDICTIONARYWDFLT
  2
AcDbDictionaryWithDefault
  3
ObjectDBX Classes
 90
        0
280
     0
281
     0
  0
CLASS
  1
MATERIAL
  2
AcDbMaterial
  3
ObjectDBX Classes
 90
     1153
280
     0
281
     0
  0
CLASS
  1
MLEADERSTYLE
  2
AcDbMLeaderStyle
  3
ACDB_MLEADERSTYLE_CLASS
 90
     4095
280
     0
281
     0
  0
CLASS
  1
SCALE
  2
AcDbScale
  3
ObjectDBX Classes
 90
     1153
280
     0
281
     0
  0
CLASS
  1
TABLESTYLE
  2
AcDbTableStyle
  3
ObjectDBX Classes
 90
     4095
280
     0
281
     0
  0
CLASS
  1
VISUALSTYLE
  2
AcDbVisualStyle
  3
ObjectDBX Classes
 90
     4095
280
     0
281
     0
  0
CLASS
  1
DICTIONARYVAR
  2
AcDbDictionaryVar
  3
ObjectDBX Classes
 90
        0
280
     0
281
     0
  0
CLASS
  1
CELLSTYLEMAP
  2
AcDbCellStyleMap
  3
ObjectDBX Classes
 90
     1152
280
     0
281
     0
  0
CLASS
  1
AMGSETTINGSOBJ
  2
AmgSettingsObj
  3
"AcadM|Product Description: AutoCAD Mechanical|Company: Autodesk, Inc."
 90
     1024
280
     0
281
     0
  0
CLASS
  1
ACME_DOCUMENT
  2
AcMeDbDoc
  3
AcMeServices
 90
     1024
280
     0
281
     0
  0
CLASS
  1
ACMESCOPE
  2
AcMeScope
  3
AcMeServices
 90
     1024
280
     0
281
     0
  0
CLASS
  1
ACMECOMMANDHISTORY
  2
AcMeCommandHistory
  3
AcMeServices
 90
     1024
280
     0
281
     0
  0
CLASS
  1
ACIMSYSVARMAN
  2
AcImSysVarManager
  3
AcMeServices
 90
     1024
280
     0
281
     0
  0
CLASS
  1
ACIMINTSYSVAR
  2
AcImIntSysVar
  3
AcMeServices
 90
     1024
280
     0
281
     0
  0
CLASS
  1
ACMESTATEMGR
  2
AcMeStateMgr
  3
AcMeServices
 90
     1024
280
     0
281
     0
  0
CLASS
  1
ACDBENTITYCACHE
  2
AcMeEntityCache
  3
AcMeServices
 90
     1024
280
     0
281
     0
  0
CLASS
  1
ACGREFMASTER
  2
AcGrefMaster
  3
AcAttribServices
 90
     1024
280
     0
281
     0
  0
CLASS
  1
AM_DRAWING_MGR
  2
AcDmDwgMgr
  3
AcMechDwgViewMgmt
 90
     1024
280
     0
281
     0
  0
CLASS
  1
AM_DWG_DOCUMENT
  2
AcDmDwgDocument
  3
AcMechDwgViewMgmt
 90
     1024
280
     0
281
     0
  0
CLASS
  1
AM_DWG_SHEET
  2
AcDmSheet
  3
AcMechDwgViewMgmt
 90
     1024
280
     0
281
     0
  0
CLASS
  1
AM_VIEWDIMPARMAP
  2
AcDmViewDimParMap
  3
AcMechDwgViewMgmt
 90
     1024
280
     0
281
     0
  0
CLASS
  1
AMDTINTERNALREACTOR
  2
AmdtInternalReactor
  3
AcMeServices
 90
     1024
280
     0
281
     0
  0
CLASS
  1
ACIMREALSYSVAR
  2
AcImRealSysVar
  3
AcMeServices
 90
     1024
280
     0
281
     0
  0
CLASS
  1
AM_DWGMGR_NAME
  2
AcDmDwgMgrName
  3
AcMechDwgViewMgmt
 90
     1024
280
     0
281
     0
  0
CLASS
  1
ACME_DATABASE
  2
AcMeDbDatabase
  3
AcMeServices
 90
     1024
280
     0
281
     0
  0
CLASS
  1
ACRFINSADJUSTERMGR
  2
AcRfInsAdjusterMgr
  3
AcMeServices
 90
     1024
280
     0
281
     0
  0
CLASS
  1
ACGREFACADMASTER
  2
AcGrefacadMaster
  3
AcGrefServices
 90
     1024
280
     0
281
     0
  0
CLASS
  1
AMDTMENUSTATEMGR
  2
AmdtMenuStateMgr
  3
McadcomServices
 90
     1024
280
     0
281
     0
  0
CLASS
  1
AMDTMCOMMENUSTATE
  2
AmdtMcomMenuState
  3
McadcomServices
 90
     1024
280
     0
281
     0
  0
CLASS
  1
AMIMASTER
  2
AmiMaster
  3
AmiServices
 90
     1024
280
     0
281
     0
  0
CLASS
  1
MAPIAMMOUDLE
  2
MApiAmModule
  3
MApiAmServices
 90
     1024
280
     0
281
     0
  0
CLASS
  1
ACIMSTRSYSVAR
  2
AcImStrSysVar
  3
AcMeServices
 90
     1024
280
     0
281
     0
  0
CLASS
  1
AMDTDMMENUSTATE
  2
AmdtDmMenuState
  3
AcMechDwgViewMgmt
 90
     1024
280
     0
281
     0
  0
CLASS
  1
AMDTAMMENUSTATE
  2
AmdtAmMenuState
  3
DesignerAssemblies
 90
     1024
280
     0
281
     0
  0
CLASS
  1
ACAMPROJECT
  2
AcAmProject
  3
DesignerAssemblies
 90
     1024
280
     0
281
     0
  0
CLASS
  1
ACAMGRCOMPDEF
  2
AcAmGrCompDef
  3
DesignerAssemblies
 90
     1024
280
     0
281
     0
  0
CLASS
  1
ACAMCOMPDEF
  2
AcAmCompDef
  3
DesignerAssemblies
 90
     1024
280
     0
281
     0
  0
CLASS
  1
ACAMCOMPDEFMGR
  2
AcAmCompDefMgr
  3
DesignerAssemblies
 90
     1024
280
     0
281
     0
  0
CLASS
  1
AMCONTEXTMGR
  2
AcAmContextMgr
  3
DesignerAssemblies
 90
     1024
280
     0
281
     0
  0
CLASS
  1
ACAMCONTEXTMODELER
  2
AcAmContextModeler
  3
DesignerAssemblies
 90
     1024
280
     0
281
     0
  0
CLASS
  1
ACMDATADICTIONARY
  2
AcmDataDictionary
  3
"AcmSymBB|Product Description: AutoCAD Mechanical|Company: Autodesk, Inc."
 90
     1024
280
     0
281
     0
  0
CLASS
  1
ACAMGRCOMPDEFSET
  2
AcAmGrCompDefSet
  3
DesignerAssemblies
 90
     1024
280
     0
281
     0
  0
CLASS
  1
AMDTBROWSERDBTAB
  2
AmdtBrowserDbTab
  3
McadcomServices
 90
     1024
280
     0
281
     0
  0
CLASS
  1
CBROWSERAPPOBJECT
  2
CBrowserAppObject
  3
McadcomServices
 90
     1024
280
     0
281
     0
  0
CLASS
  1
DM_PLACEHOLDER
  2
AcDmSelsetPlaceholder
  3
AcMechDwgViewMgmt
 90
     1024
280
     0
281
     0
  0
CLASS
  1
EXACXREFPANELOBJECT
  2
ExAcXREFPanelObject
  3
EXAC_ESW
 90
     1025
280
     0
281
     0
  0
CLASS
  1
NPOCOLLECTION
  2
AcDbImpNonPersistentObjectsCollection
  3
ObjectDBX Classes
 90
     1153
280
     0
281
     0
  0
CLASS
  1
ACMSTANDARDANSI
  2
AcmStandardANSI
  3
"Amdt_StdImp|Product Description: AutoCAD Mechanical|Company: Autodesk, Inc."
 90
     1024
280
     0
281
     0
  0
CLASS
  1
ACMSURFSTANDARDANSI
  2
AcmSurfTextStdANSI
  3
"Amdt_StdImp|Product Description: AutoCAD Mechanical|Company: Autodesk, Inc."
 90
     1024
280
     0
281
     0
  0
CLASS
  1
ACMFCFSTANDARDANSI
  2
AcmFCFStdANSI
  3
"Amdt_StdImp|Product Description: AutoCAD Mechanical|Company: Autodesk, Inc."
 90
     1024
280
     0
281
     0
  0
CLASS
  1
ACMWELDSTANDARDANSI
  2
AcmWeldingStdANSI
  3
"Amdt_StdImp|Product Description: AutoCAD Mechanical|Company: Autodesk, Inc."
 90
     1024
280
     0
281
     0
  0
CLASS
  1
ACMIDSTANDARDANSI
  2
AcmIdStdANSI
  3
"Amdt_StdImp|Product Description: AutoCAD Mechanical|Company: Autodesk, Inc."
 90
     1024
280
     0
281
     0
  0
CLASS
  1
ACMDATUMSTANDARDANSI
  2
AcmDatumStdANSI
  3
"Amdt_StdImp|Product Description: AutoCAD Mechanical|Company: Autodesk, Inc."
 90
     1024
280
     0
281
     0
  0
CLASS
  1
ACMBOMSTANDARDANSI
  2
AcmBOMStdANSI
  3
"Amdt_StdImp|Product Description: AutoCAD Mechanical|Company: Autodesk, Inc."
 90
     1024
280
     0
281
     0
  0
CLASS
  1
ACMDETAILSTANDARDANSI
  2
AmdtDetailSymStdANSI
  3
"Amdt_StdImp|Product Description: AutoCAD Mechanical|Company: Autodesk, Inc."
 90
     1024
280
     0
281
     0
  0
CLASS
  1
ACMSECTIONSTANDARDANSI
  2
AmdtSectionSymStdANSI
  3
"Amdt_StdImp|Product Description: AutoCAD Mechanical|Company: Autodesk, Inc."
 90
     1024
280
     0
281
     0
  0
CLASS
  1
ACMCENTERLINESTANDARDANSI
  2
AmdtCenterLineStdANSI
  3
"Amdt_StdImp|Product Description: AutoCAD Mechanical|Company: Autodesk, Inc."
 90
     1024
280
     0
281
     0
  0
CLASS
  1
ACMTHREADLINESTANDARDANSI
  2
AmdtThreadLineStdANSI
  3
"Amdt_StdImp|Product Description: AutoCAD Mechanical|Company: Autodesk, Inc."
 90
     1024
280
     0
281
     0
  0
CLASS
  1
ACMNOTESTANDARDANSI
  2
AmdtNoteStdANSI
  3
"Amdt_StdImp|Product Description: AutoCAD Mechanical|Company: Autodesk, Inc."
 90
     1024
280
     0
281
     0
  0
CLASS
  1
ACMTAPERSTANDARDANSI
  2
AcmTaperStdANSI
  3
"Amdt_StdImp|Product Description: AutoCAD Mechanical|Company: Autodesk, Inc."
 90
     1024
280
     0
281
     0
  0
CLASS
  1
ACMANOOTATIONVIEWSTANDARDANSI
  2
AmdtAnViewStdANSI
  3
"Amdt_StdImp|Product Description: AutoCAD Mechanical|Company: Autodesk, Inc."
 90
     1024
280
     0
281
     0
  0
CLASS
  1
ACAMGLAYSTD
  2
AcAmgLayStd
  3
"AmgLay|Product Description: AutoCAD Mechanical|Company: Autodesk, Inc."
 90
     1024
280
     0
281
     0
  0
CLASS
  1
ACAMGDIMSTD
  2
AcAmgDimStd
  3
"AmgDim|Product Description: AutoCAD Mechanical|Company: Autodesk, Inc."
 90
     1024
280
     0
281
     0
  0
CLASS
  1
AMGOBJPROPCFG
  2
AmgObjPropCfg
  3
"AmgLay|Product Description: AutoCAD Mechanical|Company: Autodesk, Inc."
 90
     1025
280
     0
281
     0
  0
CLASS
  1
ACAMGHOLECHARTSTDANSI
  2
AcAmgHoleChartStdANSI
  3
AmgDim|Product Description: AutoCAD Mechanical|Company: Autodesk, Inc.
 90
     1024
280
     0
281
     0
  0
CLASS
  1
ACAMGTITLESTD
  2
AcAmgTitleStd
  3
"AmgTitle|Product Description: AutoCAD Mechanical|Company: Autodesk, Inc."
 90
     4095
280
     0
281
     0
  0
CLASS
  1
AMDTNOTETEMPLATEDB
  2
AmdtNoteTemplateDB
  3
AcmSymBB|Product Description: AutoCAD Mechanical|Company: Autodesk, Inc.
 90
     1024
280
     0
281
     0
  0
CLASS
  1
ACAMGFILTERDAT
  2
AcAmgFilterDat
  3
"AcadM|Product Description: AutoCAD Mechanical|Company: Autodesk, Inc."
 90
    33792
280
     0
281
     0
  0
CLASS
  1
ACDBPLACEHOLDER
  2
AcDbPlaceHolder
  3
ObjectDBX Classes
 90
        0
280
     0
281
     0
  0
CLASS
  1
LAYOUT
  2
AcDbLayout
  3
ObjectDBX Classes
 90
        0
280
     0
281
     0
  0
ENDSEC
  0
SECTION
  2
TABLES
  0
TABLE
  2
VPORT
  5
24A
330
0
100
AcDbSymbolTable
 70
     1
  0
VPORT
  5
26B
330
24A
100
AcDbSymbolTableRecord
100
AcDbViewportTableRecord
  2
*Active
 70
     0
 10
0.0
 20
0.0
 11
1.0
 21
1.0
 12
2.268481269971289
 22
-24.75928428524419
 13
0.0
 23
0.0
 14
10.0
 24
10.0
 15
10.0
 25
10.0
 16
0.0
 26
0.0
 36
1.0
 17
0.0
 27
0.0
 37
0.0
 40
220.6284290642262
 41
1.466735966735966
 42
1.0
 43
0.0
 44
0.0
 50
0.0
 51
0.0000000000007958
 71
     0
 72
   100
 73
     1
 74
     3
 75
     0
 76
     0
 77
     0
 78
     1
281
     0
 65
     0
110
0.0
120
0.0
130
0.0
111
1.0
121
0.0
131
0.0
112
0.0
122
1.0
132
0.0
 79
     0
146
0.0
  0
ENDTAB
  0
TABLE
  2
LTYPE
  5
247
330
0
100
AcDbSymbolTable
 70
    36
  0
LTYPE
  5
256
330
247
100
AcDbSymbolTableRecord
100
AcDbLinetypeTableRecord
  2
ByBlock
 70
     0
  3

 72
    65
 73
     0
 40
0.0
  0
LTYPE
  5
257
330
247
100
AcDbSymbolTableRecord
100
AcDbLinetypeTableRecord
  2
ByLayer
 70
     0
  3

 72
    65
 73
     0
 40
0.0
  0
LTYPE
  5
258
330
247
100
AcDbSymbolTableRecord
100
AcDbLinetypeTableRecord
  2
Continuous
 70
     0
  3
Solid line
 72
    65
 73
     0
 40
0.0
  0
LTYPE
  5
273
330
247
100
AcDbSymbolTableRecord
100
AcDbLinetypeTableRecord
  2
CENTER
 70
     0
  3
Center ____ _ ____ _ ____ _ ____ _ ____ _ ____
 72
    65
 73
     4
 40
2.0
 49
1.25
 74
     0
 49
-0.25
 74
     0
 49
0.25
 74
     0
 49
-0.25
 74
     0
  0
LTYPE
  5
274
330
247
100
AcDbSymbolTableRecord
100
AcDbLinetypeTableRecord
  2
DASHDOT
 70
     0
  3
Dashdot __ . __ . __ . __ . __ . __ . __ . __
 72
    65
 73
     4
 40
1.0
 49
0.5
 74
     0
 49
-0.25
 74
     0
 49
0.0
 74
     0
 49
-0.25
 74
     0
  0
LTYPE
  5
275
330
247
100
AcDbSymbolTableRecord
100
AcDbLinetypeTableRecord
  2
DASHED
 70
     0
  3
Dashed __ __ __ __ __ __ __ __ __ __ __ __ __ _
 72
    65
 73
     2
 40
0.75
 49
0.5
 74
     0
 49
-0.25
 74
     0
  0
LTYPE
  5
276
330
247
100
AcDbSymbolTableRecord
100
AcDbLinetypeTableRecord
  2
HIDDEN
 70
     0
  3
Hidden __ __ __ __ __ __ __ __ __ __ __ __ __ __
 72
    65
 73
     2
 40
0.375
 49
0.25
 74
     0
 49
-0.125
 74
     0
  0
LTYPE
  5
277
330
247
100
AcDbSymbolTableRecord
100
AcDbLinetypeTableRecord
  2
HIDDEN2
 70
     0
  3
Hidden2 _ _ _ _ _ _ _ _ _ _ _ _ _ _ _ _ _
 72
    65
 73
     2
 40
0.1875
 49
0.125
 74
     0
 49
-0.0625
 74
     0
  0
LTYPE
  5
278
330
247
100
AcDbSymbolTableRecord
100
AcDbLinetypeTableRecord
  2
BORDER
 70
     0
  3
Border __ __ . __ __ . __ __ . __ __ . __ __ .
 72
    65
 73
     6
 40
1.75
 49
0.5
 74
     0
 49
-0.25
 74
     0
 49
0.5
 74
     0
 49
-0.25
 74
     0
 49
0.0
 74
     0
 49
-0.25
 74
     0
  0
LTYPE
  5
279
330
247
100
AcDbSymbolTableRecord
100
AcDbLinetypeTableRecord
  2
BORDER2
 70
     0
  3
Border2 __.__.__.__.__.__.__.__.__.__.__.
 72
    65
 73
     6
 40
0.875
 49
0.25
 74
     0
 49
-0.125
 74
     0
 49
0.25
 74
     0
 49
-0.125
 74
     0
 49
0.0
 74
     0
 49
-0.125
 74
     0
  0
LTYPE
  5
27A
330
247
100
AcDbSymbolTableRecord
100
AcDbLinetypeTableRecord
  2
BORDERX2
 70
     0
  3
Borderx2  ____  ____  .  ____  ____  .  ___
 72
    65
 73
     6
 40
3.5
 49
1.0
 74
     0
 49
-0.5
 74
     0
 49
1.0
 74
     0
 49
-0.5
 74
     0
 49
0.0
 74
     0
 49
-0.5
 74
     0
  0
LTYPE
  5
27B
330
247
100
AcDbSymbolTableRecord
100
AcDbLinetypeTableRecord
  2
CENTER2
 70
     0
  3
Center2  ___ _ ___ _ ___ _ ___ _ ___ _ ___
 72
    65
 73
     4
 40
1.125
 49
0.75
 74
     0
 49
-0.125
 74
     0
 49
0.125
 74
     0
 49
-0.125
 74
     0
  0
LTYPE
  5
27C
330
247
100
AcDbSymbolTableRecord
100
AcDbLinetypeTableRecord
  2
CENTERX2
 70
     0
  3
Centerx2  ________  __  ________  __  _____
 72
    65
 73
     4
 40
4.0
 49
2.5
 74
     0
 49
-0.5
 74
     0
 49
0.5
 74
     0
 49
-0.5
 74
     0
  0
LTYPE
  5
27D
330
247
100
AcDbSymbolTableRecord
100
AcDbLinetypeTableRecord
  2
DASHDOT2
 70
     0
  3
Dashdot2  _._._._._._._._._._._._._._._.
 72
    65
 73
     4
 40
0.5
 49
0.25
 74
     0
 49
-0.125
 74
     0
 49
0.0
 74
     0
 49
-0.125
 74
     0
  0
LTYPE
  5
27E
330
247
100
AcDbSymbolTableRecord
100
AcDbLinetypeTableRecord
  2
DASHDOTX2
 70
     0
  3
Dashdotx2 ____  .  ____  .  ____  .  ___
 72
    65
 73
     4
 40
2.0
 49
1.0
 74
     0
 49
-0.5
 74
     0
 49
0.0
 74
     0
 49
-0.5
 74
     0
  0
LTYPE
  5
27F
330
247
100
AcDbSymbolTableRecord
100
AcDbLinetypeTableRecord
  2
DASHED2
 70
     0
  3
Dashed2 _ _ _ _ _ _ _ _ _ _ _ _ _ _ _ _ _
 72
    65
 73
     2
 40
0.375
 49
0.25
 74
     0
 49
-0.125
 74
     0
  0
LTYPE
  5
280
330
247
100
AcDbSymbolTableRecord
100
AcDbLinetypeTableRecord
  2
DASHEDX2
 70
     0
  3
Dashedx2 ____  ____  ____  ____  ____  ___
 72
    65
 73
     2
 40
1.5
 49
1.0
 74
     0
 49
-0.5
 74
     0
  0
LTYPE
  5
281
330
247
100
AcDbSymbolTableRecord
100
AcDbLinetypeTableRecord
  2
DIVIDE
 70
     0
  3
Divide ____ . . ____ . . ____ . . ____ . . ____
 72
    65
 73
     6
 40
1.25
 49
0.5
 74
     0
 49
-0.25
 74
     0
 49
0.0
 74
     0
 49
-0.25
 74
     0
 49
0.0
 74
     0
 49
-0.25
 74
     0
  0
LTYPE
  5
282
330
247
100
AcDbSymbolTableRecord
100
AcDbLinetypeTableRecord
  2
DIVIDE2
 70
     0
  3
Divide2 __..__..__..__..__..__..__..__.._
 72
    65
 73
     6
 40
0.625
 49
0.25
 74
     0
 49
-0.125
 74
     0
 49
0.0
 74
     0
 49
-0.125
 74
     0
 49
0.0
 74
     0
 49
-0.125
 74
     0
  0
LTYPE
  5
283
330
247
100
AcDbSymbolTableRecord
100
AcDbLinetypeTableRecord
  2
DIVIDEX2
 70
     0
  3
Dividex2 ________  .  .  ________  .  .  _
 72
    65
 73
     6
 40
2.5
 49
1.0
 74
     0
 49
-0.5
 74
     0
 49
0.0
 74
     0
 49
-0.5
 74
     0
 49
0.0
 74
     0
 49
-0.5
 74
     0
  0
LTYPE
  5
284
330
247
100
AcDbSymbolTableRecord
100
AcDbLinetypeTableRecord
  2
DOT
 70
     0
  3
Dot . . . . . . . . . . . . . . . . . . . . . . . .
 72
    65
 73
     2
 40
0.25
 49
0.0
 74
     0
 49
-0.25
 74
     0
  0
LTYPE
  5
285
330
247
100
AcDbSymbolTableRecord
100
AcDbLinetypeTableRecord
  2
DOT2
 70
     0
  3
Dot2 ........................................
 72
    65
 73
     2
 40
0.125
 49
0.0
 74
     0
 49
-0.125
 74
     0
  0
LTYPE
  5
286
330
247
100
AcDbSymbolTableRecord
100
AcDbLinetypeTableRecord
  2
DOTX2
 70
     0
  3
Dotx2 .  .  .  .  .  .  .  .  .  .  .  .  .  .
 72
    65
 73
     2
 40
0.5
 49
0.0
 74
     0
 49
-0.5
 74
     0
  0
LTYPE
  5
287
330
247
100
AcDbSymbolTableRecord
100
AcDbLinetypeTableRecord
  2
HIDDENX2
 70
     0
  3
Hiddenx2 ____ ____ ____ ____ ____ ____ ____
 72
    65
 73
     2
 40
0.75
 49
0.5
 74
     0
 49
-0.25
 74
     0
  0
LTYPE
  5
288
330
247
100
AcDbSymbolTableRecord
100
AcDbLinetypeTableRecord
  2
PHANTOM
 70
     0
  3
Phantom ______  __  __  ______  __  __  ______
 72
    65
 73
     6
 40
2.5
 49
1.25
 74
     0
 49
-0.25
 74
     0
 49
0.25
 74
     0
 49
-0.25
 74
     0
 49
0.25
 74
     0
 49
-0.25
 74
     0
  0
LTYPE
  5
289
330
247
100
AcDbSymbolTableRecord
100
AcDbLinetypeTableRecord
  2
PHANTOM2
 70
     0
  3
Phantom2 ___ _ _ ___ _ _ ___ _ _ ___ _ _
 72
    65
 73
     6
 40
1.25
 49
0.625
 74
     0
 49
-0.125
 74
     0
 49
0.125
 74
     0
 49
-0.125
 74
     0
 49
0.125
 74
     0
 49
-0.125
 74
     0
  0
LTYPE
  5
28A
330
247
100
AcDbSymbolTableRecord
100
AcDbLinetypeTableRecord
  2
PHANTOMX2
 70
     0
  3
Phantomx2 ____________    ____    ____   _
 72
    65
 73
     6
 40
5.0
 49
2.5
 74
     0
 49
-0.5
 74
     0
 49
0.5
 74
     0
 49
-0.5
 74
     0
 49
0.5
 74
     0
 49
-0.5
 74
     0
  0
LTYPE
  5
F1049B
330
247
100
AcDbSymbolTableRecord
100
AcDbLinetypeTableRecord
  2
AM_ISO02W050
 70
     0
  3
__ __ __ __ __ __ __ __ __ __ __ __ __ __ __
 72
    65
 73
     2
 40
7.5
 49
6.0
 74
     0
 49
-1.5
 74
     0
  0
LTYPE
  5
F1049C
330
247
100
AcDbSymbolTableRecord
100
AcDbLinetypeTableRecord
  2
AM_ISO08W050
 70
     0
  3
____ . ____ . ____ . ____ . ____ . ____ . ____
 72
    65
 73
     4
 40
18.0
 49
12.0
 74
     0
 49
-1.5
 74
     0
 49
3.0
 74
     0
 49
-1.5
 74
     0
  0
LTYPE
  5
F1049D
330
247
100
AcDbSymbolTableRecord
100
AcDbLinetypeTableRecord
  2
AM_ISO09W050
 70
     0
  3
_____ . . _____ . . _____ . . ____ .. ____
 72
    65
 73
     6
 40
22.5
 49
12.0
 74
     0
 49
-1.5
 74
     0
 49
3.0
 74
     0
 49
-1.5
 74
     0
 49
3.0
 74
     0
 49
-1.5
 74
     0
  0
LTYPE
  5
F1049E
330
247
100
AcDbSymbolTableRecord
100
AcDbLinetypeTableRecord
  2
Amconstr
 70
     0
  3
_______________________
 72
    65
 73
     2
 40
9999.0
 49
9999.0
 74
     0
 49
0.0
 74
     0
  0
LTYPE
  5
F1049F
330
247
100
AcDbSymbolTableRecord
100
AcDbLinetypeTableRecord
  2
AM_ISO08W050x2
 70
     0
  3
__ . __ . __ . __ . __ . __
 72
    65
 73
     4
 40
9.0
 49
6.0
 74
     0
 49
-0.75
 74
     0
 49
1.5
 74
     0
 49
-0.75
 74
     0
  0
LTYPE
  5
F104A0
330
247
100
AcDbSymbolTableRecord
100
AcDbLinetypeTableRecord
  2
AM_ISO02W050x2
 70
     0
  3
 _ _ _ _ _ _ _ _ _ _ _ _
 72
    65
 73
     2
 40
3.75
 49
3.0
 74
     0
 49
-0.75
 74
     0
  0
LTYPE
  5
F104A3
330
247
100
AcDbSymbolTableRecord
100
AcDbLinetypeTableRecord
  2
Amzigzag
 70
     0
  3
/\/-/\/-/\/-/\/-/\/-/\/
 72
    65
 73
     2
 40
11.0001
 49
0.0001
 74
     4
 75
   136
340
F104A2
 46
0.04
 50
0.0
 44
0.0
 45
0.0
 49
-11.0
 74
     0
  0
LTYPE
  5
F104A4
330
247
100
AcDbSymbolTableRecord
100
AcDbLinetypeTableRecord
  2
Amzigzag2
 70
     0
  3
/\/-/\/-/\/-/\/-/\/-/\/
 72
    65
 73
     2
 40
0.4401
 49
0.0001
 74
     4
 75
   136
340
F104A2
 46
0.0016
 50
0.0
 44
0.0
 45
0.0
 49
-0.4400000000000002
 74
     0
  0
LTYPE
  5
F104B2
330
247
100
AcDbSymbolTableRecord
100
AcDbLinetypeTableRecord
  2
ACANSTGB
 70
     0
  3
__ . . __ . .
 72
    65
 73
     6
 40
0.35433070866
 49
0.15748031496
 74
     0
 49
-0.03937007874
 74
     0
 49
0.03937007874
 74
     0
 49
-0.03937007874
 74
     0
 49
0.03937007874
 74
     0
 49
-0.03937007874
 74
     0
  0
LTYPE
  5
F104B3
330
247
100
AcDbSymbolTableRecord
100
AcDbLinetypeTableRecord
  2
ACANSTGL
 70
     0
  3
_ _ _ _ _
 72
    65
 73
     2
 40
0.11811023622
 49
0.07874015748
 74
     0
 49
-0.03937007874
 74
     0
  0
ENDTAB
  0
TABLE
  2
LAYER
  5
244
330
0
100
AcDbSymbolTable
 70
     6
  0
LAYER
  5
252
102
{ACAD_XDICTIONARY
360
F1063F
102
}
330
244
100
AcDbSymbolTableRecord
100
AcDbLayerTableRecord
  2
0
 70
     0
 62
     7
  6
Continuous
370
     0
390
19
  0
LAYER
  5
23F
102
{ACAD_XDICTIONARY
360
F10641
102
}
330
244
100
AcDbSymbolTableRecord
100
AcDbLayerTableRecord
  2
Bemassung
 70
     0
 62
     7
  6
Continuous
370
     0
390
19
  0
LAYER
  5
240
102
{ACAD_XDICTIONARY
360
F10643
102
}
330
244
100
AcDbSymbolTableRecord
100
AcDbLayerTableRecord
  2
Rahmen
 70
     0
 62
     7
  6
Continuous
370
     0
390
19
  0
LAYER
  5
241
102
{ACAD_XDICTIONARY
360
F10645
102
}
330
244
100
AcDbSymbolTableRecord
100
AcDbLayerTableRecord
  2
Geo
 70
     0
 62
     7
  6
Continuous
370
     0
390
19
  0
LAYER
  5
33A
330
244
100
AcDbSymbolTableRecord
100
AcDbLayerTableRecord
  2
Defpoints
 70
     0
 62
     7
  6
Continuous
290
     0
370
    -3
390
19
  0
LAYER
  5
57E
102
{ACAD_XDICTIONARY
360
F10647
102
}
330
244
100
AcDbSymbolTableRecord
100
AcDbLayerTableRecord
  2
Text
 70
     0
 62
     7
  6
Continuous
370
     0
390
19
1001
AcAecLayerStandard
1000

1000

  0
ENDTAB
  0
TABLE
  2
STYLE
  5
245
330
0
100
AcDbSymbolTable
 70
     5
  0
STYLE
  5
253
330
245
100
AcDbSymbolTableRecord
100
AcDbTextStyleTableRecord
  2
Standard
 70
     0
 40
0.0
 41
1.0
 50
0.0
 71
     0
 42
0.2
  3
Arial
  4

1001
ACAD
1000
Arial
1071
        0
  0
STYLE
  5
132
330
245
100
AcDbSymbolTableRecord
100
AcDbTextStyleTableRecord
  2
Beschriftung
 70
     0
 40
0.0
 41
1.0
 50
0.0
 71
     0
 42
0.2
  3
Arial
  4

1001
ACAD
1000
Arial
1071
        0
1001
AcadAnnotative
1000
AnnotativeData
1070
     1
1070
     1
  0
STYLE
  5
F104A2
330
245
100
AcDbSymbolTableRecord
100
AcDbTextStyleTableRecord
  2

 70
     1
 40
0.0
 41
1.0
 50
0.0
 71
     0
 42
0.2
  3
genltshp.shx
  4

  0
STYLE
  5
F104B0
330
245
100
AcDbSymbolTableRecord
100
AcDbTextStyleTableRecord
  2
ACANSTS
 70
     0
 40
1.0
 41
1.0
 50
0.0
 71
     0
 42
0.2
  3
romans.shx
  4

  0
STYLE
  5
F104B1
330
245
100
AcDbSymbolTableRecord
100
AcDbTextStyleTableRecord
  2
ACANSGDT
 70
     0
 40
0.0
 41
1.0
 50
0.0
 71
     0
 42
0.2
  3
amgdt.shx
  4

  0
ENDTAB
  0
TABLE
  2
VIEW
  5
248
330
0
100
AcDbSymbolTable
 70
     0
  0
ENDTAB
  0
TABLE
  2
UCS
  5
249
330
0
100
AcDbSymbolTable
 70
     0
  0
ENDTAB
  0
TABLE
  2
APPID
  5
24B
330
0
100
AcDbSymbolTable
 70
    30
  0
APPID
  5
254
330
24B
100
AcDbSymbolTableRecord
100
AcDbRegAppTableRecord
  2
ACAD
 70
     0
  0
APPID
  5
26C
330
24B
100
AcDbSymbolTableRecord
100
AcDbRegAppTableRecord
  2
VD_INVISIBLE_NOT_FOR_READ
 70
     0
  0
APPID
  5
26D
330
24B
100
AcDbSymbolTableRecord
100
AcDbRegAppTableRecord
  2
VD_TEMPHATCH
 70
     0
  0
APPID
  5
26E
330
24B
100
AcDbSymbolTableRecord
100
AcDbRegAppTableRecord
  2
VDEXTRAPARAM
 70
     0
  0
APPID
  5
26F
330
24B
100
AcDbSymbolTableRecord
100
AcDbRegAppTableRecord
  2
PE_URL
 70
     0
  0
APPID
  5
270
330
24B
100
AcDbSymbolTableRecord
100
AcDbRegAppTableRecord
  2
VD_UNKNOWN
 70
     0
  0
APPID
  5
28F
330
24B
100
AcDbSymbolTableRecord
100
AcDbRegAppTableRecord
  2
AcadAnnotative
 70
     0
  0
APPID
  5
290
330
24B
100
AcDbSymbolTableRecord
100
AcDbRegAppTableRecord
  2
ACAD_DSTYLE_DIMJAG
 70
     0
  0
APPID
  5
291
330
24B
100
AcDbSymbolTableRecord
100
AcDbRegAppTableRecord
  2
ACAD_DSTYLE_DIMTALN
 70
     0
  0
APPID
  5
293
330
24B
100
AcDbSymbolTableRecord
100
AcDbRegAppTableRecord
  2
ACAD_PSEXT
 70
     0
  0
APPID
  5
42A
330
24B
100
AcDbSymbolTableRecord
100
AcDbRegAppTableRecord
  2
ACAD_MLEADERVER
 70
     0
  0
APPID
  5
532
330
24B
100
AcDbSymbolTableRecord
100
AcDbRegAppTableRecord
  2
ACAD_EXEMPT_FROM_CAD_STANDARDS
 70
     0
  0
APPID
  5
57F
330
24B
100
AcDbSymbolTableRecord
100
AcDbRegAppTableRecord
  2
AcAecLayerStandard
 70
     0
  0
APPID
  5
F10435
330
24B
100
AcDbSymbolTableRecord
100
AcDbRegAppTableRecord
  2
MCAD_NO_VIS
 70
     0
  0
APPID
  5
F10436
330
24B
100
AcDbSymbolTableRecord
100
AcDbRegAppTableRecord
  2
ACAD_TEMP_GRAPHIC
 70
     0
  0
APPID
  5
F1045F
330
24B
100
AcDbSymbolTableRecord
100
AcDbRegAppTableRecord
  2
AD_DRAW
 70
     0
  0
APPID
  5
F10462
330
24B
100
AcDbSymbolTableRecord
100
AcDbRegAppTableRecord
  2
ACATTRIBSERVICES
 70
     0
  0
APPID
  5
F1047B
330
24B
100
AcDbSymbolTableRecord
100
AcDbRegAppTableRecord
  2
DESIGNERASSEMBLIES
 70
     0
  0
APPID
  5
F10480
330
24B
100
AcDbSymbolTableRecord
100
AcDbRegAppTableRecord
  2
ACADM_DIM_EDIT
 70
     0
  0
APPID
  5
F10481
330
24B
100
AcDbSymbolTableRecord
100
AcDbRegAppTableRecord
  2
AMDT_DM_ADJ
 70
     0
  0
APPID
  5
F10499
330
24B
100
AcDbSymbolTableRecord
100
AcDbRegAppTableRecord
  2
ACAD_DSTYLE_DIMBREAK
 70
     0
  0
APPID
  5
F104BA
330
24B
100
AcDbSymbolTableRecord
100
AcDbRegAppTableRecord
  2
GENIUS_GENSCREG_15
 70
     0
  0
APPID
  5
F104BB
330
24B
100
AcDbSymbolTableRecord
100
AcDbRegAppTableRecord
  2
GENIUS_GENODEF_13
 70
     0
  0
APPID
  5
F104BC
330
24B
100
AcDbSymbolTableRecord
100
AcDbRegAppTableRecord
  2
GENIUS_GENOBJ-N-SDF_13
 70
     0
  0
APPID
  5
F10533
330
24B
100
AcDbSymbolTableRecord
100
AcDbRegAppTableRecord
  2
GENIUS_GENDTOL_13
 70
     0
  0
APPID
  5
F1055B
330
24B
100
AcDbSymbolTableRecord
100
AcDbRegAppTableRecord
  2
ACAD_DSTYLE_DIMINSPECT
 70
     0
  0
APPID
  5
F10695
330
24B
100
AcDbSymbolTableRecord
100
AcDbRegAppTableRecord
  2
ACAD_DSTYLE_DIMARC_LENGTH_SYMBOL
 70
     0
  0
APPID
  5
F10696
330
24B
100
AcDbSymbolTableRecord
100
AcDbRegAppTableRecord
  2
ACAD_DSTYLE_DIM_LINETYPE
 70
     0
  0
APPID
  5
F10697
330
24B
100
AcDbSymbolTableRecord
100
AcDbRegAppTableRecord
  2
ACAD_DSTYLE_DIM_EXT1_LINETYPE
 70
     0
  0
APPID
  5
F10698
330
24B
100
AcDbSymbolTableRecord
100
AcDbRegAppTableRecord
  2
ACAD_DSTYLE_DIM_EXT2_LINETYPE
 70
     0
  0
ENDTAB
  0
TABLE
  2
DIMSTYLE
  5
24C
330
0
100
AcDbSymbolTable
 70
     9
100
AcDbDimStyleTable
 71
     2
340
27
340
269
  0
DIMSTYLE
105
269
330
24C
100
AcDbSymbolTableRecord
100
AcDbDimStyleTableRecord
  2
Standard
 70
     0
172
     1
174
     1
288
     1
340
253
342
23C
  0
DIMSTYLE
105
137
330
24C
100
AcDbSymbolTableRecord
100
AcDbDimStyleTableRecord
  2
Beschriftung
 70
     0
 41
2.5
 42
0.625
 44
1.25
 73
     0
 74
     0
 77
     1
140
2.5
147
0.625
172
     1
174
     1
271
     2
288
     1
340
253
342
23C
1001
AcadAnnotative
1000
AnnotativeData
1070
     1
1070
     1
1001
ACAD_DSTYLE_DIMJAG
1070
   388
1040
1.5
1001
ACAD_DSTYLE_DIMTALN
1070
   392
1070
     0
  0
DIMSTYLE
105
27
102
{ACAD_REACTORS
330
F1000D
330
F10017
330
F1001C
330
F10003
330
F10008
330
F10012
102
}
330
24C
100
AcDbSymbolTableRecord
100
AcDbDimStyleTableRecord
  2
BEM-ISBE
 70
     0
 41
2.5
 42
0.625
 44
1.25
 48
0.000000001
 71
     1
 73
     0
 74
     0
 77
     1
140
2.5
146
0.5
147
0.625
171
     3
172
     1
179
     3
271
     3
272
     3
274
     3
340
253
342
23C
1001
ACAD_DSTYLE_DIMJAG
1070
   388
1040
1.5
1001
ACAD_DSTYLE_DIMTALN
1070
   392
1070
     1
  0
DIMSTYLE
105
F10498
102
{ACAD_REACTORS
330
F106F2
102
}
330
24C
100
AcDbSymbolTableRecord
100
AcDbDimStyleTableRecord
  2
AM_ANSI
 70
     0
  4
mm
 41
0.12
 42
0.05
 43
0.5
 44
0.1
 47
0.1
 48
0.1
 78
     7
 79
     2
140
0.12
141
0.0
146
0.71
147
0.06
176
   256
177
   256
178
     2
274
     4
284
     7
340
253
371
    -1
372
    -1
1001
ACAD_DSTYLE_DIMJAG
1070
   388
1040
1.5
1001
ACAD_DSTYLE_DIMBREAK
1070
   391
1040
0.125
1001
ACAD_DSTYLE_DIMARC_LENGTH_SYMBOL
1070
   379
1070
     1
1001
ACAD_DSTYLE_DIM_LINETYPE
1070
   380
1005
256
1001
ACAD_DSTYLE_DIM_EXT1_LINETYPE
1070
   381
1005
256
1001
ACAD_DSTYLE_DIM_EXT2_LINETYPE
1070
   382
1005
256
  0
DIMSTYLE
105
F104A5
330
24C
100
AcDbSymbolTableRecord
100
AcDbDimStyleTableRecord
  2
AM_ANSI$3
 70
     0
  4
mm
 41
0.12
 42
0.05
 43
0.5
 44
0.1
 47
0.1
 48
0.1
 78
     7
 79
     2
140
0.12
141
0.0
146
0.71
147
0.06
176
   256
177
   256
178
     2
274
     4
284
     7
288
     1
289
     0
340
253
371
    -1
372
    -1
1001
ACAD_DSTYLE_DIMBREAK
1070
   391
1040
0.125
1001
ACAD_DSTYLE_DIMJAG
1070
   388
1040
1.5
1001
ACAD_DSTYLE_DIMARC_LENGTH_SYMBOL
1070
   379
1070
     1
1001
ACAD_DSTYLE_DIM_LINETYPE
1070
   380
1005
256
1001
ACAD_DSTYLE_DIM_EXT1_LINETYPE
1070
   381
1005
256
1001
ACAD_DSTYLE_DIM_EXT2_LINETYPE
1070
   382
1005
256
  0
DIMSTYLE
105
F104A6
330
24C
100
AcDbSymbolTableRecord
100
AcDbDimStyleTableRecord
  2
AM_ANSI$4
 70
     0
  4
mm
 41
0.12
 42
0.05
 43
0.5
 44
0.1
 47
0.1
 48
0.1
 78
     7
 79
     2
140
0.12
141
0.0
146
0.71
147
0.06
176
   256
177
   256
178
     2
274
     4
284
     7
288
     1
289
     0
340
253
371
    -1
372
    -1
1001
ACAD_DSTYLE_DIMBREAK
1070
   391
1040
0.125
1001
ACAD_DSTYLE_DIMJAG
1070
   388
1040
1.5
1001
ACAD_DSTYLE_DIMARC_LENGTH_SYMBOL
1070
   379
1070
     1
1001
ACAD_DSTYLE_DIM_LINETYPE
1070
   380
1005
256
1001
ACAD_DSTYLE_DIM_EXT1_LINETYPE
1070
   381
1005
256
1001
ACAD_DSTYLE_DIM_EXT2_LINETYPE
1070
   382
1005
256
  0
DIMSTYLE
105
F104A7
330
24C
100
AcDbSymbolTableRecord
100
AcDbDimStyleTableRecord
  2
AM_ANSI$7
 70
     0
  4
mm
 41
0.12
 42
0.05
 43
0.5
 44
0.1
 47
0.1
 48
0.1
 78
     7
 79
     2
140
0.12
141
0.0
146
0.71
147
0.06
176
   256
177
   256
178
     2
274
     4
284
     7
340
253
371
    -1
372
    -1
1001
ACAD_DSTYLE_DIMBREAK
1070
   391
1040
0.125
1001
ACAD_DSTYLE_DIMJAG
1070
   388
1040
1.5
1001
ACAD_DSTYLE_DIMARC_LENGTH_SYMBOL
1070
   379
1070
     1
1001
ACAD_DSTYLE_DIM_LINETYPE
1070
   380
1005
256
1001
ACAD_DSTYLE_DIM_EXT1_LINETYPE
1070
   381
1005
256
1001
ACAD_DSTYLE_DIM_EXT2_LINETYPE
1070
   382
1005
256
  0
DIMSTYLE
105
F104A8
330
24C
100
AcDbSymbolTableRecord
100
AcDbDimStyleTableRecord
  2
AM_ANSI$SF
 70
     0
  4
mm
 41
0.12
 42
0.05
 43
0.5
 44
0.1
 47
0.1
 48
0.1
 75
     1
 76
     1
 78
     7
 79
     2
140
0.12
141
0.0
146
0.71
147
0.06
176
   256
177
   256
178
     2
274
     4
284
     7
340
253
371
    -1
372
    -1
1001
ACAD_DSTYLE_DIMBREAK
1070
   391
1040
0.125
1001
ACAD_DSTYLE_DIMJAG
1070
   388
1040
1.5
1001
ACAD_DSTYLE_DIMARC_LENGTH_SYMBOL
1070
   379
1070
     1
1001
ACAD_DSTYLE_DIM_LINETYPE
1070
   380
1005
256
1001
ACAD_DSTYLE_DIM_EXT1_LINETYPE
1070
   381
1005
256
1001
ACAD_DSTYLE_DIM_EXT2_LINETYPE
1070
   382
1005
256
  0
DIMSTYLE
105
F104AD
330
24C
100
AcDbSymbolTableRecord
100
AcDbDimStyleTableRecord
  2
AM_ANSI$SH
 70
     0
  4
mm
 41
0.12
 42
0.05
 43
0.5
 44
0.1
 47
0.1
 48
0.1
 75
     1
 76
     1
 78
     7
 79
     2
140
0.12
141
0.0
146
0.71
147
0.06
173
     1
176
   256
177
   256
178
     2
274
     4
284
     7
340
253
343
F104A9
371
    -1
372
    -1
1001
ACAD_DSTYLE_DIMBREAK
1070
   391
1040
0.125
1001
ACAD_DSTYLE_DIMJAG
1070
   388
1040
1.5
1001
ACAD_DSTYLE_DIMARC_LENGTH_SYMBOL
1070
   379
1070
     1
1001
ACAD_DSTYLE_DIM_LINETYPE
1070
   380
1005
256
1001
ACAD_DSTYLE_DIM_EXT1_LINETYPE
1070
   381
1005
256
1001
ACAD_DSTYLE_DIM_EXT2_LINETYPE
1070
   382
1005
256
  0
ENDTAB
  0
TABLE
  2
BLOCK_RECORD
  5
243
330
0
100
AcDbSymbolTable
 70
    11
  0
BLOCK_RECORD
  5
261
330
243
100
AcDbSymbolTableRecord
100
AcDbBlockTableRecord
  2
*Model_Space
340
FD0
  0
BLOCK_RECORD
  5
25D
330
243
100
AcDbSymbolTableRecord
100
AcDbBlockTableRecord
  2
*Paper_Space
340
FD1
  0
BLOCK_RECORD
  5
265
330
243
100
AcDbSymbolTableRecord
100
AcDbBlockTableRecord
  2
*Paper_Space0
340
0
  0
BLOCK_RECORD
  5
23C
330
243
100
AcDbSymbolTableRecord
100
AcDbBlockTableRecord
  2
VDDIM_DEFAULT
340
0
102
{BLKREFS
331
F104FF
331
F10540
331
F10541
331
F10552
331
F10553
331
F105B9
331
F105BA
331
F10627
331
F10628
331
F10639
331
F1063A
102
}
  0
BLOCK_RECORD
  5
23E
330
243
100
AcDbSymbolTableRecord
100
AcDbBlockTableRecord
  2
VDDIM_NONE
340
0
  0
BLOCK_RECORD
  5
F1000C
330
243
100
AcDbSymbolTableRecord
100
AcDbBlockTableRecord
  2
*D3
340
0
  0
BLOCK_RECORD
  5
F10016
330
243
100
AcDbSymbolTableRecord
100
AcDbBlockTableRecord
  2
*D4
340
0
  0
BLOCK_RECORD
  5
F1001B
330
243
100
AcDbSymbolTableRecord
100
AcDbBlockTableRecord
  2
*D5
340
0
  0
BLOCK_RECORD
  5
F10002
330
243
100
AcDbSymbolTableRecord
100
AcDbBlockTableRecord
  2
*D6
340
0
  0
BLOCK_RECORD
  5
F10007
330
243
100
AcDbSymbolTableRecord
100
AcDbBlockTableRecord
  2
*D7
340
0
  0
BLOCK_RECORD
  5
F10011
330
243
100
AcDbSymbolTableRecord
100
AcDbBlockTableRecord
  2
*D8
340
0
  0
BLOCK_RECORD
  5
F104A9
330
243
100
AcDbSymbolTableRecord
100
AcDbBlockTableRecord
  2
GENAXEH
340
0
  0
ENDTAB
  0
ENDSEC
  0
SECTION
  2
BLOCKS
  0
BLOCK
  5
262
330
261
100
AcDbEntity
  8
0
100
AcDbBlockBegin
  2
*Model_Space
 70
     0
 10
0.0
 20
0.0
 30
0.0
  3
*Model_Space
  1

  0
ENDBLK
  5
263
330
261
100
AcDbEntity
  8
0
100
AcDbBlockEnd
  0
BLOCK
  5
25E
330
25D
100
AcDbEntity
 67
     1
  8
0
100
AcDbBlockBegin
  2
*Paper_Space
 70
     0
 10
0.0
 20
0.0
 30
0.0
  3
*Paper_Space
  1

  0
ENDBLK
  5
25F
330
25D
100
AcDbEntity
 67
     1
  8
0
100
AcDbBlockEnd
  0
BLOCK
  5
266
330
265
100
AcDbEntity
  8
0
100
AcDbBlockBegin
  2
*Paper_Space0
 70
     0
 10
0.0
 20
0.0
 30
0.0
  3
*Paper_Space0
  1

  0
VIEWPORT
  5
296
102
{ACAD_XDICTIONARY
360
F10719
102
}
330
265
100
AcDbEntity
  8
0
 60
     1
100
AcDbViewport
 10
0.0
 20
0.0
 30
0.0
 40
10.0
 41
10.0
 69
     0
 12
0.0
 22
0.0
 13
0.0
 23
0.0
 14
1.0
 24
1.0
 15
0.0
 25
0.0
 16
0.0
 26
0.0
 36
1.0
 17
0.0
 27
0.0
 37
0.0
 42
0.0
 43
0.0
 44
0.0
 45
10.0
 50
0.0
 51
0.0000000000007958
 72
   100
 90
   163872
  1

281
     0
 71
     0
 74
     0
110
0.0
120
0.0
130
0.0
111
1.0
121
0.0
131
0.0
112
0.0
122
1.0
132
0.0
 79
     0
146
0.0
1001
VD_INVISIBLE_NOT_FOR_READ
1000
VD_INVISIBLE_NOT_FOR_READ
  0
VIEWPORT
  5
297
102
{ACAD_XDICTIONARY
360
F1071B
102
}
330
265
100
AcDbEntity
  8
0
 60
     1
100
AcDbViewport
 10
0.0
 20
0.0
 30
0.0
 40
10.0
 41
10.0
 69
     0
 12
0.0
 22
0.0
 13
0.0
 23
0.0
 14
1.0
 24
1.0
 15
0.0
 25
0.0
 16
0.0
 26
0.0
 36
1.0
 17
0.0
 27
0.0
 37
0.0
 42
0.0
 43
0.0
 44
0.0
 45
10.0
 50
0.0
 51
0.0000000000007958
 72
   100
 90
   163872
  1

281
     0
 71
     0
 74
     0
110
0.0
120
0.0
130
0.0
111
1.0
121
0.0
131
0.0
112
0.0
122
1.0
132
0.0
 79
     0
146
0.0
1001
VD_INVISIBLE_NOT_FOR_READ
1000
VD_INVISIBLE_NOT_FOR_READ
  0
ENDBLK
  5
267
330
265
100
AcDbEntity
  8
0
100
AcDbBlockEnd
  0
BLOCK
  5
28B
330
23C
100
AcDbEntity
  8
0
100
AcDbBlockBegin
  2
VDDIM_DEFAULT
 70
     0
 10
0.0
 20
0.0
 30
0.0
  3
VDDIM_DEFAULT
  1

  0
LWPOLYLINE
  5
23D
330
23C
100
AcDbEntity
  8
0
  6
Continuous
 62
     0
100
AcDbPolyline
 90
        4
 70
     0
 43
0.0
 10
0.0
 20
0.0
 10
-1.0
 20
-0.1665
 10
-1.0
 20
0.1665
 10
0.0
 20
0.0
1001
VDEXTRAPARAM
1071
        1
1071
        0
1071
        0
1040
1.0
1000

1000

1040
0.0
1040
0.0
  0
HATCH
  5
292
330
23C
100
AcDbEntity
  8
0
  6
Continuous
 62
     0
100
AcDbHatch
 10
0.0
 20
0.0
 30
0.0
210
0.0
220
0.0
230
1.0
  2
SOLID
 70
     1
 71
     0
 91
        1
 92
        2
 72
     0
 73
     1
 93
        3
 10
0.0
 20
0.0
 10
-1.0
 20
-0.1665
 10
-1.0
 20
0.1665
 97
        0
 75
     0
 76
     1
 98
        1
 10
0.0
 20
0.0
1001
VDEXTRAPARAM
1071
        1
1071
        0
1071
        0
1040
1.0
1000

1000

1040
0.0
1040
0.0
1001
VD_TEMPHATCH
1000
VD_TEMPHATCH
  0
ENDBLK
  5
28C
330
23C
100
AcDbEntity
  8
0
100
AcDbBlockEnd
  0
BLOCK
  5
28D
330
23E
100
AcDbEntity
  8
0
100
AcDbBlockBegin
  2
VDDIM_NONE
 70
     0
 10
0.0
 20
0.0
 30
0.0
  3
VDDIM_NONE
  1

  0
ENDBLK
  5
28E
330
23E
100
AcDbEntity
  8
0
100
AcDbBlockEnd
  0
BLOCK
  5
F10020
330
F1000C
100
AcDbEntity
  8
0
100
AcDbBlockBegin
  2
*D3
 70
     1
 10
0.0
 20
0.0
 30
0.0
  3
*D3
  1

  0
LINE
  5
F1054F
330
F1000C
100
AcDbEntity
  8
Bemassung
 62
     0
370
    -2
100
AcDbLine
 10
-15.64319823932264
 20
4.288750051657761
 30
0.0
 11
-15.64319823932264
 21
14.91375005165776
 31
0.0
  0
LINE
  5
F10550
330
F1000C
100
AcDbEntity
  8
Bemassung
 62
     0
370
    -2
100
AcDbLine
 10
20.35680176067735
 20
3.788750051657756
 30
0.0
 11
20.35680176067735
 21
14.91375005165776
 31
0.0
  0
LINE
  5
F10551
330
F1000C
100
AcDbEntity
  8
Bemassung
 62
     0
370
    -2
100
AcDbLine
 10
-13.14319823932264
 20
13.66375005165776
 30
0.0
 11
17.85680176067735
 21
13.66375005165776
 31
0.0
  0
INSERT
  5
F10552
330
F1000C
100
AcDbEntity
  8
Bemassung
 62
     0
370
    -2
100
AcDbBlockReference
  2
VDDIM_DEFAULT
 10
-15.64319823932264
 20
13.66375005165776
 30
0.0
 41
2.5
 42
2.5
 43
2.5
 50
180.0
  0
INSERT
  5
F10553
330
F1000C
100
AcDbEntity
  8
Bemassung
 62
     0
370
    -2
100
AcDbBlockReference
  2
VDDIM_DEFAULT
 10
20.35680176067735
 20
13.66375005165776
 30
0.0
 41
2.5
 42
2.5
 43
2.5
  0
MTEXT
  5
F10554
330
F1000C
100
AcDbEntity
  8
Bemassung
 62
     0
100
AcDbMText
 10
2.356801760677353
 20
14.28875005165776
 30
0.0
 40
2.5
 41
0.0
 71
     8
 72
     1
  1
\A1;36
 73
     1
 44
1.0
1001
ACAD
1000
MTEXTBEGIN
1070
    73
1070
     1
1070
    44
1040
1.0
1070
    74
1070
     0
1000
MTEXTEND
  0
POINT
  5
F10555
330
F1000C
100
AcDbEntity
  8
Defpoints
 62
     0
100
AcDbPoint
 10
-15.64319823932264
 20
3.663750051657761
 30
0.0
  0
POINT
  5
F10556
330
F1000C
100
AcDbEntity
  8
Defpoints
 62
     0
100
AcDbPoint
 10
20.35680176067735
 20
3.163750051657756
 30
0.0
  0
POINT
  5
F10557
330
F1000C
100
AcDbEntity
  8
Defpoints
 62
     0
100
AcDbPoint
 10
20.35680176067735
 20
13.66375005165776
 30
0.0
  0
ENDBLK
  5
F10029
330
F1000C
100
AcDbEntity
  8
0
100
AcDbBlockEnd
  0
BLOCK
  5
F1002A
330
F10016
100
AcDbEntity
  8
0
100
AcDbBlockBegin
  2
*D4
 70
     1
 10
0.0
 20
0.0
 30
0.0
  3
*D4
  1

  0
LINE
  5
F10636
330
F10016
100
AcDbEntity
  8
Bemassung
 62
     0
370
    -2
100
AcDbLine
 10
-26.64319823932263
 20
-2.961249948342241
 30
0.0
 11
-26.64319823932263
 21
-18.58624994834224
 31
0.0
  0
LINE
  5
F10637
330
F10016
100
AcDbEntity
  8
Bemassung
 62
     0
370
    -2
100
AcDbLine
 10
-36.64319823932264
 20
-18.71124994834224
 30
0.0
 11
-36.64319823932264
 21
-16.08624994834224
 31
0.0
  0
LINE
  5
F10638
330
F10016
100
AcDbEntity
  8
Bemassung
 62
     0
370
    -2
100
AcDbLine
 10
-29.14319823932263
 20
-17.33624994834224
 30
0.0
 11
-34.14319823932263
 21
-17.33624994834224
 31
0.0
  0
INSERT
  5
F10639
330
F10016
100
AcDbEntity
  8
Bemassung
 62
     0
370
    -2
100
AcDbBlockReference
  2
VDDIM_DEFAULT
 10
-26.64319823932263
 20
-17.33624994834224
 30
0.0
 41
2.5
 42
2.5
 43
2.5
  0
INSERT
  5
F1063A
330
F10016
100
AcDbEntity
  8
Bemassung
 62
     0
370
    -2
100
AcDbBlockReference
  2
VDDIM_DEFAULT
 10
-36.64319823932264
 20
-17.33624994834224
 30
0.0
 41
2.5
 42
2.5
 43
2.5
 50
180.0
  0
MTEXT
  5
F1063B
330
F10016
100
AcDbEntity
  8
Bemassung
 62
     0
100
AcDbMText
 10
-31.64319823932263
 20
-16.71124994834224
 30
0.0
 40
2.5
 41
0.0
 71
     8
 72
     1
  1
\A1;10
 73
     1
 44
1.0
1001
ACAD
1000
MTEXTBEGIN
1070
    73
1070
     1
1070
    44
1040
1.0
1070
    74
1070
     0
1000
MTEXTEND
  0
POINT
  5
F1063C
330
F10016
100
AcDbEntity
  8
Defpoints
 62
     0
100
AcDbPoint
 10
-26.64319823932263
 20
-2.336249948342241
 30
0.0
  0
POINT
  5
F1063D
330
F10016
100
AcDbEntity
  8
Defpoints
 62
     0
100
AcDbPoint
 10
-36.64319823932264
 20
-19.33624994834224
 30
0.0
  0
POINT
  5
F1063E
330
F10016
100
AcDbEntity
  8
Defpoints
 62
     0
100
AcDbPoint
 10
-36.64319823932264
 20
-17.33624994834224
 30
0.0
  0
ENDBLK
  5
F10033
330
F10016
100
AcDbEntity
  8
0
100
AcDbBlockEnd
  0
BLOCK
  5
F10034
330
F1001B
100
AcDbEntity
  8
0
100
AcDbBlockBegin
  2
*D5
 70
     1
 10
0.0
 20
0.0
 30
0.0
  3
*D5
  1

  0
LINE
  5
F1053D
330
F1001B
100
AcDbEntity
  8
Bemassung
 62
     0
370
    -2
100
AcDbLine
 10
20.35680176067735
 20
3.788750051657756
 30
0.0
 11
20.35680176067736
 21
34.91375005165777
 31
0.0
  0
LINE
  5
F1053E
330
F1001B
100
AcDbEntity
  8
Bemassung
 62
     0
370
    -2
100
AcDbLine
 10
-36.64319823932264
 20
-18.71124994834224
 30
0.0
 11
-36.64319823932264
 21
34.91375005165777
 31
0.0
  0
LINE
  5
F1053F
330
F1001B
100
AcDbEntity
  8
Bemassung
 62
     0
370
    -2
100
AcDbLine
 10
17.85680176067735
 20
33.66375005165777
 30
0.0
 11
-34.14319823932263
 21
33.66375005165777
 31
0.0
  0
INSERT
  5
F10540
330
F1001B
100
AcDbEntity
  8
Bemassung
 62
     0
370
    -2
100
AcDbBlockReference
  2
VDDIM_DEFAULT
 10
20.35680176067736
 20
33.66375005165777
 30
0.0
 41
2.5
 42
2.5
 43
2.5
  0
INSERT
  5
F10541
330
F1001B
100
AcDbEntity
  8
Bemassung
 62
     0
370
    -2
100
AcDbBlockReference
  2
VDDIM_DEFAULT
 10
-36.64319823932264
 20
33.66375005165777
 30
0.0
 41
2.5
 42
2.5
 43
2.5
 50
180.0
  0
MTEXT
  5
F10542
330
F1001B
100
AcDbEntity
  8
Bemassung
 62
     0
100
AcDbMText
 10
-8.143198239322636
 20
34.28875005165777
 30
0.0
 40
2.5
 41
0.0
 71
     8
 72
     1
  1
\A1;57
 73
     1
 44
1.0
1001
ACAD
1000
MTEXTBEGIN
1070
    73
1070
     1
1070
    44
1040
1.0
1070
    74
1070
     0
1000
MTEXTEND
  0
POINT
  5
F10543
330
F1001B
100
AcDbEntity
  8
Defpoints
 62
     0
100
AcDbPoint
 10
20.35680176067735
 20
3.163750051657756
 30
0.0
  0
POINT
  5
F10544
330
F1001B
100
AcDbEntity
  8
Defpoints
 62
     0
100
AcDbPoint
 10
-36.64319823932264
 20
-19.33624994834224
 30
0.0
  0
POINT
  5
F10545
330
F1001B
100
AcDbEntity
  8
Defpoints
 62
     0
100
AcDbPoint
 10
-36.64319823932264
 20
33.66375005165777
 30
0.0
  0
ENDBLK
  5
F1003D
330
F1001B
100
AcDbEntity
  8
0
100
AcDbBlockEnd
  0
BLOCK
  5
F1003E
330
F10002
100
AcDbEntity
  8
0
100
AcDbBlockBegin
  2
*D6
 70
     1
 10
0.0
 20
0.0
 30
0.0
  3
*D6
  1

  0
LINE
  5
F104FC
330
F10002
100
AcDbEntity
  8
Bemassung
 62
     0
370
    -2
100
AcDbLine
 10
-50.65544782800341
 20
17.8800838402638
 30
0.0
 11
-37.50902856174415
 21
4.575956068503803
 31
0.0
  0
MTEXT
  5
F104FD
330
F10002
100
AcDbEntity
  8
Bemassung
 62
     0
100
AcDbMText
 10
-48.35479616006225
 20
16.44103379564064
 30
0.0
 40
2.5
 41
0.0
 71
     8
 72
     1
  1
\A1;R3
 11
0.7028782404402768
 21
-0.7113101848810972
 31
0.0
 73
     1
 44
1.0
1001
ACAD
1000
MTEXTBEGIN
1070
    73
1070
     1
1070
    44
1040
1.0
1070
    74
1070
     0
1000
MTEXTEND
  0
LINE
  5
F104FE
330
F10002
100
AcDbEntity
  8
Bemassung
 62
     0
370
    -2
100
AcDbLine
 10
-33.64319823932263
 20
0.663750051657754
 30
0.0
 11
-35.75183296064347
 21
2.79768060630106
 31
0.0
  0
INSERT
  5
F104FF
330
F10002
100
AcDbEntity
  8
Bemassung
 62
     0
370
    -2
100
AcDbBlockReference
  2
VDDIM_DEFAULT
 10
-35.75183296064347
 20
2.79768060630106
 30
0.0
 41
2.5
 42
2.5
 43
2.5
 50
314.6583842039068
  0
POINT
  5
F10500
330
F10002
100
AcDbEntity
  8
Defpoints
 62
     0
100
AcDbPoint
 10
-35.75183296064347
 20
2.79768060630106
 30
0.0
  0
POINT
  5
F10501
330
F10002
100
AcDbEntity
  8
Defpoints
 62
     0
100
AcDbPoint
 10
-33.64319823932263
 20
0.663750051657754
 30
0.0
  0
ENDBLK
  5
F10044
330
F10002
100
AcDbEntity
  8
0
100
AcDbBlockEnd
  0
BLOCK
  5
F10045
330
F10007
100
AcDbEntity
  8
0
100
AcDbBlockBegin
  2
*D7
 70
     1
 10
0.0
 20
0.0
 30
0.0
  3
*D7
  1

  0
LINE
  5
F10622
330
F10007
100
AcDbEntity
  8
Bemassung
 62
     0
370
    -2
100
AcDbLine
 10
-34.26819823932263
 20
-2.336249948342241
 30
0.0
 11
-47.89319823932264
 21
-2.336249948342238
 31
0.0
  0
LINE
  5
F10623
330
F10007
100
AcDbEntity
  8
Bemassung
 62
     0
370
    -2
100
AcDbLine
 10
-34.26819823932263
 20
3.663750051657761
 30
0.0
 11
-47.89319823932264
 21
3.663750051657765
 31
0.0
  0
LINE
  5
F10624
330
F10007
100
AcDbEntity
  8
Bemassung
 62
     0
370
    -2
100
AcDbLine
 10
-46.64319823932264
 20
-4.836249948342238
 30
0.0
 11
-46.64319823932264
 21
-7.336249948342237
 31
0.0
  0
LINE
  5
F10625
330
F10007
100
AcDbEntity
  8
Bemassung
 62
     0
370
    -2
100
AcDbLine
 10
-46.64319823932264
 20
6.163750051657763
 30
0.0
 11
-46.64319823932264
 21
8.663750051657764
 31
0.0
  0
LINE
  5
F10626
330
F10007
100
AcDbEntity
  8
Bemassung
 62
     0
370
    -2
100
AcDbLine
 10
-46.64319823932264
 20
-2.336249948342238
 30
0.0
 11
-46.64319823932264
 21
3.663750051657763
 31
0.0
  0
INSERT
  5
F10627
330
F10007
100
AcDbEntity
  8
Bemassung
 62
     0
370
    -2
100
AcDbBlockReference
  2
VDDIM_DEFAULT
 10
-46.64319823932264
 20
-2.336249948342238
 30
0.0
 41
2.5
 42
2.5
 43
2.5
 50
90.0
  0
INSERT
  5
F10628
330
F10007
100
AcDbEntity
  8
Bemassung
 62
     0
370
    -2
100
AcDbBlockReference
  2
VDDIM_DEFAULT
 10
-46.64319823932264
 20
3.663750051657763
 30
0.0
 41
2.5
 42
2.5
 43
2.5
 50
270.0
  0
MTEXT
  5
F10629
330
F10007
100
AcDbEntity
  8
Bemassung
 62
     0
100
AcDbMText
 10
-47.26819823932264
 20
0.6637500516577557
 30
0.0
 40
2.5
 41
0.0
 71
     8
 72
     1
  1
\A1;%%C6
 11
0.0000000000000001
 21
1.0
 31
0.0
 73
     1
 44
1.0
1001
ACAD
1000
MTEXTBEGIN
1070
    73
1070
     1
1070
    44
1040
1.0
1070
    74
1070
     0
1000
MTEXTEND
  0
POINT
  5
F1062A
330
F10007
100
AcDbEntity
  8
Defpoints
 62
     0
100
AcDbPoint
 10
-33.64319823932263
 20
-2.336249948342241
 30
0.0
  0
POINT
  5
F1062B
330
F10007
100
AcDbEntity
  8
Defpoints
 62
     0
100
AcDbPoint
 10
-33.64319823932263
 20
3.663750051657761
 30
0.0
  0
POINT
  5
F1062C
330
F10007
100
AcDbEntity
  8
Defpoints
 62
     0
100
AcDbPoint
 10
-46.64319823932264
 20
3.663750051657763
 30
0.0
  0
ENDBLK
  5
F1004E
330
F10007
100
AcDbEntity
  8
0
100
AcDbBlockEnd
  0
BLOCK
  5
F1004F
330
F10011
100
AcDbEntity
  8
0
100
AcDbBlockBegin
  2
*D8
 70
     1
 10
0.0
 20
0.0
 30
0.0
  3
*D8
  1

  0
LINE
  5
F105B4
330
F10011
100
AcDbEntity
  8
Bemassung
 62
     0
370
    -2
100
AcDbLine
 10
20.48180176067735
 20
-2.336249948342241
 30
0.0
 11
31.60680176067736
 21
-2.336249948342246
 31
0.0
  0
LINE
  5
F105B5
330
F10011
100
AcDbEntity
  8
Bemassung
 62
     0
370
    -2
100
AcDbLine
 10
20.48180176067735
 20
3.663750051657761
 30
0.0
 11
31.60680176067736
 21
3.663750051657756
 31
0.0
  0
LINE
  5
F105B6
330
F10011
100
AcDbEntity
  8
Bemassung
 62
     0
370
    -2
100
AcDbLine
 10
30.35680176067736
 20
-4.836249948342246
 30
0.0
 11
30.35680176067736
 21
-7.336249948342246
 31
0.0
  0
LINE
  5
F105B7
330
F10011
100
AcDbEntity
  8
Bemassung
 62
     0
370
    -2
100
AcDbLine
 10
30.35680176067736
 20
6.163750051657757
 30
0.0
 11
30.35680176067736
 21
8.663750051657757
 31
0.0
  0
LINE
  5
F105B8
330
F10011
100
AcDbEntity
  8
Bemassung
 62
     0
370
    -2
100
AcDbLine
 10
30.35680176067736
 20
-2.336249948342245
 30
0.0
 11
30.35680176067736
 21
3.663750051657758
 31
0.0
  0
INSERT
  5
F105B9
330
F10011
100
AcDbEntity
  8
Bemassung
 62
     0
370
    -2
100
AcDbBlockReference
  2
VDDIM_DEFAULT
 10
30.35680176067736
 20
-2.336249948342245
 30
0.0
 41
2.5
 42
2.5
 43
2.5
 50
90.0
  0
INSERT
  5
F105BA
330
F10011
100
AcDbEntity
  8
Bemassung
 62
     0
370
    -2
100
AcDbBlockReference
  2
VDDIM_DEFAULT
 10
30.35680176067736
 20
3.663750051657758
 30
0.0
 41
2.5
 42
2.5
 43
2.5
 50
270.0
  0
MTEXT
  5
F105BB
330
F10011
100
AcDbEntity
  8
Bemassung
 62
     0
100
AcDbMText
 10
29.73180176067736
 20
0.6637500516577616
 30
0.0
 40
2.5
 41
0.0
 71
     8
 72
     1
  1
\A1;%%C6 
 11
0.0000000000000001
 21
1.0
 31
0.0
 73
     1
 44
1.0
1001
ACAD
1000
MTEXTBEGIN
1070
    73
1070
     1
1070
    44
1040
1.0
1070
    74
1070
     0
1000
MTEXTEND
  0
POINT
  5
F105BC
330
F10011
100
AcDbEntity
  8
Defpoints
 62
     0
100
AcDbPoint
 10
19.85680176067735
 20
-2.336249948342241
 30
0.0
  0
POINT
  5
F105BD
330
F10011
100
AcDbEntity
  8
Defpoints
 62
     0
100
AcDbPoint
 10
19.85680176067735
 20
3.663750051657761
 30
0.0
  0
POINT
  5
F105BE
330
F10011
100
AcDbEntity
  8
Defpoints
 62
     0
100
AcDbPoint
 10
30.35680176067736
 20
3.663750051657758
 30
0.0
  0
ENDBLK
  5
F10058
330
F10011
100
AcDbEntity
  8
0
100
AcDbBlockEnd
  0
BLOCK
  5
F104AB
330
F104A9
100
AcDbEntity
  8
0
100
AcDbBlockBegin
  2
GENAXEH
 70
     0
 10
0.0
 20
0.0
 30
0.0
  3
GENAXEH
  1

  0
LINE
  5
F104AA
330
F104A9
100
AcDbEntity
  8
0
100
AcDbLine
 10
-1.0
 20
0.0
 30
0.0
 11
1.0
 21
0.0
 31
0.0
  0
ENDBLK
  5
F104AC
330
F104A9
100
AcDbEntity
  8
0
100
AcDbBlockEnd
  0
ENDSEC
  0
SECTION
  2
ENTITIES
  0
DIMENSION
  5
F1000D
330
261
100
AcDbEntity
  8
Bemassung
100
AcDbDimension
  2
*D3
 10
20.35680176067735
 20
13.66375005165776
 30
0.0
 11
2.356801760677353
 21
15.56603518126213
 31
0.0
 70
    32
  1
<>
 71
     8
 42
36.0
  3
BEM-ISBE
100
AcDbAlignedDimension
 13
-15.64319823932264
 23
3.663750051657761
 33
0.0
 14
20.35680176067735
 24
3.163750051657756
 34
0.0
100
AcDbRotatedDimension
1001
ACAD
1000
DSTYLE
1002
{
1070
    47
1040
2.0
1070
    48
1040
0.0
1070
    71
1070
     0
1070
    78
1070
     8
1070
   284
1070
     8
1002
}
  0
DIMENSION
  5
F10017
330
261
100
AcDbEntity
  8
Bemassung
100
AcDbDimension
  2
*D4
 10
-36.64319823932264
 20
-17.33624994834224
 30
0.0
 11
-31.64319823932263
 21
-15.43481747903801
 31
0.0
 70
    32
  1
<>
 71
     8
 42
10.0
  3
BEM-ISBE
100
AcDbAlignedDimension
 13
-26.64319823932263
 23
-2.336249948342241
 33
0.0
 14
-36.64319823932264
 24
-19.33624994834224
 34
0.0
100
AcDbRotatedDimension
1001
ACAD
1000
DSTYLE
1002
{
1070
    47
1040
1.0
1070
    48
1040
0.0
1070
    71
1070
     0
1070
    78
1070
     8
1070
   284
1070
     8
1002
}
  0
DIMENSION
  5
F1001C
330
261
100
AcDbEntity
  8
Bemassung
100
AcDbDimension
  2
*D5
 10
-36.64319823932264
 20
33.66375005165777
 30
0.0
 11
-8.143198239322636
 21
35.56006655916117
 31
0.0
 70
    32
  1
<>
 71
     8
 42
56.99999999999999
  3
BEM-ISBE
100
AcDbAlignedDimension
 13
20.35680176067735
 23
3.163750051657756
 33
0.0
 14
-36.64319823932264
 24
-19.33624994834224
 34
0.0
100
AcDbRotatedDimension
1001
ACAD
1000
DSTYLE
1002
{
1070
    47
1040
2.0
1070
    48
1040
0.0
1070
    71
1070
     0
1070
    78
1070
     8
1070
   284
1070
     8
1002
}
  0
DIMENSION
  5
F10003
330
261
100
AcDbEntity
  8
Bemassung
100
AcDbDimension
  2
*D6
 10
-33.64319823932263
 20
0.663750051657754
 30
0.0
 11
-48.79936502561296
 21
16.00173489536547
 31
0.0
 70
   164
  1
<>
 71
     8
 42
3.000000000000017
  3
BEM-ISBE
100
AcDbRadialDimension
 15
-35.75183296064347
 25
2.79768060630106
 35
0.0
 40
0.0
1001
ACAD
1000
DSTYLE
1002
{
1070
   284
1070
     8
1070
    78
1070
     8
1070
   144
1040
1.0
1070
   147
1040
0.625
1070
    72
1070
     0
1070
    71
1070
     0
1002
}
  0
DIMENSION
  5
F10008
330
261
100
AcDbEntity
  8
Bemassung
100
AcDbDimension
  2
*D7
 10
-46.64319823932264
 20
3.663750051657763
 30
0.0
 11
-48.61454885323805
 21
0.6637500516577557
 31
0.0
 70
    32
  1
%%C<>
 71
     8
 42
6.000000000000002
  3
BEM-ISBE
100
AcDbAlignedDimension
 13
-33.64319823932263
 23
-2.336249948342241
 33
0.0
 14
-33.64319823932263
 24
3.663750051657761
 34
0.0
 50
90.0
100
AcDbRotatedDimension
1001
ACAD
1000
DSTYLE
1002
{
1070
    48
1040
-0.048
1070
    71
1070
     0
1070
    78
1070
     8
1002
}
1001
ACAD_DSTYLE_DIMINSPECT
1070
   396
1000
100%
1070
   395
1000

1070
   394
1070
    33
1070
   393
1070
     0
  0
DIMENSION
  5
F10012
330
261
100
AcDbEntity
  8
Bemassung
100
AcDbDimension
  2
*D8
 10
30.35680176067736
 20
3.663750051657758
 30
0.0
 11
28.38545114676194
 21
0.6637500516577616
 31
0.0
 70
    32
  1
%%C<> 
 71
     8
 42
6.000000000000002
  3
BEM-ISBE
100
AcDbAlignedDimension
 13
19.85680176067735
 23
-2.336249948342241
 33
0.0
 14
19.85680176067735
 24
3.663750051657761
 34
0.0
 50
90.0
100
AcDbRotatedDimension
1001
ACAD
1000
DSTYLE
1002
{
1070
    71
1070
     0
1070
    78
1070
     8
1002
}
1001
ACAD_DSTYLE_DIMINSPECT
1070
   396
1000
100%
1070
   395
1000

1070
   394
1070
    33
1070
   393
1070
     0
  0
ARC
  5
F10059
330
261
100
AcDbEntity
  8
Geo
100
AcDbCircle
 10
-33.64319823932263
 20
0.6637500516577575
 30
0.0
 40
3.0
100
AcDbArc
 50
89.9999999999996
 51
180.0
  0
LINE
  5
F1005B
330
261
100
AcDbEntity
  8
Geo
100
AcDbLine
 10
-33.64319823932263
 20
3.663750051657761
 30
0.0
 11
-15.64319823932264
 21
3.663750051657761
 31
0.0
  0
LINE
  5
F1005D
330
261
100
AcDbEntity
  8
Geo
100
AcDbLine
 10
-15.64319823932264
 20
3.663750051657761
 30
0.0
 11
19.85680176067735
 21
3.663750051657761
 31
0.0
  0
LINE
  5
F1005F
330
261
100
AcDbEntity
  8
Geo
100
AcDbLine
 10
19.85680176067735
 20
3.663750051657761
 30
0.0
 11
20.35680176067735
 21
3.163750051657756
 31
0.0
  0
LINE
  5
F10061
330
261
100
AcDbEntity
  8
Geo
100
AcDbLine
 10
-27.94319823932264
 20
3.663472224444457
 30
0.0
 11
-27.84319823932263
 21
3.663702414901353
 31
0.0
  0
LINE
  5
F10063
330
261
100
AcDbEntity
  8
Geo
100
AcDbLine
 10
-27.84319823932263
 20
3.663702414901353
 30
0.0
 11
-27.74319823932264
 21
3.662821546182961
 31
0.0
  0
LINE
  5
F10065
330
261
100
AcDbEntity
  8
Geo
100
AcDbLine
 10
-27.74319823932264
 20
3.662821546182961
 30
0.0
 11
-27.64319823932263
 21
3.660829944526856
 31
0.0
  0
LINE
  5
F10067
330
261
100
AcDbEntity
  8
Geo
100
AcDbLine
 10
-27.64319823932263
 20
3.660829944526856
 30
0.0
 11
-27.54319823932263
 21
3.657728347540558
 31
0.0
  0
LINE
  5
F10069
330
261
100
AcDbEntity
  8
Geo
100
AcDbLine
 10
-27.54319823932263
 20
3.657728347540558
 30
0.0
 11
-27.44319823932264
 21
3.653517903928261
 31
0.0
  0
LINE
  5
F1006B
330
261
100
AcDbEntity
  8
Geo
100
AcDbLine
 10
-27.44319823932264
 20
3.653517903928261
 30
0.0
 11
-27.34319823932263
 21
3.648200173065355
 31
0.0
  0
LINE
  5
F1006D
330
261
100
AcDbEntity
  8
Geo
100
AcDbLine
 10
-27.34319823932263
 20
3.648200173065355
 30
0.0
 11
-27.24319823932264
 21
3.641777124420958
 31
0.0
  0
LINE
  5
F1006F
330
261
100
AcDbEntity
  8
Geo
100
AcDbLine
 10
-27.24319823932264
 20
3.641777124420958
 30
0.0
 11
-27.14319823932263
 21
3.634251136828658
 31
0.0
  0
LINE
  5
F10071
330
261
100
AcDbEntity
  8
Geo
100
AcDbLine
 10
-27.14319823932263
 20
3.634251136828658
 30
0.0
 11
-27.04319823932264
 21
3.625624997605153
 31
0.0
  0
LINE
  5
F10073
330
261
100
AcDbEntity
  8
Geo
100
AcDbLine
 10
-27.04319823932264
 20
3.625624997605153
 30
0.0
 11
-26.94319823932264
 21
3.615901901518359
 31
0.0
  0
LINE
  5
F10075
330
261
100
AcDbEntity
  8
Geo
100
AcDbLine
 10
-26.94319823932264
 20
3.615901901518359
 30
0.0
 11
-26.84319823932263
 21
3.605085449603556
 31
0.0
  0
LINE
  5
F10077
330
261
100
AcDbEntity
  8
Geo
100
AcDbLine
 10
-26.84319823932263
 20
3.605085449603556
 30
0.0
 11
-26.74319823932264
 21
3.593179647830655
 31
0.0
  0
LINE
  5
F10079
330
261
100
AcDbEntity
  8
Geo
100
AcDbLine
 10
-26.74319823932264
 20
3.593179647830655
 30
0.0
 11
-26.64319823932263
 21
3.580188905619656
 31
0.0
  0
LINE
  5
F1007B
330
261
100
AcDbEntity
  8
Geo
100
AcDbLine
 10
-26.64319823932263
 20
3.580188905619656
 30
0.0
 11
-26.64319823932263
 21
3.580188905619656
 31
0.0
  0
LINE
  5
F1007D
330
261
100
AcDbEntity
  8
Geo
100
AcDbLine
 10
-26.64319823932263
 20
3.580188905619656
 30
0.0
 11
-26.64319823932263
 21
3.580188905619656
 31
0.0
  0
LINE
  5
F1007F
330
261
100
AcDbEntity
  8
Geo
100
AcDbLine
 10
-26.64319823932263
 20
3.580188905619656
 30
0.0
 11
-26.54319823932264
 21
3.547135960912555
 31
0.0
  0
LINE
  5
F10081
330
261
100
AcDbEntity
  8
Geo
100
AcDbLine
 10
-26.54319823932264
 20
3.547135960912555
 30
0.0
 11
-26.44319823932264
 21
3.508102521774357
 31
0.0
  0
LINE
  5
F10083
330
261
100
AcDbEntity
  8
Geo
100
AcDbLine
 10
-26.44319823932264
 20
3.508102521774357
 30
0.0
 11
-26.34319823932263
 21
3.462922560516858
 31
0.0
  0
LINE
  5
F10085
330
261
100
AcDbEntity
  8
Geo
100
AcDbLine
 10
-26.34319823932263
 20
3.462922560516858
 30
0.0
 11
-26.24319823932264
 21
3.411444470047459
 31
0.0
  0
LINE
  5
F10087
330
261
100
AcDbEntity
  8
Geo
100
AcDbLine
 10
-26.24319823932264
 20
3.411444470047459
 30
0.0
 11
-26.14319823932263
 21
3.353532751074656
 31
0.0
  0
LINE
  5
F10089
330
261
100
AcDbEntity
  8
Geo
100
AcDbLine
 10
-26.14319823932263
 20
3.353532751074656
 30
0.0
 11
-26.04319823932264
 21
3.28906974273686
 31
0.0
  0
LINE
  5
F1008B
330
261
100
AcDbEntity
  8
Geo
100
AcDbLine
 10
-26.04319823932264
 20
3.28906974273686
 30
0.0
 11
-25.94319823932264
 21
3.217957389072458
 31
0.0
  0
LINE
  5
F1008D
330
261
100
AcDbEntity
  8
Geo
100
AcDbLine
 10
-25.94319823932264
 20
3.217957389072458
 30
0.0
 11
-25.84319823932264
 21
3.140119032757656
 31
0.0
  0
LINE
  5
F1008F
330
261
100
AcDbEntity
  8
Geo
100
AcDbLine
 10
-25.84319823932264
 20
3.140119032757656
 30
0.0
 11
-25.74319823932264
 21
3.055501226518359
 31
0.0
  0
LINE
  5
F10091
330
261
100
AcDbEntity
  8
Geo
100
AcDbLine
 10
-25.74319823932264
 20
3.055501226518359
 30
0.0
 11
-25.64319823932263
 21
2.964075551575458
 31
0.0
  0
LINE
  5
F10093
330
261
100
AcDbEntity
  8
Geo
100
AcDbLine
 10
-25.64319823932263
 20
2.964075551575458
 30
0.0
 11
-25.54319823932264
 21
2.865840431420656
 31
0.0
  0
LINE
  5
F10095
330
261
100
AcDbEntity
  8
Geo
100
AcDbLine
 10
-25.54319823932264
 20
2.865840431420656
 30
0.0
 11
-25.44319823932264
 21
2.760822928143656
 31
0.0
  0
LINE
  5
F10097
330
261
100
AcDbEntity
  8
Geo
100
AcDbLine
 10
-25.44319823932264
 20
2.760822928143656
 30
0.0
 11
-25.34319823932263
 21
2.649080507462155
 31
0.0
  0
LINE
  5
F10099
330
261
100
AcDbEntity
  8
Geo
100
AcDbLine
 10
-25.34319823932263
 20
2.649080507462155
 30
0.0
 11
-25.24319823932264
 21
2.530702757537759
 31
0.0
  0
LINE
  5
F1009B
330
261
100
AcDbEntity
  8
Geo
100
AcDbLine
 10
-25.24319823932264
 20
2.530702757537759
 30
0.0
 11
-25.14319823932263
 21
2.405813045617556
 31
0.0
  0
LINE
  5
F1009D
330
261
100
AcDbEntity
  8
Geo
100
AcDbLine
 10
-25.14319823932263
 20
2.405813045617556
 30
0.0
 11
-25.04319823932263
 21
2.274570095533056
 31
0.0
  0
LINE
  5
F1009F
330
261
100
AcDbEntity
  8
Geo
100
AcDbLine
 10
-25.04319823932263
 20
2.274570095533056
 30
0.0
 11
-24.94319823932264
 21
2.137169468117658
 31
0.0
  0
LINE
  5
F100A1
330
261
100
AcDbEntity
  8
Geo
100
AcDbLine
 10
-24.94319823932264
 20
2.137169468117658
 30
0.0
 11
-24.84319823932263
 21
1.993844925703058
 31
0.0
  0
LINE
  5
F100A3
330
261
100
AcDbEntity
  8
Geo
100
AcDbLine
 10
-24.84319823932263
 20
1.993844925703058
 30
0.0
 11
-24.74319823932264
 21
1.844869661023157
 31
0.0
  0
LINE
  5
F100A5
330
261
100
AcDbEntity
  8
Geo
100
AcDbLine
 10
-24.74319823932264
 20
1.844869661023157
 30
0.0
 11
-24.64319823932263
 21
1.690557370117456
 31
0.0
  0
LINE
  5
F100A7
330
261
100
AcDbEntity
  8
Geo
100
AcDbLine
 10
-24.64319823932263
 20
1.690557370117456
 30
0.0
 11
-24.54319823932264
 21
1.531263148195758
 31
0.0
  0
LINE
  5
F100A9
330
261
100
AcDbEntity
  8
Geo
100
AcDbLine
 10
-24.54319823932264
 20
1.531263148195758
 30
0.0
 11
-24.44319823932264
 21
1.367384186926859
 31
0.0
  0
LINE
  5
F100AB
330
261
100
AcDbEntity
  8
Geo
100
AcDbLine
 10
-24.44319823932264
 20
1.367384186926859
 30
0.0
 11
-24.34319823932263
 21
1.199360251254258
 31
0.0
  0
LINE
  5
F100AD
330
261
100
AcDbEntity
  8
Geo
100
AcDbLine
 10
-24.34319823932263
 20
1.199360251254258
 30
0.0
 11
-24.24319823932264
 21
1.027673913654157
 31
0.0
  0
LINE
  5
F100AF
330
261
100
AcDbEntity
  8
Geo
100
AcDbLine
 10
-24.24319823932264
 20
1.027673913654157
 30
0.0
 11
-24.14319823932263
 21
0.8528505237418571
 31
0.0
  0
LINE
  5
F100B1
330
261
100
AcDbEntity
  8
Geo
100
AcDbLine
 10
-24.14319823932263
 20
0.8528505237418571
 30
0.0
 11
-24.04319823932264
 21
0.6754578913307583
 31
0.0
  0
LINE
  5
F100B3
330
261
100
AcDbEntity
  8
Geo
100
AcDbLine
 10
-24.04319823932264
 20
0.6754578913307583
 30
0.0
 11
-23.94319823932264
 21
0.496105661470356
 31
0.0
  0
LINE
  5
F100B5
330
261
100
AcDbEntity
  8
Geo
100
AcDbLine
 10
-23.94319823932264
 20
0.496105661470356
 30
0.0
 11
-23.84319823932263
 21
0.3154443606523571
 31
0.0
  0
LINE
  5
F100B7
330
261
100
AcDbEntity
  8
Geo
100
AcDbLine
 10
-23.84319823932263
 20
0.3154443606523571
 30
0.0
 11
-23.74319823932264
 21
0.1341640943065556
 31
0.0
  0
LINE
  5
F100B9
330
261
100
AcDbEntity
  8
Geo
100
AcDbLine
 10
-23.74319823932264
 20
0.1341640943065556
 30
0.0
 11
-23.64319823932263
 21
-0.0470071230895393
 31
0.0
  0
LINE
  5
F100BB
330
261
100
AcDbEntity
  8
Geo
100
AcDbLine
 10
-23.64319823932263
 20
-0.0470071230895393
 30
0.0
 11
-23.54319823932264
 21
-0.2273054224493407
 31
0.0
  0
LINE
  5
F100BD
330
261
100
AcDbEntity
  8
Geo
100
AcDbLine
 10
-23.54319823932264
 20
-0.2273054224493407
 30
0.0
 11
-23.44319823932264
 21
-0.4059335344116449
 31
0.0
  0
LINE
  5
F100BF
330
261
100
AcDbEntity
  8
Geo
100
AcDbLine
 10
-23.44319823932264
 20
-0.4059335344116449
 30
0.0
 11
-23.34319823932263
 21
-0.5820636567634418
 31
0.0
  0
LINE
  5
F100C1
330
261
100
AcDbEntity
  8
Geo
100
AcDbLine
 10
-23.34319823932263
 20
-0.5820636567634418
 30
0.0
 11
-23.24319823932264
 21
-0.7548407456606406
 31
0.0
  0
LINE
  5
F100C3
330
261
100
AcDbEntity
  8
Geo
100
AcDbLine
 10
-23.24319823932264
 20
-0.7548407456606406
 30
0.0
 11
-23.14319823932263
 21
-0.9233862385149398
 31
0.0
  0
LINE
  5
F100C5
330
261
100
AcDbEntity
  8
Geo
100
AcDbLine
 10
-23.14319823932263
 20
-0.9233862385149398
 30
0.0
 11
-23.04319823932264
 21
-1.086802213225541
 31
0.0
  0
LINE
  5
F100C7
330
261
100
AcDbEntity
  8
Geo
100
AcDbLine
 10
-23.04319823932264
 20
-1.086802213225541
 30
0.0
 11
-22.94319823932264
 21
-1.244175984884239
 31
0.0
  0
LINE
  5
F100C9
330
261
100
AcDbEntity
  8
Geo
100
AcDbLine
 10
-22.94319823932264
 20
-1.244175984884239
 30
0.0
 11
-22.84319823932263
 21
-1.394585137175742
 31
0.0
  0
LINE
  5
F100CB
330
261
100
AcDbEntity
  8
Geo
100
AcDbLine
 10
-22.84319823932263
 20
-1.394585137175742
 30
0.0
 11
-22.74319823932264
 21
-1.537102981442141
 31
0.0
  0
LINE
  5
F100CD
330
261
100
AcDbEntity
  8
Geo
100
AcDbLine
 10
-22.74319823932264
 20
-1.537102981442141
 30
0.0
 11
-22.64319823932263
 21
-1.670804431780339
 31
0.0
  0
LINE
  5
F100CF
330
261
100
AcDbEntity
  8
Geo
100
AcDbLine
 10
-22.64319823932263
 20
-1.670804431780339
 30
0.0
 11
-22.64319823932263
 21
-1.670804431780339
 31
0.0
  0
LINE
  5
F100D1
330
261
100
AcDbEntity
  8
Geo
100
AcDbLine
 10
-36.64319823932264
 20
0.6637500516577575
 30
0.0
 11
-36.54319823932264
 21
1.196336427837457
 31
0.0
  0
LINE
  5
F100D3
330
261
100
AcDbEntity
  8
Geo
100
AcDbLine
 10
-36.54319823932264
 20
1.196336427837457
 30
0.0
 11
-36.44319823932264
 21
1.395457413466057
 31
0.0
  0
LINE
  5
F100D5
330
261
100
AcDbEntity
  8
Geo
100
AcDbLine
 10
-36.44319823932264
 20
1.395457413466057
 30
0.0
 11
-36.34319823932263
 21
1.53351573898696
 31
0.0
  0
LINE
  5
F100D7
330
261
100
AcDbEntity
  8
Geo
100
AcDbLine
 10
-36.34319823932263
 20
1.53351573898696
 30
0.0
 11
-36.24319823932264
 21
1.637528845058959
 31
0.0
  0
LINE
  5
F100D9
330
261
100
AcDbEntity
  8
Geo
100
AcDbLine
 10
-36.24319823932264
 20
1.637528845058959
 30
0.0
 11
-36.14319823932264
 21
1.718269636215654
 31
0.0
  0
LINE
  5
F100DB
330
261
100
AcDbEntity
  8
Geo
100
AcDbLine
 10
-36.14319823932264
 20
1.718269636215654
 30
0.0
 11
-36.04319823932264
 21
1.781423396722554
 31
0.0
  0
LINE
  5
F100DD
330
261
100
AcDbEntity
  8
Geo
100
AcDbLine
 10
-36.04319823932264
 20
1.781423396722554
 30
0.0
 11
-35.94319823932264
 21
1.830468562611055
 31
0.0
  0
LINE
  5
F100DF
330
261
100
AcDbEntity
  8
Geo
100
AcDbLine
 10
-35.94319823932264
 20
1.830468562611055
 30
0.0
 11
-35.84319823932264
 21
1.867743115261159
 31
0.0
  0
LINE
  5
F100E1
330
261
100
AcDbEntity
  8
Geo
100
AcDbLine
 10
-35.84319823932264
 20
1.867743115261159
 30
0.0
 11
-35.74319823932264
 21
1.894925821603854
 31
0.0
  0
LINE
  5
F100E3
330
261
100
AcDbEntity
  8
Geo
100
AcDbLine
 10
-35.74319823932264
 20
1.894925821603854
 30
0.0
 11
-35.64319823932264
 21
1.913283343174658
 31
0.0
  0
LINE
  5
F100E5
330
261
100
AcDbEntity
  8
Geo
100
AcDbLine
 10
-35.64319823932264
 20
1.913283343174658
 30
0.0
 11
-35.54319823932264
 21
1.923809335242256
 31
0.0
  0
LINE
  5
F100E7
330
261
100
AcDbEntity
  8
Geo
100
AcDbLine
 10
-35.54319823932264
 20
1.923809335242256
 30
0.0
 11
-35.44319823932264
 21
1.92730834964766
 31
0.0
  0
LINE
  5
F100E9
330
261
100
AcDbEntity
  8
Geo
100
AcDbLine
 10
-35.44319823932264
 20
1.92730834964766
 30
0.0
 11
-35.34319823932263
 21
1.924449254102554
 31
0.0
  0
LINE
  5
F100EB
330
261
100
AcDbEntity
  8
Geo
100
AcDbLine
 10
-35.34319823932263
 20
1.924449254102554
 30
0.0
 11
-35.24319823932264
 21
1.915800755349159
 31
0.0
  0
LINE
  5
F100ED
330
261
100
AcDbEntity
  8
Geo
100
AcDbLine
 10
-35.24319823932264
 20
1.915800755349159
 30
0.0
 11
-35.14319823932263
 21
1.901855883353056
 31
0.0
  0
LINE
  5
F100EF
330
261
100
AcDbEntity
  8
Geo
100
AcDbLine
 10
-35.14319823932263
 20
1.901855883353056
 30
0.0
 11
-35.04319823932263
 21
1.883049382246458
 31
0.0
  0
LINE
  5
F100F1
330
261
100
AcDbEntity
  8
Geo
100
AcDbLine
 10
-35.04319823932263
 20
1.883049382246458
 30
0.0
 11
-34.94319823932264
 21
1.859770384208959
 31
0.0
  0
LINE
  5
F100F3
330
261
100
AcDbEntity
  8
Geo
100
AcDbLine
 10
-34.94319823932264
 20
1.859770384208959
 30
0.0
 11
-34.84319823932263
 21
1.832371853489558
 31
0.0
  0
LINE
  5
F100F5
330
261
100
AcDbEntity
  8
Geo
100
AcDbLine
 10
-34.84319823932263
 20
1.832371853489558
 30
0.0
 11
-34.74319823932264
 21
1.801177762709258
 31
0.0
  0
LINE
  5
F100F7
330
261
100
AcDbEntity
  8
Geo
100
AcDbLine
 10
-34.74319823932264
 20
1.801177762709258
 30
0.0
 11
-34.64319823932263
 21
1.76648864208846
 31
0.0
  0
LINE
  5
F100F9
330
261
100
AcDbEntity
  8
Geo
100
AcDbLine
 10
-34.64319823932263
 20
1.76648864208846
 30
0.0
 11
-34.54319823932264
 21
1.72858593914946
 31
0.0
  0
LINE
  5
F100FB
330
261
100
AcDbEntity
  8
Geo
100
AcDbLine
 10
-34.54319823932264
 20
1.72858593914946
 30
0.0
 11
-34.44319823932264
 21
1.687735494595357
 31
0.0
  0
LINE
  5
F100FD
330
261
100
AcDbEntity
  8
Geo
100
AcDbLine
 10
-34.44319823932264
 20
1.687735494595357
 30
0.0
 11
-34.34319823932263
 21
1.644190352384156
 31
0.0
  0
LINE
  5
F100FF
330
261
100
AcDbEntity
  8
Geo
100
AcDbLine
 10
-34.34319823932263
 20
1.644190352384156
 30
0.0
 11
-34.24319823932264
 21
1.598193062468456
 31
0.0
  0
LINE
  5
F10101
330
261
100
AcDbEntity
  8
Geo
100
AcDbLine
 10
-34.24319823932264
 20
1.598193062468456
 30
0.0
 11
-34.14319823932263
 21
1.549977593477056
 31
0.0
  0
LINE
  5
F10103
330
261
100
AcDbEntity
  8
Geo
100
AcDbLine
 10
-34.14319823932263
 20
1.549977593477056
 30
0.0
 11
-34.04319823932264
 21
1.499770943660358
 31
0.0
  0
LINE
  5
F10105
330
261
100
AcDbEntity
  8
Geo
100
AcDbLine
 10
-34.04319823932264
 20
1.499770943660358
 30
0.0
 11
-33.94319823932264
 21
1.447794517811956
 31
0.0
  0
LINE
  5
F10107
330
261
100
AcDbEntity
  8
Geo
100
AcDbLine
 10
-33.94319823932264
 20
1.447794517811956
 30
0.0
 11
-33.84319823932263
 21
1.394265323062355
 31
0.0
  0
LINE
  5
F10109
330
261
100
AcDbEntity
  8
Geo
100
AcDbLine
 10
-33.84319823932263
 20
1.394265323062355
 30
0.0
 11
-33.74319823932264
 21
1.33939702574426
 31
0.0
  0
LINE
  5
F1010B
330
261
100
AcDbEntity
  8
Geo
100
AcDbLine
 10
-33.74319823932264
 20
1.33939702574426
 30
0.0
 11
-33.64319823932263
 21
1.283400903820957
 31
0.0
  0
LINE
  5
F1010D
330
261
100
AcDbEntity
  8
Geo
100
AcDbLine
 10
-33.64319823932263
 20
1.283400903820957
 30
0.0
 11
-33.54319823932264
 21
1.226799616145761
 31
0.0
  0
LINE
  5
F1010F
330
261
100
AcDbEntity
  8
Geo
100
AcDbLine
 10
-33.54319823932264
 20
1.226799616145761
 30
0.0
 11
-33.44319823932264
 21
1.169989798031155
 31
0.0
  0
LINE
  5
F10111
330
261
100
AcDbEntity
  8
Geo
100
AcDbLine
 10
-33.44319823932264
 20
1.169989798031155
 30
0.0
 11
-33.34319823932264
 21
1.112992489500957
 31
0.0
  0
LINE
  5
F10113
330
261
100
AcDbEntity
  8
Geo
100
AcDbLine
 10
-33.34319823932264
 20
1.112992489500957
 30
0.0
 11
-33.24319823932264
 21
1.055828800017959
 31
0.0
  0
LINE
  5
F10115
330
261
100
AcDbEntity
  8
Geo
100
AcDbLine
 10
-33.24319823932264
 20
1.055828800017959
 30
0.0
 11
-33.14319823932263
 21
0.9985199006656591
 31
0.0
  0
LINE
  5
F10117
330
261
100
AcDbEntity
  8
Geo
100
AcDbLine
 10
-33.14319823932263
 20
0.9985199006656591
 30
0.0
 11
-33.04319823932264
 21
0.9410870163071578
 31
0.0
  0
LINE
  5
F10119
330
261
100
AcDbEntity
  8
Geo
100
AcDbLine
 10
-33.04319823932264
 20
0.9410870163071578
 30
0.0
 11
-32.94319823932264
 21
0.883551417724554
 31
0.0
  0
LINE
  5
F1011B
330
261
100
AcDbEntity
  8
Geo
100
AcDbLine
 10
-32.94319823932264
 20
0.883551417724554
 30
0.0
 11
-32.84319823932263
 21
0.8259344137411588
 31
0.0
  0
LINE
  5
F1011D
330
261
100
AcDbEntity
  8
Geo
100
AcDbLine
 10
-32.84319823932263
 20
0.8259344137411588
 30
0.0
 11
-32.74319823932264
 21
0.7682573433294593
 31
0.0
  0
LINE
  5
F1011F
330
261
100
AcDbEntity
  8
Geo
100
AcDbLine
 10
-32.74319823932264
 20
0.7682573433294593
 30
0.0
 11
-32.64319823932263
 21
0.7105415677080558
 31
0.0
  0
LINE
  5
F10121
330
261
100
AcDbEntity
  8
Geo
100
AcDbLine
 10
-32.64319823932263
 20
0.7105415677080558
 30
0.0
 11
-32.54319823932263
 21
0.6528084624303574
 31
0.0
  0
LINE
  5
F10123
330
261
100
AcDbEntity
  8
Geo
100
AcDbLine
 10
-32.54319823932263
 20
0.6528084624303574
 30
0.0
 11
-32.44319823932264
 21
0.5950794094680562
 31
0.0
  0
LINE
  5
F10125
330
261
100
AcDbEntity
  8
Geo
100
AcDbLine
 10
-32.44319823932264
 20
0.5950794094680562
 30
0.0
 11
-32.34319823932263
 21
0.5373757892920567
 31
0.0
  0
LINE
  5
F10127
330
261
100
AcDbEntity
  8
Geo
100
AcDbLine
 10
-32.34319823932263
 20
0.5373757892920567
 30
0.0
 11
-32.24319823932264
 21
0.4797189729536555
 31
0.0
  0
LINE
  5
F10129
330
261
100
AcDbEntity
  8
Geo
100
AcDbLine
 10
-32.24319823932264
 20
0.4797189729536555
 30
0.0
 11
-32.14319823932263
 21
0.4221303141705591
 31
0.0
  0
LINE
  5
F1012B
330
261
100
AcDbEntity
  8
Geo
100
AcDbLine
 10
-32.14319823932263
 20
0.4221303141705591
 30
0.0
 11
-32.04319823932264
 21
0.3646311414170569
 31
0.0
  0
LINE
  5
F1012D
330
261
100
AcDbEntity
  8
Geo
100
AcDbLine
 10
-32.04319823932264
 20
0.3646311414170569
 30
0.0
 11
-31.94319823932264
 21
0.307242750025857
 31
0.0
  0
LINE
  5
F1012F
330
261
100
AcDbEntity
  8
Geo
100
AcDbLine
 10
-31.94319823932264
 20
0.307242750025857
 30
0.0
 11
-31.84319823932263
 21
0.249986394300759
 31
0.0
  0
LINE
  5
F10131
330
261
100
AcDbEntity
  8
Geo
100
AcDbLine
 10
-31.84319823932263
 20
0.249986394300759
 30
0.0
 11
-31.74319823932264
 21
0.1928832796449598
 31
0.0
  0
LINE
  5
F10133
330
261
100
AcDbEntity
  8
Geo
100
AcDbLine
 10
-31.74319823932264
 20
0.1928832796449598
 30
0.0
 11
-31.64319823932263
 21
0.1359545547074603
 31
0.0
  0
LINE
  5
F10135
330
261
100
AcDbEntity
  8
Geo
100
AcDbLine
 10
-31.64319823932263
 20
0.1359545547074603
 30
0.0
 11
-31.54319823932264
 21
0.0792213035502591
 31
0.0
  0
LINE
  5
F10137
330
261
100
AcDbEntity
  8
Geo
100
AcDbLine
 10
-31.54319823932264
 20
0.0792213035502591
 30
0.0
 11
-31.44319823932264
 21
0.0227045378403581
 31
0.0
  0
LINE
  5
F10139
330
261
100
AcDbEntity
  8
Geo
100
AcDbLine
 10
-31.44319823932264
 20
0.0227045378403581
 30
0.0
 11
-31.34319823932263
 21
-0.0335748109331426
 31
0.0
  0
LINE
  5
F1013B
330
261
100
AcDbEntity
  8
Geo
100
AcDbLine
 10
-31.34319823932263
 20
-0.0335748109331426
 30
0.0
 11
-31.24319823932264
 21
-0.0895958992100425
 31
0.0
  0
LINE
  5
F1013D
330
261
100
AcDbEntity
  8
Geo
100
AcDbLine
 10
-31.24319823932264
 20
-0.0895958992100425
 30
0.0
 11
-31.14319823932263
 21
-0.1453379790796418
 31
0.0
  0
LINE
  5
F1013F
330
261
100
AcDbEntity
  8
Geo
100
AcDbLine
 10
-31.14319823932263
 20
-0.1453379790796418
 30
0.0
 11
-31.04319823932264
 21
-0.2007804059643412
 31
0.0
  0
LINE
  5
F10141
330
261
100
AcDbEntity
  8
Geo
100
AcDbLine
 10
-31.04319823932264
 20
-0.2007804059643412
 30
0.0
 11
-30.94319823932264
 21
-0.2559026462658416
 31
0.0
  0
LINE
  5
F10143
330
261
100
AcDbEntity
  8
Geo
100
AcDbLine
 10
-30.94319823932264
 20
-0.2559026462658416
 30
0.0
 11
-30.84319823932264
 21
-0.3106842849695397
 31
0.0
  0
LINE
  5
F10145
330
261
100
AcDbEntity
  8
Geo
100
AcDbLine
 10
-30.84319823932264
 20
-0.3106842849695397
 30
0.0
 11
-30.74319823932264
 21
-0.3651050332058432
 31
0.0
  0
LINE
  5
F10147
330
261
100
AcDbEntity
  8
Geo
100
AcDbLine
 10
-30.74319823932264
 20
-0.3651050332058432
 30
0.0
 11
-30.64319823932263
 21
-0.4191447357642383
 31
0.0
  0
LINE
  5
F10149
330
261
100
AcDbEntity
  8
Geo
100
AcDbLine
 10
-30.64319823932263
 20
-0.4191447357642383
 30
0.0
 11
-30.54319823932264
 21
-0.4727833785577397
 31
0.0
  0
LINE
  5
F1014B
330
261
100
AcDbEntity
  8
Geo
100
AcDbLine
 10
-30.54319823932264
 20
-0.4727833785577397
 30
0.0
 11
-30.44319823932264
 21
-0.5260010960355395
 31
0.0
  0
LINE
  5
F1014D
330
261
100
AcDbEntity
  8
Geo
100
AcDbLine
 10
-30.44319823932264
 20
-0.5260010960355395
 30
0.0
 11
-30.34319823932263
 21
-0.5787781785401444
 31
0.0
  0
LINE
  5
F1014F
330
261
100
AcDbEntity
  8
Geo
100
AcDbLine
 10
-30.34319823932263
 20
-0.5787781785401444
 30
0.0
 11
-30.24319823932264
 21
-0.6310950796073414
 31
0.0
  0
LINE
  5
F10151
330
261
100
AcDbEntity
  8
Geo
100
AcDbLine
 10
-30.24319823932264
 20
-0.6310950796073414
 30
0.0
 11
-30.14319823932263
 21
-0.6829324232052409
 31
0.0
  0
LINE
  5
F10153
330
261
100
AcDbEntity
  8
Geo
100
AcDbLine
 10
-30.14319823932263
 20
-0.6829324232052409
 30
0.0
 11
-30.04319823932263
 21
-0.7342710109100388
 31
0.0
  0
LINE
  5
F10155
330
261
100
AcDbEntity
  8
Geo
100
AcDbLine
 10
-30.04319823932263
 20
-0.7342710109100388
 30
0.0
 11
-29.94319823932264
 21
-0.7850918290169418
 31
0.0
  0
LINE
  5
F10157
330
261
100
AcDbEntity
  8
Geo
100
AcDbLine
 10
-29.94319823932264
 20
-0.7850918290169418
 30
0.0
 11
-29.84319823932263
 21
-0.8353760555817435
 31
0.0
  0
LINE
  5
F10159
330
261
100
AcDbEntity
  8
Geo
100
AcDbLine
 10
-29.84319823932263
 20
-0.8353760555817435
 30
0.0
 11
-29.74319823932264
 21
-0.8851050673915421
 31
0.0
  0
LINE
  5
F1015B
330
261
100
AcDbEntity
  8
Geo
100
AcDbLine
 10
-29.74319823932264
 20
-0.8851050673915421
 30
0.0
 11
-29.64319823932263
 21
-0.9342604468622431
 31
0.0
  0
LINE
  5
F1015D
330
261
100
AcDbEntity
  8
Geo
100
AcDbLine
 10
-29.64319823932263
 20
-0.9342604468622431
 30
0.0
 11
-29.54319823932264
 21
-0.9828239888596428
 31
0.0
  0
LINE
  5
F1015F
330
261
100
AcDbEntity
  8
Geo
100
AcDbLine
 10
-29.54319823932264
 20
-0.9828239888596428
 30
0.0
 11
-29.44319823932264
 21
-1.03077770744194
 31
0.0
  0
LINE
  5
F10161
330
261
100
AcDbEntity
  8
Geo
100
AcDbLine
 10
-29.44319823932264
 20
-1.03077770744194
 30
0.0
 11
-29.34319823932263
 21
-1.078103842520642
 31
0.0
  0
LINE
  5
F10163
330
261
100
AcDbEntity
  8
Geo
100
AcDbLine
 10
-29.34319823932263
 20
-1.078103842520642
 30
0.0
 11
-29.24319823932264
 21
-1.12478486643864
 31
0.0
  0
LINE
  5
F10165
330
261
100
AcDbEntity
  8
Geo
100
AcDbLine
 10
-29.24319823932264
 20
-1.12478486643864
 30
0.0
 11
-29.14319823932263
 21
-1.170803490461441
 31
0.0
  0
LINE
  5
F10167
330
261
100
AcDbEntity
  8
Geo
100
AcDbLine
 10
-29.14319823932263
 20
-1.170803490461441
 30
0.0
 11
-29.04319823932264
 21
-1.216142671180342
 31
0.0
  0
LINE
  5
F10169
330
261
100
AcDbEntity
  8
Geo
100
AcDbLine
 10
-29.04319823932264
 20
-1.216142671180342
 30
0.0
 11
-28.94319823932264
 21
-1.260785616824239
 31
0.0
  0
LINE
  5
F1016B
330
261
100
AcDbEntity
  8
Geo
100
AcDbLine
 10
-28.94319823932264
 20
-1.260785616824239
 30
0.0
 11
-28.84319823932263
 21
-1.304715793479342
 31
0.0
  0
LINE
  5
F1016D
330
261
100
AcDbEntity
  8
Geo
100
AcDbLine
 10
-28.84319823932263
 20
-1.304715793479342
 30
0.0
 11
-28.74319823932264
 21
-1.34791693121184
 31
0.0
  0
LINE
  5
F1016F
330
261
100
AcDbEntity
  8
Geo
100
AcDbLine
 10
-28.74319823932264
 20
-1.34791693121184
 30
0.0
 11
-28.64319823932263
 21
-1.39037303009434
 31
0.0
  0
LINE
  5
F10171
330
261
100
AcDbEntity
  8
Geo
100
AcDbLine
 10
-28.64319823932263
 20
-1.39037303009434
 30
0.0
 11
-28.54319823932264
 21
-1.432068366131041
 31
0.0
  0
LINE
  5
F10173
330
261
100
AcDbEntity
  8
Geo
100
AcDbLine
 10
-28.54319823932264
 20
-1.432068366131041
 30
0.0
 11
-28.44319823932264
 21
-1.47298749708154
 31
0.0
  0
LINE
  5
F10175
330
261
100
AcDbEntity
  8
Geo
100
AcDbLine
 10
-28.44319823932264
 20
-1.47298749708154
 30
0.0
 11
-28.34319823932263
 21
-1.51311526817984
 31
0.0
  0
LINE
  5
F10177
330
261
100
AcDbEntity
  8
Geo
100
AcDbLine
 10
-28.34319823932263
 20
-1.51311526817984
 30
0.0
 11
-28.24319823932264
 21
-1.552436817747241
 31
0.0
  0
LINE
  5
F10179
330
261
100
AcDbEntity
  8
Geo
100
AcDbLine
 10
-28.24319823932264
 20
-1.552436817747241
 30
0.0
 11
-28.14319823932263
 21
-1.59093758269624
 31
0.0
  0
LINE
  5
F1017B
330
261
100
AcDbEntity
  8
Geo
100
AcDbLine
 10
-28.14319823932263
 20
-1.59093758269624
 30
0.0
 11
-28.04319823932264
 21
-1.628603303924538
 31
0.0
  0
LINE
  5
F1017D
330
261
100
AcDbEntity
  8
Geo
100
AcDbLine
 10
-28.04319823932264
 20
-1.628603303924538
 30
0.0
 11
-27.94319823932264
 21
-1.66542003159554
 31
0.0
  0
LINE
  5
F1017F
330
261
100
AcDbEntity
  8
Geo
100
AcDbLine
 10
-27.94319823932264
 20
-1.66542003159554
 30
0.0
 11
-27.84319823932263
 21
-1.701374130304941
 31
0.0
  0
LINE
  5
F10181
330
261
100
AcDbEntity
  8
Geo
100
AcDbLine
 10
-27.84319823932263
 20
-1.701374130304941
 30
0.0
 11
-27.74319823932264
 21
-1.736452284130939
 31
0.0
  0
LINE
  5
F10183
330
261
100
AcDbEntity
  8
Geo
100
AcDbLine
 10
-27.74319823932264
 20
-1.736452284130939
 30
0.0
 11
-27.64319823932263
 21
-1.770641501565741
 31
0.0
  0
LINE
  5
F10185
330
261
100
AcDbEntity
  8
Geo
100
AcDbLine
 10
-27.64319823932263
 20
-1.770641501565741
 30
0.0
 11
-27.54319823932263
 21
-1.803929120326941
 31
0.0
  0
LINE
  5
F10187
330
261
100
AcDbEntity
  8
Geo
100
AcDbLine
 10
-27.54319823932263
 20
-1.803929120326941
 30
0.0
 11
-27.44319823932264
 21
-1.836302812047343
 31
0.0
  0
LINE
  5
F10189
330
261
100
AcDbEntity
  8
Geo
100
AcDbLine
 10
-27.44319823932264
 20
-1.836302812047343
 30
0.0
 11
-27.34319823932263
 21
-1.867750586840941
 31
0.0
  0
LINE
  5
F1018B
330
261
100
AcDbEntity
  8
Geo
100
AcDbLine
 10
-27.34319823932263
 20
-1.867750586840941
 30
0.0
 11
-27.24319823932264
 21
-1.89826079774314
 31
0.0
  0
LINE
  5
F1018D
330
261
100
AcDbEntity
  8
Geo
100
AcDbLine
 10
-27.24319823932264
 20
-1.89826079774314
 30
0.0
 11
-27.14319823932263
 21
-1.92782214502464
 31
0.0
  0
LINE
  5
F1018F
330
261
100
AcDbEntity
  8
Geo
100
AcDbLine
 10
-27.14319823932263
 20
-1.92782214502464
 30
0.0
 11
-27.04319823932264
 21
-1.956423680376139
 31
0.0
  0
LINE
  5
F10191
330
261
100
AcDbEntity
  8
Geo
100
AcDbLine
 10
-27.04319823932264
 20
-1.956423680376139
 30
0.0
 11
-26.94319823932264
 21
-1.984054810963441
 31
0.0
  0
LINE
  5
F10193
330
261
100
AcDbEntity
  8
Geo
100
AcDbLine
 10
-26.94319823932264
 20
-1.984054810963441
 30
0.0
 11
-26.84319823932263
 21
-2.010705303350242
 31
0.0
  0
LINE
  5
F10195
330
261
100
AcDbEntity
  8
Geo
100
AcDbLine
 10
-26.84319823932263
 20
-2.010705303350242
 30
0.0
 11
-26.74319823932264
 21
-2.036365287288539
 31
0.0
  0
LINE
  5
F10197
330
261
100
AcDbEntity
  8
Geo
100
AcDbLine
 10
-26.74319823932264
 20
-2.036365287288539
 30
0.0
 11
-26.64319823932263
 21
-2.061025259373841
 31
0.0
  0
LINE
  5
F10199
330
261
100
AcDbEntity
  8
Geo
100
AcDbLine
 10
-26.64319823932263
 20
-2.061025259373841
 30
0.0
 11
-26.64319823932263
 21
-2.061025259373841
 31
0.0
  0
LINE
  5
F1019B
330
261
100
AcDbEntity
  8
Geo
100
AcDbLine
 10
-26.64319823932263
 20
-2.061025259373841
 30
0.0
 11
-26.64319823932263
 21
-2.061025259373841
 31
0.0
  0
LINE
  5
F1019D
330
261
100
AcDbEntity
  8
Geo
100
AcDbLine
 10
-26.64319823932263
 20
-2.061025259373841
 30
0.0
 11
-26.54319823932264
 21
-2.054974504114641
 31
0.0
  0
LINE
  5
F1019F
330
261
100
AcDbEntity
  8
Geo
100
AcDbLine
 10
-26.54319823932264
 20
-2.054974504114641
 30
0.0
 11
-26.44319823932264
 21
-2.048770030012241
 31
0.0
  0
LINE
  5
F101A1
330
261
100
AcDbEntity
  8
Geo
100
AcDbLine
 10
-26.44319823932264
 20
-2.048770030012241
 30
0.0
 11
-26.34319823932263
 21
-2.04240916233364
 31
0.0
  0
LINE
  5
F101A3
330
261
100
AcDbEntity
  8
Geo
100
AcDbLine
 10
-26.34319823932263
 20
-2.04240916233364
 30
0.0
 11
-26.24319823932264
 21
-2.035889199849139
 31
0.0
  0
LINE
  5
F101A5
330
261
100
AcDbEntity
  8
Geo
100
AcDbLine
 10
-26.24319823932264
 20
-2.035889199849139
 30
0.0
 11
-26.14319823932263
 21
-2.02920741554384
 31
0.0
  0
LINE
  5
F101A7
330
261
100
AcDbEntity
  8
Geo
100
AcDbLine
 10
-26.14319823932263
 20
-2.02920741554384
 30
0.0
 11
-26.04319823932264
 21
-2.022361057350742
 31
0.0
  0
LINE
  5
F101A9
330
261
100
AcDbEntity
  8
Geo
100
AcDbLine
 10
-26.04319823932264
 20
-2.022361057350742
 30
0.0
 11
-25.94319823932264
 21
-2.01534734890574
 31
0.0
  0
LINE
  5
F101AB
330
261
100
AcDbEntity
  8
Geo
100
AcDbLine
 10
-25.94319823932264
 20
-2.01534734890574
 30
0.0
 11
-25.84319823932264
 21
-2.00816349032474
 31
0.0
  0
LINE
  5
F101AD
330
261
100
AcDbEntity
  8
Geo
100
AcDbLine
 10
-25.84319823932264
 20
-2.00816349032474
 30
0.0
 11
-25.74319823932264
 21
-2.000806659003242
 31
0.0
  0
LINE
  5
F101AF
330
261
100
AcDbEntity
  8
Geo
100
AcDbLine
 10
-25.74319823932264
 20
-2.000806659003242
 30
0.0
 11
-25.64319823932263
 21
-1.99327401043904
 31
0.0
  0
LINE
  5
F101B1
330
261
100
AcDbEntity
  8
Geo
100
AcDbLine
 10
-25.64319823932263
 20
-1.99327401043904
 30
0.0
 11
-25.54319823932264
 21
-1.98556267907844
 31
0.0
  0
LINE
  5
F101B3
330
261
100
AcDbEntity
  8
Geo
100
AcDbLine
 10
-25.54319823932264
 20
-1.98556267907844
 30
0.0
 11
-25.44319823932264
 21
-1.977669779186341
 31
0.0
  0
LINE
  5
F101B5
330
261
100
AcDbEntity
  8
Geo
100
AcDbLine
 10
-25.44319823932264
 20
-1.977669779186341
 30
0.0
 11
-25.34319823932263
 21
-1.969592405740441
 31
0.0
  0
LINE
  5
F101B7
330
261
100
AcDbEntity
  8
Geo
100
AcDbLine
 10
-25.34319823932263
 20
-1.969592405740441
 30
0.0
 11
-25.24319823932264
 21
-1.961327635350038
 31
0.0
  0
LINE
  5
F101B9
330
261
100
AcDbEntity
  8
Geo
100
AcDbLine
 10
-25.24319823932264
 20
-1.961327635350038
 30
0.0
 11
-25.14319823932263
 21
-1.952872527200042
 31
0.0
  0
LINE
  5
F101BB
330
261
100
AcDbEntity
  8
Geo
100
AcDbLine
 10
-25.14319823932263
 20
-1.952872527200042
 30
0.0
 11
-25.04319823932263
 21
-1.94422412402084
 31
0.0
  0
LINE
  5
F101BD
330
261
100
AcDbEntity
  8
Geo
100
AcDbLine
 10
-25.04319823932263
 20
-1.94422412402084
 30
0.0
 11
-24.94319823932264
 21
-1.935379453083243
 31
0.0
  0
LINE
  5
F101BF
330
261
100
AcDbEntity
  8
Geo
100
AcDbLine
 10
-24.94319823932264
 20
-1.935379453083243
 30
0.0
 11
-24.84319823932263
 21
-1.926335527220143
 31
0.0
  0
LINE
  5
F101C1
330
261
100
AcDbEntity
  8
Geo
100
AcDbLine
 10
-24.84319823932263
 20
-1.926335527220143
 30
0.0
 11
-24.74319823932264
 21
-1.91708934587494
 31
0.0
  0
LINE
  5
F101C3
330
261
100
AcDbEntity
  8
Geo
100
AcDbLine
 10
-24.74319823932264
 20
-1.91708934587494
 30
0.0
 11
-24.64319823932263
 21
-1.90763789617724
 31
0.0
  0
LINE
  5
F101C5
330
261
100
AcDbEntity
  8
Geo
100
AcDbLine
 10
-24.64319823932263
 20
-1.90763789617724
 30
0.0
 11
-24.54319823932264
 21
-1.897978154044941
 31
0.0
  0
LINE
  5
F101C7
330
261
100
AcDbEntity
  8
Geo
100
AcDbLine
 10
-24.54319823932264
 20
-1.897978154044941
 30
0.0
 11
-24.44319823932264
 21
-1.888107085315538
 31
0.0
  0
LINE
  5
F101C9
330
261
100
AcDbEntity
  8
Geo
100
AcDbLine
 10
-24.44319823932264
 20
-1.888107085315538
 30
0.0
 11
-24.34319823932263
 21
-1.87802164690484
 31
0.0
  0
LINE
  5
F101CB
330
261
100
AcDbEntity
  8
Geo
100
AcDbLine
 10
-24.34319823932263
 20
-1.87802164690484
 30
0.0
 11
-24.24319823932264
 21
-1.867718787994242
 31
0.0
  0
LINE
  5
F101CD
330
261
100
AcDbEntity
  8
Geo
100
AcDbLine
 10
-24.24319823932264
 20
-1.867718787994242
 30
0.0
 11
-24.14319823932263
 21
-1.85719545124704
 31
0.0
  0
LINE
  5
F101CF
330
261
100
AcDbEntity
  8
Geo
100
AcDbLine
 10
-24.14319823932263
 20
-1.85719545124704
 30
0.0
 11
-24.04319823932264
 21
-1.846448574054644
 31
0.0
  0
LINE
  5
F101D1
330
261
100
AcDbEntity
  8
Geo
100
AcDbLine
 10
-24.04319823932264
 20
-1.846448574054644
 30
0.0
 11
-23.94319823932264
 21
-1.835475089811341
 31
0.0
  0
LINE
  5
F101D3
330
261
100
AcDbEntity
  8
Geo
100
AcDbLine
 10
-23.94319823932264
 20
-1.835475089811341
 30
0.0
 11
-23.84319823932263
 21
-1.824271929219843
 31
0.0
  0
LINE
  5
F101D5
330
261
100
AcDbEntity
  8
Geo
100
AcDbLine
 10
-23.84319823932263
 20
-1.824271929219843
 30
0.0
 11
-23.74319823932264
 21
-1.812836021626938
 31
0.0
  0
LINE
  5
F101D7
330
261
100
AcDbEntity
  8
Geo
100
AcDbLine
 10
-23.74319823932264
 20
-1.812836021626938
 30
0.0
 11
-23.64319823932263
 21
-1.801164296389941
 31
0.0
  0
LINE
  5
F101D9
330
261
100
AcDbEntity
  8
Geo
100
AcDbLine
 10
-23.64319823932263
 20
-1.801164296389941
 30
0.0
 11
-23.54319823932264
 21
-1.789253684273543
 31
0.0
  0
LINE
  5
F101DB
330
261
100
AcDbEntity
  8
Geo
100
AcDbLine
 10
-23.54319823932264
 20
-1.789253684273543
 30
0.0
 11
-23.44319823932264
 21
-1.777101118878841
 31
0.0
  0
LINE
  5
F101DD
330
261
100
AcDbEntity
  8
Geo
100
AcDbLine
 10
-23.44319823932264
 20
-1.777101118878841
 30
0.0
 11
-23.34319823932263
 21
-1.764703538103038
 31
0.0
  0
LINE
  5
F101DF
330
261
100
AcDbEntity
  8
Geo
100
AcDbLine
 10
-23.34319823932263
 20
-1.764703538103038
 30
0.0
 11
-23.24319823932264
 21
-1.752057885631642
 31
0.0
  0
LINE
  5
F101E1
330
261
100
AcDbEntity
  8
Geo
100
AcDbLine
 10
-23.24319823932264
 20
-1.752057885631642
 30
0.0
 11
-23.14319823932263
 21
-1.739161112462141
 31
0.0
  0
LINE
  5
F101E3
330
261
100
AcDbEntity
  8
Geo
100
AcDbLine
 10
-23.14319823932263
 20
-1.739161112462141
 30
0.0
 11
-23.04319823932264
 21
-1.726010178461038
 31
0.0
  0
LINE
  5
F101E5
330
261
100
AcDbEntity
  8
Geo
100
AcDbLine
 10
-23.04319823932264
 20
-1.726010178461038
 30
0.0
 11
-22.94319823932264
 21
-1.71260205395244
 31
0.0
  0
LINE
  5
F101E7
330
261
100
AcDbEntity
  8
Geo
100
AcDbLine
 10
-22.94319823932264
 20
-1.71260205395244
 30
0.0
 11
-22.84319823932263
 21
-1.698933721340039
 31
0.0
  0
LINE
  5
F101E9
330
261
100
AcDbEntity
  8
Geo
100
AcDbLine
 10
-22.84319823932263
 20
-1.698933721340039
 30
0.0
 11
-22.74319823932264
 21
-1.685002176762242
 31
0.0
  0
LINE
  5
F101EB
330
261
100
AcDbEntity
  8
Geo
100
AcDbLine
 10
-22.74319823932264
 20
-1.685002176762242
 30
0.0
 11
-22.64319823932263
 21
-1.670804431780339
 31
0.0
  0
LINE
  5
F101ED
330
261
100
AcDbEntity
  8
Geo
100
AcDbLine
 10
-22.64319823932263
 20
-1.670804431780339
 30
0.0
 11
-22.64319823932263
 21
-1.670804431780339
 31
0.0
  0
LINE
  5
F101EF
330
261
100
AcDbEntity
  8
Geo
100
AcDbLine
 10
-36.64319823932264
 20
0.6637500516577575
 30
0.0
 11
-36.54319823932264
 21
0.7388162013926589
 31
0.0
  0
LINE
  5
F101F1
330
261
100
AcDbEntity
  8
Geo
100
AcDbLine
 10
-36.54319823932264
 20
0.7388162013926589
 30
0.0
 11
-36.44319823932264
 21
0.74835960846346
 31
0.0
  0
LINE
  5
F101F3
330
261
100
AcDbEntity
  8
Geo
100
AcDbLine
 10
-36.44319823932264
 20
0.74835960846346
 30
0.0
 11
-36.34319823932263
 21
0.7413721538464593
 31
0.0
  0
LINE
  5
F101F5
330
261
100
AcDbEntity
  8
Geo
100
AcDbLine
 10
-36.34319823932263
 20
0.7413721538464593
 30
0.0
 11
-36.24319823932264
 21
0.7238234457227613
 31
0.0
  0
LINE
  5
F101F7
330
261
100
AcDbEntity
  8
Geo
100
AcDbLine
 10
-36.24319823932264
 20
0.7238234457227613
 30
0.0
 11
-36.14319823932264
 21
0.6984128914093583
 31
0.0
  0
LINE
  5
F101F9
330
261
100
AcDbEntity
  8
Geo
100
AcDbLine
 10
-36.14319823932264
 20
0.6984128914093583
 30
0.0
 11
-36.04319823932264
 21
0.6667362363621585
 31
0.0
  0
LINE
  5
F101FB
330
261
100
AcDbEntity
  8
Geo
100
AcDbLine
 10
-36.04319823932264
 20
0.6667362363621585
 30
0.0
 11
-35.94319823932264
 21
0.629878737225461
 31
0.0
  0
LINE
  5
F101FD
330
261
100
AcDbEntity
  8
Geo
100
AcDbLine
 10
-35.94319823932264
 20
0.629878737225461
 30
0.0
 11
-35.84319823932264
 21
0.5886461869191601
 31
0.0
  0
LINE
  5
F101FF
330
261
100
AcDbEntity
  8
Geo
100
AcDbLine
 10
-35.84319823932264
 20
0.5886461869191601
 30
0.0
 11
-35.74319823932264
 21
0.5436741085713557
 31
0.0
  0
LINE
  5
F10201
330
261
100
AcDbEntity
  8
Geo
100
AcDbLine
 10
-35.74319823932264
 20
0.5436741085713557
 30
0.0
 11
-35.64319823932264
 21
0.4954862840096581
 31
0.0
  0
LINE
  5
F10203
330
261
100
AcDbEntity
  8
Geo
100
AcDbLine
 10
-35.64319823932264
 20
0.4954862840096581
 30
0.0
 11
-35.54319823932264
 21
0.4445290521422578
 31
0.0
  0
LINE
  5
F10205
330
261
100
AcDbEntity
  8
Geo
100
AcDbLine
 10
-35.54319823932264
 20
0.4445290521422578
 30
0.0
 11
-35.44319823932264
 21
0.3911927980425567
 31
0.0
  0
LINE
  5
F10207
330
261
100
AcDbEntity
  8
Geo
100
AcDbLine
 10
-35.44319823932264
 20
0.3911927980425567
 30
0.0
 11
-35.34319823932263
 21
0.3358261373764613
 31
0.0
  0
LINE
  5
F10209
330
261
100
AcDbEntity
  8
Geo
100
AcDbLine
 10
-35.34319823932263
 20
0.3358261373764613
 30
0.0
 11
-35.24319823932264
 21
0.2787456804230572
 31
0.0
  0
LINE
  5
F1020B
330
261
100
AcDbEntity
  8
Geo
100
AcDbLine
 10
-35.24319823932264
 20
0.2787456804230572
 30
0.0
 11
-35.14319823932263
 21
0.2202429902654579
 31
0.0
  0
LINE
  5
F1020D
330
261
100
AcDbEntity
  8
Geo
100
AcDbLine
 10
-35.14319823932263
 20
0.2202429902654579
 30
0.0
 11
-35.04319823932263
 21
0.1605896889822596
 31
0.0
  0
LINE
  5
F1020F
330
261
100
AcDbEntity
  8
Geo
100
AcDbLine
 10
-35.04319823932263
 20
0.1605896889822596
 30
0.0
 11
-34.94319823932264
 21
0.1000413011775549
 31
0.0
  0
LINE
  5
F10211
330
261
100
AcDbEntity
  8
Geo
100
AcDbLine
 10
-34.94319823932264
 20
0.1000413011775549
 30
0.0
 11
-34.84319823932263
 21
0.0388402131214569
 31
0.0
  0
LINE
  5
F10213
330
261
100
AcDbEntity
  8
Geo
100
AcDbLine
 10
-34.84319823932263
 20
0.0388402131214569
 30
0.0
 11
-34.74319823932264
 21
-0.0227820015484426
 31
0.0
  0
LINE
  5
F10215
330
261
100
AcDbEntity
  8
Geo
100
AcDbLine
 10
-34.74319823932264
 20
-0.0227820015484426
 30
0.0
 11
-34.64319823932263
 21
-0.0846027181523432
 31
0.0
  0
LINE
  5
F10217
330
261
100
AcDbEntity
  8
Geo
100
AcDbLine
 10
-34.64319823932263
 20
-0.0846027181523432
 30
0.0
 11
-34.54319823932264
 21
-0.1464067390951413
 31
0.0
  0
LINE
  5
F10219
330
261
100
AcDbEntity
  8
Geo
100
AcDbLine
 10
-34.54319823932264
 20
-0.1464067390951413
 30
0.0
 11
-34.44319823932264
 21
-0.20798502736654
 31
0.0
  0
LINE
  5
F1021B
330
261
100
AcDbEntity
  8
Geo
100
AcDbLine
 10
-34.44319823932264
 20
-0.20798502736654
 30
0.0
 11
-34.34319823932263
 21
-0.2691336317734425
 31
0.0
  0
LINE
  5
F1021D
330
261
100
AcDbEntity
  8
Geo
100
AcDbLine
 10
-34.34319823932263
 20
-0.2691336317734425
 30
0.0
 11
-34.24319823932264
 21
-0.3296527558911428
 31
0.0
  0
LINE
  5
F1021F
330
261
100
AcDbEntity
  8
Geo
100
AcDbLine
 10
-34.24319823932264
 20
-0.3296527558911428
 30
0.0
 11
-34.14319823932263
 21
-0.3893459335650391
 31
0.0
  0
LINE
  5
F10221
330
261
100
AcDbEntity
  8
Geo
100
AcDbLine
 10
-34.14319823932263
 20
-0.3893459335650391
 30
0.0
 11
-34.04319823932264
 21
-0.4480192813495414
 31
0.0
  0
LINE
  5
F10223
330
261
100
AcDbEntity
  8
Geo
100
AcDbLine
 10
-34.04319823932264
 20
-0.4480192813495414
 30
0.0
 11
-33.94319823932264
 21
-0.5054808035018433
 31
0.0
  0
LINE
  5
F10225
330
261
100
AcDbEntity
  8
Geo
100
AcDbLine
 10
-33.94319823932264
 20
-0.5054808035018433
 30
0.0
 11
-33.84319823932263
 21
-0.561539728682444
 31
0.0
  0
LINE
  5
F10227
330
261
100
AcDbEntity
  8
Geo
100
AcDbLine
 10
-33.84319823932263
 20
-0.561539728682444
 30
0.0
 11
-33.74319823932264
 21
-0.6160058597411437
 31
0.0
  0
LINE
  5
F10229
330
261
100
AcDbEntity
  8
Geo
100
AcDbLine
 10
-33.74319823932264
 20
-0.6160058597411437
 30
0.0
 11
-33.64319823932263
 21
-0.6686889191462413
 31
0.0
  0
LINE
  5
F1022B
330
261
100
AcDbEntity
  8
Geo
100
AcDbLine
 10
-33.64319823932263
 20
-0.6686889191462413
 30
0.0
 11
-33.54319823932264
 21
-0.72016692933234
 31
0.0
  0
LINE
  5
F1022D
330
261
100
AcDbEntity
  8
Geo
100
AcDbLine
 10
-33.54319823932264
 20
-0.72016692933234
 30
0.0
 11
-33.44319823932264
 21
-0.7711323934932432
 31
0.0
  0
LINE
  5
F1022F
330
261
100
AcDbEntity
  8
Geo
100
AcDbLine
 10
-33.44319823932264
 20
-0.7711323934932432
 30
0.0
 11
-33.34319823932264
 21
-0.8215664361136417
 31
0.0
  0
LINE
  5
F10231
330
261
100
AcDbEntity
  8
Geo
100
AcDbLine
 10
-33.34319823932264
 20
-0.8215664361136417
 30
0.0
 11
-33.24319823932264
 21
-0.8714503784951439
 31
0.0
  0
LINE
  5
F10233
330
261
100
AcDbEntity
  8
Geo
100
AcDbLine
 10
-33.24319823932264
 20
-0.8714503784951439
 30
0.0
 11
-33.14319823932263
 21
-0.9207657456736411
 31
0.0
  0
LINE
  5
F10235
330
261
100
AcDbEntity
  8
Geo
100
AcDbLine
 10
-33.14319823932263
 20
-0.9207657456736411
 30
0.0
 11
-33.04319823932264
 21
-0.9694942732621427
 31
0.0
  0
LINE
  5
F10237
330
261
100
AcDbEntity
  8
Geo
100
AcDbLine
 10
-33.04319823932264
 20
-0.9694942732621427
 30
0.0
 11
-32.94319823932264
 21
-1.017617914214742
 31
0.0
  0
LINE
  5
F10239
330
261
100
AcDbEntity
  8
Geo
100
AcDbLine
 10
-32.94319823932264
 20
-1.017617914214742
 30
0.0
 11
-32.84319823932263
 21
-1.06511884551084
 31
0.0
  0
LINE
  5
F1023B
330
261
100
AcDbEntity
  8
Geo
100
AcDbLine
 10
-32.84319823932263
 20
-1.06511884551084
 30
0.0
 11
-32.74319823932264
 21
-1.11197947475604
 31
0.0
  0
LINE
  5
F1023D
330
261
100
AcDbEntity
  8
Geo
100
AcDbLine
 10
-32.74319823932264
 20
-1.11197947475604
 30
0.0
 11
-32.64319823932263
 21
-1.158182446697241
 31
0.0
  0
LINE
  5
F1023F
330
261
100
AcDbEntity
  8
Geo
100
AcDbLine
 10
-32.64319823932263
 20
-1.158182446697241
 30
0.0
 11
-32.54319823932263
 21
-1.20371064965084
 31
0.0
  0
LINE
  5
F10241
330
261
100
AcDbEntity
  8
Geo
100
AcDbLine
 10
-32.54319823932263
 20
-1.20371064965084
 30
0.0
 11
-32.44319823932264
 21
-1.248547221839942
 31
0.0
  0
LINE
  5
F10243
330
261
100
AcDbEntity
  8
Geo
100
AcDbLine
 10
-32.44319823932264
 20
-1.248547221839942
 30
0.0
 11
-32.34319823932263
 21
-1.292675557639042
 31
0.0
  0
LINE
  5
F10245
330
261
100
AcDbEntity
  8
Geo
100
AcDbLine
 10
-32.34319823932263
 20
-1.292675557639042
 30
0.0
 11
-32.24319823932264
 21
-1.336079313724642
 31
0.0
  0
LINE
  5
F10247
330
261
100
AcDbEntity
  8
Geo
100
AcDbLine
 10
-32.24319823932264
 20
-1.336079313724642
 30
0.0
 11
-32.14319823932263
 21
-1.378742415127742
 31
0.0
  0
LINE
  5
F10249
330
261
100
AcDbEntity
  8
Geo
100
AcDbLine
 10
-32.14319823932263
 20
-1.378742415127742
 30
0.0
 11
-32.04319823932264
 21
-1.42064906118714
 31
0.0
  0
LINE
  5
F1024B
330
261
100
AcDbEntity
  8
Geo
100
AcDbLine
 10
-32.04319823932264
 20
-1.42064906118714
 30
0.0
 11
-31.94319823932264
 21
-1.461783731402038
 31
0.0
  0
LINE
  5
F1024D
330
261
100
AcDbEntity
  8
Geo
100
AcDbLine
 10
-31.94319823932264
 20
-1.461783731402038
 30
0.0
 11
-31.84319823932263
 21
-1.502131191179439
 31
0.0
  0
LINE
  5
F1024F
330
261
100
AcDbEntity
  8
Geo
100
AcDbLine
 10
-31.84319823932263
 20
-1.502131191179439
 30
0.0
 11
-31.74319823932264
 21
-1.541676497477143
 31
0.0
  0
LINE
  5
F10251
330
261
100
AcDbEntity
  8
Geo
100
AcDbLine
 10
-31.74319823932264
 20
-1.541676497477143
 30
0.0
 11
-31.64319823932263
 21
-1.580405004337342
 31
0.0
  0
LINE
  5
F10253
330
261
100
AcDbEntity
  8
Geo
100
AcDbLine
 10
-31.64319823932263
 20
-1.580405004337342
 30
0.0
 11
-31.54319823932264
 21
-1.61830236831124
 31
0.0
  0
LINE
  5
F10255
330
261
100
AcDbEntity
  8
Geo
100
AcDbLine
 10
-31.54319823932264
 20
-1.61830236831124
 30
0.0
 11
-31.44319823932264
 21
-1.655354553771441
 31
0.0
  0
LINE
  5
F10257
330
261
100
AcDbEntity
  8
Geo
100
AcDbLine
 10
-31.44319823932264
 20
-1.655354553771441
 30
0.0
 11
-31.34319823932263
 21
-1.69154783810974
 31
0.0
  0
LINE
  5
F10259
330
261
100
AcDbEntity
  8
Geo
100
AcDbLine
 10
-31.34319823932263
 20
-1.69154783810974
 30
0.0
 11
-31.24319823932264
 21
-1.72686881681984
 31
0.0
  0
LINE
  5
F1025B
330
261
100
AcDbEntity
  8
Geo
100
AcDbLine
 10
-31.24319823932264
 20
-1.72686881681984
 30
0.0
 11
-31.14319823932263
 21
-1.76130440846144
 31
0.0
  0
LINE
  5
F1025D
330
261
100
AcDbEntity
  8
Geo
100
AcDbLine
 10
-31.14319823932263
 20
-1.76130440846144
 30
0.0
 11
-31.04319823932264
 21
-1.794841859505441
 31
0.0
  0
LINE
  5
F1025F
330
261
100
AcDbEntity
  8
Geo
100
AcDbLine
 10
-31.04319823932264
 20
-1.794841859505441
 30
0.0
 11
-30.94319823932264
 21
-1.82746874905694
 31
0.0
  0
LINE
  5
F10261
330
261
100
AcDbEntity
  8
Geo
100
AcDbLine
 10
-30.94319823932264
 20
-1.82746874905694
 30
0.0
 11
-30.84319823932264
 21
-1.859172993455743
 31
0.0
  0
LINE
  5
F10263
330
261
100
AcDbEntity
  8
Geo
100
AcDbLine
 10
-30.84319823932264
 20
-1.859172993455743
 30
0.0
 11
-30.74319823932264
 21
-1.88994285075164
 31
0.0
  0
LINE
  5
F10265
330
261
100
AcDbEntity
  8
Geo
100
AcDbLine
 10
-30.74319823932264
 20
-1.88994285075164
 30
0.0
 11
-30.64319823932263
 21
-1.91976692505274
 31
0.0
  0
LINE
  5
F10267
330
261
100
AcDbEntity
  8
Geo
100
AcDbLine
 10
-30.64319823932263
 20
-1.91976692505274
 30
0.0
 11
-30.54319823932264
 21
-1.948634170746642
 31
0.0
  0
LINE
  5
F10269
330
261
100
AcDbEntity
  8
Geo
100
AcDbLine
 10
-30.54319823932264
 20
-1.948634170746642
 30
0.0
 11
-30.44319823932264
 21
-1.97653389659084
 31
0.0
  0
LINE
  5
F1026B
330
261
100
AcDbEntity
  8
Geo
100
AcDbLine
 10
-30.44319823932264
 20
-1.97653389659084
 30
0.0
 11
-30.34319823932263
 21
-2.003455769672441
 31
0.0
  0
LINE
  5
F1026D
330
261
100
AcDbEntity
  8
Geo
100
AcDbLine
 10
-30.34319823932263
 20
-2.003455769672441
 30
0.0
 11
-30.24319823932264
 21
-2.029389819235042
 31
0.0
  0
LINE
  5
F1026F
330
261
100
AcDbEntity
  8
Geo
100
AcDbLine
 10
-30.24319823932264
 20
-2.029389819235042
 30
0.0
 11
-30.14319823932263
 21
-2.054326440371641
 31
0.0
  0
LINE
  5
F10271
330
261
100
AcDbEntity
  8
Geo
100
AcDbLine
 10
-30.14319823932263
 20
-2.054326440371641
 30
0.0
 11
-30.04319823932263
 21
-2.078256397581643
 31
0.0
  0
LINE
  5
F10273
330
261
100
AcDbEntity
  8
Geo
100
AcDbLine
 10
-30.04319823932263
 20
-2.078256397581643
 30
0.0
 11
-29.94319823932264
 21
-2.101170828191441
 31
0.0
  0
LINE
  5
F10275
330
261
100
AcDbEntity
  8
Geo
100
AcDbLine
 10
-29.94319823932264
 20
-2.101170828191441
 30
0.0
 11
-29.84319823932263
 21
-2.123061245636939
 31
0.0
  0
LINE
  5
F10277
330
261
100
AcDbEntity
  8
Geo
100
AcDbLine
 10
-29.84319823932263
 20
-2.123061245636939
 30
0.0
 11
-29.74319823932264
 21
-2.14391954260614
 31
0.0
  0
LINE
  5
F10279
330
261
100
AcDbEntity
  8
Geo
100
AcDbLine
 10
-29.74319823932264
 20
-2.14391954260614
 30
0.0
 11
-29.64319823932263
 21
-2.16373799404254
 31
0.0
  0
LINE
  5
F1027B
330
261
100
AcDbEntity
  8
Geo
100
AcDbLine
 10
-29.64319823932263
 20
-2.16373799404254
 30
0.0
 11
-29.54319823932264
 21
-2.182509260005343
 31
0.0
  0
LINE
  5
F1027D
330
261
100
AcDbEntity
  8
Geo
100
AcDbLine
 10
-29.54319823932264
 20
-2.182509260005343
 30
0.0
 11
-29.44319823932264
 21
-2.200226388388339
 31
0.0
  0
LINE
  5
F1027F
330
261
100
AcDbEntity
  8
Geo
100
AcDbLine
 10
-29.44319823932264
 20
-2.200226388388339
 30
0.0
 11
-29.34319823932263
 21
-2.21688281749484
 31
0.0
  0
LINE
  5
F10281
330
261
100
AcDbEntity
  8
Geo
100
AcDbLine
 10
-29.34319823932263
 20
-2.21688281749484
 30
0.0
 11
-29.24319823932264
 21
-2.232472378467341
 31
0.0
  0
LINE
  5
F10283
330
261
100
AcDbEntity
  8
Geo
100
AcDbLine
 10
-29.24319823932264
 20
-2.232472378467341
 30
0.0
 11
-29.14319823932263
 21
-2.246989297572543
 31
0.0
  0
LINE
  5
F10285
330
261
100
AcDbEntity
  8
Geo
100
AcDbLine
 10
-29.14319823932263
 20
-2.246989297572543
 30
0.0
 11
-29.04319823932264
 21
-2.260428198339642
 31
0.0
  0
LINE
  5
F10287
330
261
100
AcDbEntity
  8
Geo
100
AcDbLine
 10
-29.04319823932264
 20
-2.260428198339642
 30
0.0
 11
-28.94319823932264
 21
-2.272784103551741
 31
0.0
  0
LINE
  5
F10289
330
261
100
AcDbEntity
  8
Geo
100
AcDbLine
 10
-28.94319823932264
 20
-2.272784103551741
 30
0.0
 11
-28.84319823932263
 21
-2.284052437088841
 31
0.0
  0
LINE
  5
F1028B
330
261
100
AcDbEntity
  8
Geo
100
AcDbLine
 10
-28.84319823932263
 20
-2.284052437088841
 30
0.0
 11
-28.74319823932264
 21
-2.294229025622744
 31
0.0
  0
LINE
  5
F1028D
330
261
100
AcDbEntity
  8
Geo
100
AcDbLine
 10
-28.74319823932264
 20
-2.294229025622744
 30
0.0
 11
-28.64319823932263
 21
-2.303310100163142
 31
0.0
  0
LINE
  5
F1028F
330
261
100
AcDbEntity
  8
Geo
100
AcDbLine
 10
-28.64319823932263
 20
-2.303310100163142
 30
0.0
 11
-28.54319823932264
 21
-2.31129229745274
 31
0.0
  0
LINE
  5
F10291
330
261
100
AcDbEntity
  8
Geo
100
AcDbLine
 10
-28.54319823932264
 20
-2.31129229745274
 30
0.0
 11
-28.44319823932264
 21
-2.31817266121354
 31
0.0
  0
LINE
  5
F10293
330
261
100
AcDbEntity
  8
Geo
100
AcDbLine
 10
-28.44319823932264
 20
-2.31817266121354
 30
0.0
 11
-28.34319823932263
 21
-2.32394864324114
 31
0.0
  0
LINE
  5
F10295
330
261
100
AcDbEntity
  8
Geo
100
AcDbLine
 10
-28.34319823932263
 20
-2.32394864324114
 30
0.0
 11
-28.24319823932264
 21
-2.32861810434914
 31
0.0
  0
LINE
  5
F10297
330
261
100
AcDbEntity
  8
Geo
100
AcDbLine
 10
-28.24319823932264
 20
-2.32861810434914
 30
0.0
 11
-28.14319823932263
 21
-2.33217931516074
 31
0.0
  0
LINE
  5
F10299
330
261
100
AcDbEntity
  8
Geo
100
AcDbLine
 10
-28.14319823932263
 20
-2.33217931516074
 30
0.0
 11
-28.04319823932264
 21
-2.33463095674984
 31
0.0
  0
LINE
  5
F1029B
330
261
100
AcDbEntity
  8
Geo
100
AcDbLine
 10
-28.04319823932264
 20
-2.33463095674984
 30
0.0
 11
-27.94319823932264
 21
-2.335972121128941
 31
0.0
  0
LINE
  5
F1029D
330
261
100
AcDbEntity
  8
Geo
100
AcDbLine
 10
-36.64319823932264
 20
0.6637500516577575
 30
0.0
 11
-36.54319823932264
 21
1.113373003518759
 31
0.0
  0
LINE
  5
F1029F
330
261
100
AcDbEntity
  8
Geo
100
AcDbLine
 10
-36.54319823932264
 20
1.113373003518759
 30
0.0
 11
-36.44319823932264
 21
1.277529175199155
 31
0.0
  0
LINE
  5
F102A1
330
261
100
AcDbEntity
  8
Geo
100
AcDbLine
 10
-36.44319823932264
 20
1.277529175199155
 30
0.0
 11
-36.34319823932263
 21
1.388446120076856
 31
0.0
  0
LINE
  5
F102A3
330
261
100
AcDbEntity
  8
Geo
100
AcDbLine
 10
-36.34319823932263
 20
1.388446120076856
 30
0.0
 11
-36.24319823932264
 21
1.469393259616956
 31
0.0
  0
LINE
  5
F102A5
330
261
100
AcDbEntity
  8
Geo
100
AcDbLine
 10
-36.24319823932264
 20
1.469393259616956
 30
0.0
 11
-36.14319823932264
 21
1.52971701224646
 31
0.0
  0
LINE
  5
F102A7
330
261
100
AcDbEntity
  8
Geo
100
AcDbLine
 10
-36.14319823932264
 20
1.52971701224646
 30
0.0
 11
-36.04319823932264
 21
1.574386322305358
 31
0.0
  0
LINE
  5
F102A9
330
261
100
AcDbEntity
  8
Geo
100
AcDbLine
 10
-36.04319823932264
 20
1.574386322305358
 30
0.0
 11
-35.94319823932264
 21
1.606464558082659
 31
0.0
  0
LINE
  5
F102AB
330
261
100
AcDbEntity
  8
Geo
100
AcDbLine
 10
-35.94319823932264
 20
1.606464558082659
 30
0.0
 11
-35.84319823932264
 21
1.628026989041057
 31
0.0
  0
LINE
  5
F102AD
330
261
100
AcDbEntity
  8
Geo
100
AcDbLine
 10
-35.84319823932264
 20
1.628026989041057
 30
0.0
 11
-35.74319823932264
 21
1.640575875400556
 31
0.0
  0
LINE
  5
F102AF
330
261
100
AcDbEntity
  8
Geo
100
AcDbLine
 10
-35.74319823932264
 20
1.640575875400556
 30
0.0
 11
-35.64319823932264
 21
1.645254133942759
 31
0.0
  0
LINE
  5
F102B1
330
261
100
AcDbEntity
  8
Geo
100
AcDbLine
 10
-35.64319823932264
 20
1.645254133942759
 30
0.0
 11
-35.54319823932264
 21
1.642965899909658
 31
0.0
  0
LINE
  5
F102B3
330
261
100
AcDbEntity
  8
Geo
100
AcDbLine
 10
-35.54319823932264
 20
1.642965899909658
 30
0.0
 11
-35.44319823932264
 21
1.634449419046958
 31
0.0
  0
LINE
  5
F102B5
330
261
100
AcDbEntity
  8
Geo
100
AcDbLine
 10
-35.44319823932264
 20
1.634449419046958
 30
0.0
 11
-35.34319823932263
 21
1.620323563673656
 31
0.0
  0
LINE
  5
F102B7
330
261
100
AcDbEntity
  8
Geo
100
AcDbLine
 10
-35.34319823932263
 20
1.620323563673656
 30
0.0
 11
-35.24319823932264
 21
1.601118835932659
 31
0.0
  0
LINE
  5
F102B9
330
261
100
AcDbEntity
  8
Geo
100
AcDbLine
 10
-35.24319823932264
 20
1.601118835932659
 30
0.0
 11
-35.14319823932263
 21
1.577298785318759
 31
0.0
  0
LINE
  5
F102BB
330
261
100
AcDbEntity
  8
Geo
100
AcDbLine
 10
-35.14319823932263
 20
1.577298785318759
 30
0.0
 11
-35.04319823932263
 21
1.549275256306159
 31
0.0
  0
LINE
  5
F102BD
330
261
100
AcDbEntity
  8
Geo
100
AcDbLine
 10
-35.04319823932263
 20
1.549275256306159
 30
0.0
 11
-34.94319823932264
 21
1.517419526323855
 31
0.0
  0
LINE
  5
F102BF
330
261
100
AcDbEntity
  8
Geo
100
AcDbLine
 10
-34.94319823932264
 20
1.517419526323855
 30
0.0
 11
-34.84319823932263
 21
1.482070625556158
 31
0.0
  0
LINE
  5
F102C1
330
261
100
AcDbEntity
  8
Geo
100
AcDbLine
 10
-34.84319823932263
 20
1.482070625556158
 30
0.0
 11
-34.74319823932264
 21
1.443541675406461
 31
0.0
  0
LINE
  5
F102C3
330
261
100
AcDbEntity
  8
Geo
100
AcDbLine
 10
-34.74319823932264
 20
1.443541675406461
 30
0.0
 11
-34.64319823932263
 21
1.402124803757657
 31
0.0
  0
LINE
  5
F102C5
330
261
100
AcDbEntity
  8
Geo
100
AcDbLine
 10
-34.64319823932263
 20
1.402124803757657
 30
0.0
 11
-34.54319823932264
 21
1.35809501889826
 31
0.0
  0
LINE
  5
F102C7
330
261
100
AcDbEntity
  8
Geo
100
AcDbLine
 10
-34.54319823932264
 20
1.35809501889826
 30
0.0
 11
-34.44319823932264
 21
1.311713309429659
 31
0.0
  0
LINE
  5
F102C9
330
261
100
AcDbEntity
  8
Geo
100
AcDbLine
 10
-34.44319823932264
 20
1.311713309429659
 30
0.0
 11
-34.34319823932263
 21
1.263229161224057
 31
0.0
  0
LINE
  5
F102CB
330
261
100
AcDbEntity
  8
Geo
100
AcDbLine
 10
-34.34319823932263
 20
1.263229161224057
 30
0.0
 11
-34.24319823932264
 21
1.212882630692259
 31
0.0
  0
LINE
  5
F102CD
330
261
100
AcDbEntity
  8
Geo
100
AcDbLine
 10
-34.24319823932264
 20
1.212882630692259
 30
0.0
 11
-34.14319823932263
 21
1.160906077762557
 31
0.0
  0
LINE
  5
F102CF
330
261
100
AcDbEntity
  8
Geo
100
AcDbLine
 10
-34.14319823932263
 20
1.160906077762557
 30
0.0
 11
-34.04319823932264
 21
1.107525636795859
 31
0.0
  0
LINE
  5
F102D1
330
261
100
AcDbEntity
  8
Geo
100
AcDbLine
 10
-34.04319823932264
 20
1.107525636795859
 30
0.0
 11
-33.94319823932264
 21
1.052962485761258
 31
0.0
  0
LINE
  5
F102D3
330
261
100
AcDbEntity
  8
Geo
100
AcDbLine
 10
-33.94319823932264
 20
1.052962485761258
 30
0.0
 11
-33.84319823932263
 21
0.997433961181958
 31
0.0
  0
LINE
  5
F102D5
330
261
100
AcDbEntity
  8
Geo
100
AcDbLine
 10
-33.84319823932263
 20
0.997433961181958
 30
0.0
 11
-33.74319823932264
 21
0.941154557179459
 31
0.0
  0
LINE
  5
F102D7
330
261
100
AcDbEntity
  8
Geo
100
AcDbLine
 10
-33.74319823932264
 20
0.941154557179459
 30
0.0
 11
-33.64319823932263
 21
0.8843368404141569
 31
0.0
  0
LINE
  5
F102D9
330
261
100
AcDbEntity
  8
Geo
100
AcDbLine
 10
-33.64319823932263
 20
0.8843368404141569
 30
0.0
 11
-33.54319823932264
 21
0.8272831851985563
 31
0.0
  0
LINE
  5
F102DB
330
261
100
AcDbEntity
  8
Geo
100
AcDbLine
 10
-33.54319823932264
 20
0.8272831851985563
 30
0.0
 11
-33.44319823932264
 21
0.7701689640250571
 31
0.0
  0
LINE
  5
F102DD
330
261
100
AcDbEntity
  8
Geo
100
AcDbLine
 10
-33.44319823932264
 20
0.7701689640250571
 30
0.0
 11
-33.34319823932264
 21
0.7130153296559599
 31
0.0
  0
LINE
  5
F102DF
330
261
100
AcDbEntity
  8
Geo
100
AcDbLine
 10
-33.34319823932264
 20
0.7130153296559599
 30
0.0
 11
-33.24319823932264
 21
0.6558434494508562
 31
0.0
  0
LINE
  5
F102E1
330
261
100
AcDbEntity
  8
Geo
100
AcDbLine
 10
-33.24319823932264
 20
0.6558434494508562
 30
0.0
 11
-33.14319823932263
 21
0.5986744975265559
 31
0.0
  0
LINE
  5
F102E3
330
261
100
AcDbEntity
  8
Geo
100
AcDbLine
 10
-33.14319823932263
 20
0.5986744975265559
 30
0.0
 11
-33.04319823932264
 21
0.5415296469154605
 31
0.0
  0
LINE
  5
F102E5
330
261
100
AcDbEntity
  8
Geo
100
AcDbLine
 10
-33.04319823932264
 20
0.5415296469154605
 30
0.0
 11
-32.94319823932264
 21
0.4844300617237601
 31
0.0
  0
LINE
  5
F102E7
330
261
100
AcDbEntity
  8
Geo
100
AcDbLine
 10
-32.94319823932264
 20
0.4844300617237601
 30
0.0
 11
-32.84319823932263
 21
0.427396889293359
 31
0.0
  0
LINE
  5
F102E9
330
261
100
AcDbEntity
  8
Geo
100
AcDbLine
 10
-32.84319823932263
 20
0.427396889293359
 30
0.0
 11
-32.74319823932264
 21
0.3704512523694596
 31
0.0
  0
LINE
  5
F102EB
330
261
100
AcDbEntity
  8
Geo
100
AcDbLine
 10
-32.74319823932264
 20
0.3704512523694596
 30
0.0
 11
-32.64319823932263
 21
0.3136142412778575
 31
0.0
  0
LINE
  5
F102ED
330
261
100
AcDbEntity
  8
Geo
100
AcDbLine
 10
-32.64319823932263
 20
0.3136142412778575
 30
0.0
 11
-32.54319823932263
 21
0.2569069061135565
 31
0.0
  0
LINE
  5
F102EF
330
261
100
AcDbEntity
  8
Geo
100
AcDbLine
 10
-32.54319823932263
 20
0.2569069061135565
 30
0.0
 11
-32.44319823932264
 21
0.2003502489450568
 31
0.0
  0
LINE
  5
F102F1
330
261
100
AcDbEntity
  8
Geo
100
AcDbLine
 10
-32.44319823932264
 20
0.2003502489450568
 30
0.0
 11
-32.34319823932263
 21
0.143965216036058
 31
0.0
  0
LINE
  5
F102F3
330
261
100
AcDbEntity
  8
Geo
100
AcDbLine
 10
-32.34319823932263
 20
0.143965216036058
 30
0.0
 11
-32.24319823932264
 21
0.0877726900874585
 31
0.0
  0
LINE
  5
F102F5
330
261
100
AcDbEntity
  8
Geo
100
AcDbLine
 10
-32.24319823932264
 20
0.0877726900874585
 30
0.0
 11
-32.14319823932263
 21
0.0317934825035557
 31
0.0
  0
LINE
  5
F102F7
330
261
100
AcDbEntity
  8
Geo
100
AcDbLine
 10
-32.14319823932263
 20
0.0317934825035557
 30
0.0
 11
-32.04319823932264
 21
-0.0239516743157395
 31
0.0
  0
LINE
  5
F102F9
330
261
100
AcDbEntity
  8
Geo
100
AcDbLine
 10
-32.04319823932264
 20
-0.0239516743157395
 30
0.0
 11
-31.94319823932264
 21
-0.0794421346532417
 31
0.0
  0
LINE
  5
F102FB
330
261
100
AcDbEntity
  8
Geo
100
AcDbLine
 10
-31.94319823932264
 20
-0.0794421346532417
 30
0.0
 11
-31.84319823932263
 21
-0.134657347120843
 31
0.0
  0
LINE
  5
F102FD
330
261
100
AcDbEntity
  8
Geo
100
AcDbLine
 10
-31.84319823932263
 20
-0.134657347120843
 30
0.0
 11
-31.74319823932264
 21
-0.1895768622711422
 31
0.0
  0
LINE
  5
F102FF
330
261
100
AcDbEntity
  8
Geo
100
AcDbLine
 10
-31.74319823932264
 20
-0.1895768622711422
 30
0.0
 11
-31.64319823932263
 21
-0.2441803401706402
 31
0.0
  0
LINE
  5
F10301
330
261
100
AcDbEntity
  8
Geo
100
AcDbLine
 10
-31.64319823932263
 20
-0.2441803401706402
 30
0.0
 11
-31.54319823932264
 21
-0.2984475579332404
 31
0.0
  0
LINE
  5
F10303
330
261
100
AcDbEntity
  8
Geo
100
AcDbLine
 10
-31.54319823932264
 20
-0.2984475579332404
 30
0.0
 11
-31.44319823932264
 21
-0.3523584172097394
 31
0.0
  0
LINE
  5
F10305
330
261
100
AcDbEntity
  8
Geo
100
AcDbLine
 10
-31.44319823932264
 20
-0.3523584172097394
 30
0.0
 11
-31.34319823932263
 21
-0.4058929516315432
 31
0.0
  0
LINE
  5
F10307
330
261
100
AcDbEntity
  8
Geo
100
AcDbLine
 10
-31.34319823932263
 20
-0.4058929516315432
 30
0.0
 11
-31.24319823932264
 21
-0.4590313342050436
 31
0.0
  0
LINE
  5
F10309
330
261
100
AcDbEntity
  8
Geo
100
AcDbLine
 10
-31.24319823932264
 20
-0.4590313342050436
 30
0.0
 11
-31.14319823932263
 21
-0.5117538846555405
 31
0.0
  0
LINE
  5
F1030B
330
261
100
AcDbEntity
  8
Geo
100
AcDbLine
 10
-31.14319823932263
 20
-0.5117538846555405
 30
0.0
 11
-31.04319823932264
 21
-0.5640410767149433
 31
0.0
  0
LINE
  5
F1030D
330
261
100
AcDbEntity
  8
Geo
100
AcDbLine
 10
-31.04319823932264
 20
-0.5640410767149433
 30
0.0
 11
-30.94319823932264
 21
-0.6158735453542406
 31
0.0
  0
LINE
  5
F1030F
330
261
100
AcDbEntity
  8
Geo
100
AcDbLine
 10
-30.94319823932264
 20
-0.6158735453542406
 30
0.0
 11
-30.84319823932264
 21
-0.6672320939555405
 31
0.0
  0
LINE
  5
F10311
330
261
100
AcDbEntity
  8
Geo
100
AcDbLine
 10
-30.84319823932264
 20
-0.6672320939555405
 30
0.0
 11
-30.74319823932264
 21
-0.7180977014210406
 31
0.0
  0
LINE
  5
F10313
330
261
100
AcDbEntity
  8
Geo
100
AcDbLine
 10
-30.74319823932264
 20
-0.7180977014210406
 30
0.0
 11
-30.64319823932263
 21
-0.7684515292184422
 31
0.0
  0
LINE
  5
F10315
330
261
100
AcDbEntity
  8
Geo
100
AcDbLine
 10
-30.64319823932263
 20
-0.7684515292184422
 30
0.0
 11
-30.54319823932264
 21
-0.818274928357443
 31
0.0
  0
LINE
  5
F10317
330
261
100
AcDbEntity
  8
Geo
100
AcDbLine
 10
-30.54319823932264
 20
-0.818274928357443
 30
0.0
 11
-30.44319823932264
 21
-0.8675494462967421
 31
0.0
  0
LINE
  5
F10319
330
261
100
AcDbEntity
  8
Geo
100
AcDbLine
 10
-30.44319823932264
 20
-0.8675494462967421
 30
0.0
 11
-30.34319823932263
 21
-0.9162568337782415
 31
0.0
  0
LINE
  5
F1031B
330
261
100
AcDbEntity
  8
Geo
100
AcDbLine
 10
-30.34319823932263
 20
-0.9162568337782415
 30
0.0
 11
-30.24319823932264
 21
-0.9643790515855419
 31
0.0
  0
LINE
  5
F1031D
330
261
100
AcDbEntity
  8
Geo
100
AcDbLine
 10
-30.24319823932264
 20
-0.9643790515855419
 30
0.0
 11
-30.14319823932263
 21
-1.011898277225039
 31
0.0
  0
LINE
  5
F1031F
330
261
100
AcDbEntity
  8
Geo
100
AcDbLine
 10
-30.14319823932263
 20
-1.011898277225039
 30
0.0
 11
-30.04319823932263
 21
-1.058796911526741
 31
0.0
  0
LINE
  5
F10321
330
261
100
AcDbEntity
  8
Geo
100
AcDbLine
 10
-30.04319823932263
 20
-1.058796911526741
 30
0.0
 11
-29.94319823932264
 21
-1.105057585162241
 31
0.0
  0
LINE
  5
F10323
330
261
100
AcDbEntity
  8
Geo
100
AcDbLine
 10
-29.94319823932264
 20
-1.105057585162241
 30
0.0
 11
-29.84319823932263
 21
-1.150663165077442
 31
0.0
  0
LINE
  5
F10325
330
261
100
AcDbEntity
  8
Geo
100
AcDbLine
 10
-29.84319823932263
 20
-1.150663165077442
 30
0.0
 11
-29.74319823932264
 21
-1.195596760838241
 31
0.0
  0
LINE
  5
F10327
330
261
100
AcDbEntity
  8
Geo
100
AcDbLine
 10
-29.74319823932264
 20
-1.195596760838241
 30
0.0
 11
-29.64319823932263
 21
-1.239841730885743
 31
0.0
  0
LINE
  5
F10329
330
261
100
AcDbEntity
  8
Geo
100
AcDbLine
 10
-29.64319823932263
 20
-1.239841730885743
 30
0.0
 11
-29.54319823932264
 21
-1.28338168869974
 31
0.0
  0
LINE
  5
F1032B
330
261
100
AcDbEntity
  8
Geo
100
AcDbLine
 10
-29.54319823932264
 20
-1.28338168869974
 30
0.0
 11
-29.44319823932264
 21
-1.326200508867642
 31
0.0
  0
LINE
  5
F1032D
330
261
100
AcDbEntity
  8
Geo
100
AcDbLine
 10
-29.44319823932264
 20
-1.326200508867642
 30
0.0
 11
-29.34319823932263
 21
-1.36828233305664
 31
0.0
  0
LINE
  5
F1032F
330
261
100
AcDbEntity
  8
Geo
100
AcDbLine
 10
-29.34319823932263
 20
-1.36828233305664
 30
0.0
 11
-29.24319823932264
 21
-1.40961157588694
 31
0.0
  0
LINE
  5
F10331
330
261
100
AcDbEntity
  8
Geo
100
AcDbLine
 10
-29.24319823932264
 20
-1.40961157588694
 30
0.0
 11
-29.14319823932263
 21
-1.450172930704042
 31
0.0
  0
LINE
  5
F10333
330
261
100
AcDbEntity
  8
Geo
100
AcDbLine
 10
-29.14319823932263
 20
-1.450172930704042
 30
0.0
 11
-29.04319823932264
 21
-1.489951375247541
 31
0.0
  0
LINE
  5
F10335
330
261
100
AcDbEntity
  8
Geo
100
AcDbLine
 10
-29.04319823932264
 20
-1.489951375247541
 30
0.0
 11
-28.94319823932264
 21
-1.528932177215039
 31
0.0
  0
LINE
  5
F10337
330
261
100
AcDbEntity
  8
Geo
100
AcDbLine
 10
-28.94319823932264
 20
-1.528932177215039
 30
0.0
 11
-28.84319823932263
 21
-1.567100899717842
 31
0.0
  0
LINE
  5
F10339
330
261
100
AcDbEntity
  8
Geo
100
AcDbLine
 10
-28.84319823932263
 20
-1.567100899717842
 30
0.0
 11
-28.74319823932264
 21
-1.60444340662854
 31
0.0
  0
LINE
  5
F1033B
330
261
100
AcDbEntity
  8
Geo
100
AcDbLine
 10
-28.74319823932264
 20
-1.60444340662854
 30
0.0
 11
-28.64319823932263
 21
-1.640945867815839
 31
0.0
  0
LINE
  5
F1033D
330
261
100
AcDbEntity
  8
Geo
100
AcDbLine
 10
-28.64319823932263
 20
-1.640945867815839
 30
0.0
 11
-28.54319823932264
 21
-1.67659476426694
 31
0.0
  0
LINE
  5
F1033F
330
261
100
AcDbEntity
  8
Geo
100
AcDbLine
 10
-28.54319823932264
 20
-1.67659476426694
 30
0.0
 11
-28.44319823932264
 21
-1.711376893094438
 31
0.0
  0
LINE
  5
F10341
330
261
100
AcDbEntity
  8
Geo
100
AcDbLine
 10
-28.44319823932264
 20
-1.711376893094438
 30
0.0
 11
-28.34319823932263
 21
-1.74527937242584
 31
0.0
  0
LINE
  5
F10343
330
261
100
AcDbEntity
  8
Geo
100
AcDbLine
 10
-28.34319823932263
 20
-1.74527937242584
 30
0.0
 11
-28.24319823932264
 21
-1.77828964617484
 31
0.0
  0
LINE
  5
F10345
330
261
100
AcDbEntity
  8
Geo
100
AcDbLine
 10
-28.24319823932264
 20
-1.77828964617484
 30
0.0
 11
-28.14319823932263
 21
-1.810395488691643
 31
0.0
  0
LINE
  5
F10347
330
261
100
AcDbEntity
  8
Geo
100
AcDbLine
 10
-28.14319823932263
 20
-1.810395488691643
 30
0.0
 11
-28.04319823932264
 21
-1.841585009290439
 31
0.0
  0
LINE
  5
F10349
330
261
100
AcDbEntity
  8
Geo
100
AcDbLine
 10
-28.04319823932264
 20
-1.841585009290439
 30
0.0
 11
-27.94319823932264
 21
-1.871846656653339
 31
0.0
  0
LINE
  5
F1034B
330
261
100
AcDbEntity
  8
Geo
100
AcDbLine
 10
-27.94319823932264
 20
-1.871846656653339
 30
0.0
 11
-27.84319823932263
 21
-1.901169223108741
 31
0.0
  0
LINE
  5
F1034D
330
261
100
AcDbEntity
  8
Geo
100
AcDbLine
 10
-27.84319823932263
 20
-1.901169223108741
 30
0.0
 11
-27.74319823932264
 21
-1.929541848782142
 31
0.0
  0
LINE
  5
F1034F
330
261
100
AcDbEntity
  8
Geo
100
AcDbLine
 10
-27.74319823932264
 20
-1.929541848782142
 30
0.0
 11
-27.64319823932263
 21
-1.956954025617941
 31
0.0
  0
LINE
  5
F10351
330
261
100
AcDbEntity
  8
Geo
100
AcDbLine
 10
-27.64319823932263
 20
-1.956954025617941
 30
0.0
 11
-27.54319823932263
 21
-1.983395601271339
 31
0.0
  0
LINE
  5
F10353
330
261
100
AcDbEntity
  8
Geo
100
AcDbLine
 10
-27.54319823932263
 20
-1.983395601271339
 30
0.0
 11
-27.44319823932264
 21
-2.00885678286854
 31
0.0
  0
LINE
  5
F10355
330
261
100
AcDbEntity
  8
Geo
100
AcDbLine
 10
-27.44319823932264
 20
-2.00885678286854
 30
0.0
 11
-27.34319823932263
 21
-2.03332814063314
 31
0.0
  0
LINE
  5
F10357
330
261
100
AcDbEntity
  8
Geo
100
AcDbLine
 10
-27.34319823932263
 20
-2.03332814063314
 30
0.0
 11
-27.24319823932264
 21
-2.05680061137924
 31
0.0
  0
LINE
  5
F10359
330
261
100
AcDbEntity
  8
Geo
100
AcDbLine
 10
-27.24319823932264
 20
-2.05680061137924
 30
0.0
 11
-27.14319823932263
 21
-2.079265501867438
 31
0.0
  0
LINE
  5
F1035B
330
261
100
AcDbEntity
  8
Geo
100
AcDbLine
 10
-27.14319823932263
 20
-2.079265501867438
 30
0.0
 11
-27.04319823932264
 21
-2.100714492024643
 31
0.0
  0
LINE
  5
F1035D
330
261
100
AcDbEntity
  8
Geo
100
AcDbLine
 10
-27.04319823932264
 20
-2.100714492024643
 30
0.0
 11
-26.94319823932264
 21
-2.121139638025641
 31
0.0
  0
LINE
  5
F1035F
330
261
100
AcDbEntity
  8
Geo
100
AcDbLine
 10
-26.94319823932264
 20
-2.121139638025641
 30
0.0
 11
-26.84319823932263
 21
-2.14053337523504
 31
0.0
  0
LINE
  5
F10361
330
261
100
AcDbEntity
  8
Geo
100
AcDbLine
 10
-26.84319823932263
 20
-2.14053337523504
 30
0.0
 11
-26.74319823932264
 21
-2.158888521008844
 31
0.0
  0
LINE
  5
F10363
330
261
100
AcDbEntity
  8
Geo
100
AcDbLine
 10
-26.74319823932264
 20
-2.158888521008844
 30
0.0
 11
-26.64319823932263
 21
-2.176198277354743
 31
0.0
  0
LINE
  5
F10365
330
261
100
AcDbEntity
  8
Geo
100
AcDbLine
 10
-26.64319823932263
 20
-2.176198277354743
 30
0.0
 11
-26.64319823932263
 21
-2.061025259373841
 31
0.0
  0
LINE
  5
F10367
330
261
100
AcDbEntity
  8
Geo
100
AcDbLine
 10
-26.64319823932263
 20
-2.176198277354743
 30
0.0
 11
-26.64319823932263
 21
-2.252688802304142
 31
0.0
  0
LINE
  5
F10369
330
261
100
AcDbEntity
  8
Geo
100
AcDbLine
 10
-36.64319823932264
 20
0.6637500516577575
 30
0.0
 11
-36.64319823932264
 21
0.6637500516577575
 31
0.0
  0
LINE
  5
F1036B
330
261
100
AcDbEntity
  8
Geo
100
AcDbLine
 10
-36.64319823932264
 20
0.6637500516577575
 30
0.0
 11
-36.64319823932264
 21
0.6637500516577575
 31
0.0
  0
LINE
  5
F1036D
330
261
100
AcDbEntity
  8
Geo
100
AcDbLine
 10
20.35680176067735
 20
3.163750051657756
 30
0.0
 11
20.35680176067735
 21
0.6637500516577575
 31
0.0
  0
ARC
  5
F1036F
330
261
100
AcDbEntity
  8
Geo
100
AcDbCircle
 10
-33.64319823932263
 20
0.6637500516577575
 30
0.0
 40
3.0
100
AcDbArc
 50
180.0
 51
270.0
  0
LINE
  5
F10371
330
261
100
AcDbEntity
  8
Geo
100
AcDbLine
 10
-33.64319823932263
 20
-2.336249948342241
 30
0.0
 11
-15.64319823932264
 21
-2.336249948342241
 31
0.0
  0
LINE
  5
F10373
330
261
100
AcDbEntity
  8
Geo
100
AcDbLine
 10
-15.64319823932264
 20
-2.336249948342241
 30
0.0
 11
19.85680176067735
 21
-2.336249948342241
 31
0.0
  0
LINE
  5
F10375
330
261
100
AcDbEntity
  8
Geo
100
AcDbLine
 10
19.85680176067735
 20
-2.336249948342241
 30
0.0
 11
20.35680176067735
 21
-1.836249948342241
 31
0.0
  0
LINE
  5
F10377
330
261
100
AcDbEntity
  8
Geo
100
AcDbLine
 10
-33.64319823932263
 20
3.663750051657761
 30
0.0
 11
-33.64319823932263
 21
-2.336249948342241
 31
0.0
  0
LINE
  5
F10379
330
261
100
AcDbEntity
  8
Geo
100
AcDbLine
 10
-15.64319823932264
 20
3.663750051657761
 30
0.0
 11
-15.64319823932264
 21
-2.336249948342241
 31
0.0
  0
LINE
  5
F1037B
330
261
100
AcDbEntity
  8
Geo
100
AcDbLine
 10
19.85680176067735
 20
3.663750051657761
 30
0.0
 11
19.85680176067735
 21
-2.336249948342241
 31
0.0
  0
LINE
  5
F1037D
330
261
100
AcDbEntity
  8
Geo
100
AcDbLine
 10
20.35680176067735
 20
3.163750051657756
 30
0.0
 11
20.35680176067735
 21
-1.836249948342241
 31
0.0
  0
LWPOLYLINE
  5
F103E7
330
261
100
AcDbEntity
  8
Rahmen
100
AcDbPolyline
 90
        4
 70
     1
 43
0.0
 10
-134.524070021882
 20
99.945295404814
 10
143.484682713348
 20
99.945295404814
 10
143.484682713348
 20
-100.175054704595
 10
-134.524070021882
 20
-100.175054704595
  0
TEXT
  5
F103E9
330
261
100
AcDbEntity
  8
Text
100
AcDbText
 10
-133.6050328227569
 20
-99.67505470459521
 30
0.0
 40
1.0
  1
ISBESketcher
100
AcDbText
  0
LWPOLYLINE
  5
F103EB
330
261
100
AcDbEntity
  8
Rahmen
100
AcDbPolyline
 90
        4
 70
     1
 43
0.0
 10
103.276805251641
 20
-97.1881838074398
 10
143.484682713348
 20
-97.1881838074398
 10
143.484682713348
 20
-100.175054704595
 10
103.276805251641
 20
-100.175054704595
  0
TEXT
  5
F103ED
330
261
100
AcDbEntity
  8
Text
100
AcDbText
 10
104.425601750547
 20
-98.1881838074398
 30
0.0
 40
0.75
  1
Ers. durch:
100
AcDbText
  0
LWPOLYLINE
  5
F103F1
330
261
100
AcDbEntity
  8
Rahmen
100
AcDbPolyline
 90
        4
 70
     1
 43
0.0
 10
63.2986870897155
 20
-97.1881838074398
 10
103.276805251641
 20
-97.1881838074398
 10
103.276805251641
 20
-100.175054704595
 10
63.2986870897155
 20
-100.175054704595
  0
TEXT
  5
F103F3
330
261
100
AcDbEntity
  8
Text
100
AcDbText
 10
64.44748358862138
 20
-98.1881838074398
 30
0.0
 40
0.75
  1
Ers. für:
100
AcDbText
  0
TEXT
  5
F103F5
330
261
100
AcDbEntity
  8
Text
100
AcDbText
 10
91.32932166301969
 20
-99.5667396061269
 30
0.0
 40
0.75
  1

100
AcDbText
  0
LWPOLYLINE
  5
F103F7
330
261
100
AcDbEntity
  8
Rahmen
100
AcDbPolyline
 90
        4
 70
     1
 43
0.0
 10
130.158643326039
 20
-94.2013129102845
 10
143.484682713348
 20
-94.2013129102845
 10
143.484682713348
 20
-97.1881838074398
 10
130.158643326039
 20
-97.1881838074398
  0
TEXT
  5
F103F9
330
261
100
AcDbEntity
  8
Text
100
AcDbText
 10
131.077680525164
 20
-95.2013129102845
 30
0.0
 40
0.75
  1
Blätter
100
AcDbText
  0
TEXT
  5
F103FB
330
261
100
AcDbEntity
  8
Text
100
AcDbText
 10
141.187089715536
 20
-96.57986870897161
 30
0.0
 40
0.75
  1

100
AcDbText
  0
LWPOLYLINE
  5
F103FD
330
261
100
AcDbEntity
  8
Rahmen
100
AcDbPolyline
 90
        4
 70
     1
 43
0.0
 10
130.158643326039
 20
-91.21444201312909
 10
143.484682713348
 20
-91.21444201312909
 10
143.484682713348
 20
-94.2013129102845
 10
130.158643326039
 20
-94.2013129102845
  0
TEXT
  5
F103FF
330
261
100
AcDbEntity
  8
Text
100
AcDbText
 10
131.077680525164
 20
-92.21444201312911
 30
0.0
 40
0.75
  1
Blatt
100
AcDbText
  0
TEXT
  5
F10401
330
261
100
AcDbEntity
  8
Text
100
AcDbText
 10
141.187089715536
 20
-93.59299781181618
 30
0.0
 40
0.75
  1

100
AcDbText
  0
LWPOLYLINE
  5
F10403
330
261
100
AcDbEntity
  8
Rahmen
100
AcDbPolyline
 90
        4
 70
     1
 43
0.0
 10
63.2986870897155
 20
-91.21444201312909
 10
130.158643326039
 20
-91.21444201312909
 10
130.158643326039
 20
-97.1881838074398
 10
63.2986870897155
 20
-97.1881838074398
  0
TEXT
  5
F10405
330
261
100
AcDbEntity
  8
Text
100
AcDbText
 10
64.44748358862138
 20
-92.21444201312911
 30
0.0
 40
0.75
  1
Datum:
100
AcDbText
  0
TEXT
  5
F10407
330
261
100
AcDbEntity
  8
Text
100
AcDbText
 10
90.410284463895
 20
-95.2013129102845
 30
0.0
 40
0.75
  1
14.08.2014
100
AcDbText
  0
LWPOLYLINE
  5
F10409
330
261
100
AcDbEntity
  8
Rahmen
100
AcDbPolyline
 90
        4
 70
     1
 43
0.0
 10
63.2986870897155
 20
-85.0109409190372
 10
143.484682713348
 20
-85.0109409190372
 10
143.484682713348
 20
-91.21444201312909
 10
63.2986870897155
 20
-91.21444201312909
  0
TEXT
  5
F1040B
330
261
100
AcDbEntity
  8
Text
100
AcDbText
 10
-200.924507658643
 20
103.0
 30
0.0
 40
1.5
  1

100
AcDbText
  0
TEXT
  5
F1040D
330
261
100
AcDbEntity
  8
Text
100
AcDbText
 10
78.0032822757112
 20
-88.8037928519329
 30
0.0
 40
2.5
  1
4135-060
100
AcDbText
  0
LWPOLYLINE
  5
F1040F
330
261
100
AcDbEntity
  8
Rahmen
100
AcDbPolyline
 90
        4
 70
     1
 43
0.0
 10
103.276805251641
 20
-79.0371991247265
 10
143.484682713348
 20
-79.0371991247265
 10
143.484682713348
 20
-85.0109409190372
 10
103.276805251641
 20
-85.0109409190372
  0
TEXT
  5
F10411
330
261
100
AcDbEntity
  8
Text
100
AcDbText
 10
104.425601750547
 20
-80.0371991247265
 30
0.0
 40
0.75
  1
Zu bearb. Material:
100
AcDbText
  0
TEXT
  5
F10413
330
261
100
AcDbEntity
  8
Text
100
AcDbText
 10
123.265864332604
 20
-84.4026258205689
 30
0.0
 40
0.75
  1

100
AcDbText
  0
LWPOLYLINE
  5
F10415
330
261
100
AcDbEntity
  8
Rahmen
100
AcDbPolyline
 90
        4
 70
     1
 43
0.0
 10
63.2986870897155
 20
-79.0371991247265
 10
103.276805251641
 20
-79.0371991247265
 10
103.276805251641
 20
-85.0109409190372
 10
63.2986870897155
 20
-85.0109409190372
  0
TEXT
  5
F10417
330
261
100
AcDbEntity
  8
Text
100
AcDbText
 10
64.44748358862138
 20
-80.0371991247265
 30
0.0
 40
0.75
  1
Werkstoff:
100
AcDbText
  0
TEXT
  5
F10419
330
261
100
AcDbEntity
  8
Text
100
AcDbText
 10
83.28774617067841
 20
-84.4026258205689
 30
0.0
 40
0.75
  1

100
AcDbText
  0
LWPOLYLINE
  5
F1041B
330
261
100
AcDbEntity
  8
Rahmen
100
AcDbPolyline
 90
        4
 70
     1
 43
0.0
 10
103.276805251641
 20
-76.0503282275711
 10
143.484682713348
 20
-76.0503282275711
 10
143.484682713348
 20
-79.0371991247265
 10
103.276805251641
 20
-79.0371991247265
  0
TEXT
  5
F1041D
330
261
100
AcDbEntity
  8
Text
100
AcDbText
 10
-200.924507658643
 20
103.0
 30
0.0
 40
1.5
  1

100
AcDbText
  0
TEXT
  5
F1041F
330
261
100
AcDbEntity
  8
Text
100
AcDbText
 10
123.265864332604
 20
-78.4288840262582
 30
0.0
 40
0.75
  1

100
AcDbText
  0
LWPOLYLINE
  5
F10421
330
261
100
AcDbEntity
  8
Rahmen
100
AcDbPolyline
 90
        4
 70
     1
 43
0.0
 10
63.2986870897155
 20
-76.0503282275711
 10
103.276805251641
 20
-76.0503282275711
 10
103.276805251641
 20
-79.0371991247265
 10
63.2986870897155
 20
-79.0371991247265
  0
TEXT
  5
F10423
330
261
100
AcDbEntity
  8
Text
100
AcDbText
 10
64.44748358862138
 20
-77.0503282275711
 30
0.0
 40
0.75
  1
Maßstab:
100
AcDbText
  0
TEXT
  5
F10425
330
261
100
AcDbEntity
  8
Text
100
AcDbText
 10
88.80196936542672
 20
-77.0503282275711
 30
0.0
 40
0.75
  1
1 : 1
100
AcDbText
  0
VIEWPORT
  5
294
102
{ACAD_XDICTIONARY
360
F10715
102
}
330
25D
100
AcDbEntity
 67
     1
  8
0
 60
     1
100
AcDbViewport
 10
0.0
 20
0.0
 30
0.0
 40
10.0
 41
10.0
 68
    -1
 69
     1
 12
0.0
 22
0.0
 13
0.0
 23
0.0
 14
1.0
 24
1.0
 15
0.0
 25
0.0
 16
0.0
 26
0.0
 36
1.0
 17
0.0
 27
0.0
 37
0.0
 42
0.0
 43
0.0
 44
0.0
 45
10.0
 50
0.0
 51
0.0000000000007958
 72
   100
 90
    32800
  1

281
     0
 71
     0
 74
     0
110
0.0
120
0.0
130
0.0
111
1.0
121
0.0
131
0.0
112
0.0
122
1.0
132
0.0
 79
     0
146
0.0
1001
VD_INVISIBLE_NOT_FOR_READ
1000
VD_INVISIBLE_NOT_FOR_READ
1001
GENIUS_GENODEF_13
1002
{
1000
HIER
1070
     0
1002
}
1002
{
1000
MANEDIT
1070
     0
1002
}
1002
{
1000
NOSEL
1070
     0
1002
}
1002
{
1000
BEHIND
1070
     0
1002
}
1002
{
1000
OTHER
1070
     0
1002
}
1002
{
1000
REACTOR
1002
}
1001
GENIUS_GENOBJ-N-SDF_13
1002
{
1000
OWNER
1000
GEN
1002
}
1001
GENIUS_GENSCREG_15
1000
PF
1040
1.0
1000
DF
1040
1.0
1000
MIN
1011
-5.0
1021
-5.0
1031
0.0
1000
MAX
1011
5.0
1021
5.0
1031
0.0
1000
FLAGS
1070
     4
  0
VIEWPORT
  5
295
102
{ACAD_XDICTIONARY
360
F10717
102
}
330
25D
100
AcDbEntity
 67
     1
  8
0
 60
     1
100
AcDbViewport
 10
0.0
 20
0.0
 30
0.0
 40
10.0
 41
10.0
 68
     0
 69
     2
 12
0.0
 22
0.0
 13
0.0
 23
0.0
 14
1.0
 24
1.0
 15
0.0
 25
0.0
 16
0.0
 26
0.0
 36
1.0
 17
0.0
 27
0.0
 37
0.0
 42
0.0
 43
0.0
 44
0.0
 45
10.0
 50
0.0
 51
0.0000000000007958
 72
   100
 90
   163872
  1

281
     0
 71
     0
 74
     0
110
0.0
120
0.0
130
0.0
111
1.0
121
0.0
131
0.0
112
0.0
122
1.0
132
0.0
 79
     0
146
0.0
1001
VD_INVISIBLE_NOT_FOR_READ
1000
VD_INVISIBLE_NOT_FOR_READ
1001
GENIUS_GENOBJ-N-SDF_13
1002
{
1000
OWNER
1000
GEN
1002
}
1001
GENIUS_GENODEF_13
1002
{
1000
HIER
1070
     0
1002
}
1002
{
1000
MANEDIT
1070
     0
1002
}
1002
{
1000
NOSEL
1070
     0
1002
}
1002
{
1000
BEHIND
1070
     0
1002
}
1002
{
1000
OTHER
1070
     0
1002
}
1002
{
1000
REACTOR
1002
}
1001
GENIUS_GENSCREG_15
1000
PF
1040
1.0
1000
DF
1040
1.0
1000
MIN
1011
-5.0
1021
-5.0
1031
0.0
1000
MAX
1011
5.0
1021
5.0
1031
0.0
1000
FLAGS
1070
     4
  0
ENDSEC
  0
SECTION
  2
OBJECTS
  0
DICTIONARY
  5
13
330
0
100
AcDbDictionary
281
     1
  3
ACAD_2007HEADERVARS_RT
350
F10710
  3
ACAD_COLOR
350
FA7
  3
ACAD_GROUP
350
14
  3
ACAD_LAYOUT
350
FCF
  3
ACAD_MATERIAL
350
F7A
  3
ACAD_MLEADERSTYLE
350
FCD
  3
ACAD_MLINESTYLE
350
16
  3
ACAD_PLOTSETTINGS
350
17
  3
ACAD_PLOTSTYLENAME
350
18
  3
ACAD_SCALELIST
350
FAB
  3
ACAD_TABLESTYLE
350
FA8
  3
ACAD_VISUALSTYLE
350
F93
  3
ACDB_RECOMPOSE_DATA
350
F1070E
  3
AcDbVariableDictionary
350
F10649
  3
AcmDictionary
350
F1047C
  3
AMG
350
F10430
  3
AMGSNAPSETTINGS
350
F104F4
  3
DWGPROPS
350
F1070F
  0
DICTIONARY
  5
F1063F
330
252
100
AcDbDictionary
280
     1
281
     1
  3
ADSK_XREC_LAYER_RECONCILED
360
F10640
  0
DICTIONARY
  5
F10641
330
23F
100
AcDbDictionary
280
     1
281
     1
  3
ADSK_XREC_LAYER_RECONCILED
360
F10642
  0
DICTIONARY
  5
F10643
330
240
100
AcDbDictionary
280
     1
281
     1
  3
ADSK_XREC_LAYER_RECONCILED
360
F10644
  0
DICTIONARY
  5
F10645
330
241
100
AcDbDictionary
280
     1
281
     1
  3
ADSK_XREC_LAYER_RECONCILED
360
F10646
  0
DICTIONARY
  5
F10647
330
57E
100
AcDbDictionary
280
     1
281
     1
  3
ADSK_XREC_LAYER_RECONCILED
360
F10648
  0
DICTIONARY
  5
F10719
330
296
100
AcDbDictionary
280
     1
281
     1
  3
ACAD_XREC_ROUNDTRIP
360
F1071A
  0
DICTIONARY
  5
F1071B
330
297
100
AcDbDictionary
280
     1
281
     1
  3
ACAD_XREC_ROUNDTRIP
360
F1071C
  0
DICTIONARY
  5
F10715
330
294
100
AcDbDictionary
280
     1
281
     1
  3
ACAD_XREC_ROUNDTRIP
360
F10716
  0
DICTIONARY
  5
F10717
330
295
100
AcDbDictionary
280
     1
281
     1
  3
ACAD_XREC_ROUNDTRIP
360
F10718
  0
DICTIONARY
  5
F10710
102
{ACAD_REACTORS
330
13
102
}
330
13
100
AcDbDictionary
281
     1
  3
DIMARCSYM
350
F10711
  3
DIMLTEX1
350
F10713
  3
DIMLTEX2
350
F10714
  3
DIMLTYPE
350
F10712
  0
DICTIONARY
  5
FA7
102
{ACAD_REACTORS
330
13
102
}
330
13
100
AcDbDictionary
281
     1
  0
DICTIONARY
  5
14
330
13
100
AcDbDictionary
281
     1
  0
DICTIONARY
  5
FCF
102
{ACAD_REACTORS
330
13
102
}
330
13
100
AcDbDictionary
281
     1
  3
Layout1
350
FD1
  3
Model
350
FD0
  0
DICTIONARY
  5
F7A
102
{ACAD_REACTORS
330
13
102
}
330
13
100
AcDbDictionary
281
     1
  3
ByBlock
350
F83
  3
ByLayer
350
F7B
  3
Global
350
F8B
  0
DICTIONARY
  5
FCD
102
{ACAD_REACTORS
330
13
102
}
330
13
100
AcDbDictionary
281
     1
  3
Standard
350
FCE
  0
DICTIONARY
  5
16
330
13
100
AcDbDictionary
281
     1
  3
Standard
350
FAA
  0
DICTIONARY
  5
17
102
{ACAD_REACTORS
330
13
102
}
330
13
100
AcDbDictionary
281
     1
  0
ACDBDICTIONARYWDFLT
  5
18
102
{ACAD_REACTORS
330
13
102
}
330
13
100
AcDbDictionary
281
     1
  3
Normal
350
19
100
AcDbDictionaryWithDefault
340
19
  0
DICTIONARY
  5
FAB
102
{ACAD_REACTORS
330
13
102
}
330
13
100
AcDbDictionary
281
     1
  3
A0
350
FAC
  3
A1
350
FAD
  3
A2
350
FAE
  3
A3
350
FAF
  3
A4
350
FB0
  3
A5
350
FB1
  3
A6
350
FB2
  3
A7
350
FB3
  3
A8
350
FB4
  3
A9
350
FB5
  3
B0
350
FB6
  3
B1
350
FB7
  3
B2
350
FB8
  3
B3
350
FB9
  3
B4
350
FBA
  3
B5
350
FBB
  3
B6
350
FBC
  3
B7
350
FBD
  3
B8
350
FBE
  3
B9
350
FBF
  3
C0
350
FC0
  3
C1
350
FC1
  3
C2
350
FC2
  3
C3
350
FC3
  3
C4
350
FC4
  3
C5
350
FC5
  3
C6
350
FC6
  3
C7
350
FC7
  3
C8
350
FC8
  3
C9
350
FC9
  3
D0
350
FCA
  3
D1
350
FCB
  3
D2
350
FCC
  0
DICTIONARY
  5
FA8
102
{ACAD_REACTORS
330
13
102
}
330
13
100
AcDbDictionary
281
     1
  3
Standard
350
FA9
  0
DICTIONARY
  5
F93
102
{ACAD_REACTORS
330
13
102
}
330
13
100
AcDbDictionary
281
     1
  3
2dWireframe
350
F99
  3
3D Hidden
350
F9B
  3
3dWireframe
350
F9A
  3
Basic
350
F98
  3
Brighten
350
F9F
  3
ColorChange
350
FA3
  3
Conceptual
350
F9C
  3
Dim
350
F9E
  3
EdgeColorOff
350
FA6
  3
Facepattern
350
FA2
  3
Flat
350
F94
  3
FlatWithEdges
350
F95
  3
Gouraud
350
F96
  3
GouraudWithEdges
350
F97
  3
Hidden
350
F10428
  3
JitterOff
350
FA4
  3
Linepattern
350
FA1
  3
OverhangOff
350
FA5
  3
Realistic
350
F9D
  3
Shaded
350
F1042D
  3
Shaded with edges
350
F1042C
  3
Shades of Gray
350
F10429
  3
Sketchy
350
F1042A
  3
Thicken
350
FA0
  3
Wireframe
350
F10427
  3
X-Ray
350
F1042B
  0
XRECORD
  5
F1070E
102
{ACAD_REACTORS
330
13
102
}
330
13
100
AcDbXrecord
280
     1
 90
        1
330
FA9
  0
DICTIONARY
  5
F10649
102
{ACAD_REACTORS
330
13
102
}
330
13
100
AcDbDictionary
281
     1
  3
CANNOSCALE
350
F1064C
  3
CMLEADERSTYLE
350
F1064B
  3
CTABLESTYLE
350
F1064A
  3
DIMASSOC
350
F1064F
  3
INDEXCTL
350
F1064E
  3
SORTENTS
350
F1064D
  3
XCLIPFRAME
350
F1070C
  0
DICTIONARY
  5
F1047C
102
{ACAD_REACTORS
330
13
102
}
330
13
100
AcDbDictionary
281
     1
  3
AcmStdDictionary
350
F10487
  0
DICTIONARY
  5
F10430
102
{ACAD_REACTORS
330
13
102
}
330
13
100
AcDbDictionary
281
     1
  0
DICTIONARY
  5
F104F4
102
{ACAD_REACTORS
330
13
102
}
330
13
100
AcDbDictionary
281
     1
  0
XRECORD
  5
F1070F
102
{ACAD_REACTORS
330
13
102
}
330
13
100
AcDbXrecord
280
     1
  1
DWGPROPS COOKIE
  2

  3

  4

  6

  7

  8
steigner
  9

300
=
301
=
302
=
303
=
304
=
305
=
306
=
307
=
308
=
309
=
 40
0.0160542476851852
 41
2456884.312375278
 42
2456884.406422269
  1

 90
        0
  0
XRECORD
  5
F10640
102
{ACAD_REACTORS
330
F1063F
102
}
330
F1063F
100
AcDbXrecord
280
     1
290
     1
  0
XRECORD
  5
F10642
102
{ACAD_REACTORS
330
F10641
102
}
330
F10641
100
AcDbXrecord
280
     1
290
     1
  0
XRECORD
  5
F10644
102
{ACAD_REACTORS
330
F10643
102
}
330
F10643
100
AcDbXrecord
280
     1
290
     1
  0
XRECORD
  5
F10646
102
{ACAD_REACTORS
330
F10645
102
}
330
F10645
100
AcDbXrecord
280
     1
290
     1
  0
XRECORD
  5
F10648
102
{ACAD_REACTORS
330
F10647
102
}
330
F10647
100
AcDbXrecord
280
     1
290
     1
  0
XRECORD
  5
F1071A
102
{ACAD_REACTORS
330
F10719
102
}
330
F10719
100
AcDbXrecord
280
     1
102
SHADEPLOT
 70
     0
  0
XRECORD
  5
F1071C
102
{ACAD_REACTORS
330
F1071B
102
}
330
F1071B
100
AcDbXrecord
280
     1
102
SHADEPLOT
 70
     0
  0
XRECORD
  5
F10716
102
{ACAD_REACTORS
330
F10715
102
}
330
F10715
100
AcDbXrecord
280
     1
102
SHADEPLOT
 70
     0
  0
XRECORD
  5
F10718
102
{ACAD_REACTORS
330
F10717
102
}
330
F10717
100
AcDbXrecord
280
     1
102
SHADEPLOT
 70
     0
  0
XRECORD
  5
F10711
102
{ACAD_REACTORS
330
F10710
102
}
330
F10710
100
AcDbXrecord
280
     1
 70
     1
  0
XRECORD
  5
F10713
102
{ACAD_REACTORS
330
F10710
102
}
330
F10710
100
AcDbXrecord
280
     1
340
256
  0
XRECORD
  5
F10714
102
{ACAD_REACTORS
330
F10710
102
}
330
F10710
100
AcDbXrecord
280
     1
340
256
  0
XRECORD
  5
F10712
102
{ACAD_REACTORS
330
F10710
102
}
330
F10710
100
AcDbXrecord
280
     1
340
256
  0
LAYOUT
  5
FD1
102
{ACAD_XDICTIONARY
360
F10746
102
}
102
{ACAD_REACTORS
330
FCF
102
}
330
FCF
100
AcDbPlotSettings
  1

  2
Microsoft XPS Document Writer
  4

  6

 40
0.0
 41
0.0
 42
0.0
 43
0.0
 44
0.0
 45
0.0
 46
0.0
 47
0.0
 48
0.0
 49
0.0
140
0.0
141
0.0
142
1.0
143
1.0
 70
   688
 72
     0
 73
     0
 74
     5
  7

 75
    16
147
1.0
148
0.0
149
0.0
100
AcDbLayout
  1
Layout1
 70
     1
 71
     1
 10
0.0
 20
0.0
 11
12.0
 21
9.0
 12
0.0
 22
0.0
 32
0.0
 14
1.000000000000000E+20
 24
1.000000000000000E+20
 34
1.000000000000000E+20
 15
-1.000000000000000E+20
 25
-1.000000000000000E+20
 35
-1.000000000000000E+20
146
0.0
 13
0.0
 23
0.0
 33
0.0
 16
1.0
 26
0.0
 36
0.0
 17
0.0
 27
1.0
 37
0.0
 76
     0
330
25D
  0
LAYOUT
  5
FD0
102
{ACAD_XDICTIONARY
360
F10744
102
}
102
{ACAD_REACTORS
330
FCF
102
}
330
FCF
100
AcDbPlotSettings
  1

  2
Microsoft XPS Document Writer
  4

  6

 40
0.0
 41
0.0
 42
0.0
 43
0.0
 44
0.0
 45
0.0
 46
0.0
 47
0.0
 48
0.0
 49
0.0
140
0.0
141
0.0
142
1.0
143
1.0
 70
  1712
 72
     0
 73
     0
 74
     0
  7

 75
     0
147
1.0
148
0.0
149
0.0
100
AcDbLayout
  1
Model
 70
     1
 71
     0
 10
0.0
 20
0.0
 11
12.0
 21
9.0
 12
0.0
 22
0.0
 32
0.0
 14
0.0
 24
0.0
 34
0.0
 15
0.0
 25
0.0
 35
0.0
146
0.0
 13
0.0
 23
0.0
 33
0.0
 16
1.0
 26
0.0
 36
0.0
 17
0.0
 27
1.0
 37
0.0
 76
     0
330
261
331
26B
  0
MATERIAL
  5
F83
102
{ACAD_XDICTIONARY
360
F84
102
}
102
{ACAD_REACTORS
330
F7A
102
}
330
F7A
100
AcDbMaterial
  1
ByBlock
 72
     0
 43
0.0208333333333333
 43
0.0
 43
0.0
 43
0.0
 43
0.0
 43
0.0208333333333333
 43
0.0
 43
0.0
 43
0.0
 43
0.0
 43
1.0
 43
0.0
 43
0.0
 43
0.0
 43
0.0
 43
1.0
 77
     0
 47
0.0208333333333333
 47
0.0
 47
0.0
 47
0.0
 47
0.0
 47
0.0208333333333333
 47
0.0
 47
0.0
 47
0.0
 47
0.0
 47
1.0
 47
0.0
 47
0.0
 47
0.0
 47
0.0
 47
1.0
171
     0
 49
0.0208333333333333
 49
0.0
 49
0.0
 49
0.0
 49
0.0
 49
0.0208333333333333
 49
0.0
 49
0.0
 49
0.0
 49
0.0
 49
1.0
 49
0.0
 49
0.0
 49
0.0
 49
0.0
 49
1.0
175
     0
142
0.0208333333333333
142
0.0
142
0.0
142
0.0
142
0.0
142
0.0208333333333333
142
0.0
142
0.0
142
0.0
142
0.0
142
1.0
142
0.0
142
0.0
142
0.0
142
0.0
142
1.0
179
     0
144
0.0208333333333333
144
0.0
144
0.0
144
0.0
144
0.0
144
0.0208333333333333
144
0.0
144
0.0
144
0.0
144
0.0
144
1.0
144
0.0
144
0.0
144
0.0
144
0.0
144
1.0
147
0.0208333333333333
147
0.0
147
0.0
147
0.0
147
0.0
147
0.0208333333333333
147
0.0
147
0.0
147
0.0
147
0.0
147
1.0
147
0.0
147
0.0
147
0.0
147
0.0
147
1.0
  0
MATERIAL
  5
F7B
102
{ACAD_XDICTIONARY
360
F7C
102
}
102
{ACAD_REACTORS
330
F7A
102
}
330
F7A
100
AcDbMaterial
  1
ByLayer
 72
     0
 43
0.0208333333333333
 43
0.0
 43
0.0
 43
0.0
 43
0.0
 43
0.0208333333333333
 43
0.0
 43
0.0
 43
0.0
 43
0.0
 43
1.0
 43
0.0
 43
0.0
 43
0.0
 43
0.0
 43
1.0
 77
     0
 47
0.0208333333333333
 47
0.0
 47
0.0
 47
0.0
 47
0.0
 47
0.0208333333333333
 47
0.0
 47
0.0
 47
0.0
 47
0.0
 47
1.0
 47
0.0
 47
0.0
 47
0.0
 47
0.0
 47
1.0
171
     0
 49
0.0208333333333333
 49
0.0
 49
0.0
 49
0.0
 49
0.0
 49
0.0208333333333333
 49
0.0
 49
0.0
 49
0.0
 49
0.0
 49
1.0
 49
0.0
 49
0.0
 49
0.0
 49
0.0
 49
1.0
175
     0
142
0.0208333333333333
142
0.0
142
0.0
142
0.0
142
0.0
142
0.0208333333333333
142
0.0
142
0.0
142
0.0
142
0.0
142
1.0
142
0.0
142
0.0
142
0.0
142
0.0
142
1.0
179
     0
144
0.0208333333333333
144
0.0
144
0.0
144
0.0
144
0.0
144
0.0208333333333333
144
0.0
144
0.0
144
0.0
144
0.0
144
1.0
144
0.0
144
0.0
144
0.0
144
0.0
144
1.0
147
0.0208333333333333
147
0.0
147
0.0
147
0.0
147
0.0
147
0.0208333333333333
147
0.0
147
0.0
147
0.0
147
0.0
147
1.0
147
0.0
147
0.0
147
0.0
147
0.0
147
1.0
  0
MATERIAL
  5
F8B
102
{ACAD_XDICTIONARY
360
F8C
102
}
102
{ACAD_REACTORS
330
F7A
102
}
330
F7A
100
AcDbMaterial
  1
Global
 72
     0
 43
0.0208333333333333
 43
0.0
 43
0.0
 43
0.0
 43
0.0
 43
0.0208333333333333
 43
0.0
 43
0.0
 43
0.0
 43
0.0
 43
1.0
 43
0.0
 43
0.0
 43
0.0
 43
0.0
 43
1.0
 77
     0
 47
0.0208333333333333
 47
0.0
 47
0.0
 47
0.0
 47
0.0
 47
0.0208333333333333
 47
0.0
 47
0.0
 47
0.0
 47
0.0
 47
1.0
 47
0.0
 47
0.0
 47
0.0
 47
0.0
 47
1.0
171
     0
 49
0.0208333333333333
 49
0.0
 49
0.0
 49
0.0
 49
0.0
 49
0.0208333333333333
 49
0.0
 49
0.0
 49
0.0
 49
0.0
 49
1.0
 49
0.0
 49
0.0
 49
0.0
 49
0.0
 49
1.0
175
     0
142
0.0208333333333333
142
0.0
142
0.0
142
0.0
142
0.0
142
0.0208333333333333
142
0.0
142
0.0
142
0.0
142
0.0
142
1.0
142
0.0
142
0.0
142
0.0
142
0.0
142
1.0
179
     0
144
0.0208333333333333
144
0.0
144
0.0
144
0.0
144
0.0
144
0.0208333333333333
144
0.0
144
0.0
144
0.0
144
0.0
144
1.0
144
0.0
144
0.0
144
0.0
144
0.0
144
1.0
147
0.0208333333333333
147
0.0
147
0.0
147
0.0
147
0.0
147
0.0208333333333333
147
0.0
147
0.0
147
0.0
147
0.0
147
1.0
147
0.0
147
0.0
147
0.0
147
0.0
147
1.0
  0
MLEADERSTYLE
  5
FCE
102
{ACAD_REACTORS
330
FCD
102
}
330
FCD
100
AcDbMLeaderStyle
170
     2
171
     1
172
     0
 90
        2
 40
0.0
 41
0.0
173
     1
 91
-1056964608
340
256
 92
       -2
290
     1
 42
0.09
291
     1
 43
0.36
  3
Standard
 44
0.18
300

342
253
174
     1
178
     6
175
     1
176
     0
 93
-1056964608
 45
0.18
292
     0
297
     0
 46
0.18
 94
-1056964608
 47
1.0
 49
1.0
140
1.0
293
     1
141
0.0
294
     1
177
     0
142
1.0
295
     0
296
     0
143
0.125
1001
ACAD_MLEADERVER
1070
     2
  0
MLINESTYLE
  5
FAA
102
{ACAD_REACTORS
330
16
102
}
330
16
100
AcDbMlineStyle
  2
STANDARD
 70
     0
  3

 62
   256
 51
90.0
 52
90.0
 71
     2
 49
0.5
 62
   256
  6
BYLAYER
 49
-0.5
 62
   256
  6
BYLAYER
  0
ACDBPLACEHOLDER
  5
19
102
{ACAD_REACTORS
330
18
102
}
330
18
  0
SCALE
  5
FAC
102
{ACAD_REACTORS
330
FAB
102
}
330
FAB
100
AcDbScale
 70
     0
300
1:1
140
1.0
141
1.0
290
     1
  0
SCALE
  5
FAD
102
{ACAD_REACTORS
330
FAB
102
}
330
FAB
100
AcDbScale
 70
     0
300
1:2
140
1.0
141
2.0
290
     0
  0
SCALE
  5
FAE
102
{ACAD_REACTORS
330
FAB
102
}
330
FAB
100
AcDbScale
 70
     0
300
1:4
140
1.0
141
4.0
290
     0
  0
SCALE
  5
FAF
102
{ACAD_REACTORS
330
FAB
102
}
330
FAB
100
AcDbScale
 70
     0
300
1:5
140
1.0
141
5.0
290
     0
  0
SCALE
  5
FB0
102
{ACAD_REACTORS
330
FAB
102
}
330
FAB
100
AcDbScale
 70
     0
300
1:8
140
1.0
141
8.0
290
     0
  0
SCALE
  5
FB1
102
{ACAD_REACTORS
330
FAB
102
}
330
FAB
100
AcDbScale
 70
     0
300
1:10
140
1.0
141
10.0
290
     0
  0
SCALE
  5
FB2
102
{ACAD_REACTORS
330
FAB
102
}
330
FAB
100
AcDbScale
 70
     0
300
1:16
140
1.0
141
16.0
290
     0
  0
SCALE
  5
FB3
102
{ACAD_REACTORS
330
FAB
102
}
330
FAB
100
AcDbScale
 70
     0
300
1:20
140
1.0
141
20.0
290
     0
  0
SCALE
  5
FB4
102
{ACAD_REACTORS
330
FAB
102
}
330
FAB
100
AcDbScale
 70
     0
300
1:30
140
1.0
141
30.0
290
     0
  0
SCALE
  5
FB5
102
{ACAD_REACTORS
330
FAB
102
}
330
FAB
100
AcDbScale
 70
     0
300
1:40
140
1.0
141
40.0
290
     0
  0
SCALE
  5
FB6
102
{ACAD_REACTORS
330
FAB
102
}
330
FAB
100
AcDbScale
 70
     0
300
1:50
140
1.0
141
50.0
290
     0
  0
SCALE
  5
FB7
102
{ACAD_REACTORS
330
FAB
102
}
330
FAB
100
AcDbScale
 70
     0
300
1:100
140
1.0
141
100.0
290
     0
  0
SCALE
  5
FB8
102
{ACAD_REACTORS
330
FAB
102
}
330
FAB
100
AcDbScale
 70
     0
300
2:1
140
2.0
141
1.0
290
     0
  0
SCALE
  5
FB9
102
{ACAD_REACTORS
330
FAB
102
}
330
FAB
100
AcDbScale
 70
     0
300
4:1
140
4.0
141
1.0
290
     0
  0
SCALE
  5
FBA
102
{ACAD_REACTORS
330
FAB
102
}
330
FAB
100
AcDbScale
 70
     0
300
8:1
140
8.0
141
1.0
290
     0
  0
SCALE
  5
FBB
102
{ACAD_REACTORS
330
FAB
102
}
330
FAB
100
AcDbScale
 70
     0
300
10:1
140
10.0
141
1.0
290
     0
  0
SCALE
  5
FBC
102
{ACAD_REACTORS
330
FAB
102
}
330
FAB
100
AcDbScale
 70
     0
300
100:1
140
100.0
141
1.0
290
     0
  0
SCALE
  5
FBD
102
{ACAD_REACTORS
330
FAB
102
}
330
FAB
100
AcDbScale
 70
     0
300
1/128" = 1'-0"
140
0.0078125
141
12.0
290
     0
  0
SCALE
  5
FBE
102
{ACAD_REACTORS
330
FAB
102
}
330
FAB
100
AcDbScale
 70
     0
300
1/64" = 1'-0"
140
0.015625
141
12.0
290
     0
  0
SCALE
  5
FBF
102
{ACAD_REACTORS
330
FAB
102
}
330
FAB
100
AcDbScale
 70
     0
300
1/32" = 1'-0"
140
0.03125
141
12.0
290
     0
  0
SCALE
  5
FC0
102
{ACAD_REACTORS
330
FAB
102
}
330
FAB
100
AcDbScale
 70
     0
300
1/16" = 1'-0"
140
0.0625
141
12.0
290
     0
  0
SCALE
  5
FC1
102
{ACAD_REACTORS
330
FAB
102
}
330
FAB
100
AcDbScale
 70
     0
300
3/32" = 1'-0"
140
0.09375
141
12.0
290
     0
  0
SCALE
  5
FC2
102
{ACAD_REACTORS
330
FAB
102
}
330
FAB
100
AcDbScale
 70
     0
300
1/8" = 1'-0"
140
0.125
141
12.0
290
     0
  0
SCALE
  5
FC3
102
{ACAD_REACTORS
330
FAB
102
}
330
FAB
100
AcDbScale
 70
     0
300
3/16" = 1'-0"
140
0.1875
141
12.0
290
     0
  0
SCALE
  5
FC4
102
{ACAD_REACTORS
330
FAB
102
}
330
FAB
100
AcDbScale
 70
     0
300
1/4" = 1'-0"
140
0.25
141
12.0
290
     0
  0
SCALE
  5
FC5
102
{ACAD_REACTORS
330
FAB
102
}
330
FAB
100
AcDbScale
 70
     0
300
3/8" = 1'-0"
140
0.375
141
12.0
290
     0
  0
SCALE
  5
FC6
102
{ACAD_REACTORS
330
FAB
102
}
330
FAB
100
AcDbScale
 70
     0
300
1/2" = 1'-0"
140
0.5
141
12.0
290
     0
  0
SCALE
  5
FC7
102
{ACAD_REACTORS
330
FAB
102
}
330
FAB
100
AcDbScale
 70
     0
300
3/4" = 1'-0"
140
0.75
141
12.0
290
     0
  0
SCALE
  5
FC8
102
{ACAD_REACTORS
330
FAB
102
}
330
FAB
100
AcDbScale
 70
     0
300
1" = 1'-0"
140
1.0
141
12.0
290
     0
  0
SCALE
  5
FC9
102
{ACAD_REACTORS
330
FAB
102
}
330
FAB
100
AcDbScale
 70
     0
300
1-1/2" = 1'-0"
140
1.5
141
12.0
290
     0
  0
SCALE
  5
FCA
102
{ACAD_REACTORS
330
FAB
102
}
330
FAB
100
AcDbScale
 70
     0
300
3" = 1'-0"
140
3.0
141
12.0
290
     0
  0
SCALE
  5
FCB
102
{ACAD_REACTORS
330
FAB
102
}
330
FAB
100
AcDbScale
 70
     0
300
6" = 1'-0"
140
6.0
141
12.0
290
     0
  0
SCALE
  5
FCC
102
{ACAD_REACTORS
330
FAB
102
}
330
FAB
100
AcDbScale
 70
     0
300
1'-0" = 1'-0"
140
12.0
141
12.0
290
     0
  0
TABLESTYLE
  5
FA9
102
{ACAD_XDICTIONARY
360
FF8
102
}
102
{ACAD_REACTORS
330
FA8
102
}
330
FA8
100
AcDbTableStyle
  3
Standard
 70
     0
 71
     0
 40
0.06
 41
0.06
280
     0
281
     0
  7
Standard
140
0.18
170
     2
 62
     0
 63
     7
283
     0
274
    -2
284
     1
 64
     0
275
    -2
285
     1
 65
     0
276
    -2
286
     1
 66
     0
277
    -2
287
     1
 67
     0
278
    -2
288
     1
 68
     0
279
    -2
289
     1
 69
     0
  7
Standard
140
0.25
170
     5
 62
     0
 63
     7
283
     0
274
    -2
284
     1
 64
     0
275
    -2
285
     1
 65
     0
276
    -2
286
     1
 66
     0
277
    -2
287
     1
 67
     0
278
    -2
288
     1
 68
     0
279
    -2
289
     1
 69
     0
  7
Standard
140
0.18
170
     5
 62
     0
 63
     7
283
     0
274
    -2
284
     1
 64
     0
275
    -2
285
     1
 65
     0
276
    -2
286
     1
 66
     0
277
    -2
287
     1
 67
     0
278
    -2
288
     1
 68
     0
279
    -2
289
     1
 69
     0
  0
VISUALSTYLE
  5
F99
102
{ACAD_XDICTIONARY
360
F10727
102
}
102
{ACAD_REACTORS
330
F93
102
}
330
F93
100
AcDbVisualStyle
  2

 70
     4
 71
     0
 72
     2
 73
     0
 90
        0
 40
-0.6
 41
-30.0
 62
     5
 63
     7
 74
     1
 91
        4
 64
     7
 65
   257
 75
     1
175
     1
 42
1.0
 92
        0
 66
   257
 43
1.0
 76
     1
 77
     6
 78
     2
 67
     7
 79
     5
170
     0
171
     0
290
     0
174
     0
 93
        1
 44
0.0
173
     0
291
     0
 45
0.0
1001
ACAD
1000
AcDbSavedByObjectVersion
1070
     0
  0
VISUALSTYLE
  5
F9B
102
{ACAD_XDICTIONARY
360
F1072B
102
}
102
{ACAD_REACTORS
330
F93
102
}
330
F93
100
AcDbVisualStyle
  2

 70
     6
 71
     1
 72
     2
 73
     2
 90
        0
 40
-0.6
 41
-30.0
 62
     5
 63
     7
 74
     2
 91
        2
 64
     7
 65
   257
 75
     2
175
     1
 42
179.0
 92
        0
 66
   257
 43
1.0
 76
     1
 77
     6
 78
     2
 67
     7
 79
     3
170
     0
171
     0
290
     0
174
     0
 93
        1
 44
0.0
173
     0
291
     0
 45
0.0
1001
ACAD
1000
AcDbSavedByObjectVersion
1070
     0
  0
VISUALSTYLE
  5
F9A
102
{ACAD_XDICTIONARY
360
F10729
102
}
102
{ACAD_REACTORS
330
F93
102
}
330
F93
100
AcDbVisualStyle
  2

 70
     5
 71
     0
 72
     2
 73
     0
 90
        0
 40
-0.6
 41
-30.0
 62
     5
 63
     7
 74
     1
 91
        4
 64
     7
 65
   257
 75
     1
175
     1
 42
1.0
 92
        0
 66
   257
 43
1.0
 76
     1
 77
     6
 78
     2
 67
     7
 79
     5
170
     0
171
     0
290
     0
174
     0
 93
        1
 44
0.0
173
     0
291
     0
 45
0.0
1001
ACAD
1000
AcDbSavedByObjectVersion
1070
     0
  0
VISUALSTYLE
  5
F98
102
{ACAD_XDICTIONARY
360
F10725
102
}
102
{ACAD_REACTORS
330
F93
102
}
330
F93
100
AcDbVisualStyle
  2

 70
     7
 71
     1
 72
     0
 73
     1
 90
        0
 40
-0.6
 41
-30.0
 62
     5
 63
     7
 74
     0
 91
        4
 64
     7
 65
   257
 75
     1
175
     1
 42
1.0
 92
        8
 66
     7
 43
1.0
 76
     1
 77
     6
 78
     2
 67
     7
 79
     5
170
     0
171
     0
290
     0
174
     0
 93
        1
 44
0.0
173
     0
291
     1
 45
0.0
1001
ACAD
1000
AcDbSavedByObjectVersion
1070
     0
  0
VISUALSTYLE
  5
F9F
102
{ACAD_XDICTIONARY
360
F10733
102
}
102
{ACAD_REACTORS
330
F93
102
}
330
F93
100
AcDbVisualStyle
  2

 70
    12
 71
     2
 72
     2
 73
     0
 90
        0
 40
-0.6
 41
-30.0
 62
     5
 63
     7
 74
     1
 91
        4
 64
     7
 65
   257
 75
     1
175
     1
 42
1.0
 92
        8
 66
     7
 43
1.0
 76
     1
 77
     6
 78
     2
 67
     7
 79
     5
170
     0
171
     0
290
     0
174
     0
 93
        1
 44
50.0
173
     0
291
     1
 45
0.0
1001
ACAD
1000
AcDbSavedByObjectVersion
1070
     0
  0
VISUALSTYLE
  5
FA3
102
{ACAD_XDICTIONARY
360
F1073B
102
}
102
{ACAD_REACTORS
330
F93
102
}
330
F93
100
AcDbVisualStyle
  2

 70
    16
 71
     2
 72
     2
 73
     3
 90
        0
 40
-0.6
 41
-30.0
 62
     5
 63
     8
 74
     1
 91
        4
 64
     7
 65
   257
 75
     1
175
     1
 42
1.0
 92
        8
 66
     8
 43
1.0
 76
     1
 77
     6
 78
     2
 67
     7
 79
     5
170
     0
171
     0
290
     0
174
     0
 93
        1
 44
0.0
173
     0
291
     1
 45
0.0
1001
ACAD
1000
AcDbSavedByObjectVersion
1070
     0
  0
VISUALSTYLE
  5
F9C
102
{ACAD_XDICTIONARY
360
F1072D
102
}
102
{ACAD_REACTORS
330
F93
102
}
330
F93
100
AcDbVisualStyle
  2

 70
     9
 71
     3
 72
     2
 73
     0
 90
        0
 40
-0.6
 41
-30.0
 62
     5
 63
     7
 74
     2
 91
        2
 64
     7
 65
   257
 75
     1
175
     1
 42
179.0
 92
        8
 66
     7
 43
1.0
 76
     1
 77
     6
 78
     2
 67
     7
 79
     3
170
     0
171
     0
290
     0
174
     0
 93
        1
 44
0.0
173
     0
291
     0
 45
0.0
1001
ACAD
1000
AcDbSavedByObjectVersion
1070
     0
  0
VISUALSTYLE
  5
F9E
102
{ACAD_XDICTIONARY
360
F10731
102
}
102
{ACAD_REACTORS
330
F93
102
}
330
F93
100
AcDbVisualStyle
  2

 70
    11
 71
     2
 72
     2
 73
     0
 90
        0
 40
-0.6
 41
-30.0
 62
     5
 63
     7
 74
     1
 91
        4
 64
     7
 65
   257
 75
     1
175
     1
 42
1.0
 92
        8
 66
     7
 43
1.0
 76
     1
 77
     6
 78
     2
 67
     7
 79
     5
170
     0
171
     0
290
     0
174
     0
 93
        1
 44
-50.0
173
     0
291
     1
 45
0.0
1001
ACAD
1000
AcDbSavedByObjectVersion
1070
     0
  0
VISUALSTYLE
  5
FA6
102
{ACAD_XDICTIONARY
360
F10741
102
}
102
{ACAD_REACTORS
330
F93
102
}
330
F93
100
AcDbVisualStyle
  2

 70
    22
 71
     2
 72
     2
 73
     0
 90
        0
 40
-0.6
 41
-30.0
 62
     5
 63
     7
 74
     1
 91
        4
 64
     7
 65
   257
 75
     1
175
     1
 42
1.0
 92
        8
 66
     7
 43
1.0
 76
     1
 77
     6
 78
     2
 67
     7
 79
     5
170
     0
171
     0
290
     0
174
     0
 93
        1
 44
0.0
173
     0
291
     1
 45
0.0
1001
ACAD
1000
AcDbSavedByObjectVersion
1070
     0
  0
VISUALSTYLE
  5
FA2
102
{ACAD_XDICTIONARY
360
F10739
102
}
102
{ACAD_REACTORS
330
F93
102
}
330
F93
100
AcDbVisualStyle
  2

 70
    15
 71
     2
 72
     2
 73
     0
 90
        0
 40
-0.6
 41
-30.0
 62
     5
 63
     7
 74
     1
 91
        4
 64
     7
 65
   257
 75
     1
175
     1
 42
1.0
 92
        8
 66
     7
 43
1.0
 76
     1
 77
     6
 78
     2
 67
     7
 79
     5
170
     0
171
     0
290
     0
174
     0
 93
        1
 44
0.0
173
     0
291
     1
 45
0.0
1001
ACAD
1000
AcDbSavedByObjectVersion
1070
     0
  0
VISUALSTYLE
  5
F94
102
{ACAD_XDICTIONARY
360
F1071D
102
}
102
{ACAD_REACTORS
330
F93
102
}
330
F93
100
AcDbVisualStyle
  2

 70
     0
 71
     2
 72
     1
 73
     1
 90
        2
 40
-0.6
 41
30.0
 62
     5
 63
     7
 74
     0
 91
        4
 64
     7
 65
   257
 75
     1
175
     1
 42
1.0
 92
        8
 66
     7
 43
1.0
 76
     1
 77
     6
 78
     2
 67
     7
 79
     5
170
     0
171
     0
290
     0
174
     0
 93
       13
 44
0.0
173
     0
291
     1
 45
0.0
1001
ACAD
1000
AcDbSavedByObjectVersion
1070
     0
  0
VISUALSTYLE
  5
F95
102
{ACAD_XDICTIONARY
360
F1071F
102
}
102
{ACAD_REACTORS
330
F93
102
}
330
F93
100
AcDbVisualStyle
  2

 70
     1
 71
     2
 72
     1
 73
     1
 90
        2
 40
-0.6
 41
30.0
 62
     5
 63
     7
 74
     1
 91
        4
 64
     7
 65
   257
 75
     1
175
     1
 42
1.0
 92
        0
 66
   257
 43
1.0
 76
     1
 77
     6
 78
     2
 67
     7
 79
     5
170
     0
171
     0
290
     0
174
     0
 93
       13
 44
0.0
173
     0
291
     1
 45
0.0
1001
ACAD
1000
AcDbSavedByObjectVersion
1070
     0
  0
VISUALSTYLE
  5
F96
102
{ACAD_XDICTIONARY
360
F10721
102
}
102
{ACAD_REACTORS
330
F93
102
}
330
F93
100
AcDbVisualStyle
  2

 70
     2
 71
     2
 72
     2
 73
     1
 90
        2
 40
-0.6
 41
30.0
 62
     5
 63
     7
 74
     0
 91
        4
 64
     7
 65
   257
 75
     1
175
     1
 42
1.0
 92
        0
 66
     7
 43
1.0
 76
     1
 77
     6
 78
     2
 67
     7
 79
     5
170
     0
171
     0
290
     0
174
     0
 93
       13
 44
0.0
173
     0
291
     1
 45
0.0
1001
ACAD
1000
AcDbSavedByObjectVersion
1070
     0
  0
VISUALSTYLE
  5
F97
102
{ACAD_XDICTIONARY
360
F10723
102
}
102
{ACAD_REACTORS
330
F93
102
}
330
F93
100
AcDbVisualStyle
  2

 70
     3
 71
     2
 72
     2
 73
     1
 90
        2
 40
-0.6
 41
30.0
 62
     5
 63
     7
 74
     1
 91
        4
 64
     7
 65
   257
 75
     1
175
     1
 42
1.0
 92
        0
 66
   257
 43
1.0
 76
     1
 77
     6
 78
     2
 67
     7
 79
     5
170
     0
171
     0
290
     0
174
     0
 93
       13
 44
0.0
173
     0
291
     1
 45
0.0
1001
ACAD
1000
AcDbSavedByObjectVersion
1070
     0
  0
VISUALSTYLE
  5
F10428
102
{ACAD_XDICTIONARY
360
F1074A
102
}
102
{ACAD_REACTORS
330
F93
102
}
330
F93
100
AcDbVisualStyle
  2

 70
     6
 71
     1
 72
     2
 73
     2
 90
        0
 40
-0.6
 41
-30.0
 62
     5
 63
     7
 74
     2
 91
        2
 64
     7
 65
   257
 75
     2
175
     1
 42
40.0
 92
        0
 66
   257
 43
1.0
 76
     1
 77
     6
 78
     2
 67
     7
 79
     3
170
     0
171
     0
290
     0
174
     0
 93
        1
 44
0.0
173
     0
291
     0
 45
0.0
1001
ACAD
1000
AcDbSavedByObjectVersion
1070
     0
  0
VISUALSTYLE
  5
FA4
102
{ACAD_XDICTIONARY
360
F1073D
102
}
102
{ACAD_REACTORS
330
F93
102
}
330
F93
100
AcDbVisualStyle
  2

 70
    20
 71
     2
 72
     2
 73
     0
 90
        0
 40
-0.6
 41
-30.0
 62
     5
 63
     7
 74
     1
 91
        4
 64
     7
 65
   257
 75
     1
175
     1
 42
1.0
 92
       10
 66
     7
 43
1.0
 76
     1
 77
     6
 78
     2
 67
     7
 79
     5
170
     0
171
     0
290
     0
174
     0
 93
        1
 44
0.0
173
     0
291
     1
 45
0.0
1001
ACAD
1000
AcDbSavedByObjectVersion
1070
     0
  0
VISUALSTYLE
  5
FA1
102
{ACAD_XDICTIONARY
360
F10737
102
}
102
{ACAD_REACTORS
330
F93
102
}
330
F93
100
AcDbVisualStyle
  2

 70
    14
 71
     2
 72
     2
 73
     0
 90
        0
 40
-0.6
 41
-30.0
 62
     5
 63
     7
 74
     1
 91
        4
 64
     7
 65
   257
 75
     7
175
     7
 42
1.0
 92
        8
 66
     7
 43
1.0
 76
     1
 77
     6
 78
     2
 67
     7
 79
     5
170
     0
171
     0
290
     0
174
     0
 93
        1
 44
0.0
173
     0
291
     1
 45
0.0
1001
ACAD
1000
AcDbSavedByObjectVersion
1070
     0
  0
VISUALSTYLE
  5
FA5
102
{ACAD_XDICTIONARY
360
F1073F
102
}
102
{ACAD_REACTORS
330
F93
102
}
330
F93
100
AcDbVisualStyle
  2

 70
    21
 71
     2
 72
     2
 73
     0
 90
        0
 40
-0.6
 41
-30.0
 62
     5
 63
     7
 74
     1
 91
        4
 64
     7
 65
   257
 75
     1
175
     1
 42
1.0
 92
        9
 66
     7
 43
1.0
 76
     1
 77
     6
 78
     2
 67
     7
 79
     5
170
     0
171
     0
290
     0
174
     0
 93
        1
 44
0.0
173
     0
291
     1
 45
0.0
1001
ACAD
1000
AcDbSavedByObjectVersion
1070
     0
  0
VISUALSTYLE
  5
F9D
102
{ACAD_XDICTIONARY
360
F1072F
102
}
102
{ACAD_REACTORS
330
F93
102
}
330
F93
100
AcDbVisualStyle
  2

 70
     8
 71
     2
 72
     2
 73
     0
 90
        0
 40
-0.6
 41
-30.0
 62
     5
 63
     7
 74
     1
 91
        0
 64
     7
 65
   257
 75
     1
175
     1
 42
1.0
 92
        8
 66
     8
 43
1.0
 76
     1
 77
     6
 78
     2
 67
     7
 79
     5
170
     0
171
     0
290
     0
174
     0
 93
       13
 44
0.0
173
     0
291
     0
 45
0.0
1001
ACAD
1000
AcDbSavedByObjectVersion
1070
     0
  0
VISUALSTYLE
  5
F1042D
102
{ACAD_XDICTIONARY
360
F10754
102
}
102
{ACAD_REACTORS
330
F93
102
}
330
F93
100
AcDbVisualStyle
  2

 70
    27
 71
     2
 72
     2
 73
     1
 90
        2
 40
-0.6
 41
30.0
 62
     5
 63
     7
 74
     0
 91
        4
 64
     7
 65
   257
 75
     1
175
     1
 42
1.0
 92
        8
 66
   257
 43
1.0
 76
     1
 77
     6
 78
     2
 67
     8
 79
     3
170
     0
171
     0
290
     0
174
     0
 93
        5
 44
0.0
173
     0
291
     0
 45
0.0
1001
ACAD
1000
AcDbSavedByObjectVersion
1070
     0
  0
VISUALSTYLE
  5
F1042C
102
{ACAD_XDICTIONARY
360
F10752
102
}
102
{ACAD_REACTORS
330
F93
102
}
330
F93
100
AcDbVisualStyle
  2

 70
    26
 71
     2
 72
     2
 73
     1
 90
        2
 40
-0.6
 41
30.0
 62
     5
 63
     7
 74
     1
 91
       10
 64
     7
 65
   257
 75
     2
175
     1
 42
1.0
 92
        8
 66
   257
 43
1.0
 76
     1
 77
     6
 78
     2
 67
     7
 79
     3
170
     0
171
     0
290
     0
174
     0
 93
        5
 44
0.0
173
     0
291
     0
 45
0.0
1001
ACAD
1000
AcDbSavedByObjectVersion
1070
     0
  0
VISUALSTYLE
  5
F10429
102
{ACAD_XDICTIONARY
360
F1074C
102
}
102
{ACAD_REACTORS
330
F93
102
}
330
F93
100
AcDbVisualStyle
  2

 70
    23
 71
     2
 72
     2
 73
     3
 90
        0
 40
-0.6
 41
-30.0
 62
     5
 63
     7
 74
     2
 91
        2
 64
     7
 65
     7
 75
     1
175
     1
 42
40.0
 92
        8
 66
     7
 43
1.0
 76
     1
 77
     6
 78
     2
 67
     7
 79
     3
170
     0
171
     0
290
     0
174
     0
 93
        1
 44
0.0
173
     0
291
     0
 45
0.0
1001
ACAD
1000
AcDbSavedByObjectVersion
1070
     0
  0
VISUALSTYLE
  5
F1042A
102
{ACAD_XDICTIONARY
360
F1074E
102
}
102
{ACAD_REACTORS
330
F93
102
}
330
F93
100
AcDbVisualStyle
  2

 70
    24
 71
     1
 72
     2
 73
     2
 90
        0
 40
-0.6
 41
-30.0
 62
     5
 63
     7
 74
     2
 91
        2
 64
     7
 65
     7
 75
     1
175
     1
 42
40.0
 92
       11
 66
     7
 43
1.0
 76
     1
 77
     6
 78
     2
 67
     7
 79
     6
170
     0
171
     0
290
     0
174
     0
 93
        1
 44
0.0
173
     0
291
     0
 45
0.0
1001
ACAD
1000
AcDbSavedByObjectVersion
1070
     0
  0
VISUALSTYLE
  5
FA0
102
{ACAD_XDICTIONARY
360
F10735
102
}
102
{ACAD_REACTORS
330
F93
102
}
330
F93
100
AcDbVisualStyle
  2

 70
    13
 71
     2
 72
     2
 73
     0
 90
        0
 40
-0.6
 41
-30.0
 62
     5
 63
     7
 74
     1
 91
        4
 64
     7
 65
   257
 75
     1
175
     1
 42
1.0
 92
       12
 66
     7
 43
1.0
 76
     1
 77
     6
 78
     2
 67
     7
 79
     5
170
     0
171
     0
290
     0
174
     0
 93
        1
 44
0.0
173
     0
291
     1
 45
0.0
1001
ACAD
1000
AcDbSavedByObjectVersion
1070
     0
  0
VISUALSTYLE
  5
F10427
102
{ACAD_XDICTIONARY
360
F10748
102
}
102
{ACAD_REACTORS
330
F93
102
}
330
F93
100
AcDbVisualStyle
  2

 70
     5
 71
     0
 72
     2
 73
     0
 90
        0
 40
-0.6
 41
-30.0
 62
     5
 63
     7
 74
     1
 91
        4
 64
     7
 65
   257
 75
     1
175
     1
 42
1.0
 92
        0
 66
   257
 43
1.0
 76
     1
 77
     6
 78
     2
 67
     7
 79
     3
170
     0
171
     0
290
     0
174
     0
 93
        1
 44
0.0
173
     0
291
     0
 45
0.0
1001
ACAD
1000
AcDbSavedByObjectVersion
1070
     0
  0
VISUALSTYLE
  5
F1042B
102
{ACAD_XDICTIONARY
360
F10750
102
}
102
{ACAD_REACTORS
330
F93
102
}
330
F93
100
AcDbVisualStyle
  2

 70
    25
 71
     2
 72
     2
 73
     1
 90
        1
 40
0.5
 41
-30.0
 62
     5
 63
     7
 74
     1
 91
        0
 64
     7
 65
   257
 75
     1
175
     1
 42
1.0
 92
        8
 66
     7
 43
1.0
 76
     1
 77
     6
 78
     2
 67
     7
 79
     3
170
     0
171
     0
290
     0
174
     0
 93
       13
 44
0.0
173
     0
291
     0
 45
0.0
1001
ACAD
1000
AcDbSavedByObjectVersion
1070
     0
  0
DICTIONARYVAR
  5
F1064C
102
{ACAD_REACTORS
330
F10649
102
}
330
F10649
100
DictionaryVariables
280
     0
  1
1:1
  0
DICTIONARYVAR
  5
F1064B
102
{ACAD_REACTORS
330
F10649
102
}
330
F10649
100
DictionaryVariables
280
     0
  1
STANDARD
  0
DICTIONARYVAR
  5
F1064A
102
{ACAD_REACTORS
330
F10649
102
}
330
F10649
100
DictionaryVariables
280
     0
  1
STANDARD
  0
DICTIONARYVAR
  5
F1064F
102
{ACAD_REACTORS
330
F10649
102
}
330
F10649
100
DictionaryVariables
280
     0
  1
1
  0
DICTIONARYVAR
  5
F1064E
102
{ACAD_REACTORS
330
F10649
102
}
330
F10649
100
DictionaryVariables
280
     0
  1
0
  0
DICTIONARYVAR
  5
F1064D
102
{ACAD_REACTORS
330
F10649
102
}
330
F10649
100
DictionaryVariables
280
     0
  1
127
  0
DICTIONARYVAR
  5
F1070C
102
{ACAD_REACTORS
330
F10649
102
}
330
F10649
100
DictionaryVariables
280
     0
  1
2
  0
DICTIONARY
  5
F10487
102
{ACAD_REACTORS
330
F1047C
102
}
330
F1047C
100
AcDbDictionary
281
     1
  0
DICTIONARY
  5
F10746
330
FD1
100
AcDbDictionary
280
     1
281
     1
  3
ACAD_XREC_ROUNDTRIP
360
F10747
  0
DICTIONARY
  5
F10744
330
FD0
100
AcDbDictionary
280
     1
281
     1
  3
ACAD_XREC_ROUNDTRIP
360
F10745
  0
DICTIONARY
  5
F84
330
F83
100
AcDbDictionary
280
     1
281
     1
  3
ACAD_XREC_ROUNDTRIP
360
FFF
  3
BUMPTILE
360
F86
  3
DIFFUSETILE
360
F85
  3
OPACITYTILE
360
F89
  3
REFLECTIONTILE
360
F88
  3
REFRACTIONTILE
360
F8A
  3
SPECULARTILE
360
F87
  0
DICTIONARY
  5
F7C
330
F7B
100
AcDbDictionary
280
     1
281
     1
  3
ACAD_XREC_ROUNDTRIP
360
FFE
  3
BUMPTILE
360
F7E
  3
DIFFUSETILE
360
F7D
  3
OPACITYTILE
360
F81
  3
REFLECTIONTILE
360
F80
  3
REFRACTIONTILE
360
F82
  3
SPECULARTILE
360
F7F
  0
DICTIONARY
  5
F8C
330
F8B
100
AcDbDictionary
280
     1
281
     1
  3
ACAD_XREC_ROUNDTRIP
360
1000
  3
BUMPTILE
360
F8E
  3
DIFFUSETILE
360
F8D
  3
OPACITYTILE
360
F91
  3
REFLECTIONTILE
360
F90
  3
REFRACTIONTILE
360
F92
  3
SPECULARTILE
360
F8F
  0
DICTIONARY
  5
FF8
330
FA9
100
AcDbDictionary
280
     1
281
     1
  3
ACAD_ROUNDTRIP_2008_TABLESTYLE_CELLSTYLEMAP
360
F1070D
  3
ACAD_XREC_ROUNDTRIP
360
F10743
  0
DICTIONARY
  5
F10727
330
F99
100
AcDbDictionary
280
     1
281
     1
  3
ACAD_XREC_ROUNDTRIP
360
F10728
  0
DICTIONARY
  5
F1072B
330
F9B
100
AcDbDictionary
280
     1
281
     1
  3
ACAD_XREC_ROUNDTRIP
360
F1072C
  0
DICTIONARY
  5
F10729
330
F9A
100
AcDbDictionary
280
     1
281
     1
  3
ACAD_XREC_ROUNDTRIP
360
F1072A
  0
DICTIONARY
  5
F10725
330
F98
100
AcDbDictionary
280
     1
281
     1
  3
ACAD_XREC_ROUNDTRIP
360
F10726
  0
DICTIONARY
  5
F10733
330
F9F
100
AcDbDictionary
280
     1
281
     1
  3
ACAD_XREC_ROUNDTRIP
360
F10734
  0
DICTIONARY
  5
F1073B
330
FA3
100
AcDbDictionary
280
     1
281
     1
  3
ACAD_XREC_ROUNDTRIP
360
F1073C
  0
DICTIONARY
  5
F1072D
330
F9C
100
AcDbDictionary
280
     1
281
     1
  3
ACAD_XREC_ROUNDTRIP
360
F1072E
  0
DICTIONARY
  5
F10731
330
F9E
100
AcDbDictionary
280
     1
281
     1
  3
ACAD_XREC_ROUNDTRIP
360
F10732
  0
DICTIONARY
  5
F10741
330
FA6
100
AcDbDictionary
280
     1
281
     1
  3
ACAD_XREC_ROUNDTRIP
360
F10742
  0
DICTIONARY
  5
F10739
330
FA2
100
AcDbDictionary
280
     1
281
     1
  3
ACAD_XREC_ROUNDTRIP
360
F1073A
  0
DICTIONARY
  5
F1071D
330
F94
100
AcDbDictionary
280
     1
281
     1
  3
ACAD_XREC_ROUNDTRIP
360
F1071E
  0
DICTIONARY
  5
F1071F
330
F95
100
AcDbDictionary
280
     1
281
     1
  3
ACAD_XREC_ROUNDTRIP
360
F10720
  0
DICTIONARY
  5
F10721
330
F96
100
AcDbDictionary
280
     1
281
     1
  3
ACAD_XREC_ROUNDTRIP
360
F10722
  0
DICTIONARY
  5
F10723
330
F97
100
AcDbDictionary
280
     1
281
     1
  3
ACAD_XREC_ROUNDTRIP
360
F10724
  0
DICTIONARY
  5
F1074A
330
F10428
100
AcDbDictionary
280
     1
281
     1
  3
ACAD_XREC_ROUNDTRIP
360
F1074B
  0
DICTIONARY
  5
F1073D
330
FA4
100
AcDbDictionary
280
     1
281
     1
  3
ACAD_XREC_ROUNDTRIP
360
F1073E
  0
DICTIONARY
  5
F10737
330
FA1
100
AcDbDictionary
280
     1
281
     1
  3
ACAD_XREC_ROUNDTRIP
360
F10738
  0
DICTIONARY
  5
F1073F
330
FA5
100
AcDbDictionary
280
     1
281
     1
  3
ACAD_XREC_ROUNDTRIP
360
F10740
  0
DICTIONARY
  5
F1072F
330
F9D
100
AcDbDictionary
280
     1
281
     1
  3
ACAD_XREC_ROUNDTRIP
360
F10730
  0
DICTIONARY
  5
F10754
330
F1042D
100
AcDbDictionary
280
     1
281
     1
  3
ACAD_XREC_ROUNDTRIP
360
F10755
  0
DICTIONARY
  5
F10752
330
F1042C
100
AcDbDictionary
280
     1
281
     1
  3
ACAD_XREC_ROUNDTRIP
360
F10753
  0
DICTIONARY
  5
F1074C
330
F10429
100
AcDbDictionary
280
     1
281
     1
  3
ACAD_XREC_ROUNDTRIP
360
F1074D
  0
DICTIONARY
  5
F1074E
330
F1042A
100
AcDbDictionary
280
     1
281
     1
  3
ACAD_XREC_ROUNDTRIP
360
F1074F
  0
DICTIONARY
  5
F10735
330
FA0
100
AcDbDictionary
280
     1
281
     1
  3
ACAD_XREC_ROUNDTRIP
360
F10736
  0
DICTIONARY
  5
F10748
330
F10427
100
AcDbDictionary
280
     1
281
     1
  3
ACAD_XREC_ROUNDTRIP
360
F10749
  0
DICTIONARY
  5
F10750
330
F1042B
100
AcDbDictionary
280
     1
281
     1
  3
ACAD_XREC_ROUNDTRIP
360
F10751
  0
XRECORD
  5
F10747
102
{ACAD_REACTORS
330
F10746
102
}
330
F10746
100
AcDbXrecord
280
     1
102
SHADEPLOT
 70
     0
102
SHADEPLOTRESLEVEL
 70
     2
102
SHADEPLOTCUSTOMDPI
 70
   300
  0
XRECORD
  5
F10745
102
{ACAD_REACTORS
330
F10744
102
}
330
F10744
100
AcDbXrecord
280
     1
102
SHADEPLOT
 70
     0
102
SHADEPLOTRESLEVEL
 70
     2
102
SHADEPLOTCUSTOMDPI
 70
   300
  0
XRECORD
  5
FFF
102
{ACAD_REACTORS
330
F84
102
}
330
F84
100
AcDbXrecord
280
     1
102
MATERIAL
148
0.0
149
0.0
149
0.0
 93
        0
 94
      127
282
     0
 72
     0
 77
     0
171
     0
175
     0
179
     0
273
     0
  0
XRECORD
  5
F86
102
{ACAD_REACTORS
330
F84
102
}
330
F84
100
AcDbXrecord
280
     1
270
     1
271
     1
  0
XRECORD
  5
F85
102
{ACAD_REACTORS
330
F84
102
}
330
F84
100
AcDbXrecord
280
     1
270
     1
271
     1
  0
XRECORD
  5
F89
102
{ACAD_REACTORS
330
F84
102
}
330
F84
100
AcDbXrecord
280
     1
270
     1
271
     1
  0
XRECORD
  5
F88
102
{ACAD_REACTORS
330
F84
102
}
330
F84
100
AcDbXrecord
280
     1
270
     1
271
     1
  0
XRECORD
  5
F8A
102
{ACAD_REACTORS
330
F84
102
}
330
F84
100
AcDbXrecord
280
     1
270
     1
271
     1
  0
XRECORD
  5
F87
102
{ACAD_REACTORS
330
F84
102
}
330
F84
100
AcDbXrecord
280
     1
270
     1
271
     1
  0
XRECORD
  5
FFE
102
{ACAD_REACTORS
330
F7C
102
}
330
F7C
100
AcDbXrecord
280
     1
102
MATERIAL
148
0.0
149
0.0
149
0.0
 93
        0
 94
      127
282
     0
 72
     0
 77
     0
171
     0
175
     0
179
     0
273
     0
  0
XRECORD
  5
F7E
102
{ACAD_REACTORS
330
F7C
102
}
330
F7C
100
AcDbXrecord
280
     1
270
     1
271
     1
  0
XRECORD
  5
F7D
102
{ACAD_REACTORS
330
F7C
102
}
330
F7C
100
AcDbXrecord
280
     1
270
     1
271
     1
  0
XRECORD
  5
F81
102
{ACAD_REACTORS
330
F7C
102
}
330
F7C
100
AcDbXrecord
280
     1
270
     1
271
     1
  0
XRECORD
  5
F80
102
{ACAD_REACTORS
330
F7C
102
}
330
F7C
100
AcDbXrecord
280
     1
270
     1
271
     1
  0
XRECORD
  5
F82
102
{ACAD_REACTORS
330
F7C
102
}
330
F7C
100
AcDbXrecord
280
     1
270
     1
271
     1
  0
XRECORD
  5
F7F
102
{ACAD_REACTORS
330
F7C
102
}
330
F7C
100
AcDbXrecord
280
     1
270
     1
271
     1
  0
XRECORD
  5
1000
102
{ACAD_REACTORS
330
F8C
102
}
330
F8C
100
AcDbXrecord
280
     1
102
MATERIAL
148
0.0
149
0.0
149
0.0
 93
        0
 94
      127
282
     0
 72
     0
 77
     0
171
     0
175
     0
179
     0
273
     0
  0
XRECORD
  5
F8E
102
{ACAD_REACTORS
330
F8C
102
}
330
F8C
100
AcDbXrecord
280
     1
270
     1
271
     1
  0
XRECORD
  5
F8D
102
{ACAD_REACTORS
330
F8C
102
}
330
F8C
100
AcDbXrecord
280
     1
270
     1
271
     1
  0
XRECORD
  5
F91
102
{ACAD_REACTORS
330
F8C
102
}
330
F8C
100
AcDbXrecord
280
     1
270
     1
271
     1
  0
XRECORD
  5
F90
102
{ACAD_REACTORS
330
F8C
102
}
330
F8C
100
AcDbXrecord
280
     1
270
     1
271
     1
  0
XRECORD
  5
F92
102
{ACAD_REACTORS
330
F8C
102
}
330
F8C
100
AcDbXrecord
280
     1
270
     1
271
     1
  0
XRECORD
  5
F8F
102
{ACAD_REACTORS
330
F8C
102
}
330
F8C
100
AcDbXrecord
280
     1
270
     1
271
     1
  0
CELLSTYLEMAP
  5
F1070D
102
{ACAD_REACTORS
330
FF8
102
}
330
FF8
100
AcDbCellStyleMap
 90
        3
300
CELLSTYLE
  1
TABLEFORMAT_BEGIN
 90
        5
170
     1
 91
        0
 92
    32768
 62
   257
 93
        1
300
CONTENTFORMAT
  1
CONTENTFORMAT_BEGIN
 90
        0
 91
        0
 92
      512
 93
        0
300

 40
0.0
140
1.0
 94
        5
 62
     0
340
253
144
0.25
309
CONTENTFORMAT_END
171
     1
301
MARGIN
  1
CELLMARGIN_BEGIN
 40
0.06
 40
0.06
 40
0.06
 40
0.06
 40
0.18
 40
0.18
309
CELLMARGIN_END
 94
        6
 95
        1
302
GRIDFORMAT
  1
GRIDFORMAT_BEGIN
 90
        0
 91
        1
 62
     0
 92
       -2
340
0
 93
        0
 40
0.045
309
GRIDFORMAT_END
 95
        2
302
GRIDFORMAT
  1
GRIDFORMAT_BEGIN
 90
        0
 91
        1
 62
     0
 92
       -2
340
0
 93
        0
 40
0.045
309
GRIDFORMAT_END
 95
        4
302
GRIDFORMAT
  1
GRIDFORMAT_BEGIN
 90
        0
 91
        1
 62
     0
 92
       -2
340
0
 93
        0
 40
0.045
309
GRIDFORMAT_END
 95
        8
302
GRIDFORMAT
  1
GRIDFORMAT_BEGIN
 90
        0
 91
        1
 62
     0
 92
       -2
340
0
 93
        0
 40
0.045
309
GRIDFORMAT_END
 95
       16
302
GRIDFORMAT
  1
GRIDFORMAT_BEGIN
 90
        0
 91
        1
 62
     0
 92
       -2
340
0
 93
        0
 40
0.045
309
GRIDFORMAT_END
 95
       32
302
GRIDFORMAT
  1
GRIDFORMAT_BEGIN
 90
        0
 91
        1
 62
     0
 92
       -2
340
0
 93
        0
 40
0.045
309
GRIDFORMAT_END
309
TABLEFORMAT_END
  1
CELLSTYLE_BEGIN
 90
        1
 91
        1
300
_TITLE
309
CELLSTYLE_END
300
CELLSTYLE
  1
TABLEFORMAT_BEGIN
 90
        5
170
     1
 91
        0
 92
        0
 62
   257
 93
        1
300
CONTENTFORMAT
  1
CONTENTFORMAT_BEGIN
 90
        0
 91
        0
 92
      512
 93
        0
300

 40
0.0
140
1.0
 94
        5
 62
     0
340
253
144
0.18
309
CONTENTFORMAT_END
171
     1
301
MARGIN
  1
CELLMARGIN_BEGIN
 40
0.06
 40
0.06
 40
0.06
 40
0.06
 40
0.18
 40
0.18
309
CELLMARGIN_END
 94
        6
 95
        1
302
GRIDFORMAT
  1
GRIDFORMAT_BEGIN
 90
        0
 91
        1
 62
     0
 92
       -2
340
0
 93
        0
 40
0.045
309
GRIDFORMAT_END
 95
        2
302
GRIDFORMAT
  1
GRIDFORMAT_BEGIN
 90
        0
 91
        1
 62
     0
 92
       -2
340
0
 93
        0
 40
0.045
309
GRIDFORMAT_END
 95
        4
302
GRIDFORMAT
  1
GRIDFORMAT_BEGIN
 90
        0
 91
        1
 62
     0
 92
       -2
340
0
 93
        0
 40
0.045
309
GRIDFORMAT_END
 95
        8
302
GRIDFORMAT
  1
GRIDFORMAT_BEGIN
 90
        0
 91
        1
 62
     0
 92
       -2
340
0
 93
        0
 40
0.045
309
GRIDFORMAT_END
 95
       16
302
GRIDFORMAT
  1
GRIDFORMAT_BEGIN
 90
        0
 91
        1
 62
     0
 92
       -2
340
0
 93
        0
 40
0.045
309
GRIDFORMAT_END
 95
       32
302
GRIDFORMAT
  1
GRIDFORMAT_BEGIN
 90
        0
 91
        1
 62
     0
 92
       -2
340
0
 93
        0
 40
0.045
309
GRIDFORMAT_END
309
TABLEFORMAT_END
  1
CELLSTYLE_BEGIN
 90
        2
 91
        1
300
_HEADER
309
CELLSTYLE_END
300
CELLSTYLE
  1
TABLEFORMAT_BEGIN
 90
        5
170
     1
 91
        0
 92
        0
 62
   257
 93
        1
300
CONTENTFORMAT
  1
CONTENTFORMAT_BEGIN
 90
        0
 91
        0
 92
      512
 93
        0
300

 40
0.0
140
1.0
 94
        2
 62
     0
340
253
144
0.18
309
CONTENTFORMAT_END
171
     1
301
MARGIN
  1
CELLMARGIN_BEGIN
 40
0.06
 40
0.06
 40
0.06
 40
0.06
 40
0.18
 40
0.18
309
CELLMARGIN_END
 94
        6
 95
        1
302
GRIDFORMAT
  1
GRIDFORMAT_BEGIN
 90
        0
 91
        1
 62
     0
 92
       -2
340
0
 93
        0
 40
0.045
309
GRIDFORMAT_END
 95
        2
302
GRIDFORMAT
  1
GRIDFORMAT_BEGIN
 90
        0
 91
        1
 62
     0
 92
       -2
340
0
 93
        0
 40
0.045
309
GRIDFORMAT_END
 95
        4
302
GRIDFORMAT
  1
GRIDFORMAT_BEGIN
 90
        0
 91
        1
 62
     0
 92
       -2
340
0
 93
        0
 40
0.045
309
GRIDFORMAT_END
 95
        8
302
GRIDFORMAT
  1
GRIDFORMAT_BEGIN
 90
        0
 91
        1
 62
     0
 92
       -2
340
0
 93
        0
 40
0.045
309
GRIDFORMAT_END
 95
       16
302
GRIDFORMAT
  1
GRIDFORMAT_BEGIN
 90
        0
 91
        1
 62
     0
 92
       -2
340
0
 93
        0
 40
0.045
309
GRIDFORMAT_END
 95
       32
302
GRIDFORMAT
  1
GRIDFORMAT_BEGIN
 90
        0
 91
        1
 62
     0
 92
       -2
340
0
 93
        0
 40
0.045
309
GRIDFORMAT_END
309
TABLEFORMAT_END
  1
CELLSTYLE_BEGIN
 90
        3
 91
        2
300
_DATA
309
CELLSTYLE_END
  0
XRECORD
  5
F10743
102
{ACAD_REACTORS
330
FF8
102
}
330
FF8
100
AcDbXrecord
280
     1
102
ACAD_ROUNDTRIP_PRE2007_TABLESTYLE
 90
      512
 91
        0
  1

 92
      512
 93
        0
  2

 94
      512
 95
        0
  3

  0
XRECORD
  5
F10728
102
{ACAD_REACTORS
330
F10727
102
}
330
F10727
100
AcDbXrecord
280
     1
102
RTVSPropertyOp0
 70
     1
102
RTVSPropertyOp1
 70
     1
102
RTVSPropertyOp2
 70
     1
102
RTVSPropertyOp3
 70
     1
102
RTVSPropertyOp4
 70
     1
102
RTVSPropertyOp5
 70
     1
102
RTVSPropertyOp6
 70
     1
102
RTVSPropertyOp7
 70
     1
102
RTVSPropertyOp8
 70
     1
102
RTVSPropertyOp9
 70
     1
102
RTVSPropertyOp10
 70
     1
102
RTVSPropertyOp11
 70
     1
102
RTVSPropertyOp12
 70
     1
102
RTVSPropertyOp13
 70
     1
102
RTVSPropertyOp14
 70
     1
102
RTVSPropertyOp15
 70
     1
102
RTVSPropertyOp16
 70
     1
102
RTVSPropertyOp17
 70
     1
102
RTVSPropertyOp18
 70
     1
102
RTVSPropertyOp19
 70
     1
102
RTVSPropertyOp20
 70
     1
102
RTVSPropertyOp21
 70
     1
102
RTVSPropertyOp22
 70
     1
102
RTVSPropertyOp23
 70
     1
102
RTVSPropertyOp24
 70
     1
102
RTVSPropertyOp25
 70
     1
102
RTVSPropertyOp26
 70
     1
102
RTVSPropertyOp27
 70
     1
102
RTVSPropertyOp28
 70
     1
102
RTVSPropertyOp29
 70
     1
102
RTVSPropertyOp30
 70
     1
102
RTVSPropertyOp31
 70
     1
102
RTVSPropertyOp32
 70
     1
  0
XRECORD
  5
F1072C
102
{ACAD_REACTORS
330
F1072B
102
}
330
F1072B
100
AcDbXrecord
280
     1
102
RTVSPropertyOp0
 70
     1
102
RTVSPropertyOp1
 70
     1
102
RTVSPropertyOp2
 70
     1
102
RTVSPropertyOp3
 70
     1
102
RTVSPropertyOp4
 70
     1
102
RTVSPropertyOp5
 70
     1
102
RTVSPropertyOp6
 70
     1
102
RTVSPropertyOp7
 70
     1
102
RTVSPropertyOp8
 70
     1
102
RTVSPropertyOp9
 70
     1
102
RTVSPropertyOp10
 70
     1
102
RTVSPropertyOp11
 70
     1
102
RTVSPropertyOp12
 70
     1
102
RTVSPropertyOp13
 70
     1
102
RTVSPropertyOp14
 70
     1
102
RTVSPropertyOp15
 70
     1
102
RTVSPropertyOp16
 70
     1
102
RTVSPropertyOp17
 70
     1
102
RTVSPropertyOp18
 70
     1
102
RTVSPropertyOp19
 70
     1
102
RTVSPropertyOp20
 70
     1
102
RTVSPropertyOp21
 70
     1
102
RTVSPropertyOp22
 70
     1
102
RTVSPropertyOp23
 70
     1
102
RTVSPropertyOp24
 70
     1
102
RTVSPropertyOp25
 70
     1
102
RTVSPropertyOp26
 70
     1
102
RTVSPropertyOp27
 70
     1
102
RTVSPropertyOp28
 70
     1
102
RTVSPropertyOp29
 70
     1
102
RTVSPropertyOp30
 70
     1
102
RTVSPropertyOp31
 70
     1
102
RTVSPropertyOp32
 70
     1
  0
XRECORD
  5
F1072A
102
{ACAD_REACTORS
330
F10729
102
}
330
F10729
100
AcDbXrecord
280
     1
102
RTVSPropertyOp0
 70
     1
102
RTVSPropertyOp1
 70
     1
102
RTVSPropertyOp2
 70
     1
102
RTVSPropertyOp3
 70
     1
102
RTVSPropertyOp4
 70
     1
102
RTVSPropertyOp5
 70
     1
102
RTVSPropertyOp6
 70
     1
102
RTVSPropertyOp7
 70
     1
102
RTVSPropertyOp8
 70
     1
102
RTVSPropertyOp9
 70
     1
102
RTVSPropertyOp10
 70
     1
102
RTVSPropertyOp11
 70
     1
102
RTVSPropertyOp12
 70
     1
102
RTVSPropertyOp13
 70
     1
102
RTVSPropertyOp14
 70
     1
102
RTVSPropertyOp15
 70
     1
102
RTVSPropertyOp16
 70
     1
102
RTVSPropertyOp17
 70
     1
102
RTVSPropertyOp18
 70
     1
102
RTVSPropertyOp19
 70
     1
102
RTVSPropertyOp20
 70
     1
102
RTVSPropertyOp21
 70
     1
102
RTVSPropertyOp22
 70
     1
102
RTVSPropertyOp23
 70
     1
102
RTVSPropertyOp24
 70
     1
102
RTVSPropertyOp25
 70
     1
102
RTVSPropertyOp26
 70
     1
102
RTVSPropertyOp27
 70
     1
102
RTVSPropertyOp28
 70
     1
102
RTVSPropertyOp29
 70
     1
102
RTVSPropertyOp30
 70
     1
102
RTVSPropertyOp31
 70
     1
102
RTVSPropertyOp32
 70
     1
  0
XRECORD
  5
F10726
102
{ACAD_REACTORS
330
F10725
102
}
330
F10725
100
AcDbXrecord
280
     1
102
RTVSPropertyOp0
 70
     1
102
RTVSPropertyOp1
 70
     1
102
RTVSPropertyOp2
 70
     1
102
RTVSPropertyOp3
 70
     1
102
RTVSPropertyOp4
 70
     1
102
RTVSPropertyOp5
 70
     1
102
RTVSPropertyOp6
 70
     1
102
RTVSPropertyOp7
 70
     1
102
RTVSPropertyOp8
 70
     1
102
RTVSPropertyOp9
 70
     1
102
RTVSPropertyOp10
 70
     1
102
RTVSPropertyOp11
 70
     1
102
RTVSPropertyOp12
 70
     1
102
RTVSPropertyOp13
 70
     1
102
RTVSPropertyOp14
 70
     1
102
RTVSPropertyOp15
 70
     1
102
RTVSPropertyOp16
 70
     1
102
RTVSPropertyOp17
 70
     1
102
RTVSPropertyOp18
 70
     1
102
RTVSPropertyOp19
 70
     1
102
RTVSPropertyOp20
 70
     1
102
RTVSPropertyOp21
 70
     1
102
RTVSPropertyOp22
 70
     1
102
RTVSPropertyOp23
 70
     1
102
RTVSPropertyOp24
 70
     1
102
RTVSPropertyOp25
 70
     1
102
RTVSPropertyOp26
 70
     1
102
RTVSPropertyOp27
 70
     1
102
RTVSPropertyOp28
 70
     1
102
RTVSPropertyOp29
 70
     1
102
RTVSPropertyOp30
 70
     1
102
RTVSPropertyOp31
 70
     1
102
RTVSPropertyOp32
 70
     1
  0
XRECORD
  5
F10734
102
{ACAD_REACTORS
330
F10733
102
}
330
F10733
100
AcDbXrecord
280
     1
102
RTVSPropertyOp0
 70
     1
102
RTVSPropertyOp1
 70
     1
102
RTVSPropertyOp2
 70
     1
102
RTVSPropertyOp3
 70
     1
102
RTVSPropertyOp4
 70
     1
102
RTVSPropertyOp5
 70
     1
102
RTVSPropertyOp6
 70
     1
102
RTVSPropertyOp7
 70
     1
102
RTVSPropertyOp8
 70
     1
102
RTVSPropertyOp9
 70
     1
102
RTVSPropertyOp10
 70
     1
102
RTVSPropertyOp11
 70
     1
102
RTVSPropertyOp12
 70
     1
102
RTVSPropertyOp13
 70
     1
102
RTVSPropertyOp14
 70
     1
102
RTVSPropertyOp15
 70
     1
102
RTVSPropertyOp16
 70
     1
102
RTVSPropertyOp17
 70
     1
102
RTVSPropertyOp18
 70
     1
102
RTVSPropertyOp19
 70
     1
102
RTVSPropertyOp20
 70
     1
102
RTVSPropertyOp21
 70
     1
102
RTVSPropertyOp22
 70
     1
102
RTVSPropertyOp23
 70
     1
102
RTVSPropertyOp24
 70
     1
102
RTVSPropertyOp25
 70
     1
102
RTVSPropertyOp26
 70
     1
102
RTVSPropertyOp27
 70
     1
102
RTVSPropertyOp28
 70
     1
102
RTVSPropertyOp29
 70
     1
102
RTVSPropertyOp30
 70
     1
102
RTVSPropertyOp31
 70
     1
102
RTVSPropertyOp32
 70
     1
  0
XRECORD
  5
F1073C
102
{ACAD_REACTORS
330
F1073B
102
}
330
F1073B
100
AcDbXrecord
280
     1
102
RTVSPropertyOp0
 70
     1
102
RTVSPropertyOp1
 70
     1
102
RTVSPropertyOp2
 70
     1
102
RTVSPropertyOp3
 70
     1
102
RTVSPropertyOp4
 70
     1
102
RTVSPropertyOp5
 70
     1
102
RTVSPropertyOp6
 70
     1
102
RTVSPropertyOp7
 70
     1
102
RTVSPropertyOp8
 70
     1
102
RTVSPropertyOp9
 70
     1
102
RTVSPropertyOp10
 70
     1
102
RTVSPropertyOp11
 70
     1
102
RTVSPropertyOp12
 70
     1
102
RTVSPropertyOp13
 70
     1
102
RTVSPropertyOp14
 70
     1
102
RTVSPropertyOp15
 70
     1
102
RTVSPropertyOp16
 70
     1
102
RTVSPropertyOp17
 70
     1
102
RTVSPropertyOp18
 70
     1
102
RTVSPropertyOp19
 70
     1
102
RTVSPropertyOp20
 70
     1
102
RTVSPropertyOp21
 70
     1
102
RTVSPropertyOp22
 70
     1
102
RTVSPropertyOp23
 70
     1
102
RTVSPropertyOp24
 70
     1
102
RTVSPropertyOp25
 70
     1
102
RTVSPropertyOp26
 70
     1
102
RTVSPropertyOp27
 70
     1
102
RTVSPropertyOp28
 70
     1
102
RTVSPropertyOp29
 70
     1
102
RTVSPropertyOp30
 70
     1
102
RTVSPropertyOp31
 70
     1
102
RTVSPropertyOp32
 70
     1
  0
XRECORD
  5
F1072E
102
{ACAD_REACTORS
330
F1072D
102
}
330
F1072D
100
AcDbXrecord
280
     1
102
RTVSPropertyOp0
 70
     1
102
RTVSPropertyOp1
 70
     1
102
RTVSPropertyOp2
 70
     1
102
RTVSPropertyOp3
 70
     1
102
RTVSPropertyOp4
 70
     1
102
RTVSPropertyOp5
 70
     1
102
RTVSPropertyOp6
 70
     1
102
RTVSPropertyOp7
 70
     1
102
RTVSPropertyOp8
 70
     1
102
RTVSPropertyOp9
 70
     1
102
RTVSPropertyOp10
 70
     1
102
RTVSPropertyOp11
 70
     1
102
RTVSPropertyOp12
 70
     1
102
RTVSPropertyOp13
 70
     1
102
RTVSPropertyOp14
 70
     1
102
RTVSPropertyOp15
 70
     1
102
RTVSPropertyOp16
 70
     1
102
RTVSPropertyOp17
 70
     1
102
RTVSPropertyOp18
 70
     1
102
RTVSPropertyOp19
 70
     1
102
RTVSPropertyOp20
 70
     1
102
RTVSPropertyOp21
 70
     1
102
RTVSPropertyOp22
 70
     1
102
RTVSPropertyOp23
 70
     1
102
RTVSPropertyOp24
 70
     1
102
RTVSPropertyOp25
 70
     1
102
RTVSPropertyOp26
 70
     1
102
RTVSPropertyOp27
 70
     1
102
RTVSPropertyOp28
 70
     1
102
RTVSPropertyOp29
 70
     1
102
RTVSPropertyOp30
 70
     1
102
RTVSPropertyOp31
 70
     1
102
RTVSPropertyOp32
 70
     1
  0
XRECORD
  5
F10732
102
{ACAD_REACTORS
330
F10731
102
}
330
F10731
100
AcDbXrecord
280
     1
102
RTVSPropertyOp0
 70
     1
102
RTVSPropertyOp1
 70
     1
102
RTVSPropertyOp2
 70
     1
102
RTVSPropertyOp3
 70
     1
102
RTVSPropertyOp4
 70
     1
102
RTVSPropertyOp5
 70
     1
102
RTVSPropertyOp6
 70
     1
102
RTVSPropertyOp7
 70
     1
102
RTVSPropertyOp8
 70
     1
102
RTVSPropertyOp9
 70
     1
102
RTVSPropertyOp10
 70
     1
102
RTVSPropertyOp11
 70
     1
102
RTVSPropertyOp12
 70
     1
102
RTVSPropertyOp13
 70
     1
102
RTVSPropertyOp14
 70
     1
102
RTVSPropertyOp15
 70
     1
102
RTVSPropertyOp16
 70
     1
102
RTVSPropertyOp17
 70
     1
102
RTVSPropertyOp18
 70
     1
102
RTVSPropertyOp19
 70
     1
102
RTVSPropertyOp20
 70
     1
102
RTVSPropertyOp21
 70
     1
102
RTVSPropertyOp22
 70
     1
102
RTVSPropertyOp23
 70
     1
102
RTVSPropertyOp24
 70
     1
102
RTVSPropertyOp25
 70
     1
102
RTVSPropertyOp26
 70
     1
102
RTVSPropertyOp27
 70
     1
102
RTVSPropertyOp28
 70
     1
102
RTVSPropertyOp29
 70
     1
102
RTVSPropertyOp30
 70
     1
102
RTVSPropertyOp31
 70
     1
102
RTVSPropertyOp32
 70
     1
  0
XRECORD
  5
F10742
102
{ACAD_REACTORS
330
F10741
102
}
330
F10741
100
AcDbXrecord
280
     1
102
RTVSPropertyOp0
 70
     0
102
RTVSPropertyOp1
 70
     0
102
RTVSPropertyOp2
 70
     0
102
RTVSPropertyOp3
 70
     0
102
RTVSPropertyOp4
 70
     0
102
RTVSPropertyOp5
 70
     0
102
RTVSPropertyOp6
 70
     0
102
RTVSPropertyOp7
 70
     0
102
RTVSPropertyOp8
 70
     0
102
RTVSPropertyOp9
 70
     0
102
RTVSPropertyOp10
 70
     0
102
RTVSPropertyOp11
 70
     0
102
RTVSPropertyOp12
 70
     0
102
RTVSPropertyOp13
 70
     0
102
RTVSPropertyOp14
 70
     2
102
RTVSPropertyOp15
 70
     0
102
RTVSPropertyOp16
 70
     0
102
RTVSPropertyOp17
 70
     0
102
RTVSPropertyOp18
 70
     0
102
RTVSPropertyOp19
 70
     0
102
RTVSPropertyOp20
 70
     0
102
RTVSPropertyOp21
 70
     0
102
RTVSPropertyOp22
 70
     0
102
RTVSPropertyOp23
 70
     0
102
RTVSPropertyOp24
 70
     0
102
RTVSPropertyOp25
 70
     0
102
RTVSPropertyOp26
 70
     0
102
RTVSPropertyOp27
 70
     0
102
RTVSPropertyOp28
 70
     1
102
RTVSPropertyOp29
 70
     1
102
RTVSPropertyOp30
 70
     1
102
RTVSPropertyOp31
 70
     1
102
RTVSPropertyOp32
 70
     1
  0
XRECORD
  5
F1073A
102
{ACAD_REACTORS
330
F10739
102
}
330
F10739
100
AcDbXrecord
280
     1
102
RTVSPropertyOp0
 70
     1
102
RTVSPropertyOp1
 70
     1
102
RTVSPropertyOp2
 70
     1
102
RTVSPropertyOp3
 70
     1
102
RTVSPropertyOp4
 70
     1
102
RTVSPropertyOp5
 70
     1
102
RTVSPropertyOp6
 70
     1
102
RTVSPropertyOp7
 70
     1
102
RTVSPropertyOp8
 70
     1
102
RTVSPropertyOp9
 70
     1
102
RTVSPropertyOp10
 70
     1
102
RTVSPropertyOp11
 70
     1
102
RTVSPropertyOp12
 70
     1
102
RTVSPropertyOp13
 70
     1
102
RTVSPropertyOp14
 70
     1
102
RTVSPropertyOp15
 70
     1
102
RTVSPropertyOp16
 70
     1
102
RTVSPropertyOp17
 70
     1
102
RTVSPropertyOp18
 70
     1
102
RTVSPropertyOp19
 70
     1
102
RTVSPropertyOp20
 70
     1
102
RTVSPropertyOp21
 70
     1
102
RTVSPropertyOp22
 70
     1
102
RTVSPropertyOp23
 70
     1
102
RTVSPropertyOp24
 70
     1
102
RTVSPropertyOp25
 70
     1
102
RTVSPropertyOp26
 70
     1
102
RTVSPropertyOp27
 70
     1
102
RTVSPropertyOp28
 70
     1
102
RTVSPropertyOp29
 70
     1
102
RTVSPropertyOp30
 70
     1
102
RTVSPropertyOp31
 70
     1
102
RTVSPropertyOp32
 70
     1
  0
XRECORD
  5
F1071E
102
{ACAD_REACTORS
330
F1071D
102
}
330
F1071D
100
AcDbXrecord
280
     1
102
RTVSPropertyOp0
 70
     1
102
RTVSPropertyOp1
 70
     1
102
RTVSPropertyOp2
 70
     1
102
RTVSPropertyOp3
 70
     1
102
RTVSPropertyOp4
 70
     1
102
RTVSPropertyOp5
 70
     1
102
RTVSPropertyOp6
 70
     1
102
RTVSPropertyOp7
 70
     1
102
RTVSPropertyOp8
 70
     1
102
RTVSPropertyOp9
 70
     1
102
RTVSPropertyOp10
 70
     1
102
RTVSPropertyOp11
 70
     1
102
RTVSPropertyOp12
 70
     1
102
RTVSPropertyOp13
 70
     1
102
RTVSPropertyOp14
 70
     1
102
RTVSPropertyOp15
 70
     1
102
RTVSPropertyOp16
 70
     1
102
RTVSPropertyOp17
 70
     1
102
RTVSPropertyOp18
 70
     1
102
RTVSPropertyOp19
 70
     1
102
RTVSPropertyOp20
 70
     1
102
RTVSPropertyOp21
 70
     1
102
RTVSPropertyOp22
 70
     1
102
RTVSPropertyOp23
 70
     1
102
RTVSPropertyOp24
 70
     1
102
RTVSPropertyOp25
 70
     1
102
RTVSPropertyOp26
 70
     1
102
RTVSPropertyOp27
 70
     1
102
RTVSPropertyOp28
 70
     1
102
RTVSPropertyOp29
 70
     1
102
RTVSPropertyOp30
 70
     1
102
RTVSPropertyOp31
 70
     1
102
RTVSPropertyOp32
 70
     1
  0
XRECORD
  5
F10720
102
{ACAD_REACTORS
330
F1071F
102
}
330
F1071F
100
AcDbXrecord
280
     1
102
RTVSPropertyOp0
 70
     1
102
RTVSPropertyOp1
 70
     1
102
RTVSPropertyOp2
 70
     1
102
RTVSPropertyOp3
 70
     1
102
RTVSPropertyOp4
 70
     1
102
RTVSPropertyOp5
 70
     1
102
RTVSPropertyOp6
 70
     1
102
RTVSPropertyOp7
 70
     1
102
RTVSPropertyOp8
 70
     1
102
RTVSPropertyOp9
 70
     1
102
RTVSPropertyOp10
 70
     1
102
RTVSPropertyOp11
 70
     1
102
RTVSPropertyOp12
 70
     1
102
RTVSPropertyOp13
 70
     1
102
RTVSPropertyOp14
 70
     1
102
RTVSPropertyOp15
 70
     1
102
RTVSPropertyOp16
 70
     1
102
RTVSPropertyOp17
 70
     1
102
RTVSPropertyOp18
 70
     1
102
RTVSPropertyOp19
 70
     1
102
RTVSPropertyOp20
 70
     1
102
RTVSPropertyOp21
 70
     1
102
RTVSPropertyOp22
 70
     1
102
RTVSPropertyOp23
 70
     1
102
RTVSPropertyOp24
 70
     1
102
RTVSPropertyOp25
 70
     1
102
RTVSPropertyOp26
 70
     1
102
RTVSPropertyOp27
 70
     1
102
RTVSPropertyOp28
 70
     1
102
RTVSPropertyOp29
 70
     1
102
RTVSPropertyOp30
 70
     1
102
RTVSPropertyOp31
 70
     1
102
RTVSPropertyOp32
 70
     1
  0
XRECORD
  5
F10722
102
{ACAD_REACTORS
330
F10721
102
}
330
F10721
100
AcDbXrecord
280
     1
102
RTVSPropertyOp0
 70
     1
102
RTVSPropertyOp1
 70
     1
102
RTVSPropertyOp2
 70
     1
102
RTVSPropertyOp3
 70
     1
102
RTVSPropertyOp4
 70
     1
102
RTVSPropertyOp5
 70
     1
102
RTVSPropertyOp6
 70
     1
102
RTVSPropertyOp7
 70
     1
102
RTVSPropertyOp8
 70
     1
102
RTVSPropertyOp9
 70
     1
102
RTVSPropertyOp10
 70
     1
102
RTVSPropertyOp11
 70
     1
102
RTVSPropertyOp12
 70
     1
102
RTVSPropertyOp13
 70
     1
102
RTVSPropertyOp14
 70
     1
102
RTVSPropertyOp15
 70
     1
102
RTVSPropertyOp16
 70
     1
102
RTVSPropertyOp17
 70
     1
102
RTVSPropertyOp18
 70
     1
102
RTVSPropertyOp19
 70
     1
102
RTVSPropertyOp20
 70
     1
102
RTVSPropertyOp21
 70
     1
102
RTVSPropertyOp22
 70
     1
102
RTVSPropertyOp23
 70
     1
102
RTVSPropertyOp24
 70
     1
102
RTVSPropertyOp25
 70
     1
102
RTVSPropertyOp26
 70
     1
102
RTVSPropertyOp27
 70
     1
102
RTVSPropertyOp28
 70
     1
102
RTVSPropertyOp29
 70
     1
102
RTVSPropertyOp30
 70
     1
102
RTVSPropertyOp31
 70
     1
102
RTVSPropertyOp32
 70
     1
  0
XRECORD
  5
F10724
102
{ACAD_REACTORS
330
F10723
102
}
330
F10723
100
AcDbXrecord
280
     1
102
RTVSPropertyOp0
 70
     1
102
RTVSPropertyOp1
 70
     1
102
RTVSPropertyOp2
 70
     1
102
RTVSPropertyOp3
 70
     1
102
RTVSPropertyOp4
 70
     1
102
RTVSPropertyOp5
 70
     1
102
RTVSPropertyOp6
 70
     1
102
RTVSPropertyOp7
 70
     1
102
RTVSPropertyOp8
 70
     1
102
RTVSPropertyOp9
 70
     1
102
RTVSPropertyOp10
 70
     1
102
RTVSPropertyOp11
 70
     1
102
RTVSPropertyOp12
 70
     1
102
RTVSPropertyOp13
 70
     1
102
RTVSPropertyOp14
 70
     1
102
RTVSPropertyOp15
 70
     1
102
RTVSPropertyOp16
 70
     1
102
RTVSPropertyOp17
 70
     1
102
RTVSPropertyOp18
 70
     1
102
RTVSPropertyOp19
 70
     1
102
RTVSPropertyOp20
 70
     1
102
RTVSPropertyOp21
 70
     1
102
RTVSPropertyOp22
 70
     1
102
RTVSPropertyOp23
 70
     1
102
RTVSPropertyOp24
 70
     1
102
RTVSPropertyOp25
 70
     1
102
RTVSPropertyOp26
 70
     1
102
RTVSPropertyOp27
 70
     1
102
RTVSPropertyOp28
 70
     1
102
RTVSPropertyOp29
 70
     1
102
RTVSPropertyOp30
 70
     1
102
RTVSPropertyOp31
 70
     1
102
RTVSPropertyOp32
 70
     1
  0
XRECORD
  5
F1074B
102
{ACAD_REACTORS
330
F1074A
102
}
330
F1074A
100
AcDbXrecord
280
     1
102
RTVSPropertyOp0
 70
     1
102
RTVSPropertyOp1
 70
     1
102
RTVSPropertyOp2
 70
     1
102
RTVSPropertyOp3
 70
     1
102
RTVSPropertyOp4
 70
     1
102
RTVSPropertyOp5
 70
     1
102
RTVSPropertyOp6
 70
     1
102
RTVSPropertyOp7
 70
     1
102
RTVSPropertyOp8
 70
     1
102
RTVSPropertyOp9
 70
     1
102
RTVSPropertyOp10
 70
     1
102
RTVSPropertyOp11
 70
     1
102
RTVSPropertyOp12
 70
     1
102
RTVSPropertyOp13
 70
     1
102
RTVSPropertyOp14
 70
     1
102
RTVSPropertyOp15
 70
     1
102
RTVSPropertyOp16
 70
     1
102
RTVSPropertyOp17
 70
     1
102
RTVSPropertyOp18
 70
     1
102
RTVSPropertyOp19
 70
     1
102
RTVSPropertyOp20
 70
     1
102
RTVSPropertyOp21
 70
     1
102
RTVSPropertyOp22
 70
     1
102
RTVSPropertyOp23
 70
     1
102
RTVSPropertyOp24
 70
     1
102
RTVSPropertyOp25
 70
     1
102
RTVSPropertyOp26
 70
     1
102
RTVSPropertyOp27
 70
     1
102
RTVSPropertyOp28
 70
     1
102
RTVSPropertyOp29
 70
     1
102
RTVSPropertyOp30
 70
     1
102
RTVSPropertyOp31
 70
     1
102
RTVSPropertyOp32
 70
     1
  0
XRECORD
  5
F1073E
102
{ACAD_REACTORS
330
F1073D
102
}
330
F1073D
100
AcDbXrecord
280
     1
102
RTVSPropertyOp0
 70
     0
102
RTVSPropertyOp1
 70
     0
102
RTVSPropertyOp2
 70
     0
102
RTVSPropertyOp3
 70
     0
102
RTVSPropertyOp4
 70
     0
102
RTVSPropertyOp5
 70
     0
102
RTVSPropertyOp6
 70
     0
102
RTVSPropertyOp7
 70
     0
102
RTVSPropertyOp8
 70
     0
102
RTVSPropertyOp9
 70
     0
102
RTVSPropertyOp10
 70
     0
102
RTVSPropertyOp11
 70
     0
102
RTVSPropertyOp12
 70
     0
102
RTVSPropertyOp13
 70
     0
102
RTVSPropertyOp14
 70
     2
102
RTVSPropertyOp15
 70
     0
102
RTVSPropertyOp16
 70
     0
102
RTVSPropertyOp17
 70
     0
102
RTVSPropertyOp18
 70
     0
102
RTVSPropertyOp19
 70
     0
102
RTVSPropertyOp20
 70
     0
102
RTVSPropertyOp21
 70
     0
102
RTVSPropertyOp22
 70
     0
102
RTVSPropertyOp23
 70
     0
102
RTVSPropertyOp24
 70
     0
102
RTVSPropertyOp25
 70
     0
102
RTVSPropertyOp26
 70
     0
102
RTVSPropertyOp27
 70
     0
102
RTVSPropertyOp28
 70
     1
102
RTVSPropertyOp29
 70
     1
102
RTVSPropertyOp30
 70
     1
102
RTVSPropertyOp31
 70
     1
102
RTVSPropertyOp32
 70
     1
  0
XRECORD
  5
F10738
102
{ACAD_REACTORS
330
F10737
102
}
330
F10737
100
AcDbXrecord
280
     1
102
RTVSPropertyOp0
 70
     1
102
RTVSPropertyOp1
 70
     1
102
RTVSPropertyOp2
 70
     1
102
RTVSPropertyOp3
 70
     1
102
RTVSPropertyOp4
 70
     1
102
RTVSPropertyOp5
 70
     1
102
RTVSPropertyOp6
 70
     1
102
RTVSPropertyOp7
 70
     1
102
RTVSPropertyOp8
 70
     1
102
RTVSPropertyOp9
 70
     1
102
RTVSPropertyOp10
 70
     1
102
RTVSPropertyOp11
 70
     1
102
RTVSPropertyOp12
 70
     1
102
RTVSPropertyOp13
 70
     1
102
RTVSPropertyOp14
 70
     1
102
RTVSPropertyOp15
 70
     1
102
RTVSPropertyOp16
 70
     1
102
RTVSPropertyOp17
 70
     1
102
RTVSPropertyOp18
 70
     1
102
RTVSPropertyOp19
 70
     1
102
RTVSPropertyOp20
 70
     1
102
RTVSPropertyOp21
 70
     1
102
RTVSPropertyOp22
 70
     1
102
RTVSPropertyOp23
 70
     1
102
RTVSPropertyOp24
 70
     1
102
RTVSPropertyOp25
 70
     1
102
RTVSPropertyOp26
 70
     1
102
RTVSPropertyOp27
 70
     1
102
RTVSPropertyOp28
 70
     1
102
RTVSPropertyOp29
 70
     1
102
RTVSPropertyOp30
 70
     1
102
RTVSPropertyOp31
 70
     1
102
RTVSPropertyOp32
 70
     1
  0
XRECORD
  5
F10740
102
{ACAD_REACTORS
330
F1073F
102
}
330
F1073F
100
AcDbXrecord
280
     1
102
RTVSPropertyOp0
 70
     0
102
RTVSPropertyOp1
 70
     0
102
RTVSPropertyOp2
 70
     0
102
RTVSPropertyOp3
 70
     0
102
RTVSPropertyOp4
 70
     0
102
RTVSPropertyOp5
 70
     0
102
RTVSPropertyOp6
 70
     0
102
RTVSPropertyOp7
 70
     0
102
RTVSPropertyOp8
 70
     0
102
RTVSPropertyOp9
 70
     0
102
RTVSPropertyOp10
 70
     0
102
RTVSPropertyOp11
 70
     0
102
RTVSPropertyOp12
 70
     0
102
RTVSPropertyOp13
 70
     0
102
RTVSPropertyOp14
 70
     2
102
RTVSPropertyOp15
 70
     0
102
RTVSPropertyOp16
 70
     0
102
RTVSPropertyOp17
 70
     0
102
RTVSPropertyOp18
 70
     0
102
RTVSPropertyOp19
 70
     0
102
RTVSPropertyOp20
 70
     0
102
RTVSPropertyOp21
 70
     0
102
RTVSPropertyOp22
 70
     0
102
RTVSPropertyOp23
 70
     0
102
RTVSPropertyOp24
 70
     0
102
RTVSPropertyOp25
 70
     0
102
RTVSPropertyOp26
 70
     0
102
RTVSPropertyOp27
 70
     0
102
RTVSPropertyOp28
 70
     1
102
RTVSPropertyOp29
 70
     1
102
RTVSPropertyOp30
 70
     1
102
RTVSPropertyOp31
 70
     1
102
RTVSPropertyOp32
 70
     1
  0
XRECORD
  5
F10730
102
{ACAD_REACTORS
330
F1072F
102
}
330
F1072F
100
AcDbXrecord
280
     1
102
RTVSPropertyOp0
 70
     1
102
RTVSPropertyOp1
 70
     1
102
RTVSPropertyOp2
 70
     1
102
RTVSPropertyOp3
 70
     1
102
RTVSPropertyOp4
 70
     1
102
RTVSPropertyOp5
 70
     1
102
RTVSPropertyOp6
 70
     1
102
RTVSPropertyOp7
 70
     1
102
RTVSPropertyOp8
 70
     1
102
RTVSPropertyOp9
 70
     1
102
RTVSPropertyOp10
 70
     1
102
RTVSPropertyOp11
 70
     1
102
RTVSPropertyOp12
 70
     1
102
RTVSPropertyOp13
 70
     1
102
RTVSPropertyOp14
 70
     1
102
RTVSPropertyOp15
 70
     1
102
RTVSPropertyOp16
 70
     1
102
RTVSPropertyOp17
 70
     1
102
RTVSPropertyOp18
 70
     1
102
RTVSPropertyOp19
 70
     1
102
RTVSPropertyOp20
 70
     1
102
RTVSPropertyOp21
 70
     1
102
RTVSPropertyOp22
 70
     1
102
RTVSPropertyOp23
 70
     1
102
RTVSPropertyOp24
 70
     1
102
RTVSPropertyOp25
 70
     1
102
RTVSPropertyOp26
 70
     1
102
RTVSPropertyOp27
 70
     1
102
RTVSPropertyOp28
 70
     1
102
RTVSPropertyOp29
 70
     1
102
RTVSPropertyOp30
 70
     1
102
RTVSPropertyOp31
 70
     1
102
RTVSPropertyOp32
 70
     1
  0
XRECORD
  5
F10755
102
{ACAD_REACTORS
330
F10754
102
}
330
F10754
100
AcDbXrecord
280
     1
102
RTVSPropertyOp0
 70
     1
102
RTVSPropertyOp1
 70
     1
102
RTVSPropertyOp2
 70
     1
102
RTVSPropertyOp3
 70
     1
102
RTVSPropertyOp4
 70
     1
102
RTVSPropertyOp5
 70
     1
102
RTVSPropertyOp6
 70
     1
102
RTVSPropertyOp7
 70
     1
102
RTVSPropertyOp8
 70
     1
102
RTVSPropertyOp9
 70
     1
102
RTVSPropertyOp10
 70
     1
102
RTVSPropertyOp11
 70
     1
102
RTVSPropertyOp12
 70
     1
102
RTVSPropertyOp13
 70
     1
102
RTVSPropertyOp14
 70
     1
102
RTVSPropertyOp15
 70
     1
102
RTVSPropertyOp16
 70
     1
102
RTVSPropertyOp17
 70
     1
102
RTVSPropertyOp18
 70
     1
102
RTVSPropertyOp19
 70
     1
102
RTVSPropertyOp20
 70
     1
102
RTVSPropertyOp21
 70
     1
102
RTVSPropertyOp22
 70
     1
102
RTVSPropertyOp23
 70
     1
102
RTVSPropertyOp24
 70
     1
102
RTVSPropertyOp25
 70
     1
102
RTVSPropertyOp26
 70
     1
102
RTVSPropertyOp27
 70
     1
102
RTVSPropertyOp28
 70
     1
102
RTVSPropertyOp29
 70
     1
102
RTVSPropertyOp30
 70
     1
102
RTVSPropertyOp31
 70
     1
102
RTVSPropertyOp32
 70
     1
  0
XRECORD
  5
F10753
102
{ACAD_REACTORS
330
F10752
102
}
330
F10752
100
AcDbXrecord
280
     1
102
RTVSPropertyOp0
 70
     1
102
RTVSPropertyOp1
 70
     1
102
RTVSPropertyOp2
 70
     1
102
RTVSPropertyOp3
 70
     1
102
RTVSPropertyOp4
 70
     1
102
RTVSPropertyOp5
 70
     1
102
RTVSPropertyOp6
 70
     1
102
RTVSPropertyOp7
 70
     1
102
RTVSPropertyOp8
 70
     1
102
RTVSPropertyOp9
 70
     1
102
RTVSPropertyOp10
 70
     1
102
RTVSPropertyOp11
 70
     1
102
RTVSPropertyOp12
 70
     1
102
RTVSPropertyOp13
 70
     1
102
RTVSPropertyOp14
 70
     1
102
RTVSPropertyOp15
 70
     1
102
RTVSPropertyOp16
 70
     1
102
RTVSPropertyOp17
 70
     1
102
RTVSPropertyOp18
 70
     1
102
RTVSPropertyOp19
 70
     1
102
RTVSPropertyOp20
 70
     1
102
RTVSPropertyOp21
 70
     1
102
RTVSPropertyOp22
 70
     1
102
RTVSPropertyOp23
 70
     1
102
RTVSPropertyOp24
 70
     1
102
RTVSPropertyOp25
 70
     1
102
RTVSPropertyOp26
 70
     1
102
RTVSPropertyOp27
 70
     1
102
RTVSPropertyOp28
 70
     1
102
RTVSPropertyOp29
 70
     1
102
RTVSPropertyOp30
 70
     1
102
RTVSPropertyOp31
 70
     1
102
RTVSPropertyOp32
 70
     1
  0
XRECORD
  5
F1074D
102
{ACAD_REACTORS
330
F1074C
102
}
330
F1074C
100
AcDbXrecord
280
     1
102
RTVSPropertyOp0
 70
     1
102
RTVSPropertyOp1
 70
     1
102
RTVSPropertyOp2
 70
     1
102
RTVSPropertyOp3
 70
     1
102
RTVSPropertyOp4
 70
     1
102
RTVSPropertyOp5
 70
     1
102
RTVSPropertyOp6
 70
     1
102
RTVSPropertyOp7
 70
     1
102
RTVSPropertyOp8
 70
     1
102
RTVSPropertyOp9
 70
     1
102
RTVSPropertyOp10
 70
     1
102
RTVSPropertyOp11
 70
     1
102
RTVSPropertyOp12
 70
     1
102
RTVSPropertyOp13
 70
     1
102
RTVSPropertyOp14
 70
     1
102
RTVSPropertyOp15
 70
     1
102
RTVSPropertyOp16
 70
     1
102
RTVSPropertyOp17
 70
     1
102
RTVSPropertyOp18
 70
     1
102
RTVSPropertyOp19
 70
     1
102
RTVSPropertyOp20
 70
     1
102
RTVSPropertyOp21
 70
     1
102
RTVSPropertyOp22
 70
     1
102
RTVSPropertyOp23
 70
     1
102
RTVSPropertyOp24
 70
     1
102
RTVSPropertyOp25
 70
     1
102
RTVSPropertyOp26
 70
     1
102
RTVSPropertyOp27
 70
     1
102
RTVSPropertyOp28
 70
     1
102
RTVSPropertyOp29
 70
     1
102
RTVSPropertyOp30
 70
     1
102
RTVSPropertyOp31
 70
     1
102
RTVSPropertyOp32
 70
     1
  0
XRECORD
  5
F1074F
102
{ACAD_REACTORS
330
F1074E
102
}
330
F1074E
100
AcDbXrecord
280
     1
102
RTVSPropertyOp0
 70
     1
102
RTVSPropertyOp1
 70
     1
102
RTVSPropertyOp2
 70
     1
102
RTVSPropertyOp3
 70
     1
102
RTVSPropertyOp4
 70
     1
102
RTVSPropertyOp5
 70
     1
102
RTVSPropertyOp6
 70
     1
102
RTVSPropertyOp7
 70
     1
102
RTVSPropertyOp8
 70
     1
102
RTVSPropertyOp9
 70
     1
102
RTVSPropertyOp10
 70
     1
102
RTVSPropertyOp11
 70
     1
102
RTVSPropertyOp12
 70
     1
102
RTVSPropertyOp13
 70
     1
102
RTVSPropertyOp14
 70
     1
102
RTVSPropertyOp15
 70
     1
102
RTVSPropertyOp16
 70
     1
102
RTVSPropertyOp17
 70
     1
102
RTVSPropertyOp18
 70
     1
102
RTVSPropertyOp19
 70
     1
102
RTVSPropertyOp20
 70
     1
102
RTVSPropertyOp21
 70
     1
102
RTVSPropertyOp22
 70
     1
102
RTVSPropertyOp23
 70
     1
102
RTVSPropertyOp24
 70
     1
102
RTVSPropertyOp25
 70
     1
102
RTVSPropertyOp26
 70
     1
102
RTVSPropertyOp27
 70
     1
102
RTVSPropertyOp28
 70
     1
102
RTVSPropertyOp29
 70
     1
102
RTVSPropertyOp30
 70
     1
102
RTVSPropertyOp31
 70
     1
102
RTVSPropertyOp32
 70
     1
  0
XRECORD
  5
F10736
102
{ACAD_REACTORS
330
F10735
102
}
330
F10735
100
AcDbXrecord
280
     1
102
RTVSPropertyOp0
 70
     1
102
RTVSPropertyOp1
 70
     1
102
RTVSPropertyOp2
 70
     1
102
RTVSPropertyOp3
 70
     1
102
RTVSPropertyOp4
 70
     1
102
RTVSPropertyOp5
 70
     1
102
RTVSPropertyOp6
 70
     1
102
RTVSPropertyOp7
 70
     1
102
RTVSPropertyOp8
 70
     1
102
RTVSPropertyOp9
 70
     1
102
RTVSPropertyOp10
 70
     1
102
RTVSPropertyOp11
 70
     1
102
RTVSPropertyOp12
 70
     1
102
RTVSPropertyOp13
 70
     1
102
RTVSPropertyOp14
 70
     1
102
RTVSPropertyOp15
 70
     1
102
RTVSPropertyOp16
 70
     1
102
RTVSPropertyOp17
 70
     1
102
RTVSPropertyOp18
 70
     1
102
RTVSPropertyOp19
 70
     1
102
RTVSPropertyOp20
 70
     1
102
RTVSPropertyOp21
 70
     1
102
RTVSPropertyOp22
 70
     1
102
RTVSPropertyOp23
 70
     1
102
RTVSPropertyOp24
 70
     1
102
RTVSPropertyOp25
 70
     1
102
RTVSPropertyOp26
 70
     1
102
RTVSPropertyOp27
 70
     1
102
RTVSPropertyOp28
 70
     1
102
RTVSPropertyOp29
 70
     1
102
RTVSPropertyOp30
 70
     1
102
RTVSPropertyOp31
 70
     1
102
RTVSPropertyOp32
 70
     1
  0
XRECORD
  5
F10749
102
{ACAD_REACTORS
330
F10748
102
}
330
F10748
100
AcDbXrecord
280
     1
102
RTVSPropertyOp0
 70
     1
102
RTVSPropertyOp1
 70
     1
102
RTVSPropertyOp2
 70
     1
102
RTVSPropertyOp3
 70
     1
102
RTVSPropertyOp4
 70
     1
102
RTVSPropertyOp5
 70
     1
102
RTVSPropertyOp6
 70
     1
102
RTVSPropertyOp7
 70
     1
102
RTVSPropertyOp8
 70
     1
102
RTVSPropertyOp9
 70
     1
102
RTVSPropertyOp10
 70
     1
102
RTVSPropertyOp11
 70
     1
102
RTVSPropertyOp12
 70
     1
102
RTVSPropertyOp13
 70
     1
102
RTVSPropertyOp14
 70
     1
102
RTVSPropertyOp15
 70
     1
102
RTVSPropertyOp16
 70
     1
102
RTVSPropertyOp17
 70
     1
102
RTVSPropertyOp18
 70
     1
102
RTVSPropertyOp19
 70
     1
102
RTVSPropertyOp20
 70
     1
102
RTVSPropertyOp21
 70
     1
102
RTVSPropertyOp22
 70
     1
102
RTVSPropertyOp23
 70
     1
102
RTVSPropertyOp24
 70
     1
102
RTVSPropertyOp25
 70
     1
102
RTVSPropertyOp26
 70
     1
102
RTVSPropertyOp27
 70
     1
102
RTVSPropertyOp28
 70
     1
102
RTVSPropertyOp29
 70
     1
102
RTVSPropertyOp30
 70
     1
102
RTVSPropertyOp31
 70
     1
102
RTVSPropertyOp32
 70
     1
  0
XRECORD
  5
F10751
102
{ACAD_REACTORS
330
F10750
102
}
330
F10750
100
AcDbXrecord
280
     1
102
RTVSPropertyOp0
 70
     1
102
RTVSPropertyOp1
 70
     1
102
RTVSPropertyOp2
 70
     1
102
RTVSPropertyOp3
 70
     1
102
RTVSPropertyOp4
 70
     1
102
RTVSPropertyOp5
 70
     1
102
RTVSPropertyOp6
 70
     1
102
RTVSPropertyOp7
 70
     1
102
RTVSPropertyOp8
 70
     1
102
RTVSPropertyOp9
 70
     1
102
RTVSPropertyOp10
 70
     1
102
RTVSPropertyOp11
 70
     1
102
RTVSPropertyOp12
 70
     1
102
RTVSPropertyOp13
 70
     1
102
RTVSPropertyOp14
 70
     1
102
RTVSPropertyOp15
 70
     1
102
RTVSPropertyOp16
 70
     1
102
RTVSPropertyOp17
 70
     1
102
RTVSPropertyOp18
 70
     1
102
RTVSPropertyOp19
 70
     1
102
RTVSPropertyOp20
 70
     1
102
RTVSPropertyOp21
 70
     1
102
RTVSPropertyOp22
 70
     1
102
RTVSPropertyOp23
 70
     1
102
RTVSPropertyOp24
 70
     1
102
RTVSPropertyOp25
 70
     1
102
RTVSPropertyOp26
 70
     1
102
RTVSPropertyOp27
 70
     1
102
RTVSPropertyOp28
 70
     1
102
RTVSPropertyOp29
 70
     1
102
RTVSPropertyOp30
 70
     1
102
RTVSPropertyOp31
 70
     1
102
RTVSPropertyOp32
 70
     1
  0
ENDSEC
  0
EOF
