  0
SECTION
  2
HEADER
  9
$ACADVER
  1
AC1018
  9
$ACADMAINTVER
 70
     0
  9
$DWGCODEPAGE
  3
ANSI_1252
  9
$INSBASE
 10
0.0
 20
0.0
 30
0.0
  9
$EXTMIN
 10
0.0
 20
0.0
 30
0.0
  9
$EXTMAX
 10
594.0
 20
420.0
 30
0.0
  9
$LIMMIN
 10
0.0
 20
0.0
  9
$LIMMAX
 10
594.0
 20
420.0
  9
$ORTHOMODE
 70
     0
  9
$REGENMODE
 70
     1
  9
$FILLMODE
 70
     1
  9
$QTEXTMODE
 70
     0
  9
$MIRRTEXT
 70
     1
  9
$LTSCALE
 40
1.0
  9
$ATTMODE
 70
     1
  9
$TEXTSIZE
 40
0.75
  9
$TRACEWID
 40
1.0
  9
$TEXTSTYLE
  7
Standard
  9
$CLAYER
  8
0
  9
$CELTYPE
  6
ByLayer
  9
$CECOLOR
 62
   256
  9
$CELTSCALE
 40
1.0
  9
$DISPSILH
 70
     0
  9
$DIMSCALE
 40
1.0
  9
$DIMASZ
 40
2.5
  9
$DIMEXO
 40
0.625
  9
$DIMDLI
 40
3.75
  9
$DIMRND
 40
0.0
  9
$DIMDLE
 40
0.0
  9
$DIMEXE
 40
1.25
  9
$DIMTP
 40
0.0
  9
$DIMTM
 40
0.0
  9
$DIMTXT
 40
2.5
  9
$DIMCEN
 40
2.5
  9
$DIMTSZ
 40
0.0
  9
$DIMTOL
 70
     0
  9
$DIMLIM
 70
     0
  9
$DIMTIH
 70
     0
  9
$DIMTOH
 70
     0
  9
$DIMSE1
 70
     0
  9
$DIMSE2
 70
     0
  9
$DIMTAD
 70
     1
  9
$DIMZIN
 70
     8
  9
$DIMBLK
  1

  9
$DIMASO
 70
     1
  9
$DIMSHO
 70
     1
  9
$DIMPOST
  1

  9
$DIMAPOST
  1

  9
$DIMALT
 70
     0
  9
$DIMALTD
 70
     3
  9
$DIMALTF
 40
0.0393700787
  9
$DIMLFAC
 40
1.0
  9
$DIMTOFL
 70
     1
  9
$DIMTVP
 40
0.0
  9
$DIMTIX
 70
     0
  9
$DIMSOXD
 70
     0
  9
$DIMSAH
 70
     0
  9
$DIMBLK1
  1

  9
$DIMBLK2
  1

  9
$DIMSTYLE
  2
ISO-25
  9
$DIMCLRD
 70
     0
  9
$DIMCLRE
 70
     0
  9
$DIMCLRT
 70
     0
  9
$DIMTFAC
 40
1.0
  9
$DIMGAP
 40
0.625
  9
$DIMJUST
 70
     0
  9
$DIMSD1
 70
     0
  9
$DIMSD2
 70
     0
  9
$DIMTOLJ
 70
     0
  9
$DIMTZIN
 70
     8
  9
$DIMALTZ
 70
     0
  9
$DIMALTTZ
 70
     0
  9
$DIMUPT
 70
     0
  9
$DIMDEC
 70
     2
  9
$DIMTDEC
 70
     2
  9
$DIMALTU
 70
     2
  9
$DIMALTTD
 70
     3
  9
$DIMTXSTY
  7
Standard
  9
$DIMAUNIT
 70
     0
  9
$DIMADEC
 70
     0
  9
$DIMALTRND
 40
0.0
  9
$DIMAZIN
 70
     0
  9
$DIMDSEP
 70
    44
  9
$DIMATFIT
 70
     3
  9
$DIMFRAC
 70
     0
  9
$DIMLDRBLK
  1

  9
$DIMLUNIT
 70
     2
  9
$DIMLWD
 70
    -2
  9
$DIMLWE
 70
    -2
  9
$DIMTMOVE
 70
     0
  9
$LUNITS
 70
     2
  9
$LUPREC
 70
     4
  9
$SKETCHINC
 40
1.0
  9
$FILLETRAD
 40
10.0
  9
$AUNITS
 70
     0
  9
$AUPREC
 70
     0
  9
$MENU
  1
.
  9
$ELEVATION
 40
0.0
  9
$PELEVATION
 40
0.0
  9
$THICKNESS
 40
0.0
  9
$LIMCHECK
 70
     0
  9
$CHAMFERA
 40
0.0
  9
$CHAMFERB
 40
0.0
  9
$CHAMFERC
 40
0.0
  9
$CHAMFERD
 40
0.0
  9
$SKPOLY
 70
     0
  9
$TDCREATE
 40
2459694.592417211
  9
$TDUCREATE
 40
2459694.509083877
  9
$TDUPDATE
 40
2459694.592423276
  9
$TDUUPDATE
 40
2459694.509089942
  9
$TDINDWG
 40
0.0000000116
  9
$TDUSRTIMER
 40
0.0000000116
  9
$USRTIMER
 70
     1
  9
$ANGBASE
 50
0.0
  9
$ANGDIR
 70
     0
  9
$PDMODE
 70
     0
  9
$PDSIZE
 40
0.0
  9
$PLINEWID
 40
0.0
  9
$SPLFRAME
 70
     0
  9
$SPLINETYPE
 70
     6
  9
$SPLINESEGS
 70
     8
  9
$HANDSEED
  5
502
  9
$SURFTAB1
 70
     6
  9
$SURFTAB2
 70
     6
  9
$SURFTYPE
 70
     6
  9
$SURFU
 70
     6
  9
$SURFV
 70
     6
  9
$UCSBASE
  2

  9
$UCSNAME
  2

  9
$UCSORG
 10
0.0
 20
0.0
 30
0.0
  9
$UCSXDIR
 10
1.0
 20
0.0
 30
0.0
  9
$UCSYDIR
 10
0.0
 20
1.0
 30
0.0
  9
$UCSORTHOREF
  2

  9
$UCSORTHOVIEW
 70
     0
  9
$UCSORGTOP
 10
0.0
 20
0.0
 30
0.0
  9
$UCSORGBOTTOM
 10
0.0
 20
0.0
 30
0.0
  9
$UCSORGLEFT
 10
0.0
 20
0.0
 30
0.0
  9
$UCSORGRIGHT
 10
0.0
 20
0.0
 30
0.0
  9
$UCSORGFRONT
 10
0.0
 20
0.0
 30
0.0
  9
$UCSORGBACK
 10
0.0
 20
0.0
 30
0.0
  9
$PUCSBASE
  2

  9
$PUCSNAME
  2

  9
$PUCSORG
 10
0.0
 20
0.0
 30
0.0
  9
$PUCSXDIR
 10
1.0
 20
0.0
 30
0.0
  9
$PUCSYDIR
 10
0.0
 20
1.0
 30
0.0
  9
$PUCSORTHOREF
  2

  9
$PUCSORTHOVIEW
 70
     0
  9
$PUCSORGTOP
 10
0.0
 20
0.0
 30
0.0
  9
$PUCSORGBOTTOM
 10
0.0
 20
0.0
 30
0.0
  9
$PUCSORGLEFT
 10
0.0
 20
0.0
 30
0.0
  9
$PUCSORGRIGHT
 10
0.0
 20
0.0
 30
0.0
  9
$PUCSORGFRONT
 10
0.0
 20
0.0
 30
0.0
  9
$PUCSORGBACK
 10
0.0
 20
0.0
 30
0.0
  9
$USERI1
 70
     0
  9
$USERI2
 70
     0
  9
$USERI3
 70
     0
  9
$USERI4
 70
     0
  9
$USERI5
 70
     0
  9
$USERR1
 40
0.0
  9
$USERR2
 40
0.0
  9
$USERR3
 40
0.0
  9
$USERR4
 40
0.0
  9
$USERR5
 40
0.0
  9
$WORLDVIEW
 70
     1
  9
$SHADEDGE
 70
     3
  9
$SHADEDIF
 70
    70
  9
$TILEMODE
 70
     1
  9
$MAXACTVP
 70
    64
  9
$PINSBASE
 10
0.0
 20
0.0
 30
0.0
  9
$PLIMCHECK
 70
     0
  9
$PEXTMIN
 10
0.0
 20
0.0
 30
0.0
  9
$PEXTMAX
 10
594.0
 20
420.0
 30
0.0
  9
$PLIMMIN
 10
0.0
 20
0.0
  9
$PLIMMAX
 10
594.0
 20
420.0
  9
$UNITMODE
 70
     0
  9
$VISRETAIN
 70
     1
  9
$PLINEGEN
 70
     0
  9
$PSLTSCALE
 70
     1
  9
$TREEDEPTH
 70
  3020
  9
$CMLSTYLE
  2
Standard
  9
$CMLJUST
 70
     0
  9
$CMLSCALE
 40
20.0
  9
$PROXYGRAPHICS
 70
     1
  9
$MEASUREMENT
 70
     1
  9
$CELWEIGHT
370
    -1
  9
$ENDCAPS
280
     0
  9
$JOINSTYLE
280
     0
  9
$LWDISPLAY
290
     0
  9
$INSUNITS
 70
     4
  9
$HYPERLINKBASE
  1

  9
$STYLESHEET
  1

  9
$XEDIT
290
     1
  9
$CEPSNTYPE
380
     0
  9
$PSTYLEMODE
290
     1
  9
$FINGERPRINTGUID
  2
{71ABB2B4-080A-4CB9-A458-72E9F24B2DDA}
  9
$VERSIONGUID
  2
{FAEB1C32-E019-11D5-929B-00C0DF256EC4}
  9
$EXTNAMES
290
     1
  9
$PSVPSCALE
 40
0.0
  9
$OLESTARTUP
290
     0
  9
$SORTENTS
280
   127
  9
$INDEXCTL
280
     0
  9
$HIDETEXT
280
     1
  9
$XCLIPFRAME
290
     0
  9
$HALOGAP
280
     0
  9
$OBSCOLOR
 70
   257
  9
$OBSLTYPE
280
     0
  9
$INTERSECTIONDISPLAY
280
     0
  9
$INTERSECTIONCOLOR
 70
   257
  9
$DIMASSOC
280
     2
  9
$PROJECTNAME
  1

  0
ENDSEC
  0
SECTION
  2
CLASSES
  0
CLASS
  1
ACDBDICTIONARYWDFLT
  2
AcDbDictionaryWithDefault
  3
ObjectDBX Classes
 90
        0
 91
        4
280
     0
281
     0
  0
CLASS
  1
VISUALSTYLE
  2
AcDbVisualStyle
  3
ObjectDBX Classes
 90
     4095
 91
        4
280
     0
281
     0
  0
CLASS
  1
MATERIAL
  2
AcDbMaterial
  3
ObjectDBX Classes
 90
     1153
 91
        4
280
     0
281
     0
  0
CLASS
  1
SCALE
  2
AcDbScale
  3
ObjectDBX Classes
 90
     1153
 91
        4
280
     0
281
     0
  0
CLASS
  1
TABLESTYLE
  2
AcDbTableStyle
  3
ObjectDBX Classes
 90
     4095
 91
        4
280
     0
281
     0
  0
CLASS
  1
MLEADERSTYLE
  2
AcDbMLeaderStyle
  3
ACDB_MLEADERSTYLE_CLASS
 90
     4095
 91
        4
280
     0
281
     0
  0
CLASS
  1
SUN
  2
AcDbSun
  3
SCENEOE
 90
     1153
 91
        4
280
     0
281
     0
  0
CLASS
  1
DICTIONARYVAR
  2
AcDbDictionaryVar
  3
ObjectDBX Classes
 90
        0
 91
        4
280
     0
281
     0
  0
CLASS
  1
CELLSTYLEMAP
  2
AcDbCellStyleMap
  3
ObjectDBX Classes
 90
     1152
 91
        4
280
     0
281
     0
  0
ENDSEC
  0
SECTION
  2
TABLES
  0
TABLE
  2
VPORT
  5
8
102
{ACAD_XDICTIONARY
360
4BA
102
}
330
0
100
AcDbSymbolTable
 70
     1
  0
VPORT
  5
29
330
8
100
AcDbSymbolTableRecord
100
AcDbViewportTableRecord
  2
*Active
 70
     0
 10
0.0
 20
0.0
 11
1.0
 21
1.0
 12
344.1869158879
 22
148.5
 13
0.0
 23
0.0
 14
10.0
 24
10.0
 15
10.0
 25
10.0
 16
0.0
 26
0.0
 36
1.0
 17
0.0
 27
0.0
 37
0.0
 40
297.0
 41
1.9729729729
 42
50.0
 43
0.0
 44
0.0
 50
0.0
 51
0.0
 71
     0
 72
   100
 73
     1
 74
     3
 75
     0
 76
     0
 77
     0
 78
     0
281
     0
 65
     1
110
0.0
120
0.0
130
0.0
111
1.0
121
0.0
131
0.0
112
0.0
122
1.0
132
0.0
 79
     0
146
0.0
  0
ENDTAB
  0
TABLE
  2
LTYPE
  5
5
330
0
100
AcDbSymbolTable
 70
     1
  0
LTYPE
  5
14
330
5
100
AcDbSymbolTableRecord
100
AcDbLinetypeTableRecord
  2
ByBlock
 70
     0
  3

 72
    65
 73
     0
 40
0.0
  0
LTYPE
  5
15
330
5
100
AcDbSymbolTableRecord
100
AcDbLinetypeTableRecord
  2
ByLayer
 70
     0
  3

 72
    65
 73
     0
 40
0.0
  0
LTYPE
  5
16
330
5
100
AcDbSymbolTableRecord
100
AcDbLinetypeTableRecord
  2
Continuous
 70
     0
  3
Solid line
 72
    65
 73
     0
 40
0.0
  0
ENDTAB
  0
TABLE
  2
LAYER
  5
2
330
0
100
AcDbSymbolTable
 70
     7
  0
LAYER
  5
10
330
2
100
AcDbSymbolTableRecord
100
AcDbLayerTableRecord
  2
0
 70
     0
 62
     7
  6
Continuous
370
    -3
390
F
  0
LAYER
  5
6E
330
2
100
AcDbSymbolTableRecord
100
AcDbLayerTableRecord
  2
_Übersetzung
 70
     1
 62
    -7
  6
Continuous
370
    -3
390
F
  0
LAYER
  5
79
330
2
100
AcDbSymbolTableRecord
100
AcDbLayerTableRecord
  2
Geo
 70
     0
 62
     7
  6
Continuous
370
    -3
390
F
  0
LAYER
  5
3D4
330
2
100
AcDbSymbolTableRecord
100
AcDbLayerTableRecord
  2
Text
 70
     0
 62
     7
  6
Continuous
370
    -3
390
F
  0
LAYER
  5
3E0
330
2
100
AcDbSymbolTableRecord
100
AcDbLayerTableRecord
  2
Default
 70
     0
 62
     7
  6
Continuous
370
    -3
390
F
  0
LAYER
  5
3E7
330
2
100
AcDbSymbolTableRecord
100
AcDbLayerTableRecord
  2
Bemassung
 70
     0
 62
     7
  6
Continuous
370
    -3
390
F
  0
LAYER
  5
429
330
2
100
AcDbSymbolTableRecord
100
AcDbLayerTableRecord
  2
Rahmen
 70
     0
 62
     7
  6
Continuous
370
    -3
390
F
  0
ENDTAB
  0
TABLE
  2
STYLE
  5
3
330
0
100
AcDbSymbolTable
 70
     5
  0
STYLE
  5
11
330
3
100
AcDbSymbolTableRecord
100
AcDbTextStyleTableRecord
  2
Standard
 70
     0
 40
0.0
 41
1.0
 50
0.0
 71
     0
 42
0.75
  3
txt
  4

  0
STYLE
  5
3FA
330
3
100
AcDbSymbolTableRecord
100
AcDbTextStyleTableRecord
  2
SEACAD_Arial
 70
     0
 40
0.0
 41
1.0
 50
0.0
 71
     0
 42
0.75
  3
arial.ttf
  4

1001
ACAD
1000
Arial
1071
        0
  0
STYLE
  5
41B
330
3
100
AcDbSymbolTableRecord
100
AcDbTextStyleTableRecord
  2
SEACAD_Solid_Edge_ANSI1_Symbols
 70
     0
 40
0.0
 41
1.0
 50
0.0
 71
     0
 42
0.75
  3
semeca1.ttf
  4

1001
ACAD
1000
Solid Edge ANSI1 Symbols
1071
        0
  0
STYLE
  5
4AC
330
3
100
AcDbSymbolTableRecord
100
AcDbTextStyleTableRecord
  2
SEACAD_Solid_Edge_ISO
 70
     0
 40
0.0
 41
1.0
 50
0.0
 71
     0
 42
0.75
  3
seiso.ttf
  4

1001
ACAD
1000
Solid Edge ISO
1071
        0
  0
STYLE
  5
4AF
330
3
100
AcDbSymbolTableRecord
100
AcDbTextStyleTableRecord
  2
SEACAD_Solid_Edge_ISO1_Symbols
 70
     0
 40
0.0
 41
1.0
 50
0.0
 71
     0
 42
0.75
  3
semeci1.ttf
  4

1001
ACAD
1000
Solid Edge ISO1 Symbols
1071
        0
  0
ENDTAB
  0
TABLE
  2
VIEW
  5
6
330
0
100
AcDbSymbolTable
 70
     0
  0
ENDTAB
  0
TABLE
  2
UCS
  5
7
330
0
100
AcDbSymbolTable
 70
     0
  0
ENDTAB
  0
TABLE
  2
APPID
  5
9
330
0
100
AcDbSymbolTable
 70
     2
  0
APPID
  5
12
330
9
100
AcDbSymbolTableRecord
100
AcDbRegAppTableRecord
  2
ACAD
 70
     0
  0
APPID
  5
4F9
330
9
100
AcDbSymbolTableRecord
100
AcDbRegAppTableRecord
  2
ACAD_MLEADERVER
 70
     0
  0
ENDTAB
  0
TABLE
  2
DIMSTYLE
  5
A
330
0
100
AcDbSymbolTable
 70
     4
100
AcDbDimStyleTable
  0
DIMSTYLE
105
27
330
A
100
AcDbSymbolTableRecord
100
AcDbDimStyleTableRecord
  2
ISO-25
 70
     0
 41
2.5
 42
0.625
 43
3.75
 44
1.25
 73
     0
 74
     0
 77
     1
 78
     8
140
2.5
141
2.5
143
0.0393700787
147
0.625
171
     3
172
     1
178
     0
271
     2
272
     2
274
     3
278
    44
283
     0
284
     8
340
11
  0
DIMSTYLE
105
3E8
330
A
100
AcDbSymbolTableRecord
100
AcDbDimStyleTableRecord
  2
Standard
 70
     0
178
     0
340
11
  0
DIMSTYLE
105
3FB
102
{ACAD_REACTORS
330
3FC
330
406
330
410
330
41A
102
}
330
A
100
AcDbSymbolTableRecord
100
AcDbDimStyleTableRecord
  2
BEM-ISBE
 70
     0
 41
2.5
 42
1.25
 44
1.25
 73
     0
 74
     0
 77
     1
 78
     8
140
2.5
141
1.25
143
1.0
146
0.5
147
0.625
172
     1
173
     1
178
     0
179
     3
271
     3
272
     3
284
     8
340
3FA
343
3F5
344
3F5
  0
DIMSTYLE
105
4AD
102
{ACAD_REACTORS
330
4AE
102
}
330
A
100
AcDbSymbolTableRecord
100
AcDbDimStyleTableRecord
  2
ISO
 70
     0
 41
3.5
 42
0.0
 44
1.75
 73
     0
 74
     0
 77
     1
 78
     8
140
3.5
141
1.75
143
0.0393700787
146
0.5
147
0.875
172
     1
173
     1
178
     0
179
     2
271
     2
272
     3
278
    44
283
     0
284
     8
340
4AC
343
3F5
344
3F5
  0
ENDTAB
  0
TABLE
  2
BLOCK_RECORD
  5
1
330
0
100
AcDbSymbolTable
 70
    31
  0
BLOCK_RECORD
  5
1F
330
1
100
AcDbSymbolTableRecord
100
AcDbBlockTableRecord
  2
*Model_Space
340
22
  0
BLOCK_RECORD
  5
1B
330
1
100
AcDbSymbolTableRecord
100
AcDbBlockTableRecord
  2
*Paper_Space
340
1E
  0
BLOCK_RECORD
  5
3E9
330
1
100
AcDbSymbolTableRecord
100
AcDbBlockTableRecord
  2
_OBLIQUE
340
0
  0
BLOCK_RECORD
  5
3ED
330
1
100
AcDbSymbolTableRecord
100
AcDbBlockTableRecord
  2
_DOT
340
0
  0
BLOCK_RECORD
  5
3F5
330
1
100
AcDbSymbolTableRecord
100
AcDbBlockTableRecord
  2
_SE_FILLED
340
0
  0
BLOCK_RECORD
  5
3FD
330
1
100
AcDbSymbolTableRecord
100
AcDbBlockTableRecord
  2
DMBLK1
340
0
  0
BLOCK_RECORD
  5
407
330
1
100
AcDbSymbolTableRecord
100
AcDbBlockTableRecord
  2
DMBLK2
340
0
  0
BLOCK_RECORD
  5
411
330
1
100
AcDbSymbolTableRecord
100
AcDbBlockTableRecord
  2
DMBLK3
340
0
  0
BLOCK_RECORD
  5
41C
330
1
100
AcDbSymbolTableRecord
100
AcDbBlockTableRecord
  2
DMBLK4
340
0
  0
BLOCK_RECORD
  5
427
330
1
100
AcDbSymbolTableRecord
100
AcDbBlockTableRecord
  2
SE
340
0
102
{BLKREFS
331
428
102
}
  0
BLOCK_RECORD
  5
42A
330
1
100
AcDbSymbolTableRecord
100
AcDbBlockTableRecord
  2
SE1
340
0
102
{BLKREFS
331
42B
102
}
  0
BLOCK_RECORD
  5
434
330
1
100
AcDbSymbolTableRecord
100
AcDbBlockTableRecord
  2
SE2
340
0
102
{BLKREFS
331
435
102
}
  0
BLOCK_RECORD
  5
436
330
1
100
AcDbSymbolTableRecord
100
AcDbBlockTableRecord
  2
SE3
340
0
102
{BLKREFS
331
437
102
}
  0
BLOCK_RECORD
  5
440
330
1
100
AcDbSymbolTableRecord
100
AcDbBlockTableRecord
  2
SE4
340
0
102
{BLKREFS
331
441
102
}
  0
BLOCK_RECORD
  5
442
330
1
100
AcDbSymbolTableRecord
100
AcDbBlockTableRecord
  2
SE5
340
0
102
{BLKREFS
331
443
102
}
  0
BLOCK_RECORD
  5
44C
330
1
100
AcDbSymbolTableRecord
100
AcDbBlockTableRecord
  2
SE6
340
0
102
{BLKREFS
331
44D
102
}
  0
BLOCK_RECORD
  5
44E
330
1
100
AcDbSymbolTableRecord
100
AcDbBlockTableRecord
  2
SE7
340
0
102
{BLKREFS
331
44F
102
}
  0
BLOCK_RECORD
  5
458
330
1
100
AcDbSymbolTableRecord
100
AcDbBlockTableRecord
  2
SE8
340
0
102
{BLKREFS
331
459
102
}
  0
BLOCK_RECORD
  5
45A
330
1
100
AcDbSymbolTableRecord
100
AcDbBlockTableRecord
  2
SE9
340
0
102
{BLKREFS
331
45B
102
}
  0
BLOCK_RECORD
  5
464
330
1
100
AcDbSymbolTableRecord
100
AcDbBlockTableRecord
  2
SE10
340
0
102
{BLKREFS
331
465
102
}
  0
BLOCK_RECORD
  5
466
330
1
100
AcDbSymbolTableRecord
100
AcDbBlockTableRecord
  2
SE11
340
0
102
{BLKREFS
331
467
102
}
  0
BLOCK_RECORD
  5
470
330
1
100
AcDbSymbolTableRecord
100
AcDbBlockTableRecord
  2
SE12
340
0
102
{BLKREFS
331
471
102
}
  0
BLOCK_RECORD
  5
472
330
1
100
AcDbSymbolTableRecord
100
AcDbBlockTableRecord
  2
SE13
340
0
102
{BLKREFS
331
473
102
}
  0
BLOCK_RECORD
  5
47C
330
1
100
AcDbSymbolTableRecord
100
AcDbBlockTableRecord
  2
SE14
340
0
102
{BLKREFS
331
47D
102
}
  0
BLOCK_RECORD
  5
47E
330
1
100
AcDbSymbolTableRecord
100
AcDbBlockTableRecord
  2
SE15
340
0
102
{BLKREFS
331
47F
102
}
  0
BLOCK_RECORD
  5
488
330
1
100
AcDbSymbolTableRecord
100
AcDbBlockTableRecord
  2
SE16
340
0
102
{BLKREFS
331
489
102
}
  0
BLOCK_RECORD
  5
48A
330
1
100
AcDbSymbolTableRecord
100
AcDbBlockTableRecord
  2
SE17
340
0
102
{BLKREFS
331
48B
102
}
  0
BLOCK_RECORD
  5
494
330
1
100
AcDbSymbolTableRecord
100
AcDbBlockTableRecord
  2
SE18
340
0
102
{BLKREFS
331
495
102
}
  0
BLOCK_RECORD
  5
496
330
1
100
AcDbSymbolTableRecord
100
AcDbBlockTableRecord
  2
SE19
340
0
102
{BLKREFS
331
497
102
}
  0
BLOCK_RECORD
  5
4A0
330
1
100
AcDbSymbolTableRecord
100
AcDbBlockTableRecord
  2
SE20
340
0
102
{BLKREFS
331
4A1
102
}
  0
BLOCK_RECORD
  5
4A2
330
1
100
AcDbSymbolTableRecord
100
AcDbBlockTableRecord
  2
SE21
340
0
102
{BLKREFS
331
4A3
102
}
  0
BLOCK_RECORD
  5
4B0
330
1
100
AcDbSymbolTableRecord
100
AcDbBlockTableRecord
  2
DMBLK5
340
0
  0
ENDTAB
  0
ENDSEC
  0
SECTION
  2
BLOCKS
  0
BLOCK
  5
20
330
1F
100
AcDbEntity
  8
0
100
AcDbBlockBegin
  2
*Model_Space
 70
     0
 10
0.0
 20
0.0
 30
0.0
  3
*Model_Space
  1

  0
ENDBLK
  5
21
330
1F
100
AcDbEntity
  8
0
100
AcDbBlockEnd
  0
BLOCK
  5
1C
330
1B
100
AcDbEntity
 67
     1
  8
0
100
AcDbBlockBegin
  2
*Paper_Space
 70
     0
 10
0.0
 20
0.0
 30
0.0
  3
*Paper_Space
  1

  0
ENDBLK
  5
1D
330
1B
100
AcDbEntity
 67
     1
  8
0
100
AcDbBlockEnd
  0
BLOCK
  5
3EA
330
3E9
100
AcDbEntity
  8
0
100
AcDbBlockBegin
  2
_OBLIQUE
 70
     0
 10
0.0
 20
0.0
 30
0.0
  3
_OBLIQUE
  1

  0
LINE
  5
3EC
330
3E9
100
AcDbEntity
  8
0
  6
ByBlock
 62
     0
370
    -2
100
AcDbLine
 10
-0.5
 20
-0.5
 30
0.0
 11
0.5
 21
0.5
 31
0.0
  0
ENDBLK
  5
3EB
330
3E9
100
AcDbEntity
  8
0
100
AcDbBlockEnd
  0
BLOCK
  5
3EE
330
3ED
100
AcDbEntity
  8
0
100
AcDbBlockBegin
  2
_DOT
 70
     0
 10
0.0
 20
0.0
 30
0.0
  3
_DOT
  1

  0
POLYLINE
  5
3F0
330
3ED
100
AcDbEntity
  8
0
  6
ByBlock
 62
     0
100
AcDb2dPolyline
 66
     1
 10
0.0
 20
0.0
 30
0.0
 70
     1
 40
0.5
 41
0.5
  0
VERTEX
  5
3F2
330
3F0
100
AcDbEntity
  8
0
  6
ByBlock
 62
     0
100
AcDbVertex
100
AcDb2dVertex
 10
-0.25
 20
0.0
 30
0.0
 42
1.0
  0
VERTEX
  5
3F3
330
3F0
100
AcDbEntity
  8
0
  6
ByBlock
 62
     0
100
AcDbVertex
100
AcDb2dVertex
 10
0.25
 20
0.0
 30
0.0
 42
1.0
  0
SEQEND
  5
3F4
330
3F0
100
AcDbEntity
  8
0
  6
ByBlock
 62
     0
  0
LINE
  5
3F1
330
3ED
100
AcDbEntity
  8
0
  6
ByBlock
 62
     0
370
    -2
100
AcDbLine
 10
-0.5
 20
0.0
 30
0.0
 11
-1.0
 21
0.0
 31
0.0
  0
ENDBLK
  5
3EF
330
3ED
100
AcDbEntity
  8
0
100
AcDbBlockEnd
  0
BLOCK
  5
3F8
330
3F5
100
AcDbEntity
  8
0
100
AcDbBlockBegin
  2
_SE_FILLED
 70
     0
 10
0.0
 20
0.0
 30
0.0
  3
_SE_FILLED
  1

  0
SOLID
  5
3F6
330
3F5
100
AcDbEntity
  8
0
 62
     0
100
AcDbTrace
 10
0.0
 20
0.0
 30
0.0
 11
-1.0
 21
-0.1665
 31
0.0
 12
-1.0
 22
0.1665
 32
0.0
 13
0.0
 23
0.0
 33
0.0
  0
LINE
  5
3F7
330
3F5
100
AcDbEntity
  8
0
 62
     0
100
AcDbLine
 10
0.0
 20
0.0
 30
0.0
 11
-1.0
 21
0.0
 31
0.0
  0
ENDBLK
  5
3F9
330
3F5
100
AcDbEntity
  8
0
100
AcDbBlockEnd
  0
BLOCK
  5
404
330
3FD
100
AcDbEntity
  8
0
100
AcDbBlockBegin
  2
DMBLK1
 70
     0
 10
0.0
 20
0.0
 30
0.0
  3
DMBLK1
  1

  0
HATCH
  5
3FE
330
3FD
100
AcDbEntity
  8
Bemassung
  6
Continuous
 62
     7
370
    35
100
AcDbHatch
 10
0.0
 20
0.0
 30
0.0
210
0.0
220
0.0
230
1.0
  2
SOLID
 70
     1
 71
     0
 91
        1
 92
        1
 93
        3
 72
     1
 10
-6.42668444217938
 20
25.88521021968003
 11
-8.926684386300025
 21
25.46854356232658
 72
     1
 10
-8.926684386300026
 20
25.46854356232658
 11
-6.426684442179381
 21
25.05187690497314
 72
     1
 10
-6.42668444217938
 20
25.05187690497314
 11
-6.42668444217938
 21
25.88521021968003
 97
        0
 75
     0
 76
     1
 98
        0
  0
HATCH
  5
3FF
330
3FD
100
AcDbEntity
  8
Bemassung
  6
Continuous
 62
     7
370
    35
100
AcDbHatch
 10
0.0
 20
0.0
 30
0.0
210
0.0
220
0.0
230
1.0
  2
SOLID
 70
     1
 71
     0
 91
        1
 92
        1
 93
        3
 72
     1
 10
24.57331411985857
 20
25.88521021968003
 11
24.57331411985857
 21
25.05187690497314
 72
     1
 10
24.57331411985857
 20
25.05187690497314
 11
27.07331406397921
 21
25.46854356232658
 72
     1
 10
27.07331406397921
 20
25.46854356232658
 11
24.57331411985857
 21
25.88521021968003
 97
        0
 75
     0
 76
     1
 98
        0
  0
LINE
  5
400
330
3FD
100
AcDbEntity
  8
Bemassung
  6
Continuous
 62
     7
370
    35
100
AcDbLine
 10
-8.9266843863
 20
6.7185439814
 30
0.0
 11
-8.9266843863
 21
26.7185435344
 31
0.0
  0
LINE
  5
401
330
3FD
100
AcDbEntity
  8
Bemassung
  6
Continuous
 62
     7
370
    35
100
AcDbLine
 10
27.0733156137
 20
6.2185439814
 30
0.0
 11
27.0733156137
 21
26.7185435344
 31
0.0
  0
LINE
  5
402
330
3FD
100
AcDbEntity
  8
Bemassung
  6
Continuous
 62
     7
370
    35
100
AcDbLine
 10
-8.9266843863
 20
25.4685435623
 30
0.0
 11
27.073314064
 21
25.4685435623
 31
0.0
  0
TEXT
  5
403
330
3FD
100
AcDbEntity
  8
Bemassung
  6
Continuous
 62
     7
370
    35
100
AcDbText
 10
7.1167930997
 20
26.0935435623
 30
0.0
 40
2.5
  1
36
  7
SEACAD_Arial
 11
7.1167930997
 21
28.5935435623
 31
0.0
100
AcDbText
 73
     3
  0
ENDBLK
  5
405
330
3FD
100
AcDbEntity
  8
0
100
AcDbBlockEnd
  0
BLOCK
  5
40E
330
407
100
AcDbEntity
  8
0
100
AcDbBlockBegin
  2
DMBLK2
 70
     0
 10
0.0
 20
0.0
 30
0.0
  3
DMBLK2
  1

  0
HATCH
  5
408
330
407
100
AcDbEntity
  8
Bemassung
  6
Continuous
 62
     7
370
    35
100
AcDbHatch
 10
0.0
 20
0.0
 30
0.0
210
0.0
220
0.0
230
1.0
  2
SOLID
 70
     1
 71
     0
 91
        1
 92
        1
 93
        3
 72
     1
 10
-14.42668444217938
 20
-15.94812231271589
 11
-14.42668444217938
 21
-15.11478899800901
 72
     1
 10
-14.42668444217938
 20
-15.11478899800901
 11
-16.92668438630003
 21
-15.53145565536245
 72
     1
 10
-16.92668438630003
 20
-15.53145565536245
 11
-14.42668444217938
 21
-15.94812231271589
 97
        0
 75
     0
 76
     1
 98
        0
  0
HATCH
  5
409
330
407
100
AcDbEntity
  8
Bemassung
  6
Continuous
 62
     7
370
    35
100
AcDbHatch
 10
0.0
 20
0.0
 30
0.0
210
0.0
220
0.0
230
1.0
  2
SOLID
 70
     1
 71
     0
 91
        1
 92
        1
 93
        3
 72
     1
 10
-32.42668433042068
 20
-15.94812231271589
 11
-29.92668438630003
 21
-15.53145565536245
 72
     1
 10
-29.92668438630003
 20
-15.53145565536245
 11
-32.42668433042067
 21
-15.11478899800901
 72
     1
 10
-32.42668433042068
 20
-15.11478899800901
 11
-32.42668433042068
 21
-15.94812231271589
 97
        0
 75
     0
 76
     1
 98
        0
  0
LINE
  5
40A
330
407
100
AcDbEntity
  8
Bemassung
  6
Continuous
 62
     7
370
    35
100
AcDbLine
 10
-16.9266843863
 20
-1.7814559627
 30
0.0
 11
-16.9266843863
 21
-16.7814556274
 31
0.0
  0
LINE
  5
40B
330
407
100
AcDbEntity
  8
Bemassung
  6
Continuous
 62
     7
370
    35
100
AcDbLine
 10
-29.9266843863
 20
1.2185440373
 30
0.0
 11
-29.9266843863
 21
-16.7814556274
 31
0.0
  0
LINE
  5
40C
330
407
100
AcDbEntity
  8
Bemassung
  6
Continuous
 62
     7
370
    35
100
AcDbLine
 10
-11.9266844981
 20
-15.5314556554
 30
0.0
 11
-34.9266836114
 21
-15.5314556554
 31
0.0
  0
TEXT
  5
40D
330
407
100
AcDbEntity
  8
Bemassung
  6
Continuous
 62
     7
370
    35
100
AcDbText
 10
-25.3832062595
 20
-14.9064556554
 30
0.0
 40
2.5
  1
13
  7
SEACAD_Arial
 11
-25.3832062595
 21
-12.4064556554
 31
0.0
100
AcDbText
 73
     3
  0
ENDBLK
  5
40F
330
407
100
AcDbEntity
  8
0
100
AcDbBlockEnd
  0
BLOCK
  5
418
330
411
100
AcDbEntity
  8
0
100
AcDbBlockBegin
  2
DMBLK3
 70
     0
 10
0.0
 20
0.0
 30
0.0
  3
DMBLK3
  1

  0
HATCH
  5
412
330
411
100
AcDbEntity
  8
Bemassung
  6
Continuous
 62
     7
370
    35
100
AcDbHatch
 10
0.0
 20
0.0
 30
0.0
210
0.0
220
0.0
230
1.0
  2
SOLID
 70
     1
 71
     0
 91
        1
 92
        1
 93
        3
 72
     1
 10
24.57331566957933
 20
40.88521182900543
 11
24.57331566957933
 21
40.05187851429856
 72
     1
 10
24.57331566957933
 20
40.05187851429855
 11
27.07331561369997
 21
40.46854517165199
 72
     1
 10
27.07331561369997
 20
40.468545171652
 11
24.57331566957933
 21
40.88521182900543
 97
        0
 75
     0
 76
     1
 98
        0
  0
HATCH
  5
413
330
411
100
AcDbEntity
  8
Bemassung
  6
Continuous
 62
     7
370
    35
100
AcDbHatch
 10
0.0
 20
0.0
 30
0.0
210
0.0
220
0.0
230
1.0
  2
SOLID
 70
     1
 71
     0
 91
        1
 92
        1
 93
        3
 72
     1
 10
-27.42668447198171
 20
40.88521182900543
 11
-29.92668441610235
 21
40.468545171652
 72
     1
 10
-29.92668441610235
 20
40.468545171652
 11
-27.42668447198171
 21
40.05187851429856
 72
     1
 10
-27.42668447198171
 20
40.05187851429855
 11
-27.42668447198171
 21
40.88521182900543
 97
        0
 75
     0
 76
     1
 98
        0
  0
LINE
  5
414
330
411
100
AcDbEntity
  8
Bemassung
  6
Continuous
 62
     7
370
    35
100
AcDbLine
 10
27.0733156137
 20
6.2185439814
 30
0.0
 11
27.0733156137
 21
41.7185451437
 31
0.0
  0
LINE
  5
415
330
411
100
AcDbEntity
  8
Bemassung
  6
Continuous
 62
     7
370
    35
100
AcDbLine
 10
-29.9266843863
 20
3.7185439814
 30
0.0
 11
-29.9266843863
 21
41.7185451437
 31
0.0
  0
LINE
  5
416
330
411
100
AcDbEntity
  8
Bemassung
  6
Continuous
 62
     7
370
    35
100
AcDbLine
 10
27.0733156137
 20
40.4685451717
 30
0.0
 11
-29.9266844161
 21
40.4685451717
 31
0.0
  0
TEXT
  5
417
330
411
100
AcDbEntity
  8
Bemassung
  6
Continuous
 62
     7
370
    35
100
AcDbText
 10
-3.3832061403
 20
41.0935451717
 30
0.0
 40
2.5
  1
57
  7
SEACAD_Arial
 11
-3.3832061403
 21
43.5935451717
 31
0.0
100
AcDbText
 73
     3
  0
ENDBLK
  5
419
330
411
100
AcDbEntity
  8
0
100
AcDbBlockEnd
  0
BLOCK
  5
425
330
41C
100
AcDbEntity
  8
0
100
AcDbBlockBegin
  2
DMBLK4
 70
     0
 10
0.0
 20
0.0
 30
0.0
  3
DMBLK4
  1

  0
HATCH
  5
41D
330
41C
100
AcDbEntity
  8
Bemassung
  6
Continuous
 62
     7
370
    35
100
AcDbHatch
 10
0.0
 20
0.0
 30
0.0
210
0.0
220
0.0
230
1.0
  2
SOLID
 70
     1
 71
     0
 91
        1
 92
        1
 93
        3
 72
     1
 10
37.48998212949239
 20
-3.031455934759226
 11
37.07331547213895
 21
-0.5314559906385803
 72
     1
 10
37.07331547213895
 20
-0.5314559906385804
 11
36.65664881478551
 21
-3.031455934759226
 72
     1
 10
36.65664881478551
 20
-3.031455934759226
 11
37.48998212949239
 21
-3.031455934759226
 97
        0
 75
     0
 76
     1
 98
        0
  0
HATCH
  5
41E
330
41C
100
AcDbEntity
  8
Bemassung
  6
Continuous
 62
     7
370
    35
100
AcDbHatch
 10
0.0
 20
0.0
 30
0.0
210
0.0
220
0.0
230
1.0
  2
SOLID
 70
     1
 71
     0
 91
        1
 92
        1
 93
        3
 72
     1
 10
37.48998212949239
 20
7.968543953482065
 11
36.65664881478551
 21
7.968543953482065
 72
     1
 10
36.65664881478551
 20
7.968543953482065
 11
37.07331547213895
 21
5.468544009361419
 72
     1
 10
37.07331547213895
 20
5.46854400936142
 11
37.48998212949239
 21
7.968543953482066
 97
        0
 75
     0
 76
     1
 98
        0
  0
LINE
  5
41F
330
41C
100
AcDbEntity
  8
Bemassung
  6
Continuous
 62
     7
370
    35
100
AcDbLine
 10
27.8233155858
 20
-0.5314559906
 30
0.0
 11
38.3233154442
 21
-0.5314559906
 31
0.0
  0
LINE
  5
420
330
41C
100
AcDbEntity
  8
Bemassung
  6
Continuous
 62
     7
370
    35
100
AcDbLine
 10
27.8233155858
 20
5.4685440094
 30
0.0
 11
38.3233154442
 21
5.4685440094
 31
0.0
  0
LINE
  5
421
330
41C
100
AcDbEntity
  8
Bemassung
  6
Continuous
 62
     7
370
    35
100
AcDbLine
 10
37.0733154721
 20
-5.5314558789
 30
0.0
 11
37.0733154721
 21
30.836509052
 31
0.0
  0
TEXT
  5
422
330
41C
100
AcDbEntity
  8
Bemassung
  6
Continuous
 62
     7
370
    35
100
AcDbText
 10
36.4483154721
 20
21.3636828963
 30
0.0
 40
2.5
  1
6
 50
90.0
  7
SEACAD_Arial
 11
33.9483154721
 21
21.3636828963
 31
0.0
100
AcDbText
 73
     3
  0
TEXT
  5
423
330
41C
100
AcDbEntity
  8
Bemassung
  6
Continuous
 62
     7
370
    35
100
AcDbText
 10
36.4483154721
 20
16.7628057033
 30
0.0
 40
2.5
  1
O
 50
90.0
  7
SEACAD_Solid_Edge_ANSI1_Symbols
 11
33.9483154721
 21
16.7628057033
 31
0.0
100
AcDbText
 73
     3
  0
TEXT
  5
424
330
41C
100
AcDbEntity
  8
Bemassung
  6
Continuous
 62
     7
370
    35
100
AcDbText
 10
36.4483154721
 20
25.0702046354
 30
0.0
 40
2.5
  1
 h6
 50
90.0
  7
SEACAD_Arial
 11
33.9483154721
 21
25.0702046354
 31
0.0
100
AcDbText
 73
     3
  0
ENDBLK
  5
426
330
41C
100
AcDbEntity
  8
0
100
AcDbBlockEnd
  0
BLOCK
  5
432
330
427
100
AcDbEntity
  8
0
100
AcDbBlockBegin
  2
SE
 70
     0
 10
0.0
 20
0.0
 30
0.0
  3
SE
  1

  0
INSERT
  5
42B
330
427
100
AcDbEntity
  8
Rahmen
100
AcDbBlockReference
  2
SE1
 10
0.0
 20
0.0
 30
0.0
  0
ENDBLK
  5
433
330
427
100
AcDbEntity
  8
0
100
AcDbBlockEnd
  0
BLOCK
  5
430
330
42A
100
AcDbEntity
  8
0
100
AcDbBlockBegin
  2
SE1
 70
     0
 10
0.0
 20
0.0
 30
0.0
  3
SE1
  1

  0
LINE
  5
42C
330
42A
100
AcDbEntity
  8
Rahmen
  6
Continuous
 62
     7
370
    35
100
AcDbLine
 10
-134.6502590674
 20
99.8316062176
 30
0.0
 11
143.3549222798
 21
99.8316062176
 31
0.0
  0
LINE
  5
42D
330
42A
100
AcDbEntity
  8
Rahmen
  6
Continuous
 62
     7
370
    35
100
AcDbLine
 10
143.3549222798
 20
99.8316062176
 30
0.0
 11
143.3549222798
 21
-100.103626943
 31
0.0
  0
LINE
  5
42E
330
42A
100
AcDbEntity
  8
Rahmen
  6
Continuous
 62
     7
370
    35
100
AcDbLine
 10
143.3549222798
 20
-100.103626943
 30
0.0
 11
-134.6502590674
 21
-100.103626943
 31
0.0
  0
LINE
  5
42F
330
42A
100
AcDbEntity
  8
Rahmen
  6
Continuous
 62
     7
370
    35
100
AcDbLine
 10
-134.6502590674
 20
-100.103626943
 30
0.0
 11
-134.6502590674
 21
99.8316062176
 31
0.0
  0
ENDBLK
  5
431
330
42A
100
AcDbEntity
  8
0
100
AcDbBlockEnd
  0
BLOCK
  5
43E
330
434
100
AcDbEntity
  8
0
100
AcDbBlockBegin
  2
SE2
 70
     0
 10
0.0
 20
0.0
 30
0.0
  3
SE2
  1

  0
INSERT
  5
437
330
434
100
AcDbEntity
  8
Rahmen
100
AcDbBlockReference
  2
SE3
 10
0.0
 20
0.0
 30
0.0
  0
ENDBLK
  5
43F
330
434
100
AcDbEntity
  8
0
100
AcDbBlockEnd
  0
BLOCK
  5
43C
330
436
100
AcDbEntity
  8
0
100
AcDbBlockBegin
  2
SE3
 70
     0
 10
0.0
 20
0.0
 30
0.0
  3
SE3
  1

  0
LINE
  5
438
330
436
100
AcDbEntity
  8
Rahmen
  6
Continuous
 62
     7
370
    35
100
AcDbLine
 10
103.3678756477
 20
-97.1113989637
 30
0.0
 11
143.3549222798
 21
-97.1113989637
 31
0.0
  0
LINE
  5
439
330
436
100
AcDbEntity
  8
Rahmen
  6
Continuous
 62
     7
370
    35
100
AcDbLine
 10
143.3549222798
 20
-97.1113989637
 30
0.0
 11
143.3549222798
 21
-100.103626943
 31
0.0
  0
LINE
  5
43A
330
436
100
AcDbEntity
  8
Rahmen
  6
Continuous
 62
     7
370
    35
100
AcDbLine
 10
143.3549222798
 20
-100.103626943
 30
0.0
 11
103.3678756477
 21
-100.103626943
 31
0.0
  0
LINE
  5
43B
330
436
100
AcDbEntity
  8
Rahmen
  6
Continuous
 62
     7
370
    35
100
AcDbLine
 10
103.3678756477
 20
-100.103626943
 30
0.0
 11
103.3678756477
 21
-97.1113989637
 31
0.0
  0
ENDBLK
  5
43D
330
436
100
AcDbEntity
  8
0
100
AcDbBlockEnd
  0
BLOCK
  5
44A
330
440
100
AcDbEntity
  8
0
100
AcDbBlockBegin
  2
SE4
 70
     0
 10
0.0
 20
0.0
 30
0.0
  3
SE4
  1

  0
INSERT
  5
443
330
440
100
AcDbEntity
  8
Rahmen
100
AcDbBlockReference
  2
SE5
 10
0.0
 20
0.0
 30
0.0
  0
ENDBLK
  5
44B
330
440
100
AcDbEntity
  8
0
100
AcDbBlockEnd
  0
BLOCK
  5
448
330
442
100
AcDbEntity
  8
0
100
AcDbBlockBegin
  2
SE5
 70
     0
 10
0.0
 20
0.0
 30
0.0
  3
SE5
  1

  0
LINE
  5
444
330
442
100
AcDbEntity
  8
Rahmen
  6
Continuous
 62
     7
370
    35
100
AcDbLine
 10
63.3808290155
 20
-97.1113989637
 30
0.0
 11
103.3678756477
 21
-97.1113989637
 31
0.0
  0
LINE
  5
445
330
442
100
AcDbEntity
  8
Rahmen
  6
Continuous
 62
     7
370
    35
100
AcDbLine
 10
103.3678756477
 20
-97.1113989637
 30
0.0
 11
103.3678756477
 21
-100.103626943
 31
0.0
  0
LINE
  5
446
330
442
100
AcDbEntity
  8
Rahmen
  6
Continuous
 62
     7
370
    35
100
AcDbLine
 10
103.3678756477
 20
-100.103626943
 30
0.0
 11
63.3808290155
 21
-100.103626943
 31
0.0
  0
LINE
  5
447
330
442
100
AcDbEntity
  8
Rahmen
  6
Continuous
 62
     7
370
    35
100
AcDbLine
 10
63.3808290155
 20
-100.103626943
 30
0.0
 11
63.3808290155
 21
-97.1113989637
 31
0.0
  0
ENDBLK
  5
449
330
442
100
AcDbEntity
  8
0
100
AcDbBlockEnd
  0
BLOCK
  5
456
330
44C
100
AcDbEntity
  8
0
100
AcDbBlockBegin
  2
SE6
 70
     0
 10
0.0
 20
0.0
 30
0.0
  3
SE6
  1

  0
INSERT
  5
44F
330
44C
100
AcDbEntity
  8
Rahmen
100
AcDbBlockReference
  2
SE7
 10
0.0
 20
0.0
 30
0.0
  0
ENDBLK
  5
457
330
44C
100
AcDbEntity
  8
0
100
AcDbBlockEnd
  0
BLOCK
  5
454
330
44E
100
AcDbEntity
  8
0
100
AcDbBlockBegin
  2
SE7
 70
     0
 10
0.0
 20
0.0
 30
0.0
  3
SE7
  1

  0
LINE
  5
450
330
44E
100
AcDbEntity
  8
Rahmen
  6
Continuous
 62
     7
370
    35
100
AcDbLine
 10
130.0259067358
 20
-94.1191709845
 30
0.0
 11
143.3549222798
 21
-94.1191709845
 31
0.0
  0
LINE
  5
451
330
44E
100
AcDbEntity
  8
Rahmen
  6
Continuous
 62
     7
370
    35
100
AcDbLine
 10
143.3549222798
 20
-94.1191709845
 30
0.0
 11
143.3549222798
 21
-97.1113989637
 31
0.0
  0
LINE
  5
452
330
44E
100
AcDbEntity
  8
Rahmen
  6
Continuous
 62
     7
370
    35
100
AcDbLine
 10
143.3549222798
 20
-97.1113989637
 30
0.0
 11
130.0259067358
 21
-97.1113989637
 31
0.0
  0
LINE
  5
453
330
44E
100
AcDbEntity
  8
Rahmen
  6
Continuous
 62
     7
370
    35
100
AcDbLine
 10
130.0259067358
 20
-97.1113989637
 30
0.0
 11
130.0259067358
 21
-94.1191709845
 31
0.0
  0
ENDBLK
  5
455
330
44E
100
AcDbEntity
  8
0
100
AcDbBlockEnd
  0
BLOCK
  5
462
330
458
100
AcDbEntity
  8
0
100
AcDbBlockBegin
  2
SE8
 70
     0
 10
0.0
 20
0.0
 30
0.0
  3
SE8
  1

  0
INSERT
  5
45B
330
458
100
AcDbEntity
  8
Rahmen
100
AcDbBlockReference
  2
SE9
 10
0.0
 20
0.0
 30
0.0
  0
ENDBLK
  5
463
330
458
100
AcDbEntity
  8
0
100
AcDbBlockEnd
  0
BLOCK
  5
460
330
45A
100
AcDbEntity
  8
0
100
AcDbBlockBegin
  2
SE9
 70
     0
 10
0.0
 20
0.0
 30
0.0
  3
SE9
  1

  0
LINE
  5
45C
330
45A
100
AcDbEntity
  8
Rahmen
  6
Continuous
 62
     7
370
    35
100
AcDbLine
 10
130.0259067358
 20
-91.1269430052
 30
0.0
 11
143.3549222798
 21
-91.1269430052
 31
0.0
  0
LINE
  5
45D
330
45A
100
AcDbEntity
  8
Rahmen
  6
Continuous
 62
     7
370
    35
100
AcDbLine
 10
143.3549222798
 20
-91.1269430052
 30
0.0
 11
143.3549222798
 21
-94.1191709845
 31
0.0
  0
LINE
  5
45E
330
45A
100
AcDbEntity
  8
Rahmen
  6
Continuous
 62
     7
370
    35
100
AcDbLine
 10
143.3549222798
 20
-94.1191709845
 30
0.0
 11
130.0259067358
 21
-94.1191709845
 31
0.0
  0
LINE
  5
45F
330
45A
100
AcDbEntity
  8
Rahmen
  6
Continuous
 62
     7
370
    35
100
AcDbLine
 10
130.0259067358
 20
-94.1191709845
 30
0.0
 11
130.0259067358
 21
-91.1269430052
 31
0.0
  0
ENDBLK
  5
461
330
45A
100
AcDbEntity
  8
0
100
AcDbBlockEnd
  0
BLOCK
  5
46E
330
464
100
AcDbEntity
  8
0
100
AcDbBlockBegin
  2
SE10
 70
     0
 10
0.0
 20
0.0
 30
0.0
  3
SE10
  1

  0
INSERT
  5
467
330
464
100
AcDbEntity
  8
Rahmen
100
AcDbBlockReference
  2
SE11
 10
0.0
 20
0.0
 30
0.0
  0
ENDBLK
  5
46F
330
464
100
AcDbEntity
  8
0
100
AcDbBlockEnd
  0
BLOCK
  5
46C
330
466
100
AcDbEntity
  8
0
100
AcDbBlockBegin
  2
SE11
 70
     0
 10
0.0
 20
0.0
 30
0.0
  3
SE11
  1

  0
LINE
  5
468
330
466
100
AcDbEntity
  8
Rahmen
  6
Continuous
 62
     7
370
    35
100
AcDbLine
 10
63.3808290155
 20
-91.1269430052
 30
0.0
 11
130.0259067358
 21
-91.1269430052
 31
0.0
  0
LINE
  5
469
330
466
100
AcDbEntity
  8
Rahmen
  6
Continuous
 62
     7
370
    35
100
AcDbLine
 10
130.0259067358
 20
-91.1269430052
 30
0.0
 11
130.0259067358
 21
-97.1113989637
 31
0.0
  0
LINE
  5
46A
330
466
100
AcDbEntity
  8
Rahmen
  6
Continuous
 62
     7
370
    35
100
AcDbLine
 10
130.0259067358
 20
-97.1113989637
 30
0.0
 11
63.3808290155
 21
-97.1113989637
 31
0.0
  0
LINE
  5
46B
330
466
100
AcDbEntity
  8
Rahmen
  6
Continuous
 62
     7
370
    35
100
AcDbLine
 10
63.3808290155
 20
-97.1113989637
 30
0.0
 11
63.3808290155
 21
-91.1269430052
 31
0.0
  0
ENDBLK
  5
46D
330
466
100
AcDbEntity
  8
0
100
AcDbBlockEnd
  0
BLOCK
  5
47A
330
470
100
AcDbEntity
  8
0
100
AcDbBlockBegin
  2
SE12
 70
     0
 10
0.0
 20
0.0
 30
0.0
  3
SE12
  1

  0
INSERT
  5
473
330
470
100
AcDbEntity
  8
Rahmen
100
AcDbBlockReference
  2
SE13
 10
0.0
 20
0.0
 30
0.0
  0
ENDBLK
  5
47B
330
470
100
AcDbEntity
  8
0
100
AcDbBlockEnd
  0
BLOCK
  5
478
330
472
100
AcDbEntity
  8
0
100
AcDbBlockBegin
  2
SE13
 70
     0
 10
0.0
 20
0.0
 30
0.0
  3
SE13
  1

  0
LINE
  5
474
330
472
100
AcDbEntity
  8
Rahmen
  6
Continuous
 62
     7
370
    35
100
AcDbLine
 10
63.3808290155
 20
-85.1424870466
 30
0.0
 11
143.3549222798
 21
-85.1424870466
 31
0.0
  0
LINE
  5
475
330
472
100
AcDbEntity
  8
Rahmen
  6
Continuous
 62
     7
370
    35
100
AcDbLine
 10
143.3549222798
 20
-85.1424870466
 30
0.0
 11
143.3549222798
 21
-91.1269430052
 31
0.0
  0
LINE
  5
476
330
472
100
AcDbEntity
  8
Rahmen
  6
Continuous
 62
     7
370
    35
100
AcDbLine
 10
143.3549222798
 20
-91.1269430052
 30
0.0
 11
63.3808290155
 21
-91.1269430052
 31
0.0
  0
LINE
  5
477
330
472
100
AcDbEntity
  8
Rahmen
  6
Continuous
 62
     7
370
    35
100
AcDbLine
 10
63.3808290155
 20
-91.1269430052
 30
0.0
 11
63.3808290155
 21
-85.1424870466
 31
0.0
  0
ENDBLK
  5
479
330
472
100
AcDbEntity
  8
0
100
AcDbBlockEnd
  0
BLOCK
  5
486
330
47C
100
AcDbEntity
  8
0
100
AcDbBlockBegin
  2
SE14
 70
     0
 10
0.0
 20
0.0
 30
0.0
  3
SE14
  1

  0
INSERT
  5
47F
330
47C
100
AcDbEntity
  8
Rahmen
100
AcDbBlockReference
  2
SE15
 10
0.0
 20
0.0
 30
0.0
  0
ENDBLK
  5
487
330
47C
100
AcDbEntity
  8
0
100
AcDbBlockEnd
  0
BLOCK
  5
484
330
47E
100
AcDbEntity
  8
0
100
AcDbBlockBegin
  2
SE15
 70
     0
 10
0.0
 20
0.0
 30
0.0
  3
SE15
  1

  0
LINE
  5
480
330
47E
100
AcDbEntity
  8
Rahmen
  6
Continuous
 62
     7
370
    35
100
AcDbLine
 10
103.3678756477
 20
-79.1580310881
 30
0.0
 11
143.3549222798
 21
-79.1580310881
 31
0.0
  0
LINE
  5
481
330
47E
100
AcDbEntity
  8
Rahmen
  6
Continuous
 62
     7
370
    35
100
AcDbLine
 10
143.3549222798
 20
-79.1580310881
 30
0.0
 11
143.3549222798
 21
-85.1424870466
 31
0.0
  0
LINE
  5
482
330
47E
100
AcDbEntity
  8
Rahmen
  6
Continuous
 62
     7
370
    35
100
AcDbLine
 10
143.3549222798
 20
-85.1424870466
 30
0.0
 11
103.3678756477
 21
-85.1424870466
 31
0.0
  0
LINE
  5
483
330
47E
100
AcDbEntity
  8
Rahmen
  6
Continuous
 62
     7
370
    35
100
AcDbLine
 10
103.3678756477
 20
-85.1424870466
 30
0.0
 11
103.3678756477
 21
-79.1580310881
 31
0.0
  0
ENDBLK
  5
485
330
47E
100
AcDbEntity
  8
0
100
AcDbBlockEnd
  0
BLOCK
  5
492
330
488
100
AcDbEntity
  8
0
100
AcDbBlockBegin
  2
SE16
 70
     0
 10
0.0
 20
0.0
 30
0.0
  3
SE16
  1

  0
INSERT
  5
48B
330
488
100
AcDbEntity
  8
Rahmen
100
AcDbBlockReference
  2
SE17
 10
0.0
 20
0.0
 30
0.0
  0
ENDBLK
  5
493
330
488
100
AcDbEntity
  8
0
100
AcDbBlockEnd
  0
BLOCK
  5
490
330
48A
100
AcDbEntity
  8
0
100
AcDbBlockBegin
  2
SE17
 70
     0
 10
0.0
 20
0.0
 30
0.0
  3
SE17
  1

  0
LINE
  5
48C
330
48A
100
AcDbEntity
  8
Rahmen
  6
Continuous
 62
     7
370
    35
100
AcDbLine
 10
63.3808290155
 20
-79.1580310881
 30
0.0
 11
103.3678756477
 21
-79.1580310881
 31
0.0
  0
LINE
  5
48D
330
48A
100
AcDbEntity
  8
Rahmen
  6
Continuous
 62
     7
370
    35
100
AcDbLine
 10
103.3678756477
 20
-79.1580310881
 30
0.0
 11
103.3678756477
 21
-85.1424870466
 31
0.0
  0
LINE
  5
48E
330
48A
100
AcDbEntity
  8
Rahmen
  6
Continuous
 62
     7
370
    35
100
AcDbLine
 10
103.3678756477
 20
-85.1424870466
 30
0.0
 11
63.3808290155
 21
-85.1424870466
 31
0.0
  0
LINE
  5
48F
330
48A
100
AcDbEntity
  8
Rahmen
  6
Continuous
 62
     7
370
    35
100
AcDbLine
 10
63.3808290155
 20
-85.1424870466
 30
0.0
 11
63.3808290155
 21
-79.1580310881
 31
0.0
  0
ENDBLK
  5
491
330
48A
100
AcDbEntity
  8
0
100
AcDbBlockEnd
  0
BLOCK
  5
49E
330
494
100
AcDbEntity
  8
0
100
AcDbBlockBegin
  2
SE18
 70
     0
 10
0.0
 20
0.0
 30
0.0
  3
SE18
  1

  0
INSERT
  5
497
330
494
100
AcDbEntity
  8
Rahmen
100
AcDbBlockReference
  2
SE19
 10
0.0
 20
0.0
 30
0.0
  0
ENDBLK
  5
49F
330
494
100
AcDbEntity
  8
0
100
AcDbBlockEnd
  0
BLOCK
  5
49C
330
496
100
AcDbEntity
  8
0
100
AcDbBlockBegin
  2
SE19
 70
     0
 10
0.0
 20
0.0
 30
0.0
  3
SE19
  1

  0
LINE
  5
498
330
496
100
AcDbEntity
  8
Rahmen
  6
Continuous
 62
     7
370
    35
100
AcDbLine
 10
103.3678756477
 20
-76.1658031088
 30
0.0
 11
143.3549222798
 21
-76.1658031088
 31
0.0
  0
LINE
  5
499
330
496
100
AcDbEntity
  8
Rahmen
  6
Continuous
 62
     7
370
    35
100
AcDbLine
 10
143.3549222798
 20
-76.1658031088
 30
0.0
 11
143.3549222798
 21
-79.1580310881
 31
0.0
  0
LINE
  5
49A
330
496
100
AcDbEntity
  8
Rahmen
  6
Continuous
 62
     7
370
    35
100
AcDbLine
 10
143.3549222798
 20
-79.1580310881
 30
0.0
 11
103.3678756477
 21
-79.1580310881
 31
0.0
  0
LINE
  5
49B
330
496
100
AcDbEntity
  8
Rahmen
  6
Continuous
 62
     7
370
    35
100
AcDbLine
 10
103.3678756477
 20
-79.1580310881
 30
0.0
 11
103.3678756477
 21
-76.1658031088
 31
0.0
  0
ENDBLK
  5
49D
330
496
100
AcDbEntity
  8
0
100
AcDbBlockEnd
  0
BLOCK
  5
4AA
330
4A0
100
AcDbEntity
  8
0
100
AcDbBlockBegin
  2
SE20
 70
     0
 10
0.0
 20
0.0
 30
0.0
  3
SE20
  1

  0
INSERT
  5
4A3
330
4A0
100
AcDbEntity
  8
Rahmen
100
AcDbBlockReference
  2
SE21
 10
0.0
 20
0.0
 30
0.0
  0
ENDBLK
  5
4AB
330
4A0
100
AcDbEntity
  8
0
100
AcDbBlockEnd
  0
BLOCK
  5
4A8
330
4A2
100
AcDbEntity
  8
0
100
AcDbBlockBegin
  2
SE21
 70
     0
 10
0.0
 20
0.0
 30
0.0
  3
SE21
  1

  0
LINE
  5
4A4
330
4A2
100
AcDbEntity
  8
Rahmen
  6
Continuous
 62
     7
370
    35
100
AcDbLine
 10
63.3808290155
 20
-76.1658031088
 30
0.0
 11
103.3678756477
 21
-76.1658031088
 31
0.0
  0
LINE
  5
4A5
330
4A2
100
AcDbEntity
  8
Rahmen
  6
Continuous
 62
     7
370
    35
100
AcDbLine
 10
103.3678756477
 20
-76.1658031088
 30
0.0
 11
103.3678756477
 21
-79.1580310881
 31
0.0
  0
LINE
  5
4A6
330
4A2
100
AcDbEntity
  8
Rahmen
  6
Continuous
 62
     7
370
    35
100
AcDbLine
 10
103.3678756477
 20
-79.1580310881
 30
0.0
 11
63.3808290155
 21
-79.1580310881
 31
0.0
  0
LINE
  5
4A7
330
4A2
100
AcDbEntity
  8
Rahmen
  6
Continuous
 62
     7
370
    35
100
AcDbLine
 10
63.3808290155
 20
-79.1580310881
 30
0.0
 11
63.3808290155
 21
-76.1658031088
 31
0.0
  0
ENDBLK
  5
4A9
330
4A2
100
AcDbEntity
  8
0
100
AcDbBlockEnd
  0
BLOCK
  5
4B8
330
4B0
100
AcDbEntity
  8
0
100
AcDbBlockBegin
  2
DMBLK5
 70
     0
 10
0.0
 20
0.0
 30
0.0
  3
DMBLK5
  1

  0
HATCH
  5
4B1
330
4B0
100
AcDbEntity
  8
Default
  6
Continuous
 62
     7
370
    25
100
AcDbHatch
 10
0.0
 20
0.0
 30
0.0
210
0.0
220
0.0
230
1.0
  2
SOLID
 70
     1
 71
     0
 91
        1
 92
        1
 93
        3
 72
     1
 10
-43.55379807431696
 20
8.468544117394838
 11
-42.97046472297806
 21
4.96854400936142
 72
     1
 10
-42.97046472297806
 20
4.96854400936142
 11
-42.38713137163916
 21
8.468544117394838
 72
     1
 10
-42.38713137163916
 20
8.468544117394838
 11
-43.55379807431696
 21
8.468544117394838
 97
        0
 75
     0
 76
     1
 98
        0
  0
HATCH
  5
4B2
330
4B0
100
AcDbEntity
  8
Default
  6
Continuous
 62
     7
370
    25
100
AcDbHatch
 10
0.0
 20
0.0
 30
0.0
210
0.0
220
0.0
230
1.0
  2
SOLID
 70
     1
 71
     0
 91
        1
 92
        1
 93
        3
 72
     1
 10
-43.55379807431696
 20
-3.531456098671999
 11
-42.38713137163916
 21
-3.531456098671999
 72
     1
 10
-42.38713137163916
 20
-3.531456098671999
 11
-42.97046472297806
 21
-0.0314559906385803
 72
     1
 10
-42.97046472297806
 20
-0.0314559906385804
 11
-43.55379807431696
 21
-3.531456098671999
 97
        0
 75
     0
 76
     1
 98
        0
  0
LINE
  5
4B3
330
4B0
100
AcDbEntity
  8
Default
  6
Continuous
 62
     7
370
    25
100
AcDbLine
 10
-29.8666843863
 20
4.9685440094
 30
0.0
 11
-44.720464777
 21
4.9685440094
 31
0.0
  0
LINE
  5
4B4
330
4B0
100
AcDbEntity
  8
Default
  6
Continuous
 62
     7
370
    25
100
AcDbLine
 10
-29.8666843863
 20
-0.0314559906
 30
0.0
 11
-44.720464777
 21
-0.0314559906
 31
0.0
  0
LINE
  5
4B5
330
4B0
100
AcDbEntity
  8
Default
  6
Continuous
 62
     7
370
    25
100
AcDbLine
 10
-42.970464723
 20
20.1710532487
 30
0.0
 11
-42.970464723
 21
-7.0314560949
 31
0.0
  0
TEXT
  5
4B6
330
4B0
100
AcDbEntity
  8
Default
  6
Continuous
 62
     7
370
    25
100
AcDbText
 10
-43.845464723
 20
16.9574171553
 30
0.0
 40
3.5
  1
5
 50
90.0
  7
SEACAD_Solid_Edge_ISO
 11
-47.345464723
 21
16.9574171553
 31
0.0
100
AcDbText
 73
     3
  0
TEXT
  5
4B7
330
4B0
100
AcDbEntity
  8
Default
  6
Continuous
 62
     7
370
    25
100
AcDbText
 10
-43.845464723
 20
10.6100372427
 30
0.0
 40
3.5
  1
O
 50
90.0
  7
SEACAD_Solid_Edge_ISO1_Symbols
 11
-47.345464723
 21
10.6100372427
 31
0.0
100
AcDbText
 73
     3
  0
ENDBLK
  5
4B9
330
4B0
100
AcDbEntity
  8
0
100
AcDbBlockEnd
  0
ENDSEC
  0
SECTION
  2
ENTITIES
  0
CIRCLE
  5
6F
330
1F
100
AcDbEntity
  8
_Übersetzung
  6
Continuous
 62
     7
370
     5
100
AcDbCircle
 10
-8.9266843863
 20
5.4685440094
 30
0.0
 40
0.01
  0
CIRCLE
  5
70
330
1F
100
AcDbEntity
  8
_Übersetzung
  6
Continuous
 62
     7
370
     5
100
AcDbCircle
 10
27.0733156137
 20
4.9685440094
 30
0.0
 40
0.01
  0
CIRCLE
  5
71
330
1F
100
AcDbEntity
  8
_Übersetzung
  6
Continuous
 62
     7
370
     5
100
AcDbCircle
 10
-16.9266843863
 20
-0.5314559906
 30
0.0
 40
0.01
  0
CIRCLE
  5
72
330
1F
100
AcDbEntity
  8
_Übersetzung
  6
Continuous
 62
     7
370
     5
100
AcDbCircle
 10
-29.9266843863
 20
2.4685440094
 30
0.0
 40
0.01
  0
CIRCLE
  5
73
330
1F
100
AcDbEntity
  8
_Übersetzung
  6
Continuous
 62
     7
370
     5
100
AcDbCircle
 10
27.0733156137
 20
4.9685440094
 30
0.0
 40
0.01
  0
CIRCLE
  5
74
330
1F
100
AcDbEntity
  8
_Übersetzung
  6
Continuous
 62
     7
370
     5
100
AcDbCircle
 10
-29.9266843863
 20
2.4685440094
 30
0.0
 40
0.01
  0
CIRCLE
  5
75
330
1F
100
AcDbEntity
  8
_Übersetzung
  6
Continuous
 62
     7
370
     5
100
AcDbCircle
 10
-29.8666843863
 20
-0.5314559906
 30
0.0
 40
0.01
  0
CIRCLE
  5
76
330
1F
100
AcDbEntity
  8
_Übersetzung
  6
Continuous
 62
     7
370
     5
100
AcDbCircle
 10
-29.8666843863
 20
5.4685440094
 30
0.0
 40
0.01
  0
CIRCLE
  5
77
330
1F
100
AcDbEntity
  8
_Übersetzung
  6
Continuous
 62
     7
370
     5
100
AcDbCircle
 10
26.5733156137
 20
-0.5314559906
 30
0.0
 40
0.01
  0
CIRCLE
  5
78
330
1F
100
AcDbEntity
  8
_Übersetzung
  6
Continuous
 62
     7
370
     5
100
AcDbCircle
 10
26.5733156137
 20
5.4685440094
 30
0.0
 40
0.01
  0
LINE
  5
7A
330
1F
100
AcDbEntity
  8
Geo
  6
Continuous
 62
     7
370
    35
100
AcDbLine
 10
-29.9266843863
 20
2.4685440094
 30
0.0
 11
-29.9266843863
 21
4.9085440094
 31
0.0
  0
LINE
  5
7B
330
1F
100
AcDbEntity
  8
Geo
  6
Continuous
 62
     7
370
    35
100
AcDbLine
 10
-8.9266843863
 20
5.4685440094
 30
0.0
 11
6.0733156137
 21
5.4685440094
 31
0.0
  0
LINE
  5
7C
330
1F
100
AcDbEntity
  8
Geo
  6
Continuous
 62
     7
370
    35
100
AcDbLine
 10
6.0733156137
 20
5.4685440094
 30
0.0
 11
6.9733156137
 21
4.5685440094
 31
0.0
  0
LINE
  5
7D
330
1F
100
AcDbEntity
  8
Geo
  6
Continuous
 62
     7
370
    35
100
AcDbLine
 10
6.9733156137
 20
4.5685440094
 30
0.0
 11
11.1733156137
 21
4.5685440094
 31
0.0
  0
LINE
  5
7E
330
1F
100
AcDbEntity
  8
Geo
  6
Continuous
 62
     7
370
    35
100
AcDbLine
 10
11.1733156137
 20
4.5685440094
 30
0.0
 11
12.0733156137
 21
5.4685440094
 31
0.0
  0
LINE
  5
7F
330
1F
100
AcDbEntity
  8
Geo
  6
Continuous
 62
     7
370
    35
100
AcDbLine
 10
12.0733156137
 20
5.4685440094
 30
0.0
 11
26.5733156137
 21
5.4685440094
 31
0.0
  0
LINE
  5
80
330
1F
100
AcDbEntity
  8
Geo
  6
Continuous
 62
     7
370
    35
100
AcDbLine
 10
26.5733156137
 20
5.4685440094
 30
0.0
 11
27.0733156137
 21
4.9685440094
 31
0.0
  0
POINT
  5
81
330
1F
100
AcDbEntity
  8
Geo
  6
Continuous
 62
     7
370
    35
100
AcDbPoint
 10
-29.9266843863
 20
5.3979978582
 30
0.0
  0
LINE
  5
82
330
1F
100
AcDbEntity
  8
Geo
  6
Continuous
 62
     7
370
    35
100
AcDbLine
 10
-29.9266843863
 20
5.3979978582
 30
0.0
 11
-29.9266843863
 21
5.4577826306
 31
0.0
  0
LINE
  5
83
330
1F
100
AcDbEntity
  8
Geo
  6
Continuous
 62
     7
370
    35
100
AcDbLine
 10
-27.7807892907
 20
4.9685440094
 30
0.0
 11
-27.7266843863
 21
4.9475759288
 31
0.0
  0
LINE
  5
84
330
1F
100
AcDbEntity
  8
Geo
  6
Continuous
 62
     7
370
    35
100
AcDbLine
 10
-27.7266843863
 20
4.9475759288
 30
0.0
 11
-27.6266843863
 21
4.907471003
 31
0.0
  0
LINE
  5
85
330
1F
100
AcDbEntity
  8
Geo
  6
Continuous
 62
     7
370
    35
100
AcDbLine
 10
-27.6266843863
 20
4.907471003
 30
0.0
 11
-27.5266843863
 21
4.8660374898
 31
0.0
  0
LINE
  5
86
330
1F
100
AcDbEntity
  8
Geo
  6
Continuous
 62
     7
370
    35
100
AcDbLine
 10
-27.5266843863
 20
4.8660374898
 30
0.0
 11
-27.4266843863
 21
4.8232979598
 31
0.0
  0
LINE
  5
87
330
1F
100
AcDbEntity
  8
Geo
  6
Continuous
 62
     7
370
    35
100
AcDbLine
 10
-27.4266843863
 20
4.8232979598
 30
0.0
 11
-27.3266843863
 21
4.779275695
 31
0.0
  0
LINE
  5
88
330
1F
100
AcDbEntity
  8
Geo
  6
Continuous
 62
     7
370
    35
100
AcDbLine
 10
-27.3266843863
 20
4.779275695
 30
0.0
 11
-27.2266843863
 21
4.7339946762
 31
0.0
  0
LINE
  5
89
330
1F
100
AcDbEntity
  8
Geo
  6
Continuous
 62
     7
370
    35
100
AcDbLine
 10
-27.2266843863
 20
4.7339946762
 30
0.0
 11
-27.1266843863
 21
4.6874795699
 31
0.0
  0
LINE
  5
8A
330
1F
100
AcDbEntity
  8
Geo
  6
Continuous
 62
     7
370
    35
100
AcDbLine
 10
-27.1266843863
 20
4.6874795699
 30
0.0
 11
-27.0266843863
 21
4.6397557149
 31
0.0
  0
LINE
  5
8B
330
1F
100
AcDbEntity
  8
Geo
  6
Continuous
 62
     7
370
    35
100
AcDbLine
 10
-27.0266843863
 20
4.6397557149
 30
0.0
 11
-26.9266843863
 21
4.5908491084
 31
0.0
  0
LINE
  5
8C
330
1F
100
AcDbEntity
  8
Geo
  6
Continuous
 62
     7
370
    35
100
AcDbLine
 10
-26.9266843863
 20
4.5908491084
 30
0.0
 11
-26.8266843863
 21
4.5407863919
 31
0.0
  0
LINE
  5
8D
330
1F
100
AcDbEntity
  8
Geo
  6
Continuous
 62
     7
370
    35
100
AcDbLine
 10
-26.8266843863
 20
4.5407863919
 30
0.0
 11
-26.7266843863
 21
4.4895948367
 31
0.0
  0
LINE
  5
8E
330
1F
100
AcDbEntity
  8
Geo
  6
Continuous
 62
     7
370
    35
100
AcDbLine
 10
-26.7266843863
 20
4.4895948367
 30
0.0
 11
-26.6266843863
 21
4.437302329
 31
0.0
  0
LINE
  5
8F
330
1F
100
AcDbEntity
  8
Geo
  6
Continuous
 62
     7
370
    35
100
AcDbLine
 10
-26.6266843863
 20
4.437302329
 30
0.0
 11
-26.5266843863
 21
4.3839373548
 31
0.0
  0
LINE
  5
90
330
1F
100
AcDbEntity
  8
Geo
  6
Continuous
 62
     7
370
    35
100
AcDbLine
 10
-26.5266843863
 20
4.3839373548
 30
0.0
 11
-26.4266843863
 21
4.3295289842
 31
0.0
  0
LINE
  5
91
330
1F
100
AcDbEntity
  8
Geo
  6
Continuous
 62
     7
370
    35
100
AcDbLine
 10
-26.4266843863
 20
4.3295289842
 30
0.0
 11
-26.3266843863
 21
4.2741068558
 31
0.0
  0
LINE
  5
92
330
1F
100
AcDbEntity
  8
Geo
  6
Continuous
 62
     7
370
    35
100
AcDbLine
 10
-26.3266843863
 20
4.2741068558
 30
0.0
 11
-26.2266843863
 21
4.2177011605
 31
0.0
  0
LINE
  5
93
330
1F
100
AcDbEntity
  8
Geo
  6
Continuous
 62
     7
370
    35
100
AcDbLine
 10
-26.2266843863
 20
4.2177011605
 30
0.0
 11
-26.1266843863
 21
4.1603426247
 31
0.0
  0
LINE
  5
94
330
1F
100
AcDbEntity
  8
Geo
  6
Continuous
 62
     7
370
    35
100
AcDbLine
 10
-26.1266843863
 20
4.1603426247
 30
0.0
 11
-26.0266843863
 21
4.1020624942
 31
0.0
  0
LINE
  5
95
330
1F
100
AcDbEntity
  8
Geo
  6
Continuous
 62
     7
370
    35
100
AcDbLine
 10
-26.0266843863
 20
4.1020624942
 30
0.0
 11
-25.9266843863
 21
4.0428925165
 31
0.0
  0
LINE
  5
96
330
1F
100
AcDbEntity
  8
Geo
  6
Continuous
 62
     7
370
    35
100
AcDbLine
 10
-25.9266843863
 20
4.0428925165
 30
0.0
 11
-25.8266843863
 21
3.9828649242
 31
0.0
  0
LINE
  5
97
330
1F
100
AcDbEntity
  8
Geo
  6
Continuous
 62
     7
370
    35
100
AcDbLine
 10
-25.8266843863
 20
3.9828649242
 30
0.0
 11
-25.7266843863
 21
3.9220124167
 31
0.0
  0
LINE
  5
98
330
1F
100
AcDbEntity
  8
Geo
  6
Continuous
 62
     7
370
    35
100
AcDbLine
 10
-25.7266843863
 20
3.9220124167
 30
0.0
 11
-25.6266843863
 21
3.8603681431
 31
0.0
  0
LINE
  5
99
330
1F
100
AcDbEntity
  8
Geo
  6
Continuous
 62
     7
370
    35
100
AcDbLine
 10
-25.6266843863
 20
3.8603681431
 30
0.0
 11
-25.5266843863
 21
3.7979656836
 31
0.0
  0
LINE
  5
9A
330
1F
100
AcDbEntity
  8
Geo
  6
Continuous
 62
     7
370
    35
100
AcDbLine
 10
-25.5266843863
 20
3.7979656836
 30
0.0
 11
-25.4266843863
 21
3.7348390315
 31
0.0
  0
LINE
  5
9B
330
1F
100
AcDbEntity
  8
Geo
  6
Continuous
 62
     7
370
    35
100
AcDbLine
 10
-25.4266843863
 20
3.7348390315
 30
0.0
 11
-25.3266843863
 21
3.6710225745
 31
0.0
  0
LINE
  5
9C
330
1F
100
AcDbEntity
  8
Geo
  6
Continuous
 62
     7
370
    35
100
AcDbLine
 10
-25.3266843863
 20
3.6710225745
 30
0.0
 11
-25.2266843863
 21
3.6065510763
 31
0.0
  0
LINE
  5
9D
330
1F
100
AcDbEntity
  8
Geo
  6
Continuous
 62
     7
370
    35
100
AcDbLine
 10
-25.2266843863
 20
3.6065510763
 30
0.0
 11
-25.1266843863
 21
3.5414596571
 31
0.0
  0
LINE
  5
9E
330
1F
100
AcDbEntity
  8
Geo
  6
Continuous
 62
     7
370
    35
100
AcDbLine
 10
-25.1266843863
 20
3.5414596571
 30
0.0
 11
-25.0266843863
 21
3.475783775
 31
0.0
  0
LINE
  5
9F
330
1F
100
AcDbEntity
  8
Geo
  6
Continuous
 62
     7
370
    35
100
AcDbLine
 10
-25.0266843863
 20
3.475783775
 30
0.0
 11
-24.9266843863
 21
3.4095592065
 31
0.0
  0
LINE
  5
A0
330
1F
100
AcDbEntity
  8
Geo
  6
Continuous
 62
     7
370
    35
100
AcDbLine
 10
-24.9266843863
 20
3.4095592065
 30
0.0
 11
-24.8266843863
 21
3.342822027
 31
0.0
  0
LINE
  5
A1
330
1F
100
AcDbEntity
  8
Geo
  6
Continuous
 62
     7
370
    35
100
AcDbLine
 10
-24.8266843863
 20
3.342822027
 30
0.0
 11
-24.7266843863
 21
3.275608591
 31
0.0
  0
LINE
  5
A2
330
1F
100
AcDbEntity
  8
Geo
  6
Continuous
 62
     7
370
    35
100
AcDbLine
 10
-24.7266843863
 20
3.275608591
 30
0.0
 11
-24.6266843863
 21
3.2079555126
 31
0.0
  0
LINE
  5
A3
330
1F
100
AcDbEntity
  8
Geo
  6
Continuous
 62
     7
370
    35
100
AcDbLine
 10
-24.6266843863
 20
3.2079555126
 30
0.0
 11
-24.5266843863
 21
3.1398996451
 31
0.0
  0
LINE
  5
A4
330
1F
100
AcDbEntity
  8
Geo
  6
Continuous
 62
     7
370
    35
100
AcDbLine
 10
-24.5266843863
 20
3.1398996451
 30
0.0
 11
-24.4266843863
 21
3.0714780617
 31
0.0
  0
LINE
  5
A5
330
1F
100
AcDbEntity
  8
Geo
  6
Continuous
 62
     7
370
    35
100
AcDbLine
 10
-24.4266843863
 20
3.0714780617
 30
0.0
 11
-24.3266843863
 21
3.0027280344
 31
0.0
  0
LINE
  5
A6
330
1F
100
AcDbEntity
  8
Geo
  6
Continuous
 62
     7
370
    35
100
AcDbLine
 10
-24.3266843863
 20
3.0027280344
 30
0.0
 11
-24.2266843863
 21
2.9336870144
 31
0.0
  0
LINE
  5
A7
330
1F
100
AcDbEntity
  8
Geo
  6
Continuous
 62
     7
370
    35
100
AcDbLine
 10
-24.2266843863
 20
2.9336870144
 30
0.0
 11
-24.1266843863
 21
2.8643926111
 31
0.0
  0
LINE
  5
A8
330
1F
100
AcDbEntity
  8
Geo
  6
Continuous
 62
     7
370
    35
100
AcDbLine
 10
-24.1266843863
 20
2.8643926111
 30
0.0
 11
-24.0266843863
 21
2.7948825722
 31
0.0
  0
LINE
  5
A9
330
1F
100
AcDbEntity
  8
Geo
  6
Continuous
 62
     7
370
    35
100
AcDbLine
 10
-24.0266843863
 20
2.7948825722
 30
0.0
 11
-23.9266843863
 21
2.7251947628
 31
0.0
  0
LINE
  5
AA
330
1F
100
AcDbEntity
  8
Geo
  6
Continuous
 62
     7
370
    35
100
AcDbLine
 10
-23.9266843863
 20
2.7251947628
 30
0.0
 11
-23.8266843863
 21
2.6553671448
 31
0.0
  0
LINE
  5
AB
330
1F
100
AcDbEntity
  8
Geo
  6
Continuous
 62
     7
370
    35
100
AcDbLine
 10
-23.8266843863
 20
2.6553671448
 30
0.0
 11
-23.7266843863
 21
2.5854377563
 31
0.0
  0
LINE
  5
AC
330
1F
100
AcDbEntity
  8
Geo
  6
Continuous
 62
     7
370
    35
100
AcDbLine
 10
-23.7266843863
 20
2.5854377563
 30
0.0
 11
-23.6266843863
 21
2.5154446908
 31
0.0
  0
LINE
  5
AD
330
1F
100
AcDbEntity
  8
Geo
  6
Continuous
 62
     7
370
    35
100
AcDbLine
 10
-23.6266843863
 20
2.5154446908
 30
0.0
 11
-23.5266843863
 21
2.4454260764
 31
0.0
  0
LINE
  5
AE
330
1F
100
AcDbEntity
  8
Geo
  6
Continuous
 62
     7
370
    35
100
AcDbLine
 10
-23.5266843863
 20
2.4454260764
 30
0.0
 11
-23.4266843863
 21
2.3754200554
 31
0.0
  0
LINE
  5
AF
330
1F
100
AcDbEntity
  8
Geo
  6
Continuous
 62
     7
370
    35
100
AcDbLine
 10
-23.4266843863
 20
2.3754200554
 30
0.0
 11
-23.3266843863
 21
2.305464763
 31
0.0
  0
LINE
  5
B0
330
1F
100
AcDbEntity
  8
Geo
  6
Continuous
 62
     7
370
    35
100
AcDbLine
 10
-23.3266843863
 20
2.305464763
 30
0.0
 11
-23.2266843863
 21
2.2355983068
 31
0.0
  0
LINE
  5
B1
330
1F
100
AcDbEntity
  8
Geo
  6
Continuous
 62
     7
370
    35
100
AcDbLine
 10
-23.2266843863
 20
2.2355983068
 30
0.0
 11
-23.1266843863
 21
2.1658587461
 31
0.0
  0
LINE
  5
B2
330
1F
100
AcDbEntity
  8
Geo
  6
Continuous
 62
     7
370
    35
100
AcDbLine
 10
-23.1266843863
 20
2.1658587461
 30
0.0
 11
-23.0266843863
 21
2.0962840709
 31
0.0
  0
LINE
  5
B3
330
1F
100
AcDbEntity
  8
Geo
  6
Continuous
 62
     7
370
    35
100
AcDbLine
 10
-23.0266843863
 20
2.0962840709
 30
0.0
 11
-22.9266843863
 21
2.0269121815
 31
0.0
  0
LINE
  5
B4
330
1F
100
AcDbEntity
  8
Geo
  6
Continuous
 62
     7
370
    35
100
AcDbLine
 10
-22.9266843863
 20
2.0269121815
 30
0.0
 11
-22.8266843863
 21
1.9577808678
 31
0.0
  0
LINE
  5
B5
330
1F
100
AcDbEntity
  8
Geo
  6
Continuous
 62
     7
370
    35
100
AcDbLine
 10
-22.8266843863
 20
1.9577808678
 30
0.0
 11
-22.7266843863
 21
1.8889277886
 31
0.0
  0
LINE
  5
B6
330
1F
100
AcDbEntity
  8
Geo
  6
Continuous
 62
     7
370
    35
100
AcDbLine
 10
-22.7266843863
 20
1.8889277886
 30
0.0
 11
-22.6266843863
 21
1.820390451
 31
0.0
  0
LINE
  5
B7
330
1F
100
AcDbEntity
  8
Geo
  6
Continuous
 62
     7
370
    35
100
AcDbLine
 10
-22.6266843863
 20
1.820390451
 30
0.0
 11
-22.5266843863
 21
1.7522061903
 31
0.0
  0
LINE
  5
B8
330
1F
100
AcDbEntity
  8
Geo
  6
Continuous
 62
     7
370
    35
100
AcDbLine
 10
-22.5266843863
 20
1.7522061903
 30
0.0
 11
-22.4266843863
 21
1.6844121493
 31
0.0
  0
LINE
  5
B9
330
1F
100
AcDbEntity
  8
Geo
  6
Continuous
 62
     7
370
    35
100
AcDbLine
 10
-22.4266843863
 20
1.6844121493
 30
0.0
 11
-22.3266843863
 21
1.6170452583
 31
0.0
  0
LINE
  5
BA
330
1F
100
AcDbEntity
  8
Geo
  6
Continuous
 62
     7
370
    35
100
AcDbLine
 10
-22.3266843863
 20
1.6170452583
 30
0.0
 11
-22.2266843863
 21
1.5501422149
 31
0.0
  0
LINE
  5
BB
330
1F
100
AcDbEntity
  8
Geo
  6
Continuous
 62
     7
370
    35
100
AcDbLine
 10
-22.2266843863
 20
1.5501422149
 30
0.0
 11
-22.1266843863
 21
1.4837394642
 31
0.0
  0
LINE
  5
BC
330
1F
100
AcDbEntity
  8
Geo
  6
Continuous
 62
     7
370
    35
100
AcDbLine
 10
-22.1266843863
 20
1.4837394642
 30
0.0
 11
-22.0266843863
 21
1.4178731784
 31
0.0
  0
LINE
  5
BD
330
1F
100
AcDbEntity
  8
Geo
  6
Continuous
 62
     7
370
    35
100
AcDbLine
 10
-22.0266843863
 20
1.4178731784
 30
0.0
 11
-21.9266843863
 21
1.3525792378
 31
0.0
  0
LINE
  5
BE
330
1F
100
AcDbEntity
  8
Geo
  6
Continuous
 62
     7
370
    35
100
AcDbLine
 10
-21.9266843863
 20
1.3525792378
 30
0.0
 11
-21.8266843863
 21
1.2878932107
 31
0.0
  0
LINE
  5
BF
330
1F
100
AcDbEntity
  8
Geo
  6
Continuous
 62
     7
370
    35
100
AcDbLine
 10
-21.8266843863
 20
1.2878932107
 30
0.0
 11
-21.7266843863
 21
1.2238503344
 31
0.0
  0
LINE
  5
C0
330
1F
100
AcDbEntity
  8
Geo
  6
Continuous
 62
     7
370
    35
100
AcDbLine
 10
-21.7266843863
 20
1.2238503344
 30
0.0
 11
-21.6266843863
 21
1.1604854958
 31
0.0
  0
LINE
  5
C1
330
1F
100
AcDbEntity
  8
Geo
  6
Continuous
 62
     7
370
    35
100
AcDbLine
 10
-21.6266843863
 20
1.1604854958
 30
0.0
 11
-21.5266843863
 21
1.0978332124
 31
0.0
  0
LINE
  5
C2
330
1F
100
AcDbEntity
  8
Geo
  6
Continuous
 62
     7
370
    35
100
AcDbLine
 10
-21.5266843863
 20
1.0978332124
 30
0.0
 11
-21.4266843863
 21
1.0359276135
 31
0.0
  0
LINE
  5
C3
330
1F
100
AcDbEntity
  8
Geo
  6
Continuous
 62
     7
370
    35
100
AcDbLine
 10
-21.4266843863
 20
1.0359276135
 30
0.0
 11
-21.3266843863
 21
0.9748024219
 31
0.0
  0
LINE
  5
C4
330
1F
100
AcDbEntity
  8
Geo
  6
Continuous
 62
     7
370
    35
100
AcDbLine
 10
-21.3266843863
 20
0.9748024219
 30
0.0
 11
-21.2266843863
 21
0.9144909349
 31
0.0
  0
LINE
  5
C5
330
1F
100
AcDbEntity
  8
Geo
  6
Continuous
 62
     7
370
    35
100
AcDbLine
 10
-21.2266843863
 20
0.9144909349
 30
0.0
 11
-21.1266843863
 21
0.8550260068
 31
0.0
  0
LINE
  5
C6
330
1F
100
AcDbEntity
  8
Geo
  6
Continuous
 62
     7
370
    35
100
AcDbLine
 10
-21.1266843863
 20
0.8550260068
 30
0.0
 11
-21.0266843863
 21
0.7964400307
 31
0.0
  0
LINE
  5
C7
330
1F
100
AcDbEntity
  8
Geo
  6
Continuous
 62
     7
370
    35
100
AcDbLine
 10
-21.0266843863
 20
0.7964400307
 30
0.0
 11
-20.9266843863
 21
0.7387649208
 31
0.0
  0
LINE
  5
C8
330
1F
100
AcDbEntity
  8
Geo
  6
Continuous
 62
     7
370
    35
100
AcDbLine
 10
-20.9266843863
 20
0.7387649208
 30
0.0
 11
-20.8266843863
 21
0.6820320953
 31
0.0
  0
LINE
  5
C9
330
1F
100
AcDbEntity
  8
Geo
  6
Continuous
 62
     7
370
    35
100
AcDbLine
 10
-20.8266843863
 20
0.6820320953
 30
0.0
 11
-20.7266843863
 21
0.626272459
 31
0.0
  0
LINE
  5
CA
330
1F
100
AcDbEntity
  8
Geo
  6
Continuous
 62
     7
370
    35
100
AcDbLine
 10
-20.7266843863
 20
0.626272459
 30
0.0
 11
-20.6266843863
 21
0.5715163865
 31
0.0
  0
LINE
  5
CB
330
1F
100
AcDbEntity
  8
Geo
  6
Continuous
 62
     7
370
    35
100
AcDbLine
 10
-20.6266843863
 20
0.5715163865
 30
0.0
 11
-20.5266843863
 21
0.5177937057
 31
0.0
  0
LINE
  5
CC
330
1F
100
AcDbEntity
  8
Geo
  6
Continuous
 62
     7
370
    35
100
AcDbLine
 10
-20.5266843863
 20
0.5177937057
 30
0.0
 11
-20.4266843863
 21
0.4651336817
 31
0.0
  0
LINE
  5
CD
330
1F
100
AcDbEntity
  8
Geo
  6
Continuous
 62
     7
370
    35
100
AcDbLine
 10
-20.4266843863
 20
0.4651336817
 30
0.0
 11
-20.3266843863
 21
0.4135650006
 31
0.0
  0
LINE
  5
CE
330
1F
100
AcDbEntity
  8
Geo
  6
Continuous
 62
     7
370
    35
100
AcDbLine
 10
-20.3266843863
 20
0.4135650006
 30
0.0
 11
-20.2266843863
 21
0.3631157542
 31
0.0
  0
LINE
  5
CF
330
1F
100
AcDbEntity
  8
Geo
  6
Continuous
 62
     7
370
    35
100
AcDbLine
 10
-20.2266843863
 20
0.3631157542
 30
0.0
 11
-20.1266843863
 21
0.3138134242
 31
0.0
  0
LINE
  5
D0
330
1F
100
AcDbEntity
  8
Geo
  6
Continuous
 62
     7
370
    35
100
AcDbLine
 10
-20.1266843863
 20
0.3138134242
 30
0.0
 11
-20.0266843863
 21
0.2656848678
 31
0.0
  0
LINE
  5
D1
330
1F
100
AcDbEntity
  8
Geo
  6
Continuous
 62
     7
370
    35
100
AcDbLine
 10
-20.0266843863
 20
0.2656848678
 30
0.0
 11
-19.9266843863
 21
0.2187563025
 31
0.0
  0
LINE
  5
D2
330
1F
100
AcDbEntity
  8
Geo
  6
Continuous
 62
     7
370
    35
100
AcDbLine
 10
-19.9266843863
 20
0.2187563025
 30
0.0
 11
-19.8266843863
 21
0.1730532925
 31
0.0
  0
LINE
  5
D3
330
1F
100
AcDbEntity
  8
Geo
  6
Continuous
 62
     7
370
    35
100
AcDbLine
 10
-19.8266843863
 20
0.1730532925
 30
0.0
 11
-19.7266843863
 21
0.1286007341
 31
0.0
  0
LINE
  5
D4
330
1F
100
AcDbEntity
  8
Geo
  6
Continuous
 62
     7
370
    35
100
AcDbLine
 10
-19.7266843863
 20
0.1286007341
 30
0.0
 11
-19.6266843863
 21
0.0854228424
 31
0.0
  0
LINE
  5
D5
330
1F
100
AcDbEntity
  8
Geo
  6
Continuous
 62
     7
370
    35
100
AcDbLine
 10
-19.6266843863
 20
0.0854228424
 30
0.0
 11
-19.5266843863
 21
0.0435431384
 31
0.0
  0
LINE
  5
D6
330
1F
100
AcDbEntity
  8
Geo
  6
Continuous
 62
     7
370
    35
100
AcDbLine
 10
-19.5266843863
 20
0.0435431384
 30
0.0
 11
-19.4266843863
 21
0.0029844356
 31
0.0
  0
LINE
  5
D7
330
1F
100
AcDbEntity
  8
Geo
  6
Continuous
 62
     7
370
    35
100
AcDbLine
 10
-19.4266843863
 20
0.0029844356
 30
0.0
 11
-19.3388611229
 21
-0.0314559906
 31
0.0
  0
POINT
  5
D8
330
1F
100
AcDbEntity
  8
Geo
  6
Continuous
 62
     7
370
    35
100
AcDbPoint
 10
-29.9266843863
 20
4.4790745215
 30
0.0
  0
LINE
  5
D9
330
1F
100
AcDbEntity
  8
Geo
  6
Continuous
 62
     7
370
    35
100
AcDbLine
 10
-29.9266843863
 20
4.4790745215
 30
0.0
 11
-29.9266843863
 21
4.5201057565
 31
0.0
  0
LINE
  5
DA
330
1F
100
AcDbEntity
  8
Geo
  6
Continuous
 62
     7
370
    35
100
AcDbLine
 10
-29.9266843863
 20
4.5201057565
 30
0.0
 11
-29.8266843863
 21
4.468463139
 31
0.0
  0
LINE
  5
DB
330
1F
100
AcDbEntity
  8
Geo
  6
Continuous
 62
     7
370
    35
100
AcDbLine
 10
-29.8266843863
 20
4.468463139
 30
0.0
 11
-29.7266843863
 21
4.4157310804
 31
0.0
  0
LINE
  5
DC
330
1F
100
AcDbEntity
  8
Geo
  6
Continuous
 62
     7
370
    35
100
AcDbLine
 10
-29.7266843863
 20
4.4157310804
 30
0.0
 11
-29.6266843863
 21
4.3619383061
 31
0.0
  0
LINE
  5
DD
330
1F
100
AcDbEntity
  8
Geo
  6
Continuous
 62
     7
370
    35
100
AcDbLine
 10
-29.6266843863
 20
4.3619383061
 30
0.0
 11
-29.5266843863
 21
4.3071141192
 31
0.0
  0
LINE
  5
DE
330
1F
100
AcDbEntity
  8
Geo
  6
Continuous
 62
     7
370
    35
100
AcDbLine
 10
-29.5266843863
 20
4.3071141192
 30
0.0
 11
-29.4266843863
 21
4.2512883848
 31
0.0
  0
LINE
  5
DF
330
1F
100
AcDbEntity
  8
Geo
  6
Continuous
 62
     7
370
    35
100
AcDbLine
 10
-29.4266843863
 20
4.2512883848
 30
0.0
 11
-29.3266843863
 21
4.1944915137
 31
0.0
  0
LINE
  5
E0
330
1F
100
AcDbEntity
  8
Geo
  6
Continuous
 62
     7
370
    35
100
AcDbLine
 10
-29.3266843863
 20
4.1944915137
 30
0.0
 11
-29.2266843863
 21
4.1367544454
 31
0.0
  0
LINE
  5
E1
330
1F
100
AcDbEntity
  8
Geo
  6
Continuous
 62
     7
370
    35
100
AcDbLine
 10
-29.2266843863
 20
4.1367544454
 30
0.0
 11
-29.1266843863
 21
4.0781086319
 31
0.0
  0
LINE
  5
E2
330
1F
100
AcDbEntity
  8
Geo
  6
Continuous
 62
     7
370
    35
100
AcDbLine
 10
-29.1266843863
 20
4.0781086319
 30
0.0
 11
-29.0266843863
 21
4.0185860199
 31
0.0
  0
LINE
  5
E3
330
1F
100
AcDbEntity
  8
Geo
  6
Continuous
 62
     7
370
    35
100
AcDbLine
 10
-29.0266843863
 20
4.0185860199
 30
0.0
 11
-28.9266843863
 21
3.958219034
 31
0.0
  0
LINE
  5
E4
330
1F
100
AcDbEntity
  8
Geo
  6
Continuous
 62
     7
370
    35
100
AcDbLine
 10
-28.9266843863
 20
3.958219034
 30
0.0
 11
-28.8266843863
 21
3.8970405586
 31
0.0
  0
LINE
  5
E5
330
1F
100
AcDbEntity
  8
Geo
  6
Continuous
 62
     7
370
    35
100
AcDbLine
 10
-28.8266843863
 20
3.8970405586
 30
0.0
 11
-28.7266843863
 21
3.8350839204
 31
0.0
  0
LINE
  5
E6
330
1F
100
AcDbEntity
  8
Geo
  6
Continuous
 62
     7
370
    35
100
AcDbLine
 10
-28.7266843863
 20
3.8350839204
 30
0.0
 11
-28.6266843863
 21
3.7723828696
 31
0.0
  0
LINE
  5
E7
330
1F
100
AcDbEntity
  8
Geo
  6
Continuous
 62
     7
370
    35
100
AcDbLine
 10
-28.6266843863
 20
3.7723828696
 30
0.0
 11
-28.5266843863
 21
3.7089715623
 31
0.0
  0
LINE
  5
E8
330
1F
100
AcDbEntity
  8
Geo
  6
Continuous
 62
     7
370
    35
100
AcDbLine
 10
-28.5266843863
 20
3.7089715623
 30
0.0
 11
-28.4266843863
 21
3.6448845412
 31
0.0
  0
LINE
  5
E9
330
1F
100
AcDbEntity
  8
Geo
  6
Continuous
 62
     7
370
    35
100
AcDbLine
 10
-28.4266843863
 20
3.6448845412
 30
0.0
 11
-28.3266843863
 21
3.5801567174
 31
0.0
  0
LINE
  5
EA
330
1F
100
AcDbEntity
  8
Geo
  6
Continuous
 62
     7
370
    35
100
AcDbLine
 10
-28.3266843863
 20
3.5801567174
 30
0.0
 11
-28.2266843863
 21
3.5148233507
 31
0.0
  0
LINE
  5
EB
330
1F
100
AcDbEntity
  8
Geo
  6
Continuous
 62
     7
370
    35
100
AcDbLine
 10
-28.2266843863
 20
3.5148233507
 30
0.0
 11
-28.1266843863
 21
3.4489200311
 31
0.0
  0
LINE
  5
EC
330
1F
100
AcDbEntity
  8
Geo
  6
Continuous
 62
     7
370
    35
100
AcDbLine
 10
-28.1266843863
 20
3.4489200311
 30
0.0
 11
-28.0266843863
 21
3.382482659
 31
0.0
  0
LINE
  5
ED
330
1F
100
AcDbEntity
  8
Geo
  6
Continuous
 62
     7
370
    35
100
AcDbLine
 10
-28.0266843863
 20
3.382482659
 30
0.0
 11
-27.9266843863
 21
3.3155474255
 31
0.0
  0
LINE
  5
EE
330
1F
100
AcDbEntity
  8
Geo
  6
Continuous
 62
     7
370
    35
100
AcDbLine
 10
-27.9266843863
 20
3.3155474255
 30
0.0
 11
-27.8266843863
 21
3.2481507932
 31
0.0
  0
LINE
  5
EF
330
1F
100
AcDbEntity
  8
Geo
  6
Continuous
 62
     7
370
    35
100
AcDbLine
 10
-27.8266843863
 20
3.2481507932
 30
0.0
 11
-27.7266843863
 21
3.1803294758
 31
0.0
  0
LINE
  5
F0
330
1F
100
AcDbEntity
  8
Geo
  6
Continuous
 62
     7
370
    35
100
AcDbLine
 10
-27.7266843863
 20
3.1803294758
 30
0.0
 11
-27.6266843863
 21
3.1121204186
 31
0.0
  0
LINE
  5
F1
330
1F
100
AcDbEntity
  8
Geo
  6
Continuous
 62
     7
370
    35
100
AcDbLine
 10
-27.6266843863
 20
3.1121204186
 30
0.0
 11
-27.5266843863
 21
3.0435607779
 31
0.0
  0
LINE
  5
F2
330
1F
100
AcDbEntity
  8
Geo
  6
Continuous
 62
     7
370
    35
100
AcDbLine
 10
-27.5266843863
 20
3.0435607779
 30
0.0
 11
-27.4266843863
 21
2.9746879011
 31
0.0
  0
LINE
  5
F3
330
1F
100
AcDbEntity
  8
Geo
  6
Continuous
 62
     7
370
    35
100
AcDbLine
 10
-27.4266843863
 20
2.9746879011
 30
0.0
 11
-27.3266843863
 21
2.9055393061
 31
0.0
  0
LINE
  5
F4
330
1F
100
AcDbEntity
  8
Geo
  6
Continuous
 62
     7
370
    35
100
AcDbLine
 10
-27.3266843863
 20
2.9055393061
 30
0.0
 11
-27.2266843863
 21
2.8361526612
 31
0.0
  0
LINE
  5
F5
330
1F
100
AcDbEntity
  8
Geo
  6
Continuous
 62
     7
370
    35
100
AcDbLine
 10
-27.2266843863
 20
2.8361526612
 30
0.0
 11
-27.1266843863
 21
2.7665657642
 31
0.0
  0
LINE
  5
F6
330
1F
100
AcDbEntity
  8
Geo
  6
Continuous
 62
     7
370
    35
100
AcDbLine
 10
-27.1266843863
 20
2.7665657642
 30
0.0
 11
-27.0266843863
 21
2.696816522
 31
0.0
  0
LINE
  5
F7
330
1F
100
AcDbEntity
  8
Geo
  6
Continuous
 62
     7
370
    35
100
AcDbLine
 10
-27.0266843863
 20
2.696816522
 30
0.0
 11
-26.9266843863
 21
2.6269429301
 31
0.0
  0
LINE
  5
F8
330
1F
100
AcDbEntity
  8
Geo
  6
Continuous
 62
     7
370
    35
100
AcDbLine
 10
-26.9266843863
 20
2.6269429301
 30
0.0
 11
-26.8266843863
 21
2.5569830515
 31
0.0
  0
LINE
  5
F9
330
1F
100
AcDbEntity
  8
Geo
  6
Continuous
 62
     7
370
    35
100
AcDbLine
 10
-26.8266843863
 20
2.5569830515
 30
0.0
 11
-26.7266843863
 21
2.4869749964
 31
0.0
  0
LINE
  5
FA
330
1F
100
AcDbEntity
  8
Geo
  6
Continuous
 62
     7
370
    35
100
AcDbLine
 10
-26.7266843863
 20
2.4869749964
 30
0.0
 11
-26.6266843863
 21
2.4169569012
 31
0.0
  0
LINE
  5
FB
330
1F
100
AcDbEntity
  8
Geo
  6
Continuous
 62
     7
370
    35
100
AcDbLine
 10
-26.6266843863
 20
2.4169569012
 30
0.0
 11
-26.5266843863
 21
2.3469669077
 31
0.0
  0
LINE
  5
FC
330
1F
100
AcDbEntity
  8
Geo
  6
Continuous
 62
     7
370
    35
100
AcDbLine
 10
-26.5266843863
 20
2.3469669077
 30
0.0
 11
-26.4266843863
 21
2.2770431424
 31
0.0
  0
LINE
  5
FD
330
1F
100
AcDbEntity
  8
Geo
  6
Continuous
 62
     7
370
    35
100
AcDbLine
 10
-26.4266843863
 20
2.2770431424
 30
0.0
 11
-26.3266843863
 21
2.2072236958
 31
0.0
  0
LINE
  5
FE
330
1F
100
AcDbEntity
  8
Geo
  6
Continuous
 62
     7
370
    35
100
AcDbLine
 10
-26.3266843863
 20
2.2072236958
 30
0.0
 11
-26.2266843863
 21
2.1375466015
 31
0.0
  0
LINE
  5
FF
330
1F
100
AcDbEntity
  8
Geo
  6
Continuous
 62
     7
370
    35
100
AcDbLine
 10
-26.2266843863
 20
2.1375466015
 30
0.0
 11
-26.1266843863
 21
2.0680498156
 31
0.0
  0
LINE
  5
100
330
1F
100
AcDbEntity
  8
Geo
  6
Continuous
 62
     7
370
    35
100
AcDbLine
 10
-26.1266843863
 20
2.0680498156
 30
0.0
 11
-26.0266843863
 21
1.9987711959
 31
0.0
  0
LINE
  5
101
330
1F
100
AcDbEntity
  8
Geo
  6
Continuous
 62
     7
370
    35
100
AcDbLine
 10
-26.0266843863
 20
1.9987711959
 30
0.0
 11
-25.9266843863
 21
1.9297484815
 31
0.0
  0
LINE
  5
102
330
1F
100
AcDbEntity
  8
Geo
  6
Continuous
 62
     7
370
    35
100
AcDbLine
 10
-25.9266843863
 20
1.9297484815
 30
0.0
 11
-25.8266843863
 21
1.8610192719
 31
0.0
  0
LINE
  5
103
330
1F
100
AcDbEntity
  8
Geo
  6
Continuous
 62
     7
370
    35
100
AcDbLine
 10
-25.8266843863
 20
1.8610192719
 30
0.0
 11
-25.7266843863
 21
1.792621007
 31
0.0
  0
LINE
  5
104
330
1F
100
AcDbEntity
  8
Geo
  6
Continuous
 62
     7
370
    35
100
AcDbLine
 10
-25.7266843863
 20
1.792621007
 30
0.0
 11
-25.6266843863
 21
1.7245909461
 31
0.0
  0
LINE
  5
105
330
1F
100
AcDbEntity
  8
Geo
  6
Continuous
 62
     7
370
    35
100
AcDbLine
 10
-25.6266843863
 20
1.7245909461
 30
0.0
 11
-25.5266843863
 21
1.6569661482
 31
0.0
  0
LINE
  5
106
330
1F
100
AcDbEntity
  8
Geo
  6
Continuous
 62
     7
370
    35
100
AcDbLine
 10
-25.5266843863
 20
1.6569661482
 30
0.0
 11
-25.4266843863
 21
1.5897834513
 31
0.0
  0
LINE
  5
107
330
1F
100
AcDbEntity
  8
Geo
  6
Continuous
 62
     7
370
    35
100
AcDbLine
 10
-25.4266843863
 20
1.5897834513
 30
0.0
 11
-25.3266843863
 21
1.5230794527
 31
0.0
  0
LINE
  5
108
330
1F
100
AcDbEntity
  8
Geo
  6
Continuous
 62
     7
370
    35
100
AcDbLine
 10
-25.3266843863
 20
1.5230794527
 30
0.0
 11
-25.2266843863
 21
1.4568904889
 31
0.0
  0
LINE
  5
109
330
1F
100
AcDbEntity
  8
Geo
  6
Continuous
 62
     7
370
    35
100
AcDbLine
 10
-25.2266843863
 20
1.4568904889
 30
0.0
 11
-25.1266843863
 21
1.3912526159
 31
0.0
  0
LINE
  5
10A
330
1F
100
AcDbEntity
  8
Geo
  6
Continuous
 62
     7
370
    35
100
AcDbLine
 10
-25.1266843863
 20
1.3912526159
 30
0.0
 11
-25.0266843863
 21
1.3262015893
 31
0.0
  0
LINE
  5
10B
330
1F
100
AcDbEntity
  8
Geo
  6
Continuous
 62
     7
370
    35
100
AcDbLine
 10
-25.0266843863
 20
1.3262015893
 30
0.0
 11
-24.9266843863
 21
1.2617728454
 31
0.0
  0
LINE
  5
10C
330
1F
100
AcDbEntity
  8
Geo
  6
Continuous
 62
     7
370
    35
100
AcDbLine
 10
-24.9266843863
 20
1.2617728454
 30
0.0
 11
-24.8266843863
 21
1.1980014812
 31
0.0
  0
LINE
  5
10D
330
1F
100
AcDbEntity
  8
Geo
  6
Continuous
 62
     7
370
    35
100
AcDbLine
 10
-24.8266843863
 20
1.1980014812
 30
0.0
 11
-24.7266843863
 21
1.1349222355
 31
0.0
  0
LINE
  5
10E
330
1F
100
AcDbEntity
  8
Geo
  6
Continuous
 62
     7
370
    35
100
AcDbLine
 10
-24.7266843863
 20
1.1349222355
 30
0.0
 11
-24.6266843863
 21
1.0725694705
 31
0.0
  0
LINE
  5
10F
330
1F
100
AcDbEntity
  8
Geo
  6
Continuous
 62
     7
370
    35
100
AcDbLine
 10
-24.6266843863
 20
1.0725694705
 30
0.0
 11
-24.5266843863
 21
1.0109771523
 31
0.0
  0
LINE
  5
110
330
1F
100
AcDbEntity
  8
Geo
  6
Continuous
 62
     7
370
    35
100
AcDbLine
 10
-24.5266843863
 20
1.0109771523
 30
0.0
 11
-24.4266843863
 21
0.9501788328
 31
0.0
  0
LINE
  5
111
330
1F
100
AcDbEntity
  8
Geo
  6
Continuous
 62
     7
370
    35
100
AcDbLine
 10
-24.4266843863
 20
0.9501788328
 30
0.0
 11
-24.3266843863
 21
0.8902076315
 31
0.0
  0
LINE
  5
112
330
1F
100
AcDbEntity
  8
Geo
  6
Continuous
 62
     7
370
    35
100
AcDbLine
 10
-24.3266843863
 20
0.8902076315
 30
0.0
 11
-24.2266843863
 21
0.8310962173
 31
0.0
  0
LINE
  5
113
330
1F
100
AcDbEntity
  8
Geo
  6
Continuous
 62
     7
370
    35
100
AcDbLine
 10
-24.2266843863
 20
0.8310962173
 30
0.0
 11
-24.1266843863
 21
0.7728767906
 31
0.0
  0
LINE
  5
114
330
1F
100
AcDbEntity
  8
Geo
  6
Continuous
 62
     7
370
    35
100
AcDbLine
 10
-24.1266843863
 20
0.7728767906
 30
0.0
 11
-24.0266843863
 21
0.7155810661
 31
0.0
  0
LINE
  5
115
330
1F
100
AcDbEntity
  8
Geo
  6
Continuous
 62
     7
370
    35
100
AcDbLine
 10
-24.0266843863
 20
0.7155810661
 30
0.0
 11
-23.9266843863
 21
0.6592402552
 31
0.0
  0
LINE
  5
116
330
1F
100
AcDbEntity
  8
Geo
  6
Continuous
 62
     7
370
    35
100
AcDbLine
 10
-23.9266843863
 20
0.6592402552
 30
0.0
 11
-23.8266843863
 21
0.6038850491
 31
0.0
  0
LINE
  5
117
330
1F
100
AcDbEntity
  8
Geo
  6
Continuous
 62
     7
370
    35
100
AcDbLine
 10
-23.8266843863
 20
0.6038850491
 30
0.0
 11
-23.7266843863
 21
0.5495456022
 31
0.0
  0
LINE
  5
118
330
1F
100
AcDbEntity
  8
Geo
  6
Continuous
 62
     7
370
    35
100
AcDbLine
 10
-23.7266843863
 20
0.5495456022
 30
0.0
 11
-23.6266843863
 21
0.4962515155
 31
0.0
  0
LINE
  5
119
330
1F
100
AcDbEntity
  8
Geo
  6
Continuous
 62
     7
370
    35
100
AcDbLine
 10
-23.6266843863
 20
0.4962515155
 30
0.0
 11
-23.5266843863
 21
0.4440318205
 31
0.0
  0
LINE
  5
11A
330
1F
100
AcDbEntity
  8
Geo
  6
Continuous
 62
     7
370
    35
100
AcDbLine
 10
-23.5266843863
 20
0.4440318205
 30
0.0
 11
-23.4266843863
 21
0.3929149636
 31
0.0
  0
LINE
  5
11B
330
1F
100
AcDbEntity
  8
Geo
  6
Continuous
 62
     7
370
    35
100
AcDbLine
 10
-23.4266843863
 20
0.3929149636
 30
0.0
 11
-23.3266843863
 21
0.3429287902
 31
0.0
  0
LINE
  5
11C
330
1F
100
AcDbEntity
  8
Geo
  6
Continuous
 62
     7
370
    35
100
AcDbLine
 10
-23.3266843863
 20
0.3429287902
 30
0.0
 11
-23.2266843863
 21
0.2941005299
 31
0.0
  0
LINE
  5
11D
330
1F
100
AcDbEntity
  8
Geo
  6
Continuous
 62
     7
370
    35
100
AcDbLine
 10
-23.2266843863
 20
0.2941005299
 30
0.0
 11
-23.1266843863
 21
0.2464567817
 31
0.0
  0
LINE
  5
11E
330
1F
100
AcDbEntity
  8
Geo
  6
Continuous
 62
     7
370
    35
100
AcDbLine
 10
-23.1266843863
 20
0.2464567817
 30
0.0
 11
-23.0266843863
 21
0.200023499
 31
0.0
  0
LINE
  5
11F
330
1F
100
AcDbEntity
  8
Geo
  6
Continuous
 62
     7
370
    35
100
AcDbLine
 10
-23.0266843863
 20
0.200023499
 30
0.0
 11
-22.9266843863
 21
0.1548259761
 31
0.0
  0
LINE
  5
120
330
1F
100
AcDbEntity
  8
Geo
  6
Continuous
 62
     7
370
    35
100
AcDbLine
 10
-22.9266843863
 20
0.1548259761
 30
0.0
 11
-22.8266843863
 21
0.110888834
 31
0.0
  0
LINE
  5
121
330
1F
100
AcDbEntity
  8
Geo
  6
Continuous
 62
     7
370
    35
100
AcDbLine
 10
-22.8266843863
 20
0.110888834
 30
0.0
 11
-22.7266843863
 21
0.068236007
 31
0.0
  0
LINE
  5
122
330
1F
100
AcDbEntity
  8
Geo
  6
Continuous
 62
     7
370
    35
100
AcDbLine
 10
-22.7266843863
 20
0.068236007
 30
0.0
 11
-22.6266843863
 21
0.0268907301
 31
0.0
  0
LINE
  5
123
330
1F
100
AcDbEntity
  8
Geo
  6
Continuous
 62
     7
370
    35
100
AcDbLine
 10
-22.6266843863
 20
0.0268907301
 30
0.0
 11
-22.5266843863
 21
-0.0131244742
 31
0.0
  0
LINE
  5
124
330
1F
100
AcDbEntity
  8
Geo
  6
Continuous
 62
     7
370
    35
100
AcDbLine
 10
-22.5266843863
 20
-0.0131244742
 30
0.0
 11
-22.4792712054
 21
-0.0314559906
 31
0.0
  0
LINE
  5
125
330
1F
100
AcDbEntity
  8
Geo
  6
Continuous
 62
     7
370
    35
100
AcDbLine
 10
-15.0304021347
 20
4.9685440094
 30
0.0
 11
-15.0266843863
 21
4.9656887387
 31
0.0
  0
LINE
  5
126
330
1F
100
AcDbEntity
  8
Geo
  6
Continuous
 62
     7
370
    35
100
AcDbLine
 10
-15.0266843863
 20
4.9656887387
 30
0.0
 11
-14.9266843863
 21
4.8800153863
 31
0.0
  0
POINT
  5
127
330
1F
100
AcDbEntity
  8
Geo
  6
Continuous
 62
     7
370
    35
100
AcDbPoint
 10
-14.9266843863
 20
4.8800153863
 30
0.0
  0
LINE
  5
128
330
1F
100
AcDbEntity
  8
Geo
  6
Continuous
 62
     7
370
    35
100
AcDbLine
 10
-17.4614357906
 20
4.9685440094
 30
0.0
 11
-17.4266843863
 21
4.9551677835
 31
0.0
  0
LINE
  5
129
330
1F
100
AcDbEntity
  8
Geo
  6
Continuous
 62
     7
370
    35
100
AcDbLine
 10
-17.4266843863
 20
4.9551677835
 30
0.0
 11
-17.3266843863
 21
4.9153220326
 31
0.0
  0
LINE
  5
12A
330
1F
100
AcDbEntity
  8
Geo
  6
Continuous
 62
     7
370
    35
100
AcDbLine
 10
-17.3266843863
 20
4.9153220326
 30
0.0
 11
-17.2266843863
 21
4.8741434176
 31
0.0
  0
LINE
  5
12B
330
1F
100
AcDbEntity
  8
Geo
  6
Continuous
 62
     7
370
    35
100
AcDbLine
 10
-17.2266843863
 20
4.8741434176
 30
0.0
 11
-17.1266843863
 21
4.83165437
 31
0.0
  0
LINE
  5
12C
330
1F
100
AcDbEntity
  8
Geo
  6
Continuous
 62
     7
370
    35
100
AcDbLine
 10
-17.1266843863
 20
4.83165437
 30
0.0
 11
-17.0266843863
 21
4.7878780356
 31
0.0
  0
LINE
  5
12D
330
1F
100
AcDbEntity
  8
Geo
  6
Continuous
 62
     7
370
    35
100
AcDbLine
 10
-17.0266843863
 20
4.7878780356
 30
0.0
 11
-16.9266843863
 21
4.7428382612
 31
0.0
  0
POINT
  5
12E
330
1F
100
AcDbEntity
  8
Geo
  6
Continuous
 62
     7
370
    35
100
AcDbPoint
 10
-16.9266843863
 20
4.7428382612
 30
0.0
  0
POINT
  5
12F
330
1F
100
AcDbEntity
  8
Geo
  6
Continuous
 62
     7
370
    35
100
AcDbPoint
 10
-16.9266843863
 20
4.7428382612
 30
0.0
  0
LINE
  5
130
330
1F
100
AcDbEntity
  8
Geo
  6
Continuous
 62
     7
370
    35
100
AcDbLine
 10
-16.9266843863
 20
4.7428382612
 30
0.0
 11
-16.8266843863
 21
4.7463730074
 31
0.0
  0
LINE
  5
131
330
1F
100
AcDbEntity
  8
Geo
  6
Continuous
 62
     7
370
    35
100
AcDbLine
 10
-16.8266843863
 20
4.7463730074
 30
0.0
 11
-16.7266843863
 21
4.7502809847
 31
0.0
  0
LINE
  5
132
330
1F
100
AcDbEntity
  8
Geo
  6
Continuous
 62
     7
370
    35
100
AcDbLine
 10
-16.7266843863
 20
4.7502809847
 30
0.0
 11
-16.6266843863
 21
4.7545594984
 31
0.0
  0
LINE
  5
133
330
1F
100
AcDbEntity
  8
Geo
  6
Continuous
 62
     7
370
    35
100
AcDbLine
 10
-16.6266843863
 20
4.7545594984
 30
0.0
 11
-16.5266843863
 21
4.7592055826
 31
0.0
  0
LINE
  5
134
330
1F
100
AcDbEntity
  8
Geo
  6
Continuous
 62
     7
370
    35
100
AcDbLine
 10
-16.5266843863
 20
4.7592055826
 30
0.0
 11
-16.4266843863
 21
4.7642159972
 31
0.0
  0
LINE
  5
135
330
1F
100
AcDbEntity
  8
Geo
  6
Continuous
 62
     7
370
    35
100
AcDbLine
 10
-16.4266843863
 20
4.7642159972
 30
0.0
 11
-16.3266843863
 21
4.7695872258
 31
0.0
  0
LINE
  5
136
330
1F
100
AcDbEntity
  8
Geo
  6
Continuous
 62
     7
370
    35
100
AcDbLine
 10
-16.3266843863
 20
4.7695872258
 30
0.0
 11
-16.2266843863
 21
4.7753154727
 31
0.0
  0
LINE
  5
137
330
1F
100
AcDbEntity
  8
Geo
  6
Continuous
 62
     7
370
    35
100
AcDbLine
 10
-16.2266843863
 20
4.7753154727
 30
0.0
 11
-16.1266843863
 21
4.7813966598
 31
0.0
  0
LINE
  5
138
330
1F
100
AcDbEntity
  8
Geo
  6
Continuous
 62
     7
370
    35
100
AcDbLine
 10
-16.1266843863
 20
4.7813966598
 30
0.0
 11
-16.0266843863
 21
4.7878264237
 31
0.0
  0
LINE
  5
139
330
1F
100
AcDbEntity
  8
Geo
  6
Continuous
 62
     7
370
    35
100
AcDbLine
 10
-16.0266843863
 20
4.7878264237
 30
0.0
 11
-15.9266843863
 21
4.7946001121
 31
0.0
  0
LINE
  5
13A
330
1F
100
AcDbEntity
  8
Geo
  6
Continuous
 62
     7
370
    35
100
AcDbLine
 10
-15.9266843863
 20
4.7946001121
 30
0.0
 11
-15.8266843863
 21
4.8017127805
 31
0.0
  0
LINE
  5
13B
330
1F
100
AcDbEntity
  8
Geo
  6
Continuous
 62
     7
370
    35
100
AcDbLine
 10
-15.8266843863
 20
4.8017127805
 30
0.0
 11
-15.7266843863
 21
4.8091591885
 31
0.0
  0
LINE
  5
13C
330
1F
100
AcDbEntity
  8
Geo
  6
Continuous
 62
     7
370
    35
100
AcDbLine
 10
-15.7266843863
 20
4.8091591885
 30
0.0
 11
-15.6266843863
 21
4.8169337956
 31
0.0
  0
LINE
  5
13D
330
1F
100
AcDbEntity
  8
Geo
  6
Continuous
 62
     7
370
    35
100
AcDbLine
 10
-15.6266843863
 20
4.8169337956
 30
0.0
 11
-15.5266843863
 21
4.825030758
 31
0.0
  0
LINE
  5
13E
330
1F
100
AcDbEntity
  8
Geo
  6
Continuous
 62
     7
370
    35
100
AcDbLine
 10
-15.5266843863
 20
4.825030758
 30
0.0
 11
-15.4266843863
 21
4.8334439237
 31
0.0
  0
LINE
  5
13F
330
1F
100
AcDbEntity
  8
Geo
  6
Continuous
 62
     7
370
    35
100
AcDbLine
 10
-15.4266843863
 20
4.8334439237
 30
0.0
 11
-15.3266843863
 21
4.8421668287
 31
0.0
  0
LINE
  5
140
330
1F
100
AcDbEntity
  8
Geo
  6
Continuous
 62
     7
370
    35
100
AcDbLine
 10
-15.3266843863
 20
4.8421668287
 30
0.0
 11
-15.2266843863
 21
4.8511926923
 31
0.0
  0
LINE
  5
141
330
1F
100
AcDbEntity
  8
Geo
  6
Continuous
 62
     7
370
    35
100
AcDbLine
 10
-15.2266843863
 20
4.8511926923
 30
0.0
 11
-15.1266843863
 21
4.860514413
 31
0.0
  0
LINE
  5
142
330
1F
100
AcDbEntity
  8
Geo
  6
Continuous
 62
     7
370
    35
100
AcDbLine
 10
-15.1266843863
 20
4.860514413
 30
0.0
 11
-15.0266843863
 21
4.8701245635
 31
0.0
  0
LINE
  5
143
330
1F
100
AcDbEntity
  8
Geo
  6
Continuous
 62
     7
370
    35
100
AcDbLine
 10
-15.0266843863
 20
4.8701245635
 30
0.0
 11
-14.9266843863
 21
4.8800153863
 31
0.0
  0
POINT
  5
144
330
1F
100
AcDbEntity
  8
Geo
  6
Continuous
 62
     7
370
    35
100
AcDbPoint
 10
-14.9266843863
 20
4.8800153863
 30
0.0
  0
POINT
  5
145
330
1F
100
AcDbEntity
  8
Geo
  6
Continuous
 62
     7
370
    35
100
AcDbPoint
 10
-29.9266843863
 20
3.717868171
 30
0.0
  0
LINE
  5
146
330
1F
100
AcDbEntity
  8
Geo
  6
Continuous
 62
     7
370
    35
100
AcDbLine
 10
-29.9266843863
 20
3.717868171
 30
0.0
 11
-29.9266843863
 21
3.7433645824
 31
0.0
  0
LINE
  5
147
330
1F
100
AcDbEntity
  8
Geo
  6
Continuous
 62
     7
370
    35
100
AcDbLine
 10
-29.9266843863
 20
3.7433645824
 30
0.0
 11
-29.8266843863
 21
3.6819895646
 31
0.0
  0
LINE
  5
148
330
1F
100
AcDbEntity
  8
Geo
  6
Continuous
 62
     7
370
    35
100
AcDbLine
 10
-29.8266843863
 20
3.6819895646
 30
0.0
 11
-29.7266843863
 21
3.6200011601
 31
0.0
  0
LINE
  5
149
330
1F
100
AcDbEntity
  8
Geo
  6
Continuous
 62
     7
370
    35
100
AcDbLine
 10
-29.7266843863
 20
3.6200011601
 30
0.0
 11
-29.6266843863
 21
3.5574307035
 31
0.0
  0
LINE
  5
14A
330
1F
100
AcDbEntity
  8
Geo
  6
Continuous
 62
     7
370
    35
100
AcDbLine
 10
-29.6266843863
 20
3.5574307035
 30
0.0
 11
-29.5266843863
 21
3.4943098237
 31
0.0
  0
LINE
  5
14B
330
1F
100
AcDbEntity
  8
Geo
  6
Continuous
 62
     7
370
    35
100
AcDbLine
 10
-29.5266843863
 20
3.4943098237
 30
0.0
 11
-29.4266843863
 21
3.4306704277
 31
0.0
  0
LINE
  5
14C
330
1F
100
AcDbEntity
  8
Geo
  6
Continuous
 62
     7
370
    35
100
AcDbLine
 10
-29.4266843863
 20
3.4306704277
 30
0.0
 11
-29.3266843863
 21
3.3665446847
 31
0.0
  0
LINE
  5
14D
330
1F
100
AcDbEntity
  8
Geo
  6
Continuous
 62
     7
370
    35
100
AcDbLine
 10
-29.3266843863
 20
3.3665446847
 30
0.0
 11
-29.2266843863
 21
3.3019650098
 31
0.0
  0
LINE
  5
14E
330
1F
100
AcDbEntity
  8
Geo
  6
Continuous
 62
     7
370
    35
100
AcDbLine
 10
-29.2266843863
 20
3.3019650098
 30
0.0
 11
-29.1266843863
 21
3.2369640475
 31
0.0
  0
LINE
  5
14F
330
1F
100
AcDbEntity
  8
Geo
  6
Continuous
 62
     7
370
    35
100
AcDbLine
 10
-29.1266843863
 20
3.2369640475
 30
0.0
 11
-29.0266843863
 21
3.1715746552
 31
0.0
  0
LINE
  5
150
330
1F
100
AcDbEntity
  8
Geo
  6
Continuous
 62
     7
370
    35
100
AcDbLine
 10
-29.0266843863
 20
3.1715746552
 30
0.0
 11
-28.9266843863
 21
3.1058298866
 31
0.0
  0
LINE
  5
151
330
1F
100
AcDbEntity
  8
Geo
  6
Continuous
 62
     7
370
    35
100
AcDbLine
 10
-28.9266843863
 20
3.1058298866
 30
0.0
 11
-28.8266843863
 21
3.0397629754
 31
0.0
  0
LINE
  5
152
330
1F
100
AcDbEntity
  8
Geo
  6
Continuous
 62
     7
370
    35
100
AcDbLine
 10
-28.8266843863
 20
3.0397629754
 30
0.0
 11
-28.7266843863
 21
2.9734073176
 31
0.0
  0
LINE
  5
153
330
1F
100
AcDbEntity
  8
Geo
  6
Continuous
 62
     7
370
    35
100
AcDbLine
 10
-28.7266843863
 20
2.9734073176
 30
0.0
 11
-28.6266843863
 21
2.9067964557
 31
0.0
  0
LINE
  5
154
330
1F
100
AcDbEntity
  8
Geo
  6
Continuous
 62
     7
370
    35
100
AcDbLine
 10
-28.6266843863
 20
2.9067964557
 30
0.0
 11
-28.5266843863
 21
2.8399640607
 31
0.0
  0
LINE
  5
155
330
1F
100
AcDbEntity
  8
Geo
  6
Continuous
 62
     7
370
    35
100
AcDbLine
 10
-28.5266843863
 20
2.8399640607
 30
0.0
 11
-28.4266843863
 21
2.7729439159
 31
0.0
  0
LINE
  5
156
330
1F
100
AcDbEntity
  8
Geo
  6
Continuous
 62
     7
370
    35
100
AcDbLine
 10
-28.4266843863
 20
2.7729439159
 30
0.0
 11
-28.3266843863
 21
2.7057698996
 31
0.0
  0
LINE
  5
157
330
1F
100
AcDbEntity
  8
Geo
  6
Continuous
 62
     7
370
    35
100
AcDbLine
 10
-28.3266843863
 20
2.7057698996
 30
0.0
 11
-28.2266843863
 21
2.6384759674
 31
0.0
  0
LINE
  5
158
330
1F
100
AcDbEntity
  8
Geo
  6
Continuous
 62
     7
370
    35
100
AcDbLine
 10
-28.2266843863
 20
2.6384759674
 30
0.0
 11
-28.1266843863
 21
2.5710961361
 31
0.0
  0
LINE
  5
159
330
1F
100
AcDbEntity
  8
Geo
  6
Continuous
 62
     7
370
    35
100
AcDbLine
 10
-28.1266843863
 20
2.5710961361
 30
0.0
 11
-28.0266843863
 21
2.5036644656
 31
0.0
  0
LINE
  5
15A
330
1F
100
AcDbEntity
  8
Geo
  6
Continuous
 62
     7
370
    35
100
AcDbLine
 10
-28.0266843863
 20
2.5036644656
 30
0.0
 11
-27.9266843863
 21
2.4362150419
 31
0.0
  0
LINE
  5
15B
330
1F
100
AcDbEntity
  8
Geo
  6
Continuous
 62
     7
370
    35
100
AcDbLine
 10
-27.9266843863
 20
2.4362150419
 30
0.0
 11
-27.8266843863
 21
2.3687819602
 31
0.0
  0
LINE
  5
15C
330
1F
100
AcDbEntity
  8
Geo
  6
Continuous
 62
     7
370
    35
100
AcDbLine
 10
-27.8266843863
 20
2.3687819602
 30
0.0
 11
-27.7266843863
 21
2.3013993075
 31
0.0
  0
LINE
  5
15D
330
1F
100
AcDbEntity
  8
Geo
  6
Continuous
 62
     7
370
    35
100
AcDbLine
 10
-27.7266843863
 20
2.3013993075
 30
0.0
 11
-27.6266843863
 21
2.234101145
 31
0.0
  0
LINE
  5
15E
330
1F
100
AcDbEntity
  8
Geo
  6
Continuous
 62
     7
370
    35
100
AcDbLine
 10
-27.6266843863
 20
2.234101145
 30
0.0
 11
-27.5266843863
 21
2.1669214914
 31
0.0
  0
LINE
  5
15F
330
1F
100
AcDbEntity
  8
Geo
  6
Continuous
 62
     7
370
    35
100
AcDbLine
 10
-27.5266843863
 20
2.1669214914
 30
0.0
 11
-27.4266843863
 21
2.0998943056
 31
0.0
  0
LINE
  5
160
330
1F
100
AcDbEntity
  8
Geo
  6
Continuous
 62
     7
370
    35
100
AcDbLine
 10
-27.4266843863
 20
2.0998943056
 30
0.0
 11
-27.3266843863
 21
2.0330534691
 31
0.0
  0
LINE
  5
161
330
1F
100
AcDbEntity
  8
Geo
  6
Continuous
 62
     7
370
    35
100
AcDbLine
 10
-27.3266843863
 20
2.0330534691
 30
0.0
 11
-27.2266843863
 21
1.9664327695
 31
0.0
  0
LINE
  5
162
330
1F
100
AcDbEntity
  8
Geo
  6
Continuous
 62
     7
370
    35
100
AcDbLine
 10
-27.2266843863
 20
1.9664327695
 30
0.0
 11
-27.1266843863
 21
1.900065883
 31
0.0
  0
LINE
  5
163
330
1F
100
AcDbEntity
  8
Geo
  6
Continuous
 62
     7
370
    35
100
AcDbLine
 10
-27.1266843863
 20
1.900065883
 30
0.0
 11
-27.0266843863
 21
1.8339863575
 31
0.0
  0
LINE
  5
164
330
1F
100
AcDbEntity
  8
Geo
  6
Continuous
 62
     7
370
    35
100
AcDbLine
 10
-27.0266843863
 20
1.8339863575
 30
0.0
 11
-26.9266843863
 21
1.7682275956
 31
0.0
  0
LINE
  5
165
330
1F
100
AcDbEntity
  8
Geo
  6
Continuous
 62
     7
370
    35
100
AcDbLine
 10
-26.9266843863
 20
1.7682275956
 30
0.0
 11
-26.8266843863
 21
1.702822838
 31
0.0
  0
LINE
  5
166
330
1F
100
AcDbEntity
  8
Geo
  6
Continuous
 62
     7
370
    35
100
AcDbLine
 10
-26.8266843863
 20
1.702822838
 30
0.0
 11
-26.7266843863
 21
1.637805146
 31
0.0
  0
LINE
  5
167
330
1F
100
AcDbEntity
  8
Geo
  6
Continuous
 62
     7
370
    35
100
AcDbLine
 10
-26.7266843863
 20
1.637805146
 30
0.0
 11
-26.6266843863
 21
1.5732073857
 31
0.0
  0
LINE
  5
168
330
1F
100
AcDbEntity
  8
Geo
  6
Continuous
 62
     7
370
    35
100
AcDbLine
 10
-26.6266843863
 20
1.5732073857
 30
0.0
 11
-26.5266843863
 21
1.5090622107
 31
0.0
  0
LINE
  5
169
330
1F
100
AcDbEntity
  8
Geo
  6
Continuous
 62
     7
370
    35
100
AcDbLine
 10
-26.5266843863
 20
1.5090622107
 30
0.0
 11
-26.4266843863
 21
1.4454020458
 31
0.0
  0
LINE
  5
16A
330
1F
100
AcDbEntity
  8
Geo
  6
Continuous
 62
     7
370
    35
100
AcDbLine
 10
-26.4266843863
 20
1.4454020458
 30
0.0
 11
-26.3266843863
 21
1.3822590707
 31
0.0
  0
LINE
  5
16B
330
1F
100
AcDbEntity
  8
Geo
  6
Continuous
 62
     7
370
    35
100
AcDbLine
 10
-26.3266843863
 20
1.3822590707
 30
0.0
 11
-26.2266843863
 21
1.3196652037
 31
0.0
  0
LINE
  5
16C
330
1F
100
AcDbEntity
  8
Geo
  6
Continuous
 62
     7
370
    35
100
AcDbLine
 10
-26.2266843863
 20
1.3196652037
 30
0.0
 11
-26.1266843863
 21
1.2576520854
 31
0.0
  0
LINE
  5
16D
330
1F
100
AcDbEntity
  8
Geo
  6
Continuous
 62
     7
370
    35
100
AcDbLine
 10
-26.1266843863
 20
1.2576520854
 30
0.0
 11
-26.0266843863
 21
1.1962510631
 31
0.0
  0
LINE
  5
16E
330
1F
100
AcDbEntity
  8
Geo
  6
Continuous
 62
     7
370
    35
100
AcDbLine
 10
-26.0266843863
 20
1.1962510631
 30
0.0
 11
-25.9266843863
 21
1.1354931743
 31
0.0
  0
LINE
  5
16F
330
1F
100
AcDbEntity
  8
Geo
  6
Continuous
 62
     7
370
    35
100
AcDbLine
 10
-25.9266843863
 20
1.1354931743
 30
0.0
 11
-25.8266843863
 21
1.0754091317
 31
0.0
  0
LINE
  5
170
330
1F
100
AcDbEntity
  8
Geo
  6
Continuous
 62
     7
370
    35
100
AcDbLine
 10
-25.8266843863
 20
1.0754091317
 30
0.0
 11
-25.7266843863
 21
1.0160293073
 31
0.0
  0
LINE
  5
171
330
1F
100
AcDbEntity
  8
Geo
  6
Continuous
 62
     7
370
    35
100
AcDbLine
 10
-25.7266843863
 20
1.0160293073
 30
0.0
 11
-25.6266843863
 21
0.9573837171
 31
0.0
  0
LINE
  5
172
330
1F
100
AcDbEntity
  8
Geo
  6
Continuous
 62
     7
370
    35
100
AcDbLine
 10
-25.6266843863
 20
0.9573837171
 30
0.0
 11
-25.5266843863
 21
0.8995020059
 31
0.0
  0
LINE
  5
173
330
1F
100
AcDbEntity
  8
Geo
  6
Continuous
 62
     7
370
    35
100
AcDbLine
 10
-25.5266843863
 20
0.8995020059
 30
0.0
 11
-25.4266843863
 21
0.8424134326
 31
0.0
  0
LINE
  5
174
330
1F
100
AcDbEntity
  8
Geo
  6
Continuous
 62
     7
370
    35
100
AcDbLine
 10
-25.4266843863
 20
0.8424134326
 30
0.0
 11
-25.3266843863
 21
0.7861468548
 31
0.0
  0
LINE
  5
175
330
1F
100
AcDbEntity
  8
Geo
  6
Continuous
 62
     7
370
    35
100
AcDbLine
 10
-25.3266843863
 20
0.7861468548
 30
0.0
 11
-25.2266843863
 21
0.7307307149
 31
0.0
  0
LINE
  5
176
330
1F
100
AcDbEntity
  8
Geo
  6
Continuous
 62
     7
370
    35
100
AcDbLine
 10
-25.2266843863
 20
0.7307307149
 30
0.0
 11
-25.1266843863
 21
0.6761930253
 31
0.0
  0
LINE
  5
177
330
1F
100
AcDbEntity
  8
Geo
  6
Continuous
 62
     7
370
    35
100
AcDbLine
 10
-25.1266843863
 20
0.6761930253
 30
0.0
 11
-25.0266843863
 21
0.6225613543
 31
0.0
  0
LINE
  5
178
330
1F
100
AcDbEntity
  8
Geo
  6
Continuous
 62
     7
370
    35
100
AcDbLine
 10
-25.0266843863
 20
0.6225613543
 30
0.0
 11
-24.9266843863
 21
0.5698628123
 31
0.0
  0
LINE
  5
179
330
1F
100
AcDbEntity
  8
Geo
  6
Continuous
 62
     7
370
    35
100
AcDbLine
 10
-24.9266843863
 20
0.5698628123
 30
0.0
 11
-24.8266843863
 21
0.518124038
 31
0.0
  0
LINE
  5
17A
330
1F
100
AcDbEntity
  8
Geo
  6
Continuous
 62
     7
370
    35
100
AcDbLine
 10
-24.8266843863
 20
0.518124038
 30
0.0
 11
-24.7266843863
 21
0.4673711849
 31
0.0
  0
LINE
  5
17B
330
1F
100
AcDbEntity
  8
Geo
  6
Continuous
 62
     7
370
    35
100
AcDbLine
 10
-24.7266843863
 20
0.4673711849
 30
0.0
 11
-24.6266843863
 21
0.4176299082
 31
0.0
  0
LINE
  5
17C
330
1F
100
AcDbEntity
  8
Geo
  6
Continuous
 62
     7
370
    35
100
AcDbLine
 10
-24.6266843863
 20
0.4176299082
 30
0.0
 11
-24.5266843863
 21
0.3689253516
 31
0.0
  0
LINE
  5
17D
330
1F
100
AcDbEntity
  8
Geo
  6
Continuous
 62
     7
370
    35
100
AcDbLine
 10
-24.5266843863
 20
0.3689253516
 30
0.0
 11
-24.4266843863
 21
0.3212821349
 31
0.0
  0
LINE
  5
17E
330
1F
100
AcDbEntity
  8
Geo
  6
Continuous
 62
     7
370
    35
100
AcDbLine
 10
-24.4266843863
 20
0.3212821349
 30
0.0
 11
-24.3266843863
 21
0.2747243414
 31
0.0
  0
LINE
  5
17F
330
1F
100
AcDbEntity
  8
Geo
  6
Continuous
 62
     7
370
    35
100
AcDbLine
 10
-24.3266843863
 20
0.2747243414
 30
0.0
 11
-24.2266843863
 21
0.2292755056
 31
0.0
  0
LINE
  5
180
330
1F
100
AcDbEntity
  8
Geo
  6
Continuous
 62
     7
370
    35
100
AcDbLine
 10
-24.2266843863
 20
0.2292755056
 30
0.0
 11
-24.1266843863
 21
0.1849586015
 31
0.0
  0
LINE
  5
181
330
1F
100
AcDbEntity
  8
Geo
  6
Continuous
 62
     7
370
    35
100
AcDbLine
 10
-24.1266843863
 20
0.1849586015
 30
0.0
 11
-24.0266843863
 21
0.1417960311
 31
0.0
  0
LINE
  5
182
330
1F
100
AcDbEntity
  8
Geo
  6
Continuous
 62
     7
370
    35
100
AcDbLine
 10
-24.0266843863
 20
0.1417960311
 30
0.0
 11
-23.9266843863
 21
0.0998096125
 31
0.0
  0
LINE
  5
183
330
1F
100
AcDbEntity
  8
Geo
  6
Continuous
 62
     7
370
    35
100
AcDbLine
 10
-23.9266843863
 20
0.0998096125
 30
0.0
 11
-23.8266843863
 21
0.0590205697
 31
0.0
  0
LINE
  5
184
330
1F
100
AcDbEntity
  8
Geo
  6
Continuous
 62
     7
370
    35
100
AcDbLine
 10
-23.8266843863
 20
0.0590205697
 30
0.0
 11
-23.7266843863
 21
0.0194495211
 31
0.0
  0
LINE
  5
185
330
1F
100
AcDbEntity
  8
Geo
  6
Continuous
 62
     7
370
    35
100
AcDbLine
 10
-23.7266843863
 20
0.0194495211
 30
0.0
 11
-23.6266843863
 21
-0.0188835305
 31
0.0
  0
LINE
  5
186
330
1F
100
AcDbEntity
  8
Geo
  6
Continuous
 62
     7
370
    35
100
AcDbLine
 10
-23.6266843863
 20
-0.0188835305
 30
0.0
 11
-23.5927741223
 21
-0.0314559906
 31
0.0
  0
POINT
  5
187
330
1F
100
AcDbEntity
  8
Geo
  6
Continuous
 62
     7
370
    35
100
AcDbPoint
 10
-29.9266843863
 20
1.6161813878
 30
0.0
  0
LINE
  5
188
330
1F
100
AcDbEntity
  8
Geo
  6
Continuous
 62
     7
370
    35
100
AcDbLine
 10
-29.9266843863
 20
1.6161813878
 30
0.0
 11
-29.9266843863
 21
1.5987862323
 31
0.0
  0
LINE
  5
189
330
1F
100
AcDbEntity
  8
Geo
  6
Continuous
 62
     7
370
    35
100
AcDbLine
 10
-29.9266843863
 20
1.5987862323
 30
0.0
 11
-29.8266843863
 21
1.5344575863
 31
0.0
  0
LINE
  5
18A
330
1F
100
AcDbEntity
  8
Geo
  6
Continuous
 62
     7
370
    35
100
AcDbLine
 10
-29.8266843863
 20
1.5344575863
 30
0.0
 11
-29.7266843863
 21
1.4706011133
 31
0.0
  0
LINE
  5
18B
330
1F
100
AcDbEntity
  8
Geo
  6
Continuous
 62
     7
370
    35
100
AcDbLine
 10
-29.7266843863
 20
1.4706011133
 30
0.0
 11
-29.6266843863
 21
1.4072490922
 31
0.0
  0
LINE
  5
18C
330
1F
100
AcDbEntity
  8
Geo
  6
Continuous
 62
     7
370
    35
100
AcDbLine
 10
-29.6266843863
 20
1.4072490922
 30
0.0
 11
-29.5266843863
 21
1.3444335469
 31
0.0
  0
LINE
  5
18D
330
1F
100
AcDbEntity
  8
Geo
  6
Continuous
 62
     7
370
    35
100
AcDbLine
 10
-29.5266843863
 20
1.3444335469
 30
0.0
 11
-29.4266843863
 21
1.2821862302
 31
0.0
  0
LINE
  5
18E
330
1F
100
AcDbEntity
  8
Geo
  6
Continuous
 62
     7
370
    35
100
AcDbLine
 10
-29.4266843863
 20
1.2821862302
 30
0.0
 11
-29.3266843863
 21
1.2205386076
 31
0.0
  0
LINE
  5
18F
330
1F
100
AcDbEntity
  8
Geo
  6
Continuous
 62
     7
370
    35
100
AcDbLine
 10
-29.3266843863
 20
1.2205386076
 30
0.0
 11
-29.2266843863
 21
1.1595218413
 31
0.0
  0
LINE
  5
190
330
1F
100
AcDbEntity
  8
Geo
  6
Continuous
 62
     7
370
    35
100
AcDbLine
 10
-29.2266843863
 20
1.1595218413
 30
0.0
 11
-29.1266843863
 21
1.099166775
 31
0.0
  0
LINE
  5
191
330
1F
100
AcDbEntity
  8
Geo
  6
Continuous
 62
     7
370
    35
100
AcDbLine
 10
-29.1266843863
 20
1.099166775
 30
0.0
 11
-29.0266843863
 21
1.0395039176
 31
0.0
  0
LINE
  5
192
330
1F
100
AcDbEntity
  8
Geo
  6
Continuous
 62
     7
370
    35
100
AcDbLine
 10
-29.0266843863
 20
1.0395039176
 30
0.0
 11
-28.9266843863
 21
0.9805634282
 31
0.0
  0
LINE
  5
193
330
1F
100
AcDbEntity
  8
Geo
  6
Continuous
 62
     7
370
    35
100
AcDbLine
 10
-28.9266843863
 20
0.9805634282
 30
0.0
 11
-28.8266843863
 21
0.9223751007
 31
0.0
  0
LINE
  5
194
330
1F
100
AcDbEntity
  8
Geo
  6
Continuous
 62
     7
370
    35
100
AcDbLine
 10
-28.8266843863
 20
0.9223751007
 30
0.0
 11
-28.7266843863
 21
0.8649683488
 31
0.0
  0
LINE
  5
195
330
1F
100
AcDbEntity
  8
Geo
  6
Continuous
 62
     7
370
    35
100
AcDbLine
 10
-28.7266843863
 20
0.8649683488
 30
0.0
 11
-28.6266843863
 21
0.8083721911
 31
0.0
  0
LINE
  5
196
330
1F
100
AcDbEntity
  8
Geo
  6
Continuous
 62
     7
370
    35
100
AcDbLine
 10
-28.6266843863
 20
0.8083721911
 30
0.0
 11
-28.5266843863
 21
0.7526152366
 31
0.0
  0
LINE
  5
197
330
1F
100
AcDbEntity
  8
Geo
  6
Continuous
 62
     7
370
    35
100
AcDbLine
 10
-28.5266843863
 20
0.7526152366
 30
0.0
 11
-28.4266843863
 21
0.69772567
 31
0.0
  0
LINE
  5
198
330
1F
100
AcDbEntity
  8
Geo
  6
Continuous
 62
     7
370
    35
100
AcDbLine
 10
-28.4266843863
 20
0.69772567
 30
0.0
 11
-28.3266843863
 21
0.6437312374
 31
0.0
  0
LINE
  5
199
330
1F
100
AcDbEntity
  8
Geo
  6
Continuous
 62
     7
370
    35
100
AcDbLine
 10
-28.3266843863
 20
0.6437312374
 30
0.0
 11
-28.2266843863
 21
0.5906592326
 31
0.0
  0
LINE
  5
19A
330
1F
100
AcDbEntity
  8
Geo
  6
Continuous
 62
     7
370
    35
100
AcDbLine
 10
-28.2266843863
 20
0.5906592326
 30
0.0
 11
-28.1266843863
 21
0.5385364831
 31
0.0
  0
LINE
  5
19B
330
1F
100
AcDbEntity
  8
Geo
  6
Continuous
 62
     7
370
    35
100
AcDbLine
 10
-28.1266843863
 20
0.5385364831
 30
0.0
 11
-28.0266843863
 21
0.4873893364
 31
0.0
  0
LINE
  5
19C
330
1F
100
AcDbEntity
  8
Geo
  6
Continuous
 62
     7
370
    35
100
AcDbLine
 10
-28.0266843863
 20
0.4873893364
 30
0.0
 11
-27.9266843863
 21
0.4372436471
 31
0.0
  0
LINE
  5
19D
330
1F
100
AcDbEntity
  8
Geo
  6
Continuous
 62
     7
370
    35
100
AcDbLine
 10
-27.9266843863
 20
0.4372436471
 30
0.0
 11
-27.8266843863
 21
0.3881247634
 31
0.0
  0
LINE
  5
19E
330
1F
100
AcDbEntity
  8
Geo
  6
Continuous
 62
     7
370
    35
100
AcDbLine
 10
-27.8266843863
 20
0.3881247634
 30
0.0
 11
-27.7266843863
 21
0.3400575144
 31
0.0
  0
LINE
  5
19F
330
1F
100
AcDbEntity
  8
Geo
  6
Continuous
 62
     7
370
    35
100
AcDbLine
 10
-27.7266843863
 20
0.3400575144
 30
0.0
 11
-27.6266843863
 21
0.2930661978
 31
0.0
  0
LINE
  5
1A0
330
1F
100
AcDbEntity
  8
Geo
  6
Continuous
 62
     7
370
    35
100
AcDbLine
 10
-27.6266843863
 20
0.2930661978
 30
0.0
 11
-27.5266843863
 21
0.2471745672
 31
0.0
  0
LINE
  5
1A1
330
1F
100
AcDbEntity
  8
Geo
  6
Continuous
 62
     7
370
    35
100
AcDbLine
 10
-27.5266843863
 20
0.2471745672
 30
0.0
 11
-27.4266843863
 21
0.2024058206
 31
0.0
  0
LINE
  5
1A2
330
1F
100
AcDbEntity
  8
Geo
  6
Continuous
 62
     7
370
    35
100
AcDbLine
 10
-27.4266843863
 20
0.2024058206
 30
0.0
 11
-27.3266843863
 21
0.1587825882
 31
0.0
  0
LINE
  5
1A3
330
1F
100
AcDbEntity
  8
Geo
  6
Continuous
 62
     7
370
    35
100
AcDbLine
 10
-27.3266843863
 20
0.1587825882
 30
0.0
 11
-27.2266843863
 21
0.1163269211
 31
0.0
  0
LINE
  5
1A4
330
1F
100
AcDbEntity
  8
Geo
  6
Continuous
 62
     7
370
    35
100
AcDbLine
 10
-27.2266843863
 20
0.1163269211
 30
0.0
 11
-27.1266843863
 21
0.0750602803
 31
0.0
  0
LINE
  5
1A5
330
1F
100
AcDbEntity
  8
Geo
  6
Continuous
 62
     7
370
    35
100
AcDbLine
 10
-27.1266843863
 20
0.0750602803
 30
0.0
 11
-27.0266843863
 21
0.0350035258
 31
0.0
  0
LINE
  5
1A6
330
1F
100
AcDbEntity
  8
Geo
  6
Continuous
 62
     7
370
    35
100
AcDbLine
 10
-27.0266843863
 20
0.0350035258
 30
0.0
 11
-26.9266843863
 21
-0.0038230941
 31
0.0
  0
LINE
  5
1A7
330
1F
100
AcDbEntity
  8
Geo
  6
Continuous
 62
     7
370
    35
100
AcDbLine
 10
-26.9266843863
 20
-0.0038230941
 30
0.0
 11
-26.8531473811
 21
-0.0314559906
 31
0.0
  0
LINE
  5
1A8
330
1F
100
AcDbEntity
  8
Geo
  6
Continuous
 62
     7
370
    35
100
AcDbLine
 10
-18.3836825818
 20
4.9685440094
 30
0.0
 11
-18.3266843863
 21
4.9472453634
 31
0.0
  0
LINE
  5
1A9
330
1F
100
AcDbEntity
  8
Geo
  6
Continuous
 62
     7
370
    35
100
AcDbLine
 10
-18.3266843863
 20
4.9472453634
 30
0.0
 11
-18.2266843863
 21
4.9086251718
 31
0.0
  0
LINE
  5
1AA
330
1F
100
AcDbEntity
  8
Geo
  6
Continuous
 62
     7
370
    35
100
AcDbLine
 10
-18.2266843863
 20
4.9086251718
 30
0.0
 11
-18.1266843863
 21
4.8687715393
 31
0.0
  0
LINE
  5
1AB
330
1F
100
AcDbEntity
  8
Geo
  6
Continuous
 62
     7
370
    35
100
AcDbLine
 10
-18.1266843863
 20
4.8687715393
 30
0.0
 11
-18.0266843863
 21
4.8277046115
 31
0.0
  0
LINE
  5
1AC
330
1F
100
AcDbEntity
  8
Geo
  6
Continuous
 62
     7
370
    35
100
AcDbLine
 10
-18.0266843863
 20
4.8277046115
 30
0.0
 11
-17.9266843863
 21
4.7854451476
 31
0.0
  0
LINE
  5
1AD
330
1F
100
AcDbEntity
  8
Geo
  6
Continuous
 62
     7
370
    35
100
AcDbLine
 10
-17.9266843863
 20
4.7854451476
 30
0.0
 11
-17.8266843863
 21
4.7420145093
 31
0.0
  0
LINE
  5
1AE
330
1F
100
AcDbEntity
  8
Geo
  6
Continuous
 62
     7
370
    35
100
AcDbLine
 10
-17.8266843863
 20
4.7420145093
 30
0.0
 11
-17.7266843863
 21
4.6974346503
 31
0.0
  0
LINE
  5
1AF
330
1F
100
AcDbEntity
  8
Geo
  6
Continuous
 62
     7
370
    35
100
AcDbLine
 10
-17.7266843863
 20
4.6974346503
 30
0.0
 11
-17.6266843863
 21
4.6517281056
 31
0.0
  0
LINE
  5
1B0
330
1F
100
AcDbEntity
  8
Geo
  6
Continuous
 62
     7
370
    35
100
AcDbLine
 10
-17.6266843863
 20
4.6517281056
 30
0.0
 11
-17.5266843863
 21
4.6049179793
 31
0.0
  0
LINE
  5
1B1
330
1F
100
AcDbEntity
  8
Geo
  6
Continuous
 62
     7
370
    35
100
AcDbLine
 10
-17.5266843863
 20
4.6049179793
 30
0.0
 11
-17.4266843863
 21
4.5570279336
 31
0.0
  0
LINE
  5
1B2
330
1F
100
AcDbEntity
  8
Geo
  6
Continuous
 62
     7
370
    35
100
AcDbLine
 10
-17.4266843863
 20
4.5570279336
 30
0.0
 11
-17.3266843863
 21
4.5080821764
 31
0.0
  0
LINE
  5
1B3
330
1F
100
AcDbEntity
  8
Geo
  6
Continuous
 62
     7
370
    35
100
AcDbLine
 10
-17.3266843863
 20
4.5080821764
 30
0.0
 11
-17.2266843863
 21
4.4581054496
 31
0.0
  0
LINE
  5
1B4
330
1F
100
AcDbEntity
  8
Geo
  6
Continuous
 62
     7
370
    35
100
AcDbLine
 10
-17.2266843863
 20
4.4581054496
 30
0.0
 11
-17.1266843863
 21
4.4071230159
 31
0.0
  0
LINE
  5
1B5
330
1F
100
AcDbEntity
  8
Geo
  6
Continuous
 62
     7
370
    35
100
AcDbLine
 10
-17.1266843863
 20
4.4071230159
 30
0.0
 11
-17.0266843863
 21
4.3551606465
 31
0.0
  0
LINE
  5
1B6
330
1F
100
AcDbEntity
  8
Geo
  6
Continuous
 62
     7
370
    35
100
AcDbLine
 10
-17.0266843863
 20
4.3551606465
 30
0.0
 11
-16.9266843863
 21
4.302244608
 31
0.0
  0
POINT
  5
1B7
330
1F
100
AcDbEntity
  8
Geo
  6
Continuous
 62
     7
370
    35
100
AcDbPoint
 10
-16.9266843863
 20
4.302244608
 30
0.0
  0
POINT
  5
1B8
330
1F
100
AcDbEntity
  8
Geo
  6
Continuous
 62
     7
370
    35
100
AcDbPoint
 10
-16.9266843863
 20
4.302244608
 30
0.0
  0
LINE
  5
1B9
330
1F
100
AcDbEntity
  8
Geo
  6
Continuous
 62
     7
370
    35
100
AcDbLine
 10
-16.9266843863
 20
4.302244608
 30
0.0
 11
-16.8266843863
 21
4.2646445813
 31
0.0
  0
LINE
  5
1BA
330
1F
100
AcDbEntity
  8
Geo
  6
Continuous
 62
     7
370
    35
100
AcDbLine
 10
-16.8266843863
 20
4.2646445813
 30
0.0
 11
-16.7266843863
 21
4.2221837163
 31
0.0
  0
LINE
  5
1BB
330
1F
100
AcDbEntity
  8
Geo
  6
Continuous
 62
     7
370
    35
100
AcDbLine
 10
-16.7266843863
 20
4.2221837163
 30
0.0
 11
-16.6266843863
 21
4.1747056238
 31
0.0
  0
LINE
  5
1BC
330
1F
100
AcDbEntity
  8
Geo
  6
Continuous
 62
     7
370
    35
100
AcDbLine
 10
-16.6266843863
 20
4.1747056238
 30
0.0
 11
-16.5266843863
 21
4.1220458695
 31
0.0
  0
LINE
  5
1BD
330
1F
100
AcDbEntity
  8
Geo
  6
Continuous
 62
     7
370
    35
100
AcDbLine
 10
-16.5266843863
 20
4.1220458695
 30
0.0
 11
-16.4266843863
 21
4.0640345451
 31
0.0
  0
LINE
  5
1BE
330
1F
100
AcDbEntity
  8
Geo
  6
Continuous
 62
     7
370
    35
100
AcDbLine
 10
-16.4266843863
 20
4.0640345451
 30
0.0
 11
-16.3266843863
 21
4.0004991537
 31
0.0
  0
LINE
  5
1BF
330
1F
100
AcDbEntity
  8
Geo
  6
Continuous
 62
     7
370
    35
100
AcDbLine
 10
-16.3266843863
 20
4.0004991537
 30
0.0
 11
-16.2266843863
 21
3.9312678225
 31
0.0
  0
LINE
  5
1C0
330
1F
100
AcDbEntity
  8
Geo
  6
Continuous
 62
     7
370
    35
100
AcDbLine
 10
-16.2266843863
 20
3.9312678225
 30
0.0
 11
-16.1266843863
 21
3.8561728552
 31
0.0
  0
LINE
  5
1C1
330
1F
100
AcDbEntity
  8
Geo
  6
Continuous
 62
     7
370
    35
100
AcDbLine
 10
-16.1266843863
 20
3.8561728552
 30
0.0
 11
-16.0266843863
 21
3.7750546344
 31
0.0
  0
LINE
  5
1C2
330
1F
100
AcDbEntity
  8
Geo
  6
Continuous
 62
     7
370
    35
100
AcDbLine
 10
-16.0266843863
 20
3.7750546344
 30
0.0
 11
-15.9266843863
 21
3.6877658807
 31
0.0
  0
LINE
  5
1C3
330
1F
100
AcDbEntity
  8
Geo
  6
Continuous
 62
     7
370
    35
100
AcDbLine
 10
-15.9266843863
 20
3.6877658807
 30
0.0
 11
-15.8266843863
 21
3.5941762726
 31
0.0
  0
LINE
  5
1C4
330
1F
100
AcDbEntity
  8
Geo
  6
Continuous
 62
     7
370
    35
100
AcDbLine
 10
-15.8266843863
 20
3.5941762726
 30
0.0
 11
-15.7266843863
 21
3.494177424
 31
0.0
  0
LINE
  5
1C5
330
1F
100
AcDbEntity
  8
Geo
  6
Continuous
 62
     7
370
    35
100
AcDbLine
 10
-15.7266843863
 20
3.494177424
 30
0.0
 11
-15.6266843863
 21
3.3876882134
 31
0.0
  0
LINE
  5
1C6
330
1F
100
AcDbEntity
  8
Geo
  6
Continuous
 62
     7
370
    35
100
AcDbLine
 10
-15.6266843863
 20
3.3876882134
 30
0.0
 11
-15.5266843863
 21
3.2746604496
 31
0.0
  0
LINE
  5
1C7
330
1F
100
AcDbEntity
  8
Geo
  6
Continuous
 62
     7
370
    35
100
AcDbLine
 10
-15.5266843863
 20
3.2746604496
 30
0.0
 11
-15.4266843863
 21
3.155084851
 31
0.0
  0
LINE
  5
1C8
330
1F
100
AcDbEntity
  8
Geo
  6
Continuous
 62
     7
370
    35
100
AcDbLine
 10
-15.4266843863
 20
3.155084851
 30
0.0
 11
-15.3266843863
 21
3.0289973084
 31
0.0
  0
LINE
  5
1C9
330
1F
100
AcDbEntity
  8
Geo
  6
Continuous
 62
     7
370
    35
100
AcDbLine
 10
-15.3266843863
 20
3.0289973084
 30
0.0
 11
-15.2266843863
 21
2.8964853867
 31
0.0
  0
LINE
  5
1CA
330
1F
100
AcDbEntity
  8
Geo
  6
Continuous
 62
     7
370
    35
100
AcDbLine
 10
-15.2266843863
 20
2.8964853867
 30
0.0
 11
-15.1266843863
 21
2.7576950136
 31
0.0
  0
LINE
  5
1CB
330
1F
100
AcDbEntity
  8
Geo
  6
Continuous
 62
     7
370
    35
100
AcDbLine
 10
-15.1266843863
 20
2.7576950136
 30
0.0
 11
-15.0266843863
 21
2.6128372876
 31
0.0
  0
LINE
  5
1CC
330
1F
100
AcDbEntity
  8
Geo
  6
Continuous
 62
     7
370
    35
100
AcDbLine
 10
-15.0266843863
 20
2.6128372876
 30
0.0
 11
-14.9266843863
 21
2.4621953246
 31
0.0
  0
POINT
  5
1CD
330
1F
100
AcDbEntity
  8
Geo
  6
Continuous
 62
     7
370
    35
100
AcDbPoint
 10
-14.9266843863
 20
2.4621953246
 30
0.0
  0
LINE
  5
1CE
330
1F
100
AcDbEntity
  8
Geo
  6
Continuous
 62
     7
370
    35
100
AcDbLine
 10
-21.6438308472
 20
4.9685440094
 30
0.0
 11
-21.6266843863
 21
4.9622229998
 31
0.0
  0
LINE
  5
1CF
330
1F
100
AcDbEntity
  8
Geo
  6
Continuous
 62
     7
370
    35
100
AcDbLine
 10
-21.6266843863
 20
4.9622229998
 30
0.0
 11
-21.5266843863
 21
4.9240976595
 31
0.0
  0
LINE
  5
1D0
330
1F
100
AcDbEntity
  8
Geo
  6
Continuous
 62
     7
370
    35
100
AcDbLine
 10
-21.5266843863
 20
4.9240976595
 30
0.0
 11
-21.4266843863
 21
4.8847310571
 31
0.0
  0
LINE
  5
1D1
330
1F
100
AcDbEntity
  8
Geo
  6
Continuous
 62
     7
370
    35
100
AcDbLine
 10
-21.4266843863
 20
4.8847310571
 30
0.0
 11
-21.3266843863
 21
4.8441430921
 31
0.0
  0
LINE
  5
1D2
330
1F
100
AcDbEntity
  8
Geo
  6
Continuous
 62
     7
370
    35
100
AcDbLine
 10
-21.3266843863
 20
4.8441430921
 30
0.0
 11
-21.2266843863
 21
4.8023542813
 31
0.0
  0
LINE
  5
1D3
330
1F
100
AcDbEntity
  8
Geo
  6
Continuous
 62
     7
370
    35
100
AcDbLine
 10
-21.2266843863
 20
4.8023542813
 30
0.0
 11
-21.1266843863
 21
4.7593857487
 31
0.0
  0
LINE
  5
1D4
330
1F
100
AcDbEntity
  8
Geo
  6
Continuous
 62
     7
370
    35
100
AcDbLine
 10
-21.1266843863
 20
4.7593857487
 30
0.0
 11
-21.0266843863
 21
4.7152592146
 31
0.0
  0
LINE
  5
1D5
330
1F
100
AcDbEntity
  8
Geo
  6
Continuous
 62
     7
370
    35
100
AcDbLine
 10
-21.0266843863
 20
4.7152592146
 30
0.0
 11
-20.9266843863
 21
4.6699969844
 31
0.0
  0
LINE
  5
1D6
330
1F
100
AcDbEntity
  8
Geo
  6
Continuous
 62
     7
370
    35
100
AcDbLine
 10
-20.9266843863
 20
4.6699969844
 30
0.0
 11
-20.8266843863
 21
4.6236219379
 31
0.0
  0
LINE
  5
1D7
330
1F
100
AcDbEntity
  8
Geo
  6
Continuous
 62
     7
370
    35
100
AcDbLine
 10
-20.8266843863
 20
4.6236219379
 30
0.0
 11
-20.7266843863
 21
4.5761575173
 31
0.0
  0
LINE
  5
1D8
330
1F
100
AcDbEntity
  8
Geo
  6
Continuous
 62
     7
370
    35
100
AcDbLine
 10
-20.7266843863
 20
4.5761575173
 30
0.0
 11
-20.6266843863
 21
4.5276277154
 31
0.0
  0
LINE
  5
1D9
330
1F
100
AcDbEntity
  8
Geo
  6
Continuous
 62
     7
370
    35
100
AcDbLine
 10
-20.6266843863
 20
4.5276277154
 30
0.0
 11
-20.5266843863
 21
4.4780570638
 31
0.0
  0
LINE
  5
1DA
330
1F
100
AcDbEntity
  8
Geo
  6
Continuous
 62
     7
370
    35
100
AcDbLine
 10
-20.5266843863
 20
4.4780570638
 30
0.0
 11
-20.4266843863
 21
4.4274706198
 31
0.0
  0
LINE
  5
1DB
330
1F
100
AcDbEntity
  8
Geo
  6
Continuous
 62
     7
370
    35
100
AcDbLine
 10
-20.4266843863
 20
4.4274706198
 30
0.0
 11
-20.3266843863
 21
4.3758939547
 31
0.0
  0
LINE
  5
1DC
330
1F
100
AcDbEntity
  8
Geo
  6
Continuous
 62
     7
370
    35
100
AcDbLine
 10
-20.3266843863
 20
4.3758939547
 30
0.0
 11
-20.2266843863
 21
4.3233531398
 31
0.0
  0
LINE
  5
1DD
330
1F
100
AcDbEntity
  8
Geo
  6
Continuous
 62
     7
370
    35
100
AcDbLine
 10
-20.2266843863
 20
4.3233531398
 30
0.0
 11
-20.1266843863
 21
4.2698747343
 31
0.0
  0
LINE
  5
1DE
330
1F
100
AcDbEntity
  8
Geo
  6
Continuous
 62
     7
370
    35
100
AcDbLine
 10
-20.1266843863
 20
4.2698747343
 30
0.0
 11
-20.0266843863
 21
4.2154857709
 31
0.0
  0
LINE
  5
1DF
330
1F
100
AcDbEntity
  8
Geo
  6
Continuous
 62
     7
370
    35
100
AcDbLine
 10
-20.0266843863
 20
4.2154857709
 30
0.0
 11
-19.9266843863
 21
4.1602137429
 31
0.0
  0
LINE
  5
1E0
330
1F
100
AcDbEntity
  8
Geo
  6
Continuous
 62
     7
370
    35
100
AcDbLine
 10
-19.9266843863
 20
4.1602137429
 30
0.0
 11
-19.8266843863
 21
4.1040865898
 31
0.0
  0
LINE
  5
1E1
330
1F
100
AcDbEntity
  8
Geo
  6
Continuous
 62
     7
370
    35
100
AcDbLine
 10
-19.8266843863
 20
4.1040865898
 30
0.0
 11
-19.7266843863
 21
4.0471326835
 31
0.0
  0
LINE
  5
1E2
330
1F
100
AcDbEntity
  8
Geo
  6
Continuous
 62
     7
370
    35
100
AcDbLine
 10
-19.7266843863
 20
4.0471326835
 30
0.0
 11
-19.6266843863
 21
3.9893808135
 31
0.0
  0
LINE
  5
1E3
330
1F
100
AcDbEntity
  8
Geo
  6
Continuous
 62
     7
370
    35
100
AcDbLine
 10
-19.6266843863
 20
3.9893808135
 30
0.0
 11
-19.5266843863
 21
3.9308601732
 31
0.0
  0
LINE
  5
1E4
330
1F
100
AcDbEntity
  8
Geo
  6
Continuous
 62
     7
370
    35
100
AcDbLine
 10
-19.5266843863
 20
3.9308601732
 30
0.0
 11
-19.4266843863
 21
3.871600344
 31
0.0
  0
LINE
  5
1E5
330
1F
100
AcDbEntity
  8
Geo
  6
Continuous
 62
     7
370
    35
100
AcDbLine
 10
-19.4266843863
 20
3.871600344
 30
0.0
 11
-19.3266843863
 21
3.8116312815
 31
0.0
  0
LINE
  5
1E6
330
1F
100
AcDbEntity
  8
Geo
  6
Continuous
 62
     7
370
    35
100
AcDbLine
 10
-19.3266843863
 20
3.8116312815
 30
0.0
 11
-19.2266843863
 21
3.7509832994
 31
0.0
  0
LINE
  5
1E7
330
1F
100
AcDbEntity
  8
Geo
  6
Continuous
 62
     7
370
    35
100
AcDbLine
 10
-19.2266843863
 20
3.7509832994
 30
0.0
 11
-19.1266843863
 21
3.6896870549
 31
0.0
  0
LINE
  5
1E8
330
1F
100
AcDbEntity
  8
Geo
  6
Continuous
 62
     7
370
    35
100
AcDbLine
 10
-19.1266843863
 20
3.6896870549
 30
0.0
 11
-19.0266843863
 21
3.6277735326
 31
0.0
  0
LINE
  5
1E9
330
1F
100
AcDbEntity
  8
Geo
  6
Continuous
 62
     7
370
    35
100
AcDbLine
 10
-19.0266843863
 20
3.6277735326
 30
0.0
 11
-18.9266843863
 21
3.5652740293
 31
0.0
  0
LINE
  5
1EA
330
1F
100
AcDbEntity
  8
Geo
  6
Continuous
 62
     7
370
    35
100
AcDbLine
 10
-18.9266843863
 20
3.5652740293
 30
0.0
 11
-18.8266843863
 21
3.5022201381
 31
0.0
  0
LINE
  5
1EB
330
1F
100
AcDbEntity
  8
Geo
  6
Continuous
 62
     7
370
    35
100
AcDbLine
 10
-18.8266843863
 20
3.5022201381
 30
0.0
 11
-18.7266843863
 21
3.4386437321
 31
0.0
  0
LINE
  5
1EC
330
1F
100
AcDbEntity
  8
Geo
  6
Continuous
 62
     7
370
    35
100
AcDbLine
 10
-18.7266843863
 20
3.4386437321
 30
0.0
 11
-18.6266843863
 21
3.3745769488
 31
0.0
  0
LINE
  5
1ED
330
1F
100
AcDbEntity
  8
Geo
  6
Continuous
 62
     7
370
    35
100
AcDbLine
 10
-18.6266843863
 20
3.3745769488
 30
0.0
 11
-18.5266843863
 21
3.3100521732
 31
0.0
  0
LINE
  5
1EE
330
1F
100
AcDbEntity
  8
Geo
  6
Continuous
 62
     7
370
    35
100
AcDbLine
 10
-18.5266843863
 20
3.3100521732
 30
0.0
 11
-18.4266843863
 21
3.2451020222
 31
0.0
  0
LINE
  5
1EF
330
1F
100
AcDbEntity
  8
Geo
  6
Continuous
 62
     7
370
    35
100
AcDbLine
 10
-18.4266843863
 20
3.2451020222
 30
0.0
 11
-18.3266843863
 21
3.1797593276
 31
0.0
  0
LINE
  5
1F0
330
1F
100
AcDbEntity
  8
Geo
  6
Continuous
 62
     7
370
    35
100
AcDbLine
 10
-18.3266843863
 20
3.1797593276
 30
0.0
 11
-18.2266843863
 21
3.1140571195
 31
0.0
  0
LINE
  5
1F1
330
1F
100
AcDbEntity
  8
Geo
  6
Continuous
 62
     7
370
    35
100
AcDbLine
 10
-18.2266843863
 20
3.1140571195
 30
0.0
 11
-18.1266843863
 21
3.0480286098
 31
0.0
  0
LINE
  5
1F2
330
1F
100
AcDbEntity
  8
Geo
  6
Continuous
 62
     7
370
    35
100
AcDbLine
 10
-18.1266843863
 20
3.0480286098
 30
0.0
 11
-18.0266843863
 21
2.9817071754
 31
0.0
  0
LINE
  5
1F3
330
1F
100
AcDbEntity
  8
Geo
  6
Continuous
 62
     7
370
    35
100
AcDbLine
 10
-18.0266843863
 20
2.9817071754
 30
0.0
 11
-17.9266843863
 21
2.9151263413
 31
0.0
  0
LINE
  5
1F4
330
1F
100
AcDbEntity
  8
Geo
  6
Continuous
 62
     7
370
    35
100
AcDbLine
 10
-17.9266843863
 20
2.9151263413
 30
0.0
 11
-17.8266843863
 21
2.8483197635
 31
0.0
  0
LINE
  5
1F5
330
1F
100
AcDbEntity
  8
Geo
  6
Continuous
 62
     7
370
    35
100
AcDbLine
 10
-17.8266843863
 20
2.8483197635
 30
0.0
 11
-17.7266843863
 21
2.7813212122
 31
0.0
  0
LINE
  5
1F6
330
1F
100
AcDbEntity
  8
Geo
  6
Continuous
 62
     7
370
    35
100
AcDbLine
 10
-17.7266843863
 20
2.7813212122
 30
0.0
 11
-17.6266843863
 21
2.7141645546
 31
0.0
  0
LINE
  5
1F7
330
1F
100
AcDbEntity
  8
Geo
  6
Continuous
 62
     7
370
    35
100
AcDbLine
 10
-17.6266843863
 20
2.7141645546
 30
0.0
 11
-17.5266843863
 21
2.6468837378
 31
0.0
  0
LINE
  5
1F8
330
1F
100
AcDbEntity
  8
Geo
  6
Continuous
 62
     7
370
    35
100
AcDbLine
 10
-17.5266843863
 20
2.6468837378
 30
0.0
 11
-17.4266843863
 21
2.5795127718
 31
0.0
  0
LINE
  5
1F9
330
1F
100
AcDbEntity
  8
Geo
  6
Continuous
 62
     7
370
    35
100
AcDbLine
 10
-17.4266843863
 20
2.5795127718
 30
0.0
 11
-17.3266843863
 21
2.512085712
 31
0.0
  0
LINE
  5
1FA
330
1F
100
AcDbEntity
  8
Geo
  6
Continuous
 62
     7
370
    35
100
AcDbLine
 10
-17.3266843863
 20
2.512085712
 30
0.0
 11
-17.2266843863
 21
2.4446366422
 31
0.0
  0
LINE
  5
1FB
330
1F
100
AcDbEntity
  8
Geo
  6
Continuous
 62
     7
370
    35
100
AcDbLine
 10
-17.2266843863
 20
2.4446366422
 30
0.0
 11
-17.1266843863
 21
2.3771996574
 31
0.0
  0
LINE
  5
1FC
330
1F
100
AcDbEntity
  8
Geo
  6
Continuous
 62
     7
370
    35
100
AcDbLine
 10
-17.1266843863
 20
2.3771996574
 30
0.0
 11
-17.0266843863
 21
2.3098088464
 31
0.0
  0
LINE
  5
1FD
330
1F
100
AcDbEntity
  8
Geo
  6
Continuous
 62
     7
370
    35
100
AcDbLine
 10
-17.0266843863
 20
2.3098088464
 30
0.0
 11
-16.9266843863
 21
2.2424982748
 31
0.0
  0
POINT
  5
1FE
330
1F
100
AcDbEntity
  8
Geo
  6
Continuous
 62
     7
370
    35
100
AcDbPoint
 10
-16.9266843863
 20
2.2424982748
 30
0.0
  0
POINT
  5
1FF
330
1F
100
AcDbEntity
  8
Geo
  6
Continuous
 62
     7
370
    35
100
AcDbPoint
 10
-16.9266843863
 20
2.2424982748
 30
0.0
  0
LINE
  5
200
330
1F
100
AcDbEntity
  8
Geo
  6
Continuous
 62
     7
370
    35
100
AcDbLine
 10
-16.9266843863
 20
2.2424982748
 30
0.0
 11
-16.8266843863
 21
2.2477306661
 31
0.0
  0
LINE
  5
201
330
1F
100
AcDbEntity
  8
Geo
  6
Continuous
 62
     7
370
    35
100
AcDbLine
 10
-16.8266843863
 20
2.2477306661
 30
0.0
 11
-16.7266843863
 21
2.2535672898
 31
0.0
  0
LINE
  5
202
330
1F
100
AcDbEntity
  8
Geo
  6
Continuous
 62
     7
370
    35
100
AcDbLine
 10
-16.7266843863
 20
2.2535672898
 30
0.0
 11
-16.6266843863
 21
2.2600083805
 31
0.0
  0
LINE
  5
203
330
1F
100
AcDbEntity
  8
Geo
  6
Continuous
 62
     7
370
    35
100
AcDbLine
 10
-16.6266843863
 20
2.2600083805
 30
0.0
 11
-16.5266843863
 21
2.2670541836
 31
0.0
  0
LINE
  5
204
330
1F
100
AcDbEntity
  8
Geo
  6
Continuous
 62
     7
370
    35
100
AcDbLine
 10
-16.5266843863
 20
2.2670541836
 30
0.0
 11
-16.4266843863
 21
2.2747049518
 31
0.0
  0
LINE
  5
205
330
1F
100
AcDbEntity
  8
Geo
  6
Continuous
 62
     7
370
    35
100
AcDbLine
 10
-16.4266843863
 20
2.2747049518
 30
0.0
 11
-16.3266843863
 21
2.2829609404
 31
0.0
  0
LINE
  5
206
330
1F
100
AcDbEntity
  8
Geo
  6
Continuous
 62
     7
370
    35
100
AcDbLine
 10
-16.3266843863
 20
2.2829609404
 30
0.0
 11
-16.2266843863
 21
2.2918224026
 31
0.0
  0
LINE
  5
207
330
1F
100
AcDbEntity
  8
Geo
  6
Continuous
 62
     7
370
    35
100
AcDbLine
 10
-16.2266843863
 20
2.2918224026
 30
0.0
 11
-16.1266843863
 21
2.3012895846
 31
0.0
  0
LINE
  5
208
330
1F
100
AcDbEntity
  8
Geo
  6
Continuous
 62
     7
370
    35
100
AcDbLine
 10
-16.1266843863
 20
2.3012895846
 30
0.0
 11
-16.0266843863
 21
2.3113627203
 31
0.0
  0
LINE
  5
209
330
1F
100
AcDbEntity
  8
Geo
  6
Continuous
 62
     7
370
    35
100
AcDbLine
 10
-16.0266843863
 20
2.3113627203
 30
0.0
 11
-15.9266843863
 21
2.3220420251
 31
0.0
  0
LINE
  5
20A
330
1F
100
AcDbEntity
  8
Geo
  6
Continuous
 62
     7
370
    35
100
AcDbLine
 10
-15.9266843863
 20
2.3220420251
 30
0.0
 11
-15.8266843863
 21
2.3333276904
 31
0.0
  0
LINE
  5
20B
330
1F
100
AcDbEntity
  8
Geo
  6
Continuous
 62
     7
370
    35
100
AcDbLine
 10
-15.8266843863
 20
2.3333276904
 30
0.0
 11
-15.7266843863
 21
2.3452198763
 31
0.0
  0
LINE
  5
20C
330
1F
100
AcDbEntity
  8
Geo
  6
Continuous
 62
     7
370
    35
100
AcDbLine
 10
-15.7266843863
 20
2.3452198763
 30
0.0
 11
-15.6266843863
 21
2.3577187052
 31
0.0
  0
LINE
  5
20D
330
1F
100
AcDbEntity
  8
Geo
  6
Continuous
 62
     7
370
    35
100
AcDbLine
 10
-15.6266843863
 20
2.3577187052
 30
0.0
 11
-15.5266843863
 21
2.3708242546
 31
0.0
  0
LINE
  5
20E
330
1F
100
AcDbEntity
  8
Geo
  6
Continuous
 62
     7
370
    35
100
AcDbLine
 10
-15.5266843863
 20
2.3708242546
 30
0.0
 11
-15.4266843863
 21
2.3845365489
 31
0.0
  0
LINE
  5
20F
330
1F
100
AcDbEntity
  8
Geo
  6
Continuous
 62
     7
370
    35
100
AcDbLine
 10
-15.4266843863
 20
2.3845365489
 30
0.0
 11
-15.3266843863
 21
2.3988555521
 31
0.0
  0
LINE
  5
210
330
1F
100
AcDbEntity
  8
Geo
  6
Continuous
 62
     7
370
    35
100
AcDbLine
 10
-15.3266843863
 20
2.3988555521
 30
0.0
 11
-15.2266843863
 21
2.4137811588
 31
0.0
  0
LINE
  5
211
330
1F
100
AcDbEntity
  8
Geo
  6
Continuous
 62
     7
370
    35
100
AcDbLine
 10
-15.2266843863
 20
2.4137811588
 30
0.0
 11
-15.1266843863
 21
2.429313186
 31
0.0
  0
LINE
  5
212
330
1F
100
AcDbEntity
  8
Geo
  6
Continuous
 62
     7
370
    35
100
AcDbLine
 10
-15.1266843863
 20
2.429313186
 30
0.0
 11
-15.0266843863
 21
2.4454513635
 31
0.0
  0
LINE
  5
213
330
1F
100
AcDbEntity
  8
Geo
  6
Continuous
 62
     7
370
    35
100
AcDbLine
 10
-15.0266843863
 20
2.4454513635
 30
0.0
 11
-14.9266843863
 21
2.4621953246
 31
0.0
  0
POINT
  5
214
330
1F
100
AcDbEntity
  8
Geo
  6
Continuous
 62
     7
370
    35
100
AcDbPoint
 10
-14.9266843863
 20
2.4621953246
 30
0.0
  0
POINT
  5
215
330
1F
100
AcDbEntity
  8
Geo
  6
Continuous
 62
     7
370
    35
100
AcDbPoint
 10
-29.9266843863
 20
0.7113788783
 30
0.0
  0
LINE
  5
216
330
1F
100
AcDbEntity
  8
Geo
  6
Continuous
 62
     7
370
    35
100
AcDbLine
 10
-29.9266843863
 20
0.7113788783
 30
0.0
 11
-29.9266843863
 21
0.6755183654
 31
0.0
  0
LINE
  5
217
330
1F
100
AcDbEntity
  8
Geo
  6
Continuous
 62
     7
370
    35
100
AcDbLine
 10
-29.9266843863
 20
0.6755183654
 30
0.0
 11
-29.8266843863
 21
0.6178001536
 31
0.0
  0
LINE
  5
218
330
1F
100
AcDbEntity
  8
Geo
  6
Continuous
 62
     7
370
    35
100
AcDbLine
 10
-29.8266843863
 20
0.6178001536
 30
0.0
 11
-29.7266843863
 21
0.5611673789
 31
0.0
  0
LINE
  5
219
330
1F
100
AcDbEntity
  8
Geo
  6
Continuous
 62
     7
370
    35
100
AcDbLine
 10
-29.7266843863
 20
0.5611673789
 30
0.0
 11
-29.6266843863
 21
0.5056532557
 31
0.0
  0
LINE
  5
21A
330
1F
100
AcDbEntity
  8
Geo
  6
Continuous
 62
     7
370
    35
100
AcDbLine
 10
-29.6266843863
 20
0.5056532557
 30
0.0
 11
-29.5266843863
 21
0.4512903422
 31
0.0
  0
LINE
  5
21B
330
1F
100
AcDbEntity
  8
Geo
  6
Continuous
 62
     7
370
    35
100
AcDbLine
 10
-29.5266843863
 20
0.4512903422
 30
0.0
 11
-29.4266843863
 21
0.3981105217
 31
0.0
  0
LINE
  5
21C
330
1F
100
AcDbEntity
  8
Geo
  6
Continuous
 62
     7
370
    35
100
AcDbLine
 10
-29.4266843863
 20
0.3981105217
 30
0.0
 11
-29.3266843863
 21
0.3461449834
 31
0.0
  0
LINE
  5
21D
330
1F
100
AcDbEntity
  8
Geo
  6
Continuous
 62
     7
370
    35
100
AcDbLine
 10
-29.3266843863
 20
0.3461449834
 30
0.0
 11
-29.2266843863
 21
0.2954242044
 31
0.0
  0
LINE
  5
21E
330
1F
100
AcDbEntity
  8
Geo
  6
Continuous
 62
     7
370
    35
100
AcDbLine
 10
-29.2266843863
 20
0.2954242044
 30
0.0
 11
-29.1266843863
 21
0.2459779318
 31
0.0
  0
LINE
  5
21F
330
1F
100
AcDbEntity
  8
Geo
  6
Continuous
 62
     7
370
    35
100
AcDbLine
 10
-29.1266843863
 20
0.2459779318
 30
0.0
 11
-29.0266843863
 21
0.1978351651
 31
0.0
  0
LINE
  5
220
330
1F
100
AcDbEntity
  8
Geo
  6
Continuous
 62
     7
370
    35
100
AcDbLine
 10
-29.0266843863
 20
0.1978351651
 30
0.0
 11
-28.9266843863
 21
0.1510241396
 31
0.0
  0
LINE
  5
221
330
1F
100
AcDbEntity
  8
Geo
  6
Continuous
 62
     7
370
    35
100
AcDbLine
 10
-28.9266843863
 20
0.1510241396
 30
0.0
 11
-28.8266843863
 21
0.1055723092
 31
0.0
  0
LINE
  5
222
330
1F
100
AcDbEntity
  8
Geo
  6
Continuous
 62
     7
370
    35
100
AcDbLine
 10
-28.8266843863
 20
0.1055723092
 30
0.0
 11
-28.7266843863
 21
0.0615063308
 31
0.0
  0
LINE
  5
223
330
1F
100
AcDbEntity
  8
Geo
  6
Continuous
 62
     7
370
    35
100
AcDbLine
 10
-28.7266843863
 20
0.0615063308
 30
0.0
 11
-28.6266843863
 21
0.0188520485
 31
0.0
  0
LINE
  5
224
330
1F
100
AcDbEntity
  8
Geo
  6
Continuous
 62
     7
370
    35
100
AcDbLine
 10
-28.6266843863
 20
0.0188520485
 30
0.0
 11
-28.5266843863
 21
-0.0223655213
 31
0.0
  0
LINE
  5
225
330
1F
100
AcDbEntity
  8
Geo
  6
Continuous
 62
     7
370
    35
100
AcDbLine
 10
-28.5266843863
 20
-0.0223655213
 30
0.0
 11
-28.5038191259
 21
-0.0314559906
 31
0.0
  0
POINT
  5
226
330
1F
100
AcDbEntity
  8
Geo
  6
Continuous
 62
     7
370
    35
100
AcDbPoint
 10
-29.9266843863
 20
-0.414499056
 30
0.0
  0
LINE
  5
227
330
1F
100
AcDbEntity
  8
Geo
  6
Continuous
 62
     7
370
    35
100
AcDbLine
 10
-29.9266843863
 20
-0.414499056
 30
0.0
 11
-29.9266843863
 21
-0.4381667487
 31
0.0
  0
LINE
  5
228
330
1F
100
AcDbEntity
  8
Geo
  6
Continuous
 62
     7
370
    35
100
AcDbLine
 10
-23.6678226185
 20
4.9685440094
 30
0.0
 11
-23.6266843863
 21
4.9520789908
 31
0.0
  0
LINE
  5
229
330
1F
100
AcDbEntity
  8
Geo
  6
Continuous
 62
     7
370
    35
100
AcDbLine
 10
-23.6266843863
 20
4.9520789908
 30
0.0
 11
-23.5266843863
 21
4.9105987883
 31
0.0
  0
LINE
  5
22A
330
1F
100
AcDbEntity
  8
Geo
  6
Continuous
 62
     7
370
    35
100
AcDbLine
 10
-23.5266843863
 20
4.9105987883
 30
0.0
 11
-23.4266843863
 21
4.8676863527
 31
0.0
  0
LINE
  5
22B
330
1F
100
AcDbEntity
  8
Geo
  6
Continuous
 62
     7
370
    35
100
AcDbLine
 10
-23.4266843863
 20
4.8676863527
 30
0.0
 11
-23.3266843863
 21
4.8233668514
 31
0.0
  0
LINE
  5
22C
330
1F
100
AcDbEntity
  8
Geo
  6
Continuous
 62
     7
370
    35
100
AcDbLine
 10
-23.3266843863
 20
4.8233668514
 30
0.0
 11
-23.2266843863
 21
4.7776662772
 31
0.0
  0
LINE
  5
22D
330
1F
100
AcDbEntity
  8
Geo
  6
Continuous
 62
     7
370
    35
100
AcDbLine
 10
-23.2266843863
 20
4.7776662772
 30
0.0
 11
-23.1266843863
 21
4.730611433
 31
0.0
  0
LINE
  5
22E
330
1F
100
AcDbEntity
  8
Geo
  6
Continuous
 62
     7
370
    35
100
AcDbLine
 10
-23.1266843863
 20
4.730611433
 30
0.0
 11
-23.0266843863
 21
4.6822299158
 31
0.0
  0
LINE
  5
22F
330
1F
100
AcDbEntity
  8
Geo
  6
Continuous
 62
     7
370
    35
100
AcDbLine
 10
-23.0266843863
 20
4.6822299158
 30
0.0
 11
-22.9266843863
 21
4.6325501008
 31
0.0
  0
LINE
  5
230
330
1F
100
AcDbEntity
  8
Geo
  6
Continuous
 62
     7
370
    35
100
AcDbLine
 10
-22.9266843863
 20
4.6325501008
 30
0.0
 11
-22.8266843863
 21
4.5816011244
 31
0.0
  0
LINE
  5
231
330
1F
100
AcDbEntity
  8
Geo
  6
Continuous
 62
     7
370
    35
100
AcDbLine
 10
-22.8266843863
 20
4.5816011244
 30
0.0
 11
-22.7266843863
 21
4.5294128676
 31
0.0
  0
LINE
  5
232
330
1F
100
AcDbEntity
  8
Geo
  6
Continuous
 62
     7
370
    35
100
AcDbLine
 10
-22.7266843863
 20
4.5294128676
 30
0.0
 11
-22.6266843863
 21
4.4760159382
 31
0.0
  0
LINE
  5
233
330
1F
100
AcDbEntity
  8
Geo
  6
Continuous
 62
     7
370
    35
100
AcDbLine
 10
-22.6266843863
 20
4.4760159382
 30
0.0
 11
-22.5266843863
 21
4.4214416527
 31
0.0
  0
LINE
  5
234
330
1F
100
AcDbEntity
  8
Geo
  6
Continuous
 62
     7
370
    35
100
AcDbLine
 10
-22.5266843863
 20
4.4214416527
 30
0.0
 11
-22.4266843863
 21
4.3657220182
 31
0.0
  0
LINE
  5
235
330
1F
100
AcDbEntity
  8
Geo
  6
Continuous
 62
     7
370
    35
100
AcDbLine
 10
-22.4266843863
 20
4.3657220182
 30
0.0
 11
-22.3266843863
 21
4.3088897136
 31
0.0
  0
LINE
  5
236
330
1F
100
AcDbEntity
  8
Geo
  6
Continuous
 62
     7
370
    35
100
AcDbLine
 10
-22.3266843863
 20
4.3088897136
 30
0.0
 11
-22.2266843863
 21
4.2509780703
 31
0.0
  0
LINE
  5
237
330
1F
100
AcDbEntity
  8
Geo
  6
Continuous
 62
     7
370
    35
100
AcDbLine
 10
-22.2266843863
 20
4.2509780703
 30
0.0
 11
-22.1266843863
 21
4.1920210526
 31
0.0
  0
LINE
  5
238
330
1F
100
AcDbEntity
  8
Geo
  6
Continuous
 62
     7
370
    35
100
AcDbLine
 10
-22.1266843863
 20
4.1920210526
 30
0.0
 11
-22.0266843863
 21
4.1320532382
 31
0.0
  0
LINE
  5
239
330
1F
100
AcDbEntity
  8
Geo
  6
Continuous
 62
     7
370
    35
100
AcDbLine
 10
-22.0266843863
 20
4.1320532382
 30
0.0
 11
-21.9266843863
 21
4.0711097974
 31
0.0
  0
LINE
  5
23A
330
1F
100
AcDbEntity
  8
Geo
  6
Continuous
 62
     7
370
    35
100
AcDbLine
 10
-21.9266843863
 20
4.0711097974
 30
0.0
 11
-21.8266843863
 21
4.0092264727
 31
0.0
  0
LINE
  5
23B
330
1F
100
AcDbEntity
  8
Geo
  6
Continuous
 62
     7
370
    35
100
AcDbLine
 10
-21.8266843863
 20
4.0092264727
 30
0.0
 11
-21.7266843863
 21
3.9464395578
 31
0.0
  0
LINE
  5
23C
330
1F
100
AcDbEntity
  8
Geo
  6
Continuous
 62
     7
370
    35
100
AcDbLine
 10
-21.7266843863
 20
3.9464395578
 30
0.0
 11
-21.6266843863
 21
3.8827858765
 31
0.0
  0
LINE
  5
23D
330
1F
100
AcDbEntity
  8
Geo
  6
Continuous
 62
     7
370
    35
100
AcDbLine
 10
-21.6266843863
 20
3.8827858765
 30
0.0
 11
-21.5266843863
 21
3.8183027608
 31
0.0
  0
LINE
  5
23E
330
1F
100
AcDbEntity
  8
Geo
  6
Continuous
 62
     7
370
    35
100
AcDbLine
 10
-21.5266843863
 20
3.8183027608
 30
0.0
 11
-21.4266843863
 21
3.7530280292
 31
0.0
  0
LINE
  5
23F
330
1F
100
AcDbEntity
  8
Geo
  6
Continuous
 62
     7
370
    35
100
AcDbLine
 10
-21.4266843863
 20
3.7530280292
 30
0.0
 11
-21.3266843863
 21
3.6869999645
 31
0.0
  0
LINE
  5
240
330
1F
100
AcDbEntity
  8
Geo
  6
Continuous
 62
     7
370
    35
100
AcDbLine
 10
-21.3266843863
 20
3.6869999645
 30
0.0
 11
-21.2266843863
 21
3.6202572913
 31
0.0
  0
LINE
  5
241
330
1F
100
AcDbEntity
  8
Geo
  6
Continuous
 62
     7
370
    35
100
AcDbLine
 10
-21.2266843863
 20
3.6202572913
 30
0.0
 11
-21.1266843863
 21
3.5528391534
 31
0.0
  0
LINE
  5
242
330
1F
100
AcDbEntity
  8
Geo
  6
Continuous
 62
     7
370
    35
100
AcDbLine
 10
-21.1266843863
 20
3.5528391534
 30
0.0
 11
-21.0266843863
 21
3.4847850904
 31
0.0
  0
LINE
  5
243
330
1F
100
AcDbEntity
  8
Geo
  6
Continuous
 62
     7
370
    35
100
AcDbLine
 10
-21.0266843863
 20
3.4847850904
 30
0.0
 11
-20.9266843863
 21
3.4161350154
 31
0.0
  0
LINE
  5
244
330
1F
100
AcDbEntity
  8
Geo
  6
Continuous
 62
     7
370
    35
100
AcDbLine
 10
-20.9266843863
 20
3.4161350154
 30
0.0
 11
-20.8266843863
 21
3.3469291906
 31
0.0
  0
LINE
  5
245
330
1F
100
AcDbEntity
  8
Geo
  6
Continuous
 62
     7
370
    35
100
AcDbLine
 10
-20.8266843863
 20
3.3469291906
 30
0.0
 11
-20.7266843863
 21
3.2772082044
 31
0.0
  0
LINE
  5
246
330
1F
100
AcDbEntity
  8
Geo
  6
Continuous
 62
     7
370
    35
100
AcDbLine
 10
-20.7266843863
 20
3.2772082044
 30
0.0
 11
-20.6266843863
 21
3.2070129472
 31
0.0
  0
LINE
  5
247
330
1F
100
AcDbEntity
  8
Geo
  6
Continuous
 62
     7
370
    35
100
AcDbLine
 10
-20.6266843863
 20
3.2070129472
 30
0.0
 11
-20.5266843863
 21
3.1363845876
 31
0.0
  0
LINE
  5
248
330
1F
100
AcDbEntity
  8
Geo
  6
Continuous
 62
     7
370
    35
100
AcDbLine
 10
-20.5266843863
 20
3.1363845876
 30
0.0
 11
-20.4266843863
 21
3.0653645482
 31
0.0
  0
LINE
  5
249
330
1F
100
AcDbEntity
  8
Geo
  6
Continuous
 62
     7
370
    35
100
AcDbLine
 10
-20.4266843863
 20
3.0653645482
 30
0.0
 11
-20.3266843863
 21
2.9939944813
 31
0.0
  0
LINE
  5
24A
330
1F
100
AcDbEntity
  8
Geo
  6
Continuous
 62
     7
370
    35
100
AcDbLine
 10
-20.3266843863
 20
2.9939944813
 30
0.0
 11
-20.2266843863
 21
2.9223162447
 31
0.0
  0
LINE
  5
24B
330
1F
100
AcDbEntity
  8
Geo
  6
Continuous
 62
     7
370
    35
100
AcDbLine
 10
-20.2266843863
 20
2.9223162447
 30
0.0
 11
-20.1266843863
 21
2.8503718765
 31
0.0
  0
LINE
  5
24C
330
1F
100
AcDbEntity
  8
Geo
  6
Continuous
 62
     7
370
    35
100
AcDbLine
 10
-20.1266843863
 20
2.8503718765
 30
0.0
 11
-20.0266843863
 21
2.7782035713
 31
0.0
  0
LINE
  5
24D
330
1F
100
AcDbEntity
  8
Geo
  6
Continuous
 62
     7
370
    35
100
AcDbLine
 10
-20.0266843863
 20
2.7782035713
 30
0.0
 11
-19.9266843863
 21
2.7058536548
 31
0.0
  0
LINE
  5
24E
330
1F
100
AcDbEntity
  8
Geo
  6
Continuous
 62
     7
370
    35
100
AcDbLine
 10
-19.9266843863
 20
2.7058536548
 30
0.0
 11
-19.8266843863
 21
2.6333645593
 31
0.0
  0
LINE
  5
24F
330
1F
100
AcDbEntity
  8
Geo
  6
Continuous
 62
     7
370
    35
100
AcDbLine
 10
-19.8266843863
 20
2.6333645593
 30
0.0
 11
-19.7266843863
 21
2.5607787987
 31
0.0
  0
LINE
  5
250
330
1F
100
AcDbEntity
  8
Geo
  6
Continuous
 62
     7
370
    35
100
AcDbLine
 10
-19.7266843863
 20
2.5607787987
 30
0.0
 11
-19.6266843863
 21
2.4881389436
 31
0.0
  0
LINE
  5
251
330
1F
100
AcDbEntity
  8
Geo
  6
Continuous
 62
     7
370
    35
100
AcDbLine
 10
-19.6266843863
 20
2.4881389436
 30
0.0
 11
-19.5266843863
 21
2.4154875963
 31
0.0
  0
LINE
  5
252
330
1F
100
AcDbEntity
  8
Geo
  6
Continuous
 62
     7
370
    35
100
AcDbLine
 10
-19.5266843863
 20
2.4154875963
 30
0.0
 11
-19.4266843863
 21
2.3428673659
 31
0.0
  0
LINE
  5
253
330
1F
100
AcDbEntity
  8
Geo
  6
Continuous
 62
     7
370
    35
100
AcDbLine
 10
-19.4266843863
 20
2.3428673659
 30
0.0
 11
-19.3266843863
 21
2.2703208432
 31
0.0
  0
LINE
  5
254
330
1F
100
AcDbEntity
  8
Geo
  6
Continuous
 62
     7
370
    35
100
AcDbLine
 10
-19.3266843863
 20
2.2703208432
 30
0.0
 11
-19.2266843863
 21
2.1978905758
 31
0.0
  0
LINE
  5
255
330
1F
100
AcDbEntity
  8
Geo
  6
Continuous
 62
     7
370
    35
100
AcDbLine
 10
-19.2266843863
 20
2.1978905758
 30
0.0
 11
-19.1266843863
 21
2.1256190431
 31
0.0
  0
LINE
  5
256
330
1F
100
AcDbEntity
  8
Geo
  6
Continuous
 62
     7
370
    35
100
AcDbLine
 10
-19.1266843863
 20
2.1256190431
 30
0.0
 11
-19.0266843863
 21
2.0535486315
 31
0.0
  0
LINE
  5
257
330
1F
100
AcDbEntity
  8
Geo
  6
Continuous
 62
     7
370
    35
100
AcDbLine
 10
-19.0266843863
 20
2.0535486315
 30
0.0
 11
-18.9266843863
 21
1.9817216092
 31
0.0
  0
LINE
  5
258
330
1F
100
AcDbEntity
  8
Geo
  6
Continuous
 62
     7
370
    35
100
AcDbLine
 10
-18.9266843863
 20
1.9817216092
 30
0.0
 11
-18.8266843863
 21
1.9101801018
 31
0.0
  0
LINE
  5
259
330
1F
100
AcDbEntity
  8
Geo
  6
Continuous
 62
     7
370
    35
100
AcDbLine
 10
-18.8266843863
 20
1.9101801018
 30
0.0
 11
-18.7266843863
 21
1.8389660677
 31
0.0
  0
LINE
  5
25A
330
1F
100
AcDbEntity
  8
Geo
  6
Continuous
 62
     7
370
    35
100
AcDbLine
 10
-18.7266843863
 20
1.8389660677
 30
0.0
 11
-18.6266843863
 21
1.7681212727
 31
0.0
  0
LINE
  5
25B
330
1F
100
AcDbEntity
  8
Geo
  6
Continuous
 62
     7
370
    35
100
AcDbLine
 10
-18.6266843863
 20
1.7681212727
 30
0.0
 11
-18.5266843863
 21
1.6976872666
 31
0.0
  0
LINE
  5
25C
330
1F
100
AcDbEntity
  8
Geo
  6
Continuous
 62
     7
370
    35
100
AcDbLine
 10
-18.5266843863
 20
1.6976872666
 30
0.0
 11
-18.4266843863
 21
1.6277053578
 31
0.0
  0
LINE
  5
25D
330
1F
100
AcDbEntity
  8
Geo
  6
Continuous
 62
     7
370
    35
100
AcDbLine
 10
-18.4266843863
 20
1.6277053578
 30
0.0
 11
-18.3266843863
 21
1.55821659
 31
0.0
  0
LINE
  5
25E
330
1F
100
AcDbEntity
  8
Geo
  6
Continuous
 62
     7
370
    35
100
AcDbLine
 10
-18.3266843863
 20
1.55821659
 30
0.0
 11
-18.2266843863
 21
1.4892617173
 31
0.0
  0
LINE
  5
25F
330
1F
100
AcDbEntity
  8
Geo
  6
Continuous
 62
     7
370
    35
100
AcDbLine
 10
-18.2266843863
 20
1.4892617173
 30
0.0
 11
-18.1266843863
 21
1.4208811808
 31
0.0
  0
LINE
  5
260
330
1F
100
AcDbEntity
  8
Geo
  6
Continuous
 62
     7
370
    35
100
AcDbLine
 10
-18.1266843863
 20
1.4208811808
 30
0.0
 11
-18.0266843863
 21
1.353115085
 31
0.0
  0
LINE
  5
261
330
1F
100
AcDbEntity
  8
Geo
  6
Continuous
 62
     7
370
    35
100
AcDbLine
 10
-18.0266843863
 20
1.353115085
 30
0.0
 11
-17.9266843863
 21
1.2860031736
 31
0.0
  0
LINE
  5
262
330
1F
100
AcDbEntity
  8
Geo
  6
Continuous
 62
     7
370
    35
100
AcDbLine
 10
-17.9266843863
 20
1.2860031736
 30
0.0
 11
-17.8266843863
 21
1.219584807
 31
0.0
  0
LINE
  5
263
330
1F
100
AcDbEntity
  8
Geo
  6
Continuous
 62
     7
370
    35
100
AcDbLine
 10
-17.8266843863
 20
1.219584807
 30
0.0
 11
-17.7266843863
 21
1.1538989386
 31
0.0
  0
LINE
  5
264
330
1F
100
AcDbEntity
  8
Geo
  6
Continuous
 62
     7
370
    35
100
AcDbLine
 10
-17.7266843863
 20
1.1538989386
 30
0.0
 11
-17.6266843863
 21
1.0889840924
 31
0.0
  0
LINE
  5
265
330
1F
100
AcDbEntity
  8
Geo
  6
Continuous
 62
     7
370
    35
100
AcDbLine
 10
-17.6266843863
 20
1.0889840924
 30
0.0
 11
-17.5266843863
 21
1.0248783401
 31
0.0
  0
LINE
  5
266
330
1F
100
AcDbEntity
  8
Geo
  6
Continuous
 62
     7
370
    35
100
AcDbLine
 10
-17.5266843863
 20
1.0248783401
 30
0.0
 11
-17.4266843863
 21
0.9616192788
 31
0.0
  0
LINE
  5
267
330
1F
100
AcDbEntity
  8
Geo
  6
Continuous
 62
     7
370
    35
100
AcDbLine
 10
-17.4266843863
 20
0.9616192788
 30
0.0
 11
-17.3266843863
 21
0.8992440092
 31
0.0
  0
LINE
  5
268
330
1F
100
AcDbEntity
  8
Geo
  6
Continuous
 62
     7
370
    35
100
AcDbLine
 10
-17.3266843863
 20
0.8992440092
 30
0.0
 11
-17.2266843863
 21
0.8377891136
 31
0.0
  0
LINE
  5
269
330
1F
100
AcDbEntity
  8
Geo
  6
Continuous
 62
     7
370
    35
100
AcDbLine
 10
-17.2266843863
 20
0.8377891136
 30
0.0
 11
-17.1266843863
 21
0.7772906344
 31
0.0
  0
LINE
  5
26A
330
1F
100
AcDbEntity
  8
Geo
  6
Continuous
 62
     7
370
    35
100
AcDbLine
 10
-17.1266843863
 20
0.7772906344
 30
0.0
 11
-17.0266843863
 21
0.7177840532
 31
0.0
  0
LINE
  5
26B
330
1F
100
AcDbEntity
  8
Geo
  6
Continuous
 62
     7
370
    35
100
AcDbLine
 10
-17.0266843863
 20
0.7177840532
 30
0.0
 11
-16.9266843863
 21
0.6593042699
 31
0.0
  0
POINT
  5
26C
330
1F
100
AcDbEntity
  8
Geo
  6
Continuous
 62
     7
370
    35
100
AcDbPoint
 10
-16.9266843863
 20
0.6593042699
 30
0.0
  0
POINT
  5
26D
330
1F
100
AcDbEntity
  8
Geo
  6
Continuous
 62
     7
370
    35
100
AcDbPoint
 10
-16.9266843863
 20
0.6593042699
 30
0.0
  0
LINE
  5
26E
330
1F
100
AcDbEntity
  8
Geo
  6
Continuous
 62
     7
370
    35
100
AcDbLine
 10
-16.9266843863
 20
0.6593042699
 30
0.0
 11
-16.8266843863
 21
0.6192923012
 31
0.0
  0
LINE
  5
26F
330
1F
100
AcDbEntity
  8
Geo
  6
Continuous
 62
     7
370
    35
100
AcDbLine
 10
-16.8266843863
 20
0.6192923012
 30
0.0
 11
-16.7266843863
 21
0.5758422057
 31
0.0
  0
LINE
  5
270
330
1F
100
AcDbEntity
  8
Geo
  6
Continuous
 62
     7
370
    35
100
AcDbLine
 10
-16.7266843863
 20
0.5758422057
 30
0.0
 11
-16.6266843863
 21
0.5291459717
 31
0.0
  0
LINE
  5
271
330
1F
100
AcDbEntity
  8
Geo
  6
Continuous
 62
     7
370
    35
100
AcDbLine
 10
-16.6266843863
 20
0.5291459717
 30
0.0
 11
-16.5266843863
 21
0.4794206809
 31
0.0
  0
LINE
  5
272
330
1F
100
AcDbEntity
  8
Geo
  6
Continuous
 62
     7
370
    35
100
AcDbLine
 10
-16.5266843863
 20
0.4794206809
 30
0.0
 11
-16.4266843863
 21
0.4269102527
 31
0.0
  0
LINE
  5
273
330
1F
100
AcDbEntity
  8
Geo
  6
Continuous
 62
     7
370
    35
100
AcDbLine
 10
-16.4266843863
 20
0.4269102527
 30
0.0
 11
-16.3266843863
 21
0.3718872321
 31
0.0
  0
LINE
  5
274
330
1F
100
AcDbEntity
  8
Geo
  6
Continuous
 62
     7
370
    35
100
AcDbLine
 10
-16.3266843863
 20
0.3718872321
 30
0.0
 11
-16.2266843863
 21
0.314654594
 31
0.0
  0
LINE
  5
275
330
1F
100
AcDbEntity
  8
Geo
  6
Continuous
 62
     7
370
    35
100
AcDbLine
 10
-16.2266843863
 20
0.314654594
 30
0.0
 11
-16.1266843863
 21
0.2555475286
 31
0.0
  0
LINE
  5
276
330
1F
100
AcDbEntity
  8
Geo
  6
Continuous
 62
     7
370
    35
100
AcDbLine
 10
-16.1266843863
 20
0.2555475286
 30
0.0
 11
-16.0266843863
 21
0.1949351729
 31
0.0
  0
LINE
  5
277
330
1F
100
AcDbEntity
  8
Geo
  6
Continuous
 62
     7
370
    35
100
AcDbLine
 10
-16.0266843863
 20
0.1949351729
 30
0.0
 11
-15.9266843863
 21
0.1332222451
 31
0.0
  0
LINE
  5
278
330
1F
100
AcDbEntity
  8
Geo
  6
Continuous
 62
     7
370
    35
100
AcDbLine
 10
-15.9266843863
 20
0.1332222451
 30
0.0
 11
-15.8266843863
 21
0.0708505382
 31
0.0
  0
LINE
  5
279
330
1F
100
AcDbEntity
  8
Geo
  6
Continuous
 62
     7
370
    35
100
AcDbLine
 10
-15.8266843863
 20
0.0708505382
 30
0.0
 11
-15.7266843863
 21
0.0083002205
 31
0.0
  0
LINE
  5
27A
330
1F
100
AcDbEntity
  8
Geo
  6
Continuous
 62
     7
370
    35
100
AcDbLine
 10
-15.7266843863
 20
0.0083002205
 30
0.0
 11
-15.6627772354
 21
-0.0314559906
 31
0.0
  0
LINE
  5
27B
330
1F
100
AcDbEntity
  8
Geo
  6
Continuous
 62
     7
370
    35
100
AcDbLine
 10
-26.6945991016
 20
4.9685440094
 30
0.0
 11
-26.6266843863
 21
4.9410951507
 31
0.0
  0
LINE
  5
27C
330
1F
100
AcDbEntity
  8
Geo
  6
Continuous
 62
     7
370
    35
100
AcDbLine
 10
-26.6266843863
 20
4.9410951507
 30
0.0
 11
-26.5266843863
 21
4.8992283731
 31
0.0
  0
LINE
  5
27D
330
1F
100
AcDbEntity
  8
Geo
  6
Continuous
 62
     7
370
    35
100
AcDbLine
 10
-26.5266843863
 20
4.8992283731
 30
0.0
 11
-26.4266843863
 21
4.8559360308
 31
0.0
  0
LINE
  5
27E
330
1F
100
AcDbEntity
  8
Geo
  6
Continuous
 62
     7
370
    35
100
AcDbLine
 10
-26.4266843863
 20
4.8559360308
 30
0.0
 11
-26.3266843863
 21
4.8112435143
 31
0.0
  0
LINE
  5
27F
330
1F
100
AcDbEntity
  8
Geo
  6
Continuous
 62
     7
370
    35
100
AcDbLine
 10
-26.3266843863
 20
4.8112435143
 30
0.0
 11
-26.2266843863
 21
4.7651770352
 31
0.0
  0
LINE
  5
280
330
1F
100
AcDbEntity
  8
Geo
  6
Continuous
 62
     7
370
    35
100
AcDbLine
 10
-26.2266843863
 20
4.7651770352
 30
0.0
 11
-26.1266843863
 21
4.7177636107
 31
0.0
  0
LINE
  5
281
330
1F
100
AcDbEntity
  8
Geo
  6
Continuous
 62
     7
370
    35
100
AcDbLine
 10
-26.1266843863
 20
4.7177636107
 30
0.0
 11
-26.0266843863
 21
4.6690310484
 31
0.0
  0
LINE
  5
282
330
1F
100
AcDbEntity
  8
Geo
  6
Continuous
 62
     7
370
    35
100
AcDbLine
 10
-26.0266843863
 20
4.6690310484
 30
0.0
 11
-25.9266843863
 21
4.6190079291
 31
0.0
  0
LINE
  5
283
330
1F
100
AcDbEntity
  8
Geo
  6
Continuous
 62
     7
370
    35
100
AcDbLine
 10
-25.9266843863
 20
4.6190079291
 30
0.0
 11
-25.8266843863
 21
4.5677235909
 31
0.0
  0
LINE
  5
284
330
1F
100
AcDbEntity
  8
Geo
  6
Continuous
 62
     7
370
    35
100
AcDbLine
 10
-25.8266843863
 20
4.5677235909
 30
0.0
 11
-25.7266843863
 21
4.5152081112
 31
0.0
  0
LINE
  5
285
330
1F
100
AcDbEntity
  8
Geo
  6
Continuous
 62
     7
370
    35
100
AcDbLine
 10
-25.7266843863
 20
4.5152081112
 30
0.0
 11
-25.6266843863
 21
4.4614922898
 31
0.0
  0
LINE
  5
286
330
1F
100
AcDbEntity
  8
Geo
  6
Continuous
 62
     7
370
    35
100
AcDbLine
 10
-25.6266843863
 20
4.4614922898
 30
0.0
 11
-25.5266843863
 21
4.4066076302
 31
0.0
  0
LINE
  5
287
330
1F
100
AcDbEntity
  8
Geo
  6
Continuous
 62
     7
370
    35
100
AcDbLine
 10
-25.5266843863
 20
4.4066076302
 30
0.0
 11
-25.4266843863
 21
4.3505863216
 31
0.0
  0
LINE
  5
288
330
1F
100
AcDbEntity
  8
Geo
  6
Continuous
 62
     7
370
    35
100
AcDbLine
 10
-25.4266843863
 20
4.3505863216
 30
0.0
 11
-25.3266843863
 21
4.2934612198
 31
0.0
  0
LINE
  5
289
330
1F
100
AcDbEntity
  8
Geo
  6
Continuous
 62
     7
370
    35
100
AcDbLine
 10
-25.3266843863
 20
4.2934612198
 30
0.0
 11
-25.2266843863
 21
4.2352658279
 31
0.0
  0
LINE
  5
28A
330
1F
100
AcDbEntity
  8
Geo
  6
Continuous
 62
     7
370
    35
100
AcDbLine
 10
-25.2266843863
 20
4.2352658279
 30
0.0
 11
-25.1266843863
 21
4.1760342767
 31
0.0
  0
LINE
  5
28B
330
1F
100
AcDbEntity
  8
Geo
  6
Continuous
 62
     7
370
    35
100
AcDbLine
 10
-25.1266843863
 20
4.1760342767
 30
0.0
 11
-25.0266843863
 21
4.1158013048
 31
0.0
  0
LINE
  5
28C
330
1F
100
AcDbEntity
  8
Geo
  6
Continuous
 62
     7
370
    35
100
AcDbLine
 10
-25.0266843863
 20
4.1158013048
 30
0.0
 11
-24.9266843863
 21
4.0546022379
 31
0.0
  0
LINE
  5
28D
330
1F
100
AcDbEntity
  8
Geo
  6
Continuous
 62
     7
370
    35
100
AcDbLine
 10
-24.9266843863
 20
4.0546022379
 30
0.0
 11
-24.8266843863
 21
3.9924729687
 31
0.0
  0
LINE
  5
28E
330
1F
100
AcDbEntity
  8
Geo
  6
Continuous
 62
     7
370
    35
100
AcDbLine
 10
-24.8266843863
 20
3.9924729687
 30
0.0
 11
-24.7266843863
 21
3.929449935
 31
0.0
  0
LINE
  5
28F
330
1F
100
AcDbEntity
  8
Geo
  6
Continuous
 62
     7
370
    35
100
AcDbLine
 10
-24.7266843863
 20
3.929449935
 30
0.0
 11
-24.6266843863
 21
3.8655700991
 31
0.0
  0
LINE
  5
290
330
1F
100
AcDbEntity
  8
Geo
  6
Continuous
 62
     7
370
    35
100
AcDbLine
 10
-24.6266843863
 20
3.8655700991
 30
0.0
 11
-24.5266843863
 21
3.8008709256
 31
0.0
  0
LINE
  5
291
330
1F
100
AcDbEntity
  8
Geo
  6
Continuous
 62
     7
370
    35
100
AcDbLine
 10
-24.5266843863
 20
3.8008709256
 30
0.0
 11
-24.4266843863
 21
3.7353903597
 31
0.0
  0
LINE
  5
292
330
1F
100
AcDbEntity
  8
Geo
  6
Continuous
 62
     7
370
    35
100
AcDbLine
 10
-24.4266843863
 20
3.7353903597
 30
0.0
 11
-24.3266843863
 21
3.6691668051
 31
0.0
  0
LINE
  5
293
330
1F
100
AcDbEntity
  8
Geo
  6
Continuous
 62
     7
370
    35
100
AcDbLine
 10
-24.3266843863
 20
3.6691668051
 30
0.0
 11
-24.2266843863
 21
3.6022391008
 31
0.0
  0
LINE
  5
294
330
1F
100
AcDbEntity
  8
Geo
  6
Continuous
 62
     7
370
    35
100
AcDbLine
 10
-24.2266843863
 20
3.6022391008
 30
0.0
 11
-24.1266843863
 21
3.5346464992
 31
0.0
  0
LINE
  5
295
330
1F
100
AcDbEntity
  8
Geo
  6
Continuous
 62
     7
370
    35
100
AcDbLine
 10
-24.1266843863
 20
3.5346464992
 30
0.0
 11
-24.0266843863
 21
3.4664286424
 31
0.0
  0
LINE
  5
296
330
1F
100
AcDbEntity
  8
Geo
  6
Continuous
 62
     7
370
    35
100
AcDbLine
 10
-24.0266843863
 20
3.4664286424
 30
0.0
 11
-23.9266843863
 21
3.3976255393
 31
0.0
  0
LINE
  5
297
330
1F
100
AcDbEntity
  8
Geo
  6
Continuous
 62
     7
370
    35
100
AcDbLine
 10
-23.9266843863
 20
3.3976255393
 30
0.0
 11
-23.8266843863
 21
3.328277542
 31
0.0
  0
LINE
  5
298
330
1F
100
AcDbEntity
  8
Geo
  6
Continuous
 62
     7
370
    35
100
AcDbLine
 10
-23.8266843863
 20
3.328277542
 30
0.0
 11
-23.7266843863
 21
3.2584253222
 31
0.0
  0
LINE
  5
299
330
1F
100
AcDbEntity
  8
Geo
  6
Continuous
 62
     7
370
    35
100
AcDbLine
 10
-23.7266843863
 20
3.2584253222
 30
0.0
 11
-23.6266843863
 21
3.1881098474
 31
0.0
  0
LINE
  5
29A
330
1F
100
AcDbEntity
  8
Geo
  6
Continuous
 62
     7
370
    35
100
AcDbLine
 10
-23.6266843863
 20
3.1881098474
 30
0.0
 11
-23.5266843863
 21
3.1173723566
 31
0.0
  0
LINE
  5
29B
330
1F
100
AcDbEntity
  8
Geo
  6
Continuous
 62
     7
370
    35
100
AcDbLine
 10
-23.5266843863
 20
3.1173723566
 30
0.0
 11
-23.4266843863
 21
3.0462543364
 31
0.0
  0
LINE
  5
29C
330
1F
100
AcDbEntity
  8
Geo
  6
Continuous
 62
     7
370
    35
100
AcDbLine
 10
-23.4266843863
 20
3.0462543364
 30
0.0
 11
-23.3266843863
 21
2.9747974967
 31
0.0
  0
LINE
  5
29D
330
1F
100
AcDbEntity
  8
Geo
  6
Continuous
 62
     7
370
    35
100
AcDbLine
 10
-23.3266843863
 20
2.9747974967
 30
0.0
 11
-23.2266843863
 21
2.9030437459
 31
0.0
  0
LINE
  5
29E
330
1F
100
AcDbEntity
  8
Geo
  6
Continuous
 62
     7
370
    35
100
AcDbLine
 10
-23.2266843863
 20
2.9030437459
 30
0.0
 11
-23.1266843863
 21
2.8310351667
 31
0.0
  0
LINE
  5
29F
330
1F
100
AcDbEntity
  8
Geo
  6
Continuous
 62
     7
370
    35
100
AcDbLine
 10
-23.1266843863
 20
2.8310351667
 30
0.0
 11
-23.0266843863
 21
2.7588139911
 31
0.0
  0
LINE
  5
2A0
330
1F
100
AcDbEntity
  8
Geo
  6
Continuous
 62
     7
370
    35
100
AcDbLine
 10
-23.0266843863
 20
2.7588139911
 30
0.0
 11
-22.9266843863
 21
2.686422576
 31
0.0
  0
LINE
  5
2A1
330
1F
100
AcDbEntity
  8
Geo
  6
Continuous
 62
     7
370
    35
100
AcDbLine
 10
-22.9266843863
 20
2.686422576
 30
0.0
 11
-22.8266843863
 21
2.613903378
 31
0.0
  0
LINE
  5
2A2
330
1F
100
AcDbEntity
  8
Geo
  6
Continuous
 62
     7
370
    35
100
AcDbLine
 10
-22.8266843863
 20
2.613903378
 30
0.0
 11
-22.7266843863
 21
2.5412989286
 31
0.0
  0
LINE
  5
2A3
330
1F
100
AcDbEntity
  8
Geo
  6
Continuous
 62
     7
370
    35
100
AcDbLine
 10
-22.7266843863
 20
2.5412989286
 30
0.0
 11
-22.6266843863
 21
2.4686518094
 31
0.0
  0
LINE
  5
2A4
330
1F
100
AcDbEntity
  8
Geo
  6
Continuous
 62
     7
370
    35
100
AcDbLine
 10
-22.6266843863
 20
2.4686518094
 30
0.0
 11
-22.5266843863
 21
2.396004627
 31
0.0
  0
LINE
  5
2A5
330
1F
100
AcDbEntity
  8
Geo
  6
Continuous
 62
     7
370
    35
100
AcDbLine
 10
-22.5266843863
 20
2.396004627
 30
0.0
 11
-22.4266843863
 21
2.3233999879
 31
0.0
  0
LINE
  5
2A6
330
1F
100
AcDbEntity
  8
Geo
  6
Continuous
 62
     7
370
    35
100
AcDbLine
 10
-22.4266843863
 20
2.3233999879
 30
0.0
 11
-22.3266843863
 21
2.250880474
 31
0.0
  0
LINE
  5
2A7
330
1F
100
AcDbEntity
  8
Geo
  6
Continuous
 62
     7
370
    35
100
AcDbLine
 10
-22.3266843863
 20
2.250880474
 30
0.0
 11
-22.2266843863
 21
2.1784886168
 31
0.0
  0
LINE
  5
2A8
330
1F
100
AcDbEntity
  8
Geo
  6
Continuous
 62
     7
370
    35
100
AcDbLine
 10
-22.2266843863
 20
2.1784886168
 30
0.0
 11
-22.1266843863
 21
2.1062668734
 31
0.0
  0
LINE
  5
2A9
330
1F
100
AcDbEntity
  8
Geo
  6
Continuous
 62
     7
370
    35
100
AcDbLine
 10
-22.1266843863
 20
2.1062668734
 30
0.0
 11
-22.0266843863
 21
2.0342576008
 31
0.0
  0
LINE
  5
2AA
330
1F
100
AcDbEntity
  8
Geo
  6
Continuous
 62
     7
370
    35
100
AcDbLine
 10
-22.0266843863
 20
2.0342576008
 30
0.0
 11
-21.9266843863
 21
1.9625030314
 31
0.0
  0
LINE
  5
2AB
330
1F
100
AcDbEntity
  8
Geo
  6
Continuous
 62
     7
370
    35
100
AcDbLine
 10
-21.9266843863
 20
1.9625030314
 30
0.0
 11
-21.8266843863
 21
1.8910452485
 31
0.0
  0
LINE
  5
2AC
330
1F
100
AcDbEntity
  8
Geo
  6
Continuous
 62
     7
370
    35
100
AcDbLine
 10
-21.8266843863
 20
1.8910452485
 30
0.0
 11
-21.7266843863
 21
1.8199261611
 31
0.0
  0
LINE
  5
2AD
330
1F
100
AcDbEntity
  8
Geo
  6
Continuous
 62
     7
370
    35
100
AcDbLine
 10
-21.7266843863
 20
1.8199261611
 30
0.0
 11
-21.6266843863
 21
1.7491874796
 31
0.0
  0
LINE
  5
2AE
330
1F
100
AcDbEntity
  8
Geo
  6
Continuous
 62
     7
370
    35
100
AcDbLine
 10
-21.6266843863
 20
1.7491874796
 30
0.0
 11
-21.5266843863
 21
1.6788706913
 31
0.0
  0
LINE
  5
2AF
330
1F
100
AcDbEntity
  8
Geo
  6
Continuous
 62
     7
370
    35
100
AcDbLine
 10
-21.5266843863
 20
1.6788706913
 30
0.0
 11
-21.4266843863
 21
1.6090170361
 31
0.0
  0
LINE
  5
2B0
330
1F
100
AcDbEntity
  8
Geo
  6
Continuous
 62
     7
370
    35
100
AcDbLine
 10
-21.4266843863
 20
1.6090170361
 30
0.0
 11
-21.3266843863
 21
1.5396674822
 31
0.0
  0
LINE
  5
2B1
330
1F
100
AcDbEntity
  8
Geo
  6
Continuous
 62
     7
370
    35
100
AcDbLine
 10
-21.3266843863
 20
1.5396674822
 30
0.0
 11
-21.2266843863
 21
1.4708627023
 31
0.0
  0
LINE
  5
2B2
330
1F
100
AcDbEntity
  8
Geo
  6
Continuous
 62
     7
370
    35
100
AcDbLine
 10
-21.2266843863
 20
1.4708627023
 30
0.0
 11
-21.1266843863
 21
1.4026430494
 31
0.0
  0
LINE
  5
2B3
330
1F
100
AcDbEntity
  8
Geo
  6
Continuous
 62
     7
370
    35
100
AcDbLine
 10
-21.1266843863
 20
1.4026430494
 30
0.0
 11
-21.0266843863
 21
1.3350485335
 31
0.0
  0
LINE
  5
2B4
330
1F
100
AcDbEntity
  8
Geo
  6
Continuous
 62
     7
370
    35
100
AcDbLine
 10
-21.0266843863
 20
1.3350485335
 30
0.0
 11
-20.9266843863
 21
1.2681187979
 31
0.0
  0
LINE
  5
2B5
330
1F
100
AcDbEntity
  8
Geo
  6
Continuous
 62
     7
370
    35
100
AcDbLine
 10
-20.9266843863
 20
1.2681187979
 30
0.0
 11
-20.8266843863
 21
1.201893096
 31
0.0
  0
LINE
  5
2B6
330
1F
100
AcDbEntity
  8
Geo
  6
Continuous
 62
     7
370
    35
100
AcDbLine
 10
-20.8266843863
 20
1.201893096
 30
0.0
 11
-20.7266843863
 21
1.1364102684
 31
0.0
  0
LINE
  5
2B7
330
1F
100
AcDbEntity
  8
Geo
  6
Continuous
 62
     7
370
    35
100
AcDbLine
 10
-20.7266843863
 20
1.1364102684
 30
0.0
 11
-20.6266843863
 21
1.0717087198
 31
0.0
  0
LINE
  5
2B8
330
1F
100
AcDbEntity
  8
Geo
  6
Continuous
 62
     7
370
    35
100
AcDbLine
 10
-20.6266843863
 20
1.0717087198
 30
0.0
 11
-20.5266843863
 21
1.0078263968
 31
0.0
  0
LINE
  5
2B9
330
1F
100
AcDbEntity
  8
Geo
  6
Continuous
 62
     7
370
    35
100
AcDbLine
 10
-20.5266843863
 20
1.0078263968
 30
0.0
 11
-20.4266843863
 21
0.9448007656
 31
0.0
  0
LINE
  5
2BA
330
1F
100
AcDbEntity
  8
Geo
  6
Continuous
 62
     7
370
    35
100
AcDbLine
 10
-20.4266843863
 20
0.9448007656
 30
0.0
 11
-20.3266843863
 21
0.88266879
 31
0.0
  0
LINE
  5
2BB
330
1F
100
AcDbEntity
  8
Geo
  6
Continuous
 62
     7
370
    35
100
AcDbLine
 10
-20.3266843863
 20
0.88266879
 30
0.0
 11
-20.2266843863
 21
0.8214669094
 31
0.0
  0
LINE
  5
2BC
330
1F
100
AcDbEntity
  8
Geo
  6
Continuous
 62
     7
370
    35
100
AcDbLine
 10
-20.2266843863
 20
0.8214669094
 30
0.0
 11
-20.1266843863
 21
0.7612310181
 31
0.0
  0
LINE
  5
2BD
330
1F
100
AcDbEntity
  8
Geo
  6
Continuous
 62
     7
370
    35
100
AcDbLine
 10
-20.1266843863
 20
0.7612310181
 30
0.0
 11
-20.0266843863
 21
0.7019964435
 31
0.0
  0
LINE
  5
2BE
330
1F
100
AcDbEntity
  8
Geo
  6
Continuous
 62
     7
370
    35
100
AcDbLine
 10
-20.0266843863
 20
0.7019964435
 30
0.0
 11
-19.9266843863
 21
0.643797926
 31
0.0
  0
LINE
  5
2BF
330
1F
100
AcDbEntity
  8
Geo
  6
Continuous
 62
     7
370
    35
100
AcDbLine
 10
-19.9266843863
 20
0.643797926
 30
0.0
 11
-19.8266843863
 21
0.5866695982
 31
0.0
  0
LINE
  5
2C0
330
1F
100
AcDbEntity
  8
Geo
  6
Continuous
 62
     7
370
    35
100
AcDbLine
 10
-19.8266843863
 20
0.5866695982
 30
0.0
 11
-19.7266843863
 21
0.5306449653
 31
0.0
  0
LINE
  5
2C1
330
1F
100
AcDbEntity
  8
Geo
  6
Continuous
 62
     7
370
    35
100
AcDbLine
 10
-19.7266843863
 20
0.5306449653
 30
0.0
 11
-19.6266843863
 21
0.4757568847
 31
0.0
  0
LINE
  5
2C2
330
1F
100
AcDbEntity
  8
Geo
  6
Continuous
 62
     7
370
    35
100
AcDbLine
 10
-19.6266843863
 20
0.4757568847
 30
0.0
 11
-19.5266843863
 21
0.4220375479
 31
0.0
  0
LINE
  5
2C3
330
1F
100
AcDbEntity
  8
Geo
  6
Continuous
 62
     7
370
    35
100
AcDbLine
 10
-19.5266843863
 20
0.4220375479
 30
0.0
 11
-19.4266843863
 21
0.3695184603
 31
0.0
  0
LINE
  5
2C4
330
1F
100
AcDbEntity
  8
Geo
  6
Continuous
 62
     7
370
    35
100
AcDbLine
 10
-19.4266843863
 20
0.3695184603
 30
0.0
 11
-19.3266843863
 21
0.3182304238
 31
0.0
  0
LINE
  5
2C5
330
1F
100
AcDbEntity
  8
Geo
  6
Continuous
 62
     7
370
    35
100
AcDbLine
 10
-19.3266843863
 20
0.3182304238
 30
0.0
 11
-19.2266843863
 21
0.2682035181
 31
0.0
  0
LINE
  5
2C6
330
1F
100
AcDbEntity
  8
Geo
  6
Continuous
 62
     7
370
    35
100
AcDbLine
 10
-19.2266843863
 20
0.2682035181
 30
0.0
 11
-19.1266843863
 21
0.2194670834
 31
0.0
  0
LINE
  5
2C7
330
1F
100
AcDbEntity
  8
Geo
  6
Continuous
 62
     7
370
    35
100
AcDbLine
 10
-19.1266843863
 20
0.2194670834
 30
0.0
 11
-19.0266843863
 21
0.1720497029
 31
0.0
  0
LINE
  5
2C8
330
1F
100
AcDbEntity
  8
Geo
  6
Continuous
 62
     7
370
    35
100
AcDbLine
 10
-19.0266843863
 20
0.1720497029
 30
0.0
 11
-18.9266843863
 21
0.1259791864
 31
0.0
  0
LINE
  5
2C9
330
1F
100
AcDbEntity
  8
Geo
  6
Continuous
 62
     7
370
    35
100
AcDbLine
 10
-18.9266843863
 20
0.1259791864
 30
0.0
 11
-18.8266843863
 21
0.0812825535
 31
0.0
  0
LINE
  5
2CA
330
1F
100
AcDbEntity
  8
Geo
  6
Continuous
 62
     7
370
    35
100
AcDbLine
 10
-18.8266843863
 20
0.0812825535
 30
0.0
 11
-18.7266843863
 21
0.0379860183
 31
0.0
  0
LINE
  5
2CB
330
1F
100
AcDbEntity
  8
Geo
  6
Continuous
 62
     7
370
    35
100
AcDbLine
 10
-18.7266843863
 20
0.0379860183
 30
0.0
 11
-18.6266843863
 21
-0.0038850264
 31
0.0
  0
LINE
  5
2CC
330
1F
100
AcDbEntity
  8
Geo
  6
Continuous
 62
     7
370
    35
100
AcDbLine
 10
-18.6266843863
 20
-0.0038850264
 30
0.0
 11
-18.5584748763
 21
-0.0314559906
 31
0.0
  0
LINE
  5
2CD
330
1F
100
AcDbEntity
  8
Geo
  6
Continuous
 62
     7
370
    35
100
AcDbLine
 10
-29.9266843863
 20
4.1425123193
 30
0.0
 11
-29.8266843863
 21
4.1194832783
 31
0.0
  0
LINE
  5
2CE
330
1F
100
AcDbEntity
  8
Geo
  6
Continuous
 62
     7
370
    35
100
AcDbLine
 10
-29.9266843863
 20
1.2427004088
 30
0.0
 11
-29.8266843863
 21
1.1574194165
 31
0.0
  0
LINE
  5
2CF
330
1F
100
AcDbEntity
  8
Geo
  6
Continuous
 62
     7
370
    35
100
AcDbLine
 10
-29.8266843863
 20
4.1194832783
 30
0.0
 11
-29.7266843863
 21
4.0613922818
 31
0.0
  0
LINE
  5
2D0
330
1F
100
AcDbEntity
  8
Geo
  6
Continuous
 62
     7
370
    35
100
AcDbLine
 10
-29.8266843863
 20
1.1574194165
 30
0.0
 11
-29.7266843863
 21
1.0978184031
 31
0.0
  0
LINE
  5
2D1
330
1F
100
AcDbEntity
  8
Geo
  6
Continuous
 62
     7
370
    35
100
AcDbLine
 10
-29.7266843863
 20
4.0613922818
 30
0.0
 11
-29.6266843863
 21
4.002433593
 31
0.0
  0
LINE
  5
2D2
330
1F
100
AcDbEntity
  8
Geo
  6
Continuous
 62
     7
370
    35
100
AcDbLine
 10
-29.7266843863
 20
1.0978184031
 30
0.0
 11
-29.6266843863
 21
1.0389102803
 31
0.0
  0
LINE
  5
2D3
330
1F
100
AcDbEntity
  8
Geo
  6
Continuous
 62
     7
370
    35
100
AcDbLine
 10
-29.6266843863
 20
4.002433593
 30
0.0
 11
-29.5266843863
 21
3.9426393292
 31
0.0
  0
LINE
  5
2D4
330
1F
100
AcDbEntity
  8
Geo
  6
Continuous
 62
     7
370
    35
100
AcDbLine
 10
-29.6266843863
 20
1.0389102803
 30
0.0
 11
-29.5266843863
 21
0.9807248255
 31
0.0
  0
LINE
  5
2D5
330
1F
100
AcDbEntity
  8
Geo
  6
Continuous
 62
     7
370
    35
100
AcDbLine
 10
-29.5266843863
 20
3.9426393292
 30
0.0
 11
-29.4266843863
 21
3.8820420628
 31
0.0
  0
LINE
  5
2D6
330
1F
100
AcDbEntity
  8
Geo
  6
Continuous
 62
     7
370
    35
100
AcDbLine
 10
-29.5266843863
 20
0.9807248255
 30
0.0
 11
-29.4266843863
 21
0.9232914511
 31
0.0
  0
LINE
  5
2D7
330
1F
100
AcDbEntity
  8
Geo
  6
Continuous
 62
     7
370
    35
100
AcDbLine
 10
-29.4266843863
 20
3.8820420628
 30
0.0
 11
-29.3266843863
 21
3.8206748039
 31
0.0
  0
LINE
  5
2D8
330
1F
100
AcDbEntity
  8
Geo
  6
Continuous
 62
     7
370
    35
100
AcDbLine
 10
-29.4266843863
 20
0.9232914511
 30
0.0
 11
-29.3266843863
 21
0.866639189
 31
0.0
  0
LINE
  5
2D9
330
1F
100
AcDbEntity
  8
Geo
  6
Continuous
 62
     7
370
    35
100
AcDbLine
 10
-29.3266843863
 20
3.8206748039
 30
0.0
 11
-29.2266843863
 21
3.7585709817
 31
0.0
  0
LINE
  5
2DA
330
1F
100
AcDbEntity
  8
Geo
  6
Continuous
 62
     7
370
    35
100
AcDbLine
 10
-29.3266843863
 20
0.866639189
 30
0.0
 11
-29.2266843863
 21
0.8107966767
 31
0.0
  0
LINE
  5
2DB
330
1F
100
AcDbEntity
  8
Geo
  6
Continuous
 62
     7
370
    35
100
AcDbLine
 10
-29.2266843863
 20
3.7585709817
 30
0.0
 11
-29.1266843863
 21
3.6957644269
 31
0.0
  0
LINE
  5
2DC
330
1F
100
AcDbEntity
  8
Geo
  6
Continuous
 62
     7
370
    35
100
AcDbLine
 10
-29.2266843863
 20
0.8107966767
 30
0.0
 11
-29.1266843863
 21
0.7557921419
 31
0.0
  0
LINE
  5
2DD
330
1F
100
AcDbEntity
  8
Geo
  6
Continuous
 62
     7
370
    35
100
AcDbLine
 10
-29.1266843863
 20
3.6957644269
 30
0.0
 11
-29.0266843863
 21
3.6322893528
 31
0.0
  0
LINE
  5
2DE
330
1F
100
AcDbEntity
  8
Geo
  6
Continuous
 62
     7
370
    35
100
AcDbLine
 10
-29.1266843863
 20
0.7557921419
 30
0.0
 11
-29.0266843863
 21
0.7016533891
 31
0.0
  0
LINE
  5
2DF
330
1F
100
AcDbEntity
  8
Geo
  6
Continuous
 62
     7
370
    35
100
AcDbLine
 10
-29.0266843863
 20
3.6322893528
 30
0.0
 11
-28.9266843863
 21
3.5681803371
 31
0.0
  0
LINE
  5
2E0
330
1F
100
AcDbEntity
  8
Geo
  6
Continuous
 62
     7
370
    35
100
AcDbLine
 10
-29.0266843863
 20
0.7016533891
 30
0.0
 11
-28.9266843863
 21
0.6484077848
 31
0.0
  0
LINE
  5
2E1
330
1F
100
AcDbEntity
  8
Geo
  6
Continuous
 62
     7
370
    35
100
AcDbLine
 10
-28.9266843863
 20
3.5681803371
 30
0.0
 11
-28.8266843863
 21
3.5034723026
 31
0.0
  0
LINE
  5
2E2
330
1F
100
AcDbEntity
  8
Geo
  6
Continuous
 62
     7
370
    35
100
AcDbLine
 10
-28.9266843863
 20
0.6484077848
 30
0.0
 11
-28.8266843863
 21
0.5960822445
 31
0.0
  0
LINE
  5
2E3
330
1F
100
AcDbEntity
  8
Geo
  6
Continuous
 62
     7
370
    35
100
AcDbLine
 10
-28.8266843863
 20
3.5034723026
 30
0.0
 11
-28.7266843863
 21
3.4382004986
 31
0.0
  0
LINE
  5
2E4
330
1F
100
AcDbEntity
  8
Geo
  6
Continuous
 62
     7
370
    35
100
AcDbLine
 10
-28.8266843863
 20
0.5960822445
 30
0.0
 11
-28.7266843863
 21
0.5447032181
 31
0.0
  0
LINE
  5
2E5
330
1F
100
AcDbEntity
  8
Geo
  6
Continuous
 62
     7
370
    35
100
AcDbLine
 10
-28.7266843863
 20
3.4382004986
 30
0.0
 11
-28.6266843863
 21
3.3724004814
 31
0.0
  0
LINE
  5
2E6
330
1F
100
AcDbEntity
  8
Geo
  6
Continuous
 62
     7
370
    35
100
AcDbLine
 10
-28.7266843863
 20
0.5447032181
 30
0.0
 11
-28.6266843863
 21
0.4942966773
 31
0.0
  0
LINE
  5
2E7
330
1F
100
AcDbEntity
  8
Geo
  6
Continuous
 62
     7
370
    35
100
AcDbLine
 10
-28.6266843863
 20
3.3724004814
 30
0.0
 11
-28.5266843863
 21
3.3061080951
 31
0.0
  0
LINE
  5
2E8
330
1F
100
AcDbEntity
  8
Geo
  6
Continuous
 62
     7
370
    35
100
AcDbLine
 10
-28.6266843863
 20
0.4942966773
 30
0.0
 11
-28.5266843863
 21
0.4448881023
 31
0.0
  0
LINE
  5
2E9
330
1F
100
AcDbEntity
  8
Geo
  6
Continuous
 62
     7
370
    35
100
AcDbLine
 10
-28.5266843863
 20
3.3061080951
 30
0.0
 11
-28.4266843863
 21
3.2393594519
 31
0.0
  0
LINE
  5
2EA
330
1F
100
AcDbEntity
  8
Geo
  6
Continuous
 62
     7
370
    35
100
AcDbLine
 10
-28.5266843863
 20
0.4448881023
 30
0.0
 11
-28.4266843863
 21
0.3965024687
 31
0.0
  0
LINE
  5
2EB
330
1F
100
AcDbEntity
  8
Geo
  6
Continuous
 62
     7
370
    35
100
AcDbLine
 10
-28.4266843863
 20
3.2393594519
 30
0.0
 11
-28.3266843863
 21
3.1721909127
 31
0.0
  0
LINE
  5
2EC
330
1F
100
AcDbEntity
  8
Geo
  6
Continuous
 62
     7
370
    35
100
AcDbLine
 10
-28.4266843863
 20
0.3965024687
 30
0.0
 11
-28.3266843863
 21
0.349164235
 31
0.0
  0
LINE
  5
2ED
330
1F
100
AcDbEntity
  8
Geo
  6
Continuous
 62
     7
370
    35
100
AcDbLine
 10
-28.3266843863
 20
3.1721909127
 30
0.0
 11
-28.2266843863
 21
3.1046390671
 31
0.0
  0
LINE
  5
2EE
330
1F
100
AcDbEntity
  8
Geo
  6
Continuous
 62
     7
370
    35
100
AcDbLine
 10
-28.3266843863
 20
0.349164235
 30
0.0
 11
-28.2266843863
 21
0.3028973302
 31
0.0
  0
LINE
  5
2EF
330
1F
100
AcDbEntity
  8
Geo
  6
Continuous
 62
     7
370
    35
100
AcDbLine
 10
-28.2266843863
 20
3.1046390671
 30
0.0
 11
-28.1266843863
 21
3.0367407134
 31
0.0
  0
LINE
  5
2F0
330
1F
100
AcDbEntity
  8
Geo
  6
Continuous
 62
     7
370
    35
100
AcDbLine
 10
-28.2266843863
 20
0.3028973302
 30
0.0
 11
-28.1266843863
 21
0.257725142
 31
0.0
  0
LINE
  5
2F1
330
1F
100
AcDbEntity
  8
Geo
  6
Continuous
 62
     7
370
    35
100
AcDbLine
 10
-28.1266843863
 20
3.0367407134
 30
0.0
 11
-28.0266843863
 21
2.9685328388
 31
0.0
  0
LINE
  5
2F2
330
1F
100
AcDbEntity
  8
Geo
  6
Continuous
 62
     7
370
    35
100
AcDbLine
 10
-28.1266843863
 20
0.257725142
 30
0.0
 11
-28.0266843863
 21
0.2136705044
 31
0.0
  0
LINE
  5
2F3
330
1F
100
AcDbEntity
  8
Geo
  6
Continuous
 62
     7
370
    35
100
AcDbLine
 10
-28.0266843863
 20
2.9685328388
 30
0.0
 11
-27.9266843863
 21
2.9000525989
 31
0.0
  0
LINE
  5
2F4
330
1F
100
AcDbEntity
  8
Geo
  6
Continuous
 62
     7
370
    35
100
AcDbLine
 10
-28.0266843863
 20
0.2136705044
 30
0.0
 11
-27.9266843863
 21
0.1707556869
 31
0.0
  0
LINE
  5
2F5
330
1F
100
AcDbEntity
  8
Geo
  6
Continuous
 62
     7
370
    35
100
AcDbLine
 10
-27.9266843863
 20
2.9000525989
 30
0.0
 11
-27.8266843863
 21
2.831337298
 31
0.0
  0
LINE
  5
2F6
330
1F
100
AcDbEntity
  8
Geo
  6
Continuous
 62
     7
370
    35
100
AcDbLine
 10
-27.9266843863
 20
0.1707556869
 30
0.0
 11
-27.8266843863
 21
0.1290023823
 31
0.0
  0
LINE
  5
2F7
330
1F
100
AcDbEntity
  8
Geo
  6
Continuous
 62
     7
370
    35
100
AcDbLine
 10
-27.8266843863
 20
2.831337298
 30
0.0
 11
-27.7266843863
 21
2.762424368
 31
0.0
  0
LINE
  5
2F8
330
1F
100
AcDbEntity
  8
Geo
  6
Continuous
 62
     7
370
    35
100
AcDbLine
 10
-27.8266843863
 20
0.1290023823
 30
0.0
 11
-27.7266843863
 21
0.0884316968
 31
0.0
  0
LINE
  5
2F9
330
1F
100
AcDbEntity
  8
Geo
  6
Continuous
 62
     7
370
    35
100
AcDbLine
 10
-27.7266843863
 20
2.762424368
 30
0.0
 11
-27.6266843863
 21
2.693351349
 31
0.0
  0
LINE
  5
2FA
330
1F
100
AcDbEntity
  8
Geo
  6
Continuous
 62
     7
370
    35
100
AcDbLine
 10
-27.7266843863
 20
0.0884316968
 30
0.0
 11
-27.6266843863
 21
0.0490641383
 31
0.0
  0
LINE
  5
2FB
330
1F
100
AcDbEntity
  8
Geo
  6
Continuous
 62
     7
370
    35
100
AcDbLine
 10
-27.6266843863
 20
2.693351349
 30
0.0
 11
-27.5266843863
 21
2.6241558677
 31
0.0
  0
LINE
  5
2FC
330
1F
100
AcDbEntity
  8
Geo
  6
Continuous
 62
     7
370
    35
100
AcDbLine
 10
-27.6266843863
 20
0.0490641383
 30
0.0
 11
-27.5266843863
 21
0.010919607
 31
0.0
  0
LINE
  5
2FD
330
1F
100
AcDbEntity
  8
Geo
  6
Continuous
 62
     7
370
    35
100
AcDbLine
 10
-27.5266843863
 20
2.6241558677
 30
0.0
 11
-27.4266843863
 21
2.5548756181
 31
0.0
  0
LINE
  5
2FE
330
1F
100
AcDbEntity
  8
Geo
  6
Continuous
 62
     7
370
    35
100
AcDbLine
 10
-27.5266843863
 20
0.010919607
 30
0.0
 11
-27.4266843863
 21
-0.0259826154
 31
0.0
  0
LINE
  5
2FF
330
1F
100
AcDbEntity
  8
Geo
  6
Continuous
 62
     7
370
    35
100
AcDbLine
 10
-27.4266843863
 20
2.5548756181
 30
0.0
 11
-27.3266843863
 21
2.48554834
 31
0.0
  0
LINE
  5
300
330
1F
100
AcDbEntity
  8
Geo
  6
Continuous
 62
     7
370
    35
100
AcDbLine
 10
-27.4266843863
 20
-0.0259826154
 30
0.0
 11
-27.4113275352
 21
-0.0314559906
 31
0.0
  0
LINE
  5
301
330
1F
100
AcDbEntity
  8
Geo
  6
Continuous
 62
     7
370
    35
100
AcDbLine
 10
-27.3362258437
 20
4.9685440094
 30
0.0
 11
-27.3266843863
 21
4.9648925883
 31
0.0
  0
LINE
  5
302
330
1F
100
AcDbEntity
  8
Geo
  6
Continuous
 62
     7
370
    35
100
AcDbLine
 10
-27.3266843863
 20
2.48554834
 30
0.0
 11
-27.2266843863
 21
2.4162117989
 31
0.0
  0
LINE
  5
303
330
1F
100
AcDbEntity
  8
Geo
  6
Continuous
 62
     7
370
    35
100
AcDbLine
 10
-27.3266843863
 20
4.9648925883
 30
0.0
 11
-27.2266843863
 21
4.9251595045
 31
0.0
  0
LINE
  5
304
330
1F
100
AcDbEntity
  8
Geo
  6
Continuous
 62
     7
370
    35
100
AcDbLine
 10
-27.2266843863
 20
2.4162117989
 30
0.0
 11
-27.1266843863
 21
2.3469037654
 31
0.0
  0
LINE
  5
305
330
1F
100
AcDbEntity
  8
Geo
  6
Continuous
 62
     7
370
    35
100
AcDbLine
 10
-27.2266843863
 20
4.9251595045
 30
0.0
 11
-27.1266843863
 21
4.8839856478
 31
0.0
  0
LINE
  5
306
330
1F
100
AcDbEntity
  8
Geo
  6
Continuous
 62
     7
370
    35
100
AcDbLine
 10
-27.1266843863
 20
2.3469037654
 30
0.0
 11
-27.0266843863
 21
2.2776619945
 31
0.0
  0
LINE
  5
307
330
1F
100
AcDbEntity
  8
Geo
  6
Continuous
 62
     7
370
    35
100
AcDbLine
 10
-27.1266843863
 20
4.8839856478
 30
0.0
 11
-27.0266843863
 21
4.8413951661
 31
0.0
  0
LINE
  5
308
330
1F
100
AcDbEntity
  8
Geo
  6
Continuous
 62
     7
370
    35
100
AcDbLine
 10
-27.0266843863
 20
2.2776619945
 30
0.0
 11
-26.9266843863
 21
2.2085242051
 31
0.0
  0
LINE
  5
309
330
1F
100
AcDbEntity
  8
Geo
  6
Continuous
 62
     7
370
    35
100
AcDbLine
 10
-27.0266843863
 20
4.8413951661
 30
0.0
 11
-26.9266843863
 21
4.7974130383
 31
0.0
  0
LINE
  5
30A
330
1F
100
AcDbEntity
  8
Geo
  6
Continuous
 62
     7
370
    35
100
AcDbLine
 10
-26.9266843863
 20
2.2085242051
 30
0.0
 11
-26.8266843863
 21
2.1395280597
 31
0.0
  0
LINE
  5
30B
330
1F
100
AcDbEntity
  8
Geo
  6
Continuous
 62
     7
370
    35
100
AcDbLine
 10
-26.9266843863
 20
4.7974130383
 30
0.0
 11
-26.8266843863
 21
4.7520650591
 31
0.0
  0
LINE
  5
30C
330
1F
100
AcDbEntity
  8
Geo
  6
Continuous
 62
     7
370
    35
100
AcDbLine
 10
-26.8266843863
 20
2.1395280597
 30
0.0
 11
-26.7266843863
 21
2.0707111432
 31
0.0
  0
LINE
  5
30D
330
1F
100
AcDbEntity
  8
Geo
  6
Continuous
 62
     7
370
    35
100
AcDbLine
 10
-26.8266843863
 20
4.7520650591
 30
0.0
 11
-26.7266843863
 21
4.7053778247
 31
0.0
  0
LINE
  5
30E
330
1F
100
AcDbEntity
  8
Geo
  6
Continuous
 62
     7
370
    35
100
AcDbLine
 10
-26.7266843863
 20
2.0707111432
 30
0.0
 11
-26.6266843863
 21
2.0021109432
 31
0.0
  0
LINE
  5
30F
330
1F
100
AcDbEntity
  8
Geo
  6
Continuous
 62
     7
370
    35
100
AcDbLine
 10
-26.7266843863
 20
4.7053778247
 30
0.0
 11
-26.6266843863
 21
4.6573787165
 31
0.0
  0
LINE
  5
310
330
1F
100
AcDbEntity
  8
Geo
  6
Continuous
 62
     7
370
    35
100
AcDbLine
 10
-26.6266843863
 20
2.0021109432
 30
0.0
 11
-26.5266843863
 21
1.9337648293
 31
0.0
  0
LINE
  5
311
330
1F
100
AcDbEntity
  8
Geo
  6
Continuous
 62
     7
370
    35
100
AcDbLine
 10
-26.6266843863
 20
4.6573787165
 30
0.0
 11
-26.5266843863
 21
4.6080958853
 31
0.0
  0
LINE
  5
312
330
1F
100
AcDbEntity
  8
Geo
  6
Continuous
 62
     7
370
    35
100
AcDbLine
 10
-26.5266843863
 20
1.9337648293
 30
0.0
 11
-26.4266843863
 21
1.8657100323
 31
0.0
  0
LINE
  5
313
330
1F
100
AcDbEntity
  8
Geo
  6
Continuous
 62
     7
370
    35
100
AcDbLine
 10
-26.5266843863
 20
4.6080958853
 30
0.0
 11
-26.4266843863
 21
4.5575582349
 31
0.0
  0
LINE
  5
314
330
1F
100
AcDbEntity
  8
Geo
  6
Continuous
 62
     7
370
    35
100
AcDbLine
 10
-26.4266843863
 20
1.8657100323
 30
0.0
 11
-26.3266843863
 21
1.7979836246
 31
0.0
  0
LINE
  5
315
330
1F
100
AcDbEntity
  8
Geo
  6
Continuous
 62
     7
370
    35
100
AcDbLine
 10
-26.4266843863
 20
4.5575582349
 30
0.0
 11
-26.3266843863
 21
4.5057954049
 31
0.0
  0
LINE
  5
316
330
1F
100
AcDbEntity
  8
Geo
  6
Continuous
 62
     7
370
    35
100
AcDbLine
 10
-26.3266843863
 20
1.7979836246
 30
0.0
 11
-26.2266843863
 21
1.7306224998
 31
0.0
  0
LINE
  5
317
330
1F
100
AcDbEntity
  8
Geo
  6
Continuous
 62
     7
370
    35
100
AcDbLine
 10
-26.3266843863
 20
4.5057954049
 30
0.0
 11
-26.2266843863
 21
4.4528377536
 31
0.0
  0
LINE
  5
318
330
1F
100
AcDbEntity
  8
Geo
  6
Continuous
 62
     7
370
    35
100
AcDbLine
 10
-26.2266843863
 20
1.7306224998
 30
0.0
 11
-26.1266843863
 21
1.6636633522
 31
0.0
  0
LINE
  5
319
330
1F
100
AcDbEntity
  8
Geo
  6
Continuous
 62
     7
370
    35
100
AcDbLine
 10
-26.2266843863
 20
4.4528377536
 30
0.0
 11
-26.1266843863
 21
4.3987163399
 31
0.0
  0
LINE
  5
31A
330
1F
100
AcDbEntity
  8
Geo
  6
Continuous
 62
     7
370
    35
100
AcDbLine
 10
-26.1266843863
 20
1.6636633522
 30
0.0
 11
-26.0266843863
 21
1.5971426574
 31
0.0
  0
LINE
  5
31B
330
1F
100
AcDbEntity
  8
Geo
  6
Continuous
 62
     7
370
    35
100
AcDbLine
 10
-26.1266843863
 20
4.3987163399
 30
0.0
 11
-26.0266843863
 21
4.3434629053
 31
0.0
  0
LINE
  5
31C
330
1F
100
AcDbEntity
  8
Geo
  6
Continuous
 62
     7
370
    35
100
AcDbLine
 10
-26.0266843863
 20
1.5971426574
 30
0.0
 11
-25.9266843863
 21
1.5310966521
 31
0.0
  0
LINE
  5
31D
330
1F
100
AcDbEntity
  8
Geo
  6
Continuous
 62
     7
370
    35
100
AcDbLine
 10
-26.0266843863
 20
4.3434629053
 30
0.0
 11
-25.9266843863
 21
4.2871098553
 31
0.0
  0
LINE
  5
31E
330
1F
100
AcDbEntity
  8
Geo
  6
Continuous
 62
     7
370
    35
100
AcDbLine
 10
-25.9266843863
 20
1.5310966521
 30
0.0
 11
-25.8266843863
 21
1.4655613143
 31
0.0
  0
LINE
  5
31F
330
1F
100
AcDbEntity
  8
Geo
  6
Continuous
 62
     7
370
    35
100
AcDbLine
 10
-25.9266843863
 20
4.2871098553
 30
0.0
 11
-25.8266843863
 21
4.2296902402
 31
0.0
  0
LINE
  5
320
330
1F
100
AcDbEntity
  8
Geo
  6
Continuous
 62
     7
370
    35
100
AcDbLine
 10
-25.8266843863
 20
1.4655613143
 30
0.0
 11
-25.7266843863
 21
1.4005723438
 31
0.0
  0
LINE
  5
321
330
1F
100
AcDbEntity
  8
Geo
  6
Continuous
 62
     7
370
    35
100
AcDbLine
 10
-25.8266843863
 20
4.2296902402
 30
0.0
 11
-25.7266843863
 21
4.1712377358
 31
0.0
  0
LINE
  5
322
330
1F
100
AcDbEntity
  8
Geo
  6
Continuous
 62
     7
370
    35
100
AcDbLine
 10
-25.7266843863
 20
1.4005723438
 30
0.0
 11
-25.6266843863
 21
1.336165143
 31
0.0
  0
LINE
  5
323
330
1F
100
AcDbEntity
  8
Geo
  6
Continuous
 62
     7
370
    35
100
AcDbLine
 10
-25.7266843863
 20
4.1712377358
 30
0.0
 11
-25.6266843863
 21
4.1117866238
 31
0.0
  0
LINE
  5
324
330
1F
100
AcDbEntity
  8
Geo
  6
Continuous
 62
     7
370
    35
100
AcDbLine
 10
-25.6266843863
 20
1.336165143
 30
0.0
 11
-25.5266843863
 21
1.2723747973
 31
0.0
  0
LINE
  5
325
330
1F
100
AcDbEntity
  8
Geo
  6
Continuous
 62
     7
370
    35
100
AcDbLine
 10
-25.6266843863
 20
4.1117866238
 30
0.0
 11
-25.5266843863
 21
4.0513717715
 31
0.0
  0
LINE
  5
326
330
1F
100
AcDbEntity
  8
Geo
  6
Continuous
 62
     7
370
    35
100
AcDbLine
 10
-25.5266843863
 20
1.2723747973
 30
0.0
 11
-25.4266843863
 21
1.2092360558
 31
0.0
  0
LINE
  5
327
330
1F
100
AcDbEntity
  8
Geo
  6
Continuous
 62
     7
370
    35
100
AcDbLine
 10
-25.5266843863
 20
4.0513717715
 30
0.0
 11
-25.4266843863
 21
3.9900286113
 31
0.0
  0
LINE
  5
328
330
1F
100
AcDbEntity
  8
Geo
  6
Continuous
 62
     7
370
    35
100
AcDbLine
 10
-25.4266843863
 20
1.2092360558
 30
0.0
 11
-25.3266843863
 21
1.1467833131
 31
0.0
  0
LINE
  5
329
330
1F
100
AcDbEntity
  8
Geo
  6
Continuous
 62
     7
370
    35
100
AcDbLine
 10
-25.4266843863
 20
3.9900286113
 30
0.0
 11
-25.3266843863
 21
3.9277931203
 31
0.0
  0
LINE
  5
32A
330
1F
100
AcDbEntity
  8
Geo
  6
Continuous
 62
     7
370
    35
100
AcDbLine
 10
-25.3266843863
 20
1.1467833131
 30
0.0
 11
-25.2266843863
 21
1.0850505897
 31
0.0
  0
LINE
  5
32B
330
1F
100
AcDbEntity
  8
Geo
  6
Continuous
 62
     7
370
    35
100
AcDbLine
 10
-25.3266843863
 20
3.9277931203
 30
0.0
 11
-25.2266843863
 21
3.8647017988
 31
0.0
  0
LINE
  5
32C
330
1F
100
AcDbEntity
  8
Geo
  6
Continuous
 62
     7
370
    35
100
AcDbLine
 10
-25.2266843863
 20
1.0850505897
 30
0.0
 11
-25.1266843863
 21
1.0240715141
 31
0.0
  0
LINE
  5
32D
330
1F
100
AcDbEntity
  8
Geo
  6
Continuous
 62
     7
370
    35
100
AcDbLine
 10
-25.2266843863
 20
3.8647017988
 30
0.0
 11
-25.1266843863
 21
3.8007916489
 31
0.0
  0
LINE
  5
32E
330
1F
100
AcDbEntity
  8
Geo
  6
Continuous
 62
     7
370
    35
100
AcDbLine
 10
-25.1266843863
 20
1.0240715141
 30
0.0
 11
-25.0266843863
 21
0.9638793042
 31
0.0
  0
LINE
  5
32F
330
1F
100
AcDbEntity
  8
Geo
  6
Continuous
 62
     7
370
    35
100
AcDbLine
 10
-25.1266843863
 20
3.8007916489
 30
0.0
 11
-25.0266843863
 21
3.7361001533
 31
0.0
  0
LINE
  5
330
330
1F
100
AcDbEntity
  8
Geo
  6
Continuous
 62
     7
370
    35
100
AcDbLine
 10
-25.0266843863
 20
0.9638793042
 30
0.0
 11
-24.9266843863
 21
0.9045067493
 31
0.0
  0
LINE
  5
331
330
1F
100
AcDbEntity
  8
Geo
  6
Continuous
 62
     7
370
    35
100
AcDbLine
 10
-25.0266843863
 20
3.7361001533
 30
0.0
 11
-24.9266843863
 21
3.6706652524
 31
0.0
  0
LINE
  5
332
330
1F
100
AcDbEntity
  8
Geo
  6
Continuous
 62
     7
370
    35
100
AcDbLine
 10
-24.9266843863
 20
0.9045067493
 30
0.0
 11
-24.8266843863
 21
0.8459861921
 31
0.0
  0
LINE
  5
333
330
1F
100
AcDbEntity
  8
Geo
  6
Continuous
 62
     7
370
    35
100
AcDbLine
 10
-24.9266843863
 20
3.6706652524
 30
0.0
 11
-24.8266843863
 21
3.6045253232
 31
0.0
  0
LINE
  5
334
330
1F
100
AcDbEntity
  8
Geo
  6
Continuous
 62
     7
370
    35
100
AcDbLine
 10
-24.8266843863
 20
0.8459861921
 30
0.0
 11
-24.7266843863
 21
0.7883495112
 31
0.0
  0
LINE
  5
335
330
1F
100
AcDbEntity
  8
Geo
  6
Continuous
 62
     7
370
    35
100
AcDbLine
 10
-24.8266843863
 20
3.6045253232
 30
0.0
 11
-24.7266843863
 21
3.5377191558
 31
0.0
  0
LINE
  5
336
330
1F
100
AcDbEntity
  8
Geo
  6
Continuous
 62
     7
370
    35
100
AcDbLine
 10
-24.7266843863
 20
0.7883495112
 30
0.0
 11
-24.6266843863
 21
0.7316281039
 31
0.0
  0
LINE
  5
337
330
1F
100
AcDbEntity
  8
Geo
  6
Continuous
 62
     7
370
    35
100
AcDbLine
 10
-24.7266843863
 20
3.5377191558
 30
0.0
 11
-24.6266843863
 21
3.4702859311
 31
0.0
  0
LINE
  5
338
330
1F
100
AcDbEntity
  8
Geo
  6
Continuous
 62
     7
370
    35
100
AcDbLine
 10
-24.6266843863
 20
0.7316281039
 30
0.0
 11
-24.5266843863
 21
0.6758528687
 31
0.0
  0
LINE
  5
339
330
1F
100
AcDbEntity
  8
Geo
  6
Continuous
 62
     7
370
    35
100
AcDbLine
 10
-24.6266843863
 20
3.4702859311
 30
0.0
 11
-24.5266843863
 21
3.4022651979
 31
0.0
  0
LINE
  5
33A
330
1F
100
AcDbEntity
  8
Geo
  6
Continuous
 62
     7
370
    35
100
AcDbLine
 10
-24.5266843863
 20
0.6758528687
 30
0.0
 11
-24.4266843863
 21
0.6210541886
 31
0.0
  0
LINE
  5
33B
330
1F
100
AcDbEntity
  8
Geo
  6
Continuous
 62
     7
370
    35
100
AcDbLine
 10
-24.5266843863
 20
3.4022651979
 30
0.0
 11
-24.4266843863
 21
3.3336968493
 31
0.0
  0
LINE
  5
33C
330
1F
100
AcDbEntity
  8
Geo
  6
Continuous
 62
     7
370
    35
100
AcDbLine
 10
-24.4266843863
 20
0.6210541886
 30
0.0
 11
-24.3266843863
 21
0.567261915
 31
0.0
  0
LINE
  5
33D
330
1F
100
AcDbEntity
  8
Geo
  6
Continuous
 62
     7
370
    35
100
AcDbLine
 10
-24.4266843863
 20
3.3336968493
 30
0.0
 11
-24.3266843863
 21
3.2646211
 31
0.0
  0
LINE
  5
33E
330
1F
100
AcDbEntity
  8
Geo
  6
Continuous
 62
     7
370
    35
100
AcDbLine
 10
-24.3266843863
 20
0.567261915
 30
0.0
 11
-24.2266843863
 21
0.5145053508
 31
0.0
  0
LINE
  5
33F
330
1F
100
AcDbEntity
  8
Geo
  6
Continuous
 62
     7
370
    35
100
AcDbLine
 10
-24.3266843863
 20
3.2646211
 30
0.0
 11
-24.2266843863
 21
3.1950784618
 31
0.0
  0
LINE
  5
340
330
1F
100
AcDbEntity
  8
Geo
  6
Continuous
 62
     7
370
    35
100
AcDbLine
 10
-24.2266843863
 20
0.5145053508
 30
0.0
 11
-24.1266843863
 21
0.4628132346
 31
0.0
  0
LINE
  5
341
330
1F
100
AcDbEntity
  8
Geo
  6
Continuous
 62
     7
370
    35
100
AcDbLine
 10
-24.2266843863
 20
3.1950784618
 30
0.0
 11
-24.1266843863
 21
3.1251097206
 31
0.0
  0
LINE
  5
342
330
1F
100
AcDbEntity
  8
Geo
  6
Continuous
 62
     7
370
    35
100
AcDbLine
 10
-24.1266843863
 20
0.4628132346
 30
0.0
 11
-24.0266843863
 21
0.4122137255
 31
0.0
  0
LINE
  5
343
330
1F
100
AcDbEntity
  8
Geo
  6
Continuous
 62
     7
370
    35
100
AcDbLine
 10
-24.1266843863
 20
3.1251097206
 30
0.0
 11
-24.0266843863
 21
3.0547559123
 31
0.0
  0
LINE
  5
344
330
1F
100
AcDbEntity
  8
Geo
  6
Continuous
 62
     7
370
    35
100
AcDbLine
 10
-24.0266843863
 20
0.4122137255
 30
0.0
 11
-23.9266843863
 21
0.362734387
 31
0.0
  0
LINE
  5
345
330
1F
100
AcDbEntity
  8
Geo
  6
Continuous
 62
     7
370
    35
100
AcDbLine
 10
-24.0266843863
 20
3.0547559123
 30
0.0
 11
-23.9266843863
 21
2.9840582983
 31
0.0
  0
LINE
  5
346
330
1F
100
AcDbEntity
  8
Geo
  6
Continuous
 62
     7
370
    35
100
AcDbLine
 10
-23.9266843863
 20
0.362734387
 30
0.0
 11
-23.8266843863
 21
0.3144021727
 31
0.0
  0
LINE
  5
347
330
1F
100
AcDbEntity
  8
Geo
  6
Continuous
 62
     7
370
    35
100
AcDbLine
 10
-23.9266843863
 20
2.9840582983
 30
0.0
 11
-23.8266843863
 21
2.9130583419
 31
0.0
  0
LINE
  5
348
330
1F
100
AcDbEntity
  8
Geo
  6
Continuous
 62
     7
370
    35
100
AcDbLine
 10
-23.8266843863
 20
0.3144021727
 30
0.0
 11
-23.7266843863
 21
0.2672434113
 31
0.0
  0
LINE
  5
349
330
1F
100
AcDbEntity
  8
Geo
  6
Continuous
 62
     7
370
    35
100
AcDbLine
 10
-23.8266843863
 20
2.9130583419
 30
0.0
 11
-23.7266843863
 21
2.8417976837
 31
0.0
  0
LINE
  5
34A
330
1F
100
AcDbEntity
  8
Geo
  6
Continuous
 62
     7
370
    35
100
AcDbLine
 10
-23.7266843863
 20
0.2672434113
 30
0.0
 11
-23.6266843863
 21
0.2212837921
 31
0.0
  0
LINE
  5
34B
330
1F
100
AcDbEntity
  8
Geo
  6
Continuous
 62
     7
370
    35
100
AcDbLine
 10
-23.7266843863
 20
2.8417976837
 30
0.0
 11
-23.6266843863
 21
2.770318117
 31
0.0
  0
LINE
  5
34C
330
1F
100
AcDbEntity
  8
Geo
  6
Continuous
 62
     7
370
    35
100
AcDbLine
 10
-23.6266843863
 20
0.2212837921
 30
0.0
 11
-23.5266843863
 21
0.1765483512
 31
0.0
  0
LINE
  5
34D
330
1F
100
AcDbEntity
  8
Geo
  6
Continuous
 62
     7
370
    35
100
AcDbLine
 10
-23.6266843863
 20
2.770318117
 30
0.0
 11
-23.5266843863
 21
2.6986615638
 31
0.0
  0
LINE
  5
34E
330
1F
100
AcDbEntity
  8
Geo
  6
Continuous
 62
     7
370
    35
100
AcDbLine
 10
-23.5266843863
 20
0.1765483512
 30
0.0
 11
-23.4266843863
 21
0.1330614581
 31
0.0
  0
LINE
  5
34F
330
1F
100
AcDbEntity
  8
Geo
  6
Continuous
 62
     7
370
    35
100
AcDbLine
 10
-23.5266843863
 20
2.6986615638
 30
0.0
 11
-23.4266843863
 21
2.6268700497
 31
0.0
  0
LINE
  5
350
330
1F
100
AcDbEntity
  8
Geo
  6
Continuous
 62
     7
370
    35
100
AcDbLine
 10
-23.4266843863
 20
0.1330614581
 30
0.0
 11
-23.3266843863
 21
0.0908468017
 31
0.0
  0
LINE
  5
351
330
1F
100
AcDbEntity
  8
Geo
  6
Continuous
 62
     7
370
    35
100
AcDbLine
 10
-23.4266843863
 20
2.6268700497
 30
0.0
 11
-23.3266843863
 21
2.5549856794
 31
0.0
  0
LINE
  5
352
330
1F
100
AcDbEntity
  8
Geo
  6
Continuous
 62
     7
370
    35
100
AcDbLine
 10
-23.3266843863
 20
0.0908468017
 30
0.0
 11
-23.2266843863
 21
0.0499273783
 31
0.0
  0
LINE
  5
353
330
1F
100
AcDbEntity
  8
Geo
  6
Continuous
 62
     7
370
    35
100
AcDbLine
 10
-23.3266843863
 20
2.5549856794
 30
0.0
 11
-23.2266843863
 21
2.4830506121
 31
0.0
  0
LINE
  5
354
330
1F
100
AcDbEntity
  8
Geo
  6
Continuous
 62
     7
370
    35
100
AcDbLine
 10
-23.2266843863
 20
0.0499273783
 30
0.0
 11
-23.1266843863
 21
0.0103254785
 31
0.0
  0
LINE
  5
355
330
1F
100
AcDbEntity
  8
Geo
  6
Continuous
 62
     7
370
    35
100
AcDbLine
 10
-23.2266843863
 20
2.4830506121
 30
0.0
 11
-23.1266843863
 21
2.411107037
 31
0.0
  0
LINE
  5
356
330
1F
100
AcDbEntity
  8
Geo
  6
Continuous
 62
     7
370
    35
100
AcDbLine
 10
-23.1266843863
 20
0.0103254785
 30
0.0
 11
-23.0266843863
 21
-0.0279373251
 31
0.0
  0
LINE
  5
357
330
1F
100
AcDbEntity
  8
Geo
  6
Continuous
 62
     7
370
    35
100
AcDbLine
 10
-23.1266843863
 20
2.411107037
 30
0.0
 11
-23.0266843863
 21
2.3391971479
 31
0.0
  0
LINE
  5
358
330
1F
100
AcDbEntity
  8
Geo
  6
Continuous
 62
     7
370
    35
100
AcDbLine
 10
-23.0266843863
 20
-0.0279373251
 30
0.0
 11
-23.0171494473
 21
-0.0314559906
 31
0.0
  0
LINE
  5
359
330
1F
100
AcDbEntity
  8
Geo
  6
Continuous
 62
     7
370
    35
100
AcDbLine
 10
-23.0266843863
 20
2.3391971479
 30
0.0
 11
-22.9266843863
 21
2.267363119
 31
0.0
  0
LINE
  5
35A
330
1F
100
AcDbEntity
  8
Geo
  6
Continuous
 62
     7
370
    35
100
AcDbLine
 10
-22.9266843863
 20
2.267363119
 30
0.0
 11
-22.8266843863
 21
2.1956470801
 31
0.0
  0
LINE
  5
35B
330
1F
100
AcDbEntity
  8
Geo
  6
Continuous
 62
     7
370
    35
100
AcDbLine
 10
-22.8266843863
 20
2.1956470801
 30
0.0
 11
-22.7266843863
 21
2.1240910917
 31
0.0
  0
LINE
  5
35C
330
1F
100
AcDbEntity
  8
Geo
  6
Continuous
 62
     7
370
    35
100
AcDbLine
 10
-22.7266843863
 20
2.1240910917
 30
0.0
 11
-22.6266843863
 21
2.0527371204
 31
0.0
  0
LINE
  5
35D
330
1F
100
AcDbEntity
  8
Geo
  6
Continuous
 62
     7
370
    35
100
AcDbLine
 10
-22.6266843863
 20
2.0527371204
 30
0.0
 11
-22.5266843863
 21
1.9816270144
 31
0.0
  0
LINE
  5
35E
330
1F
100
AcDbEntity
  8
Geo
  6
Continuous
 62
     7
370
    35
100
AcDbLine
 10
-22.5266843863
 20
1.9816270144
 30
0.0
 11
-22.4266843863
 21
1.9108024789
 31
0.0
  0
LINE
  5
35F
330
1F
100
AcDbEntity
  8
Geo
  6
Continuous
 62
     7
370
    35
100
AcDbLine
 10
-22.3351005385
 20
4.9685440094
 30
0.0
 11
-22.3266843863
 21
4.96555171
 31
0.0
  0
LINE
  5
360
330
1F
100
AcDbEntity
  8
Geo
  6
Continuous
 62
     7
370
    35
100
AcDbLine
 10
-22.4266843863
 20
1.9108024789
 30
0.0
 11
-22.3266843863
 21
1.8403050515
 31
0.0
  0
LINE
  5
361
330
1F
100
AcDbEntity
  8
Geo
  6
Continuous
 62
     7
370
    35
100
AcDbLine
 10
-22.3266843863
 20
4.96555171
 30
0.0
 11
-22.2266843863
 21
4.9287352482
 31
0.0
  0
LINE
  5
362
330
1F
100
AcDbEntity
  8
Geo
  6
Continuous
 62
     7
370
    35
100
AcDbLine
 10
-22.3266843863
 20
1.8403050515
 30
0.0
 11
-22.2266843863
 21
1.770176078
 31
0.0
  0
LINE
  5
363
330
1F
100
AcDbEntity
  8
Geo
  6
Continuous
 62
     7
370
    35
100
AcDbLine
 10
-22.2266843863
 20
4.9287352482
 30
0.0
 11
-22.1266843863
 21
4.8906751801
 31
0.0
  0
LINE
  5
364
330
1F
100
AcDbEntity
  8
Geo
  6
Continuous
 62
     7
370
    35
100
AcDbLine
 10
-22.2266843863
 20
1.770176078
 30
0.0
 11
-22.1266843863
 21
1.7004566883
 31
0.0
  0
LINE
  5
365
330
1F
100
AcDbEntity
  8
Geo
  6
Continuous
 62
     7
370
    35
100
AcDbLine
 10
-22.1266843863
 20
4.8906751801
 30
0.0
 11
-22.0266843863
 21
4.8513907447
 31
0.0
  0
LINE
  5
366
330
1F
100
AcDbEntity
  8
Geo
  6
Continuous
 62
     7
370
    35
100
AcDbLine
 10
-22.1266843863
 20
1.7004566883
 30
0.0
 11
-22.0266843863
 21
1.6311877717
 31
0.0
  0
LINE
  5
367
330
1F
100
AcDbEntity
  8
Geo
  6
Continuous
 62
     7
370
    35
100
AcDbLine
 10
-22.0266843863
 20
4.8513907447
 30
0.0
 11
-21.9266843863
 21
4.8109017999
 31
0.0
  0
LINE
  5
368
330
1F
100
AcDbEntity
  8
Geo
  6
Continuous
 62
     7
370
    35
100
AcDbLine
 10
-22.0266843863
 20
1.6311877717
 30
0.0
 11
-21.9266843863
 21
1.5624099536
 31
0.0
  0
LINE
  5
369
330
1F
100
AcDbEntity
  8
Geo
  6
Continuous
 62
     7
370
    35
100
AcDbLine
 10
-21.9266843863
 20
4.8109017999
 30
0.0
 11
-21.8266843863
 21
4.7692288126
 31
0.0
  0
LINE
  5
36A
330
1F
100
AcDbEntity
  8
Geo
  6
Continuous
 62
     7
370
    35
100
AcDbLine
 10
-21.9266843863
 20
1.5624099536
 30
0.0
 11
-21.8266843863
 21
1.4941635712
 31
0.0
  0
LINE
  5
36B
330
1F
100
AcDbEntity
  8
Geo
  6
Continuous
 62
     7
370
    35
100
AcDbLine
 10
-21.8266843863
 20
4.7692288126
 30
0.0
 11
-21.7266843863
 21
4.726392848
 31
0.0
  0
LINE
  5
36C
330
1F
100
AcDbEntity
  8
Geo
  6
Continuous
 62
     7
370
    35
100
AcDbLine
 10
-21.8266843863
 20
1.4941635712
 30
0.0
 11
-21.7266843863
 21
1.4264886503
 31
0.0
  0
LINE
  5
36D
330
1F
100
AcDbEntity
  8
Geo
  6
Continuous
 62
     7
370
    35
100
AcDbLine
 10
-21.7266843863
 20
4.726392848
 30
0.0
 11
-21.6266843863
 21
4.6824155596
 31
0.0
  0
LINE
  5
36E
330
1F
100
AcDbEntity
  8
Geo
  6
Continuous
 62
     7
370
    35
100
AcDbLine
 10
-21.7266843863
 20
1.4264886503
 30
0.0
 11
-21.6266843863
 21
1.3594248813
 31
0.0
  0
LINE
  5
36F
330
1F
100
AcDbEntity
  8
Geo
  6
Continuous
 62
     7
370
    35
100
AcDbLine
 10
-21.6266843863
 20
4.6824155596
 30
0.0
 11
-21.5266843863
 21
4.6373191773
 31
0.0
  0
LINE
  5
370
330
1F
100
AcDbEntity
  8
Geo
  6
Continuous
 62
     7
370
    35
100
AcDbLine
 10
-21.6266843863
 20
1.3594248813
 30
0.0
 11
-21.5266843863
 21
1.2930115961
 31
0.0
  0
LINE
  5
371
330
1F
100
AcDbEntity
  8
Geo
  6
Continuous
 62
     7
370
    35
100
AcDbLine
 10
-21.5266843863
 20
4.6373191773
 30
0.0
 11
-21.4266843863
 21
4.5911264971
 31
0.0
  0
LINE
  5
372
330
1F
100
AcDbEntity
  8
Geo
  6
Continuous
 62
     7
370
    35
100
AcDbLine
 10
-21.5266843863
 20
1.2930115961
 30
0.0
 11
-21.4266843863
 21
1.2272877454
 31
0.0
  0
LINE
  5
373
330
1F
100
AcDbEntity
  8
Geo
  6
Continuous
 62
     7
370
    35
100
AcDbLine
 10
-21.4266843863
 20
4.5911264971
 30
0.0
 11
-21.3266843863
 21
4.5438608689
 31
0.0
  0
LINE
  5
374
330
1F
100
AcDbEntity
  8
Geo
  6
Continuous
 62
     7
370
    35
100
AcDbLine
 10
-21.4266843863
 20
1.2272877454
 30
0.0
 11
-21.3266843863
 21
1.1622918752
 31
0.0
  0
LINE
  5
375
330
1F
100
AcDbEntity
  8
Geo
  6
Continuous
 62
     7
370
    35
100
AcDbLine
 10
-21.3266843863
 20
4.5438608689
 30
0.0
 11
-21.2266843863
 21
4.4955461852
 31
0.0
  0
LINE
  5
376
330
1F
100
AcDbEntity
  8
Geo
  6
Continuous
 62
     7
370
    35
100
AcDbLine
 10
-21.3266843863
 20
1.1622918752
 30
0.0
 11
-21.2266843863
 21
1.0980621048
 31
0.0
  0
LINE
  5
377
330
1F
100
AcDbEntity
  8
Geo
  6
Continuous
 62
     7
370
    35
100
AcDbLine
 10
-21.2266843863
 20
4.4955461852
 30
0.0
 11
-21.1266843863
 21
4.4462068686
 31
0.0
  0
LINE
  5
378
330
1F
100
AcDbEntity
  8
Geo
  6
Continuous
 62
     7
370
    35
100
AcDbLine
 10
-21.2266843863
 20
1.0980621048
 30
0.0
 11
-21.1266843863
 21
1.0346361042
 31
0.0
  0
LINE
  5
379
330
1F
100
AcDbEntity
  8
Geo
  6
Continuous
 62
     7
370
    35
100
AcDbLine
 10
-21.1266843863
 20
4.4462068686
 30
0.0
 11
-21.0266843863
 21
4.3958678597
 31
0.0
  0
LINE
  5
37A
330
1F
100
AcDbEntity
  8
Geo
  6
Continuous
 62
     7
370
    35
100
AcDbLine
 10
-21.1266843863
 20
1.0346361042
 30
0.0
 11
-21.0266843863
 21
0.9720510718
 31
0.0
  0
LINE
  5
37B
330
1F
100
AcDbEntity
  8
Geo
  6
Continuous
 62
     7
370
    35
100
AcDbLine
 10
-21.0266843863
 20
4.3958678597
 30
0.0
 11
-20.9266843863
 21
4.3445546046
 31
0.0
  0
LINE
  5
37C
330
1F
100
AcDbEntity
  8
Geo
  6
Continuous
 62
     7
370
    35
100
AcDbLine
 10
-21.0266843863
 20
0.9720510718
 30
0.0
 11
-20.9266843863
 21
0.910343713
 31
0.0
  0
LINE
  5
37D
330
1F
100
AcDbEntity
  8
Geo
  6
Continuous
 62
     7
370
    35
100
AcDbLine
 10
-20.9266843863
 20
4.3445546046
 30
0.0
 11
-20.8266843863
 21
4.2922930416
 31
0.0
  0
LINE
  5
37E
330
1F
100
AcDbEntity
  8
Geo
  6
Continuous
 62
     7
370
    35
100
AcDbLine
 10
-20.9266843863
 20
0.910343713
 30
0.0
 11
-20.8266843863
 21
0.8495502184
 31
0.0
  0
LINE
  5
37F
330
1F
100
AcDbEntity
  8
Geo
  6
Continuous
 62
     7
370
    35
100
AcDbLine
 10
-20.8266843863
 20
4.2922930416
 30
0.0
 11
-20.7266843863
 21
4.2391095885
 31
0.0
  0
LINE
  5
380
330
1F
100
AcDbEntity
  8
Geo
  6
Continuous
 62
     7
370
    35
100
AcDbLine
 10
-20.8266843863
 20
0.8495502184
 30
0.0
 11
-20.7266843863
 21
0.7897062424
 31
0.0
  0
LINE
  5
381
330
1F
100
AcDbEntity
  8
Geo
  6
Continuous
 62
     7
370
    35
100
AcDbLine
 10
-20.7266843863
 20
4.2391095885
 30
0.0
 11
-20.6266843863
 21
4.1850311291
 31
0.0
  0
LINE
  5
382
330
1F
100
AcDbEntity
  8
Geo
  6
Continuous
 62
     7
370
    35
100
AcDbLine
 10
-20.7266843863
 20
0.7897062424
 30
0.0
 11
-20.6266843863
 21
0.7308468828
 31
0.0
  0
LINE
  5
383
330
1F
100
AcDbEntity
  8
Geo
  6
Continuous
 62
     7
370
    35
100
AcDbLine
 10
-20.6266843863
 20
4.1850311291
 30
0.0
 11
-20.5266843863
 21
4.1300849996
 31
0.0
  0
LINE
  5
384
330
1F
100
AcDbEntity
  8
Geo
  6
Continuous
 62
     7
370
    35
100
AcDbLine
 10
-20.6266843863
 20
0.7308468828
 30
0.0
 11
-20.5266843863
 21
0.67300666
 31
0.0
  0
LINE
  5
385
330
1F
100
AcDbEntity
  8
Geo
  6
Continuous
 62
     7
370
    35
100
AcDbLine
 10
-20.5266843863
 20
4.1300849996
 30
0.0
 11
-20.4266843863
 21
4.0742989748
 31
0.0
  0
LINE
  5
386
330
1F
100
AcDbEntity
  8
Geo
  6
Continuous
 62
     7
370
    35
100
AcDbLine
 10
-20.5266843863
 20
0.67300666
 30
0.0
 11
-20.4266843863
 21
0.6162194963
 31
0.0
  0
LINE
  5
387
330
1F
100
AcDbEntity
  8
Geo
  6
Continuous
 62
     7
370
    35
100
AcDbLine
 10
-20.4266843863
 20
4.0742989748
 30
0.0
 11
-20.3266843863
 21
4.0177012542
 31
0.0
  0
LINE
  5
388
330
1F
100
AcDbEntity
  8
Geo
  6
Continuous
 62
     7
370
    35
100
AcDbLine
 10
-20.4266843863
 20
0.6162194963
 30
0.0
 11
-20.3266843863
 21
0.5605186968
 31
0.0
  0
LINE
  5
389
330
1F
100
AcDbEntity
  8
Geo
  6
Continuous
 62
     7
370
    35
100
AcDbLine
 10
-20.3266843863
 20
4.0177012542
 30
0.0
 11
-20.2266843863
 21
3.9603204474
 31
0.0
  0
LINE
  5
38A
330
1F
100
AcDbEntity
  8
Geo
  6
Continuous
 62
     7
370
    35
100
AcDbLine
 10
-20.3266843863
 20
0.5605186968
 30
0.0
 11
-20.2266843863
 21
0.5059369292
 31
0.0
  0
LINE
  5
38B
330
1F
100
AcDbEntity
  8
Geo
  6
Continuous
 62
     7
370
    35
100
AcDbLine
 10
-20.2266843863
 20
3.9603204474
 30
0.0
 11
-20.1266843863
 21
3.9021855599
 31
0.0
  0
LINE
  5
38C
330
1F
100
AcDbEntity
  8
Geo
  6
Continuous
 62
     7
370
    35
100
AcDbLine
 10
-20.2266843863
 20
0.5059369292
 30
0.0
 11
-20.1266843863
 21
0.452506205
 31
0.0
  0
LINE
  5
38D
330
1F
100
AcDbEntity
  8
Geo
  6
Continuous
 62
     7
370
    35
100
AcDbLine
 10
-20.1266843863
 20
3.9021855599
 30
0.0
 11
-20.0266843863
 21
3.8433259784
 31
0.0
  0
LINE
  5
38E
330
1F
100
AcDbEntity
  8
Geo
  6
Continuous
 62
     7
370
    35
100
AcDbLine
 10
-20.1266843863
 20
0.452506205
 30
0.0
 11
-20.0266843863
 21
0.4002578606
 31
0.0
  0
LINE
  5
38F
330
1F
100
AcDbEntity
  8
Geo
  6
Continuous
 62
     7
370
    35
100
AcDbLine
 10
-20.0266843863
 20
3.8433259784
 30
0.0
 11
-19.9266843863
 21
3.783771456
 31
0.0
  0
LINE
  5
390
330
1F
100
AcDbEntity
  8
Geo
  6
Continuous
 62
     7
370
    35
100
AcDbLine
 10
-20.0266843863
 20
0.4002578606
 30
0.0
 11
-19.9266843863
 21
0.3492225391
 31
0.0
  0
LINE
  5
391
330
1F
100
AcDbEntity
  8
Geo
  6
Continuous
 62
     7
370
    35
100
AcDbLine
 10
-19.9266843863
 20
3.783771456
 30
0.0
 11
-19.8266843863
 21
3.7235520969
 31
0.0
  0
LINE
  5
392
330
1F
100
AcDbEntity
  8
Geo
  6
Continuous
 62
     7
370
    35
100
AcDbLine
 10
-19.9266843863
 20
0.3492225391
 30
0.0
 11
-19.8266843863
 21
0.2994301719
 31
0.0
  0
LINE
  5
393
330
1F
100
AcDbEntity
  8
Geo
  6
Continuous
 62
     7
370
    35
100
AcDbLine
 10
-19.8266843863
 20
3.7235520969
 30
0.0
 11
-19.7266843863
 21
3.6626983416
 31
0.0
  0
LINE
  5
394
330
1F
100
AcDbEntity
  8
Geo
  6
Continuous
 62
     7
370
    35
100
AcDbLine
 10
-19.8266843863
 20
0.2994301719
 30
0.0
 11
-19.7266843863
 21
0.2509099617
 31
0.0
  0
LINE
  5
395
330
1F
100
AcDbEntity
  8
Geo
  6
Continuous
 62
     7
370
    35
100
AcDbLine
 10
-19.7266843863
 20
3.6626983416
 30
0.0
 11
-19.6266843863
 21
3.6012409512
 31
0.0
  0
LINE
  5
396
330
1F
100
AcDbEntity
  8
Geo
  6
Continuous
 62
     7
370
    35
100
AcDbLine
 10
-19.7266843863
 20
0.2509099617
 30
0.0
 11
-19.6266843863
 21
0.2036903649
 31
0.0
  0
LINE
  5
397
330
1F
100
AcDbEntity
  8
Geo
  6
Continuous
 62
     7
370
    35
100
AcDbLine
 10
-19.6266843863
 20
3.6012409512
 30
0.0
 11
-19.5266843863
 21
3.5392109918
 31
0.0
  0
LINE
  5
398
330
1F
100
AcDbEntity
  8
Geo
  6
Continuous
 62
     7
370
    35
100
AcDbLine
 10
-19.6266843863
 20
0.2036903649
 30
0.0
 11
-19.5266843863
 21
0.1577990751
 31
0.0
  0
LINE
  5
399
330
1F
100
AcDbEntity
  8
Geo
  6
Continuous
 62
     7
370
    35
100
AcDbLine
 10
-19.5266843863
 20
3.5392109918
 30
0.0
 11
-19.4266843863
 21
3.4766398191
 31
0.0
  0
LINE
  5
39A
330
1F
100
AcDbEntity
  8
Geo
  6
Continuous
 62
     7
370
    35
100
AcDbLine
 10
-19.5266843863
 20
0.1577990751
 30
0.0
 11
-19.4266843863
 21
0.1132630071
 31
0.0
  0
LINE
  5
39B
330
1F
100
AcDbEntity
  8
Geo
  6
Continuous
 62
     7
370
    35
100
AcDbLine
 10
-19.4266843863
 20
3.4766398191
 30
0.0
 11
-19.3266843863
 21
3.4135590622
 31
0.0
  0
LINE
  5
39C
330
1F
100
AcDbEntity
  8
Geo
  6
Continuous
 62
     7
370
    35
100
AcDbLine
 10
-19.4266843863
 20
0.1132630071
 30
0.0
 11
-19.3266843863
 21
0.0701082806
 31
0.0
  0
LINE
  5
39D
330
1F
100
AcDbEntity
  8
Geo
  6
Continuous
 62
     7
370
    35
100
AcDbLine
 10
-19.3266843863
 20
3.4135590622
 30
0.0
 11
-19.2266843863
 21
3.3500006081
 31
0.0
  0
LINE
  5
39E
330
1F
100
AcDbEntity
  8
Geo
  6
Continuous
 62
     7
370
    35
100
AcDbLine
 10
-19.3266843863
 20
0.0701082806
 30
0.0
 11
-19.2266843863
 21
0.0283602054
 31
0.0
  0
LINE
  5
39F
330
1F
100
AcDbEntity
  8
Geo
  6
Continuous
 62
     7
370
    35
100
AcDbLine
 10
-19.2266843863
 20
3.3500006081
 30
0.0
 11
-19.1266843863
 21
3.2859965849
 31
0.0
  0
LINE
  5
3A0
330
1F
100
AcDbEntity
  8
Geo
  6
Continuous
 62
     7
370
    35
100
AcDbLine
 10
-19.2266843863
 20
0.0283602054
 30
0.0
 11
-19.1266843863
 21
-0.0119567339
 31
0.0
  0
LINE
  5
3A1
330
1F
100
AcDbEntity
  8
Geo
  6
Continuous
 62
     7
370
    35
100
AcDbLine
 10
-19.1266843863
 20
3.2859965849
 30
0.0
 11
-19.0266843863
 21
3.2215793462
 31
0.0
  0
LINE
  5
3A2
330
1F
100
AcDbEntity
  8
Geo
  6
Continuous
 62
     7
370
    35
100
AcDbLine
 10
-19.1266843863
 20
-0.0119567339
 30
0.0
 11
-19.0765089516
 21
-0.0314559906
 31
0.0
  0
LINE
  5
3A3
330
1F
100
AcDbEntity
  8
Geo
  6
Continuous
 62
     7
370
    35
100
AcDbLine
 10
-19.0266843863
 20
3.2215793462
 30
0.0
 11
-18.9266843863
 21
3.1567814543
 31
0.0
  0
LINE
  5
3A4
330
1F
100
AcDbEntity
  8
Geo
  6
Continuous
 62
     7
370
    35
100
AcDbLine
 10
-18.9266843863
 20
3.1567814543
 30
0.0
 11
-18.8266843863
 21
3.0916356641
 31
0.0
  0
LINE
  5
3A5
330
1F
100
AcDbEntity
  8
Geo
  6
Continuous
 62
     7
370
    35
100
AcDbLine
 10
-18.8266843863
 20
3.0916356641
 30
0.0
 11
-18.7266843863
 21
3.0261749062
 31
0.0
  0
LINE
  5
3A6
330
1F
100
AcDbEntity
  8
Geo
  6
Continuous
 62
     7
370
    35
100
AcDbLine
 10
-18.7266843863
 20
3.0261749062
 30
0.0
 11
-18.6266843863
 21
2.9604322704
 31
0.0
  0
LINE
  5
3A7
330
1F
100
AcDbEntity
  8
Geo
  6
Continuous
 62
     7
370
    35
100
AcDbLine
 10
-18.6266843863
 20
2.9604322704
 30
0.0
 11
-18.5266843863
 21
2.8944409893
 31
0.0
  0
LINE
  5
3A8
330
1F
100
AcDbEntity
  8
Geo
  6
Continuous
 62
     7
370
    35
100
AcDbLine
 10
-18.5266843863
 20
2.8944409893
 30
0.0
 11
-18.4266843863
 21
2.8282344207
 31
0.0
  0
LINE
  5
3A9
330
1F
100
AcDbEntity
  8
Geo
  6
Continuous
 62
     7
370
    35
100
AcDbLine
 10
-18.4266843863
 20
2.8282344207
 30
0.0
 11
-18.3266843863
 21
2.7618460315
 31
0.0
  0
LINE
  5
3AA
330
1F
100
AcDbEntity
  8
Geo
  6
Continuous
 62
     7
370
    35
100
AcDbLine
 10
-18.3266843863
 20
2.7618460315
 30
0.0
 11
-18.2266843863
 21
2.6953093807
 31
0.0
  0
LINE
  5
3AB
330
1F
100
AcDbEntity
  8
Geo
  6
Continuous
 62
     7
370
    35
100
AcDbLine
 10
-18.2266843863
 20
2.6953093807
 30
0.0
 11
-18.1266843863
 21
2.6286581017
 31
0.0
  0
LINE
  5
3AC
330
1F
100
AcDbEntity
  8
Geo
  6
Continuous
 62
     7
370
    35
100
AcDbLine
 10
-18.1266843863
 20
4.9684118979
 30
0.0
 11
-18.0266843863
 21
4.9302709819
 31
0.0
  0
LINE
  5
3AD
330
1F
100
AcDbEntity
  8
Geo
  6
Continuous
 62
     7
370
    35
100
AcDbLine
 10
-18.1266843863
 20
2.6286581017
 30
0.0
 11
-18.0266843863
 21
2.5619258865
 31
0.0
  0
LINE
  5
3AE
330
1F
100
AcDbEntity
  8
Geo
  6
Continuous
 62
     7
370
    35
100
AcDbLine
 10
-18.0266843863
 20
4.9302709819
 30
0.0
 11
-17.9266843863
 21
4.8907890584
 31
0.0
  0
LINE
  5
3AF
330
1F
100
AcDbEntity
  8
Geo
  6
Continuous
 62
     7
370
    35
100
AcDbLine
 10
-18.0266843863
 20
2.5619258865
 30
0.0
 11
-17.9266843863
 21
2.4951464675
 31
0.0
  0
LINE
  5
3B0
330
1F
100
AcDbEntity
  8
Geo
  6
Continuous
 62
     7
370
    35
100
AcDbLine
 10
-17.9266843863
 20
4.8907890584
 30
0.0
 11
-17.8266843863
 21
4.8499876348
 31
0.0
  0
LINE
  5
3B1
330
1F
100
AcDbEntity
  8
Geo
  6
Continuous
 62
     7
370
    35
100
AcDbLine
 10
-17.9266843863
 20
2.4951464675
 30
0.0
 11
-17.8266843863
 21
2.4283536011
 31
0.0
  0
LINE
  5
3B2
330
1F
100
AcDbEntity
  8
Geo
  6
Continuous
 62
     7
370
    35
100
AcDbLine
 10
-17.8266843863
 20
4.8499876348
 30
0.0
 11
-17.7266843863
 21
4.8078889375
 31
0.0
  0
LINE
  5
3B3
330
1F
100
AcDbEntity
  8
Geo
  6
Continuous
 62
     7
370
    35
100
AcDbLine
 10
-17.8266843863
 20
2.4283536011
 30
0.0
 11
-17.7266843863
 21
2.3615810507
 31
0.0
  0
LINE
  5
3B4
330
1F
100
AcDbEntity
  8
Geo
  6
Continuous
 62
     7
370
    35
100
AcDbLine
 10
-17.7266843863
 20
4.8078889375
 30
0.0
 11
-17.6266843863
 21
4.7645158993
 31
0.0
  0
LINE
  5
3B5
330
1F
100
AcDbEntity
  8
Geo
  6
Continuous
 62
     7
370
    35
100
AcDbLine
 10
-17.7266843863
 20
2.3615810507
 30
0.0
 11
-17.6266843863
 21
2.2948625692
 31
0.0
  0
LINE
  5
3B6
330
1F
100
AcDbEntity
  8
Geo
  6
Continuous
 62
     7
370
    35
100
AcDbLine
 10
-17.6266843863
 20
4.7645158993
 30
0.0
 11
-17.5266843863
 21
4.7198921474
 31
0.0
  0
LINE
  5
3B7
330
1F
100
AcDbEntity
  8
Geo
  6
Continuous
 62
     7
370
    35
100
AcDbLine
 10
-17.6266843863
 20
2.2948625692
 30
0.0
 11
-17.5266843863
 21
2.2282318822
 31
0.0
  0
LINE
  5
3B8
330
1F
100
AcDbEntity
  8
Geo
  6
Continuous
 62
     7
370
    35
100
AcDbLine
 10
-17.5266843863
 20
4.7198921474
 30
0.0
 11
-17.4266843863
 21
4.6740419903
 31
0.0
  0
LINE
  5
3B9
330
1F
100
AcDbEntity
  8
Geo
  6
Continuous
 62
     7
370
    35
100
AcDbLine
 10
-17.5266843863
 20
2.2282318822
 30
0.0
 11
-17.4266843863
 21
2.161722671
 31
0.0
  0
LINE
  5
3BA
330
1F
100
AcDbEntity
  8
Geo
  6
Continuous
 62
     7
370
    35
100
AcDbLine
 10
-17.4266843863
 20
4.6740419903
 30
0.0
 11
-17.3266843863
 21
4.6269904044
 31
0.0
  0
LINE
  5
3BB
330
1F
100
AcDbEntity
  8
Geo
  6
Continuous
 62
     7
370
    35
100
AcDbLine
 10
-17.4266843863
 20
2.161722671
 30
0.0
 11
-17.3266843863
 21
2.0953685554
 31
0.0
  0
LINE
  5
3BC
330
1F
100
AcDbEntity
  8
Geo
  6
Continuous
 62
     7
370
    35
100
AcDbLine
 10
-17.3266843863
 20
4.6269904044
 30
0.0
 11
-17.2266843863
 21
4.5787630209
 31
0.0
  0
LINE
  5
3BD
330
1F
100
AcDbEntity
  8
Geo
  6
Continuous
 62
     7
370
    35
100
AcDbLine
 10
-17.3266843863
 20
2.0953685554
 30
0.0
 11
-17.2266843863
 21
2.029203077
 31
0.0
  0
LINE
  5
3BE
330
1F
100
AcDbEntity
  8
Geo
  6
Continuous
 62
     7
370
    35
100
AcDbLine
 10
-17.2266843863
 20
4.5787630209
 30
0.0
 11
-17.1266843863
 21
4.5293861112
 31
0.0
  0
LINE
  5
3BF
330
1F
100
AcDbEntity
  8
Geo
  6
Continuous
 62
     7
370
    35
100
AcDbLine
 10
-17.2266843863
 20
2.029203077
 30
0.0
 11
-17.1266843863
 21
1.9632596817
 31
0.0
  0
LINE
  5
3C0
330
1F
100
AcDbEntity
  8
Geo
  6
Continuous
 62
     7
370
    35
100
AcDbLine
 10
-17.1266843863
 20
4.5293861112
 30
0.0
 11
-17.0266843863
 21
4.478886573
 31
0.0
  0
LINE
  5
3C1
330
1F
100
AcDbEntity
  8
Geo
  6
Continuous
 62
     7
370
    35
100
AcDbLine
 10
-17.1266843863
 20
1.9632596817
 30
0.0
 11
-17.0266843863
 21
1.8975717036
 31
0.0
  0
LINE
  5
3C2
330
1F
100
AcDbEntity
  8
Geo
  6
Continuous
 62
     7
370
    35
100
AcDbLine
 10
-17.0266843863
 20
4.478886573
 30
0.0
 11
-16.9266843863
 21
4.4272919156
 31
0.0
  0
LINE
  5
3C3
330
1F
100
AcDbEntity
  8
Geo
  6
Continuous
 62
     7
370
    35
100
AcDbLine
 10
-17.0266843863
 20
1.8975717036
 30
0.0
 11
-16.9266843863
 21
1.8321723472
 31
0.0
  0
LINE
  5
3C4
330
1F
100
AcDbEntity
  8
Geo
  6
Continuous
 62
     7
370
    35
100
AcDbLine
 10
-16.9266843863
 20
4.4272919156
 30
0.0
 11
-16.9266843863
 21
4.7428382612
 31
0.0
  0
LINE
  5
3C5
330
1F
100
AcDbEntity
  8
Geo
  6
Continuous
 62
     7
370
    35
100
AcDbLine
 10
-16.9266843863
 20
4.4272919156
 30
0.0
 11
-16.9266843863
 21
0.6348434108
 31
0.0
  0
LINE
  5
3C6
330
1F
100
AcDbEntity
  8
Geo
  6
Continuous
 62
     7
370
    35
100
AcDbLine
 10
-16.9266843863
 20
1.8321723472
 30
0.0
 11
-16.9266843863
 21
2.2424982748
 31
0.0
  0
LINE
  5
3C7
330
1F
100
AcDbEntity
  8
Geo
  6
Continuous
 62
     7
370
    35
100
AcDbLine
 10
-16.9266843863
 20
1.8321723472
 30
0.0
 11
-16.9266843863
 21
4.2777837488
 31
0.0
  0
POINT
  5
3C8
330
1F
100
AcDbEntity
  8
Geo
  6
Continuous
 62
     7
370
    35
100
AcDbPoint
 10
-29.9266843863
 20
2.4685440094
 30
0.0
  0
POINT
  5
3C9
330
1F
100
AcDbEntity
  8
Geo
  6
Continuous
 62
     7
370
    35
100
AcDbPoint
 10
-29.9266843863
 20
2.4685440094
 30
0.0
  0
LINE
  5
3CA
330
1F
100
AcDbEntity
  8
Geo
  6
Continuous
 62
     7
370
    35
100
AcDbLine
 10
27.0733156137
 20
4.9685440094
 30
0.0
 11
27.0733156137
 21
2.4685440094
 31
0.0
  0
LINE
  5
3CB
330
1F
100
AcDbEntity
  8
Geo
  6
Continuous
 62
     7
370
    35
100
AcDbLine
 10
-29.9266843863
 20
2.4685440094
 30
0.0
 11
-29.9266843863
 21
0.0285440094
 31
0.0
  0
LINE
  5
3CC
330
1F
100
AcDbEntity
  8
Geo
  6
Continuous
 62
     7
370
    35
100
AcDbLine
 10
-29.9266843863
 20
-0.4714559906
 30
0.0
 11
-29.924513509
 21
-0.4736268679
 31
0.0
  0
LINE
  5
3CD
330
1F
100
AcDbEntity
  8
Geo
  6
Continuous
 62
     7
370
    35
100
AcDbLine
 10
-8.9266843863
 20
-0.5314559906
 30
0.0
 11
26.5733156137
 21
-0.5314559906
 31
0.0
  0
LINE
  5
3CE
330
1F
100
AcDbEntity
  8
Geo
  6
Continuous
 62
     7
370
    35
100
AcDbLine
 10
26.5733156137
 20
-0.5314559906
 30
0.0
 11
27.0733156137
 21
-0.0314559906
 31
0.0
  0
LINE
  5
3CF
330
1F
100
AcDbEntity
  8
Geo
  6
Continuous
 62
     7
370
    35
100
AcDbLine
 10
-29.9266843863
 20
4.9685440094
 30
0.0
 11
-29.9266843863
 21
-0.4714559906
 31
0.0
  0
LINE
  5
3D0
330
1F
100
AcDbEntity
  8
Geo
  6
Continuous
 62
     7
370
    35
100
AcDbLine
 10
-29.8666843863
 20
4.9685440094
 30
0.0
 11
-29.8666843863
 21
-0.0314559906
 31
0.0
  0
LINE
  5
3D1
330
1F
100
AcDbEntity
  8
Geo
  6
Continuous
 62
     7
370
    35
100
AcDbLine
 10
-8.9266843863
 20
5.4685440094
 30
0.0
 11
-8.9266843863
 21
-0.5314559906
 31
0.0
  0
LINE
  5
3D2
330
1F
100
AcDbEntity
  8
Geo
  6
Continuous
 62
     7
370
    35
100
AcDbLine
 10
26.5733156137
 20
5.4685440094
 30
0.0
 11
26.5733156137
 21
-0.5314559906
 31
0.0
  0
LINE
  5
3D3
330
1F
100
AcDbEntity
  8
Geo
  6
Continuous
 62
     7
370
    35
100
AcDbLine
 10
27.0733156137
 20
4.9685440094
 30
0.0
 11
27.0733156137
 21
-0.0314559906
 31
0.0
  0
MTEXT
  5
3D5
330
1F
100
AcDbEntity
  8
Text
100
AcDbMText
 10
104.4559585492
 20
-98.1114089637
 30
0.0
 40
0.75
 41
5.0706621739
 71
     7
 72
     1
  1
{\fArial|b0||i0||c0|p34;\C7;\H0.75;\W1.;Ers. durch:}
 73
     1
 44
1.0
1001
ACAD
1000
ACAD_MTEXT_DEFINED_HEIGHT_BEGIN
1070
    46
1040
1.1739230435
1000
ACAD_MTEXT_DEFINED_HEIGHT_END
  0
MTEXT
  5
3D6
330
1F
100
AcDbEntity
  8
Text
100
AcDbMText
 10
64.4689119171
 20
-98.1114089637
 30
0.0
 40
0.75
 41
3.6684882609
 71
     7
 72
     1
  1
{\fArial|b0||i0||c0|p34;\C7;\H0.75;\W1.;Ers. für:}
 73
     1
 44
1.0
1001
ACAD
1000
ACAD_MTEXT_DEFINED_HEIGHT_BEGIN
1070
    46
1040
1.1739230435
1000
ACAD_MTEXT_DEFINED_HEIGHT_END
  0
MTEXT
  5
3D7
330
1F
100
AcDbEntity
  8
Text
100
AcDbMText
 10
131.1139896373
 20
-95.1191809845
 30
0.0
 40
0.75
 41
3.0326186957
 71
     7
 72
     1
  1
{\fArial|b0||i0||c0|p34;\C7;\H0.75;\W1.;Blätter}
 73
     1
 44
1.0
1001
ACAD
1000
ACAD_MTEXT_DEFINED_HEIGHT_BEGIN
1070
    46
1040
1.1739230435
1000
ACAD_MTEXT_DEFINED_HEIGHT_END
  0
MTEXT
  5
3D8
330
1F
100
AcDbEntity
  8
Text
100
AcDbMText
 10
131.1139896373
 20
-92.1269530052
 30
0.0
 40
0.75
 41
2.1032708696
 71
     7
 72
     1
  1
{\fArial|b0||i0||c0|p34;\C7;\H0.75;\W1.;Blatt}
 73
     1
 44
1.0
1001
ACAD
1000
ACAD_MTEXT_DEFINED_HEIGHT_BEGIN
1070
    46
1040
1.1739230435
1000
ACAD_MTEXT_DEFINED_HEIGHT_END
  0
MTEXT
  5
3D9
330
1F
100
AcDbEntity
  8
Text
100
AcDbMText
 10
64.4689119171
 20
-92.1269530052
 30
0.0
 40
0.75
 41
3.4076186957
 71
     7
 72
     1
  1
{\fArial|b0||i0||c0|p34;\C7;\H0.75;\W1.;Datum:}
 73
     1
 44
1.0
1001
ACAD
1000
ACAD_MTEXT_DEFINED_HEIGHT_BEGIN
1070
    46
1040
1.1739230435
1000
ACAD_MTEXT_DEFINED_HEIGHT_END
  0
MTEXT
  5
3DA
330
1F
100
AcDbEntity
  8
Text
100
AcDbMText
 10
91.670984456
 20
-95.1191809845
 30
0.0
 40
0.75
 41
5.2826186957
 71
     7
 72
     1
  1
{\fArial|b0||i0||c0|p34;\C7;\H0.75;\W1.;19.12.2014}
 73
     1
 44
1.0
1001
ACAD
1000
ACAD_MTEXT_DEFINED_HEIGHT_BEGIN
1070
    46
1040
1.1739230435
1000
ACAD_MTEXT_DEFINED_HEIGHT_END
  0
MTEXT
  5
3DB
330
1F
100
AcDbEntity
  8
Text
100
AcDbMText
 10
94.1191709845
 20
-89.0198718307
 30
0.0
 40
2.5
 41
14.8369665217
 71
     7
 72
     1
  1
{\fArial|b0||i0||c0|p34;\C7;\H2.5;\W1.;4560-050}
 73
     1
 44
1.0
1001
ACAD
1000
ACAD_MTEXT_DEFINED_HEIGHT_BEGIN
1070
    46
1040
7.8260869565
1000
ACAD_MTEXT_DEFINED_HEIGHT_END
  0
MTEXT
  5
3DC
330
1F
100
AcDbEntity
  8
Text
100
AcDbMText
 10
104.4559585492
 20
-80.1580410881
 30
0.0
 40
0.75
 41
8.8043578261
 71
     7
 72
     1
  1
{\fArial|b0||i0||c0|p34;\C7;\H0.75;\W1.;Zu bearb. Material:}
 73
     1
 44
1.0
1001
ACAD
1000
ACAD_MTEXT_DEFINED_HEIGHT_BEGIN
1070
    46
1040
1.1739230435
1000
ACAD_MTEXT_DEFINED_HEIGHT_END
  0
MTEXT
  5
3DD
330
1F
100
AcDbEntity
  8
Text
100
AcDbMText
 10
64.4689119171
 20
-80.1580410881
 30
0.0
 40
0.75
 41
4.7934882609
 71
     7
 72
     1
  1
{\fArial|b0||i0||c0|p34;\C7;\H0.75;\W1.;Werkstoff:}
 73
     1
 44
1.0
1001
ACAD
1000
ACAD_MTEXT_DEFINED_HEIGHT_BEGIN
1070
    46
1040
1.1739230435
1000
ACAD_MTEXT_DEFINED_HEIGHT_END
  0
MTEXT
  5
3DE
330
1F
100
AcDbEntity
  8
Text
100
AcDbMText
 10
64.4689119171
 20
-77.1658131088
 30
0.0
 40
0.75
 41
4.3695752174
 71
     7
 72
     1
  1
{\fArial|b0||i0||c0|p34;\C7;\H0.75;\W1.;Maßstab:}
 73
     1
 44
1.0
1001
ACAD
1000
ACAD_MTEXT_DEFINED_HEIGHT_BEGIN
1070
    46
1040
1.1739230435
1000
ACAD_MTEXT_DEFINED_HEIGHT_END
  0
MTEXT
  5
3DF
330
1F
100
AcDbEntity
  8
Text
100
AcDbMText
 10
89.4948186528
 20
-77.1658131088
 30
0.0
 40
0.75
 41
2.0543578261
 71
     7
 72
     1
  1
{\fArial|b0||i0||c0|p34;\C7;\H0.75;\W1.;1 : 1}
 73
     1
 44
1.0
1001
ACAD
1000
ACAD_MTEXT_DEFINED_HEIGHT_BEGIN
1070
    46
1040
1.1739230435
1000
ACAD_MTEXT_DEFINED_HEIGHT_END
  0
LINE
  5
3E1
330
1F
100
AcDbEntity
  8
Default
  6
Continuous
 62
     7
370
    35
100
AcDbLine
 10
-8.9266843863
 20
-0.0314559906
 30
0.0
 11
-29.8666843863
 21
-0.0314559906
 31
0.0
  0
LINE
  5
3E2
330
1F
100
AcDbEntity
  8
Default
  6
Continuous
 62
     7
370
    35
100
AcDbLine
 10
-8.9266843863
 20
4.9685440094
 30
0.0
 11
-29.8666843863
 21
4.9685440094
 31
0.0
  0
LINE
  5
3E3
330
1F
100
AcDbEntity
  8
Geo
  6
Continuous
 62
     7
370
    35
100
AcDbLine
 10
-29.9266843863
 20
-0.4381667487
 30
0.0
 11
-29.9266843863
 21
-0.4714559906
 31
0.0
  0
LINE
  5
3E4
330
1F
100
AcDbEntity
  8
Geo
  6
Continuous
 62
     7
370
    35
100
AcDbLine
 10
-29.9266843863
 20
-0.4714559906
 30
0.0
 11
-29.9266843863
 21
-0.4733366696
 31
0.0
  0
LINE
  5
3E5
330
1F
100
AcDbEntity
  8
Default
  6
Continuous
 62
     7
370
    35
100
AcDbLine
 10
-29.8666843863
 20
-0.0314559906
 30
0.0
 11
-29.9266843863
 21
0.0285440094
 31
0.0
  0
LINE
  5
3E6
330
1F
100
AcDbEntity
  8
Default
  6
Continuous
 62
     7
370
    35
100
AcDbLine
 10
-29.8666843863
 20
4.9685440094
 30
0.0
 11
-29.9266843863
 21
4.9085440094
 31
0.0
  0
DIMENSION
  5
3FC
330
1F
100
AcDbEntity
  8
Bemassung
  6
Continuous
 62
     7
370
    35
100
AcDbDimension
  2
DMBLK1
 10
27.0733156137
 20
25.4685435623
 30
0.0
 11
9.0733148388
 21
25.4685435623
 31
0.0
 70
   160
  1
\A1;<>
 71
     5
 42
-1.0
  3
BEM-ISBE
100
AcDbAlignedDimension
 13
-8.9266843863
 23
5.4685440094
 33
0.0
 14
27.0733156137
 24
4.9685440094
 34
0.0
100
AcDbRotatedDimension
  0
DIMENSION
  5
406
330
1F
100
AcDbEntity
  8
Bemassung
  6
Continuous
 62
     7
370
    35
100
AcDbDimension
  2
DMBLK2
 10
-29.9266843863
 20
-15.5314556554
 30
0.0
 11
-23.4266845204
 21
-15.5314556554
 31
0.0
 70
   160
  1
\A1;<>
 71
     5
 42
-1.0
  3
BEM-ISBE
100
AcDbAlignedDimension
 13
-16.9266843863
 23
-0.5314559906
 33
0.0
 14
-29.9266843863
 24
2.4685440094
 34
0.0
100
AcDbRotatedDimension
  0
DIMENSION
  5
410
330
1F
100
AcDbEntity
  8
Bemassung
  6
Continuous
 62
     7
370
    35
100
AcDbDimension
  2
DMBLK3
 10
-29.9266843863
 20
40.4685451717
 30
0.0
 11
-1.4266844012
 21
40.4685451717
 31
0.0
 70
   160
  1
\A1;<>
 71
     5
 42
-1.0
  3
BEM-ISBE
100
AcDbAlignedDimension
 13
27.0733156137
 23
4.9685440094
 33
0.0
 14
-29.9266843863
 24
2.4685440094
 34
0.0
100
AcDbRotatedDimension
  0
DIMENSION
  5
41A
330
1F
100
AcDbEntity
  8
Bemassung
  6
Continuous
 62
     7
370
    35
100
AcDbDimension
  2
DMBLK4
 10
37.0733154721
 20
-0.5314559906
 30
0.0
 11
37.0733154721
 21
15.8878057033
 31
0.0
 70
   161
  1
\A1;%%C <> h6
 71
     5
 42
-1.0
  3
BEM-ISBE
100
AcDbAlignedDimension
 13
26.5733156137
 23
-0.5314559906
 33
0.0
 14
26.5733156137
 24
5.4685440094
 34
0.0
  0
INSERT
  5
428
330
1F
100
AcDbEntity
  8
0
100
AcDbBlockReference
  2
SE
 10
0.0
 20
0.0
 30
0.0
  0
INSERT
  5
435
330
1F
100
AcDbEntity
  8
0
100
AcDbBlockReference
  2
SE2
 10
0.0
 20
0.0
 30
0.0
  0
INSERT
  5
441
330
1F
100
AcDbEntity
  8
0
100
AcDbBlockReference
  2
SE4
 10
0.0
 20
0.0
 30
0.0
  0
INSERT
  5
44D
330
1F
100
AcDbEntity
  8
0
100
AcDbBlockReference
  2
SE6
 10
0.0
 20
0.0
 30
0.0
  0
INSERT
  5
459
330
1F
100
AcDbEntity
  8
0
100
AcDbBlockReference
  2
SE8
 10
0.0
 20
0.0
 30
0.0
  0
INSERT
  5
465
330
1F
100
AcDbEntity
  8
0
100
AcDbBlockReference
  2
SE10
 10
0.0
 20
0.0
 30
0.0
  0
INSERT
  5
471
330
1F
100
AcDbEntity
  8
0
100
AcDbBlockReference
  2
SE12
 10
0.0
 20
0.0
 30
0.0
  0
INSERT
  5
47D
330
1F
100
AcDbEntity
  8
0
100
AcDbBlockReference
  2
SE14
 10
0.0
 20
0.0
 30
0.0
  0
INSERT
  5
489
330
1F
100
AcDbEntity
  8
0
100
AcDbBlockReference
  2
SE16
 10
0.0
 20
0.0
 30
0.0
  0
INSERT
  5
495
330
1F
100
AcDbEntity
  8
0
100
AcDbBlockReference
  2
SE18
 10
0.0
 20
0.0
 30
0.0
  0
INSERT
  5
4A1
330
1F
100
AcDbEntity
  8
0
100
AcDbBlockReference
  2
SE20
 10
0.0
 20
0.0
 30
0.0
  0
DIMENSION
  5
4AE
330
1F
100
AcDbEntity
  8
Default
  6
Continuous
 62
     7
370
    25
100
AcDbDimension
  2
DMBLK5
 10
-42.970464723
 20
4.9685440094
 30
0.0
 11
-42.970464723
 21
9.3850372427
 31
0.0
 70
   161
  1
\A1;%%C <>
 71
     5
 42
-1.0
  3
ISO
100
AcDbAlignedDimension
 13
-29.8666843863
 23
4.9685440094
 33
0.0
 14
-29.8666843863
 24
-0.0314559906
 34
0.0
  0
ENDSEC
  0
SECTION
  2
OBJECTS
  0
DICTIONARY
  5
C
330
0
100
AcDbDictionary
281
     1
  3
ACAD_DETAILVIEWSTYLE
350
4FF
  3
ACAD_GROUP
350
D
  3
ACAD_LAYOUT
350
1A
  3
ACAD_MATERIAL
350
43
  3
ACAD_MLEADERSTYLE
350
6B
  3
ACAD_MLINESTYLE
350
17
  3
ACAD_PLOTSETTINGS
350
19
  3
ACAD_PLOTSTYLENAME
350
E
  3
ACAD_SCALELIST
350
47
  3
ACAD_SECTIONVIEWSTYLE
350
500
  3
ACAD_TABLESTYLE
350
69
  3
ACAD_VISUALSTYLE
350
2A
  3
ACDB_RECOMPOSE_DATA
350
4FC
  3
AcDbVariableDictionary
350
4BC
  0
DICTIONARY
  5
4BA
330
8
100
AcDbDictionary
280
     1
281
     1
  3
ACAD_XREC_ROUNDTRIP
360
4BB
  0
DICTIONARY
  5
4FF
102
{ACAD_REACTORS
330
C
102
}
330
C
100
AcDbDictionary
281
     1
  0
DICTIONARY
  5
D
102
{ACAD_REACTORS
330
C
102
}
330
C
100
AcDbDictionary
281
     1
  0
DICTIONARY
  5
1A
102
{ACAD_REACTORS
330
C
102
}
330
C
100
AcDbDictionary
281
     1
  3
Layout1
350
1E
  3
Model
350
22
  0
DICTIONARY
  5
43
102
{ACAD_REACTORS
330
C
102
}
330
C
100
AcDbDictionary
281
     1
  3
ByBlock
350
45
  3
ByLayer
350
44
  3
Global
350
46
  0
DICTIONARY
  5
6B
102
{ACAD_REACTORS
330
C
102
}
330
C
100
AcDbDictionary
281
     1
  3
Standard
350
6C
  0
DICTIONARY
  5
17
102
{ACAD_REACTORS
330
C
102
}
330
C
100
AcDbDictionary
281
     1
  3
Standard
350
18
  0
DICTIONARY
  5
19
102
{ACAD_REACTORS
330
C
102
}
330
C
100
AcDbDictionary
281
     1
  0
ACDBDICTIONARYWDFLT
  5
E
102
{ACAD_REACTORS
330
C
102
}
330
C
100
AcDbDictionary
281
     1
  3
Normal
350
F
100
AcDbDictionaryWithDefault
340
F
  0
DICTIONARY
  5
47
102
{ACAD_REACTORS
330
C
102
}
330
C
100
AcDbDictionary
281
     1
  3
A0
350
48
  3
A1
350
49
  3
A2
350
4A
  3
A3
350
4B
  3
A4
350
4C
  3
A5
350
4D
  3
A6
350
4E
  3
A7
350
4F
  3
A8
350
50
  3
A9
350
51
  3
B0
350
52
  3
B1
350
53
  3
B2
350
54
  3
B3
350
55
  3
B4
350
56
  3
B5
350
57
  3
B6
350
58
  3
B7
350
59
  3
B8
350
5A
  3
B9
350
5B
  3
C0
350
5C
  3
C1
350
5D
  3
C2
350
5E
  3
C3
350
5F
  3
C4
350
60
  3
C5
350
61
  3
C6
350
62
  3
C7
350
63
  3
C8
350
64
  3
C9
350
65
  3
D0
350
66
  3
D1
350
67
  3
D2
350
68
  0
DICTIONARY
  5
500
102
{ACAD_REACTORS
330
C
102
}
330
C
100
AcDbDictionary
281
     1
  0
DICTIONARY
  5
69
102
{ACAD_REACTORS
330
C
102
}
330
C
100
AcDbDictionary
281
     1
  3
Standard
350
6A
  0
DICTIONARY
  5
2A
102
{ACAD_REACTORS
330
C
102
}
330
C
100
AcDbDictionary
281
     1
  3
2dWireframe
350
2F
  3
Basic
350
32
  3
Brighten
350
36
  3
ColorChange
350
3A
  3
Conceptual
350
34
  3
Dim
350
35
  3
EdgeColorOff
350
3D
  3
Facepattern
350
39
  3
Flat
350
2B
  3
FlatWithEdges
350
2C
  3
Gouraud
350
2D
  3
GouraudWithEdges
350
2E
  3
Hidden
350
31
  3
JitterOff
350
3B
  3
Linepattern
350
38
  3
OverhangOff
350
3C
  3
Realistic
350
33
  3
Shaded
350
42
  3
Shaded with edges
350
41
  3
Shades of Gray
350
3E
  3
Sketchy
350
3F
  3
Thicken
350
37
  3
Wireframe
350
30
  3
X-Ray
350
40
  0
XRECORD
  5
4FC
102
{ACAD_REACTORS
330
C
102
}
330
C
100
AcDbXrecord
280
     1
 90
        1
330
6A
  0
DICTIONARY
  5
4BC
102
{ACAD_REACTORS
330
C
102
}
330
C
100
AcDbDictionary
281
     1
  3
CANNOSCALE
350
4BD
  3
CMLEADERSTYLE
350
4FE
  3
CTABLESTYLE
350
4FD
  3
MSLTSCALE
350
4BE
  3
SECTIONTHICKNESSINC
350
501
  3
XCLIPFRAME
350
4BF
  0
XRECORD
  5
4BB
102
{ACAD_REACTORS
330
4BA
102
}
330
4BA
100
AcDbXrecord
280
     1
102
VTR_0.000_0.000_1.000_1.000_VISUALSTYLE
340
2F
102
VTR_0.000_0.000_1.000_1.000_GRIDDISPLAY
 70
     3
102
VTR_0.000_0.000_1.000_1.000_GRIDMAJOR
 70
     5
102
VTR_0.000_0.000_1.000_1.000_DEFAULTLIGHTING
280
     1
102
VTR_0.000_0.000_1.000_1.000_DEFAULTLIGHTINGTYPE
 70
     1
102
VTR_0.000_0.000_1.000_1.000_BRIGHTNESS
141
0.0
102
VTR_0.000_0.000_1.000_1.000_CONTRAST
142
0.0
  0
LAYOUT
  5
1E
102
{ACAD_REACTORS
330
1A
102
}
330
1A
100
AcDbPlotSettings
  1

  2
none_device
  4

  6

 40
0.0
 41
0.0
 42
0.0
 43
0.0
 44
0.0
 45
0.0
 46
0.0
 47
0.0
 48
0.0
 49
0.0
140
0.0
141
0.0
142
1.0
143
1.0
 70
   688
 72
     1
 73
     0
 74
     5
  7

 75
    16
 76
     0
 77
     2
 78
   300
147
1.0
148
0.0
149
0.0
100
AcDbLayout
  1
Layout1
 70
     1
 71
     1
 10
0.0
 20
0.0
 11
594.0
 21
420.0
 12
0.0
 22
0.0
 32
0.0
 14
0.0
 24
0.0
 34
0.0
 15
594.0
 25
420.0
 35
0.0
146
0.0
 13
0.0
 23
0.0
 33
0.0
 16
1.0
 26
0.0
 36
0.0
 17
0.0
 27
1.0
 37
0.0
 76
     0
330
1B
  0
LAYOUT
  5
22
102
{ACAD_REACTORS
330
1A
102
}
330
1A
100
AcDbPlotSettings
  1

  2
none_device
  4
Letter_(8.50_x_11.00_Inches)
  6

 40
6.35
 41
6.35
 42
6.35000508
 43
6.35000508
 44
215.9
 45
279.4
 46
0.0
 47
0.0
 48
0.0
 49
0.0
140
0.0
141
0.0
142
1.0
143
1.0
 70
  1712
 72
     1
 73
     0
 74
     0
  7

 75
     0
 76
     0
 77
     2
 78
   300
147
1.0
148
0.0
149
0.0
100
AcDbLayout
  1
Model
 70
     1
 71
     0
 10
0.0
 20
0.0
 11
594.0
 21
420.0
 12
0.0
 22
0.0
 32
0.0
 14
0.0
 24
0.0
 34
0.0
 15
594.0
 25
420.0
 35
0.0
146
0.0
 13
0.0
 23
0.0
 33
0.0
 16
1.0
 26
0.0
 36
0.0
 17
0.0
 27
1.0
 37
0.0
 76
     0
330
1F
331
29
  0
MATERIAL
  5
45
102
{ACAD_REACTORS
330
43
102
}
102
{ACAD_XDICTIONARY
360
4F2
102
}
330
43
100
AcDbMaterial
  1
ByBlock
  0
MATERIAL
  5
44
102
{ACAD_REACTORS
330
43
102
}
102
{ACAD_XDICTIONARY
360
4F0
102
}
330
43
100
AcDbMaterial
  1
ByLayer
  0
MATERIAL
  5
46
102
{ACAD_REACTORS
330
43
102
}
102
{ACAD_XDICTIONARY
360
4F4
102
}
330
43
100
AcDbMaterial
  1
Global
  0
MLEADERSTYLE
  5
6C
102
{ACAD_REACTORS
330
6B
102
}
102
{ACAD_XDICTIONARY
360
4FA
102
}
330
6B
100
AcDbMLeaderStyle
170
     2
171
     1
172
     0
 90
        2
 40
0.0
 41
0.0
173
     1
 91
-1056964608
340
14
 92
       -2
290
     1
 42
2.0
291
     1
 43
8.0
  3
Standard
341
0
 44
4.0
300

342
11
174
     1
178
     6
175
     1
176
     0
 93
-1056964608
 45
4.0
292
     0
297
     0
 46
4.0
343
0
 94
-1056964608
 47
1.0
 49
1.0
140
1.0
293
     1
141
0.0
294
     1
177
     0
142
1.0
295
     0
296
     0
143
3.75
1001
ACAD_MLEADERVER
1070
     2
  0
MLINESTYLE
  5
18
102
{ACAD_REACTORS
330
17
102
}
330
17
100
AcDbMlineStyle
  2
Standard
 70
     0
  3

 62
   256
 51
90.0
 52
90.0
 71
     2
 49
0.5
 62
   256
  6
BYLAYER
 49
-0.5
 62
   256
  6
BYLAYER
  0
ACDBPLACEHOLDER
  5
F
102
{ACAD_REACTORS
330
E
102
}
330
E
  0
SCALE
  5
48
102
{ACAD_REACTORS
330
47
102
}
330
47
100
AcDbScale
 70
     0
300
1:1
140
1.0
141
1.0
290
     1
  0
SCALE
  5
49
102
{ACAD_REACTORS
330
47
102
}
330
47
100
AcDbScale
 70
     0
300
1:2
140
1.0
141
2.0
290
     0
  0
SCALE
  5
4A
102
{ACAD_REACTORS
330
47
102
}
330
47
100
AcDbScale
 70
     0
300
1:4
140
1.0
141
4.0
290
     0
  0
SCALE
  5
4B
102
{ACAD_REACTORS
330
47
102
}
330
47
100
AcDbScale
 70
     0
300
1:5
140
1.0
141
5.0
290
     0
  0
SCALE
  5
4C
102
{ACAD_REACTORS
330
47
102
}
330
47
100
AcDbScale
 70
     0
300
1:8
140
1.0
141
8.0
290
     0
  0
SCALE
  5
4D
102
{ACAD_REACTORS
330
47
102
}
330
47
100
AcDbScale
 70
     0
300
1:10
140
1.0
141
10.0
290
     0
  0
SCALE
  5
4E
102
{ACAD_REACTORS
330
47
102
}
330
47
100
AcDbScale
 70
     0
300
1:16
140
1.0
141
16.0
290
     0
  0
SCALE
  5
4F
102
{ACAD_REACTORS
330
47
102
}
330
47
100
AcDbScale
 70
     0
300
1:20
140
1.0
141
20.0
290
     0
  0
SCALE
  5
50
102
{ACAD_REACTORS
330
47
102
}
330
47
100
AcDbScale
 70
     0
300
1:30
140
1.0
141
30.0
290
     0
  0
SCALE
  5
51
102
{ACAD_REACTORS
330
47
102
}
330
47
100
AcDbScale
 70
     0
300
1:40
140
1.0
141
40.0
290
     0
  0
SCALE
  5
52
102
{ACAD_REACTORS
330
47
102
}
330
47
100
AcDbScale
 70
     0
300
1:50
140
1.0
141
50.0
290
     0
  0
SCALE
  5
53
102
{ACAD_REACTORS
330
47
102
}
330
47
100
AcDbScale
 70
     0
300
1:100
140
1.0
141
100.0
290
     0
  0
SCALE
  5
54
102
{ACAD_REACTORS
330
47
102
}
330
47
100
AcDbScale
 70
     0
300
2:1
140
2.0
141
1.0
290
     0
  0
SCALE
  5
55
102
{ACAD_REACTORS
330
47
102
}
330
47
100
AcDbScale
 70
     0
300
4:1
140
4.0
141
1.0
290
     0
  0
SCALE
  5
56
102
{ACAD_REACTORS
330
47
102
}
330
47
100
AcDbScale
 70
     0
300
8:1
140
8.0
141
1.0
290
     0
  0
SCALE
  5
57
102
{ACAD_REACTORS
330
47
102
}
330
47
100
AcDbScale
 70
     0
300
10:1
140
10.0
141
1.0
290
     0
  0
SCALE
  5
58
102
{ACAD_REACTORS
330
47
102
}
330
47
100
AcDbScale
 70
     0
300
100:1
140
100.0
141
1.0
290
     0
  0
SCALE
  5
59
102
{ACAD_REACTORS
330
47
102
}
330
47
100
AcDbScale
 70
     0
300
1/128" = 1'-0"
140
0.0078125
141
12.0
290
     0
  0
SCALE
  5
5A
102
{ACAD_REACTORS
330
47
102
}
330
47
100
AcDbScale
 70
     0
300
1/64" = 1'-0"
140
0.015625
141
12.0
290
     0
  0
SCALE
  5
5B
102
{ACAD_REACTORS
330
47
102
}
330
47
100
AcDbScale
 70
     0
300
1/32" = 1'-0"
140
0.03125
141
12.0
290
     0
  0
SCALE
  5
5C
102
{ACAD_REACTORS
330
47
102
}
330
47
100
AcDbScale
 70
     0
300
1/16" = 1'-0"
140
0.0625
141
12.0
290
     0
  0
SCALE
  5
5D
102
{ACAD_REACTORS
330
47
102
}
330
47
100
AcDbScale
 70
     0
300
3/32" = 1'-0"
140
0.09375
141
12.0
290
     0
  0
SCALE
  5
5E
102
{ACAD_REACTORS
330
47
102
}
330
47
100
AcDbScale
 70
     0
300
1/8" = 1'-0"
140
0.125
141
12.0
290
     0
  0
SCALE
  5
5F
102
{ACAD_REACTORS
330
47
102
}
330
47
100
AcDbScale
 70
     0
300
3/16" = 1'-0"
140
0.1875
141
12.0
290
     0
  0
SCALE
  5
60
102
{ACAD_REACTORS
330
47
102
}
330
47
100
AcDbScale
 70
     0
300
1/4" = 1'-0"
140
0.25
141
12.0
290
     0
  0
SCALE
  5
61
102
{ACAD_REACTORS
330
47
102
}
330
47
100
AcDbScale
 70
     0
300
3/8" = 1'-0"
140
0.375
141
12.0
290
     0
  0
SCALE
  5
62
102
{ACAD_REACTORS
330
47
102
}
330
47
100
AcDbScale
 70
     0
300
1/2" = 1'-0"
140
0.5
141
12.0
290
     0
  0
SCALE
  5
63
102
{ACAD_REACTORS
330
47
102
}
330
47
100
AcDbScale
 70
     0
300
3/4" = 1'-0"
140
0.75
141
12.0
290
     0
  0
SCALE
  5
64
102
{ACAD_REACTORS
330
47
102
}
330
47
100
AcDbScale
 70
     0
300
1" = 1'-0"
140
1.0
141
12.0
290
     0
  0
SCALE
  5
65
102
{ACAD_REACTORS
330
47
102
}
330
47
100
AcDbScale
 70
     0
300
1-1/2" = 1'-0"
140
1.5
141
12.0
290
     0
  0
SCALE
  5
66
102
{ACAD_REACTORS
330
47
102
}
330
47
100
AcDbScale
 70
     0
300
3" = 1'-0"
140
3.0
141
12.0
290
     0
  0
SCALE
  5
67
102
{ACAD_REACTORS
330
47
102
}
330
47
100
AcDbScale
 70
     0
300
6" = 1'-0"
140
6.0
141
12.0
290
     0
  0
SCALE
  5
68
102
{ACAD_REACTORS
330
47
102
}
330
47
100
AcDbScale
 70
     0
300
1'-0" = 1'-0"
140
12.0
141
12.0
290
     0
  0
TABLESTYLE
  5
6A
102
{ACAD_REACTORS
330
69
102
}
102
{ACAD_XDICTIONARY
360
4F6
102
}
330
69
100
AcDbTableStyle
  3
Standard
 70
     0
 71
     0
 40
0.06
 41
0.06
280
     0
281
     0
  7
Standard
140
4.5
170
     2
 62
     0
 63
   257
283
     0
274
    -2
284
     1
 64
     0
275
    -2
285
     1
 65
     0
276
    -2
286
     1
 66
     0
277
    -2
287
     1
 67
     0
278
    -2
288
     1
 68
     0
279
    -2
289
     1
 69
     0
  7
Standard
140
6.0
170
     5
 62
     0
 63
   257
283
     0
274
    -2
284
     1
 64
     0
275
    -2
285
     1
 65
     0
276
    -2
286
     1
 66
     0
277
    -2
287
     1
 67
     0
278
    -2
288
     1
 68
     0
279
    -2
289
     1
 69
     0
  7
Standard
140
4.5
170
     5
 62
     0
 63
   257
283
     0
274
    -2
284
     1
 64
     0
275
    -2
285
     1
 65
     0
276
    -2
286
     1
 66
     0
277
    -2
287
     1
 67
     0
278
    -2
288
     1
 68
     0
279
    -2
289
     1
 69
     0
  0
VISUALSTYLE
  5
2F
102
{ACAD_REACTORS
330
2A
102
}
102
{ACAD_XDICTIONARY
360
4C8
102
}
330
2A
100
AcDbVisualStyle
  2
2dWireframe
 70
     4
 71
     0
 72
     2
 73
     0
 90
        0
 40
0.6
 41
30.0
 62
     5
 63
     7
421
 16777215
 74
     1
 91
        4
 64
     7
 65
   257
 75
     1
175
     1
 42
1.0
 92
        0
 66
   257
 43
1.0
 76
     1
 77
     6
 78
     2
 67
     7
 79
     5
170
     0
171
     0
290
     0
174
     0
 93
        1
 44
0.0
173
     0
291
     0
 45
0.0
1001
ACAD
1000
AcDbSavedByObjectVersion
1070
     0
  0
VISUALSTYLE
  5
32
102
{ACAD_REACTORS
330
2A
102
}
102
{ACAD_XDICTIONARY
360
4CE
102
}
330
2A
100
AcDbVisualStyle
  2
Basic
 70
     7
 71
     1
 72
     0
 73
     1
 90
        0
 40
0.6
 41
30.0
 62
     5
 63
     7
421
 16777215
 74
     0
 91
        4
 64
     7
 65
   257
 75
     1
175
     1
 42
1.0
 92
        8
 66
     7
 43
1.0
 76
     1
 77
     6
 78
     2
 67
     7
 79
     5
170
     0
171
     0
290
     0
174
     0
 93
        1
 44
0.0
173
     0
291
     1
 45
0.0
1001
ACAD
1000
AcDbSavedByObjectVersion
1070
     0
  0
VISUALSTYLE
  5
36
102
{ACAD_REACTORS
330
2A
102
}
102
{ACAD_XDICTIONARY
360
4D6
102
}
330
2A
100
AcDbVisualStyle
  2
Brighten
 70
    12
 71
     2
 72
     2
 73
     0
 90
        0
 40
0.6
 41
30.0
 62
     5
 63
     7
421
 16777215
 74
     1
 91
        4
 64
     7
 65
   257
 75
     1
175
     1
 42
1.0
 92
        8
 66
     7
 43
1.0
 76
     1
 77
     6
 78
     2
 67
     7
 79
     5
170
     0
171
     0
290
     0
174
     0
 93
        1
 44
50.0
173
     0
291
     1
 45
0.0
1001
ACAD
1000
AcDbSavedByObjectVersion
1070
     0
  0
VISUALSTYLE
  5
3A
102
{ACAD_REACTORS
330
2A
102
}
102
{ACAD_XDICTIONARY
360
4DE
102
}
330
2A
100
AcDbVisualStyle
  2
ColorChange
 70
    16
 71
     2
 72
     2
 73
     3
 90
        0
 40
0.6
 41
30.0
 62
     5
 63
     8
421
  8421504
 74
     1
 91
        4
 64
     7
 65
   257
 75
     1
175
     1
 42
1.0
 92
        8
 66
     8
424
  8421504
 43
1.0
 76
     1
 77
     6
 78
     2
 67
     7
 79
     5
170
     0
171
     0
290
     0
174
     0
 93
        1
 44
0.0
173
     0
291
     1
 45
0.0
1001
ACAD
1000
AcDbSavedByObjectVersion
1070
     0
  0
VISUALSTYLE
  5
34
102
{ACAD_REACTORS
330
2A
102
}
102
{ACAD_XDICTIONARY
360
4D2
102
}
330
2A
100
AcDbVisualStyle
  2
Conceptual
 70
     9
 71
     3
 72
     2
 73
     0
 90
        0
 40
0.6
 41
30.0
 62
     5
 63
     7
421
 16777215
 74
     2
 91
        2
 64
     7
 65
   257
 75
     1
175
     1
 42
179.0
 92
        8
 66
     7
 43
1.0
 76
     1
 77
     6
 78
     2
 67
     7
 79
     3
170
     0
171
     0
290
     0
174
     0
 93
        1
 44
0.0
173
     0
291
     0
 45
0.0
1001
ACAD
1000
AcDbSavedByObjectVersion
1070
     0
  0
VISUALSTYLE
  5
35
102
{ACAD_REACTORS
330
2A
102
}
102
{ACAD_XDICTIONARY
360
4D4
102
}
330
2A
100
AcDbVisualStyle
  2
Dim
 70
    11
 71
     2
 72
     2
 73
     0
 90
        0
 40
0.6
 41
30.0
 62
     5
 63
     7
421
 16777215
 74
     1
 91
        4
 64
     7
 65
   257
 75
     1
175
     1
 42
1.0
 92
        8
 66
     7
 43
1.0
 76
     1
 77
     6
 78
     2
 67
     7
 79
     5
170
     0
171
     0
290
     0
174
     0
 93
        1
 44
-50.0
173
     0
291
     1
 45
0.0
1001
ACAD
1000
AcDbSavedByObjectVersion
1070
     0
  0
VISUALSTYLE
  5
3D
102
{ACAD_REACTORS
330
2A
102
}
102
{ACAD_XDICTIONARY
360
4E4
102
}
330
2A
100
AcDbVisualStyle
  2
EdgeColorOff
 70
    22
 71
     2
 72
     2
 73
     0
 90
        0
 40
0.6
 41
30.0
 62
     5
 63
     7
421
 16777215
 74
     1
 91
        4
 64
     7
 65
   257
 75
     1
175
     1
 42
1.0
 92
        8
 66
     7
 43
1.0
 76
     1
 77
     6
 78
     2
 67
     7
 79
     5
170
     0
171
     0
290
     0
174
     0
 93
        1
 44
0.0
173
     0
291
     1
 45
0.0
1001
ACAD
1000
AcDbSavedByObjectVersion
1070
     0
  0
VISUALSTYLE
  5
39
102
{ACAD_REACTORS
330
2A
102
}
102
{ACAD_XDICTIONARY
360
4DC
102
}
330
2A
100
AcDbVisualStyle
  2
Facepattern
 70
    15
 71
     2
 72
     2
 73
     0
 90
        0
 40
0.6
 41
30.0
 62
     5
 63
     7
421
 16777215
 74
     1
 91
        4
 64
     7
 65
   257
 75
     1
175
     1
 42
1.0
 92
        8
 66
     7
 43
1.0
 76
     1
 77
     6
 78
     2
 67
     7
 79
     5
170
     0
171
     0
290
     0
174
     0
 93
        1
 44
0.0
173
     0
291
     1
 45
0.0
1001
ACAD
1000
AcDbSavedByObjectVersion
1070
     0
  0
VISUALSTYLE
  5
2B
102
{ACAD_REACTORS
330
2A
102
}
102
{ACAD_XDICTIONARY
360
4C0
102
}
330
2A
100
AcDbVisualStyle
  2
Flat
 70
     0
 71
     2
 72
     1
 73
     1
 90
        2
 40
0.6
 41
30.0
 62
     5
 63
     7
421
 16777215
 74
     0
 91
        0
 64
     7
 65
   257
 75
     1
175
     1
 42
1.0
 92
        8
 66
     7
 43
1.0
 76
     1
 77
     6
 78
     2
 67
     7
 79
     5
170
     0
171
     0
290
     0
174
     0
 93
       13
 44
0.0
173
     0
291
     1
 45
0.0
1001
ACAD
1000
AcDbSavedByObjectVersion
1070
     0
  0
VISUALSTYLE
  5
2C
102
{ACAD_REACTORS
330
2A
102
}
102
{ACAD_XDICTIONARY
360
4C2
102
}
330
2A
100
AcDbVisualStyle
  2
FlatWithEdges
 70
     1
 71
     2
 72
     1
 73
     1
 90
        2
 40
0.6
 41
30.0
 62
     5
 63
     7
421
 16777215
 74
     1
 91
        0
 64
     7
 65
   257
 75
     1
175
     1
 42
1.0
 92
        0
 66
   257
 43
1.0
 76
     1
 77
     6
 78
     2
 67
     7
 79
     5
170
     0
171
     0
290
     0
174
     0
 93
       13
 44
0.0
173
     0
291
     1
 45
0.0
1001
ACAD
1000
AcDbSavedByObjectVersion
1070
     0
  0
VISUALSTYLE
  5
2D
102
{ACAD_REACTORS
330
2A
102
}
102
{ACAD_XDICTIONARY
360
4C4
102
}
330
2A
100
AcDbVisualStyle
  2
Gouraud
 70
     2
 71
     2
 72
     2
 73
     1
 90
        2
 40
0.6
 41
30.0
 62
     5
 63
     7
421
 16777215
 74
     0
 91
        0
 64
     7
 65
   257
 75
     1
175
     1
 42
1.0
 92
        0
 66
     7
 43
1.0
 76
     1
 77
     6
 78
     2
 67
     7
 79
     5
170
     0
171
     0
290
     0
174
     0
 93
       13
 44
0.0
173
     0
291
     1
 45
0.0
1001
ACAD
1000
AcDbSavedByObjectVersion
1070
     0
  0
VISUALSTYLE
  5
2E
102
{ACAD_REACTORS
330
2A
102
}
102
{ACAD_XDICTIONARY
360
4C6
102
}
330
2A
100
AcDbVisualStyle
  2
GouraudWithEdges
 70
     3
 71
     2
 72
     2
 73
     1
 90
        2
 40
0.6
 41
30.0
 62
     5
 63
     7
421
 16777215
 74
     1
 91
        0
 64
     7
 65
   257
 75
     1
175
     1
 42
1.0
 92
        0
 66
   257
 43
1.0
 76
     1
 77
     6
 78
     2
 67
     7
 79
     5
170
     0
171
     0
290
     0
174
     0
 93
       13
 44
0.0
173
     0
291
     1
 45
0.0
1001
ACAD
1000
AcDbSavedByObjectVersion
1070
     0
  0
VISUALSTYLE
  5
31
102
{ACAD_REACTORS
330
2A
102
}
102
{ACAD_XDICTIONARY
360
4CC
102
}
330
2A
100
AcDbVisualStyle
  2
Hidden
 70
     6
 71
     1
 72
     2
 73
     2
 90
        0
 40
0.6
 41
30.0
 62
     5
 63
     7
421
 16777215
 74
     2
 91
        2
 64
     7
 65
   257
 75
     2
175
     1
 42
40.0
 92
        0
 66
   257
 43
1.0
 76
     1
 77
     6
 78
     2
 67
     7
 79
     3
170
     0
171
     0
290
     0
174
     0
 93
        1
 44
0.0
173
     0
291
     0
 45
0.0
1001
ACAD
1000
AcDbSavedByObjectVersion
1070
     0
  0
VISUALSTYLE
  5
3B
102
{ACAD_REACTORS
330
2A
102
}
102
{ACAD_XDICTIONARY
360
4E0
102
}
330
2A
100
AcDbVisualStyle
  2
JitterOff
 70
    20
 71
     2
 72
     2
 73
     0
 90
        0
 40
0.6
 41
30.0
 62
     5
 63
     7
421
 16777215
 74
     1
 91
        4
 64
     7
 65
   257
 75
     1
175
     1
 42
1.0
 92
       10
 66
     7
 43
1.0
 76
     1
 77
     6
 78
     2
 67
     7
 79
     5
170
     0
171
     0
290
     0
174
     0
 93
        1
 44
0.0
173
     0
291
     1
 45
0.0
1001
ACAD
1000
AcDbSavedByObjectVersion
1070
     0
  0
VISUALSTYLE
  5
38
102
{ACAD_REACTORS
330
2A
102
}
102
{ACAD_XDICTIONARY
360
4DA
102
}
330
2A
100
AcDbVisualStyle
  2
Linepattern
 70
    14
 71
     2
 72
     2
 73
     0
 90
        0
 40
0.6
 41
30.0
 62
     5
 63
     7
421
 16777215
 74
     1
 91
        4
 64
     7
 65
   257
 75
     7
175
     7
 42
1.0
 92
        8
 66
     7
 43
1.0
 76
     1
 77
     6
 78
     2
 67
     7
 79
     5
170
     0
171
     0
290
     0
174
     0
 93
        1
 44
0.0
173
     0
291
     1
 45
0.0
1001
ACAD
1000
AcDbSavedByObjectVersion
1070
     0
  0
VISUALSTYLE
  5
3C
102
{ACAD_REACTORS
330
2A
102
}
102
{ACAD_XDICTIONARY
360
4E2
102
}
330
2A
100
AcDbVisualStyle
  2
OverhangOff
 70
    21
 71
     2
 72
     2
 73
     0
 90
        0
 40
0.6
 41
30.0
 62
     5
 63
     7
421
 16777215
 74
     1
 91
        4
 64
     7
 65
   257
 75
     1
175
     1
 42
1.0
 92
        9
 66
     7
 43
1.0
 76
     1
 77
     6
 78
     2
 67
     7
 79
     5
170
     0
171
     0
290
     0
174
     0
 93
        1
 44
0.0
173
     0
291
     1
 45
0.0
1001
ACAD
1000
AcDbSavedByObjectVersion
1070
     0
  0
VISUALSTYLE
  5
33
102
{ACAD_REACTORS
330
2A
102
}
102
{ACAD_XDICTIONARY
360
4D0
102
}
330
2A
100
AcDbVisualStyle
  2
Realistic
 70
     8
 71
     2
 72
     3
 73
     0
 90
        2
 40
0.6
 41
30.0
 62
     5
 63
     7
421
 16777215
 74
     0
 91
        0
 64
     7
 65
   257
 75
     1
175
     1
 42
1.0
 92
        8
 66
   257
 43
1.0
 76
     1
 77
     6
 78
     2
 67
     7
 79
     3
170
     0
171
     0
290
     0
174
     0
 93
       13
 44
0.0
173
     0
291
     0
 45
0.0
1001
ACAD
1000
AcDbSavedByObjectVersion
1070
     0
  0
VISUALSTYLE
  5
42
102
{ACAD_REACTORS
330
2A
102
}
102
{ACAD_XDICTIONARY
360
4EE
102
}
330
2A
100
AcDbVisualStyle
  2
Shaded
 70
    27
 71
     2
 72
     2
 73
     1
 90
        2
 40
0.6
 41
30.0
 62
     5
 63
     7
421
 16777215
 74
     0
 91
        4
 64
     7
 65
   257
 75
     1
175
     1
 42
1.0
 92
        8
 66
   257
 43
1.0
 76
     1
 77
     6
 78
     2
 67
     8
425
  7895160
 79
     3
170
     0
171
     0
290
     0
174
     0
 93
        5
 44
0.0
173
     0
291
     0
 45
0.0
1001
ACAD
1000
AcDbSavedByObjectVersion
1070
     0
  0
VISUALSTYLE
  5
41
102
{ACAD_REACTORS
330
2A
102
}
102
{ACAD_XDICTIONARY
360
4EC
102
}
330
2A
100
AcDbVisualStyle
  2
Shaded with edges
 70
    26
 71
     2
 72
     2
 73
     1
 90
        2
 40
0.6
 41
30.0
 62
     5
 63
     7
421
 16777215
 74
     1
 91
       10
 64
     7
 65
   257
 75
     2
175
     1
 42
1.0
 92
        8
 66
   257
 43
1.0
 76
     1
 77
     6
 78
     2
 67
     7
 79
     3
170
     0
171
     0
290
     0
174
     0
 93
        5
 44
0.0
173
     0
291
     0
 45
0.0
1001
ACAD
1000
AcDbSavedByObjectVersion
1070
     0
  0
VISUALSTYLE
  5
3E
102
{ACAD_REACTORS
330
2A
102
}
102
{ACAD_XDICTIONARY
360
4E6
102
}
330
2A
100
AcDbVisualStyle
  2
Shades of Gray
 70
    23
 71
     2
 72
     2
 73
     3
 90
        0
 40
0.6
 41
30.0
 62
     5
 63
     7
421
 16777215
 74
     2
 91
        2
 64
     7
 65
     7
 75
     1
175
     1
 42
40.0
 92
        8
 66
     7
 43
1.0
 76
     1
 77
     6
 78
     2
 67
     7
 79
     3
170
     0
171
     0
290
     0
174
     0
 93
        1
 44
0.0
173
     0
291
     0
 45
0.0
1001
ACAD
1000
AcDbSavedByObjectVersion
1070
     0
  0
VISUALSTYLE
  5
3F
102
{ACAD_REACTORS
330
2A
102
}
102
{ACAD_XDICTIONARY
360
4E8
102
}
330
2A
100
AcDbVisualStyle
  2
Sketchy
 70
    24
 71
     1
 72
     2
 73
     2
 90
        0
 40
0.6
 41
30.0
 62
     5
 63
     7
421
 16777215
 74
     2
 91
        2
 64
     7
 65
     7
 75
     1
175
     1
 42
40.0
 92
       11
 66
     7
 43
1.0
 76
     1
 77
     6
 78
     2
 67
     7
 79
     6
170
     0
171
     0
290
     0
174
     0
 93
        1
 44
0.0
173
     0
291
     0
 45
0.0
1001
ACAD
1000
AcDbSavedByObjectVersion
1070
     0
  0
VISUALSTYLE
  5
37
102
{ACAD_REACTORS
330
2A
102
}
102
{ACAD_XDICTIONARY
360
4D8
102
}
330
2A
100
AcDbVisualStyle
  2
Thicken
 70
    13
 71
     2
 72
     2
 73
     0
 90
        0
 40
0.6
 41
30.0
 62
     5
 63
     7
421
 16777215
 74
     1
 91
        4
 64
     7
 65
   257
 75
     1
175
     1
 42
1.0
 92
       12
 66
     7
 43
1.0
 76
     1
 77
     6
 78
     2
 67
     7
 79
     5
170
     0
171
     0
290
     0
174
     0
 93
        1
 44
0.0
173
     0
291
     1
 45
0.0
1001
ACAD
1000
AcDbSavedByObjectVersion
1070
     0
  0
VISUALSTYLE
  5
30
102
{ACAD_REACTORS
330
2A
102
}
102
{ACAD_XDICTIONARY
360
4CA
102
}
330
2A
100
AcDbVisualStyle
  2
Wireframe
 70
     5
 71
     0
 72
     2
 73
     0
 90
        0
 40
0.6
 41
30.0
 62
     5
 63
     7
421
 16777215
 74
     1
 91
        4
 64
     7
 65
   257
 75
     1
175
     1
 42
1.0
 92
        0
 66
   257
 43
1.0
 76
     1
 77
     6
 78
     2
 67
     7
 79
     3
170
     0
171
     0
290
     0
174
     0
 93
        1
 44
0.0
173
     0
291
     0
 45
0.0
1001
ACAD
1000
AcDbSavedByObjectVersion
1070
     0
  0
VISUALSTYLE
  5
40
102
{ACAD_REACTORS
330
2A
102
}
102
{ACAD_XDICTIONARY
360
4EA
102
}
330
2A
100
AcDbVisualStyle
  2
X-Ray
 70
    25
 71
     2
 72
     2
 73
     1
 90
        1
 40
0.5
 41
30.0
 62
     5
 63
     7
421
 16777215
 74
     1
 91
        0
 64
     7
 65
   257
 75
     1
175
     1
 42
1.0
 92
        8
 66
     7
 43
1.0
 76
     1
 77
     6
 78
     2
 67
     7
 79
     3
170
     0
171
     0
290
     0
174
     0
 93
       13
 44
0.0
173
     0
291
     0
 45
0.0
1001
ACAD
1000
AcDbSavedByObjectVersion
1070
     0
  0
DICTIONARYVAR
  5
4BD
102
{ACAD_REACTORS
330
4BC
102
}
330
4BC
100
DictionaryVariables
280
     0
  1
1:1
  0
DICTIONARYVAR
  5
4FE
102
{ACAD_REACTORS
330
4BC
102
}
330
4BC
100
DictionaryVariables
280
     0
  1
Standard
  0
DICTIONARYVAR
  5
4FD
102
{ACAD_REACTORS
330
4BC
102
}
330
4BC
100
DictionaryVariables
280
     0
  1
Standard
  0
DICTIONARYVAR
  5
4BE
102
{ACAD_REACTORS
330
4BC
102
}
330
4BC
100
DictionaryVariables
280
     0
  1
1
  0
DICTIONARYVAR
  5
501
102
{ACAD_REACTORS
330
4BC
102
}
330
4BC
100
DictionaryVariables
280
     0
  1
6.000000
  0
DICTIONARYVAR
  5
4BF
102
{ACAD_REACTORS
330
4BC
102
}
330
4BC
100
DictionaryVariables
280
     0
  1
2
  0
DICTIONARY
  5
4F2
330
45
100
AcDbDictionary
280
     1
281
     1
  3
ACAD_XREC_ROUNDTRIP
360
4F3
  0
DICTIONARY
  5
4F0
330
44
100
AcDbDictionary
280
     1
281
     1
  3
ACAD_XREC_ROUNDTRIP
360
4F1
  0
DICTIONARY
  5
4F4
330
46
100
AcDbDictionary
280
     1
281
     1
  3
ACAD_XREC_ROUNDTRIP
360
4F5
  0
DICTIONARY
  5
4FA
330
6C
100
AcDbDictionary
280
     1
281
     1
  3
ACAD_XREC_ROUNDTRIP
360
4FB
  0
DICTIONARY
  5
4F6
330
6A
100
AcDbDictionary
280
     1
281
     1
  3
ACAD_ROUNDTRIP_2008_TABLESTYLE_CELLSTYLEMAP
360
4F8
  3
ACAD_XREC_ROUNDTRIP
360
4F7
  0
DICTIONARY
  5
4C8
330
2F
100
AcDbDictionary
280
     1
281
     1
  3
ACAD_XREC_ROUNDTRIP
360
4C9
  0
DICTIONARY
  5
4CE
330
32
100
AcDbDictionary
280
     1
281
     1
  3
ACAD_XREC_ROUNDTRIP
360
4CF
  0
DICTIONARY
  5
4D6
330
36
100
AcDbDictionary
280
     1
281
     1
  3
ACAD_XREC_ROUNDTRIP
360
4D7
  0
DICTIONARY
  5
4DE
330
3A
100
AcDbDictionary
280
     1
281
     1
  3
ACAD_XREC_ROUNDTRIP
360
4DF
  0
DICTIONARY
  5
4D2
330
34
100
AcDbDictionary
280
     1
281
     1
  3
ACAD_XREC_ROUNDTRIP
360
4D3
  0
DICTIONARY
  5
4D4
330
35
100
AcDbDictionary
280
     1
281
     1
  3
ACAD_XREC_ROUNDTRIP
360
4D5
  0
DICTIONARY
  5
4E4
330
3D
100
AcDbDictionary
280
     1
281
     1
  3
ACAD_XREC_ROUNDTRIP
360
4E5
  0
DICTIONARY
  5
4DC
330
39
100
AcDbDictionary
280
     1
281
     1
  3
ACAD_XREC_ROUNDTRIP
360
4DD
  0
DICTIONARY
  5
4C0
330
2B
100
AcDbDictionary
280
     1
281
     1
  3
ACAD_XREC_ROUNDTRIP
360
4C1
  0
DICTIONARY
  5
4C2
330
2C
100
AcDbDictionary
280
     1
281
     1
  3
ACAD_XREC_ROUNDTRIP
360
4C3
  0
DICTIONARY
  5
4C4
330
2D
100
AcDbDictionary
280
     1
281
     1
  3
ACAD_XREC_ROUNDTRIP
360
4C5
  0
DICTIONARY
  5
4C6
330
2E
100
AcDbDictionary
280
     1
281
     1
  3
ACAD_XREC_ROUNDTRIP
360
4C7
  0
DICTIONARY
  5
4CC
330
31
100
AcDbDictionary
280
     1
281
     1
  3
ACAD_XREC_ROUNDTRIP
360
4CD
  0
DICTIONARY
  5
4E0
330
3B
100
AcDbDictionary
280
     1
281
     1
  3
ACAD_XREC_ROUNDTRIP
360
4E1
  0
DICTIONARY
  5
4DA
330
38
100
AcDbDictionary
280
     1
281
     1
  3
ACAD_XREC_ROUNDTRIP
360
4DB
  0
DICTIONARY
  5
4E2
330
3C
100
AcDbDictionary
280
     1
281
     1
  3
ACAD_XREC_ROUNDTRIP
360
4E3
  0
DICTIONARY
  5
4D0
330
33
100
AcDbDictionary
280
     1
281
     1
  3
ACAD_XREC_ROUNDTRIP
360
4D1
  0
DICTIONARY
  5
4EE
330
42
100
AcDbDictionary
280
     1
281
     1
  3
ACAD_XREC_ROUNDTRIP
360
4EF
  0
DICTIONARY
  5
4EC
330
41
100
AcDbDictionary
280
     1
281
     1
  3
ACAD_XREC_ROUNDTRIP
360
4ED
  0
DICTIONARY
  5
4E6
330
3E
100
AcDbDictionary
280
     1
281
     1
  3
ACAD_XREC_ROUNDTRIP
360
4E7
  0
DICTIONARY
  5
4E8
330
3F
100
AcDbDictionary
280
     1
281
     1
  3
ACAD_XREC_ROUNDTRIP
360
4E9
  0
DICTIONARY
  5
4D8
330
37
100
AcDbDictionary
280
     1
281
     1
  3
ACAD_XREC_ROUNDTRIP
360
4D9
  0
DICTIONARY
  5
4CA
330
30
100
AcDbDictionary
280
     1
281
     1
  3
ACAD_XREC_ROUNDTRIP
360
4CB
  0
DICTIONARY
  5
4EA
330
40
100
AcDbDictionary
280
     1
281
     1
  3
ACAD_XREC_ROUNDTRIP
360
4EB
  0
XRECORD
  5
4F3
102
{ACAD_REACTORS
330
4F2
102
}
330
4F2
100
AcDbXrecord
280
     1
102
MATERIAL
148
0.0
149
0.0
149
0.0
 93
        0
 94
      127
282
     0
 72
     1
 77
     1
171
     1
175
     1
179
     1
273
     0
  0
XRECORD
  5
4F1
102
{ACAD_REACTORS
330
4F0
102
}
330
4F0
100
AcDbXrecord
280
     1
102
MATERIAL
148
0.0
149
0.0
149
0.0
 93
        0
 94
      127
282
     0
 72
     1
 77
     1
171
     1
175
     1
179
     1
273
     0
  0
XRECORD
  5
4F5
102
{ACAD_REACTORS
330
4F4
102
}
330
4F4
100
AcDbXrecord
280
     1
102
MATERIAL
148
0.0
149
0.0
149
0.0
 93
        0
 94
      127
282
     0
 72
     1
 77
     1
171
     1
175
     1
179
     1
273
     0
  0
XRECORD
  5
4FB
102
{ACAD_REACTORS
330
4FA
102
}
330
4FA
100
AcDbXrecord
280
     1
102
ACAD_ROUNDTRIP_2010_MLEADER_STYLE
  0
CELLSTYLEMAP
  5
4F8
102
{ACAD_REACTORS
330
4F6
102
}
330
4F6
100
AcDbCellStyleMap
 90
        3
300
CELLSTYLE
  1
TABLEFORMAT_BEGIN
 90
        5
170
     1
 91
        0
 92
    32768
 62
   257
 93
        1
300
CONTENTFORMAT
  1
CONTENTFORMAT_BEGIN
 90
        0
 91
        0
 92
        4
 93
        0
300

 40
0.0
140
1.0
 94
        5
 62
     0
340
11
144
6.0
309
CONTENTFORMAT_END
171
     1
301
MARGIN
  1
CELLMARGIN_BEGIN
 40
1.5
 40
1.5
 40
1.5
 40
1.5
 40
1.5
 40
1.5
309
CELLMARGIN_END
 94
        6
 95
        1
302
GRIDFORMAT
  1
GRIDFORMAT_BEGIN
 90
        0
 91
        1
 62
     0
 92
       -2
340
14
 93
        0
 40
0.045
309
GRIDFORMAT_END
 95
        2
302
GRIDFORMAT
  1
GRIDFORMAT_BEGIN
 90
        0
 91
        1
 62
     0
 92
       -2
340
14
 93
        0
 40
0.045
309
GRIDFORMAT_END
 95
        4
302
GRIDFORMAT
  1
GRIDFORMAT_BEGIN
 90
        0
 91
        1
 62
     0
 92
       -2
340
14
 93
        0
 40
0.045
309
GRIDFORMAT_END
 95
        8
302
GRIDFORMAT
  1
GRIDFORMAT_BEGIN
 90
        0
 91
        1
 62
     0
 92
       -2
340
14
 93
        0
 40
0.045
309
GRIDFORMAT_END
 95
       16
302
GRIDFORMAT
  1
GRIDFORMAT_BEGIN
 90
        0
 91
        1
 62
     0
 92
       -2
340
14
 93
        0
 40
0.045
309
GRIDFORMAT_END
 95
       32
302
GRIDFORMAT
  1
GRIDFORMAT_BEGIN
 90
        0
 91
        1
 62
     0
 92
       -2
340
14
 93
        0
 40
0.045
309
GRIDFORMAT_END
309
TABLEFORMAT_END
  1
CELLSTYLE_BEGIN
 90
        1
 91
        1
300
_TITLE
309
CELLSTYLE_END
300
CELLSTYLE
  1
TABLEFORMAT_BEGIN
 90
        5
170
     1
 91
        0
 92
        0
 62
   257
 93
        1
300
CONTENTFORMAT
  1
CONTENTFORMAT_BEGIN
 90
        0
 91
        0
 92
        4
 93
        0
300

 40
0.0
140
1.0
 94
        5
 62
     0
340
11
144
4.5
309
CONTENTFORMAT_END
171
     1
301
MARGIN
  1
CELLMARGIN_BEGIN
 40
1.5
 40
1.5
 40
1.5
 40
1.5
 40
1.5
 40
1.5
309
CELLMARGIN_END
 94
        6
 95
        1
302
GRIDFORMAT
  1
GRIDFORMAT_BEGIN
 90
        0
 91
        1
 62
     0
 92
       -2
340
14
 93
        0
 40
0.045
309
GRIDFORMAT_END
 95
        2
302
GRIDFORMAT
  1
GRIDFORMAT_BEGIN
 90
        0
 91
        1
 62
     0
 92
       -2
340
14
 93
        0
 40
0.045
309
GRIDFORMAT_END
 95
        4
302
GRIDFORMAT
  1
GRIDFORMAT_BEGIN
 90
        0
 91
        1
 62
     0
 92
       -2
340
14
 93
        0
 40
0.045
309
GRIDFORMAT_END
 95
        8
302
GRIDFORMAT
  1
GRIDFORMAT_BEGIN
 90
        0
 91
        1
 62
     0
 92
       -2
340
14
 93
        0
 40
0.045
309
GRIDFORMAT_END
 95
       16
302
GRIDFORMAT
  1
GRIDFORMAT_BEGIN
 90
        0
 91
        1
 62
     0
 92
       -2
340
14
 93
        0
 40
0.045
309
GRIDFORMAT_END
 95
       32
302
GRIDFORMAT
  1
GRIDFORMAT_BEGIN
 90
        0
 91
        1
 62
     0
 92
       -2
340
14
 93
        0
 40
0.045
309
GRIDFORMAT_END
309
TABLEFORMAT_END
  1
CELLSTYLE_BEGIN
 90
        2
 91
        1
300
_HEADER
309
CELLSTYLE_END
300
CELLSTYLE
  1
TABLEFORMAT_BEGIN
 90
        5
170
     1
 91
        0
 92
        0
 62
   257
 93
        1
300
CONTENTFORMAT
  1
CONTENTFORMAT_BEGIN
 90
        0
 91
        0
 92
        4
 93
        0
300

 40
0.0
140
1.0
 94
        2
 62
     0
340
11
144
4.5
309
CONTENTFORMAT_END
171
     1
301
MARGIN
  1
CELLMARGIN_BEGIN
 40
1.5
 40
1.5
 40
1.5
 40
1.5
 40
1.5
 40
1.5
309
CELLMARGIN_END
 94
        6
 95
        1
302
GRIDFORMAT
  1
GRIDFORMAT_BEGIN
 90
        0
 91
        1
 62
     0
 92
       -2
340
14
 93
        0
 40
0.045
309
GRIDFORMAT_END
 95
        2
302
GRIDFORMAT
  1
GRIDFORMAT_BEGIN
 90
        0
 91
        1
 62
     0
 92
       -2
340
14
 93
        0
 40
0.045
309
GRIDFORMAT_END
 95
        4
302
GRIDFORMAT
  1
GRIDFORMAT_BEGIN
 90
        0
 91
        1
 62
     0
 92
       -2
340
14
 93
        0
 40
0.045
309
GRIDFORMAT_END
 95
        8
302
GRIDFORMAT
  1
GRIDFORMAT_BEGIN
 90
        0
 91
        1
 62
     0
 92
       -2
340
14
 93
        0
 40
0.045
309
GRIDFORMAT_END
 95
       16
302
GRIDFORMAT
  1
GRIDFORMAT_BEGIN
 90
        0
 91
        1
 62
     0
 92
       -2
340
14
 93
        0
 40
0.045
309
GRIDFORMAT_END
 95
       32
302
GRIDFORMAT
  1
GRIDFORMAT_BEGIN
 90
        0
 91
        1
 62
     0
 92
       -2
340
14
 93
        0
 40
0.045
309
GRIDFORMAT_END
309
TABLEFORMAT_END
  1
CELLSTYLE_BEGIN
 90
        3
 91
        2
300
_DATA
309
CELLSTYLE_END
  0
XRECORD
  5
4F7
102
{ACAD_REACTORS
330
4F6
102
}
330
4F6
100
AcDbXrecord
280
     1
102
ACAD_ROUNDTRIP_PRE2007_TABLESTYLE
 90
        4
 91
        0
  1

 92
        4
 93
        0
  2

 94
        4
 95
        0
  3

  0
XRECORD
  5
4C9
102
{ACAD_REACTORS
330
4C8
102
}
330
4C8
100
AcDbXrecord
280
     1
102
RTVSPropertyOp0
 70
     1
102
RTVSPropertyOp1
 70
     1
102
RTVSPropertyOp2
 70
     1
102
RTVSPropertyOp3
 70
     1
102
RTVSPropertyOp4
 70
     1
102
RTVSPropertyOp5
 70
     1
102
RTVSPropertyOp6
 70
     1
102
RTVSPropertyOp7
 70
     1
102
RTVSPropertyOp8
 70
     1
102
RTVSPropertyOp9
 70
     1
102
RTVSPropertyOp10
 70
     1
102
RTVSPropertyOp11
 70
     1
102
RTVSPropertyOp12
 70
     1
102
RTVSPropertyOp13
 70
     1
102
RTVSPropertyOp14
 70
     1
102
RTVSPropertyOp15
 70
     1
102
RTVSPropertyOp16
 70
     1
102
RTVSPropertyOp17
 70
     1
102
RTVSPropertyOp18
 70
     1
102
RTVSPropertyOp19
 70
     1
102
RTVSPropertyOp20
 70
     1
102
RTVSPropertyOp21
 70
     1
102
RTVSPropertyOp22
 70
     1
102
RTVSPropertyOp23
 70
     1
102
RTVSPropertyOp24
 70
     1
102
RTVSPropertyOp25
 70
     1
102
RTVSPropertyOp26
 70
     1
102
RTVSPropertyOp27
 70
     1
102
RTVSPropertyOp28
 70
     1
102
RTVSPropertyOp29
 70
     1
102
RTVSPropertyOp30
 70
     1
102
RTVSPropertyOp31
 70
     1
102
RTVSPropertyOp32
 70
     1
102
RTVSPropertyOp33
 70
     1
102
RTVSPropertyOp34
 70
     1
102
RTVSPropertyOp35
 70
     1
102
RTVSPropertyOp36
 70
     1
102
RTVSPropertyOp37
 70
     1
102
RTVSPropertyOp38
 70
     1
102
RTVSPropertyOp39
 70
     1
102
RTVSPropertyOp40
 70
     1
102
RTVSPropertyOp41
 70
     1
102
RTVSPropertyOp42
 70
     1
102
RTVSPropertyOp43
 70
     1
102
RTVSPropertyOp44
 70
     1
102
RTVSPropertyOp45
 70
     1
102
RTVSPropertyOp46
 70
     1
102
RTVSPropertyOp47
 70
     1
102
RTVSPropertyOp48
 70
     1
102
RTVSPropertyOp49
 70
     1
102
RTVSPropertyOp50
 70
     1
102
RTVSPropertyOp51
 70
     0
102
RTVSPropertyOp52
 70
     0
102
RTVSPropertyOp53
 70
     1
102
RTVSPropertyOp54
 70
     1
102
RTVSPropertyOp55
 70
     1
102
RTVSPropertyOp56
 70
     1
102
RTVSPropertyOp57
 70
     1
102
RTVSPost2010Prop28
280
     1
102
RTVSPost2010PropOp28
 70
     1
102
RTVSPost2010Prop29
280
     1
102
RTVSPost2010PropOp29
 70
     1
102
RTVSPost2010Prop30
280
     0
102
RTVSPost2010PropOp30
 70
     1
102
RTVSPost2010Prop31
280
     0
102
RTVSPost2010PropOp31
 70
     1
102
RTVSPost2010Prop32
280
     0
102
RTVSPost2010PropOp32
 70
     1
102
RTVSPost2010Prop33
280
     0
102
RTVSPost2010PropOp33
 70
     1
102
RTVSPost2010Prop34
280
     0
102
RTVSPost2010PropOp34
 70
     1
102
RTVSPost2010Prop35
280
     0
102
RTVSPost2010PropOp35
 70
     1
102
RTVSPost2010Prop36
280
     0
102
RTVSPost2010PropOp36
 70
     1
102
RTVSPost2010Prop37
 90
       50
102
RTVSPost2010PropOp37
 70
     1
102
RTVSPost2010Prop38
140
0.0
102
RTVSPost2010PropOp38
 70
     1
102
RTVSPost2010Prop39
140
1.0
102
RTVSPost2010PropOp39
 70
     1
102
RTVSPost2010Prop40
 90
        0
102
RTVSPost2010PropOp40
 70
     1
102
RTVSPost2010Prop41ColorIndex
 90
       18
102
RTVSPost2010Prop41ColorRGB
 90
        0
102
RTVSPost2010PropOp41
 70
     1
102
RTVSPost2010Prop42
 90
       50
102
RTVSPost2010PropOp42
 70
     1
102
RTVSPost2010Prop43
 90
        3
102
RTVSPost2010PropOp43
 70
     1
102
RTVSPost2010Prop44ColorIndex
 90
        5
102
RTVSPost2010Prop44ColorRGB
 90
      255
102
RTVSPost2010PropOp44
 70
     1
102
RTVSPost2010Prop45
280
     0
102
RTVSPost2010PropOp45
 70
     1
102
RTVSPost2010Prop46
 90
       50
102
RTVSPost2010PropOp46
 70
     1
102
RTVSPost2010Prop47
 90
       50
102
RTVSPost2010PropOp47
 70
     1
102
RTVSPost2010Prop48
 90
       50
102
RTVSPost2010PropOp48
 70
     1
102
RTVSPost2010Prop49
280
     0
102
RTVSPost2010PropOp49
 70
     1
102
RTVSPost2010Prop50
 90
       50
102
RTVSPost2010PropOp50
 70
     1
102
RTVSPost2010Prop51ColorIndex
 90
      256
102
RTVSPost2010Prop51ColorRGB
 90
-16777216
102
RTVSPost2010PropOp51
 70
     0
102
RTVSPost2010Prop52
140
1.0
102
RTVSPost2010PropOp52
 70
     0
102
RTVSPost2010Prop53
 90
        2
102
RTVSPost2010PropOp53
 70
     1
102
RTVSPost2010Prop54
  1
strokes_ogs.tif
102
RTVSPost2010PropOp54
 70
     1
102
RTVSPost2010Prop55
280
     0
102
RTVSPost2010PropOp55
 70
     1
102
RTVSPost2010Prop56
140
1.0
102
RTVSPost2010PropOp56
 70
     1
102
RTVSPost2010Prop57
140
1.0
102
RTVSPost2010PropOp57
 70
     1
  0
XRECORD
  5
4CF
102
{ACAD_REACTORS
330
4CE
102
}
330
4CE
100
AcDbXrecord
280
     1
102
RTVSPropertyOp0
 70
     1
102
RTVSPropertyOp1
 70
     1
102
RTVSPropertyOp2
 70
     1
102
RTVSPropertyOp3
 70
     1
102
RTVSPropertyOp4
 70
     1
102
RTVSPropertyOp5
 70
     1
102
RTVSPropertyOp6
 70
     1
102
RTVSPropertyOp7
 70
     1
102
RTVSPropertyOp8
 70
     1
102
RTVSPropertyOp9
 70
     1
102
RTVSPropertyOp10
 70
     1
102
RTVSPropertyOp11
 70
     1
102
RTVSPropertyOp12
 70
     1
102
RTVSPropertyOp13
 70
     1
102
RTVSPropertyOp14
 70
     1
102
RTVSPropertyOp15
 70
     1
102
RTVSPropertyOp16
 70
     1
102
RTVSPropertyOp17
 70
     1
102
RTVSPropertyOp18
 70
     1
102
RTVSPropertyOp19
 70
     1
102
RTVSPropertyOp20
 70
     1
102
RTVSPropertyOp21
 70
     1
102
RTVSPropertyOp22
 70
     1
102
RTVSPropertyOp23
 70
     1
102
RTVSPropertyOp24
 70
     1
102
RTVSPropertyOp25
 70
     1
102
RTVSPropertyOp26
 70
     1
102
RTVSPropertyOp27
 70
     1
102
RTVSPropertyOp28
 70
     1
102
RTVSPropertyOp29
 70
     1
102
RTVSPropertyOp30
 70
     1
102
RTVSPropertyOp31
 70
     1
102
RTVSPropertyOp32
 70
     1
102
RTVSPropertyOp33
 70
     1
102
RTVSPropertyOp34
 70
     1
102
RTVSPropertyOp35
 70
     1
102
RTVSPropertyOp36
 70
     1
102
RTVSPropertyOp37
 70
     1
102
RTVSPropertyOp38
 70
     1
102
RTVSPropertyOp39
 70
     1
102
RTVSPropertyOp40
 70
     1
102
RTVSPropertyOp41
 70
     1
102
RTVSPropertyOp42
 70
     1
102
RTVSPropertyOp43
 70
     1
102
RTVSPropertyOp44
 70
     1
102
RTVSPropertyOp45
 70
     1
102
RTVSPropertyOp46
 70
     1
102
RTVSPropertyOp47
 70
     1
102
RTVSPropertyOp48
 70
     1
102
RTVSPropertyOp49
 70
     1
102
RTVSPropertyOp50
 70
     1
102
RTVSPropertyOp51
 70
     0
102
RTVSPropertyOp52
 70
     0
102
RTVSPropertyOp53
 70
     1
102
RTVSPropertyOp54
 70
     1
102
RTVSPropertyOp55
 70
     1
102
RTVSPropertyOp56
 70
     1
102
RTVSPropertyOp57
 70
     1
102
RTVSPost2010Prop28
280
     0
102
RTVSPost2010PropOp28
 70
     1
102
RTVSPost2010Prop29
280
     1
102
RTVSPost2010PropOp29
 70
     1
102
RTVSPost2010Prop30
280
     1
102
RTVSPost2010PropOp30
 70
     1
102
RTVSPost2010Prop31
280
     0
102
RTVSPost2010PropOp31
 70
     1
102
RTVSPost2010Prop32
280
     0
102
RTVSPost2010PropOp32
 70
     1
102
RTVSPost2010Prop33
280
     0
102
RTVSPost2010PropOp33
 70
     1
102
RTVSPost2010Prop34
280
     0
102
RTVSPost2010PropOp34
 70
     1
102
RTVSPost2010Prop35
280
     0
102
RTVSPost2010PropOp35
 70
     1
102
RTVSPost2010Prop36
280
     0
102
RTVSPost2010PropOp36
 70
     1
102
RTVSPost2010Prop37
 90
       50
102
RTVSPost2010PropOp37
 70
     1
102
RTVSPost2010Prop38
140
0.0
102
RTVSPost2010PropOp38
 70
     1
102
RTVSPost2010Prop39
140
1.0
102
RTVSPost2010PropOp39
 70
     1
102
RTVSPost2010Prop40
 90
        0
102
RTVSPost2010PropOp40
 70
     1
102
RTVSPost2010Prop41ColorIndex
 90
       18
102
RTVSPost2010Prop41ColorRGB
 90
        0
102
RTVSPost2010PropOp41
 70
     1
102
RTVSPost2010Prop42
 90
       50
102
RTVSPost2010PropOp42
 70
     1
102
RTVSPost2010Prop43
 90
        3
102
RTVSPost2010PropOp43
 70
     1
102
RTVSPost2010Prop44ColorIndex
 90
        5
102
RTVSPost2010Prop44ColorRGB
 90
      255
102
RTVSPost2010PropOp44
 70
     1
102
RTVSPost2010Prop45
280
     0
102
RTVSPost2010PropOp45
 70
     1
102
RTVSPost2010Prop46
 90
       50
102
RTVSPost2010PropOp46
 70
     1
102
RTVSPost2010Prop47
 90
       50
102
RTVSPost2010PropOp47
 70
     1
102
RTVSPost2010Prop48
 90
       50
102
RTVSPost2010PropOp48
 70
     1
102
RTVSPost2010Prop49
280
     0
102
RTVSPost2010PropOp49
 70
     1
102
RTVSPost2010Prop50
 90
       50
102
RTVSPost2010PropOp50
 70
     1
102
RTVSPost2010Prop51ColorIndex
 90
      256
102
RTVSPost2010Prop51ColorRGB
 90
-16777216
102
RTVSPost2010PropOp51
 70
     0
102
RTVSPost2010Prop52
140
1.0
102
RTVSPost2010PropOp52
 70
     0
102
RTVSPost2010Prop53
 90
        2
102
RTVSPost2010PropOp53
 70
     1
102
RTVSPost2010Prop54
  1
strokes_ogs.tif
102
RTVSPost2010PropOp54
 70
     1
102
RTVSPost2010Prop55
280
     0
102
RTVSPost2010PropOp55
 70
     1
102
RTVSPost2010Prop56
140
1.0
102
RTVSPost2010PropOp56
 70
     1
102
RTVSPost2010Prop57
140
1.0
102
RTVSPost2010PropOp57
 70
     1
  0
XRECORD
  5
4D7
102
{ACAD_REACTORS
330
4D6
102
}
330
4D6
100
AcDbXrecord
280
     1
102
RTVSPropertyOp0
 70
     1
102
RTVSPropertyOp1
 70
     1
102
RTVSPropertyOp2
 70
     1
102
RTVSPropertyOp3
 70
     1
102
RTVSPropertyOp4
 70
     1
102
RTVSPropertyOp5
 70
     1
102
RTVSPropertyOp6
 70
     1
102
RTVSPropertyOp7
 70
     1
102
RTVSPropertyOp8
 70
     1
102
RTVSPropertyOp9
 70
     1
102
RTVSPropertyOp10
 70
     1
102
RTVSPropertyOp11
 70
     1
102
RTVSPropertyOp12
 70
     1
102
RTVSPropertyOp13
 70
     1
102
RTVSPropertyOp14
 70
     1
102
RTVSPropertyOp15
 70
     1
102
RTVSPropertyOp16
 70
     1
102
RTVSPropertyOp17
 70
     1
102
RTVSPropertyOp18
 70
     1
102
RTVSPropertyOp19
 70
     1
102
RTVSPropertyOp20
 70
     1
102
RTVSPropertyOp21
 70
     1
102
RTVSPropertyOp22
 70
     1
102
RTVSPropertyOp23
 70
     1
102
RTVSPropertyOp24
 70
     1
102
RTVSPropertyOp25
 70
     1
102
RTVSPropertyOp26
 70
     1
102
RTVSPropertyOp27
 70
     1
102
RTVSPropertyOp28
 70
     1
102
RTVSPropertyOp29
 70
     1
102
RTVSPropertyOp30
 70
     1
102
RTVSPropertyOp31
 70
     1
102
RTVSPropertyOp32
 70
     1
102
RTVSPropertyOp33
 70
     1
102
RTVSPropertyOp34
 70
     1
102
RTVSPropertyOp35
 70
     1
102
RTVSPropertyOp36
 70
     1
102
RTVSPropertyOp37
 70
     1
102
RTVSPropertyOp38
 70
     1
102
RTVSPropertyOp39
 70
     1
102
RTVSPropertyOp40
 70
     1
102
RTVSPropertyOp41
 70
     1
102
RTVSPropertyOp42
 70
     1
102
RTVSPropertyOp43
 70
     1
102
RTVSPropertyOp44
 70
     1
102
RTVSPropertyOp45
 70
     1
102
RTVSPropertyOp46
 70
     1
102
RTVSPropertyOp47
 70
     1
102
RTVSPropertyOp48
 70
     1
102
RTVSPropertyOp49
 70
     1
102
RTVSPropertyOp50
 70
     1
102
RTVSPropertyOp51
 70
     0
102
RTVSPropertyOp52
 70
     0
102
RTVSPropertyOp53
 70
     1
102
RTVSPropertyOp54
 70
     1
102
RTVSPropertyOp55
 70
     1
102
RTVSPropertyOp56
 70
     1
102
RTVSPropertyOp57
 70
     1
102
RTVSPost2010Prop28
280
     0
102
RTVSPost2010PropOp28
 70
     1
102
RTVSPost2010Prop29
280
     1
102
RTVSPost2010PropOp29
 70
     1
102
RTVSPost2010Prop30
280
     1
102
RTVSPost2010PropOp30
 70
     1
102
RTVSPost2010Prop31
280
     0
102
RTVSPost2010PropOp31
 70
     1
102
RTVSPost2010Prop32
280
     0
102
RTVSPost2010PropOp32
 70
     1
102
RTVSPost2010Prop33
280
     0
102
RTVSPost2010PropOp33
 70
     1
102
RTVSPost2010Prop34
280
     0
102
RTVSPost2010PropOp34
 70
     1
102
RTVSPost2010Prop35
280
     0
102
RTVSPost2010PropOp35
 70
     1
102
RTVSPost2010Prop36
280
     0
102
RTVSPost2010PropOp36
 70
     1
102
RTVSPost2010Prop37
 90
       50
102
RTVSPost2010PropOp37
 70
     1
102
RTVSPost2010Prop38
140
0.0
102
RTVSPost2010PropOp38
 70
     1
102
RTVSPost2010Prop39
140
1.0
102
RTVSPost2010PropOp39
 70
     1
102
RTVSPost2010Prop40
 90
        0
102
RTVSPost2010PropOp40
 70
     1
102
RTVSPost2010Prop41ColorIndex
 90
       18
102
RTVSPost2010Prop41ColorRGB
 90
        0
102
RTVSPost2010PropOp41
 70
     1
102
RTVSPost2010Prop42
 90
       50
102
RTVSPost2010PropOp42
 70
     1
102
RTVSPost2010Prop43
 90
        3
102
RTVSPost2010PropOp43
 70
     1
102
RTVSPost2010Prop44ColorIndex
 90
        5
102
RTVSPost2010Prop44ColorRGB
 90
      255
102
RTVSPost2010PropOp44
 70
     1
102
RTVSPost2010Prop45
280
     0
102
RTVSPost2010PropOp45
 70
     1
102
RTVSPost2010Prop46
 90
       50
102
RTVSPost2010PropOp46
 70
     1
102
RTVSPost2010Prop47
 90
       50
102
RTVSPost2010PropOp47
 70
     1
102
RTVSPost2010Prop48
 90
       50
102
RTVSPost2010PropOp48
 70
     1
102
RTVSPost2010Prop49
280
     0
102
RTVSPost2010PropOp49
 70
     1
102
RTVSPost2010Prop50
 90
       50
102
RTVSPost2010PropOp50
 70
     1
102
RTVSPost2010Prop51ColorIndex
 90
      256
102
RTVSPost2010Prop51ColorRGB
 90
-16777216
102
RTVSPost2010PropOp51
 70
     0
102
RTVSPost2010Prop52
140
1.0
102
RTVSPost2010PropOp52
 70
     0
102
RTVSPost2010Prop53
 90
        2
102
RTVSPost2010PropOp53
 70
     1
102
RTVSPost2010Prop54
  1
strokes_ogs.tif
102
RTVSPost2010PropOp54
 70
     1
102
RTVSPost2010Prop55
280
     0
102
RTVSPost2010PropOp55
 70
     1
102
RTVSPost2010Prop56
140
1.0
102
RTVSPost2010PropOp56
 70
     1
102
RTVSPost2010Prop57
140
1.0
102
RTVSPost2010PropOp57
 70
     1
  0
XRECORD
  5
4DF
102
{ACAD_REACTORS
330
4DE
102
}
330
4DE
100
AcDbXrecord
280
     1
102
RTVSPropertyOp0
 70
     1
102
RTVSPropertyOp1
 70
     1
102
RTVSPropertyOp2
 70
     1
102
RTVSPropertyOp3
 70
     1
102
RTVSPropertyOp4
 70
     1
102
RTVSPropertyOp5
 70
     1
102
RTVSPropertyOp6
 70
     1
102
RTVSPropertyOp7
 70
     1
102
RTVSPropertyOp8
 70
     1
102
RTVSPropertyOp9
 70
     1
102
RTVSPropertyOp10
 70
     1
102
RTVSPropertyOp11
 70
     1
102
RTVSPropertyOp12
 70
     1
102
RTVSPropertyOp13
 70
     1
102
RTVSPropertyOp14
 70
     1
102
RTVSPropertyOp15
 70
     1
102
RTVSPropertyOp16
 70
     1
102
RTVSPropertyOp17
 70
     1
102
RTVSPropertyOp18
 70
     1
102
RTVSPropertyOp19
 70
     1
102
RTVSPropertyOp20
 70
     1
102
RTVSPropertyOp21
 70
     1
102
RTVSPropertyOp22
 70
     1
102
RTVSPropertyOp23
 70
     1
102
RTVSPropertyOp24
 70
     1
102
RTVSPropertyOp25
 70
     1
102
RTVSPropertyOp26
 70
     1
102
RTVSPropertyOp27
 70
     1
102
RTVSPropertyOp28
 70
     1
102
RTVSPropertyOp29
 70
     1
102
RTVSPropertyOp30
 70
     1
102
RTVSPropertyOp31
 70
     1
102
RTVSPropertyOp32
 70
     1
102
RTVSPropertyOp33
 70
     1
102
RTVSPropertyOp34
 70
     1
102
RTVSPropertyOp35
 70
     1
102
RTVSPropertyOp36
 70
     1
102
RTVSPropertyOp37
 70
     1
102
RTVSPropertyOp38
 70
     1
102
RTVSPropertyOp39
 70
     1
102
RTVSPropertyOp40
 70
     1
102
RTVSPropertyOp41
 70
     1
102
RTVSPropertyOp42
 70
     1
102
RTVSPropertyOp43
 70
     1
102
RTVSPropertyOp44
 70
     1
102
RTVSPropertyOp45
 70
     1
102
RTVSPropertyOp46
 70
     1
102
RTVSPropertyOp47
 70
     1
102
RTVSPropertyOp48
 70
     1
102
RTVSPropertyOp49
 70
     1
102
RTVSPropertyOp50
 70
     1
102
RTVSPropertyOp51
 70
     0
102
RTVSPropertyOp52
 70
     0
102
RTVSPropertyOp53
 70
     1
102
RTVSPropertyOp54
 70
     1
102
RTVSPropertyOp55
 70
     1
102
RTVSPropertyOp56
 70
     1
102
RTVSPropertyOp57
 70
     1
102
RTVSPost2010Prop28
280
     0
102
RTVSPost2010PropOp28
 70
     1
102
RTVSPost2010Prop29
280
     1
102
RTVSPost2010PropOp29
 70
     1
102
RTVSPost2010Prop30
280
     1
102
RTVSPost2010PropOp30
 70
     1
102
RTVSPost2010Prop31
280
     0
102
RTVSPost2010PropOp31
 70
     1
102
RTVSPost2010Prop32
280
     0
102
RTVSPost2010PropOp32
 70
     1
102
RTVSPost2010Prop33
280
     0
102
RTVSPost2010PropOp33
 70
     1
102
RTVSPost2010Prop34
280
     0
102
RTVSPost2010PropOp34
 70
     1
102
RTVSPost2010Prop35
280
     0
102
RTVSPost2010PropOp35
 70
     1
102
RTVSPost2010Prop36
280
     0
102
RTVSPost2010PropOp36
 70
     1
102
RTVSPost2010Prop37
 90
       50
102
RTVSPost2010PropOp37
 70
     1
102
RTVSPost2010Prop38
140
0.0
102
RTVSPost2010PropOp38
 70
     1
102
RTVSPost2010Prop39
140
1.0
102
RTVSPost2010PropOp39
 70
     1
102
RTVSPost2010Prop40
 90
        0
102
RTVSPost2010PropOp40
 70
     1
102
RTVSPost2010Prop41ColorIndex
 90
       18
102
RTVSPost2010Prop41ColorRGB
 90
        0
102
RTVSPost2010PropOp41
 70
     1
102
RTVSPost2010Prop42
 90
       50
102
RTVSPost2010PropOp42
 70
     1
102
RTVSPost2010Prop43
 90
        3
102
RTVSPost2010PropOp43
 70
     1
102
RTVSPost2010Prop44ColorIndex
 90
        5
102
RTVSPost2010Prop44ColorRGB
 90
      255
102
RTVSPost2010PropOp44
 70
     1
102
RTVSPost2010Prop45
280
     0
102
RTVSPost2010PropOp45
 70
     1
102
RTVSPost2010Prop46
 90
       50
102
RTVSPost2010PropOp46
 70
     1
102
RTVSPost2010Prop47
 90
       50
102
RTVSPost2010PropOp47
 70
     1
102
RTVSPost2010Prop48
 90
       50
102
RTVSPost2010PropOp48
 70
     1
102
RTVSPost2010Prop49
280
     0
102
RTVSPost2010PropOp49
 70
     1
102
RTVSPost2010Prop50
 90
       50
102
RTVSPost2010PropOp50
 70
     1
102
RTVSPost2010Prop51ColorIndex
 90
      256
102
RTVSPost2010Prop51ColorRGB
 90
-16777216
102
RTVSPost2010PropOp51
 70
     0
102
RTVSPost2010Prop52
140
1.0
102
RTVSPost2010PropOp52
 70
     0
102
RTVSPost2010Prop53
 90
        2
102
RTVSPost2010PropOp53
 70
     1
102
RTVSPost2010Prop54
  1
strokes_ogs.tif
102
RTVSPost2010PropOp54
 70
     1
102
RTVSPost2010Prop55
280
     0
102
RTVSPost2010PropOp55
 70
     1
102
RTVSPost2010Prop56
140
1.0
102
RTVSPost2010PropOp56
 70
     1
102
RTVSPost2010Prop57
140
1.0
102
RTVSPost2010PropOp57
 70
     1
  0
XRECORD
  5
4D3
102
{ACAD_REACTORS
330
4D2
102
}
330
4D2
100
AcDbXrecord
280
     1
102
RTVSPropertyOp0
 70
     1
102
RTVSPropertyOp1
 70
     1
102
RTVSPropertyOp2
 70
     1
102
RTVSPropertyOp3
 70
     1
102
RTVSPropertyOp4
 70
     1
102
RTVSPropertyOp5
 70
     1
102
RTVSPropertyOp6
 70
     1
102
RTVSPropertyOp7
 70
     1
102
RTVSPropertyOp8
 70
     1
102
RTVSPropertyOp9
 70
     1
102
RTVSPropertyOp10
 70
     1
102
RTVSPropertyOp11
 70
     1
102
RTVSPropertyOp12
 70
     1
102
RTVSPropertyOp13
 70
     1
102
RTVSPropertyOp14
 70
     1
102
RTVSPropertyOp15
 70
     1
102
RTVSPropertyOp16
 70
     1
102
RTVSPropertyOp17
 70
     1
102
RTVSPropertyOp18
 70
     1
102
RTVSPropertyOp19
 70
     1
102
RTVSPropertyOp20
 70
     1
102
RTVSPropertyOp21
 70
     1
102
RTVSPropertyOp22
 70
     1
102
RTVSPropertyOp23
 70
     1
102
RTVSPropertyOp24
 70
     1
102
RTVSPropertyOp25
 70
     1
102
RTVSPropertyOp26
 70
     1
102
RTVSPropertyOp27
 70
     1
102
RTVSPropertyOp28
 70
     1
102
RTVSPropertyOp29
 70
     1
102
RTVSPropertyOp30
 70
     1
102
RTVSPropertyOp31
 70
     1
102
RTVSPropertyOp32
 70
     1
102
RTVSPropertyOp33
 70
     1
102
RTVSPropertyOp34
 70
     1
102
RTVSPropertyOp35
 70
     1
102
RTVSPropertyOp36
 70
     1
102
RTVSPropertyOp37
 70
     1
102
RTVSPropertyOp38
 70
     1
102
RTVSPropertyOp39
 70
     1
102
RTVSPropertyOp40
 70
     1
102
RTVSPropertyOp41
 70
     1
102
RTVSPropertyOp42
 70
     1
102
RTVSPropertyOp43
 70
     1
102
RTVSPropertyOp44
 70
     1
102
RTVSPropertyOp45
 70
     1
102
RTVSPropertyOp46
 70
     1
102
RTVSPropertyOp47
 70
     1
102
RTVSPropertyOp48
 70
     1
102
RTVSPropertyOp49
 70
     1
102
RTVSPropertyOp50
 70
     1
102
RTVSPropertyOp51
 70
     0
102
RTVSPropertyOp52
 70
     0
102
RTVSPropertyOp53
 70
     1
102
RTVSPropertyOp54
 70
     1
102
RTVSPropertyOp55
 70
     1
102
RTVSPropertyOp56
 70
     1
102
RTVSPropertyOp57
 70
     1
102
RTVSPost2010Prop28
280
     0
102
RTVSPost2010PropOp28
 70
     1
102
RTVSPost2010Prop29
280
     1
102
RTVSPost2010PropOp29
 70
     1
102
RTVSPost2010Prop30
280
     1
102
RTVSPost2010PropOp30
 70
     1
102
RTVSPost2010Prop31
280
     0
102
RTVSPost2010PropOp31
 70
     1
102
RTVSPost2010Prop32
280
     0
102
RTVSPost2010PropOp32
 70
     1
102
RTVSPost2010Prop33
280
     0
102
RTVSPost2010PropOp33
 70
     1
102
RTVSPost2010Prop34
280
     0
102
RTVSPost2010PropOp34
 70
     1
102
RTVSPost2010Prop35
280
     0
102
RTVSPost2010PropOp35
 70
     1
102
RTVSPost2010Prop36
280
     0
102
RTVSPost2010PropOp36
 70
     1
102
RTVSPost2010Prop37
 90
       50
102
RTVSPost2010PropOp37
 70
     1
102
RTVSPost2010Prop38
140
0.0
102
RTVSPost2010PropOp38
 70
     1
102
RTVSPost2010Prop39
140
1.0
102
RTVSPost2010PropOp39
 70
     1
102
RTVSPost2010Prop40
 90
        0
102
RTVSPost2010PropOp40
 70
     1
102
RTVSPost2010Prop41ColorIndex
 90
       18
102
RTVSPost2010Prop41ColorRGB
 90
        0
102
RTVSPost2010PropOp41
 70
     1
102
RTVSPost2010Prop42
 90
       50
102
RTVSPost2010PropOp42
 70
     1
102
RTVSPost2010Prop43
 90
        3
102
RTVSPost2010PropOp43
 70
     1
102
RTVSPost2010Prop44ColorIndex
 90
        5
102
RTVSPost2010Prop44ColorRGB
 90
      255
102
RTVSPost2010PropOp44
 70
     1
102
RTVSPost2010Prop45
280
     0
102
RTVSPost2010PropOp45
 70
     1
102
RTVSPost2010Prop46
 90
       50
102
RTVSPost2010PropOp46
 70
     1
102
RTVSPost2010Prop47
 90
       50
102
RTVSPost2010PropOp47
 70
     1
102
RTVSPost2010Prop48
 90
       50
102
RTVSPost2010PropOp48
 70
     1
102
RTVSPost2010Prop49
280
     0
102
RTVSPost2010PropOp49
 70
     1
102
RTVSPost2010Prop50
 90
       50
102
RTVSPost2010PropOp50
 70
     1
102
RTVSPost2010Prop51ColorIndex
 90
      256
102
RTVSPost2010Prop51ColorRGB
 90
-16777216
102
RTVSPost2010PropOp51
 70
     0
102
RTVSPost2010Prop52
140
1.0
102
RTVSPost2010PropOp52
 70
     0
102
RTVSPost2010Prop53
 90
        2
102
RTVSPost2010PropOp53
 70
     1
102
RTVSPost2010Prop54
  1
strokes_ogs.tif
102
RTVSPost2010PropOp54
 70
     1
102
RTVSPost2010Prop55
280
     0
102
RTVSPost2010PropOp55
 70
     1
102
RTVSPost2010Prop56
140
1.0
102
RTVSPost2010PropOp56
 70
     1
102
RTVSPost2010Prop57
140
1.0
102
RTVSPost2010PropOp57
 70
     1
  0
XRECORD
  5
4D5
102
{ACAD_REACTORS
330
4D4
102
}
330
4D4
100
AcDbXrecord
280
     1
102
RTVSPropertyOp0
 70
     1
102
RTVSPropertyOp1
 70
     1
102
RTVSPropertyOp2
 70
     1
102
RTVSPropertyOp3
 70
     1
102
RTVSPropertyOp4
 70
     1
102
RTVSPropertyOp5
 70
     1
102
RTVSPropertyOp6
 70
     1
102
RTVSPropertyOp7
 70
     1
102
RTVSPropertyOp8
 70
     1
102
RTVSPropertyOp9
 70
     1
102
RTVSPropertyOp10
 70
     1
102
RTVSPropertyOp11
 70
     1
102
RTVSPropertyOp12
 70
     1
102
RTVSPropertyOp13
 70
     1
102
RTVSPropertyOp14
 70
     1
102
RTVSPropertyOp15
 70
     1
102
RTVSPropertyOp16
 70
     1
102
RTVSPropertyOp17
 70
     1
102
RTVSPropertyOp18
 70
     1
102
RTVSPropertyOp19
 70
     1
102
RTVSPropertyOp20
 70
     1
102
RTVSPropertyOp21
 70
     1
102
RTVSPropertyOp22
 70
     1
102
RTVSPropertyOp23
 70
     1
102
RTVSPropertyOp24
 70
     1
102
RTVSPropertyOp25
 70
     1
102
RTVSPropertyOp26
 70
     1
102
RTVSPropertyOp27
 70
     1
102
RTVSPropertyOp28
 70
     1
102
RTVSPropertyOp29
 70
     1
102
RTVSPropertyOp30
 70
     1
102
RTVSPropertyOp31
 70
     1
102
RTVSPropertyOp32
 70
     1
102
RTVSPropertyOp33
 70
     1
102
RTVSPropertyOp34
 70
     1
102
RTVSPropertyOp35
 70
     1
102
RTVSPropertyOp36
 70
     1
102
RTVSPropertyOp37
 70
     1
102
RTVSPropertyOp38
 70
     1
102
RTVSPropertyOp39
 70
     1
102
RTVSPropertyOp40
 70
     1
102
RTVSPropertyOp41
 70
     1
102
RTVSPropertyOp42
 70
     1
102
RTVSPropertyOp43
 70
     1
102
RTVSPropertyOp44
 70
     1
102
RTVSPropertyOp45
 70
     1
102
RTVSPropertyOp46
 70
     1
102
RTVSPropertyOp47
 70
     1
102
RTVSPropertyOp48
 70
     1
102
RTVSPropertyOp49
 70
     1
102
RTVSPropertyOp50
 70
     1
102
RTVSPropertyOp51
 70
     0
102
RTVSPropertyOp52
 70
     0
102
RTVSPropertyOp53
 70
     1
102
RTVSPropertyOp54
 70
     1
102
RTVSPropertyOp55
 70
     1
102
RTVSPropertyOp56
 70
     1
102
RTVSPropertyOp57
 70
     1
102
RTVSPost2010Prop28
280
     0
102
RTVSPost2010PropOp28
 70
     1
102
RTVSPost2010Prop29
280
     1
102
RTVSPost2010PropOp29
 70
     1
102
RTVSPost2010Prop30
280
     1
102
RTVSPost2010PropOp30
 70
     1
102
RTVSPost2010Prop31
280
     0
102
RTVSPost2010PropOp31
 70
     1
102
RTVSPost2010Prop32
280
     0
102
RTVSPost2010PropOp32
 70
     1
102
RTVSPost2010Prop33
280
     0
102
RTVSPost2010PropOp33
 70
     1
102
RTVSPost2010Prop34
280
     0
102
RTVSPost2010PropOp34
 70
     1
102
RTVSPost2010Prop35
280
     0
102
RTVSPost2010PropOp35
 70
     1
102
RTVSPost2010Prop36
280
     0
102
RTVSPost2010PropOp36
 70
     1
102
RTVSPost2010Prop37
 90
       50
102
RTVSPost2010PropOp37
 70
     1
102
RTVSPost2010Prop38
140
0.0
102
RTVSPost2010PropOp38
 70
     1
102
RTVSPost2010Prop39
140
1.0
102
RTVSPost2010PropOp39
 70
     1
102
RTVSPost2010Prop40
 90
        0
102
RTVSPost2010PropOp40
 70
     1
102
RTVSPost2010Prop41ColorIndex
 90
       18
102
RTVSPost2010Prop41ColorRGB
 90
        0
102
RTVSPost2010PropOp41
 70
     1
102
RTVSPost2010Prop42
 90
       50
102
RTVSPost2010PropOp42
 70
     1
102
RTVSPost2010Prop43
 90
        3
102
RTVSPost2010PropOp43
 70
     1
102
RTVSPost2010Prop44ColorIndex
 90
        5
102
RTVSPost2010Prop44ColorRGB
 90
      255
102
RTVSPost2010PropOp44
 70
     1
102
RTVSPost2010Prop45
280
     0
102
RTVSPost2010PropOp45
 70
     1
102
RTVSPost2010Prop46
 90
       50
102
RTVSPost2010PropOp46
 70
     1
102
RTVSPost2010Prop47
 90
       50
102
RTVSPost2010PropOp47
 70
     1
102
RTVSPost2010Prop48
 90
       50
102
RTVSPost2010PropOp48
 70
     1
102
RTVSPost2010Prop49
280
     0
102
RTVSPost2010PropOp49
 70
     1
102
RTVSPost2010Prop50
 90
       50
102
RTVSPost2010PropOp50
 70
     1
102
RTVSPost2010Prop51ColorIndex
 90
      256
102
RTVSPost2010Prop51ColorRGB
 90
-16777216
102
RTVSPost2010PropOp51
 70
     0
102
RTVSPost2010Prop52
140
1.0
102
RTVSPost2010PropOp52
 70
     0
102
RTVSPost2010Prop53
 90
        2
102
RTVSPost2010PropOp53
 70
     1
102
RTVSPost2010Prop54
  1
strokes_ogs.tif
102
RTVSPost2010PropOp54
 70
     1
102
RTVSPost2010Prop55
280
     0
102
RTVSPost2010PropOp55
 70
     1
102
RTVSPost2010Prop56
140
1.0
102
RTVSPost2010PropOp56
 70
     1
102
RTVSPost2010Prop57
140
1.0
102
RTVSPost2010PropOp57
 70
     1
  0
XRECORD
  5
4E5
102
{ACAD_REACTORS
330
4E4
102
}
330
4E4
100
AcDbXrecord
280
     1
102
RTVSPropertyOp0
 70
     0
102
RTVSPropertyOp1
 70
     0
102
RTVSPropertyOp2
 70
     0
102
RTVSPropertyOp3
 70
     0
102
RTVSPropertyOp4
 70
     0
102
RTVSPropertyOp5
 70
     0
102
RTVSPropertyOp6
 70
     0
102
RTVSPropertyOp7
 70
     0
102
RTVSPropertyOp8
 70
     0
102
RTVSPropertyOp9
 70
     0
102
RTVSPropertyOp10
 70
     0
102
RTVSPropertyOp11
 70
     0
102
RTVSPropertyOp12
 70
     0
102
RTVSPropertyOp13
 70
     0
102
RTVSPropertyOp14
 70
     2
102
RTVSPropertyOp15
 70
     0
102
RTVSPropertyOp16
 70
     0
102
RTVSPropertyOp17
 70
     0
102
RTVSPropertyOp18
 70
     0
102
RTVSPropertyOp19
 70
     0
102
RTVSPropertyOp20
 70
     0
102
RTVSPropertyOp21
 70
     0
102
RTVSPropertyOp22
 70
     0
102
RTVSPropertyOp23
 70
     0
102
RTVSPropertyOp24
 70
     0
102
RTVSPropertyOp25
 70
     0
102
RTVSPropertyOp26
 70
     0
102
RTVSPropertyOp27
 70
     0
102
RTVSPropertyOp28
 70
     0
102
RTVSPropertyOp29
 70
     0
102
RTVSPropertyOp30
 70
     0
102
RTVSPropertyOp31
 70
     0
102
RTVSPropertyOp32
 70
     0
102
RTVSPropertyOp33
 70
     0
102
RTVSPropertyOp34
 70
     0
102
RTVSPropertyOp35
 70
     0
102
RTVSPropertyOp36
 70
     0
102
RTVSPropertyOp37
 70
     0
102
RTVSPropertyOp38
 70
     0
102
RTVSPropertyOp39
 70
     0
102
RTVSPropertyOp40
 70
     0
102
RTVSPropertyOp41
 70
     0
102
RTVSPropertyOp42
 70
     0
102
RTVSPropertyOp43
 70
     0
102
RTVSPropertyOp44
 70
     0
102
RTVSPropertyOp45
 70
     0
102
RTVSPropertyOp46
 70
     0
102
RTVSPropertyOp47
 70
     0
102
RTVSPropertyOp48
 70
     0
102
RTVSPropertyOp49
 70
     0
102
RTVSPropertyOp50
 70
     0
102
RTVSPropertyOp51
 70
     0
102
RTVSPropertyOp52
 70
     0
102
RTVSPropertyOp53
 70
     0
102
RTVSPropertyOp54
 70
     0
102
RTVSPropertyOp55
 70
     0
102
RTVSPropertyOp56
 70
     0
102
RTVSPropertyOp57
 70
     0
102
RTVSPost2010Prop28
280
     0
102
RTVSPost2010PropOp28
 70
     0
102
RTVSPost2010Prop29
280
     1
102
RTVSPost2010PropOp29
 70
     0
102
RTVSPost2010Prop30
280
     1
102
RTVSPost2010PropOp30
 70
     0
102
RTVSPost2010Prop31
280
     0
102
RTVSPost2010PropOp31
 70
     0
102
RTVSPost2010Prop32
280
     0
102
RTVSPost2010PropOp32
 70
     0
102
RTVSPost2010Prop33
280
     0
102
RTVSPost2010PropOp33
 70
     0
102
RTVSPost2010Prop34
280
     0
102
RTVSPost2010PropOp34
 70
     0
102
RTVSPost2010Prop35
280
     0
102
RTVSPost2010PropOp35
 70
     0
102
RTVSPost2010Prop36
280
     0
102
RTVSPost2010PropOp36
 70
     0
102
RTVSPost2010Prop37
 90
       50
102
RTVSPost2010PropOp37
 70
     0
102
RTVSPost2010Prop38
140
0.0
102
RTVSPost2010PropOp38
 70
     0
102
RTVSPost2010Prop39
140
1.0
102
RTVSPost2010PropOp39
 70
     0
102
RTVSPost2010Prop40
 90
        0
102
RTVSPost2010PropOp40
 70
     0
102
RTVSPost2010Prop41ColorIndex
 90
       18
102
RTVSPost2010Prop41ColorRGB
 90
        0
102
RTVSPost2010PropOp41
 70
     0
102
RTVSPost2010Prop42
 90
       50
102
RTVSPost2010PropOp42
 70
     0
102
RTVSPost2010Prop43
 90
        3
102
RTVSPost2010PropOp43
 70
     0
102
RTVSPost2010Prop44ColorIndex
 90
        5
102
RTVSPost2010Prop44ColorRGB
 90
      255
102
RTVSPost2010PropOp44
 70
     0
102
RTVSPost2010Prop45
280
     0
102
RTVSPost2010PropOp45
 70
     0
102
RTVSPost2010Prop46
 90
       50
102
RTVSPost2010PropOp46
 70
     0
102
RTVSPost2010Prop47
 90
       50
102
RTVSPost2010PropOp47
 70
     0
102
RTVSPost2010Prop48
 90
       50
102
RTVSPost2010PropOp48
 70
     0
102
RTVSPost2010Prop49
280
     0
102
RTVSPost2010PropOp49
 70
     0
102
RTVSPost2010Prop50
 90
       50
102
RTVSPost2010PropOp50
 70
     0
102
RTVSPost2010Prop51ColorIndex
 90
      256
102
RTVSPost2010Prop51ColorRGB
 90
-16777216
102
RTVSPost2010PropOp51
 70
     0
102
RTVSPost2010Prop52
140
1.0
102
RTVSPost2010PropOp52
 70
     0
102
RTVSPost2010Prop53
 90
        2
102
RTVSPost2010PropOp53
 70
     0
102
RTVSPost2010Prop54
  1
strokes_ogs.tif
102
RTVSPost2010PropOp54
 70
     0
102
RTVSPost2010Prop55
280
     0
102
RTVSPost2010PropOp55
 70
     0
102
RTVSPost2010Prop56
140
1.0
102
RTVSPost2010PropOp56
 70
     0
102
RTVSPost2010Prop57
140
1.0
102
RTVSPost2010PropOp57
 70
     0
  0
XRECORD
  5
4DD
102
{ACAD_REACTORS
330
4DC
102
}
330
4DC
100
AcDbXrecord
280
     1
102
RTVSPropertyOp0
 70
     1
102
RTVSPropertyOp1
 70
     1
102
RTVSPropertyOp2
 70
     1
102
RTVSPropertyOp3
 70
     1
102
RTVSPropertyOp4
 70
     1
102
RTVSPropertyOp5
 70
     1
102
RTVSPropertyOp6
 70
     1
102
RTVSPropertyOp7
 70
     1
102
RTVSPropertyOp8
 70
     1
102
RTVSPropertyOp9
 70
     1
102
RTVSPropertyOp10
 70
     1
102
RTVSPropertyOp11
 70
     1
102
RTVSPropertyOp12
 70
     1
102
RTVSPropertyOp13
 70
     1
102
RTVSPropertyOp14
 70
     1
102
RTVSPropertyOp15
 70
     1
102
RTVSPropertyOp16
 70
     1
102
RTVSPropertyOp17
 70
     1
102
RTVSPropertyOp18
 70
     1
102
RTVSPropertyOp19
 70
     1
102
RTVSPropertyOp20
 70
     1
102
RTVSPropertyOp21
 70
     1
102
RTVSPropertyOp22
 70
     1
102
RTVSPropertyOp23
 70
     1
102
RTVSPropertyOp24
 70
     1
102
RTVSPropertyOp25
 70
     1
102
RTVSPropertyOp26
 70
     1
102
RTVSPropertyOp27
 70
     1
102
RTVSPropertyOp28
 70
     1
102
RTVSPropertyOp29
 70
     1
102
RTVSPropertyOp30
 70
     1
102
RTVSPropertyOp31
 70
     1
102
RTVSPropertyOp32
 70
     1
102
RTVSPropertyOp33
 70
     1
102
RTVSPropertyOp34
 70
     1
102
RTVSPropertyOp35
 70
     1
102
RTVSPropertyOp36
 70
     1
102
RTVSPropertyOp37
 70
     1
102
RTVSPropertyOp38
 70
     1
102
RTVSPropertyOp39
 70
     1
102
RTVSPropertyOp40
 70
     1
102
RTVSPropertyOp41
 70
     1
102
RTVSPropertyOp42
 70
     1
102
RTVSPropertyOp43
 70
     1
102
RTVSPropertyOp44
 70
     1
102
RTVSPropertyOp45
 70
     1
102
RTVSPropertyOp46
 70
     1
102
RTVSPropertyOp47
 70
     1
102
RTVSPropertyOp48
 70
     1
102
RTVSPropertyOp49
 70
     1
102
RTVSPropertyOp50
 70
     1
102
RTVSPropertyOp51
 70
     0
102
RTVSPropertyOp52
 70
     0
102
RTVSPropertyOp53
 70
     1
102
RTVSPropertyOp54
 70
     1
102
RTVSPropertyOp55
 70
     1
102
RTVSPropertyOp56
 70
     1
102
RTVSPropertyOp57
 70
     1
102
RTVSPost2010Prop28
280
     0
102
RTVSPost2010PropOp28
 70
     1
102
RTVSPost2010Prop29
280
     1
102
RTVSPost2010PropOp29
 70
     1
102
RTVSPost2010Prop30
280
     1
102
RTVSPost2010PropOp30
 70
     1
102
RTVSPost2010Prop31
280
     0
102
RTVSPost2010PropOp31
 70
     1
102
RTVSPost2010Prop32
280
     0
102
RTVSPost2010PropOp32
 70
     1
102
RTVSPost2010Prop33
280
     0
102
RTVSPost2010PropOp33
 70
     1
102
RTVSPost2010Prop34
280
     0
102
RTVSPost2010PropOp34
 70
     1
102
RTVSPost2010Prop35
280
     0
102
RTVSPost2010PropOp35
 70
     1
102
RTVSPost2010Prop36
280
     0
102
RTVSPost2010PropOp36
 70
     1
102
RTVSPost2010Prop37
 90
       50
102
RTVSPost2010PropOp37
 70
     1
102
RTVSPost2010Prop38
140
0.0
102
RTVSPost2010PropOp38
 70
     1
102
RTVSPost2010Prop39
140
1.0
102
RTVSPost2010PropOp39
 70
     1
102
RTVSPost2010Prop40
 90
        0
102
RTVSPost2010PropOp40
 70
     1
102
RTVSPost2010Prop41ColorIndex
 90
       18
102
RTVSPost2010Prop41ColorRGB
 90
        0
102
RTVSPost2010PropOp41
 70
     1
102
RTVSPost2010Prop42
 90
       50
102
RTVSPost2010PropOp42
 70
     1
102
RTVSPost2010Prop43
 90
        3
102
RTVSPost2010PropOp43
 70
     1
102
RTVSPost2010Prop44ColorIndex
 90
        5
102
RTVSPost2010Prop44ColorRGB
 90
      255
102
RTVSPost2010PropOp44
 70
     1
102
RTVSPost2010Prop45
280
     0
102
RTVSPost2010PropOp45
 70
     1
102
RTVSPost2010Prop46
 90
       50
102
RTVSPost2010PropOp46
 70
     1
102
RTVSPost2010Prop47
 90
       50
102
RTVSPost2010PropOp47
 70
     1
102
RTVSPost2010Prop48
 90
       50
102
RTVSPost2010PropOp48
 70
     1
102
RTVSPost2010Prop49
280
     0
102
RTVSPost2010PropOp49
 70
     1
102
RTVSPost2010Prop50
 90
       50
102
RTVSPost2010PropOp50
 70
     1
102
RTVSPost2010Prop51ColorIndex
 90
      256
102
RTVSPost2010Prop51ColorRGB
 90
-16777216
102
RTVSPost2010PropOp51
 70
     0
102
RTVSPost2010Prop52
140
1.0
102
RTVSPost2010PropOp52
 70
     0
102
RTVSPost2010Prop53
 90
        2
102
RTVSPost2010PropOp53
 70
     1
102
RTVSPost2010Prop54
  1
strokes_ogs.tif
102
RTVSPost2010PropOp54
 70
     1
102
RTVSPost2010Prop55
280
     0
102
RTVSPost2010PropOp55
 70
     1
102
RTVSPost2010Prop56
140
1.0
102
RTVSPost2010PropOp56
 70
     1
102
RTVSPost2010Prop57
140
1.0
102
RTVSPost2010PropOp57
 70
     1
  0
XRECORD
  5
4C1
102
{ACAD_REACTORS
330
4C0
102
}
330
4C0
100
AcDbXrecord
280
     1
102
RTVSPropertyOp0
 70
     1
102
RTVSPropertyOp1
 70
     1
102
RTVSPropertyOp2
 70
     1
102
RTVSPropertyOp3
 70
     1
102
RTVSPropertyOp4
 70
     1
102
RTVSPropertyOp5
 70
     1
102
RTVSPropertyOp6
 70
     1
102
RTVSPropertyOp7
 70
     1
102
RTVSPropertyOp8
 70
     1
102
RTVSPropertyOp9
 70
     1
102
RTVSPropertyOp10
 70
     1
102
RTVSPropertyOp11
 70
     1
102
RTVSPropertyOp12
 70
     1
102
RTVSPropertyOp13
 70
     1
102
RTVSPropertyOp14
 70
     1
102
RTVSPropertyOp15
 70
     1
102
RTVSPropertyOp16
 70
     1
102
RTVSPropertyOp17
 70
     1
102
RTVSPropertyOp18
 70
     1
102
RTVSPropertyOp19
 70
     1
102
RTVSPropertyOp20
 70
     1
102
RTVSPropertyOp21
 70
     1
102
RTVSPropertyOp22
 70
     1
102
RTVSPropertyOp23
 70
     1
102
RTVSPropertyOp24
 70
     1
102
RTVSPropertyOp25
 70
     1
102
RTVSPropertyOp26
 70
     1
102
RTVSPropertyOp27
 70
     1
102
RTVSPropertyOp28
 70
     1
102
RTVSPropertyOp29
 70
     1
102
RTVSPropertyOp30
 70
     1
102
RTVSPropertyOp31
 70
     1
102
RTVSPropertyOp32
 70
     1
102
RTVSPropertyOp33
 70
     1
102
RTVSPropertyOp34
 70
     1
102
RTVSPropertyOp35
 70
     1
102
RTVSPropertyOp36
 70
     1
102
RTVSPropertyOp37
 70
     1
102
RTVSPropertyOp38
 70
     1
102
RTVSPropertyOp39
 70
     1
102
RTVSPropertyOp40
 70
     1
102
RTVSPropertyOp41
 70
     1
102
RTVSPropertyOp42
 70
     1
102
RTVSPropertyOp43
 70
     1
102
RTVSPropertyOp44
 70
     1
102
RTVSPropertyOp45
 70
     1
102
RTVSPropertyOp46
 70
     1
102
RTVSPropertyOp47
 70
     1
102
RTVSPropertyOp48
 70
     1
102
RTVSPropertyOp49
 70
     1
102
RTVSPropertyOp50
 70
     1
102
RTVSPropertyOp51
 70
     0
102
RTVSPropertyOp52
 70
     0
102
RTVSPropertyOp53
 70
     1
102
RTVSPropertyOp54
 70
     1
102
RTVSPropertyOp55
 70
     1
102
RTVSPropertyOp56
 70
     1
102
RTVSPropertyOp57
 70
     1
102
RTVSPost2010Prop28
280
     0
102
RTVSPost2010PropOp28
 70
     1
102
RTVSPost2010Prop29
280
     1
102
RTVSPost2010PropOp29
 70
     1
102
RTVSPost2010Prop30
280
     1
102
RTVSPost2010PropOp30
 70
     1
102
RTVSPost2010Prop31
280
     0
102
RTVSPost2010PropOp31
 70
     1
102
RTVSPost2010Prop32
280
     0
102
RTVSPost2010PropOp32
 70
     1
102
RTVSPost2010Prop33
280
     0
102
RTVSPost2010PropOp33
 70
     1
102
RTVSPost2010Prop34
280
     0
102
RTVSPost2010PropOp34
 70
     1
102
RTVSPost2010Prop35
280
     0
102
RTVSPost2010PropOp35
 70
     1
102
RTVSPost2010Prop36
280
     0
102
RTVSPost2010PropOp36
 70
     1
102
RTVSPost2010Prop37
 90
       50
102
RTVSPost2010PropOp37
 70
     1
102
RTVSPost2010Prop38
140
0.0
102
RTVSPost2010PropOp38
 70
     1
102
RTVSPost2010Prop39
140
1.0
102
RTVSPost2010PropOp39
 70
     1
102
RTVSPost2010Prop40
 90
        0
102
RTVSPost2010PropOp40
 70
     1
102
RTVSPost2010Prop41ColorIndex
 90
       18
102
RTVSPost2010Prop41ColorRGB
 90
        0
102
RTVSPost2010PropOp41
 70
     1
102
RTVSPost2010Prop42
 90
       50
102
RTVSPost2010PropOp42
 70
     1
102
RTVSPost2010Prop43
 90
        3
102
RTVSPost2010PropOp43
 70
     1
102
RTVSPost2010Prop44ColorIndex
 90
        5
102
RTVSPost2010Prop44ColorRGB
 90
      255
102
RTVSPost2010PropOp44
 70
     1
102
RTVSPost2010Prop45
280
     0
102
RTVSPost2010PropOp45
 70
     1
102
RTVSPost2010Prop46
 90
       50
102
RTVSPost2010PropOp46
 70
     1
102
RTVSPost2010Prop47
 90
       50
102
RTVSPost2010PropOp47
 70
     1
102
RTVSPost2010Prop48
 90
       50
102
RTVSPost2010PropOp48
 70
     1
102
RTVSPost2010Prop49
280
     0
102
RTVSPost2010PropOp49
 70
     1
102
RTVSPost2010Prop50
 90
       50
102
RTVSPost2010PropOp50
 70
     1
102
RTVSPost2010Prop51ColorIndex
 90
      256
102
RTVSPost2010Prop51ColorRGB
 90
-16777216
102
RTVSPost2010PropOp51
 70
     0
102
RTVSPost2010Prop52
140
1.0
102
RTVSPost2010PropOp52
 70
     0
102
RTVSPost2010Prop53
 90
        2
102
RTVSPost2010PropOp53
 70
     1
102
RTVSPost2010Prop54
  1
strokes_ogs.tif
102
RTVSPost2010PropOp54
 70
     1
102
RTVSPost2010Prop55
280
     0
102
RTVSPost2010PropOp55
 70
     1
102
RTVSPost2010Prop56
140
1.0
102
RTVSPost2010PropOp56
 70
     1
102
RTVSPost2010Prop57
140
1.0
102
RTVSPost2010PropOp57
 70
     1
  0
XRECORD
  5
4C3
102
{ACAD_REACTORS
330
4C2
102
}
330
4C2
100
AcDbXrecord
280
     1
102
RTVSPropertyOp0
 70
     1
102
RTVSPropertyOp1
 70
     1
102
RTVSPropertyOp2
 70
     1
102
RTVSPropertyOp3
 70
     1
102
RTVSPropertyOp4
 70
     1
102
RTVSPropertyOp5
 70
     1
102
RTVSPropertyOp6
 70
     1
102
RTVSPropertyOp7
 70
     1
102
RTVSPropertyOp8
 70
     1
102
RTVSPropertyOp9
 70
     1
102
RTVSPropertyOp10
 70
     1
102
RTVSPropertyOp11
 70
     1
102
RTVSPropertyOp12
 70
     1
102
RTVSPropertyOp13
 70
     1
102
RTVSPropertyOp14
 70
     1
102
RTVSPropertyOp15
 70
     1
102
RTVSPropertyOp16
 70
     1
102
RTVSPropertyOp17
 70
     1
102
RTVSPropertyOp18
 70
     1
102
RTVSPropertyOp19
 70
     1
102
RTVSPropertyOp20
 70
     1
102
RTVSPropertyOp21
 70
     1
102
RTVSPropertyOp22
 70
     1
102
RTVSPropertyOp23
 70
     1
102
RTVSPropertyOp24
 70
     1
102
RTVSPropertyOp25
 70
     1
102
RTVSPropertyOp26
 70
     1
102
RTVSPropertyOp27
 70
     1
102
RTVSPropertyOp28
 70
     1
102
RTVSPropertyOp29
 70
     1
102
RTVSPropertyOp30
 70
     1
102
RTVSPropertyOp31
 70
     1
102
RTVSPropertyOp32
 70
     1
102
RTVSPropertyOp33
 70
     1
102
RTVSPropertyOp34
 70
     1
102
RTVSPropertyOp35
 70
     1
102
RTVSPropertyOp36
 70
     1
102
RTVSPropertyOp37
 70
     1
102
RTVSPropertyOp38
 70
     1
102
RTVSPropertyOp39
 70
     1
102
RTVSPropertyOp40
 70
     1
102
RTVSPropertyOp41
 70
     1
102
RTVSPropertyOp42
 70
     1
102
RTVSPropertyOp43
 70
     1
102
RTVSPropertyOp44
 70
     1
102
RTVSPropertyOp45
 70
     1
102
RTVSPropertyOp46
 70
     1
102
RTVSPropertyOp47
 70
     1
102
RTVSPropertyOp48
 70
     1
102
RTVSPropertyOp49
 70
     1
102
RTVSPropertyOp50
 70
     1
102
RTVSPropertyOp51
 70
     0
102
RTVSPropertyOp52
 70
     0
102
RTVSPropertyOp53
 70
     1
102
RTVSPropertyOp54
 70
     1
102
RTVSPropertyOp55
 70
     1
102
RTVSPropertyOp56
 70
     1
102
RTVSPropertyOp57
 70
     1
102
RTVSPost2010Prop28
280
     0
102
RTVSPost2010PropOp28
 70
     1
102
RTVSPost2010Prop29
280
     1
102
RTVSPost2010PropOp29
 70
     1
102
RTVSPost2010Prop30
280
     1
102
RTVSPost2010PropOp30
 70
     1
102
RTVSPost2010Prop31
280
     0
102
RTVSPost2010PropOp31
 70
     1
102
RTVSPost2010Prop32
280
     0
102
RTVSPost2010PropOp32
 70
     1
102
RTVSPost2010Prop33
280
     0
102
RTVSPost2010PropOp33
 70
     1
102
RTVSPost2010Prop34
280
     0
102
RTVSPost2010PropOp34
 70
     1
102
RTVSPost2010Prop35
280
     0
102
RTVSPost2010PropOp35
 70
     1
102
RTVSPost2010Prop36
280
     0
102
RTVSPost2010PropOp36
 70
     1
102
RTVSPost2010Prop37
 90
       50
102
RTVSPost2010PropOp37
 70
     1
102
RTVSPost2010Prop38
140
0.0
102
RTVSPost2010PropOp38
 70
     1
102
RTVSPost2010Prop39
140
1.0
102
RTVSPost2010PropOp39
 70
     1
102
RTVSPost2010Prop40
 90
        0
102
RTVSPost2010PropOp40
 70
     1
102
RTVSPost2010Prop41ColorIndex
 90
       18
102
RTVSPost2010Prop41ColorRGB
 90
        0
102
RTVSPost2010PropOp41
 70
     1
102
RTVSPost2010Prop42
 90
       50
102
RTVSPost2010PropOp42
 70
     1
102
RTVSPost2010Prop43
 90
        3
102
RTVSPost2010PropOp43
 70
     1
102
RTVSPost2010Prop44ColorIndex
 90
        5
102
RTVSPost2010Prop44ColorRGB
 90
      255
102
RTVSPost2010PropOp44
 70
     1
102
RTVSPost2010Prop45
280
     0
102
RTVSPost2010PropOp45
 70
     1
102
RTVSPost2010Prop46
 90
       50
102
RTVSPost2010PropOp46
 70
     1
102
RTVSPost2010Prop47
 90
       50
102
RTVSPost2010PropOp47
 70
     1
102
RTVSPost2010Prop48
 90
       50
102
RTVSPost2010PropOp48
 70
     1
102
RTVSPost2010Prop49
280
     0
102
RTVSPost2010PropOp49
 70
     1
102
RTVSPost2010Prop50
 90
       50
102
RTVSPost2010PropOp50
 70
     1
102
RTVSPost2010Prop51ColorIndex
 90
      256
102
RTVSPost2010Prop51ColorRGB
 90
-16777216
102
RTVSPost2010PropOp51
 70
     0
102
RTVSPost2010Prop52
140
1.0
102
RTVSPost2010PropOp52
 70
     0
102
RTVSPost2010Prop53
 90
        2
102
RTVSPost2010PropOp53
 70
     1
102
RTVSPost2010Prop54
  1
strokes_ogs.tif
102
RTVSPost2010PropOp54
 70
     1
102
RTVSPost2010Prop55
280
     0
102
RTVSPost2010PropOp55
 70
     1
102
RTVSPost2010Prop56
140
1.0
102
RTVSPost2010PropOp56
 70
     1
102
RTVSPost2010Prop57
140
1.0
102
RTVSPost2010PropOp57
 70
     1
  0
XRECORD
  5
4C5
102
{ACAD_REACTORS
330
4C4
102
}
330
4C4
100
AcDbXrecord
280
     1
102
RTVSPropertyOp0
 70
     1
102
RTVSPropertyOp1
 70
     1
102
RTVSPropertyOp2
 70
     1
102
RTVSPropertyOp3
 70
     1
102
RTVSPropertyOp4
 70
     1
102
RTVSPropertyOp5
 70
     1
102
RTVSPropertyOp6
 70
     1
102
RTVSPropertyOp7
 70
     1
102
RTVSPropertyOp8
 70
     1
102
RTVSPropertyOp9
 70
     1
102
RTVSPropertyOp10
 70
     1
102
RTVSPropertyOp11
 70
     1
102
RTVSPropertyOp12
 70
     1
102
RTVSPropertyOp13
 70
     1
102
RTVSPropertyOp14
 70
     1
102
RTVSPropertyOp15
 70
     1
102
RTVSPropertyOp16
 70
     1
102
RTVSPropertyOp17
 70
     1
102
RTVSPropertyOp18
 70
     1
102
RTVSPropertyOp19
 70
     1
102
RTVSPropertyOp20
 70
     1
102
RTVSPropertyOp21
 70
     1
102
RTVSPropertyOp22
 70
     1
102
RTVSPropertyOp23
 70
     1
102
RTVSPropertyOp24
 70
     1
102
RTVSPropertyOp25
 70
     1
102
RTVSPropertyOp26
 70
     1
102
RTVSPropertyOp27
 70
     1
102
RTVSPropertyOp28
 70
     1
102
RTVSPropertyOp29
 70
     1
102
RTVSPropertyOp30
 70
     1
102
RTVSPropertyOp31
 70
     1
102
RTVSPropertyOp32
 70
     1
102
RTVSPropertyOp33
 70
     1
102
RTVSPropertyOp34
 70
     1
102
RTVSPropertyOp35
 70
     1
102
RTVSPropertyOp36
 70
     1
102
RTVSPropertyOp37
 70
     1
102
RTVSPropertyOp38
 70
     1
102
RTVSPropertyOp39
 70
     1
102
RTVSPropertyOp40
 70
     1
102
RTVSPropertyOp41
 70
     1
102
RTVSPropertyOp42
 70
     1
102
RTVSPropertyOp43
 70
     1
102
RTVSPropertyOp44
 70
     1
102
RTVSPropertyOp45
 70
     1
102
RTVSPropertyOp46
 70
     1
102
RTVSPropertyOp47
 70
     1
102
RTVSPropertyOp48
 70
     1
102
RTVSPropertyOp49
 70
     1
102
RTVSPropertyOp50
 70
     1
102
RTVSPropertyOp51
 70
     0
102
RTVSPropertyOp52
 70
     0
102
RTVSPropertyOp53
 70
     1
102
RTVSPropertyOp54
 70
     1
102
RTVSPropertyOp55
 70
     1
102
RTVSPropertyOp56
 70
     1
102
RTVSPropertyOp57
 70
     1
102
RTVSPost2010Prop28
280
     0
102
RTVSPost2010PropOp28
 70
     1
102
RTVSPost2010Prop29
280
     1
102
RTVSPost2010PropOp29
 70
     1
102
RTVSPost2010Prop30
280
     1
102
RTVSPost2010PropOp30
 70
     1
102
RTVSPost2010Prop31
280
     0
102
RTVSPost2010PropOp31
 70
     1
102
RTVSPost2010Prop32
280
     0
102
RTVSPost2010PropOp32
 70
     1
102
RTVSPost2010Prop33
280
     0
102
RTVSPost2010PropOp33
 70
     1
102
RTVSPost2010Prop34
280
     0
102
RTVSPost2010PropOp34
 70
     1
102
RTVSPost2010Prop35
280
     0
102
RTVSPost2010PropOp35
 70
     1
102
RTVSPost2010Prop36
280
     0
102
RTVSPost2010PropOp36
 70
     1
102
RTVSPost2010Prop37
 90
       50
102
RTVSPost2010PropOp37
 70
     1
102
RTVSPost2010Prop38
140
0.0
102
RTVSPost2010PropOp38
 70
     1
102
RTVSPost2010Prop39
140
1.0
102
RTVSPost2010PropOp39
 70
     1
102
RTVSPost2010Prop40
 90
        0
102
RTVSPost2010PropOp40
 70
     1
102
RTVSPost2010Prop41ColorIndex
 90
       18
102
RTVSPost2010Prop41ColorRGB
 90
        0
102
RTVSPost2010PropOp41
 70
     1
102
RTVSPost2010Prop42
 90
       50
102
RTVSPost2010PropOp42
 70
     1
102
RTVSPost2010Prop43
 90
        3
102
RTVSPost2010PropOp43
 70
     1
102
RTVSPost2010Prop44ColorIndex
 90
        5
102
RTVSPost2010Prop44ColorRGB
 90
      255
102
RTVSPost2010PropOp44
 70
     1
102
RTVSPost2010Prop45
280
     0
102
RTVSPost2010PropOp45
 70
     1
102
RTVSPost2010Prop46
 90
       50
102
RTVSPost2010PropOp46
 70
     1
102
RTVSPost2010Prop47
 90
       50
102
RTVSPost2010PropOp47
 70
     1
102
RTVSPost2010Prop48
 90
       50
102
RTVSPost2010PropOp48
 70
     1
102
RTVSPost2010Prop49
280
     0
102
RTVSPost2010PropOp49
 70
     1
102
RTVSPost2010Prop50
 90
       50
102
RTVSPost2010PropOp50
 70
     1
102
RTVSPost2010Prop51ColorIndex
 90
      256
102
RTVSPost2010Prop51ColorRGB
 90
-16777216
102
RTVSPost2010PropOp51
 70
     0
102
RTVSPost2010Prop52
140
1.0
102
RTVSPost2010PropOp52
 70
     0
102
RTVSPost2010Prop53
 90
        2
102
RTVSPost2010PropOp53
 70
     1
102
RTVSPost2010Prop54
  1
strokes_ogs.tif
102
RTVSPost2010PropOp54
 70
     1
102
RTVSPost2010Prop55
280
     0
102
RTVSPost2010PropOp55
 70
     1
102
RTVSPost2010Prop56
140
1.0
102
RTVSPost2010PropOp56
 70
     1
102
RTVSPost2010Prop57
140
1.0
102
RTVSPost2010PropOp57
 70
     1
  0
XRECORD
  5
4C7
102
{ACAD_REACTORS
330
4C6
102
}
330
4C6
100
AcDbXrecord
280
     1
102
RTVSPropertyOp0
 70
     1
102
RTVSPropertyOp1
 70
     1
102
RTVSPropertyOp2
 70
     1
102
RTVSPropertyOp3
 70
     1
102
RTVSPropertyOp4
 70
     1
102
RTVSPropertyOp5
 70
     1
102
RTVSPropertyOp6
 70
     1
102
RTVSPropertyOp7
 70
     1
102
RTVSPropertyOp8
 70
     1
102
RTVSPropertyOp9
 70
     1
102
RTVSPropertyOp10
 70
     1
102
RTVSPropertyOp11
 70
     1
102
RTVSPropertyOp12
 70
     1
102
RTVSPropertyOp13
 70
     1
102
RTVSPropertyOp14
 70
     1
102
RTVSPropertyOp15
 70
     1
102
RTVSPropertyOp16
 70
     1
102
RTVSPropertyOp17
 70
     1
102
RTVSPropertyOp18
 70
     1
102
RTVSPropertyOp19
 70
     1
102
RTVSPropertyOp20
 70
     1
102
RTVSPropertyOp21
 70
     1
102
RTVSPropertyOp22
 70
     1
102
RTVSPropertyOp23
 70
     1
102
RTVSPropertyOp24
 70
     1
102
RTVSPropertyOp25
 70
     1
102
RTVSPropertyOp26
 70
     1
102
RTVSPropertyOp27
 70
     1
102
RTVSPropertyOp28
 70
     1
102
RTVSPropertyOp29
 70
     1
102
RTVSPropertyOp30
 70
     1
102
RTVSPropertyOp31
 70
     1
102
RTVSPropertyOp32
 70
     1
102
RTVSPropertyOp33
 70
     1
102
RTVSPropertyOp34
 70
     1
102
RTVSPropertyOp35
 70
     1
102
RTVSPropertyOp36
 70
     1
102
RTVSPropertyOp37
 70
     1
102
RTVSPropertyOp38
 70
     1
102
RTVSPropertyOp39
 70
     1
102
RTVSPropertyOp40
 70
     1
102
RTVSPropertyOp41
 70
     1
102
RTVSPropertyOp42
 70
     1
102
RTVSPropertyOp43
 70
     1
102
RTVSPropertyOp44
 70
     1
102
RTVSPropertyOp45
 70
     1
102
RTVSPropertyOp46
 70
     1
102
RTVSPropertyOp47
 70
     1
102
RTVSPropertyOp48
 70
     1
102
RTVSPropertyOp49
 70
     1
102
RTVSPropertyOp50
 70
     1
102
RTVSPropertyOp51
 70
     0
102
RTVSPropertyOp52
 70
     0
102
RTVSPropertyOp53
 70
     1
102
RTVSPropertyOp54
 70
     1
102
RTVSPropertyOp55
 70
     1
102
RTVSPropertyOp56
 70
     1
102
RTVSPropertyOp57
 70
     1
102
RTVSPost2010Prop28
280
     0
102
RTVSPost2010PropOp28
 70
     1
102
RTVSPost2010Prop29
280
     1
102
RTVSPost2010PropOp29
 70
     1
102
RTVSPost2010Prop30
280
     1
102
RTVSPost2010PropOp30
 70
     1
102
RTVSPost2010Prop31
280
     0
102
RTVSPost2010PropOp31
 70
     1
102
RTVSPost2010Prop32
280
     0
102
RTVSPost2010PropOp32
 70
     1
102
RTVSPost2010Prop33
280
     0
102
RTVSPost2010PropOp33
 70
     1
102
RTVSPost2010Prop34
280
     0
102
RTVSPost2010PropOp34
 70
     1
102
RTVSPost2010Prop35
280
     0
102
RTVSPost2010PropOp35
 70
     1
102
RTVSPost2010Prop36
280
     0
102
RTVSPost2010PropOp36
 70
     1
102
RTVSPost2010Prop37
 90
       50
102
RTVSPost2010PropOp37
 70
     1
102
RTVSPost2010Prop38
140
0.0
102
RTVSPost2010PropOp38
 70
     1
102
RTVSPost2010Prop39
140
1.0
102
RTVSPost2010PropOp39
 70
     1
102
RTVSPost2010Prop40
 90
        0
102
RTVSPost2010PropOp40
 70
     1
102
RTVSPost2010Prop41ColorIndex
 90
       18
102
RTVSPost2010Prop41ColorRGB
 90
        0
102
RTVSPost2010PropOp41
 70
     1
102
RTVSPost2010Prop42
 90
       50
102
RTVSPost2010PropOp42
 70
     1
102
RTVSPost2010Prop43
 90
        3
102
RTVSPost2010PropOp43
 70
     1
102
RTVSPost2010Prop44ColorIndex
 90
        5
102
RTVSPost2010Prop44ColorRGB
 90
      255
102
RTVSPost2010PropOp44
 70
     1
102
RTVSPost2010Prop45
280
     0
102
RTVSPost2010PropOp45
 70
     1
102
RTVSPost2010Prop46
 90
       50
102
RTVSPost2010PropOp46
 70
     1
102
RTVSPost2010Prop47
 90
       50
102
RTVSPost2010PropOp47
 70
     1
102
RTVSPost2010Prop48
 90
       50
102
RTVSPost2010PropOp48
 70
     1
102
RTVSPost2010Prop49
280
     0
102
RTVSPost2010PropOp49
 70
     1
102
RTVSPost2010Prop50
 90
       50
102
RTVSPost2010PropOp50
 70
     1
102
RTVSPost2010Prop51ColorIndex
 90
      256
102
RTVSPost2010Prop51ColorRGB
 90
-16777216
102
RTVSPost2010PropOp51
 70
     0
102
RTVSPost2010Prop52
140
1.0
102
RTVSPost2010PropOp52
 70
     0
102
RTVSPost2010Prop53
 90
        2
102
RTVSPost2010PropOp53
 70
     1
102
RTVSPost2010Prop54
  1
strokes_ogs.tif
102
RTVSPost2010PropOp54
 70
     1
102
RTVSPost2010Prop55
280
     0
102
RTVSPost2010PropOp55
 70
     1
102
RTVSPost2010Prop56
140
1.0
102
RTVSPost2010PropOp56
 70
     1
102
RTVSPost2010Prop57
140
1.0
102
RTVSPost2010PropOp57
 70
     1
  0
XRECORD
  5
4CD
102
{ACAD_REACTORS
330
4CC
102
}
330
4CC
100
AcDbXrecord
280
     1
102
RTVSPropertyOp0
 70
     1
102
RTVSPropertyOp1
 70
     1
102
RTVSPropertyOp2
 70
     1
102
RTVSPropertyOp3
 70
     1
102
RTVSPropertyOp4
 70
     1
102
RTVSPropertyOp5
 70
     1
102
RTVSPropertyOp6
 70
     1
102
RTVSPropertyOp7
 70
     1
102
RTVSPropertyOp8
 70
     1
102
RTVSPropertyOp9
 70
     1
102
RTVSPropertyOp10
 70
     1
102
RTVSPropertyOp11
 70
     1
102
RTVSPropertyOp12
 70
     1
102
RTVSPropertyOp13
 70
     1
102
RTVSPropertyOp14
 70
     1
102
RTVSPropertyOp15
 70
     1
102
RTVSPropertyOp16
 70
     1
102
RTVSPropertyOp17
 70
     1
102
RTVSPropertyOp18
 70
     1
102
RTVSPropertyOp19
 70
     1
102
RTVSPropertyOp20
 70
     1
102
RTVSPropertyOp21
 70
     1
102
RTVSPropertyOp22
 70
     1
102
RTVSPropertyOp23
 70
     1
102
RTVSPropertyOp24
 70
     1
102
RTVSPropertyOp25
 70
     1
102
RTVSPropertyOp26
 70
     1
102
RTVSPropertyOp27
 70
     1
102
RTVSPropertyOp28
 70
     1
102
RTVSPropertyOp29
 70
     1
102
RTVSPropertyOp30
 70
     1
102
RTVSPropertyOp31
 70
     1
102
RTVSPropertyOp32
 70
     1
102
RTVSPropertyOp33
 70
     1
102
RTVSPropertyOp34
 70
     1
102
RTVSPropertyOp35
 70
     1
102
RTVSPropertyOp36
 70
     1
102
RTVSPropertyOp37
 70
     1
102
RTVSPropertyOp38
 70
     1
102
RTVSPropertyOp39
 70
     1
102
RTVSPropertyOp40
 70
     1
102
RTVSPropertyOp41
 70
     1
102
RTVSPropertyOp42
 70
     1
102
RTVSPropertyOp43
 70
     1
102
RTVSPropertyOp44
 70
     1
102
RTVSPropertyOp45
 70
     1
102
RTVSPropertyOp46
 70
     1
102
RTVSPropertyOp47
 70
     1
102
RTVSPropertyOp48
 70
     1
102
RTVSPropertyOp49
 70
     1
102
RTVSPropertyOp50
 70
     1
102
RTVSPropertyOp51
 70
     0
102
RTVSPropertyOp52
 70
     0
102
RTVSPropertyOp53
 70
     1
102
RTVSPropertyOp54
 70
     1
102
RTVSPropertyOp55
 70
     1
102
RTVSPropertyOp56
 70
     1
102
RTVSPropertyOp57
 70
     1
102
RTVSPost2010Prop28
280
     0
102
RTVSPost2010PropOp28
 70
     1
102
RTVSPost2010Prop29
280
     1
102
RTVSPost2010PropOp29
 70
     1
102
RTVSPost2010Prop30
280
     1
102
RTVSPost2010PropOp30
 70
     1
102
RTVSPost2010Prop31
280
     0
102
RTVSPost2010PropOp31
 70
     1
102
RTVSPost2010Prop32
280
     0
102
RTVSPost2010PropOp32
 70
     1
102
RTVSPost2010Prop33
280
     0
102
RTVSPost2010PropOp33
 70
     1
102
RTVSPost2010Prop34
280
     0
102
RTVSPost2010PropOp34
 70
     1
102
RTVSPost2010Prop35
280
     0
102
RTVSPost2010PropOp35
 70
     1
102
RTVSPost2010Prop36
280
     0
102
RTVSPost2010PropOp36
 70
     1
102
RTVSPost2010Prop37
 90
       50
102
RTVSPost2010PropOp37
 70
     1
102
RTVSPost2010Prop38
140
0.0
102
RTVSPost2010PropOp38
 70
     1
102
RTVSPost2010Prop39
140
1.0
102
RTVSPost2010PropOp39
 70
     1
102
RTVSPost2010Prop40
 90
        0
102
RTVSPost2010PropOp40
 70
     1
102
RTVSPost2010Prop41ColorIndex
 90
       18
102
RTVSPost2010Prop41ColorRGB
 90
        0
102
RTVSPost2010PropOp41
 70
     1
102
RTVSPost2010Prop42
 90
       50
102
RTVSPost2010PropOp42
 70
     1
102
RTVSPost2010Prop43
 90
        3
102
RTVSPost2010PropOp43
 70
     1
102
RTVSPost2010Prop44ColorIndex
 90
        5
102
RTVSPost2010Prop44ColorRGB
 90
      255
102
RTVSPost2010PropOp44
 70
     1
102
RTVSPost2010Prop45
280
     0
102
RTVSPost2010PropOp45
 70
     1
102
RTVSPost2010Prop46
 90
       50
102
RTVSPost2010PropOp46
 70
     1
102
RTVSPost2010Prop47
 90
       50
102
RTVSPost2010PropOp47
 70
     1
102
RTVSPost2010Prop48
 90
       50
102
RTVSPost2010PropOp48
 70
     1
102
RTVSPost2010Prop49
280
     0
102
RTVSPost2010PropOp49
 70
     1
102
RTVSPost2010Prop50
 90
       50
102
RTVSPost2010PropOp50
 70
     1
102
RTVSPost2010Prop51ColorIndex
 90
      256
102
RTVSPost2010Prop51ColorRGB
 90
-16777216
102
RTVSPost2010PropOp51
 70
     0
102
RTVSPost2010Prop52
140
1.0
102
RTVSPost2010PropOp52
 70
     0
102
RTVSPost2010Prop53
 90
        2
102
RTVSPost2010PropOp53
 70
     1
102
RTVSPost2010Prop54
  1
strokes_ogs.tif
102
RTVSPost2010PropOp54
 70
     1
102
RTVSPost2010Prop55
280
     0
102
RTVSPost2010PropOp55
 70
     1
102
RTVSPost2010Prop56
140
1.0
102
RTVSPost2010PropOp56
 70
     1
102
RTVSPost2010Prop57
140
1.0
102
RTVSPost2010PropOp57
 70
     1
  0
XRECORD
  5
4E1
102
{ACAD_REACTORS
330
4E0
102
}
330
4E0
100
AcDbXrecord
280
     1
102
RTVSPropertyOp0
 70
     0
102
RTVSPropertyOp1
 70
     0
102
RTVSPropertyOp2
 70
     0
102
RTVSPropertyOp3
 70
     0
102
RTVSPropertyOp4
 70
     0
102
RTVSPropertyOp5
 70
     0
102
RTVSPropertyOp6
 70
     0
102
RTVSPropertyOp7
 70
     0
102
RTVSPropertyOp8
 70
     0
102
RTVSPropertyOp9
 70
     0
102
RTVSPropertyOp10
 70
     0
102
RTVSPropertyOp11
 70
     0
102
RTVSPropertyOp12
 70
     0
102
RTVSPropertyOp13
 70
     0
102
RTVSPropertyOp14
 70
     2
102
RTVSPropertyOp15
 70
     0
102
RTVSPropertyOp16
 70
     0
102
RTVSPropertyOp17
 70
     0
102
RTVSPropertyOp18
 70
     0
102
RTVSPropertyOp19
 70
     0
102
RTVSPropertyOp20
 70
     0
102
RTVSPropertyOp21
 70
     0
102
RTVSPropertyOp22
 70
     0
102
RTVSPropertyOp23
 70
     0
102
RTVSPropertyOp24
 70
     0
102
RTVSPropertyOp25
 70
     0
102
RTVSPropertyOp26
 70
     0
102
RTVSPropertyOp27
 70
     0
102
RTVSPropertyOp28
 70
     0
102
RTVSPropertyOp29
 70
     0
102
RTVSPropertyOp30
 70
     0
102
RTVSPropertyOp31
 70
     0
102
RTVSPropertyOp32
 70
     0
102
RTVSPropertyOp33
 70
     0
102
RTVSPropertyOp34
 70
     0
102
RTVSPropertyOp35
 70
     0
102
RTVSPropertyOp36
 70
     0
102
RTVSPropertyOp37
 70
     0
102
RTVSPropertyOp38
 70
     0
102
RTVSPropertyOp39
 70
     0
102
RTVSPropertyOp40
 70
     0
102
RTVSPropertyOp41
 70
     0
102
RTVSPropertyOp42
 70
     0
102
RTVSPropertyOp43
 70
     0
102
RTVSPropertyOp44
 70
     0
102
RTVSPropertyOp45
 70
     0
102
RTVSPropertyOp46
 70
     0
102
RTVSPropertyOp47
 70
     0
102
RTVSPropertyOp48
 70
     0
102
RTVSPropertyOp49
 70
     0
102
RTVSPropertyOp50
 70
     0
102
RTVSPropertyOp51
 70
     0
102
RTVSPropertyOp52
 70
     0
102
RTVSPropertyOp53
 70
     0
102
RTVSPropertyOp54
 70
     0
102
RTVSPropertyOp55
 70
     0
102
RTVSPropertyOp56
 70
     0
102
RTVSPropertyOp57
 70
     0
102
RTVSPost2010Prop28
280
     0
102
RTVSPost2010PropOp28
 70
     0
102
RTVSPost2010Prop29
280
     1
102
RTVSPost2010PropOp29
 70
     0
102
RTVSPost2010Prop30
280
     1
102
RTVSPost2010PropOp30
 70
     0
102
RTVSPost2010Prop31
280
     0
102
RTVSPost2010PropOp31
 70
     0
102
RTVSPost2010Prop32
280
     0
102
RTVSPost2010PropOp32
 70
     0
102
RTVSPost2010Prop33
280
     0
102
RTVSPost2010PropOp33
 70
     0
102
RTVSPost2010Prop34
280
     0
102
RTVSPost2010PropOp34
 70
     0
102
RTVSPost2010Prop35
280
     0
102
RTVSPost2010PropOp35
 70
     0
102
RTVSPost2010Prop36
280
     0
102
RTVSPost2010PropOp36
 70
     0
102
RTVSPost2010Prop37
 90
       50
102
RTVSPost2010PropOp37
 70
     0
102
RTVSPost2010Prop38
140
0.0
102
RTVSPost2010PropOp38
 70
     0
102
RTVSPost2010Prop39
140
1.0
102
RTVSPost2010PropOp39
 70
     0
102
RTVSPost2010Prop40
 90
        0
102
RTVSPost2010PropOp40
 70
     0
102
RTVSPost2010Prop41ColorIndex
 90
       18
102
RTVSPost2010Prop41ColorRGB
 90
        0
102
RTVSPost2010PropOp41
 70
     0
102
RTVSPost2010Prop42
 90
       50
102
RTVSPost2010PropOp42
 70
     0
102
RTVSPost2010Prop43
 90
        3
102
RTVSPost2010PropOp43
 70
     0
102
RTVSPost2010Prop44ColorIndex
 90
        5
102
RTVSPost2010Prop44ColorRGB
 90
      255
102
RTVSPost2010PropOp44
 70
     0
102
RTVSPost2010Prop45
280
     0
102
RTVSPost2010PropOp45
 70
     0
102
RTVSPost2010Prop46
 90
       50
102
RTVSPost2010PropOp46
 70
     0
102
RTVSPost2010Prop47
 90
       50
102
RTVSPost2010PropOp47
 70
     0
102
RTVSPost2010Prop48
 90
       50
102
RTVSPost2010PropOp48
 70
     0
102
RTVSPost2010Prop49
280
     0
102
RTVSPost2010PropOp49
 70
     0
102
RTVSPost2010Prop50
 90
       50
102
RTVSPost2010PropOp50
 70
     0
102
RTVSPost2010Prop51ColorIndex
 90
      256
102
RTVSPost2010Prop51ColorRGB
 90
-16777216
102
RTVSPost2010PropOp51
 70
     0
102
RTVSPost2010Prop52
140
1.0
102
RTVSPost2010PropOp52
 70
     0
102
RTVSPost2010Prop53
 90
        2
102
RTVSPost2010PropOp53
 70
     0
102
RTVSPost2010Prop54
  1
strokes_ogs.tif
102
RTVSPost2010PropOp54
 70
     0
102
RTVSPost2010Prop55
280
     0
102
RTVSPost2010PropOp55
 70
     0
102
RTVSPost2010Prop56
140
1.0
102
RTVSPost2010PropOp56
 70
     0
102
RTVSPost2010Prop57
140
1.0
102
RTVSPost2010PropOp57
 70
     0
  0
XRECORD
  5
4DB
102
{ACAD_REACTORS
330
4DA
102
}
330
4DA
100
AcDbXrecord
280
     1
102
RTVSPropertyOp0
 70
     1
102
RTVSPropertyOp1
 70
     1
102
RTVSPropertyOp2
 70
     1
102
RTVSPropertyOp3
 70
     1
102
RTVSPropertyOp4
 70
     1
102
RTVSPropertyOp5
 70
     1
102
RTVSPropertyOp6
 70
     1
102
RTVSPropertyOp7
 70
     1
102
RTVSPropertyOp8
 70
     1
102
RTVSPropertyOp9
 70
     1
102
RTVSPropertyOp10
 70
     1
102
RTVSPropertyOp11
 70
     1
102
RTVSPropertyOp12
 70
     1
102
RTVSPropertyOp13
 70
     1
102
RTVSPropertyOp14
 70
     1
102
RTVSPropertyOp15
 70
     1
102
RTVSPropertyOp16
 70
     1
102
RTVSPropertyOp17
 70
     1
102
RTVSPropertyOp18
 70
     1
102
RTVSPropertyOp19
 70
     1
102
RTVSPropertyOp20
 70
     1
102
RTVSPropertyOp21
 70
     1
102
RTVSPropertyOp22
 70
     1
102
RTVSPropertyOp23
 70
     1
102
RTVSPropertyOp24
 70
     1
102
RTVSPropertyOp25
 70
     1
102
RTVSPropertyOp26
 70
     1
102
RTVSPropertyOp27
 70
     1
102
RTVSPropertyOp28
 70
     1
102
RTVSPropertyOp29
 70
     1
102
RTVSPropertyOp30
 70
     1
102
RTVSPropertyOp31
 70
     1
102
RTVSPropertyOp32
 70
     1
102
RTVSPropertyOp33
 70
     1
102
RTVSPropertyOp34
 70
     1
102
RTVSPropertyOp35
 70
     1
102
RTVSPropertyOp36
 70
     1
102
RTVSPropertyOp37
 70
     1
102
RTVSPropertyOp38
 70
     1
102
RTVSPropertyOp39
 70
     1
102
RTVSPropertyOp40
 70
     1
102
RTVSPropertyOp41
 70
     1
102
RTVSPropertyOp42
 70
     1
102
RTVSPropertyOp43
 70
     1
102
RTVSPropertyOp44
 70
     1
102
RTVSPropertyOp45
 70
     1
102
RTVSPropertyOp46
 70
     1
102
RTVSPropertyOp47
 70
     1
102
RTVSPropertyOp48
 70
     1
102
RTVSPropertyOp49
 70
     1
102
RTVSPropertyOp50
 70
     1
102
RTVSPropertyOp51
 70
     0
102
RTVSPropertyOp52
 70
     0
102
RTVSPropertyOp53
 70
     1
102
RTVSPropertyOp54
 70
     1
102
RTVSPropertyOp55
 70
     1
102
RTVSPropertyOp56
 70
     1
102
RTVSPropertyOp57
 70
     1
102
RTVSPost2010Prop28
280
     0
102
RTVSPost2010PropOp28
 70
     1
102
RTVSPost2010Prop29
280
     1
102
RTVSPost2010PropOp29
 70
     1
102
RTVSPost2010Prop30
280
     1
102
RTVSPost2010PropOp30
 70
     1
102
RTVSPost2010Prop31
280
     0
102
RTVSPost2010PropOp31
 70
     1
102
RTVSPost2010Prop32
280
     0
102
RTVSPost2010PropOp32
 70
     1
102
RTVSPost2010Prop33
280
     0
102
RTVSPost2010PropOp33
 70
     1
102
RTVSPost2010Prop34
280
     0
102
RTVSPost2010PropOp34
 70
     1
102
RTVSPost2010Prop35
280
     0
102
RTVSPost2010PropOp35
 70
     1
102
RTVSPost2010Prop36
280
     0
102
RTVSPost2010PropOp36
 70
     1
102
RTVSPost2010Prop37
 90
       50
102
RTVSPost2010PropOp37
 70
     1
102
RTVSPost2010Prop38
140
0.0
102
RTVSPost2010PropOp38
 70
     1
102
RTVSPost2010Prop39
140
1.0
102
RTVSPost2010PropOp39
 70
     1
102
RTVSPost2010Prop40
 90
        0
102
RTVSPost2010PropOp40
 70
     1
102
RTVSPost2010Prop41ColorIndex
 90
       18
102
RTVSPost2010Prop41ColorRGB
 90
        0
102
RTVSPost2010PropOp41
 70
     1
102
RTVSPost2010Prop42
 90
       50
102
RTVSPost2010PropOp42
 70
     1
102
RTVSPost2010Prop43
 90
        3
102
RTVSPost2010PropOp43
 70
     1
102
RTVSPost2010Prop44ColorIndex
 90
        5
102
RTVSPost2010Prop44ColorRGB
 90
      255
102
RTVSPost2010PropOp44
 70
     1
102
RTVSPost2010Prop45
280
     0
102
RTVSPost2010PropOp45
 70
     1
102
RTVSPost2010Prop46
 90
       50
102
RTVSPost2010PropOp46
 70
     1
102
RTVSPost2010Prop47
 90
       50
102
RTVSPost2010PropOp47
 70
     1
102
RTVSPost2010Prop48
 90
       50
102
RTVSPost2010PropOp48
 70
     1
102
RTVSPost2010Prop49
280
     0
102
RTVSPost2010PropOp49
 70
     1
102
RTVSPost2010Prop50
 90
       50
102
RTVSPost2010PropOp50
 70
     1
102
RTVSPost2010Prop51ColorIndex
 90
      256
102
RTVSPost2010Prop51ColorRGB
 90
-16777216
102
RTVSPost2010PropOp51
 70
     0
102
RTVSPost2010Prop52
140
1.0
102
RTVSPost2010PropOp52
 70
     0
102
RTVSPost2010Prop53
 90
        2
102
RTVSPost2010PropOp53
 70
     1
102
RTVSPost2010Prop54
  1
strokes_ogs.tif
102
RTVSPost2010PropOp54
 70
     1
102
RTVSPost2010Prop55
280
     0
102
RTVSPost2010PropOp55
 70
     1
102
RTVSPost2010Prop56
140
1.0
102
RTVSPost2010PropOp56
 70
     1
102
RTVSPost2010Prop57
140
1.0
102
RTVSPost2010PropOp57
 70
     1
  0
XRECORD
  5
4E3
102
{ACAD_REACTORS
330
4E2
102
}
330
4E2
100
AcDbXrecord
280
     1
102
RTVSPropertyOp0
 70
     0
102
RTVSPropertyOp1
 70
     0
102
RTVSPropertyOp2
 70
     0
102
RTVSPropertyOp3
 70
     0
102
RTVSPropertyOp4
 70
     0
102
RTVSPropertyOp5
 70
     0
102
RTVSPropertyOp6
 70
     0
102
RTVSPropertyOp7
 70
     0
102
RTVSPropertyOp8
 70
     0
102
RTVSPropertyOp9
 70
     0
102
RTVSPropertyOp10
 70
     0
102
RTVSPropertyOp11
 70
     0
102
RTVSPropertyOp12
 70
     0
102
RTVSPropertyOp13
 70
     0
102
RTVSPropertyOp14
 70
     2
102
RTVSPropertyOp15
 70
     0
102
RTVSPropertyOp16
 70
     0
102
RTVSPropertyOp17
 70
     0
102
RTVSPropertyOp18
 70
     0
102
RTVSPropertyOp19
 70
     0
102
RTVSPropertyOp20
 70
     0
102
RTVSPropertyOp21
 70
     0
102
RTVSPropertyOp22
 70
     0
102
RTVSPropertyOp23
 70
     0
102
RTVSPropertyOp24
 70
     0
102
RTVSPropertyOp25
 70
     0
102
RTVSPropertyOp26
 70
     0
102
RTVSPropertyOp27
 70
     0
102
RTVSPropertyOp28
 70
     0
102
RTVSPropertyOp29
 70
     0
102
RTVSPropertyOp30
 70
     0
102
RTVSPropertyOp31
 70
     0
102
RTVSPropertyOp32
 70
     0
102
RTVSPropertyOp33
 70
     0
102
RTVSPropertyOp34
 70
     0
102
RTVSPropertyOp35
 70
     0
102
RTVSPropertyOp36
 70
     0
102
RTVSPropertyOp37
 70
     0
102
RTVSPropertyOp38
 70
     0
102
RTVSPropertyOp39
 70
     0
102
RTVSPropertyOp40
 70
     0
102
RTVSPropertyOp41
 70
     0
102
RTVSPropertyOp42
 70
     0
102
RTVSPropertyOp43
 70
     0
102
RTVSPropertyOp44
 70
     0
102
RTVSPropertyOp45
 70
     0
102
RTVSPropertyOp46
 70
     0
102
RTVSPropertyOp47
 70
     0
102
RTVSPropertyOp48
 70
     0
102
RTVSPropertyOp49
 70
     0
102
RTVSPropertyOp50
 70
     0
102
RTVSPropertyOp51
 70
     0
102
RTVSPropertyOp52
 70
     0
102
RTVSPropertyOp53
 70
     0
102
RTVSPropertyOp54
 70
     0
102
RTVSPropertyOp55
 70
     0
102
RTVSPropertyOp56
 70
     0
102
RTVSPropertyOp57
 70
     0
102
RTVSPost2010Prop28
280
     0
102
RTVSPost2010PropOp28
 70
     0
102
RTVSPost2010Prop29
280
     1
102
RTVSPost2010PropOp29
 70
     0
102
RTVSPost2010Prop30
280
     1
102
RTVSPost2010PropOp30
 70
     0
102
RTVSPost2010Prop31
280
     0
102
RTVSPost2010PropOp31
 70
     0
102
RTVSPost2010Prop32
280
     0
102
RTVSPost2010PropOp32
 70
     0
102
RTVSPost2010Prop33
280
     0
102
RTVSPost2010PropOp33
 70
     0
102
RTVSPost2010Prop34
280
     0
102
RTVSPost2010PropOp34
 70
     0
102
RTVSPost2010Prop35
280
     0
102
RTVSPost2010PropOp35
 70
     0
102
RTVSPost2010Prop36
280
     0
102
RTVSPost2010PropOp36
 70
     0
102
RTVSPost2010Prop37
 90
       50
102
RTVSPost2010PropOp37
 70
     0
102
RTVSPost2010Prop38
140
0.0
102
RTVSPost2010PropOp38
 70
     0
102
RTVSPost2010Prop39
140
1.0
102
RTVSPost2010PropOp39
 70
     0
102
RTVSPost2010Prop40
 90
        0
102
RTVSPost2010PropOp40
 70
     0
102
RTVSPost2010Prop41ColorIndex
 90
       18
102
RTVSPost2010Prop41ColorRGB
 90
        0
102
RTVSPost2010PropOp41
 70
     0
102
RTVSPost2010Prop42
 90
       50
102
RTVSPost2010PropOp42
 70
     0
102
RTVSPost2010Prop43
 90
        3
102
RTVSPost2010PropOp43
 70
     0
102
RTVSPost2010Prop44ColorIndex
 90
        5
102
RTVSPost2010Prop44ColorRGB
 90
      255
102
RTVSPost2010PropOp44
 70
     0
102
RTVSPost2010Prop45
280
     0
102
RTVSPost2010PropOp45
 70
     0
102
RTVSPost2010Prop46
 90
       50
102
RTVSPost2010PropOp46
 70
     0
102
RTVSPost2010Prop47
 90
       50
102
RTVSPost2010PropOp47
 70
     0
102
RTVSPost2010Prop48
 90
       50
102
RTVSPost2010PropOp48
 70
     0
102
RTVSPost2010Prop49
280
     0
102
RTVSPost2010PropOp49
 70
     0
102
RTVSPost2010Prop50
 90
       50
102
RTVSPost2010PropOp50
 70
     0
102
RTVSPost2010Prop51ColorIndex
 90
      256
102
RTVSPost2010Prop51ColorRGB
 90
-16777216
102
RTVSPost2010PropOp51
 70
     0
102
RTVSPost2010Prop52
140
1.0
102
RTVSPost2010PropOp52
 70
     0
102
RTVSPost2010Prop53
 90
        2
102
RTVSPost2010PropOp53
 70
     0
102
RTVSPost2010Prop54
  1
strokes_ogs.tif
102
RTVSPost2010PropOp54
 70
     0
102
RTVSPost2010Prop55
280
     0
102
RTVSPost2010PropOp55
 70
     0
102
RTVSPost2010Prop56
140
1.0
102
RTVSPost2010PropOp56
 70
     0
102
RTVSPost2010Prop57
140
1.0
102
RTVSPost2010PropOp57
 70
     0
  0
XRECORD
  5
4D1
102
{ACAD_REACTORS
330
4D0
102
}
330
4D0
100
AcDbXrecord
280
     1
102
RTVSPropertyOp0
 70
     1
102
RTVSPropertyOp1
 70
     1
102
RTVSPropertyOp2
 70
     1
102
RTVSPropertyOp3
 70
     1
102
RTVSPropertyOp4
 70
     1
102
RTVSPropertyOp5
 70
     1
102
RTVSPropertyOp6
 70
     1
102
RTVSPropertyOp7
 70
     1
102
RTVSPropertyOp8
 70
     1
102
RTVSPropertyOp9
 70
     1
102
RTVSPropertyOp10
 70
     1
102
RTVSPropertyOp11
 70
     1
102
RTVSPropertyOp12
 70
     1
102
RTVSPropertyOp13
 70
     1
102
RTVSPropertyOp14
 70
     1
102
RTVSPropertyOp15
 70
     1
102
RTVSPropertyOp16
 70
     1
102
RTVSPropertyOp17
 70
     1
102
RTVSPropertyOp18
 70
     1
102
RTVSPropertyOp19
 70
     1
102
RTVSPropertyOp20
 70
     1
102
RTVSPropertyOp21
 70
     1
102
RTVSPropertyOp22
 70
     1
102
RTVSPropertyOp23
 70
     1
102
RTVSPropertyOp24
 70
     1
102
RTVSPropertyOp25
 70
     1
102
RTVSPropertyOp26
 70
     1
102
RTVSPropertyOp27
 70
     1
102
RTVSPropertyOp28
 70
     1
102
RTVSPropertyOp29
 70
     1
102
RTVSPropertyOp30
 70
     1
102
RTVSPropertyOp31
 70
     1
102
RTVSPropertyOp32
 70
     1
102
RTVSPropertyOp33
 70
     1
102
RTVSPropertyOp34
 70
     1
102
RTVSPropertyOp35
 70
     1
102
RTVSPropertyOp36
 70
     1
102
RTVSPropertyOp37
 70
     1
102
RTVSPropertyOp38
 70
     1
102
RTVSPropertyOp39
 70
     1
102
RTVSPropertyOp40
 70
     1
102
RTVSPropertyOp41
 70
     1
102
RTVSPropertyOp42
 70
     1
102
RTVSPropertyOp43
 70
     1
102
RTVSPropertyOp44
 70
     1
102
RTVSPropertyOp45
 70
     1
102
RTVSPropertyOp46
 70
     1
102
RTVSPropertyOp47
 70
     1
102
RTVSPropertyOp48
 70
     1
102
RTVSPropertyOp49
 70
     1
102
RTVSPropertyOp50
 70
     1
102
RTVSPropertyOp51
 70
     0
102
RTVSPropertyOp52
 70
     0
102
RTVSPropertyOp53
 70
     1
102
RTVSPropertyOp54
 70
     1
102
RTVSPropertyOp55
 70
     1
102
RTVSPropertyOp56
 70
     1
102
RTVSPropertyOp57
 70
     1
102
RTVSPost2010Prop28
280
     0
102
RTVSPost2010PropOp28
 70
     1
102
RTVSPost2010Prop29
280
     1
102
RTVSPost2010PropOp29
 70
     1
102
RTVSPost2010Prop30
280
     1
102
RTVSPost2010PropOp30
 70
     1
102
RTVSPost2010Prop31
280
     0
102
RTVSPost2010PropOp31
 70
     1
102
RTVSPost2010Prop32
280
     0
102
RTVSPost2010PropOp32
 70
     1
102
RTVSPost2010Prop33
280
     0
102
RTVSPost2010PropOp33
 70
     1
102
RTVSPost2010Prop34
280
     0
102
RTVSPost2010PropOp34
 70
     1
102
RTVSPost2010Prop35
280
     0
102
RTVSPost2010PropOp35
 70
     1
102
RTVSPost2010Prop36
280
     0
102
RTVSPost2010PropOp36
 70
     1
102
RTVSPost2010Prop37
 90
       50
102
RTVSPost2010PropOp37
 70
     1
102
RTVSPost2010Prop38
140
0.0
102
RTVSPost2010PropOp38
 70
     1
102
RTVSPost2010Prop39
140
1.0
102
RTVSPost2010PropOp39
 70
     1
102
RTVSPost2010Prop40
 90
        0
102
RTVSPost2010PropOp40
 70
     1
102
RTVSPost2010Prop41ColorIndex
 90
       18
102
RTVSPost2010Prop41ColorRGB
 90
        0
102
RTVSPost2010PropOp41
 70
     1
102
RTVSPost2010Prop42
 90
       50
102
RTVSPost2010PropOp42
 70
     1
102
RTVSPost2010Prop43
 90
        3
102
RTVSPost2010PropOp43
 70
     1
102
RTVSPost2010Prop44ColorIndex
 90
        5
102
RTVSPost2010Prop44ColorRGB
 90
      255
102
RTVSPost2010PropOp44
 70
     1
102
RTVSPost2010Prop45
280
     0
102
RTVSPost2010PropOp45
 70
     1
102
RTVSPost2010Prop46
 90
       50
102
RTVSPost2010PropOp46
 70
     1
102
RTVSPost2010Prop47
 90
       50
102
RTVSPost2010PropOp47
 70
     1
102
RTVSPost2010Prop48
 90
       50
102
RTVSPost2010PropOp48
 70
     1
102
RTVSPost2010Prop49
280
     0
102
RTVSPost2010PropOp49
 70
     1
102
RTVSPost2010Prop50
 90
       50
102
RTVSPost2010PropOp50
 70
     1
102
RTVSPost2010Prop51ColorIndex
 90
      256
102
RTVSPost2010Prop51ColorRGB
 90
-16777216
102
RTVSPost2010PropOp51
 70
     0
102
RTVSPost2010Prop52
140
1.0
102
RTVSPost2010PropOp52
 70
     0
102
RTVSPost2010Prop53
 90
        2
102
RTVSPost2010PropOp53
 70
     1
102
RTVSPost2010Prop54
  1
strokes_ogs.tif
102
RTVSPost2010PropOp54
 70
     1
102
RTVSPost2010Prop55
280
     0
102
RTVSPost2010PropOp55
 70
     1
102
RTVSPost2010Prop56
140
1.0
102
RTVSPost2010PropOp56
 70
     1
102
RTVSPost2010Prop57
140
1.0
102
RTVSPost2010PropOp57
 70
     1
  0
XRECORD
  5
4EF
102
{ACAD_REACTORS
330
4EE
102
}
330
4EE
100
AcDbXrecord
280
     1
102
RTVSPropertyOp0
 70
     1
102
RTVSPropertyOp1
 70
     1
102
RTVSPropertyOp2
 70
     1
102
RTVSPropertyOp3
 70
     1
102
RTVSPropertyOp4
 70
     1
102
RTVSPropertyOp5
 70
     1
102
RTVSPropertyOp6
 70
     1
102
RTVSPropertyOp7
 70
     1
102
RTVSPropertyOp8
 70
     1
102
RTVSPropertyOp9
 70
     1
102
RTVSPropertyOp10
 70
     1
102
RTVSPropertyOp11
 70
     1
102
RTVSPropertyOp12
 70
     1
102
RTVSPropertyOp13
 70
     1
102
RTVSPropertyOp14
 70
     1
102
RTVSPropertyOp15
 70
     1
102
RTVSPropertyOp16
 70
     1
102
RTVSPropertyOp17
 70
     1
102
RTVSPropertyOp18
 70
     1
102
RTVSPropertyOp19
 70
     1
102
RTVSPropertyOp20
 70
     1
102
RTVSPropertyOp21
 70
     1
102
RTVSPropertyOp22
 70
     1
102
RTVSPropertyOp23
 70
     1
102
RTVSPropertyOp24
 70
     1
102
RTVSPropertyOp25
 70
     1
102
RTVSPropertyOp26
 70
     1
102
RTVSPropertyOp27
 70
     1
102
RTVSPropertyOp28
 70
     1
102
RTVSPropertyOp29
 70
     1
102
RTVSPropertyOp30
 70
     1
102
RTVSPropertyOp31
 70
     1
102
RTVSPropertyOp32
 70
     1
102
RTVSPropertyOp33
 70
     1
102
RTVSPropertyOp34
 70
     1
102
RTVSPropertyOp35
 70
     1
102
RTVSPropertyOp36
 70
     1
102
RTVSPropertyOp37
 70
     1
102
RTVSPropertyOp38
 70
     1
102
RTVSPropertyOp39
 70
     1
102
RTVSPropertyOp40
 70
     1
102
RTVSPropertyOp41
 70
     1
102
RTVSPropertyOp42
 70
     1
102
RTVSPropertyOp43
 70
     1
102
RTVSPropertyOp44
 70
     1
102
RTVSPropertyOp45
 70
     1
102
RTVSPropertyOp46
 70
     1
102
RTVSPropertyOp47
 70
     1
102
RTVSPropertyOp48
 70
     1
102
RTVSPropertyOp49
 70
     1
102
RTVSPropertyOp50
 70
     1
102
RTVSPropertyOp51
 70
     0
102
RTVSPropertyOp52
 70
     0
102
RTVSPropertyOp53
 70
     1
102
RTVSPropertyOp54
 70
     1
102
RTVSPropertyOp55
 70
     1
102
RTVSPropertyOp56
 70
     1
102
RTVSPropertyOp57
 70
     1
102
RTVSPost2010Prop28
280
     0
102
RTVSPost2010PropOp28
 70
     1
102
RTVSPost2010Prop29
280
     1
102
RTVSPost2010PropOp29
 70
     1
102
RTVSPost2010Prop30
280
     1
102
RTVSPost2010PropOp30
 70
     1
102
RTVSPost2010Prop31
280
     0
102
RTVSPost2010PropOp31
 70
     1
102
RTVSPost2010Prop32
280
     0
102
RTVSPost2010PropOp32
 70
     1
102
RTVSPost2010Prop33
280
     0
102
RTVSPost2010PropOp33
 70
     1
102
RTVSPost2010Prop34
280
     0
102
RTVSPost2010PropOp34
 70
     1
102
RTVSPost2010Prop35
280
     0
102
RTVSPost2010PropOp35
 70
     1
102
RTVSPost2010Prop36
280
     0
102
RTVSPost2010PropOp36
 70
     1
102
RTVSPost2010Prop37
 90
       50
102
RTVSPost2010PropOp37
 70
     1
102
RTVSPost2010Prop38
140
0.0
102
RTVSPost2010PropOp38
 70
     1
102
RTVSPost2010Prop39
140
1.0
102
RTVSPost2010PropOp39
 70
     1
102
RTVSPost2010Prop40
 90
        0
102
RTVSPost2010PropOp40
 70
     1
102
RTVSPost2010Prop41ColorIndex
 90
       18
102
RTVSPost2010Prop41ColorRGB
 90
        0
102
RTVSPost2010PropOp41
 70
     1
102
RTVSPost2010Prop42
 90
       50
102
RTVSPost2010PropOp42
 70
     1
102
RTVSPost2010Prop43
 90
        3
102
RTVSPost2010PropOp43
 70
     1
102
RTVSPost2010Prop44ColorIndex
 90
        5
102
RTVSPost2010Prop44ColorRGB
 90
      255
102
RTVSPost2010PropOp44
 70
     1
102
RTVSPost2010Prop45
280
     0
102
RTVSPost2010PropOp45
 70
     1
102
RTVSPost2010Prop46
 90
       50
102
RTVSPost2010PropOp46
 70
     1
102
RTVSPost2010Prop47
 90
       50
102
RTVSPost2010PropOp47
 70
     1
102
RTVSPost2010Prop48
 90
       50
102
RTVSPost2010PropOp48
 70
     1
102
RTVSPost2010Prop49
280
     0
102
RTVSPost2010PropOp49
 70
     1
102
RTVSPost2010Prop50
 90
       50
102
RTVSPost2010PropOp50
 70
     1
102
RTVSPost2010Prop51ColorIndex
 90
      256
102
RTVSPost2010Prop51ColorRGB
 90
-16777216
102
RTVSPost2010PropOp51
 70
     0
102
RTVSPost2010Prop52
140
1.0
102
RTVSPost2010PropOp52
 70
     0
102
RTVSPost2010Prop53
 90
        2
102
RTVSPost2010PropOp53
 70
     1
102
RTVSPost2010Prop54
  1
strokes_ogs.tif
102
RTVSPost2010PropOp54
 70
     1
102
RTVSPost2010Prop55
280
     0
102
RTVSPost2010PropOp55
 70
     1
102
RTVSPost2010Prop56
140
1.0
102
RTVSPost2010PropOp56
 70
     1
102
RTVSPost2010Prop57
140
1.0
102
RTVSPost2010PropOp57
 70
     1
  0
XRECORD
  5
4ED
102
{ACAD_REACTORS
330
4EC
102
}
330
4EC
100
AcDbXrecord
280
     1
102
RTVSPropertyOp0
 70
     1
102
RTVSPropertyOp1
 70
     1
102
RTVSPropertyOp2
 70
     1
102
RTVSPropertyOp3
 70
     1
102
RTVSPropertyOp4
 70
     1
102
RTVSPropertyOp5
 70
     1
102
RTVSPropertyOp6
 70
     1
102
RTVSPropertyOp7
 70
     1
102
RTVSPropertyOp8
 70
     1
102
RTVSPropertyOp9
 70
     1
102
RTVSPropertyOp10
 70
     1
102
RTVSPropertyOp11
 70
     1
102
RTVSPropertyOp12
 70
     1
102
RTVSPropertyOp13
 70
     1
102
RTVSPropertyOp14
 70
     1
102
RTVSPropertyOp15
 70
     1
102
RTVSPropertyOp16
 70
     1
102
RTVSPropertyOp17
 70
     1
102
RTVSPropertyOp18
 70
     1
102
RTVSPropertyOp19
 70
     1
102
RTVSPropertyOp20
 70
     1
102
RTVSPropertyOp21
 70
     1
102
RTVSPropertyOp22
 70
     1
102
RTVSPropertyOp23
 70
     1
102
RTVSPropertyOp24
 70
     1
102
RTVSPropertyOp25
 70
     1
102
RTVSPropertyOp26
 70
     1
102
RTVSPropertyOp27
 70
     1
102
RTVSPropertyOp28
 70
     1
102
RTVSPropertyOp29
 70
     1
102
RTVSPropertyOp30
 70
     1
102
RTVSPropertyOp31
 70
     1
102
RTVSPropertyOp32
 70
     1
102
RTVSPropertyOp33
 70
     1
102
RTVSPropertyOp34
 70
     1
102
RTVSPropertyOp35
 70
     1
102
RTVSPropertyOp36
 70
     1
102
RTVSPropertyOp37
 70
     1
102
RTVSPropertyOp38
 70
     1
102
RTVSPropertyOp39
 70
     1
102
RTVSPropertyOp40
 70
     1
102
RTVSPropertyOp41
 70
     1
102
RTVSPropertyOp42
 70
     1
102
RTVSPropertyOp43
 70
     1
102
RTVSPropertyOp44
 70
     1
102
RTVSPropertyOp45
 70
     1
102
RTVSPropertyOp46
 70
     1
102
RTVSPropertyOp47
 70
     1
102
RTVSPropertyOp48
 70
     1
102
RTVSPropertyOp49
 70
     1
102
RTVSPropertyOp50
 70
     1
102
RTVSPropertyOp51
 70
     0
102
RTVSPropertyOp52
 70
     0
102
RTVSPropertyOp53
 70
     1
102
RTVSPropertyOp54
 70
     1
102
RTVSPropertyOp55
 70
     1
102
RTVSPropertyOp56
 70
     1
102
RTVSPropertyOp57
 70
     1
102
RTVSPost2010Prop28
280
     0
102
RTVSPost2010PropOp28
 70
     1
102
RTVSPost2010Prop29
280
     1
102
RTVSPost2010PropOp29
 70
     1
102
RTVSPost2010Prop30
280
     1
102
RTVSPost2010PropOp30
 70
     1
102
RTVSPost2010Prop31
280
     0
102
RTVSPost2010PropOp31
 70
     1
102
RTVSPost2010Prop32
280
     0
102
RTVSPost2010PropOp32
 70
     1
102
RTVSPost2010Prop33
280
     0
102
RTVSPost2010PropOp33
 70
     1
102
RTVSPost2010Prop34
280
     0
102
RTVSPost2010PropOp34
 70
     1
102
RTVSPost2010Prop35
280
     0
102
RTVSPost2010PropOp35
 70
     1
102
RTVSPost2010Prop36
280
     0
102
RTVSPost2010PropOp36
 70
     1
102
RTVSPost2010Prop37
 90
       50
102
RTVSPost2010PropOp37
 70
     1
102
RTVSPost2010Prop38
140
0.0
102
RTVSPost2010PropOp38
 70
     1
102
RTVSPost2010Prop39
140
1.0
102
RTVSPost2010PropOp39
 70
     1
102
RTVSPost2010Prop40
 90
        0
102
RTVSPost2010PropOp40
 70
     1
102
RTVSPost2010Prop41ColorIndex
 90
       18
102
RTVSPost2010Prop41ColorRGB
 90
        0
102
RTVSPost2010PropOp41
 70
     1
102
RTVSPost2010Prop42
 90
       50
102
RTVSPost2010PropOp42
 70
     1
102
RTVSPost2010Prop43
 90
        3
102
RTVSPost2010PropOp43
 70
     1
102
RTVSPost2010Prop44ColorIndex
 90
        5
102
RTVSPost2010Prop44ColorRGB
 90
      255
102
RTVSPost2010PropOp44
 70
     1
102
RTVSPost2010Prop45
280
     0
102
RTVSPost2010PropOp45
 70
     1
102
RTVSPost2010Prop46
 90
       50
102
RTVSPost2010PropOp46
 70
     1
102
RTVSPost2010Prop47
 90
       50
102
RTVSPost2010PropOp47
 70
     1
102
RTVSPost2010Prop48
 90
       50
102
RTVSPost2010PropOp48
 70
     1
102
RTVSPost2010Prop49
280
     0
102
RTVSPost2010PropOp49
 70
     1
102
RTVSPost2010Prop50
 90
       50
102
RTVSPost2010PropOp50
 70
     1
102
RTVSPost2010Prop51ColorIndex
 90
      256
102
RTVSPost2010Prop51ColorRGB
 90
-16777216
102
RTVSPost2010PropOp51
 70
     0
102
RTVSPost2010Prop52
140
1.0
102
RTVSPost2010PropOp52
 70
     0
102
RTVSPost2010Prop53
 90
        2
102
RTVSPost2010PropOp53
 70
     1
102
RTVSPost2010Prop54
  1
strokes_ogs.tif
102
RTVSPost2010PropOp54
 70
     1
102
RTVSPost2010Prop55
280
     0
102
RTVSPost2010PropOp55
 70
     1
102
RTVSPost2010Prop56
140
1.0
102
RTVSPost2010PropOp56
 70
     1
102
RTVSPost2010Prop57
140
1.0
102
RTVSPost2010PropOp57
 70
     1
  0
XRECORD
  5
4E7
102
{ACAD_REACTORS
330
4E6
102
}
330
4E6
100
AcDbXrecord
280
     1
102
RTVSPropertyOp0
 70
     1
102
RTVSPropertyOp1
 70
     1
102
RTVSPropertyOp2
 70
     1
102
RTVSPropertyOp3
 70
     1
102
RTVSPropertyOp4
 70
     1
102
RTVSPropertyOp5
 70
     1
102
RTVSPropertyOp6
 70
     1
102
RTVSPropertyOp7
 70
     1
102
RTVSPropertyOp8
 70
     1
102
RTVSPropertyOp9
 70
     1
102
RTVSPropertyOp10
 70
     1
102
RTVSPropertyOp11
 70
     1
102
RTVSPropertyOp12
 70
     1
102
RTVSPropertyOp13
 70
     1
102
RTVSPropertyOp14
 70
     1
102
RTVSPropertyOp15
 70
     1
102
RTVSPropertyOp16
 70
     1
102
RTVSPropertyOp17
 70
     1
102
RTVSPropertyOp18
 70
     1
102
RTVSPropertyOp19
 70
     1
102
RTVSPropertyOp20
 70
     1
102
RTVSPropertyOp21
 70
     1
102
RTVSPropertyOp22
 70
     1
102
RTVSPropertyOp23
 70
     1
102
RTVSPropertyOp24
 70
     1
102
RTVSPropertyOp25
 70
     1
102
RTVSPropertyOp26
 70
     1
102
RTVSPropertyOp27
 70
     1
102
RTVSPropertyOp28
 70
     1
102
RTVSPropertyOp29
 70
     1
102
RTVSPropertyOp30
 70
     1
102
RTVSPropertyOp31
 70
     1
102
RTVSPropertyOp32
 70
     1
102
RTVSPropertyOp33
 70
     1
102
RTVSPropertyOp34
 70
     1
102
RTVSPropertyOp35
 70
     1
102
RTVSPropertyOp36
 70
     1
102
RTVSPropertyOp37
 70
     1
102
RTVSPropertyOp38
 70
     1
102
RTVSPropertyOp39
 70
     1
102
RTVSPropertyOp40
 70
     1
102
RTVSPropertyOp41
 70
     1
102
RTVSPropertyOp42
 70
     1
102
RTVSPropertyOp43
 70
     1
102
RTVSPropertyOp44
 70
     1
102
RTVSPropertyOp45
 70
     1
102
RTVSPropertyOp46
 70
     1
102
RTVSPropertyOp47
 70
     1
102
RTVSPropertyOp48
 70
     1
102
RTVSPropertyOp49
 70
     1
102
RTVSPropertyOp50
 70
     1
102
RTVSPropertyOp51
 70
     0
102
RTVSPropertyOp52
 70
     0
102
RTVSPropertyOp53
 70
     1
102
RTVSPropertyOp54
 70
     1
102
RTVSPropertyOp55
 70
     1
102
RTVSPropertyOp56
 70
     1
102
RTVSPropertyOp57
 70
     1
102
RTVSPost2010Prop28
280
     0
102
RTVSPost2010PropOp28
 70
     1
102
RTVSPost2010Prop29
280
     1
102
RTVSPost2010PropOp29
 70
     1
102
RTVSPost2010Prop30
280
     1
102
RTVSPost2010PropOp30
 70
     1
102
RTVSPost2010Prop31
280
     0
102
RTVSPost2010PropOp31
 70
     1
102
RTVSPost2010Prop32
280
     0
102
RTVSPost2010PropOp32
 70
     1
102
RTVSPost2010Prop33
280
     0
102
RTVSPost2010PropOp33
 70
     1
102
RTVSPost2010Prop34
280
     0
102
RTVSPost2010PropOp34
 70
     1
102
RTVSPost2010Prop35
280
     0
102
RTVSPost2010PropOp35
 70
     1
102
RTVSPost2010Prop36
280
     0
102
RTVSPost2010PropOp36
 70
     1
102
RTVSPost2010Prop37
 90
       50
102
RTVSPost2010PropOp37
 70
     1
102
RTVSPost2010Prop38
140
0.0
102
RTVSPost2010PropOp38
 70
     1
102
RTVSPost2010Prop39
140
1.0
102
RTVSPost2010PropOp39
 70
     1
102
RTVSPost2010Prop40
 90
        0
102
RTVSPost2010PropOp40
 70
     1
102
RTVSPost2010Prop41ColorIndex
 90
       18
102
RTVSPost2010Prop41ColorRGB
 90
        0
102
RTVSPost2010PropOp41
 70
     1
102
RTVSPost2010Prop42
 90
       50
102
RTVSPost2010PropOp42
 70
     1
102
RTVSPost2010Prop43
 90
        3
102
RTVSPost2010PropOp43
 70
     1
102
RTVSPost2010Prop44ColorIndex
 90
        5
102
RTVSPost2010Prop44ColorRGB
 90
      255
102
RTVSPost2010PropOp44
 70
     1
102
RTVSPost2010Prop45
280
     0
102
RTVSPost2010PropOp45
 70
     1
102
RTVSPost2010Prop46
 90
       50
102
RTVSPost2010PropOp46
 70
     1
102
RTVSPost2010Prop47
 90
       50
102
RTVSPost2010PropOp47
 70
     1
102
RTVSPost2010Prop48
 90
       50
102
RTVSPost2010PropOp48
 70
     1
102
RTVSPost2010Prop49
280
     0
102
RTVSPost2010PropOp49
 70
     1
102
RTVSPost2010Prop50
 90
       50
102
RTVSPost2010PropOp50
 70
     1
102
RTVSPost2010Prop51ColorIndex
 90
      256
102
RTVSPost2010Prop51ColorRGB
 90
-16777216
102
RTVSPost2010PropOp51
 70
     0
102
RTVSPost2010Prop52
140
1.0
102
RTVSPost2010PropOp52
 70
     0
102
RTVSPost2010Prop53
 90
        2
102
RTVSPost2010PropOp53
 70
     1
102
RTVSPost2010Prop54
  1
strokes_ogs.tif
102
RTVSPost2010PropOp54
 70
     1
102
RTVSPost2010Prop55
280
     0
102
RTVSPost2010PropOp55
 70
     1
102
RTVSPost2010Prop56
140
1.0
102
RTVSPost2010PropOp56
 70
     1
102
RTVSPost2010Prop57
140
1.0
102
RTVSPost2010PropOp57
 70
     1
  0
XRECORD
  5
4E9
102
{ACAD_REACTORS
330
4E8
102
}
330
4E8
100
AcDbXrecord
280
     1
102
RTVSPropertyOp0
 70
     1
102
RTVSPropertyOp1
 70
     1
102
RTVSPropertyOp2
 70
     1
102
RTVSPropertyOp3
 70
     1
102
RTVSPropertyOp4
 70
     1
102
RTVSPropertyOp5
 70
     1
102
RTVSPropertyOp6
 70
     1
102
RTVSPropertyOp7
 70
     1
102
RTVSPropertyOp8
 70
     1
102
RTVSPropertyOp9
 70
     1
102
RTVSPropertyOp10
 70
     1
102
RTVSPropertyOp11
 70
     1
102
RTVSPropertyOp12
 70
     1
102
RTVSPropertyOp13
 70
     1
102
RTVSPropertyOp14
 70
     1
102
RTVSPropertyOp15
 70
     1
102
RTVSPropertyOp16
 70
     1
102
RTVSPropertyOp17
 70
     1
102
RTVSPropertyOp18
 70
     1
102
RTVSPropertyOp19
 70
     1
102
RTVSPropertyOp20
 70
     1
102
RTVSPropertyOp21
 70
     1
102
RTVSPropertyOp22
 70
     1
102
RTVSPropertyOp23
 70
     1
102
RTVSPropertyOp24
 70
     1
102
RTVSPropertyOp25
 70
     1
102
RTVSPropertyOp26
 70
     1
102
RTVSPropertyOp27
 70
     1
102
RTVSPropertyOp28
 70
     1
102
RTVSPropertyOp29
 70
     1
102
RTVSPropertyOp30
 70
     1
102
RTVSPropertyOp31
 70
     1
102
RTVSPropertyOp32
 70
     1
102
RTVSPropertyOp33
 70
     1
102
RTVSPropertyOp34
 70
     1
102
RTVSPropertyOp35
 70
     1
102
RTVSPropertyOp36
 70
     1
102
RTVSPropertyOp37
 70
     1
102
RTVSPropertyOp38
 70
     1
102
RTVSPropertyOp39
 70
     1
102
RTVSPropertyOp40
 70
     1
102
RTVSPropertyOp41
 70
     1
102
RTVSPropertyOp42
 70
     1
102
RTVSPropertyOp43
 70
     1
102
RTVSPropertyOp44
 70
     1
102
RTVSPropertyOp45
 70
     1
102
RTVSPropertyOp46
 70
     1
102
RTVSPropertyOp47
 70
     1
102
RTVSPropertyOp48
 70
     1
102
RTVSPropertyOp49
 70
     1
102
RTVSPropertyOp50
 70
     1
102
RTVSPropertyOp51
 70
     0
102
RTVSPropertyOp52
 70
     0
102
RTVSPropertyOp53
 70
     1
102
RTVSPropertyOp54
 70
     1
102
RTVSPropertyOp55
 70
     1
102
RTVSPropertyOp56
 70
     1
102
RTVSPropertyOp57
 70
     1
102
RTVSPost2010Prop28
280
     0
102
RTVSPost2010PropOp28
 70
     1
102
RTVSPost2010Prop29
280
     1
102
RTVSPost2010PropOp29
 70
     1
102
RTVSPost2010Prop30
280
     1
102
RTVSPost2010PropOp30
 70
     1
102
RTVSPost2010Prop31
280
     0
102
RTVSPost2010PropOp31
 70
     1
102
RTVSPost2010Prop32
280
     0
102
RTVSPost2010PropOp32
 70
     1
102
RTVSPost2010Prop33
280
     0
102
RTVSPost2010PropOp33
 70
     1
102
RTVSPost2010Prop34
280
     0
102
RTVSPost2010PropOp34
 70
     1
102
RTVSPost2010Prop35
280
     0
102
RTVSPost2010PropOp35
 70
     1
102
RTVSPost2010Prop36
280
     0
102
RTVSPost2010PropOp36
 70
     1
102
RTVSPost2010Prop37
 90
       50
102
RTVSPost2010PropOp37
 70
     1
102
RTVSPost2010Prop38
140
0.0
102
RTVSPost2010PropOp38
 70
     1
102
RTVSPost2010Prop39
140
1.0
102
RTVSPost2010PropOp39
 70
     1
102
RTVSPost2010Prop40
 90
        0
102
RTVSPost2010PropOp40
 70
     1
102
RTVSPost2010Prop41ColorIndex
 90
       18
102
RTVSPost2010Prop41ColorRGB
 90
        0
102
RTVSPost2010PropOp41
 70
     1
102
RTVSPost2010Prop42
 90
       50
102
RTVSPost2010PropOp42
 70
     1
102
RTVSPost2010Prop43
 90
        3
102
RTVSPost2010PropOp43
 70
     1
102
RTVSPost2010Prop44ColorIndex
 90
        5
102
RTVSPost2010Prop44ColorRGB
 90
      255
102
RTVSPost2010PropOp44
 70
     1
102
RTVSPost2010Prop45
280
     0
102
RTVSPost2010PropOp45
 70
     1
102
RTVSPost2010Prop46
 90
       50
102
RTVSPost2010PropOp46
 70
     1
102
RTVSPost2010Prop47
 90
       50
102
RTVSPost2010PropOp47
 70
     1
102
RTVSPost2010Prop48
 90
       50
102
RTVSPost2010PropOp48
 70
     1
102
RTVSPost2010Prop49
280
     0
102
RTVSPost2010PropOp49
 70
     1
102
RTVSPost2010Prop50
 90
       50
102
RTVSPost2010PropOp50
 70
     1
102
RTVSPost2010Prop51ColorIndex
 90
      256
102
RTVSPost2010Prop51ColorRGB
 90
-16777216
102
RTVSPost2010PropOp51
 70
     0
102
RTVSPost2010Prop52
140
1.0
102
RTVSPost2010PropOp52
 70
     0
102
RTVSPost2010Prop53
 90
        2
102
RTVSPost2010PropOp53
 70
     1
102
RTVSPost2010Prop54
  1
strokes_ogs.tif
102
RTVSPost2010PropOp54
 70
     1
102
RTVSPost2010Prop55
280
     0
102
RTVSPost2010PropOp55
 70
     1
102
RTVSPost2010Prop56
140
1.0
102
RTVSPost2010PropOp56
 70
     1
102
RTVSPost2010Prop57
140
1.0
102
RTVSPost2010PropOp57
 70
     1
  0
XRECORD
  5
4D9
102
{ACAD_REACTORS
330
4D8
102
}
330
4D8
100
AcDbXrecord
280
     1
102
RTVSPropertyOp0
 70
     1
102
RTVSPropertyOp1
 70
     1
102
RTVSPropertyOp2
 70
     1
102
RTVSPropertyOp3
 70
     1
102
RTVSPropertyOp4
 70
     1
102
RTVSPropertyOp5
 70
     1
102
RTVSPropertyOp6
 70
     1
102
RTVSPropertyOp7
 70
     1
102
RTVSPropertyOp8
 70
     1
102
RTVSPropertyOp9
 70
     1
102
RTVSPropertyOp10
 70
     1
102
RTVSPropertyOp11
 70
     1
102
RTVSPropertyOp12
 70
     1
102
RTVSPropertyOp13
 70
     1
102
RTVSPropertyOp14
 70
     1
102
RTVSPropertyOp15
 70
     1
102
RTVSPropertyOp16
 70
     1
102
RTVSPropertyOp17
 70
     1
102
RTVSPropertyOp18
 70
     1
102
RTVSPropertyOp19
 70
     1
102
RTVSPropertyOp20
 70
     1
102
RTVSPropertyOp21
 70
     1
102
RTVSPropertyOp22
 70
     1
102
RTVSPropertyOp23
 70
     1
102
RTVSPropertyOp24
 70
     1
102
RTVSPropertyOp25
 70
     1
102
RTVSPropertyOp26
 70
     1
102
RTVSPropertyOp27
 70
     1
102
RTVSPropertyOp28
 70
     1
102
RTVSPropertyOp29
 70
     1
102
RTVSPropertyOp30
 70
     1
102
RTVSPropertyOp31
 70
     1
102
RTVSPropertyOp32
 70
     1
102
RTVSPropertyOp33
 70
     1
102
RTVSPropertyOp34
 70
     1
102
RTVSPropertyOp35
 70
     1
102
RTVSPropertyOp36
 70
     1
102
RTVSPropertyOp37
 70
     1
102
RTVSPropertyOp38
 70
     1
102
RTVSPropertyOp39
 70
     1
102
RTVSPropertyOp40
 70
     1
102
RTVSPropertyOp41
 70
     1
102
RTVSPropertyOp42
 70
     1
102
RTVSPropertyOp43
 70
     1
102
RTVSPropertyOp44
 70
     1
102
RTVSPropertyOp45
 70
     1
102
RTVSPropertyOp46
 70
     1
102
RTVSPropertyOp47
 70
     1
102
RTVSPropertyOp48
 70
     1
102
RTVSPropertyOp49
 70
     1
102
RTVSPropertyOp50
 70
     1
102
RTVSPropertyOp51
 70
     0
102
RTVSPropertyOp52
 70
     0
102
RTVSPropertyOp53
 70
     1
102
RTVSPropertyOp54
 70
     1
102
RTVSPropertyOp55
 70
     1
102
RTVSPropertyOp56
 70
     1
102
RTVSPropertyOp57
 70
     1
102
RTVSPost2010Prop28
280
     0
102
RTVSPost2010PropOp28
 70
     1
102
RTVSPost2010Prop29
280
     1
102
RTVSPost2010PropOp29
 70
     1
102
RTVSPost2010Prop30
280
     1
102
RTVSPost2010PropOp30
 70
     1
102
RTVSPost2010Prop31
280
     0
102
RTVSPost2010PropOp31
 70
     1
102
RTVSPost2010Prop32
280
     0
102
RTVSPost2010PropOp32
 70
     1
102
RTVSPost2010Prop33
280
     0
102
RTVSPost2010PropOp33
 70
     1
102
RTVSPost2010Prop34
280
     0
102
RTVSPost2010PropOp34
 70
     1
102
RTVSPost2010Prop35
280
     0
102
RTVSPost2010PropOp35
 70
     1
102
RTVSPost2010Prop36
280
     0
102
RTVSPost2010PropOp36
 70
     1
102
RTVSPost2010Prop37
 90
       50
102
RTVSPost2010PropOp37
 70
     1
102
RTVSPost2010Prop38
140
0.0
102
RTVSPost2010PropOp38
 70
     1
102
RTVSPost2010Prop39
140
1.0
102
RTVSPost2010PropOp39
 70
     1
102
RTVSPost2010Prop40
 90
        0
102
RTVSPost2010PropOp40
 70
     1
102
RTVSPost2010Prop41ColorIndex
 90
       18
102
RTVSPost2010Prop41ColorRGB
 90
        0
102
RTVSPost2010PropOp41
 70
     1
102
RTVSPost2010Prop42
 90
       50
102
RTVSPost2010PropOp42
 70
     1
102
RTVSPost2010Prop43
 90
        3
102
RTVSPost2010PropOp43
 70
     1
102
RTVSPost2010Prop44ColorIndex
 90
        5
102
RTVSPost2010Prop44ColorRGB
 90
      255
102
RTVSPost2010PropOp44
 70
     1
102
RTVSPost2010Prop45
280
     0
102
RTVSPost2010PropOp45
 70
     1
102
RTVSPost2010Prop46
 90
       50
102
RTVSPost2010PropOp46
 70
     1
102
RTVSPost2010Prop47
 90
       50
102
RTVSPost2010PropOp47
 70
     1
102
RTVSPost2010Prop48
 90
       50
102
RTVSPost2010PropOp48
 70
     1
102
RTVSPost2010Prop49
280
     0
102
RTVSPost2010PropOp49
 70
     1
102
RTVSPost2010Prop50
 90
       50
102
RTVSPost2010PropOp50
 70
     1
102
RTVSPost2010Prop51ColorIndex
 90
      256
102
RTVSPost2010Prop51ColorRGB
 90
-16777216
102
RTVSPost2010PropOp51
 70
     0
102
RTVSPost2010Prop52
140
1.0
102
RTVSPost2010PropOp52
 70
     0
102
RTVSPost2010Prop53
 90
        2
102
RTVSPost2010PropOp53
 70
     1
102
RTVSPost2010Prop54
  1
strokes_ogs.tif
102
RTVSPost2010PropOp54
 70
     1
102
RTVSPost2010Prop55
280
     0
102
RTVSPost2010PropOp55
 70
     1
102
RTVSPost2010Prop56
140
1.0
102
RTVSPost2010PropOp56
 70
     1
102
RTVSPost2010Prop57
140
1.0
102
RTVSPost2010PropOp57
 70
     1
  0
XRECORD
  5
4CB
102
{ACAD_REACTORS
330
4CA
102
}
330
4CA
100
AcDbXrecord
280
     1
102
RTVSPropertyOp0
 70
     1
102
RTVSPropertyOp1
 70
     1
102
RTVSPropertyOp2
 70
     1
102
RTVSPropertyOp3
 70
     1
102
RTVSPropertyOp4
 70
     1
102
RTVSPropertyOp5
 70
     1
102
RTVSPropertyOp6
 70
     1
102
RTVSPropertyOp7
 70
     1
102
RTVSPropertyOp8
 70
     1
102
RTVSPropertyOp9
 70
     1
102
RTVSPropertyOp10
 70
     1
102
RTVSPropertyOp11
 70
     1
102
RTVSPropertyOp12
 70
     1
102
RTVSPropertyOp13
 70
     1
102
RTVSPropertyOp14
 70
     1
102
RTVSPropertyOp15
 70
     1
102
RTVSPropertyOp16
 70
     1
102
RTVSPropertyOp17
 70
     1
102
RTVSPropertyOp18
 70
     1
102
RTVSPropertyOp19
 70
     1
102
RTVSPropertyOp20
 70
     1
102
RTVSPropertyOp21
 70
     1
102
RTVSPropertyOp22
 70
     1
102
RTVSPropertyOp23
 70
     1
102
RTVSPropertyOp24
 70
     1
102
RTVSPropertyOp25
 70
     1
102
RTVSPropertyOp26
 70
     1
102
RTVSPropertyOp27
 70
     1
102
RTVSPropertyOp28
 70
     1
102
RTVSPropertyOp29
 70
     1
102
RTVSPropertyOp30
 70
     1
102
RTVSPropertyOp31
 70
     1
102
RTVSPropertyOp32
 70
     1
102
RTVSPropertyOp33
 70
     1
102
RTVSPropertyOp34
 70
     1
102
RTVSPropertyOp35
 70
     1
102
RTVSPropertyOp36
 70
     1
102
RTVSPropertyOp37
 70
     1
102
RTVSPropertyOp38
 70
     1
102
RTVSPropertyOp39
 70
     1
102
RTVSPropertyOp40
 70
     1
102
RTVSPropertyOp41
 70
     1
102
RTVSPropertyOp42
 70
     1
102
RTVSPropertyOp43
 70
     1
102
RTVSPropertyOp44
 70
     1
102
RTVSPropertyOp45
 70
     1
102
RTVSPropertyOp46
 70
     1
102
RTVSPropertyOp47
 70
     1
102
RTVSPropertyOp48
 70
     1
102
RTVSPropertyOp49
 70
     1
102
RTVSPropertyOp50
 70
     1
102
RTVSPropertyOp51
 70
     0
102
RTVSPropertyOp52
 70
     0
102
RTVSPropertyOp53
 70
     1
102
RTVSPropertyOp54
 70
     1
102
RTVSPropertyOp55
 70
     1
102
RTVSPropertyOp56
 70
     1
102
RTVSPropertyOp57
 70
     1
102
RTVSPost2010Prop28
280
     0
102
RTVSPost2010PropOp28
 70
     1
102
RTVSPost2010Prop29
280
     1
102
RTVSPost2010PropOp29
 70
     1
102
RTVSPost2010Prop30
280
     1
102
RTVSPost2010PropOp30
 70
     1
102
RTVSPost2010Prop31
280
     0
102
RTVSPost2010PropOp31
 70
     1
102
RTVSPost2010Prop32
280
     0
102
RTVSPost2010PropOp32
 70
     1
102
RTVSPost2010Prop33
280
     0
102
RTVSPost2010PropOp33
 70
     1
102
RTVSPost2010Prop34
280
     0
102
RTVSPost2010PropOp34
 70
     1
102
RTVSPost2010Prop35
280
     0
102
RTVSPost2010PropOp35
 70
     1
102
RTVSPost2010Prop36
280
     0
102
RTVSPost2010PropOp36
 70
     1
102
RTVSPost2010Prop37
 90
       50
102
RTVSPost2010PropOp37
 70
     1
102
RTVSPost2010Prop38
140
0.0
102
RTVSPost2010PropOp38
 70
     1
102
RTVSPost2010Prop39
140
1.0
102
RTVSPost2010PropOp39
 70
     1
102
RTVSPost2010Prop40
 90
        0
102
RTVSPost2010PropOp40
 70
     1
102
RTVSPost2010Prop41ColorIndex
 90
       18
102
RTVSPost2010Prop41ColorRGB
 90
        0
102
RTVSPost2010PropOp41
 70
     1
102
RTVSPost2010Prop42
 90
       50
102
RTVSPost2010PropOp42
 70
     1
102
RTVSPost2010Prop43
 90
        3
102
RTVSPost2010PropOp43
 70
     1
102
RTVSPost2010Prop44ColorIndex
 90
        5
102
RTVSPost2010Prop44ColorRGB
 90
      255
102
RTVSPost2010PropOp44
 70
     1
102
RTVSPost2010Prop45
280
     0
102
RTVSPost2010PropOp45
 70
     1
102
RTVSPost2010Prop46
 90
       50
102
RTVSPost2010PropOp46
 70
     1
102
RTVSPost2010Prop47
 90
       50
102
RTVSPost2010PropOp47
 70
     1
102
RTVSPost2010Prop48
 90
       50
102
RTVSPost2010PropOp48
 70
     1
102
RTVSPost2010Prop49
280
     0
102
RTVSPost2010PropOp49
 70
     1
102
RTVSPost2010Prop50
 90
       50
102
RTVSPost2010PropOp50
 70
     1
102
RTVSPost2010Prop51ColorIndex
 90
      256
102
RTVSPost2010Prop51ColorRGB
 90
-16777216
102
RTVSPost2010PropOp51
 70
     0
102
RTVSPost2010Prop52
140
1.0
102
RTVSPost2010PropOp52
 70
     0
102
RTVSPost2010Prop53
 90
        2
102
RTVSPost2010PropOp53
 70
     1
102
RTVSPost2010Prop54
  1
strokes_ogs.tif
102
RTVSPost2010PropOp54
 70
     1
102
RTVSPost2010Prop55
280
     0
102
RTVSPost2010PropOp55
 70
     1
102
RTVSPost2010Prop56
140
1.0
102
RTVSPost2010PropOp56
 70
     1
102
RTVSPost2010Prop57
140
1.0
102
RTVSPost2010PropOp57
 70
     1
  0
XRECORD
  5
4EB
102
{ACAD_REACTORS
330
4EA
102
}
330
4EA
100
AcDbXrecord
280
     1
102
RTVSPropertyOp0
 70
     1
102
RTVSPropertyOp1
 70
     1
102
RTVSPropertyOp2
 70
     1
102
RTVSPropertyOp3
 70
     1
102
RTVSPropertyOp4
 70
     1
102
RTVSPropertyOp5
 70
     1
102
RTVSPropertyOp6
 70
     1
102
RTVSPropertyOp7
 70
     1
102
RTVSPropertyOp8
 70
     1
102
RTVSPropertyOp9
 70
     1
102
RTVSPropertyOp10
 70
     1
102
RTVSPropertyOp11
 70
     1
102
RTVSPropertyOp12
 70
     1
102
RTVSPropertyOp13
 70
     1
102
RTVSPropertyOp14
 70
     1
102
RTVSPropertyOp15
 70
     1
102
RTVSPropertyOp16
 70
     1
102
RTVSPropertyOp17
 70
     1
102
RTVSPropertyOp18
 70
     1
102
RTVSPropertyOp19
 70
     1
102
RTVSPropertyOp20
 70
     1
102
RTVSPropertyOp21
 70
     1
102
RTVSPropertyOp22
 70
     1
102
RTVSPropertyOp23
 70
     1
102
RTVSPropertyOp24
 70
     1
102
RTVSPropertyOp25
 70
     1
102
RTVSPropertyOp26
 70
     1
102
RTVSPropertyOp27
 70
     1
102
RTVSPropertyOp28
 70
     1
102
RTVSPropertyOp29
 70
     1
102
RTVSPropertyOp30
 70
     1
102
RTVSPropertyOp31
 70
     1
102
RTVSPropertyOp32
 70
     1
102
RTVSPropertyOp33
 70
     1
102
RTVSPropertyOp34
 70
     1
102
RTVSPropertyOp35
 70
     1
102
RTVSPropertyOp36
 70
     1
102
RTVSPropertyOp37
 70
     1
102
RTVSPropertyOp38
 70
     1
102
RTVSPropertyOp39
 70
     1
102
RTVSPropertyOp40
 70
     1
102
RTVSPropertyOp41
 70
     1
102
RTVSPropertyOp42
 70
     1
102
RTVSPropertyOp43
 70
     1
102
RTVSPropertyOp44
 70
     1
102
RTVSPropertyOp45
 70
     1
102
RTVSPropertyOp46
 70
     1
102
RTVSPropertyOp47
 70
     1
102
RTVSPropertyOp48
 70
     1
102
RTVSPropertyOp49
 70
     1
102
RTVSPropertyOp50
 70
     1
102
RTVSPropertyOp51
 70
     0
102
RTVSPropertyOp52
 70
     0
102
RTVSPropertyOp53
 70
     1
102
RTVSPropertyOp54
 70
     1
102
RTVSPropertyOp55
 70
     1
102
RTVSPropertyOp56
 70
     1
102
RTVSPropertyOp57
 70
     1
102
RTVSPost2010Prop28
280
     0
102
RTVSPost2010PropOp28
 70
     1
102
RTVSPost2010Prop29
280
     1
102
RTVSPost2010PropOp29
 70
     1
102
RTVSPost2010Prop30
280
     1
102
RTVSPost2010PropOp30
 70
     1
102
RTVSPost2010Prop31
280
     0
102
RTVSPost2010PropOp31
 70
     1
102
RTVSPost2010Prop32
280
     0
102
RTVSPost2010PropOp32
 70
     1
102
RTVSPost2010Prop33
280
     0
102
RTVSPost2010PropOp33
 70
     1
102
RTVSPost2010Prop34
280
     0
102
RTVSPost2010PropOp34
 70
     1
102
RTVSPost2010Prop35
280
     0
102
RTVSPost2010PropOp35
 70
     1
102
RTVSPost2010Prop36
280
     0
102
RTVSPost2010PropOp36
 70
     1
102
RTVSPost2010Prop37
 90
       50
102
RTVSPost2010PropOp37
 70
     1
102
RTVSPost2010Prop38
140
0.0
102
RTVSPost2010PropOp38
 70
     1
102
RTVSPost2010Prop39
140
1.0
102
RTVSPost2010PropOp39
 70
     1
102
RTVSPost2010Prop40
 90
        0
102
RTVSPost2010PropOp40
 70
     1
102
RTVSPost2010Prop41ColorIndex
 90
       18
102
RTVSPost2010Prop41ColorRGB
 90
        0
102
RTVSPost2010PropOp41
 70
     1
102
RTVSPost2010Prop42
 90
       50
102
RTVSPost2010PropOp42
 70
     1
102
RTVSPost2010Prop43
 90
        3
102
RTVSPost2010PropOp43
 70
     1
102
RTVSPost2010Prop44ColorIndex
 90
        5
102
RTVSPost2010Prop44ColorRGB
 90
      255
102
RTVSPost2010PropOp44
 70
     1
102
RTVSPost2010Prop45
280
     0
102
RTVSPost2010PropOp45
 70
     1
102
RTVSPost2010Prop46
 90
       50
102
RTVSPost2010PropOp46
 70
     1
102
RTVSPost2010Prop47
 90
       50
102
RTVSPost2010PropOp47
 70
     1
102
RTVSPost2010Prop48
 90
       50
102
RTVSPost2010PropOp48
 70
     1
102
RTVSPost2010Prop49
280
     0
102
RTVSPost2010PropOp49
 70
     1
102
RTVSPost2010Prop50
 90
       50
102
RTVSPost2010PropOp50
 70
     1
102
RTVSPost2010Prop51ColorIndex
 90
      256
102
RTVSPost2010Prop51ColorRGB
 90
-16777216
102
RTVSPost2010PropOp51
 70
     0
102
RTVSPost2010Prop52
140
1.0
102
RTVSPost2010PropOp52
 70
     0
102
RTVSPost2010Prop53
 90
        2
102
RTVSPost2010PropOp53
 70
     1
102
RTVSPost2010Prop54
  1
strokes_ogs.tif
102
RTVSPost2010PropOp54
 70
     1
102
RTVSPost2010Prop55
280
     0
102
RTVSPost2010PropOp55
 70
     1
102
RTVSPost2010Prop56
140
1.0
102
RTVSPost2010PropOp56
 70
     1
102
RTVSPost2010Prop57
140
1.0
102
RTVSPost2010PropOp57
 70
     1
  0
ENDSEC
  0
EOF
