  0
SECTION
  2
HEADER
  9
$ACADVER
  1
AC1015
  9
$ACADMAINTVER
 70
    20
  9
$DWGCODEPAGE
  3
ANSI_1252
  9
$INSBASE
 10
0.0
 20
0.0
 30
0.0
  9
$EXTMIN
 10
-208.09585492228
 20
-100.103626943005
 30
0.0
  9
$EXTMAX
 10
143.354922279793
 20
106.7646657571623
 30
0.0
  9
$LIMMIN
 10
0.0
 20
0.0
  9
$LIMMAX
 10
12.0
 20
9.0
  9
$ORTHOMODE
 70
     0
  9
$REGENMODE
 70
     1
  9
$FILLMODE
 70
     1
  9
$QTEXTMODE
 70
     0
  9
$MIRRTEXT
 70
     1
  9
$LTSCALE
 40
1.0
  9
$ATTMODE
 70
     1
  9
$TEXTSIZE
 40
0.2
  9
$TRACEWID
 40
0.05
  9
$TEXTSTYLE
  7
Standard
  9
$CLAYER
  8
0
  9
$CELTYPE
  6
ByLayer
  9
$CECOLOR
 62
   256
  9
$CELTSCALE
 40
1.0
  9
$DISPSILH
 70
     0
  9
$DIMSCALE
 40
1.0
  9
$DIMASZ
 40
2.5
  9
$DIMEXO
 40
0.625
  9
$DIMDLI
 40
0.38
  9
$DIMRND
 40
0.0
  9
$DIMDLE
 40
0.0
  9
$DIMEXE
 40
1.25
  9
$DIMTP
 40
0.0
  9
$DIMTM
 40
0.000000001
  9
$DIMTXT
 40
2.5
  9
$DIMCEN
 40
0.09
  9
$DIMTSZ
 40
0.0
  9
$DIMTOL
 70
     1
  9
$DIMLIM
 70
     0
  9
$DIMTIH
 70
     0
  9
$DIMTOH
 70
     0
  9
$DIMSE1
 70
     0
  9
$DIMSE2
 70
     0
  9
$DIMTAD
 70
     1
  9
$DIMZIN
 70
     0
  9
$DIMBLK
  1
VDDIM_DEFAULT
  9
$DIMASO
 70
     1
  9
$DIMSHO
 70
     1
  9
$DIMPOST
  1

  9
$DIMAPOST
  1

  9
$DIMALT
 70
     0
  9
$DIMALTD
 70
     2
  9
$DIMALTF
 40
25.4
  9
$DIMLFAC
 40
1.0
  9
$DIMTOFL
 70
     0
  9
$DIMTVP
 40
0.0
  9
$DIMTIX
 70
     0
  9
$DIMSOXD
 70
     0
  9
$DIMSAH
 70
     0
  9
$DIMBLK1
  1

  9
$DIMBLK2
  1

  9
$DIMSTYLE
  2
BEM-ISBE
  9
$DIMCLRD
 70
     0
  9
$DIMCLRE
 70
     0
  9
$DIMCLRT
 70
     0
  9
$DIMTFAC
 40
0.5
  9
$DIMGAP
 40
0.625
  9
$DIMJUST
 70
     0
  9
$DIMSD1
 70
     0
  9
$DIMSD2
 70
     0
  9
$DIMTOLJ
 70
     1
  9
$DIMTZIN
 70
     0
  9
$DIMALTZ
 70
     0
  9
$DIMALTTZ
 70
     0
  9
$DIMUPT
 70
     0
  9
$DIMDEC
 70
     3
  9
$DIMTDEC
 70
     3
  9
$DIMALTU
 70
     2
  9
$DIMALTTD
 70
     2
  9
$DIMTXSTY
  7
Standard
  9
$DIMAUNIT
 70
     0
  9
$DIMADEC
 70
     3
  9
$DIMALTRND
 40
0.0
  9
$DIMAZIN
 70
     0
  9
$DIMDSEP
 70
    46
  9
$DIMATFIT
 70
     3
  9
$DIMFRAC
 70
     0
  9
$DIMLDRBLK
  1

  9
$DIMLUNIT
 70
     2
  9
$DIMLWD
 70
    -2
  9
$DIMLWE
 70
    -2
  9
$DIMTMOVE
 70
     0
  9
$LUNITS
 70
     2
  9
$LUPREC
 70
     4
  9
$SKETCHINC
 40
0.1
  9
$FILLETRAD
 40
0.0
  9
$AUNITS
 70
     0
  9
$AUPREC
 70
     0
  9
$MENU
  1
.
  9
$ELEVATION
 40
0.0
  9
$PELEVATION
 40
0.0
  9
$THICKNESS
 40
0.0
  9
$LIMCHECK
 70
     0
  9
$CHAMFERA
 40
0.5
  9
$CHAMFERB
 40
0.5
  9
$CHAMFERC
 40
1.0
  9
$CHAMFERD
 40
0.0
  9
$SKPOLY
 70
     0
  9
$TDCREATE
 40
2457002.636171123
  9
$TDUCREATE
 40
2457002.594504456
  9
$TDUPDATE
 40
2457002.639396192
  9
$TDUUPDATE
 40
2457002.597729526
  9
$TDINDWG
 40
0.0032262153
  9
$TDUSRTIMER
 40
0.0032261690
  9
$USRTIMER
 70
     1
  9
$ANGBASE
 50
0.0
  9
$ANGDIR
 70
     0
  9
$PDMODE
 70
     0
  9
$PDSIZE
 40
0.0
  9
$PLINEWID
 40
0.0
  9
$SPLFRAME
 70
     0
  9
$SPLINETYPE
 70
     6
  9
$SPLINESEGS
 70
     8
  9
$HANDSEED
  5
F10A7E
  9
$SURFTAB1
 70
     6
  9
$SURFTAB2
 70
     6
  9
$SURFTYPE
 70
     6
  9
$SURFU
 70
     6
  9
$SURFV
 70
     6
  9
$UCSBASE
  2

  9
$UCSNAME
  2

  9
$UCSORG
 10
-12.09107328569865
 20
7.106359788176205
 30
0.0
  9
$UCSXDIR
 10
1.0
 20
0.0
 30
0.0
  9
$UCSYDIR
 10
0.0
 20
1.0
 30
0.0
  9
$UCSORTHOREF
  2

  9
$UCSORTHOVIEW
 70
     0
  9
$UCSORGTOP
 10
0.0
 20
0.0
 30
0.0
  9
$UCSORGBOTTOM
 10
0.0
 20
0.0
 30
0.0
  9
$UCSORGLEFT
 10
0.0
 20
0.0
 30
0.0
  9
$UCSORGRIGHT
 10
0.0
 20
0.0
 30
0.0
  9
$UCSORGFRONT
 10
0.0
 20
0.0
 30
0.0
  9
$UCSORGBACK
 10
0.0
 20
0.0
 30
0.0
  9
$PUCSBASE
  2

  9
$PUCSNAME
  2

  9
$PUCSORG
 10
0.0
 20
0.0
 30
0.0
  9
$PUCSXDIR
 10
1.0
 20
0.0
 30
0.0
  9
$PUCSYDIR
 10
0.0
 20
1.0
 30
0.0
  9
$PUCSORTHOREF
  2

  9
$PUCSORTHOVIEW
 70
     0
  9
$PUCSORGTOP
 10
0.0
 20
0.0
 30
0.0
  9
$PUCSORGBOTTOM
 10
0.0
 20
0.0
 30
0.0
  9
$PUCSORGLEFT
 10
0.0
 20
0.0
 30
0.0
  9
$PUCSORGRIGHT
 10
0.0
 20
0.0
 30
0.0
  9
$PUCSORGFRONT
 10
0.0
 20
0.0
 30
0.0
  9
$PUCSORGBACK
 10
0.0
 20
0.0
 30
0.0
  9
$USERI1
 70
     0
  9
$USERI2
 70
     0
  9
$USERI3
 70
     0
  9
$USERI4
 70
     0
  9
$USERI5
 70
     0
  9
$USERR1
 40
0.0
  9
$USERR2
 40
0.0
  9
$USERR3
 40
0.0
  9
$USERR4
 40
0.0
  9
$USERR5
 40
0.0
  9
$WORLDVIEW
 70
     1
  9
$SHADEDGE
 70
     3
  9
$SHADEDIF
 70
    70
  9
$TILEMODE
 70
     1
  9
$MAXACTVP
 70
    64
  9
$PINSBASE
 10
0.0
 20
0.0
 30
0.0
  9
$PLIMCHECK
 70
     0
  9
$PEXTMIN
 10
1.000000000000000E+20
 20
1.000000000000000E+20
 30
1.000000000000000E+20
  9
$PEXTMAX
 10
-1.000000000000000E+20
 20
-1.000000000000000E+20
 30
-1.000000000000000E+20
  9
$PLIMMIN
 10
0.0
 20
0.0
  9
$PLIMMAX
 10
12.0
 20
9.0
  9
$UNITMODE
 70
     0
  9
$VISRETAIN
 70
     1
  9
$PLINEGEN
 70
     0
  9
$PSLTSCALE
 70
     1
  9
$TREEDEPTH
 70
  3020
  9
$CMLSTYLE
  2
Standard
  9
$CMLJUST
 70
     0
  9
$CMLSCALE
 40
1.0
  9
$PROXYGRAPHICS
 70
     1
  9
$MEASUREMENT
 70
     0
  9
$CELWEIGHT
370
    -1
  9
$ENDCAPS
280
     0
  9
$JOINSTYLE
280
     0
  9
$LWDISPLAY
290
     0
  9
$INSUNITS
 70
     4
  9
$HYPERLINKBASE
  1

  9
$STYLESHEET
  1

  9
$XEDIT
290
     1
  9
$CEPSNTYPE
380
     0
  9
$PSTYLEMODE
290
     0
  9
$FINGERPRINTGUID
  2
{FAEB1C30-E019-11D5-929B-00C0DF256EC4}
  9
$VERSIONGUID
  2
{82357B8D-99FC-42B3-863D-E73FC0935FB2}
  9
$EXTNAMES
290
     1
  9
$PSVPSCALE
 40
0.0
  9
$OLESTARTUP
290
     0
  0
ENDSEC
  0
SECTION
  2
CLASSES
  0
CLASS
  1
ACDBDICTIONARYWDFLT
  2
AcDbDictionaryWithDefault
  3
ObjectDBX Classes
 90
        0
280
     0
281
     0
  0
CLASS
  1
MATERIAL
  2
AcDbMaterial
  3
ObjectDBX Classes
 90
     1153
280
     0
281
     0
  0
CLASS
  1
MLEADERSTYLE
  2
AcDbMLeaderStyle
  3
ACDB_MLEADERSTYLE_CLASS
 90
     4095
280
     0
281
     0
  0
CLASS
  1
SCALE
  2
AcDbScale
  3
ObjectDBX Classes
 90
     1153
280
     0
281
     0
  0
CLASS
  1
TABLESTYLE
  2
AcDbTableStyle
  3
ObjectDBX Classes
 90
     4095
280
     0
281
     0
  0
CLASS
  1
VISUALSTYLE
  2
AcDbVisualStyle
  3
ObjectDBX Classes
 90
     4095
280
     0
281
     0
  0
CLASS
  1
DICTIONARYVAR
  2
AcDbDictionaryVar
  3
ObjectDBX Classes
 90
        0
280
     0
281
     0
  0
CLASS
  1
CELLSTYLEMAP
  2
AcDbCellStyleMap
  3
ObjectDBX Classes
 90
     1152
280
     0
281
     0
  0
CLASS
  1
AMGSETTINGSOBJ
  2
AmgSettingsObj
  3
"AcadM|Product Description: AutoCAD Mechanical|Company: Autodesk, Inc."
 90
     1024
280
     0
281
     0
  0
CLASS
  1
ACME_DOCUMENT
  2
AcMeDbDoc
  3
AcMeServices
 90
     1024
280
     0
281
     0
  0
CLASS
  1
ACMESCOPE
  2
AcMeScope
  3
AcMeServices
 90
     1024
280
     0
281
     0
  0
CLASS
  1
ACMECOMMANDHISTORY
  2
AcMeCommandHistory
  3
AcMeServices
 90
     1024
280
     0
281
     0
  0
CLASS
  1
ACIMSYSVARMAN
  2
AcImSysVarManager
  3
AcMeServices
 90
     1024
280
     0
281
     0
  0
CLASS
  1
ACIMINTSYSVAR
  2
AcImIntSysVar
  3
AcMeServices
 90
     1024
280
     0
281
     0
  0
CLASS
  1
ACMESTATEMGR
  2
AcMeStateMgr
  3
AcMeServices
 90
     1024
280
     0
281
     0
  0
CLASS
  1
ACDBENTITYCACHE
  2
AcMeEntityCache
  3
AcMeServices
 90
     1024
280
     0
281
     0
  0
CLASS
  1
ACGREFMASTER
  2
AcGrefMaster
  3
AcAttribServices
 90
     1024
280
     0
281
     0
  0
CLASS
  1
AM_DRAWING_MGR
  2
AcDmDwgMgr
  3
AcMechDwgViewMgmt
 90
     1024
280
     0
281
     0
  0
CLASS
  1
AM_DWG_DOCUMENT
  2
AcDmDwgDocument
  3
AcMechDwgViewMgmt
 90
     1024
280
     0
281
     0
  0
CLASS
  1
AM_DWG_SHEET
  2
AcDmSheet
  3
AcMechDwgViewMgmt
 90
     1024
280
     0
281
     0
  0
CLASS
  1
AM_VIEWDIMPARMAP
  2
AcDmViewDimParMap
  3
AcMechDwgViewMgmt
 90
     1024
280
     0
281
     0
  0
CLASS
  1
AMDTINTERNALREACTOR
  2
AmdtInternalReactor
  3
AcMeServices
 90
     1024
280
     0
281
     0
  0
CLASS
  1
ACIMREALSYSVAR
  2
AcImRealSysVar
  3
AcMeServices
 90
     1024
280
     0
281
     0
  0
CLASS
  1
AM_DWGMGR_NAME
  2
AcDmDwgMgrName
  3
AcMechDwgViewMgmt
 90
     1024
280
     0
281
     0
  0
CLASS
  1
ACME_DATABASE
  2
AcMeDbDatabase
  3
AcMeServices
 90
     1024
280
     0
281
     0
  0
CLASS
  1
ACRFINSADJUSTERMGR
  2
AcRfInsAdjusterMgr
  3
AcMeServices
 90
     1024
280
     0
281
     0
  0
CLASS
  1
ACGREFACADMASTER
  2
AcGrefacadMaster
  3
AcGrefServices
 90
     1024
280
     0
281
     0
  0
CLASS
  1
AMDTMENUSTATEMGR
  2
AmdtMenuStateMgr
  3
McadcomServices
 90
     1024
280
     0
281
     0
  0
CLASS
  1
AMDTMCOMMENUSTATE
  2
AmdtMcomMenuState
  3
McadcomServices
 90
     1024
280
     0
281
     0
  0
CLASS
  1
AMIMASTER
  2
AmiMaster
  3
AmiServices
 90
     1024
280
     0
281
     0
  0
CLASS
  1
MAPIAMMOUDLE
  2
MApiAmModule
  3
MApiAmServices
 90
     1024
280
     0
281
     0
  0
CLASS
  1
ACIMSTRSYSVAR
  2
AcImStrSysVar
  3
AcMeServices
 90
     1024
280
     0
281
     0
  0
CLASS
  1
AMDTDMMENUSTATE
  2
AmdtDmMenuState
  3
AcMechDwgViewMgmt
 90
     1024
280
     0
281
     0
  0
CLASS
  1
AMDTAMMENUSTATE
  2
AmdtAmMenuState
  3
DesignerAssemblies
 90
     1024
280
     0
281
     0
  0
CLASS
  1
ACAMPROJECT
  2
AcAmProject
  3
DesignerAssemblies
 90
     1024
280
     0
281
     0
  0
CLASS
  1
ACAMGRCOMPDEF
  2
AcAmGrCompDef
  3
DesignerAssemblies
 90
     1024
280
     0
281
     0
  0
CLASS
  1
ACAMCOMPDEF
  2
AcAmCompDef
  3
DesignerAssemblies
 90
     1024
280
     0
281
     0
  0
CLASS
  1
ACAMCOMPDEFMGR
  2
AcAmCompDefMgr
  3
DesignerAssemblies
 90
     1024
280
     0
281
     0
  0
CLASS
  1
AMCONTEXTMGR
  2
AcAmContextMgr
  3
DesignerAssemblies
 90
     1024
280
     0
281
     0
  0
CLASS
  1
ACAMCONTEXTMODELER
  2
AcAmContextModeler
  3
DesignerAssemblies
 90
     1024
280
     0
281
     0
  0
CLASS
  1
ACMDATADICTIONARY
  2
AcmDataDictionary
  3
"AcmSymBB|Product Description: AutoCAD Mechanical|Company: Autodesk, Inc."
 90
     1024
280
     0
281
     0
  0
CLASS
  1
ACAMGRCOMPDEFSET
  2
AcAmGrCompDefSet
  3
DesignerAssemblies
 90
     1024
280
     0
281
     0
  0
CLASS
  1
AMDTBROWSERDBTAB
  2
AmdtBrowserDbTab
  3
McadcomServices
 90
     1024
280
     0
281
     0
  0
CLASS
  1
CBROWSERAPPOBJECT
  2
CBrowserAppObject
  3
McadcomServices
 90
     1024
280
     0
281
     0
  0
CLASS
  1
DM_PLACEHOLDER
  2
AcDmSelsetPlaceholder
  3
AcMechDwgViewMgmt
 90
     1024
280
     0
281
     0
  0
CLASS
  1
EXACXREFPANELOBJECT
  2
ExAcXREFPanelObject
  3
EXAC_ESW
 90
     1025
280
     0
281
     0
  0
CLASS
  1
NPOCOLLECTION
  2
AcDbImpNonPersistentObjectsCollection
  3
ObjectDBX Classes
 90
     1153
280
     0
281
     0
  0
CLASS
  1
ACMSTANDARDANSI
  2
AcmStandardANSI
  3
"Amdt_StdImp|Product Description: AutoCAD Mechanical|Company: Autodesk, Inc."
 90
     1024
280
     0
281
     0
  0
CLASS
  1
ACMSURFSTANDARDANSI
  2
AcmSurfTextStdANSI
  3
"Amdt_StdImp|Product Description: AutoCAD Mechanical|Company: Autodesk, Inc."
 90
     1024
280
     0
281
     0
  0
CLASS
  1
ACMFCFSTANDARDANSI
  2
AcmFCFStdANSI
  3
"Amdt_StdImp|Product Description: AutoCAD Mechanical|Company: Autodesk, Inc."
 90
     1024
280
     0
281
     0
  0
CLASS
  1
ACMWELDSTANDARDANSI
  2
AcmWeldingStdANSI
  3
"Amdt_StdImp|Product Description: AutoCAD Mechanical|Company: Autodesk, Inc."
 90
     1024
280
     0
281
     0
  0
CLASS
  1
ACMIDSTANDARDANSI
  2
AcmIdStdANSI
  3
"Amdt_StdImp|Product Description: AutoCAD Mechanical|Company: Autodesk, Inc."
 90
     1024
280
     0
281
     0
  0
CLASS
  1
ACMDATUMSTANDARDANSI
  2
AcmDatumStdANSI
  3
"Amdt_StdImp|Product Description: AutoCAD Mechanical|Company: Autodesk, Inc."
 90
     1024
280
     0
281
     0
  0
CLASS
  1
ACMBOMSTANDARDANSI
  2
AcmBOMStdANSI
  3
"Amdt_StdImp|Product Description: AutoCAD Mechanical|Company: Autodesk, Inc."
 90
     1024
280
     0
281
     0
  0
CLASS
  1
ACMDETAILSTANDARDANSI
  2
AmdtDetailSymStdANSI
  3
"Amdt_StdImp|Product Description: AutoCAD Mechanical|Company: Autodesk, Inc."
 90
     1024
280
     0
281
     0
  0
CLASS
  1
ACMSECTIONSTANDARDANSI
  2
AmdtSectionSymStdANSI
  3
"Amdt_StdImp|Product Description: AutoCAD Mechanical|Company: Autodesk, Inc."
 90
     1024
280
     0
281
     0
  0
CLASS
  1
ACMCENTERLINESTANDARDANSI
  2
AmdtCenterLineStdANSI
  3
"Amdt_StdImp|Product Description: AutoCAD Mechanical|Company: Autodesk, Inc."
 90
     1024
280
     0
281
     0
  0
CLASS
  1
ACMTHREADLINESTANDARDANSI
  2
AmdtThreadLineStdANSI
  3
"Amdt_StdImp|Product Description: AutoCAD Mechanical|Company: Autodesk, Inc."
 90
     1024
280
     0
281
     0
  0
CLASS
  1
ACMNOTESTANDARDANSI
  2
AmdtNoteStdANSI
  3
"Amdt_StdImp|Product Description: AutoCAD Mechanical|Company: Autodesk, Inc."
 90
     1024
280
     0
281
     0
  0
CLASS
  1
ACMTAPERSTANDARDANSI
  2
AcmTaperStdANSI
  3
"Amdt_StdImp|Product Description: AutoCAD Mechanical|Company: Autodesk, Inc."
 90
     1024
280
     0
281
     0
  0
CLASS
  1
ACMANOOTATIONVIEWSTANDARDANSI
  2
AmdtAnViewStdANSI
  3
"Amdt_StdImp|Product Description: AutoCAD Mechanical|Company: Autodesk, Inc."
 90
     1024
280
     0
281
     0
  0
CLASS
  1
ACAMGLAYSTD
  2
AcAmgLayStd
  3
"AmgLay|Product Description: AutoCAD Mechanical|Company: Autodesk, Inc."
 90
     1024
280
     0
281
     0
  0
CLASS
  1
ACAMGDIMSTD
  2
AcAmgDimStd
  3
"AmgDim|Product Description: AutoCAD Mechanical|Company: Autodesk, Inc."
 90
     1024
280
     0
281
     0
  0
CLASS
  1
AMGOBJPROPCFG
  2
AmgObjPropCfg
  3
"AmgLay|Product Description: AutoCAD Mechanical|Company: Autodesk, Inc."
 90
     1025
280
     0
281
     0
  0
CLASS
  1
ACAMGHOLECHARTSTDANSI
  2
AcAmgHoleChartStdANSI
  3
AmgDim|Product Description: AutoCAD Mechanical|Company: Autodesk, Inc.
 90
     1024
280
     0
281
     0
  0
CLASS
  1
ACAMGTITLESTD
  2
AcAmgTitleStd
  3
"AmgTitle|Product Description: AutoCAD Mechanical|Company: Autodesk, Inc."
 90
     4095
280
     0
281
     0
  0
CLASS
  1
AMDTNOTETEMPLATEDB
  2
AmdtNoteTemplateDB
  3
AcmSymBB|Product Description: AutoCAD Mechanical|Company: Autodesk, Inc.
 90
     1024
280
     0
281
     0
  0
CLASS
  1
ACAMGFILTERDAT
  2
AcAmgFilterDat
  3
"AcadM|Product Description: AutoCAD Mechanical|Company: Autodesk, Inc."
 90
     1024
280
     0
281
     0
  0
CLASS
  1
ACDBPLACEHOLDER
  2
AcDbPlaceHolder
  3
ObjectDBX Classes
 90
        0
280
     0
281
     0
  0
CLASS
  1
LAYOUT
  2
AcDbLayout
  3
ObjectDBX Classes
 90
        0
280
     0
281
     0
  0
ENDSEC
  0
SECTION
  2
TABLES
  0
TABLE
  2
VPORT
  5
24A
330
0
100
AcDbSymbolTable
 70
     1
  0
VPORT
  5
26B
330
24A
100
AcDbSymbolTableRecord
100
AcDbViewportTableRecord
  2
*Active
 70
     0
 10
0.0
 20
0.0
 11
1.0
 21
1.0
 12
-3.800058723197821
 22
-3.744356628735062
 13
0.0
 23
0.0
 14
10.0
 24
10.0
 15
10.0
 25
10.0
 16
0.0
 26
0.0
 36
1.0
 17
0.0
 27
0.0
 37
0.0
 40
214.9095874418644
 41
1.492489270386266
 42
1.0
 43
0.0
 44
0.0
 50
0.0
 51
0.0000000000007958
 71
     0
 72
   100
 73
     1
 74
     3
 75
     0
 76
     0
 77
     0
 78
     1
281
     0
 65
     0
110
0.0
120
0.0
130
0.0
111
1.0
121
0.0
131
0.0
112
0.0
122
1.0
132
0.0
 79
     0
146
0.0
  0
ENDTAB
  0
TABLE
  2
LTYPE
  5
247
330
0
100
AcDbSymbolTable
 70
    37
  0
LTYPE
  5
256
330
247
100
AcDbSymbolTableRecord
100
AcDbLinetypeTableRecord
  2
ByBlock
 70
     0
  3

 72
    65
 73
     0
 40
0.0
  0
LTYPE
  5
257
330
247
100
AcDbSymbolTableRecord
100
AcDbLinetypeTableRecord
  2
ByLayer
 70
     0
  3

 72
    65
 73
     0
 40
0.0
  0
LTYPE
  5
258
330
247
100
AcDbSymbolTableRecord
100
AcDbLinetypeTableRecord
  2
Continuous
 70
     0
  3
Solid line
 72
    65
 73
     0
 40
0.0
  0
LTYPE
  5
273
330
247
100
AcDbSymbolTableRecord
100
AcDbLinetypeTableRecord
  2
CENTER
 70
     0
  3
Center ____ _ ____ _ ____ _ ____ _ ____ _ ____
 72
    65
 73
     4
 40
2.0
 49
1.25
 74
     0
 49
-0.25
 74
     0
 49
0.25
 74
     0
 49
-0.25
 74
     0
  0
LTYPE
  5
274
330
247
100
AcDbSymbolTableRecord
100
AcDbLinetypeTableRecord
  2
DASHDOT
 70
     0
  3
Dashdot __ . __ . __ . __ . __ . __ . __ . __
 72
    65
 73
     4
 40
1.0
 49
0.5
 74
     0
 49
-0.25
 74
     0
 49
0.0
 74
     0
 49
-0.25
 74
     0
  0
LTYPE
  5
275
330
247
100
AcDbSymbolTableRecord
100
AcDbLinetypeTableRecord
  2
DASHED
 70
     0
  3
Dashed __ __ __ __ __ __ __ __ __ __ __ __ __ _
 72
    65
 73
     2
 40
0.75
 49
0.5
 74
     0
 49
-0.25
 74
     0
  0
LTYPE
  5
276
330
247
100
AcDbSymbolTableRecord
100
AcDbLinetypeTableRecord
  2
HIDDEN
 70
     0
  3
Hidden __ __ __ __ __ __ __ __ __ __ __ __ __ __
 72
    65
 73
     2
 40
0.375
 49
0.25
 74
     0
 49
-0.125
 74
     0
  0
LTYPE
  5
277
330
247
100
AcDbSymbolTableRecord
100
AcDbLinetypeTableRecord
  2
HIDDEN2
 70
     0
  3
Hidden2 _ _ _ _ _ _ _ _ _ _ _ _ _ _ _ _ _
 72
    65
 73
     2
 40
0.1875
 49
0.125
 74
     0
 49
-0.0625
 74
     0
  0
LTYPE
  5
278
330
247
100
AcDbSymbolTableRecord
100
AcDbLinetypeTableRecord
  2
BORDER
 70
     0
  3
Border __ __ . __ __ . __ __ . __ __ . __ __ .
 72
    65
 73
     6
 40
1.75
 49
0.5
 74
     0
 49
-0.25
 74
     0
 49
0.5
 74
     0
 49
-0.25
 74
     0
 49
0.0
 74
     0
 49
-0.25
 74
     0
  0
LTYPE
  5
279
330
247
100
AcDbSymbolTableRecord
100
AcDbLinetypeTableRecord
  2
BORDER2
 70
     0
  3
Border2 __.__.__.__.__.__.__.__.__.__.__.
 72
    65
 73
     6
 40
0.875
 49
0.25
 74
     0
 49
-0.125
 74
     0
 49
0.25
 74
     0
 49
-0.125
 74
     0
 49
0.0
 74
     0
 49
-0.125
 74
     0
  0
LTYPE
  5
27A
330
247
100
AcDbSymbolTableRecord
100
AcDbLinetypeTableRecord
  2
BORDERX2
 70
     0
  3
Borderx2  ____  ____  .  ____  ____  .  ___
 72
    65
 73
     6
 40
3.5
 49
1.0
 74
     0
 49
-0.5
 74
     0
 49
1.0
 74
     0
 49
-0.5
 74
     0
 49
0.0
 74
     0
 49
-0.5
 74
     0
  0
LTYPE
  5
27B
330
247
100
AcDbSymbolTableRecord
100
AcDbLinetypeTableRecord
  2
CENTER2
 70
     0
  3
Center2  ___ _ ___ _ ___ _ ___ _ ___ _ ___
 72
    65
 73
     4
 40
1.125
 49
0.75
 74
     0
 49
-0.125
 74
     0
 49
0.125
 74
     0
 49
-0.125
 74
     0
  0
LTYPE
  5
27C
330
247
100
AcDbSymbolTableRecord
100
AcDbLinetypeTableRecord
  2
CENTERX2
 70
     0
  3
Centerx2  ________  __  ________  __  _____
 72
    65
 73
     4
 40
4.0
 49
2.5
 74
     0
 49
-0.5
 74
     0
 49
0.5
 74
     0
 49
-0.5
 74
     0
  0
LTYPE
  5
27D
330
247
100
AcDbSymbolTableRecord
100
AcDbLinetypeTableRecord
  2
DASHDOT2
 70
     0
  3
Dashdot2  _._._._._._._._._._._._._._._.
 72
    65
 73
     4
 40
0.5
 49
0.25
 74
     0
 49
-0.125
 74
     0
 49
0.0
 74
     0
 49
-0.125
 74
     0
  0
LTYPE
  5
27E
330
247
100
AcDbSymbolTableRecord
100
AcDbLinetypeTableRecord
  2
DASHDOTX2
 70
     0
  3
Dashdotx2 ____  .  ____  .  ____  .  ___
 72
    65
 73
     4
 40
2.0
 49
1.0
 74
     0
 49
-0.5
 74
     0
 49
0.0
 74
     0
 49
-0.5
 74
     0
  0
LTYPE
  5
27F
330
247
100
AcDbSymbolTableRecord
100
AcDbLinetypeTableRecord
  2
DASHED2
 70
     0
  3
Dashed2 _ _ _ _ _ _ _ _ _ _ _ _ _ _ _ _ _
 72
    65
 73
     2
 40
0.375
 49
0.25
 74
     0
 49
-0.125
 74
     0
  0
LTYPE
  5
280
330
247
100
AcDbSymbolTableRecord
100
AcDbLinetypeTableRecord
  2
DASHEDX2
 70
     0
  3
Dashedx2 ____  ____  ____  ____  ____  ___
 72
    65
 73
     2
 40
1.5
 49
1.0
 74
     0
 49
-0.5
 74
     0
  0
LTYPE
  5
281
330
247
100
AcDbSymbolTableRecord
100
AcDbLinetypeTableRecord
  2
DIVIDE
 70
     0
  3
Divide ____ . . ____ . . ____ . . ____ . . ____
 72
    65
 73
     6
 40
1.25
 49
0.5
 74
     0
 49
-0.25
 74
     0
 49
0.0
 74
     0
 49
-0.25
 74
     0
 49
0.0
 74
     0
 49
-0.25
 74
     0
  0
LTYPE
  5
282
330
247
100
AcDbSymbolTableRecord
100
AcDbLinetypeTableRecord
  2
DIVIDE2
 70
     0
  3
Divide2 __..__..__..__..__..__..__..__.._
 72
    65
 73
     6
 40
0.625
 49
0.25
 74
     0
 49
-0.125
 74
     0
 49
0.0
 74
     0
 49
-0.125
 74
     0
 49
0.0
 74
     0
 49
-0.125
 74
     0
  0
LTYPE
  5
283
330
247
100
AcDbSymbolTableRecord
100
AcDbLinetypeTableRecord
  2
DIVIDEX2
 70
     0
  3
Dividex2 ________  .  .  ________  .  .  _
 72
    65
 73
     6
 40
2.5
 49
1.0
 74
     0
 49
-0.5
 74
     0
 49
0.0
 74
     0
 49
-0.5
 74
     0
 49
0.0
 74
     0
 49
-0.5
 74
     0
  0
LTYPE
  5
284
330
247
100
AcDbSymbolTableRecord
100
AcDbLinetypeTableRecord
  2
DOT
 70
     0
  3
Dot . . . . . . . . . . . . . . . . . . . . . . . .
 72
    65
 73
     2
 40
0.25
 49
0.0
 74
     0
 49
-0.25
 74
     0
  0
LTYPE
  5
285
330
247
100
AcDbSymbolTableRecord
100
AcDbLinetypeTableRecord
  2
DOT2
 70
     0
  3
Dot2 ........................................
 72
    65
 73
     2
 40
0.125
 49
0.0
 74
     0
 49
-0.125
 74
     0
  0
LTYPE
  5
286
330
247
100
AcDbSymbolTableRecord
100
AcDbLinetypeTableRecord
  2
DOTX2
 70
     0
  3
Dotx2 .  .  .  .  .  .  .  .  .  .  .  .  .  .
 72
    65
 73
     2
 40
0.5
 49
0.0
 74
     0
 49
-0.5
 74
     0
  0
LTYPE
  5
287
330
247
100
AcDbSymbolTableRecord
100
AcDbLinetypeTableRecord
  2
HIDDENX2
 70
     0
  3
Hiddenx2 ____ ____ ____ ____ ____ ____ ____
 72
    65
 73
     2
 40
0.75
 49
0.5
 74
     0
 49
-0.25
 74
     0
  0
LTYPE
  5
288
330
247
100
AcDbSymbolTableRecord
100
AcDbLinetypeTableRecord
  2
PHANTOM
 70
     0
  3
Phantom ______  __  __  ______  __  __  ______
 72
    65
 73
     6
 40
2.5
 49
1.25
 74
     0
 49
-0.25
 74
     0
 49
0.25
 74
     0
 49
-0.25
 74
     0
 49
0.25
 74
     0
 49
-0.25
 74
     0
  0
LTYPE
  5
289
330
247
100
AcDbSymbolTableRecord
100
AcDbLinetypeTableRecord
  2
PHANTOM2
 70
     0
  3
Phantom2 ___ _ _ ___ _ _ ___ _ _ ___ _ _
 72
    65
 73
     6
 40
1.25
 49
0.625
 74
     0
 49
-0.125
 74
     0
 49
0.125
 74
     0
 49
-0.125
 74
     0
 49
0.125
 74
     0
 49
-0.125
 74
     0
  0
LTYPE
  5
28A
330
247
100
AcDbSymbolTableRecord
100
AcDbLinetypeTableRecord
  2
PHANTOMX2
 70
     0
  3
Phantomx2 ____________    ____    ____   _
 72
    65
 73
     6
 40
5.0
 49
2.5
 74
     0
 49
-0.5
 74
     0
 49
0.5
 74
     0
 49
-0.5
 74
     0
 49
0.5
 74
     0
 49
-0.5
 74
     0
  0
LTYPE
  5
F108A6
330
247
100
AcDbSymbolTableRecord
100
AcDbLinetypeTableRecord
  2
AM_ISO02W050
 70
     0
  3
__ __ __ __ __ __ __ __ __ __ __ __ __ __ __
 72
    65
 73
     2
 40
7.5
 49
6.0
 74
     0
 49
-1.5
 74
     0
  0
LTYPE
  5
F108A7
330
247
100
AcDbSymbolTableRecord
100
AcDbLinetypeTableRecord
  2
AM_ISO08W050
 70
     0
  3
____ . ____ . ____ . ____ . ____ . ____ . ____
 72
    65
 73
     4
 40
18.0
 49
12.0
 74
     0
 49
-1.5
 74
     0
 49
3.0
 74
     0
 49
-1.5
 74
     0
  0
LTYPE
  5
F108A8
330
247
100
AcDbSymbolTableRecord
100
AcDbLinetypeTableRecord
  2
AM_ISO09W050
 70
     0
  3
_____ . . _____ . . _____ . . ____ .. ____
 72
    65
 73
     6
 40
22.5
 49
12.0
 74
     0
 49
-1.5
 74
     0
 49
3.0
 74
     0
 49
-1.5
 74
     0
 49
3.0
 74
     0
 49
-1.5
 74
     0
  0
LTYPE
  5
F108A9
330
247
100
AcDbSymbolTableRecord
100
AcDbLinetypeTableRecord
  2
Amconstr
 70
     0
  3
_______________________
 72
    65
 73
     2
 40
9999.0
 49
9999.0
 74
     0
 49
0.0
 74
     0
  0
LTYPE
  5
F108AA
330
247
100
AcDbSymbolTableRecord
100
AcDbLinetypeTableRecord
  2
AM_ISO08W050x2
 70
     0
  3
__ . __ . __ . __ . __ . __
 72
    65
 73
     4
 40
9.0
 49
6.0
 74
     0
 49
-0.75
 74
     0
 49
1.5
 74
     0
 49
-0.75
 74
     0
  0
LTYPE
  5
F108AB
330
247
100
AcDbSymbolTableRecord
100
AcDbLinetypeTableRecord
  2
AM_ISO02W050x2
 70
     0
  3
 _ _ _ _ _ _ _ _ _ _ _ _
 72
    65
 73
     2
 40
3.75
 49
3.0
 74
     0
 49
-0.75
 74
     0
  0
LTYPE
  5
F108AE
330
247
100
AcDbSymbolTableRecord
100
AcDbLinetypeTableRecord
  2
Amzigzag
 70
     0
  3
/\/-/\/-/\/-/\/-/\/-/\/
 72
    65
 73
     2
 40
11.0001
 49
0.0001
 74
     4
 75
   136
340
F108AD
 46
0.04
 50
0.0
 44
0.0
 45
0.0
 49
-11.0
 74
     0
  0
LTYPE
  5
F108AF
330
247
100
AcDbSymbolTableRecord
100
AcDbLinetypeTableRecord
  2
Amzigzag2
 70
     0
  3
/\/-/\/-/\/-/\/-/\/-/\/
 72
    65
 73
     2
 40
0.4401
 49
0.0001
 74
     4
 75
   136
340
F108AD
 46
0.0016
 50
0.0
 44
0.0
 45
0.0
 49
-0.4400000000000001
 74
     0
  0
LTYPE
  5
F108BD
330
247
100
AcDbSymbolTableRecord
100
AcDbLinetypeTableRecord
  2
ACANSTGB
 70
     0
  3
__ . . __ . .
 72
    65
 73
     6
 40
0.35433070866
 49
0.15748031496
 74
     0
 49
-0.03937007874
 74
     0
 49
0.03937007874
 74
     0
 49
-0.03937007874
 74
     0
 49
0.03937007874
 74
     0
 49
-0.03937007874
 74
     0
  0
LTYPE
  5
F108BE
330
247
100
AcDbSymbolTableRecord
100
AcDbLinetypeTableRecord
  2
ACANSTGL
 70
     0
  3
_ _ _ _ _
 72
    65
 73
     2
 40
0.11811023622
 49
0.07874015748
 74
     0
 49
-0.03937007874
 74
     0
  0
ENDTAB
  0
TABLE
  2
LAYER
  5
244
330
0
100
AcDbSymbolTable
 70
     6
  0
LAYER
  5
252
102
{ACAD_XDICTIONARY
360
F10A21
102
}
330
244
100
AcDbSymbolTableRecord
100
AcDbLayerTableRecord
  2
0
 70
     0
 62
     7
  6
Continuous
370
     0
390
19
  0
LAYER
  5
23F
102
{ACAD_XDICTIONARY
360
F10A23
102
}
330
244
100
AcDbSymbolTableRecord
100
AcDbLayerTableRecord
  2
Bemassung
 70
     0
 62
     7
  6
Continuous
370
     0
390
19
  0
LAYER
  5
240
102
{ACAD_XDICTIONARY
360
F10A25
102
}
330
244
100
AcDbSymbolTableRecord
100
AcDbLayerTableRecord
  2
Rahmen
 70
     0
 62
     7
  6
Continuous
370
     0
390
19
  0
LAYER
  5
241
102
{ACAD_XDICTIONARY
360
F10A27
102
}
330
244
100
AcDbSymbolTableRecord
100
AcDbLayerTableRecord
  2
Geo
 70
     0
 62
     7
  6
Continuous
370
     0
390
19
  0
LAYER
  5
33A
330
244
100
AcDbSymbolTableRecord
100
AcDbLayerTableRecord
  2
Defpoints
 70
     0
 62
     7
  6
Continuous
290
     0
370
    -3
390
19
  0
LAYER
  5
57E
102
{ACAD_XDICTIONARY
360
F10A29
102
}
330
244
100
AcDbSymbolTableRecord
100
AcDbLayerTableRecord
  2
Text
 70
     0
 62
     7
  6
Continuous
370
     0
390
19
1001
AcAecLayerStandard
1000

1000

  0
ENDTAB
  0
TABLE
  2
STYLE
  5
245
330
0
100
AcDbSymbolTable
 70
     5
  0
STYLE
  5
253
330
245
100
AcDbSymbolTableRecord
100
AcDbTextStyleTableRecord
  2
Standard
 70
     0
 40
0.0
 41
1.0
 50
0.0
 71
     0
 42
0.2
  3
Arial
  4

1001
ACAD
1000
Arial
1071
        0
  0
STYLE
  5
132
330
245
100
AcDbSymbolTableRecord
100
AcDbTextStyleTableRecord
  2
Beschriftung
 70
     0
 40
0.0
 41
1.0
 50
0.0
 71
     0
 42
0.2
  3
Arial
  4

1001
ACAD
1000
Arial
1071
        0
1001
AcadAnnotative
1000
AnnotativeData
1070
     1
1070
     1
  0
STYLE
  5
F108AD
330
245
100
AcDbSymbolTableRecord
100
AcDbTextStyleTableRecord
  2

 70
     1
 40
0.0
 41
1.0
 50
0.0
 71
     0
 42
0.2
  3
genltshp.shx
  4

  0
STYLE
  5
F108BB
330
245
100
AcDbSymbolTableRecord
100
AcDbTextStyleTableRecord
  2
ACANSTS
 70
     0
 40
1.0
 41
1.0
 50
0.0
 71
     0
 42
0.2
  3
romans.shx
  4

  0
STYLE
  5
F108BC
330
245
100
AcDbSymbolTableRecord
100
AcDbTextStyleTableRecord
  2
ACANSGDT
 70
     0
 40
0.0
 41
1.0
 50
0.0
 71
     0
 42
0.2
  3
amgdt.shx
  4

  0
ENDTAB
  0
TABLE
  2
VIEW
  5
248
330
0
100
AcDbSymbolTable
 70
     0
  0
ENDTAB
  0
TABLE
  2
UCS
  5
249
330
0
100
AcDbSymbolTable
 70
     0
  0
ENDTAB
  0
TABLE
  2
APPID
  5
24B
330
0
100
AcDbSymbolTable
 70
    28
  0
APPID
  5
254
330
24B
100
AcDbSymbolTableRecord
100
AcDbRegAppTableRecord
  2
ACAD
 70
     0
  0
APPID
  5
26C
330
24B
100
AcDbSymbolTableRecord
100
AcDbRegAppTableRecord
  2
VD_INVISIBLE_NOT_FOR_READ
 70
     0
  0
APPID
  5
26D
330
24B
100
AcDbSymbolTableRecord
100
AcDbRegAppTableRecord
  2
VD_TEMPHATCH
 70
     0
  0
APPID
  5
26E
330
24B
100
AcDbSymbolTableRecord
100
AcDbRegAppTableRecord
  2
VDEXTRAPARAM
 70
     0
  0
APPID
  5
26F
330
24B
100
AcDbSymbolTableRecord
100
AcDbRegAppTableRecord
  2
PE_URL
 70
     0
  0
APPID
  5
270
330
24B
100
AcDbSymbolTableRecord
100
AcDbRegAppTableRecord
  2
VD_UNKNOWN
 70
     0
  0
APPID
  5
28F
330
24B
100
AcDbSymbolTableRecord
100
AcDbRegAppTableRecord
  2
AcadAnnotative
 70
     0
  0
APPID
  5
290
330
24B
100
AcDbSymbolTableRecord
100
AcDbRegAppTableRecord
  2
ACAD_DSTYLE_DIMJAG
 70
     0
  0
APPID
  5
291
330
24B
100
AcDbSymbolTableRecord
100
AcDbRegAppTableRecord
  2
ACAD_DSTYLE_DIMTALN
 70
     0
  0
APPID
  5
293
330
24B
100
AcDbSymbolTableRecord
100
AcDbRegAppTableRecord
  2
ACAD_PSEXT
 70
     0
  0
APPID
  5
42A
330
24B
100
AcDbSymbolTableRecord
100
AcDbRegAppTableRecord
  2
ACAD_MLEADERVER
 70
     0
  0
APPID
  5
532
330
24B
100
AcDbSymbolTableRecord
100
AcDbRegAppTableRecord
  2
ACAD_EXEMPT_FROM_CAD_STANDARDS
 70
     0
  0
APPID
  5
57F
330
24B
100
AcDbSymbolTableRecord
100
AcDbRegAppTableRecord
  2
AcAecLayerStandard
 70
     0
  0
APPID
  5
F10840
330
24B
100
AcDbSymbolTableRecord
100
AcDbRegAppTableRecord
  2
MCAD_NO_VIS
 70
     0
  0
APPID
  5
F10841
330
24B
100
AcDbSymbolTableRecord
100
AcDbRegAppTableRecord
  2
ACAD_TEMP_GRAPHIC
 70
     0
  0
APPID
  5
F1086A
330
24B
100
AcDbSymbolTableRecord
100
AcDbRegAppTableRecord
  2
AD_DRAW
 70
     0
  0
APPID
  5
F1086D
330
24B
100
AcDbSymbolTableRecord
100
AcDbRegAppTableRecord
  2
ACATTRIBSERVICES
 70
     0
  0
APPID
  5
F10886
330
24B
100
AcDbSymbolTableRecord
100
AcDbRegAppTableRecord
  2
DESIGNERASSEMBLIES
 70
     0
  0
APPID
  5
F1088B
330
24B
100
AcDbSymbolTableRecord
100
AcDbRegAppTableRecord
  2
ACADM_DIM_EDIT
 70
     0
  0
APPID
  5
F1088C
330
24B
100
AcDbSymbolTableRecord
100
AcDbRegAppTableRecord
  2
AMDT_DM_ADJ
 70
     0
  0
APPID
  5
F108A4
330
24B
100
AcDbSymbolTableRecord
100
AcDbRegAppTableRecord
  2
ACAD_DSTYLE_DIMBREAK
 70
     0
  0
APPID
  5
F108C5
330
24B
100
AcDbSymbolTableRecord
100
AcDbRegAppTableRecord
  2
GENIUS_GENSCREG_15
 70
     0
  0
APPID
  5
F108C6
330
24B
100
AcDbSymbolTableRecord
100
AcDbRegAppTableRecord
  2
GENIUS_GENODEF_13
 70
     0
  0
APPID
  5
F108C7
330
24B
100
AcDbSymbolTableRecord
100
AcDbRegAppTableRecord
  2
GENIUS_GENOBJ-N-SDF_13
 70
     0
  0
APPID
  5
F10A79
330
24B
100
AcDbSymbolTableRecord
100
AcDbRegAppTableRecord
  2
ACAD_DSTYLE_DIMARC_LENGTH_SYMBOL
 70
     0
  0
APPID
  5
F10A7A
330
24B
100
AcDbSymbolTableRecord
100
AcDbRegAppTableRecord
  2
ACAD_DSTYLE_DIM_LINETYPE
 70
     0
  0
APPID
  5
F10A7B
330
24B
100
AcDbSymbolTableRecord
100
AcDbRegAppTableRecord
  2
ACAD_DSTYLE_DIM_EXT1_LINETYPE
 70
     0
  0
APPID
  5
F10A7C
330
24B
100
AcDbSymbolTableRecord
100
AcDbRegAppTableRecord
  2
ACAD_DSTYLE_DIM_EXT2_LINETYPE
 70
     0
  0
ENDTAB
  0
TABLE
  2
DIMSTYLE
  5
24C
330
0
100
AcDbSymbolTable
 70
    10
100
AcDbDimStyleTable
 71
     2
340
27
340
269
  0
DIMSTYLE
105
269
330
24C
100
AcDbSymbolTableRecord
100
AcDbDimStyleTableRecord
  2
Standard
 70
     0
172
     1
174
     1
288
     1
340
253
342
23C
  0
DIMSTYLE
105
137
330
24C
100
AcDbSymbolTableRecord
100
AcDbDimStyleTableRecord
  2
Beschriftung
 70
     0
 41
2.5
 42
0.625
 44
1.25
 73
     0
 74
     0
 77
     1
140
2.5
147
0.625
172
     1
174
     1
271
     2
288
     1
340
253
342
23C
1001
AcadAnnotative
1000
AnnotativeData
1070
     1
1070
     1
1001
ACAD_DSTYLE_DIMJAG
1070
   388
1040
1.5
1001
ACAD_DSTYLE_DIMTALN
1070
   392
1070
     0
  0
DIMSTYLE
105
27
102
{ACAD_REACTORS
330
F10017
330
F10021
330
F1002B
330
F10030
330
F10008
330
F1000D
330
F1001C
102
}
330
24C
100
AcDbSymbolTableRecord
100
AcDbDimStyleTableRecord
  2
BEM-ISBE
 70
     0
 41
2.5
 42
0.625
 44
1.25
 48
0.000000001
 71
     1
 73
     0
 74
     0
 77
     1
140
2.5
146
0.5
147
0.625
171
     3
172
     1
179
     3
271
     3
272
     3
274
     3
340
253
342
23C
1001
ACAD_DSTYLE_DIMJAG
1070
   388
1040
1.5
1001
ACAD_DSTYLE_DIMTALN
1070
   392
1070
     1
  0
DIMSTYLE
105
F108A3
102
{ACAD_REACTORS
330
F10893
102
}
330
24C
100
AcDbSymbolTableRecord
100
AcDbDimStyleTableRecord
  2
AM_ANSI
 70
     0
  4
mm
 41
0.12
 42
0.05
 43
0.5
 44
0.1
 47
0.1
 48
0.1
 78
     7
 79
     2
140
0.12
141
0.0
146
0.71
147
0.06
176
   256
177
   256
178
     2
274
     4
284
     7
340
253
371
    -1
372
    -1
1001
ACAD_DSTYLE_DIMJAG
1070
   388
1040
1.5
1001
ACAD_DSTYLE_DIMBREAK
1070
   391
1040
0.125
1001
ACAD_DSTYLE_DIMARC_LENGTH_SYMBOL
1070
   379
1070
     1
1001
ACAD_DSTYLE_DIM_LINETYPE
1070
   380
1005
256
1001
ACAD_DSTYLE_DIM_EXT1_LINETYPE
1070
   381
1005
256
1001
ACAD_DSTYLE_DIM_EXT2_LINETYPE
1070
   382
1005
256
  0
DIMSTYLE
105
F108B0
330
24C
100
AcDbSymbolTableRecord
100
AcDbDimStyleTableRecord
  2
AM_ANSI$3
 70
     0
  4
mm
 41
0.12
 42
0.05
 43
0.5
 44
0.1
 47
0.1
 48
0.1
 78
     7
 79
     2
140
0.12
141
0.0
146
0.71
147
0.06
176
   256
177
   256
178
     2
274
     4
284
     7
288
     1
289
     0
340
253
371
    -1
372
    -1
1001
ACAD_DSTYLE_DIMBREAK
1070
   391
1040
0.125
1001
ACAD_DSTYLE_DIMJAG
1070
   388
1040
1.5
1001
ACAD_DSTYLE_DIMARC_LENGTH_SYMBOL
1070
   379
1070
     1
1001
ACAD_DSTYLE_DIM_LINETYPE
1070
   380
1005
256
1001
ACAD_DSTYLE_DIM_EXT1_LINETYPE
1070
   381
1005
256
1001
ACAD_DSTYLE_DIM_EXT2_LINETYPE
1070
   382
1005
256
  0
DIMSTYLE
105
F108B1
330
24C
100
AcDbSymbolTableRecord
100
AcDbDimStyleTableRecord
  2
AM_ANSI$4
 70
     0
  4
mm
 41
0.12
 42
0.05
 43
0.5
 44
0.1
 47
0.1
 48
0.1
 78
     7
 79
     2
140
0.12
141
0.0
146
0.71
147
0.06
176
   256
177
   256
178
     2
274
     4
284
     7
288
     1
289
     0
340
253
371
    -1
372
    -1
1001
ACAD_DSTYLE_DIMBREAK
1070
   391
1040
0.125
1001
ACAD_DSTYLE_DIMJAG
1070
   388
1040
1.5
1001
ACAD_DSTYLE_DIMARC_LENGTH_SYMBOL
1070
   379
1070
     1
1001
ACAD_DSTYLE_DIM_LINETYPE
1070
   380
1005
256
1001
ACAD_DSTYLE_DIM_EXT1_LINETYPE
1070
   381
1005
256
1001
ACAD_DSTYLE_DIM_EXT2_LINETYPE
1070
   382
1005
256
  0
DIMSTYLE
105
F108B2
330
24C
100
AcDbSymbolTableRecord
100
AcDbDimStyleTableRecord
  2
AM_ANSI$7
 70
     0
  4
mm
 41
0.12
 42
0.05
 43
0.5
 44
0.1
 47
0.1
 48
0.1
 78
     7
 79
     2
140
0.12
141
0.0
146
0.71
147
0.06
176
   256
177
   256
178
     2
274
     4
284
     7
340
253
371
    -1
372
    -1
1001
ACAD_DSTYLE_DIMBREAK
1070
   391
1040
0.125
1001
ACAD_DSTYLE_DIMJAG
1070
   388
1040
1.5
1001
ACAD_DSTYLE_DIMARC_LENGTH_SYMBOL
1070
   379
1070
     1
1001
ACAD_DSTYLE_DIM_LINETYPE
1070
   380
1005
256
1001
ACAD_DSTYLE_DIM_EXT1_LINETYPE
1070
   381
1005
256
1001
ACAD_DSTYLE_DIM_EXT2_LINETYPE
1070
   382
1005
256
  0
DIMSTYLE
105
F108B3
330
24C
100
AcDbSymbolTableRecord
100
AcDbDimStyleTableRecord
  2
AM_ANSI$SF
 70
     0
  4
mm
 41
0.12
 42
0.05
 43
0.5
 44
0.1
 47
0.1
 48
0.1
 75
     1
 76
     1
 78
     7
 79
     2
140
0.12
141
0.0
146
0.71
147
0.06
176
   256
177
   256
178
     2
274
     4
284
     7
340
253
371
    -1
372
    -1
1001
ACAD_DSTYLE_DIMBREAK
1070
   391
1040
0.125
1001
ACAD_DSTYLE_DIMJAG
1070
   388
1040
1.5
1001
ACAD_DSTYLE_DIMARC_LENGTH_SYMBOL
1070
   379
1070
     1
1001
ACAD_DSTYLE_DIM_LINETYPE
1070
   380
1005
256
1001
ACAD_DSTYLE_DIM_EXT1_LINETYPE
1070
   381
1005
256
1001
ACAD_DSTYLE_DIM_EXT2_LINETYPE
1070
   382
1005
256
  0
DIMSTYLE
105
F108B8
330
24C
100
AcDbSymbolTableRecord
100
AcDbDimStyleTableRecord
  2
AM_ANSI$SH
 70
     0
  4
mm
 41
0.12
 42
0.05
 43
0.5
 44
0.1
 47
0.1
 48
0.1
 75
     1
 76
     1
 78
     7
 79
     2
140
0.12
141
0.0
146
0.71
147
0.06
173
     1
176
   256
177
   256
178
     2
274
     4
284
     7
340
253
343
F108B4
371
    -1
372
    -1
1001
ACAD_DSTYLE_DIMBREAK
1070
   391
1040
0.125
1001
ACAD_DSTYLE_DIMJAG
1070
   388
1040
1.5
1001
ACAD_DSTYLE_DIMARC_LENGTH_SYMBOL
1070
   379
1070
     1
1001
ACAD_DSTYLE_DIM_LINETYPE
1070
   380
1005
256
1001
ACAD_DSTYLE_DIM_EXT1_LINETYPE
1070
   381
1005
256
1001
ACAD_DSTYLE_DIM_EXT2_LINETYPE
1070
   382
1005
256
  0
ENDTAB
  0
TABLE
  2
BLOCK_RECORD
  5
243
330
0
100
AcDbSymbolTable
 70
    16
  0
BLOCK_RECORD
  5
261
330
243
100
AcDbSymbolTableRecord
100
AcDbBlockTableRecord
  2
*Model_Space
340
FD0
  0
BLOCK_RECORD
  5
25D
330
243
100
AcDbSymbolTableRecord
100
AcDbBlockTableRecord
  2
*Paper_Space
340
FD1
  0
BLOCK_RECORD
  5
265
330
243
100
AcDbSymbolTableRecord
100
AcDbBlockTableRecord
  2
*Paper_Space0
340
0
  0
BLOCK_RECORD
  5
23C
330
243
100
AcDbSymbolTableRecord
100
AcDbBlockTableRecord
  2
VDDIM_DEFAULT
340
0
102
{BLKREFS
331
F108EA
331
F108EB
331
F10914
331
F10915
331
F10972
331
F10973
331
F109E1
331
F109E2
331
F109EC
331
F109ED
331
F109F5
331
F109F6
331
F10A00
331
F10A01
331
F10A09
331
F10A0A
331
F10A12
331
F10A13
331
F10A1B
331
F10A1C
102
}
  0
BLOCK_RECORD
  5
23E
330
243
100
AcDbSymbolTableRecord
100
AcDbBlockTableRecord
  2
VDDIM_NONE
340
0
  0
BLOCK_RECORD
  5
F10002
330
243
100
AcDbSymbolTableRecord
100
AcDbBlockTableRecord
  2
*D3
340
0
  0
BLOCK_RECORD
  5
F10016
330
243
100
AcDbSymbolTableRecord
100
AcDbBlockTableRecord
  2
*D4
340
0
  0
BLOCK_RECORD
  5
F10020
330
243
100
AcDbSymbolTableRecord
100
AcDbBlockTableRecord
  2
*D5
340
0
  0
BLOCK_RECORD
  5
F10025
330
243
100
AcDbSymbolTableRecord
100
AcDbBlockTableRecord
  2
*D6
340
0
  0
BLOCK_RECORD
  5
F1002A
330
243
100
AcDbSymbolTableRecord
100
AcDbBlockTableRecord
  2
*D7
340
0
  0
BLOCK_RECORD
  5
F1002F
330
243
100
AcDbSymbolTableRecord
100
AcDbBlockTableRecord
  2
*D8
340
0
  0
BLOCK_RECORD
  5
F10011
330
243
100
AcDbSymbolTableRecord
100
AcDbBlockTableRecord
  2
*D9
340
0
  0
BLOCK_RECORD
  5
F10007
330
243
100
AcDbSymbolTableRecord
100
AcDbBlockTableRecord
  2
*D10
340
0
  0
BLOCK_RECORD
  5
F1000C
330
243
100
AcDbSymbolTableRecord
100
AcDbBlockTableRecord
  2
*D11
340
0
  0
BLOCK_RECORD
  5
F1001B
330
243
100
AcDbSymbolTableRecord
100
AcDbBlockTableRecord
  2
*D12
340
0
  0
BLOCK_RECORD
  5
F108B4
330
243
100
AcDbSymbolTableRecord
100
AcDbBlockTableRecord
  2
GENAXEH
340
0
  0
ENDTAB
  0
ENDSEC
  0
SECTION
  2
BLOCKS
  0
BLOCK
  5
262
330
261
100
AcDbEntity
  8
0
100
AcDbBlockBegin
  2
*Model_Space
 70
     0
 10
0.0
 20
0.0
 30
0.0
  3
*Model_Space
  1

  0
ENDBLK
  5
263
330
261
100
AcDbEntity
  8
0
100
AcDbBlockEnd
  0
BLOCK
  5
25E
330
25D
100
AcDbEntity
 67
     1
  8
0
100
AcDbBlockBegin
  2
*Paper_Space
 70
     0
 10
0.0
 20
0.0
 30
0.0
  3
*Paper_Space
  1

  0
ENDBLK
  5
25F
330
25D
100
AcDbEntity
 67
     1
  8
0
100
AcDbBlockEnd
  0
BLOCK
  5
266
330
265
100
AcDbEntity
  8
0
100
AcDbBlockBegin
  2
*Paper_Space0
 70
     0
 10
0.0
 20
0.0
 30
0.0
  3
*Paper_Space0
  1

  0
VIEWPORT
  5
296
102
{ACAD_XDICTIONARY
360
F10A3C
102
}
330
265
100
AcDbEntity
  8
0
 60
     1
100
AcDbViewport
 10
0.0
 20
0.0
 30
0.0
 40
10.0
 41
10.0
 69
     0
 12
0.0
 22
0.0
 13
0.0
 23
0.0
 14
1.0
 24
1.0
 15
0.0
 25
0.0
 16
0.0
 26
0.0
 36
1.0
 17
0.0
 27
0.0
 37
0.0
 42
0.0
 43
0.0
 44
0.0
 45
10.0
 50
0.0
 51
0.0000000000007958
 72
   100
 90
   163872
  1

281
     0
 71
     0
 74
     0
110
0.0
120
0.0
130
0.0
111
1.0
121
0.0
131
0.0
112
0.0
122
1.0
132
0.0
 79
     0
146
0.0
1001
VD_INVISIBLE_NOT_FOR_READ
1000
VD_INVISIBLE_NOT_FOR_READ
  0
VIEWPORT
  5
297
102
{ACAD_XDICTIONARY
360
F10A3E
102
}
330
265
100
AcDbEntity
  8
0
 60
     1
100
AcDbViewport
 10
0.0
 20
0.0
 30
0.0
 40
10.0
 41
10.0
 69
     0
 12
0.0
 22
0.0
 13
0.0
 23
0.0
 14
1.0
 24
1.0
 15
0.0
 25
0.0
 16
0.0
 26
0.0
 36
1.0
 17
0.0
 27
0.0
 37
0.0
 42
0.0
 43
0.0
 44
0.0
 45
10.0
 50
0.0
 51
0.0000000000007958
 72
   100
 90
   163872
  1

281
     0
 71
     0
 74
     0
110
0.0
120
0.0
130
0.0
111
1.0
121
0.0
131
0.0
112
0.0
122
1.0
132
0.0
 79
     0
146
0.0
1001
VD_INVISIBLE_NOT_FOR_READ
1000
VD_INVISIBLE_NOT_FOR_READ
  0
ENDBLK
  5
267
330
265
100
AcDbEntity
  8
0
100
AcDbBlockEnd
  0
BLOCK
  5
28B
330
23C
100
AcDbEntity
  8
0
100
AcDbBlockBegin
  2
VDDIM_DEFAULT
 70
     0
 10
0.0
 20
0.0
 30
0.0
  3
VDDIM_DEFAULT
  1

  0
LWPOLYLINE
  5
23D
330
23C
100
AcDbEntity
  8
0
  6
Continuous
 62
     0
100
AcDbPolyline
 90
        4
 70
     0
 43
0.0
 10
0.0
 20
0.0
 10
-1.0
 20
-0.1665
 10
-1.0
 20
0.1665
 10
0.0
 20
0.0
1001
VDEXTRAPARAM
1071
        1
1071
        0
1071
        0
1040
1.0
1000

1000

1040
0.0
1040
0.0
  0
HATCH
  5
292
330
23C
100
AcDbEntity
  8
0
  6
Continuous
 62
     0
100
AcDbHatch
 10
0.0
 20
0.0
 30
0.0
210
0.0
220
0.0
230
1.0
  2
SOLID
 70
     1
 71
     0
 91
        1
 92
        2
 72
     0
 73
     1
 93
        3
 10
0.0
 20
0.0
 10
-1.0
 20
-0.1665
 10
-1.0
 20
0.1665
 97
        0
 75
     0
 76
     1
 98
        1
 10
0.0
 20
0.0
1001
VDEXTRAPARAM
1071
        1
1071
        0
1071
        0
1040
1.0
1000

1000

1040
0.0
1040
0.0
1001
VD_TEMPHATCH
1000
VD_TEMPHATCH
  0
ENDBLK
  5
28C
330
23C
100
AcDbEntity
  8
0
100
AcDbBlockEnd
  0
BLOCK
  5
28D
330
23E
100
AcDbEntity
  8
0
100
AcDbBlockBegin
  2
VDDIM_NONE
 70
     0
 10
0.0
 20
0.0
 30
0.0
  3
VDDIM_NONE
  1

  0
ENDBLK
  5
28E
330
23E
100
AcDbEntity
  8
0
100
AcDbBlockEnd
  0
BLOCK
  5
F10034
330
F10002
100
AcDbEntity
  8
0
100
AcDbBlockBegin
  2
*D3
 70
     1
 10
0.0
 20
0.0
 30
0.0
  3
*D3
  1

  0
LINE
  5
F1096D
330
F10002
100
AcDbEntity
  8
Bemassung
 62
     0
370
    -2
100
AcDbLine
 10
-87.44273127753301
 20
-9.286894273127609
 30
0.0
 11
-87.44273127753301
 21
19.2147577092512
 31
0.0
  0
LINE
  5
F1096E
330
F10002
100
AcDbEntity
  8
Bemassung
 62
     0
370
    -2
100
AcDbLine
 10
-87.34273127753299
 20
7.713105726872389
 30
0.0
 11
-87.34273127753299
 21
19.2147577092512
 31
0.0
  0
LINE
  5
F1096F
330
F10002
100
AcDbEntity
  8
Bemassung
 62
     0
370
    -2
100
AcDbLine
 10
-89.94273127753301
 20
17.9647577092512
 30
0.0
 11
-92.44273127753301
 21
17.9647577092512
 31
0.0
  0
LINE
  5
F10970
330
F10002
100
AcDbEntity
  8
Bemassung
 62
     0
370
    -2
100
AcDbLine
 10
-84.84273127753299
 20
17.9647577092512
 30
0.0
 11
-77.02383632528196
 21
17.9647577092512
 31
0.0
  0
LINE
  5
F10971
330
F10002
100
AcDbEntity
  8
Bemassung
 62
     0
370
    -2
100
AcDbLine
 10
-87.44273127753301
 20
17.9647577092512
 30
0.0
 11
-87.34273127753299
 21
17.9647577092512
 31
0.0
  0
INSERT
  5
F10972
330
F10002
100
AcDbEntity
  8
Bemassung
 62
     0
370
    -2
100
AcDbBlockReference
  2
VDDIM_DEFAULT
 10
-87.44273127753301
 20
17.9647577092512
 30
0.0
 41
2.5
 42
2.5
 43
2.5
  0
INSERT
  5
F10973
330
F10002
100
AcDbEntity
  8
Bemassung
 62
     0
370
    -2
100
AcDbBlockReference
  2
VDDIM_DEFAULT
 10
-87.34273127753299
 20
17.9647577092512
 30
0.0
 41
2.5
 42
2.5
 43
2.5
 50
180.0
  0
MTEXT
  5
F10974
330
F10002
100
AcDbEntity
  8
Bemassung
 62
     0
100
AcDbMText
 10
-79.68328380140748
 20
18.5897577092512
 30
0.0
 40
2.5
 41
0.0
 71
     8
 72
     1
  1
\A1;0.1
 73
     1
 44
1.0
1001
ACAD
1000
MTEXTBEGIN
1070
    73
1070
     1
1070
    44
1040
1.0
1070
    74
1070
     0
1000
MTEXTEND
  0
POINT
  5
F10975
330
F10002
100
AcDbEntity
  8
Defpoints
 62
     0
100
AcDbPoint
 10
-87.44273127753301
 20
-9.911894273127609
 30
0.0
  0
POINT
  5
F10976
330
F10002
100
AcDbEntity
  8
Defpoints
 62
     0
100
AcDbPoint
 10
-87.34273127753299
 20
7.088105726872389
 30
0.0
  0
POINT
  5
F10977
330
F10002
100
AcDbEntity
  8
Defpoints
 62
     0
100
AcDbPoint
 10
-87.34273127753299
 20
17.9647577092512
 30
0.0
  0
ENDBLK
  5
F1003D
330
F10002
100
AcDbEntity
  8
0
100
AcDbBlockEnd
  0
BLOCK
  5
F1003E
330
F10016
100
AcDbEntity
  8
0
100
AcDbBlockBegin
  2
*D4
 70
     1
 10
0.0
 20
0.0
 30
0.0
  3
*D4
  1

  0
LINE
  5
F109F2
330
F10016
100
AcDbEntity
  8
Bemassung
 62
     0
370
    -2
100
AcDbLine
 10
-12.09107328569865
 20
10.7313597881762
 30
0.0
 11
-12.09107328569865
 21
23.43210718570725
 31
0.0
  0
LINE
  5
F109F3
330
F10016
100
AcDbEntity
  8
Bemassung
 62
     0
370
    -2
100
AcDbLine
 10
23.90892671430135
 20
10.2313597881762
 30
0.0
 11
23.90892671430135
 21
23.43210718570725
 31
0.0
  0
LINE
  5
F109F4
330
F10016
100
AcDbEntity
  8
Bemassung
 62
     0
370
    -2
100
AcDbLine
 10
-9.591073285698648
 20
22.18210718570725
 30
0.0
 11
21.40892671430135
 21
22.18210718570725
 31
0.0
  0
INSERT
  5
F109F5
330
F10016
100
AcDbEntity
  8
Bemassung
 62
     0
370
    -2
100
AcDbBlockReference
  2
VDDIM_DEFAULT
 10
-12.09107328569865
 20
22.18210718570725
 30
0.0
 41
2.5
 42
2.5
 43
2.5
 50
180.0
  0
INSERT
  5
F109F6
330
F10016
100
AcDbEntity
  8
Bemassung
 62
     0
370
    -2
100
AcDbBlockReference
  2
VDDIM_DEFAULT
 10
23.90892671430135
 20
22.18210718570725
 30
0.0
 41
2.5
 42
2.5
 43
2.5
  0
MTEXT
  5
F109F7
330
F10016
100
AcDbEntity
  8
Bemassung
 62
     0
100
AcDbMText
 10
4.649188774331292
 20
22.80710718570725
 30
0.0
 40
2.5
 41
0.0
 71
     8
 72
     1
  1
\A1;36
 73
     1
 44
1.0
1001
ACAD
1000
MTEXTBEGIN
1070
    73
1070
     1
1070
    44
1040
1.0
1070
    74
1070
     0
1000
MTEXTEND
  0
POINT
  5
F109F8
330
F10016
100
AcDbEntity
  8
Defpoints
 62
     0
100
AcDbPoint
 10
-12.09107328569865
 20
10.1063597881762
 30
0.0
  0
POINT
  5
F109F9
330
F10016
100
AcDbEntity
  8
Defpoints
 62
     0
100
AcDbPoint
 10
23.90892671430135
 20
9.606359788176206
 30
0.0
  0
POINT
  5
F109FA
330
F10016
100
AcDbEntity
  8
Defpoints
 62
     0
100
AcDbPoint
 10
23.90892671430135
 20
22.18210718570725
 30
0.0
  0
ENDBLK
  5
F10047
330
F10016
100
AcDbEntity
  8
0
100
AcDbBlockEnd
  0
BLOCK
  5
F10048
330
F10020
100
AcDbEntity
  8
0
100
AcDbBlockBegin
  2
*D5
 70
     1
 10
0.0
 20
0.0
 30
0.0
  3
*D5
  1

  0
LINE
  5
F10A06
330
F10020
100
AcDbEntity
  8
Bemassung
 62
     0
370
    -2
100
AcDbLine
 10
-21.09107328569865
 20
4.481359788176206
 30
0.0
 11
-21.09107328569865
 21
-3.281472273607571
 31
0.0
  0
LINE
  5
F10A07
330
F10020
100
AcDbEntity
  8
Bemassung
 62
     0
370
    -2
100
AcDbLine
 10
-33.09107328569865
 20
6.481359788176206
 30
0.0
 11
-33.09107328569865
 21
-3.281472273607571
 31
0.0
  0
LINE
  5
F10A08
330
F10020
100
AcDbEntity
  8
Bemassung
 62
     0
370
    -2
100
AcDbLine
 10
-23.59107328569865
 20
-2.031472273607571
 30
0.0
 11
-30.59107328569865
 21
-2.031472273607571
 31
0.0
  0
INSERT
  5
F10A09
330
F10020
100
AcDbEntity
  8
Bemassung
 62
     0
370
    -2
100
AcDbBlockReference
  2
VDDIM_DEFAULT
 10
-21.09107328569865
 20
-2.031472273607571
 30
0.0
 41
2.5
 42
2.5
 43
2.5
  0
INSERT
  5
F10A0A
330
F10020
100
AcDbEntity
  8
Bemassung
 62
     0
370
    -2
100
AcDbBlockReference
  2
VDDIM_DEFAULT
 10
-33.09107328569865
 20
-2.031472273607571
 30
0.0
 41
2.5
 42
2.5
 43
2.5
 50
180.0
  0
MTEXT
  5
F10A0B
330
F10020
100
AcDbEntity
  8
Bemassung
 62
     0
100
AcDbMText
 10
-27.41639381769024
 20
-1.406472273607571
 30
0.0
 40
2.5
 41
0.0
 71
     8
 72
     1
  1
\A1;12
 73
     1
 44
1.0
1001
ACAD
1000
MTEXTBEGIN
1070
    73
1070
     1
1070
    44
1040
1.0
1070
    74
1070
     0
1000
MTEXTEND
  0
POINT
  5
F10A0C
330
F10020
100
AcDbEntity
  8
Defpoints
 62
     0
100
AcDbPoint
 10
-21.09107328569865
 20
5.106359788176206
 30
0.0
  0
POINT
  5
F10A0D
330
F10020
100
AcDbEntity
  8
Defpoints
 62
     0
100
AcDbPoint
 10
-33.09107328569865
 20
7.106359788176206
 30
0.0
  0
POINT
  5
F10A0E
330
F10020
100
AcDbEntity
  8
Defpoints
 62
     0
100
AcDbPoint
 10
-33.09107328569865
 20
-2.031472273607571
 30
0.0
  0
ENDBLK
  5
F10051
330
F10020
100
AcDbEntity
  8
0
100
AcDbBlockEnd
  0
BLOCK
  5
F10052
330
F10025
100
AcDbEntity
  8
0
100
AcDbBlockBegin
  2
*D6
 70
     1
 10
0.0
 20
0.0
 30
0.0
  3
*D6
  1

  0
LINE
  5
F1090F
330
F10025
100
AcDbEntity
  8
Bemassung
 62
     0
370
    -2
100
AcDbLine
 10
-82.042731277533
 20
2.463105726872389
 30
0.0
 11
-82.042731277533
 21
-9.16189427312762
 31
0.0
  0
LINE
  5
F10910
330
F10025
100
AcDbEntity
  8
Bemassung
 62
     0
370
    -2
100
AcDbLine
 10
-87.44273127753301
 20
-9.286894273127609
 30
0.0
 11
-87.44273127753301
 21
-6.66189427312762
 31
0.0
  0
LINE
  5
F10911
330
F10025
100
AcDbEntity
  8
Bemassung
 62
     0
370
    -2
100
AcDbLine
 10
-79.542731277533
 20
-7.91189427312762
 30
0.0
 11
-77.042731277533
 21
-7.91189427312762
 31
0.0
  0
LINE
  5
F10912
330
F10025
100
AcDbEntity
  8
Bemassung
 62
     0
370
    -2
100
AcDbLine
 10
-89.94273127753301
 20
-7.91189427312762
 30
0.0
 11
-98.23400003605961
 21
-7.91189427312762
 31
0.0
  0
LINE
  5
F10913
330
F10025
100
AcDbEntity
  8
Bemassung
 62
     0
370
    -2
100
AcDbLine
 10
-82.042731277533
 20
-7.91189427312762
 30
0.0
 11
-87.44273127753301
 21
-7.91189427312762
 31
0.0
  0
INSERT
  5
F10914
330
F10025
100
AcDbEntity
  8
Bemassung
 62
     0
370
    -2
100
AcDbBlockReference
  2
VDDIM_DEFAULT
 10
-82.042731277533
 20
-7.91189427312762
 30
0.0
 41
2.5
 42
2.5
 43
2.5
 50
180.0
  0
INSERT
  5
F10915
330
F10025
100
AcDbEntity
  8
Bemassung
 62
     0
370
    -2
100
AcDbBlockReference
  2
VDDIM_DEFAULT
 10
-87.44273127753301
 20
-7.91189427312762
 30
0.0
 41
2.5
 42
2.5
 43
2.5
  0
MTEXT
  5
F10916
330
F10025
100
AcDbEntity
  8
Bemassung
 62
     0
100
AcDbMText
 10
-95.3383656567963
 20
-7.28689427312762
 30
0.0
 40
2.5
 41
0.0
 71
     8
 72
     1
  1
\A1;5.4
 73
     1
 44
1.0
1001
ACAD
1000
MTEXTBEGIN
1070
    73
1070
     1
1070
    44
1040
1.0
1070
    74
1070
     0
1000
MTEXTEND
  0
POINT
  5
F10917
330
F10025
100
AcDbEntity
  8
Defpoints
 62
     0
100
AcDbPoint
 10
-82.042731277533
 20
3.088105726872389
 30
0.0
  0
POINT
  5
F10918
330
F10025
100
AcDbEntity
  8
Defpoints
 62
     0
100
AcDbPoint
 10
-87.44273127753301
 20
-9.911894273127609
 30
0.0
  0
POINT
  5
F10919
330
F10025
100
AcDbEntity
  8
Defpoints
 62
     0
100
AcDbPoint
 10
-87.44273127753301
 20
-7.91189427312762
 30
0.0
  0
ENDBLK
  5
F1005B
330
F10025
100
AcDbEntity
  8
0
100
AcDbBlockEnd
  0
BLOCK
  5
F1005C
330
F1002A
100
AcDbEntity
  8
0
100
AcDbBlockBegin
  2
*D7
 70
     1
 10
0.0
 20
0.0
 30
0.0
  3
*D7
  1

  0
LINE
  5
F10A0F
330
F1002A
100
AcDbEntity
  8
Bemassung
 62
     0
370
    -2
100
AcDbLine
 10
23.90892671430135
 20
10.2313597881762
 30
0.0
 11
23.90892671430135
 21
33.56829422515022
 31
0.0
  0
LINE
  5
F10A10
330
F1002A
100
AcDbEntity
  8
Bemassung
 62
     0
370
    -2
100
AcDbLine
 10
-33.09107328569865
 20
7.731359788176206
 30
0.0
 11
-33.09107328569865
 21
33.56829422515022
 31
0.0
  0
LINE
  5
F10A11
330
F1002A
100
AcDbEntity
  8
Bemassung
 62
     0
370
    -2
100
AcDbLine
 10
21.40892671430135
 20
32.31829422515022
 30
0.0
 11
-30.59107328569865
 21
32.31829422515022
 31
0.0
  0
INSERT
  5
F10A12
330
F1002A
100
AcDbEntity
  8
Bemassung
 62
     0
370
    -2
100
AcDbBlockReference
  2
VDDIM_DEFAULT
 10
23.90892671430135
 20
32.31829422515022
 30
0.0
 41
2.5
 42
2.5
 43
2.5
  0
INSERT
  5
F10A13
330
F1002A
100
AcDbEntity
  8
Bemassung
 62
     0
370
    -2
100
AcDbBlockReference
  2
VDDIM_DEFAULT
 10
-33.09107328569865
 20
32.31829422515022
 30
0.0
 41
2.5
 42
2.5
 43
2.5
 50
180.0
  0
MTEXT
  5
F10A14
330
F1002A
100
AcDbEntity
  8
Bemassung
 62
     0
100
AcDbMText
 10
-6.905436389106114
 20
32.94329422515022
 30
0.0
 40
2.5
 41
0.0
 71
     8
 72
     1
  1
\A1;57
 73
     1
 44
1.0
1001
ACAD
1000
MTEXTBEGIN
1070
    73
1070
     1
1070
    44
1040
1.0
1070
    74
1070
     0
1000
MTEXTEND
  0
POINT
  5
F10A15
330
F1002A
100
AcDbEntity
  8
Defpoints
 62
     0
100
AcDbPoint
 10
23.90892671430135
 20
9.606359788176206
 30
0.0
  0
POINT
  5
F10A16
330
F1002A
100
AcDbEntity
  8
Defpoints
 62
     0
100
AcDbPoint
 10
-33.09107328569865
 20
7.106359788176206
 30
0.0
  0
POINT
  5
F10A17
330
F1002A
100
AcDbEntity
  8
Defpoints
 62
     0
100
AcDbPoint
 10
-33.09107328569865
 20
32.31829422515022
 30
0.0
  0
ENDBLK
  5
F10065
330
F1002A
100
AcDbEntity
  8
0
100
AcDbBlockEnd
  0
BLOCK
  5
F10066
330
F1002F
100
AcDbEntity
  8
0
100
AcDbBlockBegin
  2
*D8
 70
     1
 10
0.0
 20
0.0
 30
0.0
  3
*D8
  1

  0
LINE
  5
F10A18
330
F1002F
100
AcDbEntity
  8
Bemassung
 62
     0
370
    -2
100
AcDbLine
 10
-33.09107328569865
 20
6.481359788176205
 30
0.0
 11
-33.09107328569865
 21
-15.36958481795835
 31
0.0
  0
LINE
  5
F10A19
330
F1002F
100
AcDbEntity
  8
Bemassung
 62
     0
370
    -2
100
AcDbLine
 10
-15.09107328569865
 20
8.381359788176204
 30
0.0
 11
-15.09107328569865
 21
-15.36958481795835
 31
0.0
  0
LINE
  5
F10A1A
330
F1002F
100
AcDbEntity
  8
Bemassung
 62
     0
370
    -2
100
AcDbLine
 10
-30.59107328569865
 20
-14.11958481795835
 30
0.0
 11
-17.59107328569865
 21
-14.11958481795835
 31
0.0
  0
INSERT
  5
F10A1B
330
F1002F
100
AcDbEntity
  8
Bemassung
 62
     0
370
    -2
100
AcDbBlockReference
  2
VDDIM_DEFAULT
 10
-33.09107328569865
 20
-14.11958481795835
 30
0.0
 41
2.5
 42
2.5
 43
2.5
 50
180.0
  0
INSERT
  5
F10A1C
330
F1002F
100
AcDbEntity
  8
Bemassung
 62
     0
370
    -2
100
AcDbBlockReference
  2
VDDIM_DEFAULT
 10
-15.09107328569865
 20
-14.11958481795835
 30
0.0
 41
2.5
 42
2.5
 43
2.5
  0
MTEXT
  5
F10A1D
330
F1002F
100
AcDbEntity
  8
Bemassung
 62
     0
100
AcDbMText
 10
-23.88366128287603
 20
-13.49458481795835
 30
0.0
 40
2.5
 41
0.0
 71
     8
 72
     1
  1
\A1;18
 73
     1
 44
1.0
1001
ACAD
1000
MTEXTBEGIN
1070
    73
1070
     1
1070
    44
1040
1.0
1070
    74
1070
     0
1000
MTEXTEND
  0
POINT
  5
F10A1E
330
F1002F
100
AcDbEntity
  8
Defpoints
 62
     0
100
AcDbPoint
 10
-33.09107328569865
 20
7.106359788176205
 30
0.0
  0
POINT
  5
F10A1F
330
F1002F
100
AcDbEntity
  8
Defpoints
 62
     0
100
AcDbPoint
 10
-15.09107328569865
 20
9.006359788176204
 30
0.0
  0
POINT
  5
F10A20
330
F1002F
100
AcDbEntity
  8
Defpoints
 62
     0
100
AcDbPoint
 10
-15.09107328569865
 20
-14.11958481795835
 30
0.0
  0
ENDBLK
  5
F1006F
330
F1002F
100
AcDbEntity
  8
0
100
AcDbBlockEnd
  0
BLOCK
  5
F10070
330
F10011
100
AcDbEntity
  8
0
100
AcDbBlockBegin
  2
*D9
 70
     1
 10
0.0
 20
0.0
 30
0.0
  3
*D9
  1

  0
ARC
  5
F108E9
330
F10011
100
AcDbEntity
  8
Bemassung
 62
     0
370
    -2
100
AcDbCircle
 10
-66.442731277533
 20
8.088105726872392
 30
0.0
 40
28.43253934835442
100
AcDbArc
 50
5.039494700066663
 51
24.96050529993333
  0
INSERT
  5
F108EA
330
F10011
100
AcDbEntity
  8
Bemassung
 62
     0
370
    -2
100
AcDbBlockReference
  2
VDDIM_DEFAULT
 10
-38.01019192917859
 20
8.088105726872393
 30
0.0
 41
2.5
 42
2.5
 43
2.5
 50
272.5197473500333
  0
INSERT
  5
F108EB
330
F10011
100
AcDbEntity
  8
Bemassung
 62
     0
370
    -2
100
AcDbBlockReference
  2
VDDIM_DEFAULT
 10
-41.81942990775741
 20
22.30437540104959
 30
0.0
 41
2.5
 42
2.5
 43
2.5
 50
117.4802526499666
  0
MTEXT
  5
F108EC
102
{ACAD_XDICTIONARY
360
F10A34
102
}
330
F10011
100
AcDbEntity
  8
Bemassung
 62
     0
100
AcDbMText
 10
-38.37530357254664
 20
15.60875031404239
 30
0.0
 40
2.5
 41
0.0
 71
     8
 72
     1
  1
\A1;30\U+00B0{\H0.5x;\S+5°^ +5°;}
 11
0.2588190451025214
 21
-0.9659258262890681
 31
0.0
 73
     1
 44
1.0
1001
ACAD
1000
MTEXTBEGIN
1070
    73
1070
     1
1070
    44
1040
1.0
1070
    74
1070
     0
1000
MTEXTEND
  0
POINT
  5
F108ED
330
F10011
100
AcDbEntity
  8
Defpoints
 62
     0
100
AcDbPoint
 10
-38.4421460894489
 20
13.02536437115742
 30
0.0
  0
POINT
  5
F108EE
330
F10011
100
AcDbEntity
  8
Defpoints
 62
     0
100
AcDbPoint
 10
-40.08737910018861
 20
23.30437540104961
 30
0.0
  0
POINT
  5
F108EF
330
F10011
100
AcDbEntity
  8
Defpoints
 62
     0
100
AcDbPoint
 10
-66.442731277533
 20
8.088105726872392
 30
0.0
  0
POINT
  5
F108F0
330
F10011
100
AcDbEntity
  8
Defpoints
 62
     0
100
AcDbPoint
 10
-36.0101919291786
 20
8.088105726872392
 30
0.0
  0
POINT
  5
F108F1
330
F10011
100
AcDbEntity
  8
Defpoints
 62
     0
100
AcDbPoint
 10
-66.442731277533
 20
8.088105726872392
 30
0.0
  0
ENDBLK
  5
F1007B
330
F10011
100
AcDbEntity
  8
0
100
AcDbBlockEnd
  0
BLOCK
  5
F1007C
330
F10007
100
AcDbEntity
  8
0
100
AcDbBlockBegin
  2
*D10
 70
     1
 10
0.0
 20
0.0
 30
0.0
  3
*D10
  1

  0
LINE
  5
F109DC
330
F10007
100
AcDbEntity
  8
Bemassung
 62
     0
370
    -2
100
AcDbLine
 10
-33.61607328569864
 20
5.106359788176206
 30
0.0
 11
-50.64613936499365
 21
5.106359788176211
 31
0.0
  0
LINE
  5
F109DD
330
F10007
100
AcDbEntity
  8
Bemassung
 62
     0
370
    -2
100
AcDbLine
 10
-33.61607328569864
 20
9.106359788176206
 30
0.0
 11
-50.64613936499365
 21
9.106359788176211
 31
0.0
  0
LINE
  5
F109DE
330
F10007
100
AcDbEntity
  8
Bemassung
 62
     0
370
    -2
100
AcDbLine
 10
-49.39613936499365
 20
2.606359788176211
 30
0.0
 11
-49.39613936499365
 21
0.1063597881762111
 31
0.0
  0
LINE
  5
F109DF
330
F10007
100
AcDbEntity
  8
Bemassung
 62
     0
370
    -2
100
AcDbLine
 10
-49.39613936499365
 20
11.60635978817621
 30
0.0
 11
-49.39613936499364
 21
19.70492731887198
 31
0.0
  0
LINE
  5
F109E0
330
F10007
100
AcDbEntity
  8
Bemassung
 62
     0
370
    -2
100
AcDbLine
 10
-49.39613936499365
 20
5.10635978817621
 30
0.0
 11
-49.39613936499365
 21
9.106359788176211
 31
0.0
  0
INSERT
  5
F109E1
330
F10007
100
AcDbEntity
  8
Bemassung
 62
     0
370
    -2
100
AcDbBlockReference
  2
VDDIM_DEFAULT
 10
-49.39613936499365
 20
5.10635978817621
 30
0.0
 41
2.5
 42
2.5
 43
2.5
 50
90.0
  0
INSERT
  5
F109E2
330
F10007
100
AcDbEntity
  8
Bemassung
 62
     0
370
    -2
100
AcDbBlockReference
  2
VDDIM_DEFAULT
 10
-49.39613936499365
 20
9.106359788176211
 30
0.0
 41
2.5
 42
2.5
 43
2.5
 50
270.0
  0
MTEXT
  5
F109E3
330
F10007
100
AcDbEntity
  8
Bemassung
 62
     0
100
AcDbMText
 10
-50.02113936499365
 20
16.90564355352409
 30
0.0
 40
2.5
 41
0.0
 71
     8
 72
     1
  1
\A1;%%c4
 11
0.0000000000000001
 21
1.0
 31
0.0
 73
     1
 44
1.0
1001
ACAD
1000
MTEXTBEGIN
1070
    73
1070
     1
1070
    44
1040
1.0
1070
    74
1070
     0
1000
MTEXTEND
  0
POINT
  5
F109E4
330
F10007
100
AcDbEntity
  8
Defpoints
 62
     0
100
AcDbPoint
 10
-32.99107328569864
 20
5.106359788176206
 30
0.0
  0
POINT
  5
F109E5
330
F10007
100
AcDbEntity
  8
Defpoints
 62
     0
100
AcDbPoint
 10
-32.99107328569864
 20
9.106359788176206
 30
0.0
  0
POINT
  5
F109E6
330
F10007
100
AcDbEntity
  8
Defpoints
 62
     0
100
AcDbPoint
 10
-49.39613936499365
 20
9.106359788176211
 30
0.0
  0
ENDBLK
  5
F10085
330
F10007
100
AcDbEntity
  8
0
100
AcDbBlockEnd
  0
BLOCK
  5
F10086
330
F1000C
100
AcDbEntity
  8
0
100
AcDbBlockBegin
  2
*D11
 70
     1
 10
0.0
 20
0.0
 30
0.0
  3
*D11
  1

  0
LINE
  5
F109E7
330
F1000C
100
AcDbEntity
  8
Bemassung
 62
     0
370
    -2
100
AcDbLine
 10
-17.17868224314774
 20
5.206359788176206
 30
0.0
 11
-15.38929212532983
 21
5.206359788176206
 31
0.0
  0
LINE
  5
F109E8
330
F1000C
100
AcDbEntity
  8
Bemassung
 62
     0
370
    -2
100
AcDbLine
 10
-17.17868224314774
 20
9.006359788176204
 30
0.0
 11
-15.38929212532983
 21
9.006359788176204
 31
0.0
  0
LINE
  5
F109E9
330
F1000C
100
AcDbEntity
  8
Bemassung
 62
     0
370
    -2
100
AcDbLine
 10
-16.63929212532983
 20
11.5063597881762
 30
0.0
 11
-16.63929212532983
 21
14.0063597881762
 31
0.0
  0
LINE
  5
F109EA
330
F1000C
100
AcDbEntity
  8
Bemassung
 62
     0
370
    -2
100
AcDbLine
 10
-16.63929212532984
 20
2.706359788176206
 30
0.0
 11
-16.63929212532984
 21
-8.32024321318806
 31
0.0
  0
LINE
  5
F109EB
330
F1000C
100
AcDbEntity
  8
Bemassung
 62
     0
370
    -2
100
AcDbLine
 10
-16.63929212532983
 20
9.006359788176204
 30
0.0
 11
-16.63929212532984
 21
5.206359788176206
 31
0.0
  0
INSERT
  5
F109EC
330
F1000C
100
AcDbEntity
  8
Bemassung
 62
     0
370
    -2
100
AcDbBlockReference
  2
VDDIM_DEFAULT
 10
-16.63929212532983
 20
9.006359788176204
 30
0.0
 41
2.5
 42
2.5
 43
2.5
 50
270.0
  0
INSERT
  5
F109ED
330
F1000C
100
AcDbEntity
  8
Bemassung
 62
     0
370
    -2
100
AcDbBlockReference
  2
VDDIM_DEFAULT
 10
-16.63929212532984
 20
5.206359788176206
 30
0.0
 41
2.5
 42
2.5
 43
2.5
 50
90.0
  0
MTEXT
  5
F109EE
330
F1000C
100
AcDbEntity
  8
Bemassung
 62
     0
100
AcDbMText
 10
-17.26429212532984
 20
-4.056941712505934
 30
0.0
 40
2.5
 41
0.0
 71
     8
 72
     1
  1
\A1;%%c3.8
 11
0.0000000000000001
 21
1.0
 31
0.0
 73
     1
 44
1.0
1001
ACAD
1000
MTEXTBEGIN
1070
    73
1070
     1
1070
    44
1040
1.0
1070
    74
1070
     0
1000
MTEXTEND
  0
POINT
  5
F109EF
330
F1000C
100
AcDbEntity
  8
Defpoints
 62
     0
100
AcDbPoint
 10
-17.80368224314774
 20
5.206359788176206
 30
0.0
  0
POINT
  5
F109F0
330
F1000C
100
AcDbEntity
  8
Defpoints
 62
     0
100
AcDbPoint
 10
-17.80368224314774
 20
9.006359788176204
 30
0.0
  0
POINT
  5
F109F1
330
F1000C
100
AcDbEntity
  8
Defpoints
 62
     0
100
AcDbPoint
 10
-16.63929212532983
 20
9.006359788176204
 30
0.0
  0
ENDBLK
  5
F1008F
330
F1000C
100
AcDbEntity
  8
0
100
AcDbBlockEnd
  0
BLOCK
  5
F10090
330
F1001B
100
AcDbEntity
  8
0
100
AcDbBlockBegin
  2
*D12
 70
     1
 10
0.0
 20
0.0
 30
0.0
  3
*D12
  1

  0
LINE
  5
F109FB
330
F1001B
100
AcDbEntity
  8
Bemassung
 62
     0
370
    -2
100
AcDbLine
 10
24.03392671430135
 20
4.106359788176206
 30
0.0
 11
35.15892671430135
 21
4.106359788176202
 31
0.0
  0
LINE
  5
F109FC
330
F1001B
100
AcDbEntity
  8
Bemassung
 62
     0
370
    -2
100
AcDbLine
 10
24.03392671430135
 20
10.1063597881762
 30
0.0
 11
35.15892671430135
 21
10.1063597881762
 31
0.0
  0
LINE
  5
F109FD
330
F1001B
100
AcDbEntity
  8
Bemassung
 62
     0
370
    -2
100
AcDbLine
 10
33.90892671430135
 20
1.606359788176203
 30
0.0
 11
33.90892671430135
 21
-0.8936402118237968
 31
0.0
  0
LINE
  5
F109FE
330
F1001B
100
AcDbEntity
  8
Bemassung
 62
     0
370
    -2
100
AcDbLine
 10
33.90892671430135
 20
12.6063597881762
 30
0.0
 11
33.90892671430136
 21
25.56850167085015
 31
0.0
  0
LINE
  5
F109FF
330
F1001B
100
AcDbEntity
  8
Bemassung
 62
     0
370
    -2
100
AcDbLine
 10
33.90892671430135
 20
4.106359788176203
 30
0.0
 11
33.90892671430135
 21
10.1063597881762
 31
0.0
  0
INSERT
  5
F10A00
330
F1001B
100
AcDbEntity
  8
Bemassung
 62
     0
370
    -2
100
AcDbBlockReference
  2
VDDIM_DEFAULT
 10
33.90892671430135
 20
4.106359788176203
 30
0.0
 41
2.5
 42
2.5
 43
2.5
 50
90.0
  0
INSERT
  5
F10A01
330
F1001B
100
AcDbEntity
  8
Bemassung
 62
     0
370
    -2
100
AcDbBlockReference
  2
VDDIM_DEFAULT
 10
33.90892671430135
 20
10.1063597881762
 30
0.0
 41
2.5
 42
2.5
 43
2.5
 50
270.0
  0
MTEXT
  5
F10A02
330
F1001B
100
AcDbEntity
  8
Bemassung
 62
     0
100
AcDbMText
 10
33.28392671430135
 20
20.33743072951318
 30
0.0
 40
2.5
 41
0.0
 71
     8
 72
     1
  1
\A1;%%c6 h6
 11
0.0000000000000001
 21
1.0
 31
0.0
 73
     1
 44
1.0
1001
ACAD
1000
MTEXTBEGIN
1070
    73
1070
     1
1070
    44
1040
1.0
1070
    74
1070
     0
1000
MTEXTEND
  0
POINT
  5
F10A03
330
F1001B
100
AcDbEntity
  8
Defpoints
 62
     0
100
AcDbPoint
 10
23.40892671430135
 20
4.106359788176206
 30
0.0
  0
POINT
  5
F10A04
330
F1001B
100
AcDbEntity
  8
Defpoints
 62
     0
100
AcDbPoint
 10
23.40892671430135
 20
10.1063597881762
 30
0.0
  0
POINT
  5
F10A05
330
F1001B
100
AcDbEntity
  8
Defpoints
 62
     0
100
AcDbPoint
 10
33.90892671430135
 20
10.1063597881762
 30
0.0
  0
ENDBLK
  5
F10099
330
F1001B
100
AcDbEntity
  8
0
100
AcDbBlockEnd
  0
BLOCK
  5
F108B6
330
F108B4
100
AcDbEntity
  8
0
100
AcDbBlockBegin
  2
GENAXEH
 70
     0
 10
0.0
 20
0.0
 30
0.0
  3
GENAXEH
  1

  0
LINE
  5
F108B5
330
F108B4
100
AcDbEntity
  8
0
100
AcDbLine
 10
-1.0
 20
0.0
 30
0.0
 11
1.0
 21
0.0
 31
0.0
  0
ENDBLK
  5
F108B7
330
F108B4
100
AcDbEntity
  8
0
100
AcDbBlockEnd
  0
ENDSEC
  0
SECTION
  2
ENTITIES
  0
DIMENSION
  5
F10017
330
261
100
AcDbEntity
  8
Bemassung
100
AcDbDimension
  2
*D4
 10
23.90892671430135
 20
22.18210718570725
 30
0.0
 11
4.649188774331292
 21
22.18210718570725
 31
0.0
 70
   160
  1
<>
 71
     8
 42
36.0
  3
BEM-ISBE
100
AcDbAlignedDimension
 13
-12.09107328569865
 23
10.1063597881762
 33
0.0
 14
23.90892671430135
 24
9.606359788176206
 34
0.0
100
AcDbRotatedDimension
1001
ACAD
1000
DSTYLE
1002
{
1070
   147
1040
0.625
1070
    72
1070
     0
1070
    71
1070
     0
1070
   284
1070
     8
1070
    78
1070
     8
1070
   144
1040
1.0
1070
    47
1040
2.0
1070
    48
1040
0.0
1002
}
  0
DIMENSION
  5
F10021
330
261
100
AcDbEntity
  8
Bemassung
100
AcDbDimension
  2
*D5
 10
-33.09107328569865
 20
-2.031472273607571
 30
0.0
 11
-27.41639381769024
 21
-2.031472273607571
 31
0.0
 70
   160
  1
<>
 71
     8
 42
12.0
  3
BEM-ISBE
100
AcDbAlignedDimension
 13
-21.09107328569865
 23
5.106359788176206
 33
0.0
 14
-33.09107328569865
 24
7.106359788176206
 34
0.0
100
AcDbRotatedDimension
1001
ACAD
1000
DSTYLE
1002
{
1070
   147
1040
0.625
1070
    72
1070
     0
1070
    71
1070
     0
1070
   284
1070
     8
1070
    78
1070
     8
1070
   144
1040
1.0
1070
    47
1040
1.5
1070
    48
1040
0.0
1002
}
  0
DIMENSION
  5
F1002B
330
261
100
AcDbEntity
  8
Bemassung
100
AcDbDimension
  2
*D7
 10
-33.09107328569865
 20
32.31829422515022
 30
0.0
 11
-6.905436389106114
 21
32.31829422515022
 31
0.0
 70
   160
  1
<>
 71
     8
 42
57.0
  3
BEM-ISBE
100
AcDbAlignedDimension
 13
23.90892671430135
 23
9.606359788176206
 33
0.0
 14
-33.09107328569865
 24
7.106359788176206
 34
0.0
100
AcDbRotatedDimension
1001
ACAD
1000
DSTYLE
1002
{
1070
   147
1040
0.625
1070
    72
1070
     0
1070
    71
1070
     0
1070
   284
1070
     8
1070
    78
1070
     8
1070
   144
1040
1.0
1070
    47
1040
2.0
1070
    48
1040
0.0
1002
}
  0
DIMENSION
  5
F10030
330
261
100
AcDbEntity
  8
Bemassung
100
AcDbDimension
  2
*D8
 10
-15.09107328569865
 20
-14.11958481795835
 30
0.0
 11
-23.88366128287603
 21
-14.11958481795835
 31
0.0
 70
   160
  1
<>
 71
     8
 42
18.0
  3
BEM-ISBE
100
AcDbAlignedDimension
 13
-33.09107328569865
 23
7.106359788176205
 33
0.0
 14
-15.09107328569865
 24
9.006359788176204
 34
0.0
100
AcDbRotatedDimension
1001
ACAD
1000
DSTYLE
1002
{
1070
   284
1070
     8
1070
    78
1070
     8
1070
   144
1040
1.0
1070
   147
1040
0.625
1070
    72
1070
     0
1070
    71
1070
     0
1002
}
  0
DIMENSION
  5
F10008
330
261
100
AcDbEntity
  8
Bemassung
100
AcDbDimension
  2
*D10
 10
-49.39613936499365
 20
9.106359788176211
 30
0.0
 11
-51.36748997890907
 21
16.90564355352409
 31
0.0
 70
    32
  1
%%c<>
 71
     8
 42
4.0
  3
BEM-ISBE
100
AcDbAlignedDimension
 13
-32.99107328569864
 23
5.106359788176206
 33
0.0
 14
-32.99107328569864
 24
9.106359788176206
 34
0.0
 50
90.0
100
AcDbRotatedDimension
1001
ACAD
1000
DSTYLE
1002
{
1070
   147
1040
0.625
1070
    72
1070
     0
1070
    71
1070
     0
1070
   284
1070
     8
1070
    78
1070
     8
1070
   144
1040
1.0
1070
    47
1040
0.0
1070
    48
1040
-0.048
1002
}
  0
DIMENSION
  5
F1000D
330
261
100
AcDbEntity
  8
Bemassung
100
AcDbDimension
  2
*D11
 10
-16.63929212532983
 20
9.006359788176204
 30
0.0
 11
-16.63929212532984
 21
-4.056941712505934
 31
0.0
 70
   160
  1
%%c<>
 71
     8
 42
3.799999999999998
  3
BEM-ISBE
100
AcDbAlignedDimension
 13
-17.80368224314774
 23
5.206359788176206
 33
0.0
 14
-17.80368224314774
 24
9.006359788176204
 34
0.0
 50
90.0
100
AcDbRotatedDimension
1001
ACAD
1000
DSTYLE
1002
{
1070
   147
1040
0.625
1070
    72
1070
     0
1070
    71
1070
     0
1070
   284
1070
     8
1070
    78
1070
     8
1070
   144
1040
1.0
1070
    47
1040
0.0
1070
    48
1040
-0.1
1002
}
  0
DIMENSION
  5
F1001C
330
261
100
AcDbEntity
  8
Bemassung
100
AcDbDimension
  2
*D12
 10
33.90892671430135
 20
10.1063597881762
 30
0.0
 11
31.93757610038594
 21
20.33743072951318
 31
0.0
 70
    32
  1
%%c<> h6
 71
     8
 42
5.999999999999998
  3
BEM-ISBE
100
AcDbAlignedDimension
 13
23.40892671430135
 23
4.106359788176206
 33
0.0
 14
23.40892671430135
 24
10.1063597881762
 34
0.0
 50
90.0
100
AcDbRotatedDimension
1001
ACAD
1000
DSTYLE
1002
{
1070
   284
1070
     8
1070
    78
1070
     8
1070
   144
1040
1.0
1070
   147
1040
0.625
1070
    72
1070
     0
1070
    71
1070
     0
1002
}
  0
LINE
  5
F1009A
330
261
100
AcDbEntity
  8
Geo
100
AcDbLine
 10
-33.09107328569865
 20
7.106359788176205
 30
0.0
 11
-33.09107328569865
 21
9.006359788176204
 31
0.0
  0
LINE
  5
F1009C
330
261
100
AcDbEntity
  8
Geo
100
AcDbLine
 10
-33.09107328569865
 20
9.006359788176204
 30
0.0
 11
-32.99107328569864
 21
9.106359788176206
 31
0.0
  0
LINE
  5
F1009E
330
261
100
AcDbEntity
  8
Geo
100
AcDbLine
 10
-32.99107328569864
 20
9.106359788176206
 30
0.0
 11
-21.09107328569865
 21
9.106359788176206
 31
0.0
  0
LINE
  5
F100A0
330
261
100
AcDbEntity
  8
Geo
100
AcDbLine
 10
-21.09107328569865
 20
9.106359788176206
 30
0.0
 11
-21.09107328569865
 21
9.006359788176204
 31
0.0
  0
LINE
  5
F100A2
330
261
100
AcDbEntity
  8
Geo
100
AcDbLine
 10
-21.09107328569865
 20
9.006359788176204
 30
0.0
 11
-15.09107328569865
 21
9.006359788176204
 31
0.0
  0
LINE
  5
F100A4
330
261
100
AcDbEntity
  8
Geo
100
AcDbLine
 10
-15.09107328569865
 20
9.006359788176204
 30
0.0
 11
-12.09107328569865
 21
10.1063597881762
 31
0.0
  0
LINE
  5
F100A6
330
261
100
AcDbEntity
  8
Geo
100
AcDbLine
 10
-12.09107328569865
 20
10.1063597881762
 30
0.0
 11
2.908926714301351
 21
10.1063597881762
 31
0.0
  0
LINE
  5
F100A8
330
261
100
AcDbEntity
  8
Geo
100
AcDbLine
 10
2.908926714301351
 20
10.1063597881762
 30
0.0
 11
3.808926714301357
 21
9.206359788176195
 31
0.0
  0
LINE
  5
F100AA
330
261
100
AcDbEntity
  8
Geo
100
AcDbLine
 10
3.808926714301357
 20
9.206359788176195
 30
0.0
 11
8.008926714301352
 21
9.206359788176195
 31
0.0
  0
LINE
  5
F100AC
330
261
100
AcDbEntity
  8
Geo
100
AcDbLine
 10
8.008926714301352
 20
9.206359788176195
 30
0.0
 11
8.908926714301351
 21
10.1063597881762
 31
0.0
  0
LINE
  5
F100AE
330
261
100
AcDbEntity
  8
Geo
100
AcDbLine
 10
8.908926714301351
 20
10.1063597881762
 30
0.0
 11
23.40892671430135
 21
10.1063597881762
 31
0.0
  0
LINE
  5
F100B0
330
261
100
AcDbEntity
  8
Geo
100
AcDbLine
 10
23.40892671430135
 20
10.1063597881762
 30
0.0
 11
23.90892671430135
 21
9.606359788176206
 31
0.0
  0
LINE
  5
F100B2
330
261
100
AcDbEntity
  8
Geo
100
AcDbLine
 10
-31.99107328569864
 20
9.106181666910206
 30
0.0
 11
-31.89107328569865
 21
9.104661013022326
 31
0.0
  0
LINE
  5
F100B4
330
261
100
AcDbEntity
  8
Geo
100
AcDbLine
 10
-31.89107328569865
 20
9.104661013022326
 30
0.0
 11
-31.79107328569865
 21
9.097192121890007
 31
0.0
  0
LINE
  5
F100B6
330
261
100
AcDbEntity
  8
Geo
100
AcDbLine
 10
-31.79107328569865
 20
9.097192121890007
 30
0.0
 11
-31.69107328569864
 21
9.083797225765277
 31
0.0
  0
LINE
  5
F100B8
330
261
100
AcDbEntity
  8
Geo
100
AcDbLine
 10
-31.69107328569864
 20
9.083797225765277
 30
0.0
 11
-31.59107328569865
 21
9.064516196524795
 31
0.0
  0
LINE
  5
F100BA
330
261
100
AcDbEntity
  8
Geo
100
AcDbLine
 10
-31.59107328569865
 20
9.064516196524795
 30
0.0
 11
-31.49107328569864
 21
9.039406426985415
 31
0.0
  0
LINE
  5
F100BC
330
261
100
AcDbEntity
  8
Geo
100
AcDbLine
 10
-31.49107328569864
 20
9.039406426985415
 30
0.0
 11
-31.39107328569865
 21
9.008542660066083
 31
0.0
  0
LINE
  5
F100BE
330
261
100
AcDbEntity
  8
Geo
100
AcDbLine
 10
-31.39107328569865
 20
9.008542660066083
 30
0.0
 11
-31.29107328569865
 21
8.972016766304374
 31
0.0
  0
LINE
  5
F100C0
330
261
100
AcDbEntity
  8
Geo
100
AcDbLine
 10
-31.29107328569865
 20
8.972016766304374
 30
0.0
 11
-31.19107328569864
 21
8.929937470390585
 31
0.0
  0
LINE
  5
F100C2
330
261
100
AcDbEntity
  8
Geo
100
AcDbLine
 10
-31.19107328569864
 20
8.929937470390585
 30
0.0
 11
-31.09107328569865
 21
8.882430027532468
 31
0.0
  0
LINE
  5
F100C4
330
261
100
AcDbEntity
  8
Geo
100
AcDbLine
 10
-31.09107328569865
 20
8.882430027532468
 30
0.0
 11
-30.99107328569864
 21
8.829635850614886
 31
0.0
  0
LINE
  5
F100C6
330
261
100
AcDbEntity
  8
Geo
100
AcDbLine
 10
-30.99107328569864
 20
8.829635850614886
 30
0.0
 11
-30.89107328569865
 21
8.771712089263484
 31
0.0
  0
LINE
  5
F100C8
330
261
100
AcDbEntity
  8
Geo
100
AcDbLine
 10
-30.89107328569865
 20
8.771712089263484
 30
0.0
 11
-30.79107328569865
 21
8.708831162065797
 31
0.0
  0
LINE
  5
F100CA
330
261
100
AcDbEntity
  8
Geo
100
AcDbLine
 10
-30.79107328569865
 20
8.708831162065797
 30
0.0
 11
-30.69107328569864
 21
8.641180243341915
 31
0.0
  0
LINE
  5
F100CC
330
261
100
AcDbEntity
  8
Geo
100
AcDbLine
 10
-30.69107328569864
 20
8.641180243341915
 30
0.0
 11
-30.59107328569865
 21
8.568960705992665
 31
0.0
  0
LINE
  5
F100CE
330
261
100
AcDbEntity
  8
Geo
100
AcDbLine
 10
-30.59107328569865
 20
8.568960705992665
 30
0.0
 11
-30.49107328569864
 21
8.492387522083546
 31
0.0
  0
LINE
  5
F100D0
330
261
100
AcDbEntity
  8
Geo
100
AcDbLine
 10
-30.49107328569864
 20
8.492387522083546
 30
0.0
 11
-30.39107328569865
 21
8.411688622948876
 31
0.0
  0
LINE
  5
F100D2
330
261
100
AcDbEntity
  8
Geo
100
AcDbLine
 10
-30.39107328569865
 20
8.411688622948876
 30
0.0
 11
-30.29107328569865
 21
8.327104220720507
 31
0.0
  0
LINE
  5
F100D4
330
261
100
AcDbEntity
  8
Geo
100
AcDbLine
 10
-30.29107328569865
 20
8.327104220720507
 30
0.0
 11
-30.19107328569865
 21
8.238886093301335
 31
0.0
  0
LINE
  5
F100D6
330
261
100
AcDbEntity
  8
Geo
100
AcDbLine
 10
-30.19107328569865
 20
8.238886093301335
 30
0.0
 11
-30.09107328569865
 21
8.147296834911166
 31
0.0
  0
LINE
  5
F100D8
330
261
100
AcDbEntity
  8
Geo
100
AcDbLine
 10
-30.09107328569865
 20
8.147296834911166
 30
0.0
 11
-29.99107328569864
 21
8.052609074436556
 31
0.0
  0
LINE
  5
F100DA
330
261
100
AcDbEntity
  8
Geo
100
AcDbLine
 10
-29.99107328569864
 20
8.052609074436556
 30
0.0
 11
-29.89107328569865
 21
7.955104663910875
 31
0.0
  0
LINE
  5
F100DC
330
261
100
AcDbEntity
  8
Geo
100
AcDbLine
 10
-29.89107328569865
 20
7.955104663910875
 30
0.0
 11
-29.79107328569865
 21
7.855073839540215
 31
0.0
  0
LINE
  5
F100DE
330
261
100
AcDbEntity
  8
Geo
100
AcDbLine
 10
-29.79107328569865
 20
7.855073839540215
 30
0.0
 11
-29.69107328569864
 21
7.752814357772785
 31
0.0
  0
LINE
  5
F100E0
330
261
100
AcDbEntity
  8
Geo
100
AcDbLine
 10
-29.69107328569864
 20
7.752814357772785
 30
0.0
 11
-29.59107328569865
 21
7.648630608982996
 31
0.0
  0
LINE
  5
F100E2
330
261
100
AcDbEntity
  8
Geo
100
AcDbLine
 10
-29.59107328569865
 20
7.648630608982996
 30
0.0
 11
-29.49107328569864
 21
7.542832711408835
 31
0.0
  0
LINE
  5
F100E4
330
261
100
AcDbEntity
  8
Geo
100
AcDbLine
 10
-29.49107328569864
 20
7.542832711408835
 30
0.0
 11
-29.39107328569864
 21
7.435735588039346
 31
0.0
  0
LINE
  5
F100E6
330
261
100
AcDbEntity
  8
Geo
100
AcDbLine
 10
-29.39107328569864
 20
7.435735588039346
 30
0.0
 11
-29.29107328569865
 21
7.327658029200065
 31
0.0
  0
LINE
  5
F100E8
330
261
100
AcDbEntity
  8
Geo
100
AcDbLine
 10
-29.29107328569865
 20
7.327658029200065
 30
0.0
 11
-29.19107328569864
 21
7.218921743626796
 31
0.0
  0
LINE
  5
F100EA
330
261
100
AcDbEntity
  8
Geo
100
AcDbLine
 10
-29.19107328569864
 20
7.218921743626796
 30
0.0
 11
-29.09107328569865
 21
7.109850400852235
 31
0.0
  0
LINE
  5
F100EC
330
261
100
AcDbEntity
  8
Geo
100
AcDbLine
 10
-29.09107328569865
 20
7.109850400852235
 30
0.0
 11
-28.99107328569864
 21
7.000768667756105
 31
0.0
  0
LINE
  5
F100EE
330
261
100
AcDbEntity
  8
Geo
100
AcDbLine
 10
-28.99107328569864
 20
7.000768667756105
 30
0.0
 11
-28.89107328569865
 21
6.892001242146435
 31
0.0
  0
LINE
  5
F100F0
330
261
100
AcDbEntity
  8
Geo
100
AcDbLine
 10
-28.89107328569865
 20
6.892001242146435
 30
0.0
 11
-28.79107328569865
 21
6.783871886248825
 31
0.0
  0
LINE
  5
F100F2
330
261
100
AcDbEntity
  8
Geo
100
AcDbLine
 10
-28.79107328569865
 20
6.783871886248825
 30
0.0
 11
-28.69107328569864
 21
6.676702462980625
 31
0.0
  0
LINE
  5
F100F4
330
261
100
AcDbEntity
  8
Geo
100
AcDbLine
 10
-28.69107328569864
 20
6.676702462980625
 30
0.0
 11
-28.59107328569865
 21
6.570811977878656
 31
0.0
  0
LINE
  5
F100F6
330
261
100
AcDbEntity
  8
Geo
100
AcDbLine
 10
-28.59107328569865
 20
6.570811977878656
 30
0.0
 11
-28.49107328569864
 21
6.466515629532326
 31
0.0
  0
LINE
  5
F100F8
330
261
100
AcDbEntity
  8
Geo
100
AcDbLine
 10
-28.49107328569864
 20
6.466515629532326
 30
0.0
 11
-28.39107328569865
 21
6.364123871348766
 31
0.0
  0
LINE
  5
F100FA
330
261
100
AcDbEntity
  8
Geo
100
AcDbLine
 10
-28.39107328569865
 20
6.364123871348766
 30
0.0
 11
-28.29107328569865
 21
6.263941487442585
 31
0.0
  0
LINE
  5
F100FC
330
261
100
AcDbEntity
  8
Geo
100
AcDbLine
 10
-28.29107328569865
 20
6.263941487442585
 30
0.0
 11
-28.19107328569864
 21
6.166266685401185
 31
0.0
  0
LINE
  5
F100FE
330
261
100
AcDbEntity
  8
Geo
100
AcDbLine
 10
-28.19107328569864
 20
6.166266685401185
 30
0.0
 11
-28.09107328569865
 21
6.071390208626096
 31
0.0
  0
LINE
  5
F10100
330
261
100
AcDbEntity
  8
Geo
100
AcDbLine
 10
-28.09107328569865
 20
6.071390208626096
 30
0.0
 11
-27.99107328569864
 21
5.979594470892436
 31
0.0
  0
LINE
  5
F10102
330
261
100
AcDbEntity
  8
Geo
100
AcDbLine
 10
-27.99107328569864
 20
5.979594470892436
 30
0.0
 11
-27.89107328569865
 21
5.891152715702876
 31
0.0
  0
LINE
  5
F10104
330
261
100
AcDbEntity
  8
Geo
100
AcDbLine
 10
-27.89107328569865
 20
5.891152715702876
 30
0.0
 11
-27.79107328569865
 21
5.806328202938195
 31
0.0
  0
LINE
  5
F10106
330
261
100
AcDbEntity
  8
Geo
100
AcDbLine
 10
-27.79107328569865
 20
5.806328202938195
 30
0.0
 11
-27.69107328569865
 21
5.725373425225516
 31
0.0
  0
LINE
  5
F10108
330
261
100
AcDbEntity
  8
Geo
100
AcDbLine
 10
-27.69107328569865
 20
5.725373425225516
 30
0.0
 11
-27.59107328569865
 21
5.648529356356936
 31
0.0
  0
LINE
  5
F1010A
330
261
100
AcDbEntity
  8
Geo
100
AcDbLine
 10
-27.59107328569865
 20
5.648529356356936
 30
0.0
 11
-27.49107328569864
 21
5.576024733995605
 31
0.0
  0
LINE
  5
F1010C
330
261
100
AcDbEntity
  8
Geo
100
AcDbLine
 10
-27.49107328569864
 20
5.576024733995605
 30
0.0
 11
-27.39107328569865
 21
5.508075378804496
 31
0.0
  0
LINE
  5
F1010E
330
261
100
AcDbEntity
  8
Geo
100
AcDbLine
 10
-27.39107328569865
 20
5.508075378804496
 30
0.0
 11
-27.29107328569865
 21
5.444883552024416
 31
0.0
  0
LINE
  5
F10110
330
261
100
AcDbEntity
  8
Geo
100
AcDbLine
 10
-27.29107328569865
 20
5.444883552024416
 30
0.0
 11
-27.19107328569864
 21
5.386637353413786
 31
0.0
  0
LINE
  5
F10112
330
261
100
AcDbEntity
  8
Geo
100
AcDbLine
 10
-27.19107328569864
 20
5.386637353413786
 30
0.0
 11
-27.09107328569865
 21
5.333510161341976
 31
0.0
  0
LINE
  5
F10114
330
261
100
AcDbEntity
  8
Geo
100
AcDbLine
 10
-27.09107328569865
 20
5.333510161341976
 30
0.0
 11
-26.99107328569864
 21
5.285660116703195
 31
0.0
  0
LINE
  5
F10116
330
261
100
AcDbEntity
  8
Geo
100
AcDbLine
 10
-26.99107328569864
 20
5.285660116703195
 30
0.0
 11
-26.89107328569865
 21
5.243229652186826
 31
0.0
  0
LINE
  5
F10118
330
261
100
AcDbEntity
  8
Geo
100
AcDbLine
 10
-26.89107328569865
 20
5.243229652186826
 30
0.0
 11
-26.79107328569865
 21
5.206345068305635
 31
0.0
  0
LINE
  5
F1011A
330
261
100
AcDbEntity
  8
Geo
100
AcDbLine
 10
-26.79107328569865
 20
5.206345068305635
 30
0.0
 11
-26.69107328569864
 21
5.175116157443696
 31
0.0
  0
LINE
  5
F1011C
330
261
100
AcDbEntity
  8
Geo
100
AcDbLine
 10
-26.69107328569864
 20
5.175116157443696
 30
0.0
 11
-26.59107328569865
 21
5.149635877043245
 31
0.0
  0
LINE
  5
F1011E
330
261
100
AcDbEntity
  8
Geo
100
AcDbLine
 10
-26.59107328569865
 20
5.149635877043245
 30
0.0
 11
-26.49107328569864
 21
5.129980072903205
 31
0.0
  0
LINE
  5
F10120
330
261
100
AcDbEntity
  8
Geo
100
AcDbLine
 10
-26.49107328569864
 20
5.129980072903205
 30
0.0
 11
-26.39107328569865
 21
5.116207253413006
 31
0.0
  0
LINE
  5
F10122
330
261
100
AcDbEntity
  8
Geo
100
AcDbLine
 10
-26.39107328569865
 20
5.116207253413006
 30
0.0
 11
-26.29107328569865
 21
5.108358415393766
 31
0.0
  0
LINE
  5
F10124
330
261
100
AcDbEntity
  8
Geo
100
AcDbLine
 10
-20.59107328569865
 20
9.006193585770656
 30
0.0
 11
-20.49107328569864
 21
9.003773108051165
 31
0.0
  0
LINE
  5
F10126
330
261
100
AcDbEntity
  8
Geo
100
AcDbLine
 10
-20.49107328569864
 20
9.003773108051165
 30
0.0
 11
-20.39107328569865
 21
8.993364207525035
 31
0.0
  0
LINE
  5
F10128
330
261
100
AcDbEntity
  8
Geo
100
AcDbLine
 10
-20.39107328569865
 20
8.993364207525035
 30
0.0
 11
-20.29107328569865
 21
8.975221578865516
 31
0.0
  0
LINE
  5
F1012A
330
261
100
AcDbEntity
  8
Geo
100
AcDbLine
 10
-20.29107328569865
 20
8.975221578865516
 30
0.0
 11
-20.19107328569864
 21
8.949627640477036
 31
0.0
  0
LINE
  5
F1012C
330
261
100
AcDbEntity
  8
Geo
100
AcDbLine
 10
-20.19107328569864
 20
8.949627640477036
 30
0.0
 11
-20.09107328569865
 21
8.916889457718095
 31
0.0
  0
LINE
  5
F1012E
330
261
100
AcDbEntity
  8
Geo
100
AcDbLine
 10
-20.09107328569865
 20
8.916889457718095
 30
0.0
 11
-19.99107328569864
 21
8.877335699206547
 31
0.0
  0
LINE
  5
F10130
330
261
100
AcDbEntity
  8
Geo
100
AcDbLine
 10
-19.99107328569864
 20
8.877335699206547
 30
0.0
 11
-19.89107328569864
 21
8.831313645430874
 31
0.0
  0
LINE
  5
F10132
330
261
100
AcDbEntity
  8
Geo
100
AcDbLine
 10
-19.89107328569864
 20
8.831313645430874
 30
0.0
 11
-19.79107328569865
 21
8.779186267005716
 31
0.0
  0
LINE
  5
F10134
330
261
100
AcDbEntity
  8
Geo
100
AcDbLine
 10
-19.79107328569865
 20
8.779186267005716
 30
0.0
 11
-19.69107328569864
 21
8.721329388036085
 31
0.0
  0
LINE
  5
F10136
330
261
100
AcDbEntity
  8
Geo
100
AcDbLine
 10
-19.69107328569864
 20
8.721329388036085
 30
0.0
 11
-19.59107328569865
 21
8.658128948208606
 31
0.0
  0
LINE
  5
F10138
330
261
100
AcDbEntity
  8
Geo
100
AcDbLine
 10
-19.59107328569865
 20
8.658128948208606
 30
0.0
 11
-19.49107328569864
 21
8.589978375422017
 31
0.0
  0
LINE
  5
F1013A
330
261
100
AcDbEntity
  8
Geo
100
AcDbLine
 10
-19.49107328569864
 20
8.589978375422017
 30
0.0
 11
-19.39107328569864
 21
8.517276079018195
 31
0.0
  0
LINE
  5
F1013C
330
261
100
AcDbEntity
  8
Geo
100
AcDbLine
 10
-19.39107328569864
 20
8.517276079018195
 30
0.0
 11
-19.29107328569865
 21
8.440423071987865
 31
0.0
  0
LINE
  5
F1013E
330
261
100
AcDbEntity
  8
Geo
100
AcDbLine
 10
-19.29107328569865
 20
8.440423071987865
 30
0.0
 11
-19.19107328569864
 21
8.359820728911886
 31
0.0
  0
LINE
  5
F10140
330
261
100
AcDbEntity
  8
Geo
100
AcDbLine
 10
-19.19107328569864
 20
8.359820728911886
 30
0.0
 11
-19.09107328569865
 21
8.275868684867326
 31
0.0
  0
LINE
  5
F10142
330
261
100
AcDbEntity
  8
Geo
100
AcDbLine
 10
-19.09107328569865
 20
8.275868684867326
 30
0.0
 11
-19.09107328569865
 21
8.275868684867326
 31
0.0
  0
LINE
  5
F10144
330
261
100
AcDbEntity
  8
Geo
100
AcDbLine
 10
-33.09107328569865
 20
8.453486226104395
 30
0.0
 11
-32.99107328569864
 21
8.445356842771765
 31
0.0
  0
LINE
  5
F10146
330
261
100
AcDbEntity
  8
Geo
100
AcDbLine
 10
-32.99107328569864
 20
8.445356842771765
 30
0.0
 11
-32.89107328569865
 21
8.362340346471736
 31
0.0
  0
LINE
  5
F10148
330
261
100
AcDbEntity
  8
Geo
100
AcDbLine
 10
-32.89107328569865
 20
8.362340346471736
 30
0.0
 11
-32.79107328569865
 21
8.275585239474665
 31
0.0
  0
LINE
  5
F1014A
330
261
100
AcDbEntity
  8
Geo
100
AcDbLine
 10
-32.79107328569865
 20
8.275585239474665
 30
0.0
 11
-32.69107328569865
 21
8.185349761105106
 31
0.0
  0
LINE
  5
F1014C
330
261
100
AcDbEntity
  8
Geo
100
AcDbLine
 10
-32.69107328569865
 20
8.185349761105106
 30
0.0
 11
-32.59107328569865
 21
8.091902510524477
 31
0.0
  0
LINE
  5
F1014E
330
261
100
AcDbEntity
  8
Geo
100
AcDbLine
 10
-32.59107328569865
 20
8.091902510524477
 30
0.0
 11
-32.49107328569864
 21
7.995521647206096
 31
0.0
  0
LINE
  5
F10150
330
261
100
AcDbEntity
  8
Geo
100
AcDbLine
 10
-32.49107328569864
 20
7.995521647206096
 30
0.0
 11
-32.39107328569865
 21
7.896494062952726
 31
0.0
  0
LINE
  5
F10152
330
261
100
AcDbEntity
  8
Geo
100
AcDbLine
 10
-32.39107328569865
 20
7.896494062952726
 30
0.0
 11
-32.29107328569865
 21
7.795114527920914
 31
0.0
  0
LINE
  5
F10154
330
261
100
AcDbEntity
  8
Geo
100
AcDbLine
 10
-32.29107328569865
 20
7.795114527920914
 30
0.0
 11
-32.19107328569864
 21
7.691684813194336
 31
0.0
  0
LINE
  5
F10156
330
261
100
AcDbEntity
  8
Geo
100
AcDbLine
 10
-32.19107328569864
 20
7.691684813194336
 30
0.0
 11
-32.09107328569865
 21
7.586512792517766
 31
0.0
  0
LINE
  5
F10158
330
261
100
AcDbEntity
  8
Geo
100
AcDbLine
 10
-32.09107328569865
 20
7.586512792517766
 30
0.0
 11
-31.99107328569864
 21
7.479911525865705
 31
0.0
  0
LINE
  5
F1015A
330
261
100
AcDbEntity
  8
Geo
100
AcDbLine
 10
-31.99107328569864
 20
7.479911525865705
 30
0.0
 11
-31.89107328569865
 21
7.372198327573296
 31
0.0
  0
LINE
  5
F1015C
330
261
100
AcDbEntity
  8
Geo
100
AcDbLine
 10
-31.89107328569865
 20
7.372198327573296
 30
0.0
 11
-31.79107328569865
 21
7.263693821803616
 31
0.0
  0
LINE
  5
F1015E
330
261
100
AcDbEntity
  8
Geo
100
AcDbLine
 10
-31.79107328569865
 20
7.263693821803616
 30
0.0
 11
-31.69107328569864
 21
7.154720988162745
 31
0.0
  0
LINE
  5
F10160
330
261
100
AcDbEntity
  8
Geo
100
AcDbLine
 10
-31.69107328569864
 20
7.154720988162745
 30
0.0
 11
-31.59107328569865
 21
7.045604200303476
 31
0.0
  0
LINE
  5
F10162
330
261
100
AcDbEntity
  8
Geo
100
AcDbLine
 10
-31.59107328569865
 20
7.045604200303476
 30
0.0
 11
-31.49107328569864
 21
6.936668260379495
 31
0.0
  0
LINE
  5
F10164
330
261
100
AcDbEntity
  8
Geo
100
AcDbLine
 10
-31.49107328569864
 20
6.936668260379495
 30
0.0
 11
-31.39107328569865
 21
6.828237432224026
 31
0.0
  0
LINE
  5
F10166
330
261
100
AcDbEntity
  8
Geo
100
AcDbLine
 10
-31.39107328569865
 20
6.828237432224026
 30
0.0
 11
-31.29107328569865
 21
6.720634476130896
 31
0.0
  0
LINE
  5
F10168
330
261
100
AcDbEntity
  8
Geo
100
AcDbLine
 10
-31.29107328569865
 20
6.720634476130896
 30
0.0
 11
-31.19107328569864
 21
6.614179688111075
 31
0.0
  0
LINE
  5
F1016A
330
261
100
AcDbEntity
  8
Geo
100
AcDbLine
 10
-31.19107328569864
 20
6.614179688111075
 30
0.0
 11
-31.09107328569865
 21
6.509189946484545
 31
0.0
  0
LINE
  5
F1016C
330
261
100
AcDbEntity
  8
Geo
100
AcDbLine
 10
-31.09107328569865
 20
6.509189946484545
 30
0.0
 11
-30.99107328569864
 21
6.405977768645415
 31
0.0
  0
LINE
  5
F1016E
330
261
100
AcDbEntity
  8
Geo
100
AcDbLine
 10
-30.99107328569864
 20
6.405977768645415
 30
0.0
 11
-30.89107328569865
 21
6.304850380807966
 31
0.0
  0
LINE
  5
F10170
330
261
100
AcDbEntity
  8
Geo
100
AcDbLine
 10
-30.89107328569865
 20
6.304850380807966
 30
0.0
 11
-30.79107328569865
 21
6.206108803502676
 31
0.0
  0
LINE
  5
F10172
330
261
100
AcDbEntity
  8
Geo
100
AcDbLine
 10
-30.79107328569865
 20
6.206108803502676
 30
0.0
 11
-30.69107328569864
 21
6.110046955544386
 31
0.0
  0
LINE
  5
F10174
330
261
100
AcDbEntity
  8
Geo
100
AcDbLine
 10
-30.69107328569864
 20
6.110046955544386
 30
0.0
 11
-30.59107328569865
 21
6.016950779139765
 31
0.0
  0
LINE
  5
F10176
330
261
100
AcDbEntity
  8
Geo
100
AcDbLine
 10
-30.59107328569865
 20
6.016950779139765
 30
0.0
 11
-30.49107328569864
 21
5.927097388738266
 31
0.0
  0
LINE
  5
F10178
330
261
100
AcDbEntity
  8
Geo
100
AcDbLine
 10
-30.49107328569864
 20
5.927097388738266
 30
0.0
 11
-30.39107328569865
 21
5.840754246160306
 31
0.0
  0
LINE
  5
F1017A
330
261
100
AcDbEntity
  8
Geo
100
AcDbLine
 10
-30.39107328569865
 20
5.840754246160306
 30
0.0
 11
-30.29107328569865
 21
5.758178364457825
 31
0.0
  0
LINE
  5
F1017C
330
261
100
AcDbEntity
  8
Geo
100
AcDbLine
 10
-30.29107328569865
 20
5.758178364457825
 30
0.0
 11
-30.19107328569865
 21
5.679615542877155
 31
0.0
  0
LINE
  5
F1017E
330
261
100
AcDbEntity
  8
Geo
100
AcDbLine
 10
-30.19107328569865
 20
5.679615542877155
 30
0.0
 11
-30.09107328569865
 21
5.605299635201486
 31
0.0
  0
LINE
  5
F10180
330
261
100
AcDbEntity
  8
Geo
100
AcDbLine
 10
-30.09107328569865
 20
5.605299635201486
 30
0.0
 11
-29.99107328569864
 21
5.535451853650665
 31
0.0
  0
LINE
  5
F10182
330
261
100
AcDbEntity
  8
Geo
100
AcDbLine
 10
-29.99107328569864
 20
5.535451853650665
 30
0.0
 11
-29.89107328569865
 21
5.470280110410536
 31
0.0
  0
LINE
  5
F10184
330
261
100
AcDbEntity
  8
Geo
100
AcDbLine
 10
-29.89107328569865
 20
5.470280110410536
 30
0.0
 11
-29.79107328569865
 21
5.409978398751825
 31
0.0
  0
LINE
  5
F10186
330
261
100
AcDbEntity
  8
Geo
100
AcDbLine
 10
-29.79107328569865
 20
5.409978398751825
 30
0.0
 11
-29.69107328569864
 21
5.354726215580545
 31
0.0
  0
LINE
  5
F10188
330
261
100
AcDbEntity
  8
Geo
100
AcDbLine
 10
-29.69107328569864
 20
5.354726215580545
 30
0.0
 11
-29.59107328569865
 21
5.304688027139155
 31
0.0
  0
LINE
  5
F1018A
330
261
100
AcDbEntity
  8
Geo
100
AcDbLine
 10
-29.59107328569865
 20
5.304688027139155
 30
0.0
 11
-29.49107328569864
 21
5.260012779448645
 31
0.0
  0
LINE
  5
F1018C
330
261
100
AcDbEntity
  8
Geo
100
AcDbLine
 10
-29.49107328569864
 20
5.260012779448645
 30
0.0
 11
-29.39107328569864
 21
5.220833454948735
 31
0.0
  0
LINE
  5
F1018E
330
261
100
AcDbEntity
  8
Geo
100
AcDbLine
 10
-29.39107328569864
 20
5.220833454948735
 30
0.0
 11
-29.29107328569865
 21
5.187266676656186
 31
0.0
  0
LINE
  5
F10190
330
261
100
AcDbEntity
  8
Geo
100
AcDbLine
 10
-29.29107328569865
 20
5.187266676656186
 30
0.0
 11
-29.19107328569864
 21
5.159412361019196
 31
0.0
  0
LINE
  5
F10192
330
261
100
AcDbEntity
  8
Geo
100
AcDbLine
 10
-29.19107328569864
 20
5.159412361019196
 30
0.0
 11
-29.09107328569865
 21
5.137353420501396
 31
0.0
  0
LINE
  5
F10194
330
261
100
AcDbEntity
  8
Geo
100
AcDbLine
 10
-29.09107328569865
 20
5.137353420501396
 30
0.0
 11
-28.99107328569864
 21
5.121155516780826
 31
0.0
  0
LINE
  5
F10196
330
261
100
AcDbEntity
  8
Geo
100
AcDbLine
 10
-28.99107328569864
 20
5.121155516780826
 30
0.0
 11
-28.89107328569865
 21
5.110866865298135
 31
0.0
  0
LINE
  5
F10198
330
261
100
AcDbEntity
  8
Geo
100
AcDbLine
 10
-28.89107328569865
 20
5.110866865298135
 30
0.0
 11
-28.79107328569865
 21
5.106518091736395
 31
0.0
  0
LINE
  5
F1019A
330
261
100
AcDbEntity
  8
Geo
100
AcDbLine
 10
-23.09107328569865
 20
9.104428902279646
 30
0.0
 11
-22.99107328569864
 21
9.106247003938886
 31
0.0
  0
LINE
  5
F1019C
330
261
100
AcDbEntity
  8
Geo
100
AcDbLine
 10
-22.99107328569864
 20
9.106247003938886
 30
0.0
 11
-22.89107328569865
 21
9.102112147418676
 31
0.0
  0
LINE
  5
F1019E
330
261
100
AcDbEntity
  8
Geo
100
AcDbLine
 10
-22.89107328569865
 20
9.102112147418676
 30
0.0
 11
-22.79107328569865
 21
9.092036640727055
 31
0.0
  0
LINE
  5
F101A0
330
261
100
AcDbEntity
  8
Geo
100
AcDbLine
 10
-22.79107328569865
 20
9.092036640727055
 30
0.0
 11
-22.69107328569864
 21
9.076050475090285
 31
0.0
  0
LINE
  5
F101A2
330
261
100
AcDbEntity
  8
Geo
100
AcDbLine
 10
-22.69107328569864
 20
9.076050475090285
 30
0.0
 11
-22.59107328569865
 21
9.054201235679526
 31
0.0
  0
LINE
  5
F101A4
330
261
100
AcDbEntity
  8
Geo
100
AcDbLine
 10
-22.59107328569865
 20
9.054201235679526
 30
0.0
 11
-22.49107328569864
 21
9.026553959966625
 31
0.0
  0
LINE
  5
F101A6
330
261
100
AcDbEntity
  8
Geo
100
AcDbLine
 10
-22.49107328569864
 20
9.026553959966625
 30
0.0
 11
-22.39107328569865
 21
8.993190944130466
 31
0.0
  0
LINE
  5
F101A8
330
261
100
AcDbEntity
  8
Geo
100
AcDbLine
 10
-22.39107328569865
 20
8.993190944130466
 30
0.0
 11
-22.29107328569865
 21
8.954211498090387
 31
0.0
  0
LINE
  5
F101AA
330
261
100
AcDbEntity
  8
Geo
100
AcDbLine
 10
-22.29107328569865
 20
8.954211498090387
 30
0.0
 11
-22.19107328569864
 21
8.909731649895485
 31
0.0
  0
LINE
  5
F101AC
330
261
100
AcDbEntity
  8
Geo
100
AcDbLine
 10
-22.19107328569864
 20
8.909731649895485
 30
0.0
 11
-22.09107328569865
 21
8.859883800350207
 31
0.0
  0
LINE
  5
F101AE
330
261
100
AcDbEntity
  8
Geo
100
AcDbLine
 10
-22.09107328569865
 20
8.859883800350207
 30
0.0
 11
-21.99107328569864
 21
8.804816328903834
 31
0.0
  0
LINE
  5
F101B0
330
261
100
AcDbEntity
  8
Geo
100
AcDbLine
 10
-21.99107328569864
 20
8.804816328903834
 30
0.0
 11
-21.89107328569865
 21
8.744693151977216
 31
0.0
  0
LINE
  5
F101B2
330
261
100
AcDbEntity
  8
Geo
100
AcDbLine
 10
-21.89107328569865
 20
8.744693151977216
 30
0.0
 11
-21.79107328569865
 21
8.679693235041556
 31
0.0
  0
LINE
  5
F101B4
330
261
100
AcDbEntity
  8
Geo
100
AcDbLine
 10
-21.79107328569865
 20
8.679693235041556
 30
0.0
 11
-21.69107328569864
 21
8.610010059901266
 31
0.0
  0
LINE
  5
F101B6
330
261
100
AcDbEntity
  8
Geo
100
AcDbLine
 10
-21.69107328569864
 20
8.610010059901266
 30
0.0
 11
-21.59107328569865
 21
8.535851048767057
 31
0.0
  0
LINE
  5
F101B8
330
261
100
AcDbEntity
  8
Geo
100
AcDbLine
 10
-21.59107328569865
 20
8.535851048767057
 30
0.0
 11
-21.49107328569864
 21
8.457436946833176
 31
0.0
  0
LINE
  5
F101BA
330
261
100
AcDbEntity
  8
Geo
100
AcDbLine
 10
-21.49107328569864
 20
8.457436946833176
 30
0.0
 11
-21.39107328569865
 21
8.375001165196895
 31
0.0
  0
LINE
  5
F101BC
330
261
100
AcDbEntity
  8
Geo
100
AcDbLine
 10
-21.39107328569865
 20
8.375001165196895
 30
0.0
 11
-21.29107328569865
 21
8.288789086076125
 31
0.0
  0
LINE
  5
F101BE
330
261
100
AcDbEntity
  8
Geo
100
AcDbLine
 10
-21.29107328569865
 20
8.288789086076125
 30
0.0
 11
-21.19107328569864
 21
8.199057332393195
 31
0.0
  0
LINE
  5
F101C0
330
261
100
AcDbEntity
  8
Geo
100
AcDbLine
 10
-21.19107328569864
 20
8.199057332393195
 30
0.0
 11
-21.09107328569865
 21
8.106073003898906
 31
0.0
  0
LINE
  5
F101C2
330
261
100
AcDbEntity
  8
Geo
100
AcDbLine
 10
-21.09107328569865
 20
8.106073003898906
 30
0.0
 11
-21.09107328569865
 21
8.106073003898876
 31
0.0
  0
LINE
  5
F101C4
330
261
100
AcDbEntity
  8
Geo
100
AcDbLine
 10
-21.09107328569865
 20
8.106073003898876
 30
0.0
 11
-21.09107328569865
 21
8.056087343112745
 31
0.0
  0
LINE
  5
F101C6
330
261
100
AcDbEntity
  8
Geo
100
AcDbLine
 10
-21.09107328569865
 20
8.056087343112745
 30
0.0
 11
-21.09107328569865
 21
8.106073003898876
 31
0.0
  0
LINE
  5
F101C8
330
261
100
AcDbEntity
  8
Geo
100
AcDbLine
 10
-21.09107328569865
 20
8.106073003898876
 30
0.0
 11
-21.09107328569865
 21
8.106073003898876
 31
0.0
  0
LINE
  5
F101CA
330
261
100
AcDbEntity
  8
Geo
100
AcDbLine
 10
-21.09107328569865
 20
8.106073003898876
 30
0.0
 11
-20.99107328569864
 21
8.068544931023446
 31
0.0
  0
LINE
  5
F101CC
330
261
100
AcDbEntity
  8
Geo
100
AcDbLine
 10
-20.99107328569864
 20
8.068544931023446
 30
0.0
 11
-20.89107328569864
 21
8.080843163819105
 31
0.0
  0
LINE
  5
F101CE
330
261
100
AcDbEntity
  8
Geo
100
AcDbLine
 10
-20.89107328569864
 20
8.080843163819105
 30
0.0
 11
-20.79107328569865
 21
8.092982738495877
 31
0.0
  0
LINE
  5
F101D0
330
261
100
AcDbEntity
  8
Geo
100
AcDbLine
 10
-20.79107328569865
 20
8.092982738495877
 30
0.0
 11
-20.69107328569864
 21
8.104964378250736
 31
0.0
  0
LINE
  5
F101D2
330
261
100
AcDbEntity
  8
Geo
100
AcDbLine
 10
-20.69107328569864
 20
8.104964378250736
 30
0.0
 11
-20.59107328569865
 21
8.116788831519826
 31
0.0
  0
LINE
  5
F101D4
330
261
100
AcDbEntity
  8
Geo
100
AcDbLine
 10
-20.59107328569865
 20
8.116788831519826
 30
0.0
 11
-20.49107328569864
 21
8.128456871027914
 31
0.0
  0
LINE
  5
F101D6
330
261
100
AcDbEntity
  8
Geo
100
AcDbLine
 10
-20.49107328569864
 20
8.128456871027914
 30
0.0
 11
-20.39107328569865
 21
8.139969292849666
 31
0.0
  0
LINE
  5
F101D8
330
261
100
AcDbEntity
  8
Geo
100
AcDbLine
 10
-20.39107328569865
 20
8.139969292849666
 30
0.0
 11
-20.29107328569865
 21
8.151326915482105
 31
0.0
  0
LINE
  5
F101DA
330
261
100
AcDbEntity
  8
Geo
100
AcDbLine
 10
-20.29107328569865
 20
8.151326915482105
 30
0.0
 11
-20.19107328569864
 21
8.162530578929075
 31
0.0
  0
LINE
  5
F101DC
330
261
100
AcDbEntity
  8
Geo
100
AcDbLine
 10
-20.19107328569864
 20
8.162530578929075
 30
0.0
 11
-20.09107328569865
 21
8.173581143797205
 31
0.0
  0
LINE
  5
F101DE
330
261
100
AcDbEntity
  8
Geo
100
AcDbLine
 10
-20.09107328569865
 20
8.173581143797205
 30
0.0
 11
-19.99107328569864
 21
8.184479490403816
 31
0.0
  0
LINE
  5
F101E0
330
261
100
AcDbEntity
  8
Geo
100
AcDbLine
 10
-19.99107328569864
 20
8.184479490403816
 30
0.0
 11
-19.89107328569864
 21
8.195226517896646
 31
0.0
  0
LINE
  5
F101E2
330
261
100
AcDbEntity
  8
Geo
100
AcDbLine
 10
-19.89107328569864
 20
8.195226517896646
 30
0.0
 11
-19.79107328569865
 21
8.205823143385547
 31
0.0
  0
LINE
  5
F101E4
330
261
100
AcDbEntity
  8
Geo
100
AcDbLine
 10
-19.79107328569865
 20
8.205823143385547
 30
0.0
 11
-19.69107328569864
 21
8.216270301086016
 31
0.0
  0
LINE
  5
F101E6
330
261
100
AcDbEntity
  8
Geo
100
AcDbLine
 10
-19.69107328569864
 20
8.216270301086016
 30
0.0
 11
-19.59107328569865
 21
8.226568941474926
 31
0.0
  0
LINE
  5
F101E8
330
261
100
AcDbEntity
  8
Geo
100
AcDbLine
 10
-19.59107328569865
 20
8.226568941474926
 30
0.0
 11
-19.49107328569864
 21
8.236720030458124
 31
0.0
  0
LINE
  5
F101EA
330
261
100
AcDbEntity
  8
Geo
100
AcDbLine
 10
-19.49107328569864
 20
8.236720030458124
 30
0.0
 11
-19.39107328569864
 21
8.246724548550176
 31
0.0
  0
LINE
  5
F101EC
330
261
100
AcDbEntity
  8
Geo
100
AcDbLine
 10
-19.39107328569864
 20
8.246724548550176
 30
0.0
 11
-19.29107328569865
 21
8.256583490066125
 31
0.0
  0
LINE
  5
F101EE
330
261
100
AcDbEntity
  8
Geo
100
AcDbLine
 10
-19.29107328569865
 20
8.256583490066125
 30
0.0
 11
-19.19107328569864
 21
8.266297862325295
 31
0.0
  0
LINE
  5
F101F0
330
261
100
AcDbEntity
  8
Geo
100
AcDbLine
 10
-19.19107328569864
 20
8.266297862325295
 30
0.0
 11
-19.09107328569865
 21
8.275868684867326
 31
0.0
  0
LINE
  5
F101F2
330
261
100
AcDbEntity
  8
Geo
100
AcDbLine
 10
-19.09107328569865
 20
8.275868684867326
 30
0.0
 11
-19.09107328569865
 21
8.275868684867326
 31
0.0
  0
LINE
  5
F101F4
330
261
100
AcDbEntity
  8
Geo
100
AcDbLine
 10
-33.09107328569865
 20
7.277066976974596
 30
0.0
 11
-32.99107328569864
 21
7.186272922907176
 31
0.0
  0
LINE
  5
F101F6
330
261
100
AcDbEntity
  8
Geo
100
AcDbLine
 10
-32.99107328569864
 20
7.186272922907176
 30
0.0
 11
-32.89107328569865
 21
7.086294538736745
 31
0.0
  0
LINE
  5
F101F8
330
261
100
AcDbEntity
  8
Geo
100
AcDbLine
 10
-32.89107328569865
 20
7.086294538736745
 30
0.0
 11
-32.79107328569865
 21
6.986366307240145
 31
0.0
  0
LINE
  5
F101FA
330
261
100
AcDbEntity
  8
Geo
100
AcDbLine
 10
-32.79107328569865
 20
6.986366307240145
 30
0.0
 11
-32.69107328569865
 21
6.886737996954486
 31
0.0
  0
LINE
  5
F101FC
330
261
100
AcDbEntity
  8
Geo
100
AcDbLine
 10
-32.69107328569865
 20
6.886737996954486
 30
0.0
 11
-32.59107328569865
 21
6.787658626770066
 31
0.0
  0
LINE
  5
F101FE
330
261
100
AcDbEntity
  8
Geo
100
AcDbLine
 10
-32.59107328569865
 20
6.787658626770066
 30
0.0
 11
-32.49107328569864
 21
6.689375843512796
 31
0.0
  0
LINE
  5
F10200
330
261
100
AcDbEntity
  8
Geo
100
AcDbLine
 10
-32.49107328569864
 20
6.689375843512796
 30
0.0
 11
-32.39107328569865
 21
6.592135302956156
 31
0.0
  0
LINE
  5
F10202
330
261
100
AcDbEntity
  8
Geo
100
AcDbLine
 10
-32.39107328569865
 20
6.592135302956156
 30
0.0
 11
-32.29107328569865
 21
6.496180055809625
 31
0.0
  0
LINE
  5
F10204
330
261
100
AcDbEntity
  8
Geo
100
AcDbLine
 10
-32.29107328569865
 20
6.496180055809625
 30
0.0
 11
-32.19107328569864
 21
6.401749940218546
 31
0.0
  0
LINE
  5
F10206
330
261
100
AcDbEntity
  8
Geo
100
AcDbLine
 10
-32.19107328569864
 20
6.401749940218546
 30
0.0
 11
-32.09107328569865
 21
6.309080982293646
 31
0.0
  0
LINE
  5
F10208
330
261
100
AcDbEntity
  8
Geo
100
AcDbLine
 10
-32.09107328569865
 20
6.309080982293646
 30
0.0
 11
-31.99107328569864
 21
6.218404806168686
 31
0.0
  0
LINE
  5
F1020A
330
261
100
AcDbEntity
  8
Geo
100
AcDbLine
 10
-31.99107328569864
 20
6.218404806168686
 30
0.0
 11
-31.89107328569865
 21
6.129948055060715
 31
0.0
  0
LINE
  5
F1020C
330
261
100
AcDbEntity
  8
Geo
100
AcDbLine
 10
-31.89107328569865
 20
6.129948055060715
 30
0.0
 11
-31.79107328569865
 21
6.043931824780146
 31
0.0
  0
LINE
  5
F1020E
330
261
100
AcDbEntity
  8
Geo
100
AcDbLine
 10
-31.79107328569865
 20
6.043931824780146
 30
0.0
 11
-31.69107328569864
 21
5.960571111106276
 31
0.0
  0
LINE
  5
F10210
330
261
100
AcDbEntity
  8
Geo
100
AcDbLine
 10
-31.69107328569864
 20
5.960571111106276
 30
0.0
 11
-31.59107328569865
 21
5.880074272409876
 31
0.0
  0
LINE
  5
F10212
330
261
100
AcDbEntity
  8
Geo
100
AcDbLine
 10
-31.59107328569865
 20
5.880074272409876
 30
0.0
 11
-31.49107328569864
 21
5.802642508865726
 31
0.0
  0
LINE
  5
F10214
330
261
100
AcDbEntity
  8
Geo
100
AcDbLine
 10
-31.49107328569864
 20
5.802642508865726
 30
0.0
 11
-31.39107328569865
 21
5.728469359557026
 31
0.0
  0
LINE
  5
F10216
330
261
100
AcDbEntity
  8
Geo
100
AcDbLine
 10
-31.39107328569865
 20
5.728469359557026
 30
0.0
 11
-31.29107328569865
 21
5.657740218728426
 31
0.0
  0
LINE
  5
F10218
330
261
100
AcDbEntity
  8
Geo
100
AcDbLine
 10
-31.29107328569865
 20
5.657740218728426
 30
0.0
 11
-31.19107328569864
 21
5.590631872396945
 31
0.0
  0
LINE
  5
F1021A
330
261
100
AcDbEntity
  8
Geo
100
AcDbLine
 10
-31.19107328569864
 20
5.590631872396945
 30
0.0
 11
-31.09107328569865
 21
5.527312056479056
 31
0.0
  0
LINE
  5
F1021C
330
261
100
AcDbEntity
  8
Geo
100
AcDbLine
 10
-31.09107328569865
 20
5.527312056479056
 30
0.0
 11
-30.99107328569864
 21
5.467939037538275
 31
0.0
  0
LINE
  5
F1021E
330
261
100
AcDbEntity
  8
Geo
100
AcDbLine
 10
-30.99107328569864
 20
5.467939037538275
 30
0.0
 11
-30.89107328569865
 21
5.412661217201046
 31
0.0
  0
LINE
  5
F10220
330
261
100
AcDbEntity
  8
Geo
100
AcDbLine
 10
-30.89107328569865
 20
5.412661217201046
 30
0.0
 11
-30.79107328569865
 21
5.361616761230095
 31
0.0
  0
LINE
  5
F10222
330
261
100
AcDbEntity
  8
Geo
100
AcDbLine
 10
-30.79107328569865
 20
5.361616761230095
 30
0.0
 11
-30.69107328569864
 21
5.314933254181905
 31
0.0
  0
LINE
  5
F10224
330
261
100
AcDbEntity
  8
Geo
100
AcDbLine
 10
-30.69107328569864
 20
5.314933254181905
 30
0.0
 11
-30.59107328569865
 21
5.272727380511796
 31
0.0
  0
LINE
  5
F10226
330
261
100
AcDbEntity
  8
Geo
100
AcDbLine
 10
-30.59107328569865
 20
5.272727380511796
 30
0.0
 11
-30.49107328569864
 21
5.235104632923536
 31
0.0
  0
LINE
  5
F10228
330
261
100
AcDbEntity
  8
Geo
100
AcDbLine
 10
-30.49107328569864
 20
5.235104632923536
 30
0.0
 11
-30.39107328569865
 21
5.202159048692585
 31
0.0
  0
LINE
  5
F1022A
330
261
100
AcDbEntity
  8
Geo
100
AcDbLine
 10
-30.39107328569865
 20
5.202159048692585
 30
0.0
 11
-30.29107328569865
 21
5.173972974621756
 31
0.0
  0
LINE
  5
F1022C
330
261
100
AcDbEntity
  8
Geo
100
AcDbLine
 10
-30.29107328569865
 20
5.173972974621756
 30
0.0
 11
-30.19107328569865
 21
5.150616861217206
 31
0.0
  0
LINE
  5
F1022E
330
261
100
AcDbEntity
  8
Geo
100
AcDbLine
 10
-30.19107328569865
 20
5.150616861217206
 30
0.0
 11
-30.09107328569865
 21
5.132149086598845
 31
0.0
  0
LINE
  5
F10230
330
261
100
AcDbEntity
  8
Geo
100
AcDbLine
 10
-30.09107328569865
 20
5.132149086598845
 30
0.0
 11
-29.99107328569864
 21
5.118615810585355
 31
0.0
  0
LINE
  5
F10232
330
261
100
AcDbEntity
  8
Geo
100
AcDbLine
 10
-29.99107328569864
 20
5.118615810585355
 30
0.0
 11
-29.89107328569865
 21
5.110050859318805
 31
0.0
  0
LINE
  5
F10234
330
261
100
AcDbEntity
  8
Geo
100
AcDbLine
 10
-29.89107328569865
 20
5.110050859318805
 30
0.0
 11
-29.79107328569865
 21
5.106475640716796
 31
0.0
  0
LINE
  5
F10236
330
261
100
AcDbEntity
  8
Geo
100
AcDbLine
 10
-23.49107328569864
 20
9.106354236559926
 30
0.0
 11
-23.39107328569864
 21
9.104090284643225
 31
0.0
  0
LINE
  5
F10238
330
261
100
AcDbEntity
  8
Geo
100
AcDbLine
 10
-23.39107328569864
 20
9.104090284643225
 30
0.0
 11
-23.29107328569865
 21
9.096833046883284
 31
0.0
  0
LINE
  5
F1023A
330
261
100
AcDbEntity
  8
Geo
100
AcDbLine
 10
-23.29107328569865
 20
9.096833046883284
 30
0.0
 11
-23.19107328569864
 21
9.084600662595006
 31
0.0
  0
LINE
  5
F1023C
330
261
100
AcDbEntity
  8
Geo
100
AcDbLine
 10
-23.19107328569864
 20
9.084600662595006
 30
0.0
 11
-23.09107328569865
 21
9.067423706368625
 31
0.0
  0
LINE
  5
F1023E
330
261
100
AcDbEntity
  8
Geo
100
AcDbLine
 10
-23.09107328569865
 20
9.067423706368625
 30
0.0
 11
-22.99107328569864
 21
9.045345111649096
 31
0.0
  0
LINE
  5
F10240
330
261
100
AcDbEntity
  8
Geo
100
AcDbLine
 10
-22.99107328569864
 20
9.045345111649096
 30
0.0
 11
-22.89107328569865
 21
9.018420063424926
 31
0.0
  0
LINE
  5
F10242
330
261
100
AcDbEntity
  8
Geo
100
AcDbLine
 10
-22.89107328569865
 20
9.018420063424926
 30
0.0
 11
-22.79107328569865
 21
8.986715860294374
 31
0.0
  0
LINE
  5
F10244
330
261
100
AcDbEntity
  8
Geo
100
AcDbLine
 10
-22.79107328569865
 20
8.986715860294374
 30
0.0
 11
-22.69107328569864
 21
8.950311746254035
 31
0.0
  0
LINE
  5
F10246
330
261
100
AcDbEntity
  8
Geo
100
AcDbLine
 10
-22.69107328569864
 20
8.950311746254035
 30
0.0
 11
-22.59107328569865
 21
8.909298712630114
 31
0.0
  0
LINE
  5
F10248
330
261
100
AcDbEntity
  8
Geo
100
AcDbLine
 10
-22.59107328569865
 20
8.909298712630114
 30
0.0
 11
-22.49107328569864
 21
8.863779270647526
 31
0.0
  0
LINE
  5
F1024A
330
261
100
AcDbEntity
  8
Geo
100
AcDbLine
 10
-22.49107328569864
 20
8.863779270647526
 30
0.0
 11
-22.39107328569865
 21
8.813867195205105
 31
0.0
  0
LINE
  5
F1024C
330
261
100
AcDbEntity
  8
Geo
100
AcDbLine
 10
-22.39107328569865
 20
8.813867195205105
 30
0.0
 11
-22.29107328569865
 21
8.759687240497797
 31
0.0
  0
LINE
  5
F1024E
330
261
100
AcDbEntity
  8
Geo
100
AcDbLine
 10
-22.29107328569865
 20
8.759687240497797
 30
0.0
 11
-22.19107328569864
 21
8.701374828195966
 31
0.0
  0
LINE
  5
F10250
330
261
100
AcDbEntity
  8
Geo
100
AcDbLine
 10
-22.19107328569864
 20
8.701374828195966
 30
0.0
 11
-22.09107328569865
 21
8.639075708961856
 31
0.0
  0
LINE
  5
F10252
330
261
100
AcDbEntity
  8
Geo
100
AcDbLine
 10
-22.09107328569865
 20
8.639075708961856
 30
0.0
 11
-21.99107328569864
 21
8.572945598148816
 31
0.0
  0
LINE
  5
F10254
330
261
100
AcDbEntity
  8
Geo
100
AcDbLine
 10
-21.99107328569864
 20
8.572945598148816
 30
0.0
 11
-21.89107328569865
 21
8.503149786593965
 31
0.0
  0
LINE
  5
F10256
330
261
100
AcDbEntity
  8
Geo
100
AcDbLine
 10
-21.89107328569865
 20
8.503149786593965
 30
0.0
 11
-21.79107328569865
 21
8.429862727477235
 31
0.0
  0
LINE
  5
F10258
330
261
100
AcDbEntity
  8
Geo
100
AcDbLine
 10
-21.79107328569865
 20
8.429862727477235
 30
0.0
 11
-21.69107328569864
 21
8.353267600279256
 31
0.0
  0
LINE
  5
F1025A
330
261
100
AcDbEntity
  8
Geo
100
AcDbLine
 10
-21.69107328569864
 20
8.353267600279256
 30
0.0
 11
-21.59107328569865
 21
8.273555852928055
 31
0.0
  0
LINE
  5
F1025C
330
261
100
AcDbEntity
  8
Geo
100
AcDbLine
 10
-21.59107328569865
 20
8.273555852928055
 30
0.0
 11
-21.49107328569864
 21
8.190926723278936
 31
0.0
  0
LINE
  5
F1025E
330
261
100
AcDbEntity
  8
Geo
100
AcDbLine
 10
-21.49107328569864
 20
8.190926723278936
 30
0.0
 11
-21.39107328569865
 21
8.105586741123616
 31
0.0
  0
LINE
  5
F10260
330
261
100
AcDbEntity
  8
Geo
100
AcDbLine
 10
-21.39107328569865
 20
8.105586741123616
 30
0.0
 11
-21.29107328569865
 21
8.017749211973246
 31
0.0
  0
LINE
  5
F10262
330
261
100
AcDbEntity
  8
Geo
100
AcDbLine
 10
-21.29107328569865
 20
8.017749211973246
 30
0.0
 11
-21.19107328569864
 21
7.927633683905825
 31
0.0
  0
LINE
  5
F10264
330
261
100
AcDbEntity
  8
Geo
100
AcDbLine
 10
-21.19107328569864
 20
7.927633683905825
 30
0.0
 11
-21.09107328569865
 21
7.835465398810266
 31
0.0
  0
LINE
  5
F10266
330
261
100
AcDbEntity
  8
Geo
100
AcDbLine
 10
-21.09107328569865
 20
7.835465398810266
 30
0.0
 11
-21.09107328569865
 21
7.835465398810235
 31
0.0
  0
LINE
  5
F10268
330
261
100
AcDbEntity
  8
Geo
100
AcDbLine
 10
-21.09107328569865
 20
7.835465398810235
 30
0.0
 11
-21.09107328569865
 21
7.799010118278535
 31
0.0
  0
LINE
  5
F1026A
330
261
100
AcDbEntity
  8
Geo
100
AcDbLine
 10
-21.09107328569865
 20
7.799010118278535
 30
0.0
 11
-21.09107328569865
 21
7.835465398810235
 31
0.0
  0
LINE
  5
F1026C
330
261
100
AcDbEntity
  8
Geo
100
AcDbLine
 10
-21.09107328569865
 20
7.835465398810235
 30
0.0
 11
-21.09107328569865
 21
7.835465398810235
 31
0.0
  0
LINE
  5
F1026E
330
261
100
AcDbEntity
  8
Geo
100
AcDbLine
 10
-21.09107328569865
 20
7.835465398810235
 30
0.0
 11
-20.99107328569864
 21
7.686551382595895
 31
0.0
  0
LINE
  5
F10270
330
261
100
AcDbEntity
  8
Geo
100
AcDbLine
 10
-20.99107328569864
 20
7.686551382595895
 30
0.0
 11
-20.89107328569864
 21
7.571802895754405
 31
0.0
  0
LINE
  5
F10272
330
261
100
AcDbEntity
  8
Geo
100
AcDbLine
 10
-20.89107328569864
 20
7.571802895754405
 30
0.0
 11
-20.79107328569865
 21
7.455217517608026
 31
0.0
  0
LINE
  5
F10274
330
261
100
AcDbEntity
  8
Geo
100
AcDbLine
 10
-20.79107328569865
 20
7.455217517608026
 30
0.0
 11
-20.69107328569864
 21
7.337255357381516
 31
0.0
  0
LINE
  5
F10276
330
261
100
AcDbEntity
  8
Geo
100
AcDbLine
 10
-20.69107328569864
 20
7.337255357381516
 30
0.0
 11
-20.59107328569865
 21
7.218381957829516
 31
0.0
  0
LINE
  5
F10278
330
261
100
AcDbEntity
  8
Geo
100
AcDbLine
 10
-20.59107328569865
 20
7.218381957829516
 30
0.0
 11
-20.49107328569864
 21
7.099066457951946
 31
0.0
  0
LINE
  5
F1027A
330
261
100
AcDbEntity
  8
Geo
100
AcDbLine
 10
-20.49107328569864
 20
7.099066457951946
 30
0.0
 11
-20.39107328569865
 21
6.979779741516765
 31
0.0
  0
LINE
  5
F1027C
330
261
100
AcDbEntity
  8
Geo
100
AcDbLine
 10
-20.39107328569865
 20
6.979779741516765
 30
0.0
 11
-20.29107328569865
 21
6.860992578696835
 31
0.0
  0
LINE
  5
F1027E
330
261
100
AcDbEntity
  8
Geo
100
AcDbLine
 10
-20.29107328569865
 20
6.860992578696835
 30
0.0
 11
-20.19107328569864
 21
6.743173768155096
 31
0.0
  0
LINE
  5
F10280
330
261
100
AcDbEntity
  8
Geo
100
AcDbLine
 10
-20.19107328569864
 20
6.743173768155096
 30
0.0
 11
-20.09107328569865
 21
6.626788286910476
 31
0.0
  0
LINE
  5
F10282
330
261
100
AcDbEntity
  8
Geo
100
AcDbLine
 10
-20.09107328569865
 20
6.626788286910476
 30
0.0
 11
-19.99107328569864
 21
6.512295455285966
 31
0.0
  0
LINE
  5
F10284
330
261
100
AcDbEntity
  8
Geo
100
AcDbLine
 10
-19.99107328569864
 20
6.512295455285966
 30
0.0
 11
-19.89107328569864
 21
6.400147124181206
 31
0.0
  0
LINE
  5
F10286
330
261
100
AcDbEntity
  8
Geo
100
AcDbLine
 10
-19.89107328569864
 20
6.400147124181206
 30
0.0
 11
-19.79107328569865
 21
6.290785891823345
 31
0.0
  0
LINE
  5
F10288
330
261
100
AcDbEntity
  8
Geo
100
AcDbLine
 10
-19.79107328569865
 20
6.290785891823345
 30
0.0
 11
-19.69107328569864
 21
6.184643357034126
 31
0.0
  0
LINE
  5
F1028A
330
261
100
AcDbEntity
  8
Geo
100
AcDbLine
 10
-19.69107328569864
 20
6.184643357034126
 30
0.0
 11
-19.59107328569865
 21
6.082138415906456
 31
0.0
  0
LINE
  5
F1028C
330
261
100
AcDbEntity
  8
Geo
100
AcDbLine
 10
-19.59107328569865
 20
6.082138415906456
 30
0.0
 11
-19.49107328569864
 21
5.983675608612875
 31
0.0
  0
LINE
  5
F1028E
330
261
100
AcDbEntity
  8
Geo
100
AcDbLine
 10
-19.49107328569864
 20
5.983675608612875
 30
0.0
 11
-19.39107328569864
 21
5.889643522870425
 31
0.0
  0
LINE
  5
F10290
330
261
100
AcDbEntity
  8
Geo
100
AcDbLine
 10
-19.39107328569864
 20
5.889643522870425
 30
0.0
 11
-19.29107328569865
 21
5.800413260362356
 31
0.0
  0
LINE
  5
F10292
330
261
100
AcDbEntity
  8
Geo
100
AcDbLine
 10
-19.29107328569865
 20
5.800413260362356
 30
0.0
 11
-19.19107328569864
 21
5.716336972169355
 31
0.0
  0
LINE
  5
F10294
330
261
100
AcDbEntity
  8
Geo
100
AcDbLine
 10
-19.19107328569864
 20
5.716336972169355
 30
0.0
 11
-19.09107328569865
 21
5.637746468990096
 31
0.0
  0
LINE
  5
F10296
330
261
100
AcDbEntity
  8
Geo
100
AcDbLine
 10
-19.09107328569865
 20
5.637746468990096
 30
0.0
 11
-19.09107328569865
 21
5.637746468990096
 31
0.0
  0
LINE
  5
F10298
330
261
100
AcDbEntity
  8
Geo
100
AcDbLine
 10
-33.09107328569865
 20
5.272435517566465
 30
0.0
 11
-32.99107328569864
 21
5.152193952853815
 31
0.0
  0
LINE
  5
F1029A
330
261
100
AcDbEntity
  8
Geo
100
AcDbLine
 10
-32.99107328569864
 20
5.152193952853815
 30
0.0
 11
-32.89107328569865
 21
5.133359115051666
 31
0.0
  0
LINE
  5
F1029C
330
261
100
AcDbEntity
  8
Geo
100
AcDbLine
 10
-32.89107328569865
 20
5.133359115051666
 30
0.0
 11
-32.79107328569865
 21
5.119455751413445
 31
0.0
  0
LINE
  5
F1029E
330
261
100
AcDbEntity
  8
Geo
100
AcDbLine
 10
-32.79107328569865
 20
5.119455751413445
 30
0.0
 11
-32.69107328569865
 21
5.110518613107515
 31
0.0
  0
LINE
  5
F102A0
330
261
100
AcDbEntity
  8
Geo
100
AcDbLine
 10
-32.69107328569865
 20
5.110518613107515
 30
0.0
 11
-32.59107328569865
 21
5.106570038325255
 31
0.0
  0
LINE
  5
F102A2
330
261
100
AcDbEntity
  8
Geo
100
AcDbLine
 10
-26.29107328569865
 20
9.106322666252737
 30
0.0
 11
-26.19107328569864
 21
9.104432254408905
 31
0.0
  0
LINE
  5
F102A4
330
261
100
AcDbEntity
  8
Geo
100
AcDbLine
 10
-26.19107328569864
 20
9.104432254408905
 30
0.0
 11
-26.09107328569865
 21
9.097547701975507
 31
0.0
  0
LINE
  5
F102A6
330
261
100
AcDbEntity
  8
Geo
100
AcDbLine
 10
-26.09107328569865
 20
9.097547701975507
 30
0.0
 11
-25.99107328569864
 21
9.085686216748225
 31
0.0
  0
LINE
  5
F102A8
330
261
100
AcDbEntity
  8
Geo
100
AcDbLine
 10
-25.99107328569864
 20
9.085686216748225
 30
0.0
 11
-25.89107328569865
 21
9.068877446262806
 31
0.0
  0
LINE
  5
F102AA
330
261
100
AcDbEntity
  8
Geo
100
AcDbLine
 10
-25.89107328569865
 20
9.068877446262806
 30
0.0
 11
-25.79107328569865
 21
9.047163403691595
 31
0.0
  0
LINE
  5
F102AC
330
261
100
AcDbEntity
  8
Geo
100
AcDbLine
 10
-25.79107328569865
 20
9.047163403691595
 30
0.0
 11
-25.69107328569864
 21
9.020598362832586
 31
0.0
  0
LINE
  5
F102AE
330
261
100
AcDbEntity
  8
Geo
100
AcDbLine
 10
-25.69107328569864
 20
9.020598362832586
 30
0.0
 11
-25.59107328569865
 21
8.989248722453105
 31
0.0
  0
LINE
  5
F102B0
330
261
100
AcDbEntity
  8
Geo
100
AcDbLine
 10
-25.59107328569865
 20
8.989248722453105
 30
0.0
 11
-25.49107328569864
 21
8.953192840327556
 31
0.0
  0
LINE
  5
F102B2
330
261
100
AcDbEntity
  8
Geo
100
AcDbLine
 10
-25.49107328569864
 20
8.953192840327556
 30
0.0
 11
-25.39107328569865
 21
8.912520837383667
 31
0.0
  0
LINE
  5
F102B4
330
261
100
AcDbEntity
  8
Geo
100
AcDbLine
 10
-25.39107328569865
 20
8.912520837383667
 30
0.0
 11
-25.29107328569865
 21
8.867334372447267
 31
0.0
  0
LINE
  5
F102B6
330
261
100
AcDbEntity
  8
Geo
100
AcDbLine
 10
-25.29107328569865
 20
8.867334372447267
 30
0.0
 11
-25.19107328569865
 21
8.817746388148005
 31
0.0
  0
LINE
  5
F102B8
330
261
100
AcDbEntity
  8
Geo
100
AcDbLine
 10
-25.19107328569865
 20
8.817746388148005
 30
0.0
 11
-25.09107328569865
 21
8.763880828621736
 31
0.0
  0
LINE
  5
F102BA
330
261
100
AcDbEntity
  8
Geo
100
AcDbLine
 10
-25.09107328569865
 20
8.763880828621736
 30
0.0
 11
-24.99107328569864
 21
8.705872329714624
 31
0.0
  0
LINE
  5
F102BC
330
261
100
AcDbEntity
  8
Geo
100
AcDbLine
 10
-24.99107328569864
 20
8.705872329714624
 30
0.0
 11
-24.89107328569865
 21
8.643865882463696
 31
0.0
  0
LINE
  5
F102BE
330
261
100
AcDbEntity
  8
Geo
100
AcDbLine
 10
-24.89107328569865
 20
8.643865882463696
 30
0.0
 11
-24.79107328569865
 21
8.578016470694736
 31
0.0
  0
LINE
  5
F102C0
330
261
100
AcDbEntity
  8
Geo
100
AcDbLine
 10
-24.79107328569865
 20
8.578016470694736
 30
0.0
 11
-24.69107328569864
 21
8.508488683643466
 31
0.0
  0
LINE
  5
F102C2
330
261
100
AcDbEntity
  8
Geo
100
AcDbLine
 10
-24.69107328569864
 20
8.508488683643466
 30
0.0
 11
-24.59107328569865
 21
8.435456304568146
 31
0.0
  0
LINE
  5
F102C4
330
261
100
AcDbEntity
  8
Geo
100
AcDbLine
 10
-24.59107328569865
 20
8.435456304568146
 30
0.0
 11
-24.49107328569864
 21
8.359101876381936
 31
0.0
  0
LINE
  5
F102C6
330
261
100
AcDbEntity
  8
Geo
100
AcDbLine
 10
-24.49107328569864
 20
8.359101876381936
 30
0.0
 11
-24.39107328569865
 21
8.279616245390677
 31
0.0
  0
LINE
  5
F102C8
330
261
100
AcDbEntity
  8
Geo
100
AcDbLine
 10
-24.39107328569865
 20
8.279616245390677
 30
0.0
 11
-24.29107328569865
 21
8.197198084276525
 31
0.0
  0
LINE
  5
F102CA
330
261
100
AcDbEntity
  8
Geo
100
AcDbLine
 10
-24.29107328569865
 20
8.197198084276525
 30
0.0
 11
-24.19107328569864
 21
8.112053395519735
 31
0.0
  0
LINE
  5
F102CC
330
261
100
AcDbEntity
  8
Geo
100
AcDbLine
 10
-24.19107328569864
 20
8.112053395519735
 30
0.0
 11
-24.09107328569865
 21
8.024394996499676
 31
0.0
  0
LINE
  5
F102CE
330
261
100
AcDbEntity
  8
Geo
100
AcDbLine
 10
-24.09107328569865
 20
8.024394996499676
 30
0.0
 11
-23.99107328569864
 21
7.934441987562316
 31
0.0
  0
LINE
  5
F102D0
330
261
100
AcDbEntity
  8
Geo
100
AcDbLine
 10
-23.99107328569864
 20
7.934441987562316
 30
0.0
 11
-23.89107328569865
 21
7.842419204383355
 31
0.0
  0
LINE
  5
F102D2
330
261
100
AcDbEntity
  8
Geo
100
AcDbLine
 10
-23.89107328569865
 20
7.842419204383355
 30
0.0
 11
-23.79107328569865
 21
7.748556655996217
 31
0.0
  0
LINE
  5
F102D4
330
261
100
AcDbEntity
  8
Geo
100
AcDbLine
 10
-23.79107328569865
 20
7.748556655996217
 30
0.0
 11
-23.69107328569864
 21
7.653088949889196
 31
0.0
  0
LINE
  5
F102D6
330
261
100
AcDbEntity
  8
Geo
100
AcDbLine
 10
-23.69107328569864
 20
7.653088949889196
 30
0.0
 11
-23.59107328569865
 21
7.556254705608925
 31
0.0
  0
LINE
  5
F102D8
330
261
100
AcDbEntity
  8
Geo
100
AcDbLine
 10
-23.59107328569865
 20
7.556254705608925
 30
0.0
 11
-23.49107328569864
 21
7.458295958335825
 31
0.0
  0
LINE
  5
F102DA
330
261
100
AcDbEntity
  8
Geo
100
AcDbLine
 10
-23.49107328569864
 20
7.458295958335825
 30
0.0
 11
-23.39107328569864
 21
7.359457553922136
 31
0.0
  0
LINE
  5
F102DC
330
261
100
AcDbEntity
  8
Geo
100
AcDbLine
 10
-23.39107328569864
 20
7.359457553922136
 30
0.0
 11
-23.29107328569865
 21
7.259986536904846
 31
0.0
  0
LINE
  5
F102DE
330
261
100
AcDbEntity
  8
Geo
100
AcDbLine
 10
-23.29107328569865
 20
7.259986536904846
 30
0.0
 11
-23.19107328569864
 21
7.160131533023006
 31
0.0
  0
LINE
  5
F102E0
330
261
100
AcDbEntity
  8
Geo
100
AcDbLine
 10
-23.19107328569864
 20
7.160131533023006
 30
0.0
 11
-23.09107328569865
 21
7.060142127782826
 31
0.0
  0
LINE
  5
F102E2
330
261
100
AcDbEntity
  8
Geo
100
AcDbLine
 10
-23.09107328569865
 20
7.060142127782826
 30
0.0
 11
-22.99107328569864
 21
6.960268242623945
 31
0.0
  0
LINE
  5
F102E4
330
261
100
AcDbEntity
  8
Geo
100
AcDbLine
 10
-22.99107328569864
 20
6.960268242623945
 30
0.0
 11
-22.89107328569865
 21
6.860759510245935
 31
0.0
  0
LINE
  5
F102E6
330
261
100
AcDbEntity
  8
Geo
100
AcDbLine
 10
-22.89107328569865
 20
6.860759510245935
 30
0.0
 11
-22.79107328569865
 21
6.761864650656596
 31
0.0
  0
LINE
  5
F102E8
330
261
100
AcDbEntity
  8
Geo
100
AcDbLine
 10
-22.79107328569865
 20
6.761864650656596
 30
0.0
 11
-22.69107328569864
 21
6.663830849501455
 31
0.0
  0
LINE
  5
F102EA
330
261
100
AcDbEntity
  8
Geo
100
AcDbLine
 10
-22.69107328569864
 20
6.663830849501455
 30
0.0
 11
-22.59107328569865
 21
6.566903140228386
 31
0.0
  0
LINE
  5
F102EC
330
261
100
AcDbEntity
  8
Geo
100
AcDbLine
 10
-22.59107328569865
 20
6.566903140228386
 30
0.0
 11
-22.49107328569864
 21
6.471323791631605
 31
0.0
  0
LINE
  5
F102EE
330
261
100
AcDbEntity
  8
Geo
100
AcDbLine
 10
-22.49107328569864
 20
6.471323791631605
 30
0.0
 11
-22.39107328569865
 21
6.377331702305816
 31
0.0
  0
LINE
  5
F102F0
330
261
100
AcDbEntity
  8
Geo
100
AcDbLine
 10
-22.39107328569865
 20
6.377331702305816
 30
0.0
 11
-22.29107328569865
 21
6.285161803524226
 31
0.0
  0
LINE
  5
F102F2
330
261
100
AcDbEntity
  8
Geo
100
AcDbLine
 10
-22.29107328569865
 20
6.285161803524226
 30
0.0
 11
-22.19107328569864
 21
6.195044472032625
 31
0.0
  0
LINE
  5
F102F4
330
261
100
AcDbEntity
  8
Geo
100
AcDbLine
 10
-22.19107328569864
 20
6.195044472032625
 30
0.0
 11
-22.09107328569865
 21
6.107204954227536
 31
0.0
  0
LINE
  5
F102F6
330
261
100
AcDbEntity
  8
Geo
100
AcDbLine
 10
-22.09107328569865
 20
6.107204954227536
 30
0.0
 11
-21.99107328569864
 21
6.021862803157546
 31
0.0
  0
LINE
  5
F102F8
330
261
100
AcDbEntity
  8
Geo
100
AcDbLine
 10
-21.99107328569864
 20
6.021862803157546
 30
0.0
 11
-21.89107328569865
 21
5.939231329754976
 31
0.0
  0
LINE
  5
F102FA
330
261
100
AcDbEntity
  8
Geo
100
AcDbLine
 10
-21.89107328569865
 20
5.939231329754976
 30
0.0
 11
-21.79107328569865
 21
5.859517069669726
 31
0.0
  0
LINE
  5
F102FC
330
261
100
AcDbEntity
  8
Geo
100
AcDbLine
 10
-21.79107328569865
 20
5.859517069669726
 30
0.0
 11
-21.69107328569864
 21
5.782919267037586
 31
0.0
  0
LINE
  5
F102FE
330
261
100
AcDbEntity
  8
Geo
100
AcDbLine
 10
-21.69107328569864
 20
5.782919267037586
 30
0.0
 11
-21.59107328569865
 21
5.709629376473806
 31
0.0
  0
LINE
  5
F10300
330
261
100
AcDbEntity
  8
Geo
100
AcDbLine
 10
-21.59107328569865
 20
5.709629376473806
 30
0.0
 11
-21.49107328569864
 21
5.639830584536145
 31
0.0
  0
LINE
  5
F10302
330
261
100
AcDbEntity
  8
Geo
100
AcDbLine
 10
-21.49107328569864
 20
5.639830584536145
 30
0.0
 11
-21.39107328569865
 21
5.573697351853935
 31
0.0
  0
LINE
  5
F10304
330
261
100
AcDbEntity
  8
Geo
100
AcDbLine
 10
-21.39107328569865
 20
5.573697351853935
 30
0.0
 11
-21.29107328569865
 21
5.511394977067375
 31
0.0
  0
LINE
  5
F10306
330
261
100
AcDbEntity
  8
Geo
100
AcDbLine
 10
-21.29107328569865
 20
5.511394977067375
 30
0.0
 11
-21.19107328569864
 21
5.453079183666966
 31
0.0
  0
LINE
  5
F10308
330
261
100
AcDbEntity
  8
Geo
100
AcDbLine
 10
-21.19107328569864
 20
5.453079183666966
 30
0.0
 11
-21.09107328569865
 21
5.398895730765925
 31
0.0
  0
LINE
  5
F1030A
330
261
100
AcDbEntity
  8
Geo
100
AcDbLine
 10
-21.09107328569865
 20
5.398895730765925
 30
0.0
 11
-21.09107328569865
 21
5.398895730765916
 31
0.0
  0
LINE
  5
F1030C
330
261
100
AcDbEntity
  8
Geo
100
AcDbLine
 10
-21.09107328569865
 20
5.398895730765916
 30
0.0
 11
-21.09107328569865
 21
5.484268933636435
 31
0.0
  0
LINE
  5
F1030E
330
261
100
AcDbEntity
  8
Geo
100
AcDbLine
 10
-21.09107328569865
 20
5.484268933636435
 30
0.0
 11
-21.09107328569865
 21
5.398895730765916
 31
0.0
  0
LINE
  5
F10310
330
261
100
AcDbEntity
  8
Geo
100
AcDbLine
 10
-21.09107328569865
 20
5.398895730765916
 30
0.0
 11
-21.09107328569865
 21
5.398895730765916
 31
0.0
  0
LINE
  5
F10312
330
261
100
AcDbEntity
  8
Geo
100
AcDbLine
 10
-21.09107328569865
 20
5.398895730765916
 30
0.0
 11
-20.99107328569864
 21
5.491215400373036
 31
0.0
  0
LINE
  5
F10314
330
261
100
AcDbEntity
  8
Geo
100
AcDbLine
 10
-20.99107328569864
 20
5.491215400373036
 30
0.0
 11
-20.89107328569864
 21
5.498240586968476
 31
0.0
  0
LINE
  5
F10316
330
261
100
AcDbEntity
  8
Geo
100
AcDbLine
 10
-20.89107328569864
 20
5.498240586968476
 30
0.0
 11
-20.79107328569865
 21
5.505344151025056
 31
0.0
  0
LINE
  5
F10318
330
261
100
AcDbEntity
  8
Geo
100
AcDbLine
 10
-20.79107328569865
 20
5.505344151025056
 30
0.0
 11
-20.69107328569864
 21
5.512525746325115
 31
0.0
  0
LINE
  5
F1031A
330
261
100
AcDbEntity
  8
Geo
100
AcDbLine
 10
-20.69107328569864
 20
5.512525746325115
 30
0.0
 11
-20.59107328569865
 21
5.519785022847806
 31
0.0
  0
LINE
  5
F1031C
330
261
100
AcDbEntity
  8
Geo
100
AcDbLine
 10
-20.59107328569865
 20
5.519785022847806
 30
0.0
 11
-20.49107328569864
 21
5.527121626786225
 31
0.0
  0
LINE
  5
F1031E
330
261
100
AcDbEntity
  8
Geo
100
AcDbLine
 10
-20.49107328569864
 20
5.527121626786225
 30
0.0
 11
-20.39107328569865
 21
5.534535200564656
 31
0.0
  0
LINE
  5
F10320
330
261
100
AcDbEntity
  8
Geo
100
AcDbLine
 10
-20.39107328569865
 20
5.534535200564656
 30
0.0
 11
-20.29107328569865
 21
5.542025382855985
 31
0.0
  0
LINE
  5
F10322
330
261
100
AcDbEntity
  8
Geo
100
AcDbLine
 10
-20.29107328569865
 20
5.542025382855985
 30
0.0
 11
-20.19107328569864
 21
5.549591808599275
 31
0.0
  0
LINE
  5
F10324
330
261
100
AcDbEntity
  8
Geo
100
AcDbLine
 10
-20.19107328569864
 20
5.549591808599275
 30
0.0
 11
-20.09107328569865
 21
5.557234109017615
 31
0.0
  0
LINE
  5
F10326
330
261
100
AcDbEntity
  8
Geo
100
AcDbLine
 10
-20.09107328569865
 20
5.557234109017615
 30
0.0
 11
-19.99107328569864
 21
5.564951911636075
 31
0.0
  0
LINE
  5
F10328
330
261
100
AcDbEntity
  8
Geo
100
AcDbLine
 10
-19.99107328569864
 20
5.564951911636075
 30
0.0
 11
-19.89107328569864
 21
5.572744840299826
 31
0.0
  0
LINE
  5
F1032A
330
261
100
AcDbEntity
  8
Geo
100
AcDbLine
 10
-19.89107328569864
 20
5.572744840299826
 30
0.0
 11
-19.79107328569865
 21
5.580612515192526
 31
0.0
  0
LINE
  5
F1032C
330
261
100
AcDbEntity
  8
Geo
100
AcDbLine
 10
-19.79107328569865
 20
5.580612515192526
 30
0.0
 11
-19.69107328569864
 21
5.588554552854816
 31
0.0
  0
LINE
  5
F1032E
330
261
100
AcDbEntity
  8
Geo
100
AcDbLine
 10
-19.69107328569864
 20
5.588554552854816
 30
0.0
 11
-19.59107328569865
 21
5.596570566202975
 31
0.0
  0
LINE
  5
F10330
330
261
100
AcDbEntity
  8
Geo
100
AcDbLine
 10
-19.59107328569865
 20
5.596570566202975
 30
0.0
 11
-19.49107328569864
 21
5.604660164547805
 31
0.0
  0
LINE
  5
F10332
330
261
100
AcDbEntity
  8
Geo
100
AcDbLine
 10
-19.49107328569864
 20
5.604660164547805
 30
0.0
 11
-19.39107328569864
 21
5.612822953613715
 31
0.0
  0
LINE
  5
F10334
330
261
100
AcDbEntity
  8
Geo
100
AcDbLine
 10
-19.39107328569864
 20
5.612822953613715
 30
0.0
 11
-19.29107328569865
 21
5.621058535557875
 31
0.0
  0
LINE
  5
F10336
330
261
100
AcDbEntity
  8
Geo
100
AcDbLine
 10
-19.29107328569865
 20
5.621058535557875
 30
0.0
 11
-19.19107328569864
 21
5.629366508989635
 31
0.0
  0
LINE
  5
F10338
330
261
100
AcDbEntity
  8
Geo
100
AcDbLine
 10
-19.19107328569864
 20
5.629366508989635
 30
0.0
 11
-19.09107328569865
 21
5.637746468990096
 31
0.0
  0
LINE
  5
F1033A
330
261
100
AcDbEntity
  8
Geo
100
AcDbLine
 10
-19.09107328569865
 20
5.637746468990096
 30
0.0
 11
-19.09107328569865
 21
5.637746468990096
 31
0.0
  0
LINE
  5
F1033C
330
261
100
AcDbEntity
  8
Geo
100
AcDbLine
 10
-27.19107328569864
 20
9.106303765219024
 30
0.0
 11
-27.09107328569865
 21
9.104890649408595
 31
0.0
  0
LINE
  5
F1033E
330
261
100
AcDbEntity
  8
Geo
100
AcDbLine
 10
-27.09107328569865
 20
9.104890649408595
 30
0.0
 11
-26.99107328569864
 21
9.099283037268026
 31
0.0
  0
LINE
  5
F10340
330
261
100
AcDbEntity
  8
Geo
100
AcDbLine
 10
-26.99107328569864
 20
9.099283037268026
 30
0.0
 11
-26.89107328569865
 21
9.089492697996865
 31
0.0
  0
LINE
  5
F10342
330
261
100
AcDbEntity
  8
Geo
100
AcDbLine
 10
-26.89107328569865
 20
9.089492697996865
 30
0.0
 11
-26.79107328569865
 21
9.075540179460034
 31
0.0
  0
LINE
  5
F10344
330
261
100
AcDbEntity
  8
Geo
100
AcDbLine
 10
-26.79107328569865
 20
9.075540179460034
 30
0.0
 11
-26.69107328569864
 21
9.057454765062114
 31
0.0
  0
LINE
  5
F10346
330
261
100
AcDbEntity
  8
Geo
100
AcDbLine
 10
-26.69107328569864
 20
9.057454765062114
 30
0.0
 11
-26.59107328569865
 21
9.035274412287677
 31
0.0
  0
LINE
  5
F10348
330
261
100
AcDbEntity
  8
Geo
100
AcDbLine
 10
-26.59107328569865
 20
9.035274412287677
 30
0.0
 11
-26.49107328569864
 21
9.009045673036485
 31
0.0
  0
LINE
  5
F1034A
330
261
100
AcDbEntity
  8
Geo
100
AcDbLine
 10
-26.49107328569864
 20
9.009045673036485
 30
0.0
 11
-26.39107328569865
 21
8.978823595920825
 31
0.0
  0
LINE
  5
F1034C
330
261
100
AcDbEntity
  8
Geo
100
AcDbLine
 10
-26.39107328569865
 20
8.978823595920825
 30
0.0
 11
-26.29107328569865
 21
8.944671610730047
 31
0.0
  0
LINE
  5
F1034E
330
261
100
AcDbEntity
  8
Geo
100
AcDbLine
 10
-26.29107328569865
 20
8.944671610730047
 30
0.0
 11
-26.19107328569864
 21
8.906661395304775
 31
0.0
  0
LINE
  5
F10350
330
261
100
AcDbEntity
  8
Geo
100
AcDbLine
 10
-26.19107328569864
 20
8.906661395304775
 30
0.0
 11
-26.09107328569865
 21
8.864872725100177
 31
0.0
  0
LINE
  5
F10352
330
261
100
AcDbEntity
  8
Geo
100
AcDbLine
 10
-26.09107328569865
 20
8.864872725100177
 30
0.0
 11
-25.99107328569864
 21
8.819393305754056
 31
0.0
  0
LINE
  5
F10354
330
261
100
AcDbEntity
  8
Geo
100
AcDbLine
 10
-25.99107328569864
 20
8.819393305754056
 30
0.0
 11
-25.89107328569865
 21
8.770318589011065
 31
0.0
  0
LINE
  5
F10356
330
261
100
AcDbEntity
  8
Geo
100
AcDbLine
 10
-25.89107328569865
 20
8.770318589011065
 30
0.0
 11
-25.79107328569865
 21
8.717751572389705
 31
0.0
  0
LINE
  5
F10358
330
261
100
AcDbEntity
  8
Geo
100
AcDbLine
 10
-25.79107328569865
 20
8.717751572389705
 30
0.0
 11
-25.69107328569864
 21
8.661802583012047
 31
0.0
  0
LINE
  5
F1035A
330
261
100
AcDbEntity
  8
Geo
100
AcDbLine
 10
-25.69107328569864
 20
8.661802583012047
 30
0.0
 11
-25.59107328569865
 21
8.602589046050345
 31
0.0
  0
LINE
  5
F1035C
330
261
100
AcDbEntity
  8
Geo
100
AcDbLine
 10
-25.59107328569865
 20
8.602589046050345
 30
0.0
 11
-25.49107328569864
 21
8.540235238276226
 31
0.0
  0
LINE
  5
F1035E
330
261
100
AcDbEntity
  8
Geo
100
AcDbLine
 10
-25.49107328569864
 20
8.540235238276226
 30
0.0
 11
-25.39107328569865
 21
8.474872027229935
 31
0.0
  0
LINE
  5
F10360
330
261
100
AcDbEntity
  8
Geo
100
AcDbLine
 10
-25.39107328569865
 20
8.474872027229935
 30
0.0
 11
-25.29107328569865
 21
8.406636596556806
 31
0.0
  0
LINE
  5
F10362
330
261
100
AcDbEntity
  8
Geo
100
AcDbLine
 10
-25.29107328569865
 20
8.406636596556806
 30
0.0
 11
-25.19107328569865
 21
8.335672158087655
 31
0.0
  0
LINE
  5
F10364
330
261
100
AcDbEntity
  8
Geo
100
AcDbLine
 10
-25.19107328569865
 20
8.335672158087655
 30
0.0
 11
-25.09107328569865
 21
8.262127651267174
 31
0.0
  0
LINE
  5
F10366
330
261
100
AcDbEntity
  8
Geo
100
AcDbLine
 10
-25.09107328569865
 20
8.262127651267174
 30
0.0
 11
-24.99107328569864
 21
8.186157430561415
 31
0.0
  0
LINE
  5
F10368
330
261
100
AcDbEntity
  8
Geo
100
AcDbLine
 10
-24.99107328569864
 20
8.186157430561415
 30
0.0
 11
-24.89107328569865
 21
8.107920941500175
 31
0.0
  0
LINE
  5
F1036A
330
261
100
AcDbEntity
  8
Geo
100
AcDbLine
 10
-24.89107328569865
 20
8.107920941500175
 30
0.0
 11
-24.79107328569865
 21
8.027582386034275
 31
0.0
  0
LINE
  5
F1036C
330
261
100
AcDbEntity
  8
Geo
100
AcDbLine
 10
-24.79107328569865
 20
8.027582386034275
 30
0.0
 11
-24.69107328569864
 21
7.945310377910285
 31
0.0
  0
LINE
  5
F1036E
330
261
100
AcDbEntity
  8
Geo
100
AcDbLine
 10
-24.69107328569864
 20
7.945310377910285
 30
0.0
 11
-24.59107328569865
 21
7.861277588785566
 31
0.0
  0
LINE
  5
F10370
330
261
100
AcDbEntity
  8
Geo
100
AcDbLine
 10
-24.59107328569865
 20
7.861277588785566
 30
0.0
 11
-24.49107328569864
 21
7.775660385826846
 31
0.0
  0
LINE
  5
F10372
330
261
100
AcDbEntity
  8
Geo
100
AcDbLine
 10
-24.49107328569864
 20
7.775660385826846
 30
0.0
 11
-24.39107328569865
 21
7.688638461552546
 31
0.0
  0
LINE
  5
F10374
330
261
100
AcDbEntity
  8
Geo
100
AcDbLine
 10
-24.39107328569865
 20
7.688638461552546
 30
0.0
 11
-24.29107328569865
 21
7.600394456695966
 31
0.0
  0
LINE
  5
F10376
330
261
100
AcDbEntity
  8
Geo
100
AcDbLine
 10
-24.29107328569865
 20
7.600394456695966
 30
0.0
 11
-24.19107328569864
 21
7.511113576880756
 31
0.0
  0
LINE
  5
F10378
330
261
100
AcDbEntity
  8
Geo
100
AcDbLine
 10
-24.19107328569864
 20
7.511113576880756
 30
0.0
 11
-24.09107328569865
 21
7.420983203913216
 31
0.0
  0
LINE
  5
F1037A
330
261
100
AcDbEntity
  8
Geo
100
AcDbLine
 10
-24.09107328569865
 20
7.420983203913216
 30
0.0
 11
-23.99107328569864
 21
7.330192502507276
 31
0.0
  0
LINE
  5
F1037C
330
261
100
AcDbEntity
  8
Geo
100
AcDbLine
 10
-23.99107328569864
 20
7.330192502507276
 30
0.0
 11
-23.89107328569865
 21
7.238932023267506
 31
0.0
  0
LINE
  5
F1037E
330
261
100
AcDbEntity
  8
Geo
100
AcDbLine
 10
-23.89107328569865
 20
7.238932023267506
 30
0.0
 11
-23.79107328569865
 21
7.147393302763446
 31
0.0
  0
LINE
  5
F10380
330
261
100
AcDbEntity
  8
Geo
100
AcDbLine
 10
-23.79107328569865
 20
7.147393302763446
 30
0.0
 11
-23.69107328569864
 21
7.055768461534555
 31
0.0
  0
LINE
  5
F10382
330
261
100
AcDbEntity
  8
Geo
100
AcDbLine
 10
-23.69107328569864
 20
7.055768461534555
 30
0.0
 11
-23.59107328569865
 21
6.964249800869625
 31
0.0
  0
LINE
  5
F10384
330
261
100
AcDbEntity
  8
Geo
100
AcDbLine
 10
-23.59107328569865
 20
6.964249800869625
 30
0.0
 11
-23.49107328569864
 21
6.873029399206745
 31
0.0
  0
LINE
  5
F10386
330
261
100
AcDbEntity
  8
Geo
100
AcDbLine
 10
-23.49107328569864
 20
6.873029399206745
 30
0.0
 11
-23.39107328569864
 21
6.782298709001025
 31
0.0
  0
LINE
  5
F10388
330
261
100
AcDbEntity
  8
Geo
100
AcDbLine
 10
-23.39107328569864
 20
6.782298709001025
 30
0.0
 11
-23.29107328569865
 21
6.692248154906145
 31
0.0
  0
LINE
  5
F1038A
330
261
100
AcDbEntity
  8
Geo
100
AcDbLine
 10
-23.29107328569865
 20
6.692248154906145
 30
0.0
 11
-23.19107328569864
 21
6.603066734112995
 31
0.0
  0
LINE
  5
F1038C
330
261
100
AcDbEntity
  8
Geo
100
AcDbLine
 10
-23.19107328569864
 20
6.603066734112995
 30
0.0
 11
-23.09107328569865
 21
6.514941619684275
 31
0.0
  0
LINE
  5
F1038E
330
261
100
AcDbEntity
  8
Geo
100
AcDbLine
 10
-23.09107328569865
 20
6.514941619684275
 30
0.0
 11
-22.99107328569864
 21
6.428057767717636
 31
0.0
  0
LINE
  5
F10390
330
261
100
AcDbEntity
  8
Geo
100
AcDbLine
 10
-22.99107328569864
 20
6.428057767717636
 30
0.0
 11
-22.89107328569865
 21
6.342597529161586
 31
0.0
  0
LINE
  5
F10392
330
261
100
AcDbEntity
  8
Geo
100
AcDbLine
 10
-22.89107328569865
 20
6.342597529161586
 30
0.0
 11
-22.79107328569865
 21
6.258740267099256
 31
0.0
  0
LINE
  5
F10394
330
261
100
AcDbEntity
  8
Geo
100
AcDbLine
 10
-22.79107328569865
 20
6.258740267099256
 30
0.0
 11
-22.69107328569864
 21
6.176661980302956
 31
0.0
  0
LINE
  5
F10396
330
261
100
AcDbEntity
  8
Geo
100
AcDbLine
 10
-22.69107328569864
 20
6.176661980302956
 30
0.0
 11
-22.59107328569865
 21
6.096534933849696
 31
0.0
  0
LINE
  5
F10398
330
261
100
AcDbEntity
  8
Geo
100
AcDbLine
 10
-22.59107328569865
 20
6.096534933849696
 30
0.0
 11
-22.49107328569864
 21
6.018527297573066
 31
0.0
  0
LINE
  5
F1039A
330
261
100
AcDbEntity
  8
Geo
100
AcDbLine
 10
-22.49107328569864
 20
6.018527297573066
 30
0.0
 11
-22.39107328569865
 21
5.942802793109985
 31
0.0
  0
LINE
  5
F1039C
330
261
100
AcDbEntity
  8
Geo
100
AcDbLine
 10
-22.39107328569865
 20
5.942802793109985
 30
0.0
 11
-22.29107328569865
 21
5.869520350283476
 31
0.0
  0
LINE
  5
F1039E
330
261
100
AcDbEntity
  8
Geo
100
AcDbLine
 10
-22.29107328569865
 20
5.869520350283476
 30
0.0
 11
-22.19107328569864
 21
5.798833773542316
 31
0.0
  0
LINE
  5
F103A0
330
261
100
AcDbEntity
  8
Geo
100
AcDbLine
 10
-22.19107328569864
 20
5.798833773542316
 30
0.0
 11
-22.09107328569865
 21
5.730891419157865
 31
0.0
  0
LINE
  5
F103A2
330
261
100
AcDbEntity
  8
Geo
100
AcDbLine
 10
-22.09107328569865
 20
5.730891419157865
 30
0.0
 11
-21.99107328569864
 21
5.665835883855375
 31
0.0
  0
LINE
  5
F103A4
330
261
100
AcDbEntity
  8
Geo
100
AcDbLine
 10
-21.99107328569864
 20
5.665835883855375
 30
0.0
 11
-21.89107328569865
 21
5.603803705533426
 31
0.0
  0
LINE
  5
F103A6
330
261
100
AcDbEntity
  8
Geo
100
AcDbLine
 10
-21.89107328569865
 20
5.603803705533426
 30
0.0
 11
-21.79107328569865
 21
5.544925076699636
 31
0.0
  0
LINE
  5
F103A8
330
261
100
AcDbEntity
  8
Geo
100
AcDbLine
 10
-21.79107328569865
 20
5.544925076699636
 30
0.0
 11
-21.69107328569864
 21
5.489323571223856
 31
0.0
  0
LINE
  5
F103AA
330
261
100
AcDbEntity
  8
Geo
100
AcDbLine
 10
-21.69107328569864
 20
5.489323571223856
 30
0.0
 11
-21.59107328569865
 21
5.437115884982645
 31
0.0
  0
LINE
  5
F103AC
330
261
100
AcDbEntity
  8
Geo
100
AcDbLine
 10
-21.59107328569865
 20
5.437115884982645
 30
0.0
 11
-21.49107328569864
 21
5.388411590939096
 31
0.0
  0
LINE
  5
F103AE
330
261
100
AcDbEntity
  8
Geo
100
AcDbLine
 10
-21.49107328569864
 20
5.388411590939096
 30
0.0
 11
-21.39107328569865
 21
5.343312909172306
 31
0.0
  0
LINE
  5
F103B0
330
261
100
AcDbEntity
  8
Geo
100
AcDbLine
 10
-21.39107328569865
 20
5.343312909172306
 30
0.0
 11
-21.29107328569865
 21
5.301914492338756
 31
0.0
  0
LINE
  5
F103B2
330
261
100
AcDbEntity
  8
Geo
100
AcDbLine
 10
-21.29107328569865
 20
5.301914492338756
 30
0.0
 11
-21.19107328569864
 21
5.264303227016446
 31
0.0
  0
LINE
  5
F103B4
330
261
100
AcDbEntity
  8
Geo
100
AcDbLine
 10
-21.19107328569864
 20
5.264303227016446
 30
0.0
 11
-21.09107328569865
 21
5.230558051348086
 31
0.0
  0
LINE
  5
F103B6
330
261
100
AcDbEntity
  8
Geo
100
AcDbLine
 10
-21.09107328569865
 20
5.230558051348086
 30
0.0
 11
-21.09107328569865
 21
5.230558051348065
 31
0.0
  0
LINE
  5
F103B8
330
261
100
AcDbEntity
  8
Geo
100
AcDbLine
 10
-21.09107328569865
 20
5.230558051348065
 30
0.0
 11
-21.09107328569865
 21
5.324348138189476
 31
0.0
  0
LINE
  5
F103BA
330
261
100
AcDbEntity
  8
Geo
100
AcDbLine
 10
-21.09107328569865
 20
5.324348138189476
 30
0.0
 11
-21.09107328569865
 21
5.230558051348065
 31
0.0
  0
LINE
  5
F103BC
330
261
100
AcDbEntity
  8
Geo
100
AcDbLine
 10
-21.09107328569865
 20
5.230558051348065
 30
0.0
 11
-21.09107328569865
 21
5.230558051348065
 31
0.0
  0
LINE
  5
F103BE
330
261
100
AcDbEntity
  8
Geo
100
AcDbLine
 10
-21.09107328569865
 20
5.230558051348065
 30
0.0
 11
-20.99107328569864
 21
5.289227405269576
 31
0.0
  0
LINE
  5
F103C0
330
261
100
AcDbEntity
  8
Geo
100
AcDbLine
 10
-20.99107328569864
 20
5.289227405269576
 30
0.0
 11
-20.89107328569864
 21
5.259947829324765
 31
0.0
  0
LINE
  5
F103C2
330
261
100
AcDbEntity
  8
Geo
100
AcDbLine
 10
-20.89107328569864
 20
5.259947829324765
 30
0.0
 11
-20.79107328569865
 21
5.236777592361535
 31
0.0
  0
LINE
  5
F103C4
330
261
100
AcDbEntity
  8
Geo
100
AcDbLine
 10
-20.79107328569865
 20
5.236777592361535
 30
0.0
 11
-20.69107328569864
 21
5.219969445389615
 31
0.0
  0
LINE
  5
F103C6
330
261
100
AcDbEntity
  8
Geo
100
AcDbLine
 10
-20.69107328569864
 20
5.219969445389615
 30
0.0
 11
-20.59107328569865
 21
5.209758532525985
 31
0.0
  0
LINE
  5
F103C8
330
261
100
AcDbEntity
  8
Geo
100
AcDbLine
 10
-30.29107328569865
 20
9.105365427974236
 30
0.0
 11
-30.19107328569865
 21
9.106155822557676
 31
0.0
  0
LINE
  5
F103CA
330
261
100
AcDbEntity
  8
Geo
100
AcDbLine
 10
-30.19107328569865
 20
9.106155822557676
 30
0.0
 11
-30.09107328569865
 21
9.102749065478395
 31
0.0
  0
LINE
  5
F103CC
330
261
100
AcDbEntity
  8
Geo
100
AcDbLine
 10
-30.09107328569865
 20
9.102749065478395
 30
0.0
 11
-29.99107328569864
 21
9.095152306803637
 31
0.0
  0
LINE
  5
F103CE
330
261
100
AcDbEntity
  8
Geo
100
AcDbLine
 10
-29.99107328569864
 20
9.095152306803637
 30
0.0
 11
-29.89107328569865
 21
9.083381490533547
 31
0.0
  0
LINE
  5
F103D0
330
261
100
AcDbEntity
  8
Geo
100
AcDbLine
 10
-29.89107328569865
 20
9.083381490533547
 30
0.0
 11
-29.79107328569865
 21
9.067461321138097
 31
0.0
  0
LINE
  5
F103D2
330
261
100
AcDbEntity
  8
Geo
100
AcDbLine
 10
-29.79107328569865
 20
9.067461321138097
 30
0.0
 11
-29.69107328569864
 21
9.047425211707606
 31
0.0
  0
LINE
  5
F103D4
330
261
100
AcDbEntity
  8
Geo
100
AcDbLine
 10
-29.69107328569864
 20
9.047425211707606
 30
0.0
 11
-29.59107328569865
 21
9.023315213825586
 31
0.0
  0
LINE
  5
F103D6
330
261
100
AcDbEntity
  8
Geo
100
AcDbLine
 10
-29.59107328569865
 20
9.023315213825586
 30
0.0
 11
-29.49107328569864
 21
8.995181929311405
 31
0.0
  0
LINE
  5
F103D8
330
261
100
AcDbEntity
  8
Geo
100
AcDbLine
 10
-29.49107328569864
 20
8.995181929311405
 30
0.0
 11
-29.39107328569864
 21
8.963084404017685
 31
0.0
  0
LINE
  5
F103DA
330
261
100
AcDbEntity
  8
Geo
100
AcDbLine
 10
-29.39107328569864
 20
8.963084404017685
 30
0.0
 11
-29.29107328569865
 21
8.927090003905405
 31
0.0
  0
LINE
  5
F103DC
330
261
100
AcDbEntity
  8
Geo
100
AcDbLine
 10
-29.29107328569865
 20
8.927090003905405
 30
0.0
 11
-29.19107328569864
 21
8.887274273656984
 31
0.0
  0
LINE
  5
F103DE
330
261
100
AcDbEntity
  8
Geo
100
AcDbLine
 10
-29.19107328569864
 20
8.887274273656984
 30
0.0
 11
-29.09107328569865
 21
8.843720778123776
 31
0.0
  0
LINE
  5
F103E0
330
261
100
AcDbEntity
  8
Geo
100
AcDbLine
 10
-29.09107328569865
 20
8.843720778123776
 30
0.0
 11
-28.99107328569864
 21
8.796520926941125
 31
0.0
  0
LINE
  5
F103E2
330
261
100
AcDbEntity
  8
Geo
100
AcDbLine
 10
-28.99107328569864
 20
8.796520926941125
 30
0.0
 11
-28.89107328569865
 21
8.745773782678615
 31
0.0
  0
LINE
  5
F103E4
330
261
100
AcDbEntity
  8
Geo
100
AcDbLine
 10
-28.89107328569865
 20
8.745773782678615
 30
0.0
 11
-28.79107328569865
 21
8.691585852928655
 31
0.0
  0
LINE
  5
F103E6
330
261
100
AcDbEntity
  8
Geo
100
AcDbLine
 10
-28.79107328569865
 20
8.691585852928655
 30
0.0
 11
-28.69107328569864
 21
8.634070866769416
 31
0.0
  0
LINE
  5
F103E8
330
261
100
AcDbEntity
  8
Geo
100
AcDbLine
 10
-28.69107328569864
 20
8.634070866769416
 30
0.0
 11
-28.59107328569865
 21
8.573349536071285
 31
0.0
  0
LINE
  5
F103EA
330
261
100
AcDbEntity
  8
Geo
100
AcDbLine
 10
-28.59107328569865
 20
8.573349536071285
 30
0.0
 11
-28.49107328569864
 21
8.509549302148155
 31
0.0
  0
LINE
  5
F103EC
330
261
100
AcDbEntity
  8
Geo
100
AcDbLine
 10
-28.49107328569864
 20
8.509549302148155
 30
0.0
 11
-28.39107328569865
 21
8.442804068284814
 31
0.0
  0
LINE
  5
F103EE
330
261
100
AcDbEntity
  8
Geo
100
AcDbLine
 10
-28.39107328569865
 20
8.442804068284814
 30
0.0
 11
-28.29107328569865
 21
8.373253918702065
 31
0.0
  0
LINE
  5
F103F0
330
261
100
AcDbEntity
  8
Geo
100
AcDbLine
 10
-28.29107328569865
 20
8.373253918702065
 30
0.0
 11
-28.19107328569864
 21
8.301044824549475
 31
0.0
  0
LINE
  5
F103F2
330
261
100
AcDbEntity
  8
Geo
100
AcDbLine
 10
-28.19107328569864
 20
8.301044824549475
 30
0.0
 11
-28.09107328569865
 21
8.226328337542465
 31
0.0
  0
LINE
  5
F103F4
330
261
100
AcDbEntity
  8
Geo
100
AcDbLine
 10
-28.09107328569865
 20
8.226328337542465
 30
0.0
 11
-27.99107328569864
 21
8.149261271887276
 31
0.0
  0
LINE
  5
F103F6
330
261
100
AcDbEntity
  8
Geo
100
AcDbLine
 10
-27.99107328569864
 20
8.149261271887276
 30
0.0
 11
-27.89107328569865
 21
8.070005375160706
 31
0.0
  0
LINE
  5
F103F8
330
261
100
AcDbEntity
  8
Geo
100
AcDbLine
 10
-27.89107328569865
 20
8.070005375160706
 30
0.0
 11
-27.79107328569865
 21
7.988726988836125
 31
0.0
  0
LINE
  5
F103FA
330
261
100
AcDbEntity
  8
Geo
100
AcDbLine
 10
-27.79107328569865
 20
7.988726988836125
 30
0.0
 11
-27.69107328569865
 21
7.905596699167535
 31
0.0
  0
LINE
  5
F103FC
330
261
100
AcDbEntity
  8
Geo
100
AcDbLine
 10
-27.69107328569865
 20
7.905596699167535
 30
0.0
 11
-27.59107328569865
 21
7.820788979164945
 31
0.0
  0
LINE
  5
F103FE
330
261
100
AcDbEntity
  8
Geo
100
AcDbLine
 10
-27.59107328569865
 20
7.820788979164945
 30
0.0
 11
-27.49107328569864
 21
7.734481822412146
 31
0.0
  0
LINE
  5
F10400
330
261
100
AcDbEntity
  8
Geo
100
AcDbLine
 10
-27.49107328569864
 20
7.734481822412146
 30
0.0
 11
-27.39107328569865
 21
7.646856369495606
 31
0.0
  0
LINE
  5
F10402
330
261
100
AcDbEntity
  8
Geo
100
AcDbLine
 10
-27.39107328569865
 20
7.646856369495606
 30
0.0
 11
-27.29107328569865
 21
7.558096527828426
 31
0.0
  0
LINE
  5
F10404
330
261
100
AcDbEntity
  8
Geo
100
AcDbLine
 10
-27.29107328569865
 20
7.558096527828426
 30
0.0
 11
-27.19107328569864
 21
7.468388585667306
 31
0.0
  0
LINE
  5
F10406
330
261
100
AcDbEntity
  8
Geo
100
AcDbLine
 10
-27.19107328569864
 20
7.468388585667306
 30
0.0
 11
-27.09107328569865
 21
7.377920821132705
 31
0.0
  0
LINE
  5
F10408
330
261
100
AcDbEntity
  8
Geo
100
AcDbLine
 10
-27.09107328569865
 20
7.377920821132705
 30
0.0
 11
-26.99107328569864
 21
7.286883107052535
 31
0.0
  0
LINE
  5
F1040A
330
261
100
AcDbEntity
  8
Geo
100
AcDbLine
 10
-26.99107328569864
 20
7.286883107052535
 30
0.0
 11
-26.89107328569865
 21
7.195466512459075
 31
0.0
  0
LINE
  5
F1040C
330
261
100
AcDbEntity
  8
Geo
100
AcDbLine
 10
-26.89107328569865
 20
7.195466512459075
 30
0.0
 11
-26.79107328569865
 21
7.103862901575176
 31
0.0
  0
LINE
  5
F1040E
330
261
100
AcDbEntity
  8
Geo
100
AcDbLine
 10
-26.79107328569865
 20
7.103862901575176
 30
0.0
 11
-26.69107328569864
 21
7.012264531131584
 31
0.0
  0
LINE
  5
F10410
330
261
100
AcDbEntity
  8
Geo
100
AcDbLine
 10
-26.69107328569864
 20
7.012264531131584
 30
0.0
 11
-26.59107328569865
 21
6.920863646860466
 31
0.0
  0
LINE
  5
F10412
330
261
100
AcDbEntity
  8
Geo
100
AcDbLine
 10
-26.59107328569865
 20
6.920863646860466
 30
0.0
 11
-26.49107328569864
 21
6.829852080012016
 31
0.0
  0
LINE
  5
F10414
330
261
100
AcDbEntity
  8
Geo
100
AcDbLine
 10
-26.49107328569864
 20
6.829852080012016
 30
0.0
 11
-26.39107328569865
 21
6.739420844740945
 31
0.0
  0
LINE
  5
F10416
330
261
100
AcDbEntity
  8
Geo
100
AcDbLine
 10
-26.39107328569865
 20
6.739420844740945
 30
0.0
 11
-26.29107328569865
 21
6.649759737207955
 31
0.0
  0
LINE
  5
F10418
330
261
100
AcDbEntity
  8
Geo
100
AcDbLine
 10
-26.29107328569865
 20
6.649759737207955
 30
0.0
 11
-26.19107328569864
 21
6.561056937237415
 31
0.0
  0
LINE
  5
F1041A
330
261
100
AcDbEntity
  8
Geo
100
AcDbLine
 10
-26.19107328569864
 20
6.561056937237415
 30
0.0
 11
-26.09107328569865
 21
6.473498613367525
 31
0.0
  0
LINE
  5
F1041C
330
261
100
AcDbEntity
  8
Geo
100
AcDbLine
 10
-26.09107328569865
 20
6.473498613367525
 30
0.0
 11
-25.99107328569864
 21
6.387268532121615
 31
0.0
  0
LINE
  5
F1041E
330
261
100
AcDbEntity
  8
Geo
100
AcDbLine
 10
-25.99107328569864
 20
6.387268532121615
 30
0.0
 11
-25.89107328569865
 21
6.302547672320856
 31
0.0
  0
LINE
  5
F10420
330
261
100
AcDbEntity
  8
Geo
100
AcDbLine
 10
-25.89107328569865
 20
6.302547672320856
 30
0.0
 11
-25.79107328569865
 21
6.219513845247726
 31
0.0
  0
LINE
  5
F10422
330
261
100
AcDbEntity
  8
Geo
100
AcDbLine
 10
-25.79107328569865
 20
6.219513845247726
 30
0.0
 11
-25.69107328569864
 21
6.138341321457506
 31
0.0
  0
LINE
  5
F10424
330
261
100
AcDbEntity
  8
Geo
100
AcDbLine
 10
-25.69107328569864
 20
6.138341321457506
 30
0.0
 11
-25.59107328569865
 21
6.059200465021006
 31
0.0
  0
LINE
  5
F10426
330
261
100
AcDbEntity
  8
Geo
100
AcDbLine
 10
-25.59107328569865
 20
6.059200465021006
 30
0.0
 11
-25.49107328569864
 21
5.982257375966185
 31
0.0
  0
LINE
  5
F10428
330
261
100
AcDbEntity
  8
Geo
100
AcDbLine
 10
-25.49107328569864
 20
5.982257375966185
 30
0.0
 11
-25.39107328569865
 21
5.907673541669005
 31
0.0
  0
LINE
  5
F1042A
330
261
100
AcDbEntity
  8
Geo
100
AcDbLine
 10
-25.39107328569865
 20
5.907673541669005
 30
0.0
 11
-25.29107328569865
 21
5.835605497925556
 31
0.0
  0
LINE
  5
F1042C
330
261
100
AcDbEntity
  8
Geo
100
AcDbLine
 10
-25.29107328569865
 20
5.835605497925556
 30
0.0
 11
-25.19107328569865
 21
5.766204500416085
 31
0.0
  0
LINE
  5
F1042E
330
261
100
AcDbEntity
  8
Geo
100
AcDbLine
 10
-25.19107328569865
 20
5.766204500416085
 30
0.0
 11
-25.09107328569865
 21
5.699616207251295
 31
0.0
  0
LINE
  5
F10430
330
261
100
AcDbEntity
  8
Geo
100
AcDbLine
 10
-25.09107328569865
 20
5.699616207251295
 30
0.0
 11
-24.99107328569864
 21
5.635980373266436
 31
0.0
  0
LINE
  5
F10432
330
261
100
AcDbEntity
  8
Geo
100
AcDbLine
 10
-24.99107328569864
 20
5.635980373266436
 30
0.0
 11
-24.89107328569865
 21
5.575430556705385
 31
0.0
  0
LINE
  5
F10434
330
261
100
AcDbEntity
  8
Geo
100
AcDbLine
 10
-24.89107328569865
 20
5.575430556705385
 30
0.0
 11
-24.79107328569865
 21
5.518093838909866
 31
0.0
  0
LINE
  5
F10436
330
261
100
AcDbEntity
  8
Geo
100
AcDbLine
 10
-24.79107328569865
 20
5.518093838909866
 30
0.0
 11
-24.69107328569864
 21
5.464090557602485
 31
0.0
  0
LINE
  5
F10438
330
261
100
AcDbEntity
  8
Geo
100
AcDbLine
 10
-24.69107328569864
 20
5.464090557602485
 30
0.0
 11
-24.59107328569865
 21
5.413534054323095
 31
0.0
  0
LINE
  5
F1043A
330
261
100
AcDbEntity
  8
Geo
100
AcDbLine
 10
-24.59107328569865
 20
5.413534054323095
 30
0.0
 11
-24.49107328569864
 21
5.366530436548726
 31
0.0
  0
LINE
  5
F1043C
330
261
100
AcDbEntity
  8
Geo
100
AcDbLine
 10
-24.49107328569864
 20
5.366530436548726
 30
0.0
 11
-24.39107328569865
 21
5.323178354996315
 31
0.0
  0
LINE
  5
F1043E
330
261
100
AcDbEntity
  8
Geo
100
AcDbLine
 10
-24.39107328569865
 20
5.323178354996315
 30
0.0
 11
-24.29107328569865
 21
5.283568796575556
 31
0.0
  0
LINE
  5
F10440
330
261
100
AcDbEntity
  8
Geo
100
AcDbLine
 10
-24.29107328569865
 20
5.283568796575556
 30
0.0
 11
-24.19107328569864
 21
5.247784893426466
 31
0.0
  0
LINE
  5
F10442
330
261
100
AcDbEntity
  8
Geo
100
AcDbLine
 10
-24.19107328569864
 20
5.247784893426466
 30
0.0
 11
-24.09107328569865
 21
5.215901748442576
 31
0.0
  0
LINE
  5
F10444
330
261
100
AcDbEntity
  8
Geo
100
AcDbLine
 10
-24.09107328569865
 20
5.215901748442576
 30
0.0
 11
-23.99107328569864
 21
5.187986277645635
 31
0.0
  0
LINE
  5
F10446
330
261
100
AcDbEntity
  8
Geo
100
AcDbLine
 10
-23.99107328569864
 20
5.187986277645635
 30
0.0
 11
-23.89107328569865
 21
5.164097069743025
 31
0.0
  0
LINE
  5
F10448
330
261
100
AcDbEntity
  8
Geo
100
AcDbLine
 10
-23.89107328569865
 20
5.164097069743025
 30
0.0
 11
-23.79107328569865
 21
5.144284263162365
 31
0.0
  0
LINE
  5
F1044A
330
261
100
AcDbEntity
  8
Geo
100
AcDbLine
 10
-23.79107328569865
 20
5.144284263162365
 30
0.0
 11
-23.69107328569864
 21
5.128589440821416
 31
0.0
  0
LINE
  5
F1044C
330
261
100
AcDbEntity
  8
Geo
100
AcDbLine
 10
-23.69107328569864
 20
5.128589440821416
 30
0.0
 11
-23.59107328569865
 21
5.117045542854345
 31
0.0
  0
LINE
  5
F1044E
330
261
100
AcDbEntity
  8
Geo
100
AcDbLine
 10
-23.59107328569865
 20
5.117045542854345
 30
0.0
 11
-23.49107328569864
 21
5.109676797477305
 31
0.0
  0
LINE
  5
F10450
330
261
100
AcDbEntity
  8
Geo
100
AcDbLine
 10
-23.49107328569864
 20
5.109676797477305
 30
0.0
 11
-23.39107328569864
 21
5.106498670138456
 31
0.0
  0
LINE
  5
F10452
330
261
100
AcDbEntity
  8
Geo
100
AcDbLine
 10
-33.09107328569865
 20
8.416524430013426
 30
0.0
 11
-32.99107328569864
 21
8.404518120489585
 31
0.0
  0
LINE
  5
F10454
330
261
100
AcDbEntity
  8
Geo
100
AcDbLine
 10
-33.09107328569865
 20
8.183508437028084
 30
0.0
 11
-32.99107328569864
 21
8.150182447142455
 31
0.0
  0
LINE
  5
F10456
330
261
100
AcDbEntity
  8
Geo
100
AcDbLine
 10
-33.09107328569865
 20
5.260904708635676
 30
0.0
 11
-32.99107328569864
 21
5.142667036984216
 31
0.0
  0
LINE
  5
F10458
330
261
100
AcDbEntity
  8
Geo
100
AcDbLine
 10
-33.09107328569865
 20
5.235298630315906
 30
0.0
 11
-32.99107328569864
 21
5.130680066774555
 31
0.0
  0
LINE
  5
F1045A
330
261
100
AcDbEntity
  8
Geo
100
AcDbLine
 10
-32.99107328569864
 20
8.404518120489585
 30
0.0
 11
-32.89107328569865
 21
8.319691618145427
 31
0.0
  0
LINE
  5
F1045C
330
261
100
AcDbEntity
  8
Geo
100
AcDbLine
 10
-32.99107328569864
 20
8.150182447142455
 30
0.0
 11
-32.89107328569865
 21
8.057057331573446
 31
0.0
  0
LINE
  5
F1045E
330
261
100
AcDbEntity
  8
Geo
100
AcDbLine
 10
-32.99107328569864
 20
5.142667036984216
 30
0.0
 11
-32.89107328569865
 21
5.126466789251976
 31
0.0
  0
LINE
  5
F10460
330
261
100
AcDbEntity
  8
Geo
100
AcDbLine
 10
-32.89107328569865
 20
8.319691618145427
 30
0.0
 11
-32.79107328569865
 21
8.231253455311296
 31
0.0
  0
LINE
  5
F10462
330
261
100
AcDbEntity
  8
Geo
100
AcDbLine
 10
-32.89107328569865
 20
8.057057331573446
 30
0.0
 11
-32.79107328569865
 21
7.961102325062316
 31
0.0
  0
LINE
  5
F10464
330
261
100
AcDbEntity
  8
Geo
100
AcDbLine
 10
-32.89107328569865
 20
5.126466789251976
 30
0.0
 11
-32.79107328569865
 21
5.115215242908705
 31
0.0
  0
LINE
  5
F10466
330
261
100
AcDbEntity
  8
Geo
100
AcDbLine
 10
-32.79107328569865
 20
8.231253455311296
 30
0.0
 11
-32.69107328569865
 21
8.139466881174756
 31
0.0
  0
LINE
  5
F10468
330
261
100
AcDbEntity
  8
Geo
100
AcDbLine
 10
-32.79107328569865
 20
7.961102325062316
 30
0.0
 11
-32.69107328569865
 21
7.862603051786445
 31
0.0
  0
LINE
  5
F1046A
330
261
100
AcDbEntity
  8
Geo
100
AcDbLine
 10
-32.79107328569865
 20
5.115215242908705
 30
0.0
 11
-32.69107328569865
 21
5.108940520960575
 31
0.0
  0
LINE
  5
F1046C
330
261
100
AcDbEntity
  8
Geo
100
AcDbLine
 10
-32.69107328569865
 20
8.139466881174756
 30
0.0
 11
-32.59107328569865
 21
8.044605111961697
 31
0.0
  0
LINE
  5
F1046E
330
261
100
AcDbEntity
  8
Geo
100
AcDbLine
 10
-32.69107328569865
 20
7.862603051786445
 30
0.0
 11
-32.59107328569865
 21
7.761852709307136
 31
0.0
  0
LINE
  5
F10470
330
261
100
AcDbEntity
  8
Geo
100
AcDbLine
 10
-32.59107328569865
 20
8.044605111961697
 30
0.0
 11
-32.49107328569864
 21
7.946950517668025
 31
0.0
  0
LINE
  5
F10472
330
261
100
AcDbEntity
  8
Geo
100
AcDbLine
 10
-32.59107328569865
 20
7.761852709307136
 30
0.0
 11
-32.49107328569864
 21
7.659151195823955
 31
0.0
  0
LINE
  5
F10474
330
261
100
AcDbEntity
  8
Geo
100
AcDbLine
 10
-32.49107328569864
 20
7.946950517668025
 30
0.0
 11
-32.39107328569865
 21
7.846793781543926
 31
0.0
  0
LINE
  5
F10476
330
261
100
AcDbEntity
  8
Geo
100
AcDbLine
 10
-32.49107328569864
 20
7.659151195823955
 30
0.0
 11
-32.39107328569865
 21
7.554804217483677
 31
0.0
  0
LINE
  5
F10478
330
261
100
AcDbEntity
  8
Geo
100
AcDbLine
 10
-32.39107328569865
 20
7.846793781543926
 30
0.0
 11
-32.29107328569865
 21
7.744433034832415
 31
0.0
  0
LINE
  5
F1047A
330
261
100
AcDbEntity
  8
Geo
100
AcDbLine
 10
-32.39107328569865
 20
7.554804217483677
 30
0.0
 11
-32.29107328569865
 21
7.449122378401034
 31
0.0
  0
LINE
  5
F1047C
330
261
100
AcDbEntity
  8
Geo
100
AcDbLine
 10
-32.29107328569865
 20
7.744433034832415
 30
0.0
 11
-32.19107328569864
 21
7.640172969337915
 31
0.0
  0
LINE
  5
F1047E
330
261
100
AcDbEntity
  8
Geo
100
AcDbLine
 10
-32.29107328569865
 20
7.449122378401034
 30
0.0
 11
-32.19107328569864
 21
7.342420256099906
 31
0.0
  0
LINE
  5
F10480
330
261
100
AcDbEntity
  8
Geo
100
AcDbLine
 10
-32.19107328569864
 20
7.640172969337915
 30
0.0
 11
-32.09107328569865
 21
7.534323930466285
 31
0.0
  0
LINE
  5
F10482
330
261
100
AcDbEntity
  8
Geo
100
AcDbLine
 10
-32.19107328569864
 20
7.342420256099906
 30
0.0
 11
-32.09107328569865
 21
7.235015465127125
 31
0.0
  0
LINE
  5
F10484
330
261
100
AcDbEntity
  8
Geo
100
AcDbLine
 10
-32.09107328569865
 20
7.534323930466285
 30
0.0
 11
-31.99107328569864
 21
7.427200993436155
 31
0.0
  0
LINE
  5
F10486
330
261
100
AcDbEntity
  8
Geo
100
AcDbLine
 10
-32.09107328569865
 20
7.235015465127125
 30
0.0
 11
-31.99107328569864
 21
7.127227711626056
 31
0.0
  0
LINE
  5
F10488
330
261
100
AcDbEntity
  8
Geo
100
AcDbLine
 10
-31.99107328569864
 20
7.427200993436155
 30
0.0
 11
-31.89107328569865
 21
7.319123025411236
 31
0.0
  0
LINE
  5
F1048A
330
261
100
AcDbEntity
  8
Geo
100
AcDbLine
 10
-31.99107328569864
 20
7.127227711626056
 30
0.0
 11
-31.89107328569865
 21
7.019377841684315
 31
0.0
  0
LINE
  5
F1048C
330
261
100
AcDbEntity
  8
Geo
100
AcDbLine
 10
-31.89107328569865
 20
7.319123025411236
 30
0.0
 11
-31.79107328569865
 21
7.210411736345306
 31
0.0
  0
LINE
  5
F1048E
330
261
100
AcDbEntity
  8
Geo
100
AcDbLine
 10
-31.89107328569865
 20
7.019377841684315
 30
0.0
 11
-31.79107328569865
 21
6.911786886288235
 31
0.0
  0
LINE
  5
F10490
330
261
100
AcDbEntity
  8
Geo
100
AcDbLine
 10
-31.79107328569865
 20
7.210411736345306
 30
0.0
 11
-31.69107328569864
 21
7.101390721365305
 31
0.0
  0
LINE
  5
F10492
330
261
100
AcDbEntity
  8
Geo
100
AcDbLine
 10
-31.79107328569865
 20
6.911786886288235
 30
0.0
 11
-31.69107328569864
 21
6.804775105726946
 31
0.0
  0
LINE
  5
F10494
330
261
100
AcDbEntity
  8
Geo
100
AcDbLine
 10
-31.69107328569864
 20
7.101390721365305
 30
0.0
 11
-31.59107328569865
 21
6.992384497542865
 31
0.0
  0
LINE
  5
F10496
330
261
100
AcDbEntity
  8
Geo
100
AcDbLine
 10
-31.69107328569864
 20
6.804775105726946
 30
0.0
 11
-31.59107328569865
 21
6.698661036290576
 31
0.0
  0
LINE
  5
F10498
330
261
100
AcDbEntity
  8
Geo
100
AcDbLine
 10
-31.59107328569865
 20
6.992384497542865
 30
0.0
 11
-31.49107328569864
 21
6.883717537921565
 31
0.0
  0
LINE
  5
F1049A
330
261
100
AcDbEntity
  8
Geo
100
AcDbLine
 10
-31.59107328569865
 20
6.698661036290576
 30
0.0
 11
-31.49107328569864
 21
6.593760542100185
 31
0.0
  0
LINE
  5
F1049C
330
261
100
AcDbEntity
  8
Geo
100
AcDbLine
 10
-31.49107328569864
 20
6.883717537921565
 30
0.0
 11
-31.39107328569865
 21
6.775713305675245
 31
0.0
  0
LINE
  5
F1049E
330
261
100
AcDbEntity
  8
Geo
100
AcDbLine
 10
-31.49107328569864
 20
6.593760542100185
 30
0.0
 11
-31.39107328569865
 21
6.490385874891766
 31
0.0
  0
LINE
  5
F104A0
330
261
100
AcDbEntity
  8
Geo
100
AcDbLine
 10
-31.39107328569865
 20
6.775713305675245
 30
0.0
 11
-31.29107328569865
 21
6.668693291272306
 31
0.0
  0
LINE
  5
F104A2
330
261
100
AcDbEntity
  8
Geo
100
AcDbLine
 10
-31.39107328569865
 20
6.490385874891766
 30
0.0
 11
-31.29107328569865
 21
6.388844744553075
 31
0.0
  0
LINE
  5
F104A4
330
261
100
AcDbEntity
  8
Geo
100
AcDbLine
 10
-31.29107328569865
 20
6.668693291272306
 30
0.0
 11
-31.19107328569864
 21
6.562976055512125
 31
0.0
  0
LINE
  5
F104A6
330
261
100
AcDbEntity
  8
Geo
100
AcDbLine
 10
-31.29107328569865
 20
6.388844744553075
 30
0.0
 11
-31.19107328569864
 21
6.289439403179965
 31
0.0
  0
LINE
  5
F104A8
330
261
100
AcDbEntity
  8
Geo
100
AcDbLine
 10
-31.19107328569864
 20
6.562976055512125
 30
0.0
 11
-31.09107328569865
 21
6.458876281281995
 31
0.0
  0
LINE
  5
F104AA
330
261
100
AcDbEntity
  8
Geo
100
AcDbLine
 10
-31.19107328569864
 20
6.289439403179965
 30
0.0
 11
-31.09107328569865
 21
6.192465745378556
 31
0.0
  0
LINE
  5
F104AC
330
261
100
AcDbEntity
  8
Geo
100
AcDbLine
 10
-31.09107328569865
 20
6.458876281281995
 30
0.0
 11
-30.99107328569864
 21
6.356703836857295
 31
0.0
  0
LINE
  5
F104AE
330
261
100
AcDbEntity
  8
Geo
100
AcDbLine
 10
-31.09107328569865
 20
6.192465745378556
 30
0.0
 11
-30.99107328569864
 21
6.098212427491496
 31
0.0
  0
LINE
  5
F104B0
330
261
100
AcDbEntity
  8
Geo
100
AcDbLine
 10
-30.99107328569864
 20
6.356703836857295
 30
0.0
 11
-30.89107328569865
 21
6.256762853533006
 31
0.0
  0
LINE
  5
F104B2
330
261
100
AcDbEntity
  8
Geo
100
AcDbLine
 10
-30.99107328569864
 20
6.098212427491496
 30
0.0
 11
-30.89107328569865
 21
6.006960008369915
 31
0.0
  0
LINE
  5
F104B4
330
261
100
AcDbEntity
  8
Geo
100
AcDbLine
 10
-30.89107328569865
 20
6.256762853533006
 30
0.0
 11
-30.79107328569865
 21
6.159350820332226
 31
0.0
  0
LINE
  5
F104B6
330
261
100
AcDbEntity
  8
Geo
100
AcDbLine
 10
-30.89107328569865
 20
6.006960008369915
 30
0.0
 11
-30.79107328569865
 21
5.918980114248785
 31
0.0
  0
LINE
  5
F104B8
330
261
100
AcDbEntity
  8
Geo
100
AcDbLine
 10
-30.79107328569865
 20
6.159350820332226
 30
0.0
 11
-30.69107328569864
 21
6.064757698486405
 31
0.0
  0
LINE
  5
F104BA
330
261
100
AcDbEntity
  8
Geo
100
AcDbLine
 10
-30.79107328569865
 20
5.918980114248785
 30
0.0
 11
-30.69107328569864
 21
5.834534630211555
 31
0.0
  0
LINE
  5
F104BC
330
261
100
AcDbEntity
  8
Geo
100
AcDbLine
 10
-30.69107328569864
 20
6.064757698486405
 30
0.0
 11
-30.59107328569865
 21
5.973265058323086
 31
0.0
  0
LINE
  5
F104BE
330
261
100
AcDbEntity
  8
Geo
100
AcDbLine
 10
-30.69107328569864
 20
5.834534630211555
 30
0.0
 11
-30.59107328569865
 21
5.753874920650625
 31
0.0
  0
LINE
  5
F104C0
330
261
100
AcDbEntity
  8
Geo
100
AcDbLine
 10
-30.59107328569865
 20
5.973265058323086
 30
0.0
 11
-30.49107328569864
 21
5.885145241130505
 31
0.0
  0
LINE
  5
F104C2
330
261
100
AcDbEntity
  8
Geo
100
AcDbLine
 10
-30.59107328569865
 20
5.753874920650625
 30
0.0
 11
-30.49107328569864
 21
5.677241081044396
 31
0.0
  0
LINE
  5
F104C4
330
261
100
AcDbEntity
  8
Geo
100
AcDbLine
 10
-30.59107328569865
 20
9.083336811697286
 30
0.0
 11
-30.49107328569864
 21
9.080507053690364
 31
0.0
  0
LINE
  5
F104C6
330
261
100
AcDbEntity
  8
Geo
100
AcDbLine
 10
-30.49107328569864
 20
5.885145241130505
 30
0.0
 11
-30.39107328569865
 21
5.800660548493635
 31
0.0
  0
LINE
  5
F104C8
330
261
100
AcDbEntity
  8
Geo
100
AcDbLine
 10
-30.49107328569864
 20
5.677241081044396
 30
0.0
 11
-30.39107328569865
 21
5.604861223277735
 31
0.0
  0
LINE
  5
F104CA
330
261
100
AcDbEntity
  8
Geo
100
AcDbLine
 10
-30.49107328569864
 20
9.080507053690364
 30
0.0
 11
-30.39107328569865
 21
9.073533975397005
 31
0.0
  0
LINE
  5
F104CC
330
261
100
AcDbEntity
  8
Geo
100
AcDbLine
 10
-30.39107328569865
 20
5.800660548493635
 30
0.0
 11
-30.29107328569865
 21
5.720062461515075
 31
0.0
  0
LINE
  5
F104CE
330
261
100
AcDbEntity
  8
Geo
100
AcDbLine
 10
-30.39107328569865
 20
5.604861223277735
 30
0.0
 11
-30.29107328569865
 21
5.536950796633435
 31
0.0
  0
LINE
  5
F104D0
330
261
100
AcDbEntity
  8
Geo
100
AcDbLine
 10
-30.39107328569865
 20
9.073533975397005
 30
0.0
 11
-30.29107328569865
 21
9.062432211843347
 31
0.0
  0
LINE
  5
F104D2
330
261
100
AcDbEntity
  8
Geo
100
AcDbLine
 10
-30.29107328569865
 20
5.720062461515075
 30
0.0
 11
-30.19107328569865
 21
5.643590892244565
 31
0.0
  0
LINE
  5
F104D4
330
261
100
AcDbEntity
  8
Geo
100
AcDbLine
 10
-30.29107328569865
 20
5.536950796633435
 30
0.0
 11
-30.19107328569865
 21
5.473711946475786
 31
0.0
  0
LINE
  5
F104D6
330
261
100
AcDbEntity
  8
Geo
100
AcDbLine
 10
-30.29107328569865
 20
9.062432211843347
 30
0.0
 11
-30.19107328569865
 21
9.047225063298256
 31
0.0
  0
LINE
  5
F104D8
330
261
100
AcDbEntity
  8
Geo
100
AcDbLine
 10
-30.19107328569865
 20
5.643590892244565
 30
0.0
 11
-30.09107328569865
 21
5.571473469545436
 31
0.0
  0
LINE
  5
F104DA
330
261
100
AcDbEntity
  8
Geo
100
AcDbLine
 10
-30.19107328569865
 20
5.473711946475786
 30
0.0
 11
-30.09107328569865
 21
5.415332912535186
 31
0.0
  0
LINE
  5
F104DC
330
261
100
AcDbEntity
  8
Geo
100
AcDbLine
 10
-30.19107328569865
 20
9.103533501124797
 30
0.0
 11
-30.09107328569865
 21
9.097689755356416
 31
0.0
  0
LINE
  5
F104DE
330
261
100
AcDbEntity
  8
Geo
100
AcDbLine
 10
-30.19107328569865
 20
9.047225063298256
 30
0.0
 11
-30.09107328569865
 21
9.027944446371126
 31
0.0
  0
LINE
  5
F104E0
330
261
100
AcDbEntity
  8
Geo
100
AcDbLine
 10
-30.09107328569865
 20
5.571473469545436
 30
0.0
 11
-29.99107328569864
 21
5.503924861523955
 31
0.0
  0
LINE
  5
F104E2
330
261
100
AcDbEntity
  8
Geo
100
AcDbLine
 10
-30.09107328569865
 20
5.415332912535186
 30
0.0
 11
-29.99107328569864
 21
5.361987468584885
 31
0.0
  0
LINE
  5
F104E4
330
261
100
AcDbEntity
  8
Geo
100
AcDbLine
 10
-30.09107328569865
 20
9.097689755356416
 30
0.0
 11
-29.99107328569864
 21
9.087666626421416
 31
0.0
  0
LINE
  5
F104E6
330
261
100
AcDbEntity
  8
Geo
100
AcDbLine
 10
-30.09107328569865
 20
9.027944446371126
 30
0.0
 11
-29.99107328569864
 21
9.004630827025437
 31
0.0
  0
LINE
  5
F104E8
330
261
100
AcDbEntity
  8
Geo
100
AcDbLine
 10
-29.99107328569864
 20
5.503924861523955
 30
0.0
 11
-29.89107328569865
 21
5.441146136538115
 31
0.0
  0
LINE
  5
F104EA
330
261
100
AcDbEntity
  8
Geo
100
AcDbLine
 10
-29.99107328569864
 20
5.361987468584885
 30
0.0
 11
-29.89107328569865
 21
5.313834405177916
 31
0.0
  0
LINE
  5
F104EC
330
261
100
AcDbEntity
  8
Geo
100
AcDbLine
 10
-29.99107328569864
 20
9.087666626421416
 30
0.0
 11
-29.89107328569865
 21
9.073485150761257
 31
0.0
  0
LINE
  5
F104EE
330
261
100
AcDbEntity
  8
Geo
100
AcDbLine
 10
-29.99107328569864
 20
9.004630827025437
 30
0.0
 11
-29.89107328569865
 21
8.977333135649395
 31
0.0
  0
LINE
  5
F104F0
330
261
100
AcDbEntity
  8
Geo
100
AcDbLine
 10
-29.89107328569865
 20
5.441146136538115
 30
0.0
 11
-29.79107328569865
 21
5.383324164688115
 31
0.0
  0
LINE
  5
F104F2
330
261
100
AcDbEntity
  8
Geo
100
AcDbLine
 10
-29.89107328569865
 20
5.313834405177916
 30
0.0
 11
-29.79107328569865
 21
5.271017056983505
 31
0.0
  0
LINE
  5
F104F4
330
261
100
AcDbEntity
  8
Geo
100
AcDbLine
 10
-29.89107328569865
 20
9.073485150761257
 30
0.0
 11
-29.79107328569865
 21
9.055175092313426
 31
0.0
  0
LINE
  5
F104F6
330
261
100
AcDbEntity
  8
Geo
100
AcDbLine
 10
-29.89107328569865
 20
8.977333135649395
 30
0.0
 11
-29.79107328569865
 21
8.946108664361155
 31
0.0
  0
LINE
  5
F104F8
330
261
100
AcDbEntity
  8
Geo
100
AcDbLine
 10
-29.79107328569865
 20
5.383324164688115
 30
0.0
 11
-29.69107328569864
 21
5.330631061570046
 31
0.0
  0
LINE
  5
F104FA
330
261
100
AcDbEntity
  8
Geo
100
AcDbLine
 10
-29.79107328569865
 20
5.271017056983505
 30
0.0
 11
-29.69107328569864
 21
5.233662876130555
 31
0.0
  0
LINE
  5
F104FC
330
261
100
AcDbEntity
  8
Geo
100
AcDbLine
 10
-29.79107328569865
 20
9.055175092313426
 30
0.0
 11
-29.69107328569864
 21
9.032774880043156
 31
0.0
  0
LINE
  5
F104FE
330
261
100
AcDbEntity
  8
Geo
100
AcDbLine
 10
-29.79107328569865
 20
8.946108664361155
 30
0.0
 11
-29.69107328569864
 21
8.911022946764825
 31
0.0
  0
LINE
  5
F10500
330
261
100
AcDbEntity
  8
Geo
100
AcDbLine
 10
-29.69107328569864
 20
5.330631061570046
 30
0.0
 11
-29.59107328569865
 21
5.283223675948575
 31
0.0
  0
LINE
  5
F10502
330
261
100
AcDbEntity
  8
Geo
100
AcDbLine
 10
-29.69107328569864
 20
5.233662876130555
 30
0.0
 11
-29.59107328569865
 21
5.201883052827546
 31
0.0
  0
LINE
  5
F10504
330
261
100
AcDbEntity
  8
Geo
100
AcDbLine
 10
-29.69107328569864
 20
9.032774880043156
 30
0.0
 11
-29.59107328569865
 21
9.006331527289084
 31
0.0
  0
LINE
  5
F10506
330
261
100
AcDbEntity
  8
Geo
100
AcDbLine
 10
-29.69107328569864
 20
8.911022946764825
 30
0.0
 11
-29.59107328569865
 21
8.872149620409114
 31
0.0
  0
LINE
  5
F10508
330
261
100
AcDbEntity
  8
Geo
100
AcDbLine
 10
-29.59107328569865
 20
5.283223675948575
 30
0.0
 11
-29.49107328569864
 21
5.241243122873445
 31
0.0
  0
LINE
  5
F1050A
330
261
100
AcDbEntity
  8
Geo
100
AcDbLine
 10
-29.59107328569865
 20
5.201883052827546
 30
0.0
 11
-29.49107328569864
 21
5.175772184388545
 31
0.0
  0
LINE
  5
F1050C
330
261
100
AcDbEntity
  8
Geo
100
AcDbLine
 10
-29.59107328569865
 20
9.006331527289084
 30
0.0
 11
-29.49107328569864
 21
8.975900533092154
 31
0.0
  0
LINE
  5
F1050E
330
261
100
AcDbEntity
  8
Geo
100
AcDbLine
 10
-29.59107328569865
 20
8.872149620409114
 30
0.0
 11
-29.49107328569864
 21
8.829570272237704
 31
0.0
  0
LINE
  5
F10510
330
261
100
AcDbEntity
  8
Geo
100
AcDbLine
 10
-29.49107328569864
 20
5.241243122873445
 30
0.0
 11
-29.39107328569864
 21
5.204814363629905
 31
0.0
  0
LINE
  5
F10512
330
261
100
AcDbEntity
  8
Geo
100
AcDbLine
 10
-29.49107328569864
 20
5.175772184388545
 30
0.0
 11
-29.39107328569864
 21
5.155407993650436
 31
0.0
  0
LINE
  5
F10514
330
261
100
AcDbEntity
  8
Geo
100
AcDbLine
 10
-29.49107328569864
 20
8.975900533092154
 30
0.0
 11
-29.39107328569864
 21
8.941545765714774
 31
0.0
  0
LINE
  5
F10516
330
261
100
AcDbEntity
  8
Geo
100
AcDbLine
 10
-29.49107328569864
 20
8.829570272237704
 30
0.0
 11
-29.39107328569864
 21
8.783374267355267
 31
0.0
  0
LINE
  5
F10518
330
261
100
AcDbEntity
  8
Geo
100
AcDbLine
 10
-29.39107328569864
 20
5.204814363629905
 30
0.0
 11
-29.29107328569865
 21
5.174045833773035
 31
0.0
  0
LINE
  5
F1051A
330
261
100
AcDbEntity
  8
Geo
100
AcDbLine
 10
-29.39107328569864
 20
5.155407993650436
 30
0.0
 11
-29.29107328569865
 21
5.140851097619446
 31
0.0
  0
LINE
  5
F1051C
330
261
100
AcDbEntity
  8
Geo
100
AcDbLine
 10
-29.39107328569864
 20
8.941545765714774
 30
0.0
 11
-29.29107328569865
 21
8.903339328594757
 31
0.0
  0
LINE
  5
F1051E
330
261
100
AcDbEntity
  8
Geo
100
AcDbLine
 10
-29.39107328569864
 20
8.783374267355267
 30
0.0
 11
-29.29107328569865
 21
8.733658561468974
 31
0.0
  0
LINE
  5
F10520
330
261
100
AcDbEntity
  8
Geo
100
AcDbLine
 10
-29.29107328569865
 20
5.174045833773035
 30
0.0
 11
-29.19107328569864
 21
5.149029120353335
 31
0.0
  0
LINE
  5
F10522
330
261
100
AcDbEntity
  8
Geo
100
AcDbLine
 10
-29.29107328569865
 20
5.140851097619446
 30
0.0
 11
-29.19107328569864
 21
5.132144827035746
 31
0.0
  0
LINE
  5
F10524
330
261
100
AcDbEntity
  8
Geo
100
AcDbLine
 10
-29.29107328569865
 20
8.903339328594757
 30
0.0
 11
-29.19107328569864
 21
8.861361409015376
 31
0.0
  0
LINE
  5
F10526
330
261
100
AcDbEntity
  8
Geo
100
AcDbLine
 10
-29.29107328569865
 20
8.733658561468974
 30
0.0
 11
-29.19107328569864
 21
8.680527497398825
 31
0.0
  0
LINE
  5
F10528
330
261
100
AcDbEntity
  8
Geo
100
AcDbLine
 10
-29.19107328569864
 20
5.149029120353335
 30
0.0
 11
-29.09107328569865
 21
5.129838689294496
 31
0.0
  0
LINE
  5
F1052A
330
261
100
AcDbEntity
  8
Geo
100
AcDbLine
 10
-29.19107328569864
 20
8.861361409015376
 30
0.0
 11
-29.09107328569865
 21
8.815700109809075
 31
0.0
  0
LINE
  5
F1052C
330
261
100
AcDbEntity
  8
Geo
100
AcDbLine
 10
-29.19107328569864
 20
8.680527497398825
 30
0.0
 11
-29.09107328569865
 21
8.624092586083925
 31
0.0
  0
LINE
  5
F1052E
330
261
100
AcDbEntity
  8
Geo
100
AcDbLine
 10
-29.09107328569865
 20
5.129838689294496
 30
0.0
 11
-28.99107328569864
 21
5.116531663734596
 31
0.0
  0
LINE
  5
F10530
330
261
100
AcDbEntity
  8
Geo
100
AcDbLine
 10
-29.09107328569865
 20
8.815700109809075
 30
0.0
 11
-28.99107328569864
 21
8.766451264448196
 31
0.0
  0
LINE
  5
F10532
330
261
100
AcDbEntity
  8
Geo
100
AcDbLine
 10
-29.09107328569865
 20
8.624092586083925
 30
0.0
 11
-28.99107328569864
 21
8.564472272544616
 31
0.0
  0
LINE
  5
F10534
330
261
100
AcDbEntity
  8
Geo
100
AcDbLine
 10
-28.99107328569864
 20
5.116531663734596
 30
0.0
 11
-28.89107328569865
 21
5.109147653990646
 31
0.0
  0
LINE
  5
F10536
330
261
100
AcDbEntity
  8
Geo
100
AcDbLine
 10
-28.99107328569864
 20
8.766451264448196
 30
0.0
 11
-28.89107328569865
 21
8.713718235910555
 31
0.0
  0
LINE
  5
F10538
330
261
100
AcDbEntity
  8
Geo
100
AcDbLine
 10
-28.99107328569864
 20
8.564472272544616
 30
0.0
 11
-28.89107328569865
 21
8.501791687291076
 31
0.0
  0
LINE
  5
F1053A
330
261
100
AcDbEntity
  8
Geo
100
AcDbLine
 10
-28.89107328569865
 20
8.713718235910555
 30
0.0
 11
-28.79107328569865
 21
8.657611699742366
 31
0.0
  0
LINE
  5
F1053C
330
261
100
AcDbEntity
  8
Geo
100
AcDbLine
 10
-28.89107328569865
 20
8.501791687291076
 30
0.0
 11
-28.79107328569865
 21
8.436182383700815
 31
0.0
  0
LINE
  5
F1053E
330
261
100
AcDbEntity
  8
Geo
100
AcDbLine
 10
-28.79107328569865
 20
8.657611699742366
 30
0.0
 11
-28.69107328569864
 21
8.598249411773487
 31
0.0
  0
LINE
  5
F10540
330
261
100
AcDbEntity
  8
Geo
100
AcDbLine
 10
-28.79107328569865
 20
8.436182383700815
 30
0.0
 11
-28.69107328569864
 21
8.367782061915695
 31
0.0
  0
LINE
  5
F10542
330
261
100
AcDbEntity
  8
Geo
100
AcDbLine
 10
-28.69107328569864
 20
8.598249411773487
 30
0.0
 11
-28.59107328569865
 21
8.535755960972675
 31
0.0
  0
LINE
  5
F10544
330
261
100
AcDbEntity
  8
Geo
100
AcDbLine
 10
-28.69107328569864
 20
8.367782061915695
 30
0.0
 11
-28.59107328569865
 21
8.296734279838325
 31
0.0
  0
LINE
  5
F10546
330
261
100
AcDbEntity
  8
Geo
100
AcDbLine
 10
-28.59107328569865
 20
8.535755960972675
 30
0.0
 11
-28.49107328569864
 21
8.470262507961516
 31
0.0
  0
LINE
  5
F10548
330
261
100
AcDbEntity
  8
Geo
100
AcDbLine
 10
-28.59107328569865
 20
8.296734279838325
 30
0.0
 11
-28.49107328569864
 21
8.223188151834136
 31
0.0
  0
LINE
  5
F1054A
330
261
100
AcDbEntity
  8
Geo
100
AcDbLine
 10
-28.49107328569864
 20
8.470262507961516
 30
0.0
 11
-28.39107328569865
 21
8.401906509735885
 31
0.0
  0
LINE
  5
F1054C
330
261
100
AcDbEntity
  8
Geo
100
AcDbLine
 10
-28.49107328569864
 20
8.223188151834136
 30
0.0
 11
-28.39107328569865
 21
8.147298035771687
 31
0.0
  0
LINE
  5
F1054E
330
261
100
AcDbEntity
  8
Geo
100
AcDbLine
 10
-28.39107328569865
 20
8.401906509735885
 30
0.0
 11
-28.29107328569865
 21
8.330831431172526
 31
0.0
  0
LINE
  5
F10550
330
261
100
AcDbEntity
  8
Geo
100
AcDbLine
 10
-28.39107328569865
 20
8.147298035771687
 30
0.0
 11
-28.29107328569865
 21
8.069223209057966
 31
0.0
  0
LINE
  5
F10552
330
261
100
AcDbEntity
  8
Geo
100
AcDbLine
 10
-28.29107328569865
 20
8.330831431172526
 30
0.0
 11
-28.19107328569864
 21
8.257186443926476
 31
0.0
  0
LINE
  5
F10554
330
261
100
AcDbEntity
  8
Geo
100
AcDbLine
 10
-28.29107328569865
 20
8.069223209057966
 30
0.0
 11
-28.19107328569864
 21
7.989127534348516
 31
0.0
  0
LINE
  5
F10556
330
261
100
AcDbEntity
  8
Geo
100
AcDbLine
 10
-28.19107328569864
 20
8.257186443926476
 30
0.0
 11
-28.09107328569865
 21
8.181126113351055
 31
0.0
  0
LINE
  5
F10558
330
261
100
AcDbEntity
  8
Geo
100
AcDbLine
 10
-28.19107328569864
 20
7.989127534348516
 30
0.0
 11
-28.09107328569865
 21
7.907179115634205
 31
0.0
  0
LINE
  5
F1055A
330
261
100
AcDbEntity
  8
Geo
100
AcDbLine
 10
-28.09107328569865
 20
8.181126113351055
 30
0.0
 11
-27.99107328569864
 21
8.102810074097765
 31
0.0
  0
LINE
  5
F1055C
330
261
100
AcDbEntity
  8
Geo
100
AcDbLine
 10
-28.09107328569865
 20
7.907179115634205
 30
0.0
 11
-27.99107328569864
 21
7.823549945426234
 31
0.0
  0
LINE
  5
F1055E
330
261
100
AcDbEntity
  8
Geo
100
AcDbLine
 10
-27.99107328569864
 20
8.102810074097765
 30
0.0
 11
-27.89107328569865
 21
8.022402695076564
 31
0.0
  0
LINE
  5
F10560
330
261
100
AcDbEntity
  8
Geo
100
AcDbLine
 10
-27.99107328569864
 20
7.823549945426234
 30
0.0
 11
-27.89107328569865
 21
7.738415543780025
 31
0.0
  0
LINE
  5
F10562
330
261
100
AcDbEntity
  8
Geo
100
AcDbLine
 10
-27.89107328569865
 20
8.022402695076564
 30
0.0
 11
-27.79107328569865
 21
7.940072734480185
 31
0.0
  0
LINE
  5
F10564
330
261
100
AcDbEntity
  8
Geo
100
AcDbLine
 10
-27.89107328569865
 20
7.738415543780025
 30
0.0
 11
-27.79107328569865
 21
7.651954589915516
 31
0.0
  0
LINE
  5
F10566
330
261
100
AcDbEntity
  8
Geo
100
AcDbLine
 10
-27.79107328569865
 20
7.940072734480185
 30
0.0
 11
-27.69107328569865
 21
7.855992985596065
 31
0.0
  0
LINE
  5
F10568
330
261
100
AcDbEntity
  8
Geo
100
AcDbLine
 10
-27.79107328569865
 20
7.651954589915516
 30
0.0
 11
-27.69107328569865
 21
7.564348547206976
 31
0.0
  0
LINE
  5
F1056A
330
261
100
AcDbEntity
  8
Geo
100
AcDbLine
 10
-27.69107328569865
 20
7.855992985596065
 30
0.0
 11
-27.59107328569865
 21
7.770339914149586
 31
0.0
  0
LINE
  5
F1056C
330
261
100
AcDbEntity
  8
Geo
100
AcDbLine
 10
-27.69107328569865
 20
7.564348547206976
 30
0.0
 11
-27.59107328569865
 21
7.475781282329555
 31
0.0
  0
LINE
  5
F1056E
330
261
100
AcDbEntity
  8
Geo
100
AcDbLine
 10
-27.59107328569865
 20
7.770339914149586
 30
0.0
 11
-27.49107328569864
 21
7.683293287939606
 31
0.0
  0
LINE
  5
F10570
330
261
100
AcDbEntity
  8
Geo
100
AcDbLine
 10
-27.59107328569865
 20
7.475781282329555
 30
0.0
 11
-27.49107328569864
 21
7.386438679361766
 31
0.0
  0
LINE
  5
F10572
330
261
100
AcDbEntity
  8
Geo
100
AcDbLine
 10
-27.49107328569864
 20
7.683293287939606
 30
0.0
 11
-27.39107328569865
 21
7.595035799543586
 31
0.0
  0
LINE
  5
F10574
330
261
100
AcDbEntity
  8
Geo
100
AcDbLine
 10
-27.49107328569864
 20
7.386438679361766
 30
0.0
 11
-27.39107328569865
 21
7.296508249653825
 31
0.0
  0
LINE
  5
F10576
330
261
100
AcDbEntity
  8
Geo
100
AcDbLine
 10
-27.39107328569865
 20
7.595035799543586
 30
0.0
 11
-27.29107328569865
 21
7.505752682884285
 31
0.0
  0
LINE
  5
F10578
330
261
100
AcDbEntity
  8
Geo
100
AcDbLine
 10
-27.39107328569865
 20
7.296508249653825
 30
0.0
 11
-27.29107328569865
 21
7.206178738280796
 31
0.0
  0
LINE
  5
F1057A
330
261
100
AcDbEntity
  8
Geo
100
AcDbLine
 10
-27.29107328569865
 20
7.505752682884285
 30
0.0
 11
-27.19107328569864
 21
7.415631324462685
 31
0.0
  0
LINE
  5
F1057C
330
261
100
AcDbEntity
  8
Geo
100
AcDbLine
 10
-27.29107328569865
 20
7.206178738280796
 30
0.0
 11
-27.19107328569864
 21
7.115639727906265
 31
0.0
  0
LINE
  5
F1057E
330
261
100
AcDbEntity
  8
Geo
100
AcDbLine
 10
-27.19107328569864
 20
7.415631324462685
 30
0.0
 11
-27.09107328569865
 21
7.324860870073075
 31
0.0
  0
LINE
  5
F10580
330
261
100
AcDbEntity
  8
Geo
100
AcDbLine
 10
-27.19107328569864
 20
7.115639727906265
 30
0.0
 11
-27.09107328569865
 21
7.025081240888217
 31
0.0
  0
LINE
  5
F10582
330
261
100
AcDbEntity
  8
Geo
100
AcDbLine
 10
-27.09107328569865
 20
7.324860870073075
 30
0.0
 11
-26.99107328569864
 21
7.233631827825785
 31
0.0
  0
LINE
  5
F10584
330
261
100
AcDbEntity
  8
Geo
100
AcDbLine
 10
-27.09107328569865
 20
7.025081240888217
 30
0.0
 11
-26.99107328569864
 21
6.934693340462016
 31
0.0
  0
LINE
  5
F10586
330
261
100
AcDbEntity
  8
Geo
100
AcDbLine
 10
-26.99107328569864
 20
7.233631827825785
 30
0.0
 11
-26.89107328569865
 21
7.142135668310716
 31
0.0
  0
LINE
  5
F10588
330
261
100
AcDbEntity
  8
Geo
100
AcDbLine
 10
-26.99107328569864
 20
6.934693340462016
 30
0.0
 11
-26.89107328569865
 21
6.844665731837615
 31
0.0
  0
LINE
  5
F1058A
330
261
100
AcDbEntity
  8
Geo
100
AcDbLine
 10
-26.89107328569865
 20
7.142135668310716
 30
0.0
 11
-26.79107328569865
 21
7.050564422740756
 31
0.0
  0
LINE
  5
F1058C
330
261
100
AcDbEntity
  8
Geo
100
AcDbLine
 10
-26.89107328569865
 20
6.844665731837615
 30
0.0
 11
-26.79107328569865
 21
6.755187364048186
 31
0.0
  0
LINE
  5
F1058E
330
261
100
AcDbEntity
  8
Geo
100
AcDbLine
 10
-26.79107328569865
 20
7.050564422740756
 30
0.0
 11
-26.69107328569864
 21
6.959110279918676
 31
0.0
  0
LINE
  5
F10590
330
261
100
AcDbEntity
  8
Geo
100
AcDbLine
 10
-26.79107328569865
 20
6.755187364048186
 30
0.0
 11
-26.69107328569864
 21
6.666446033385786
 31
0.0
  0
LINE
  5
F10592
330
261
100
AcDbEntity
  8
Geo
100
AcDbLine
 10
-26.69107328569864
 20
6.959110279918676
 30
0.0
 11
-26.59107328569865
 21
6.867965182873155
 31
0.0
  0
LINE
  5
F10594
330
261
100
AcDbEntity
  8
Geo
100
AcDbLine
 10
-26.69107328569864
 20
6.666446033385786
 30
0.0
 11
-26.59107328569865
 21
6.578627989256426
 31
0.0
  0
LINE
  5
F10596
330
261
100
AcDbEntity
  8
Geo
100
AcDbLine
 10
-26.59107328569865
 20
9.082959988492767
 30
0.0
 11
-26.49107328569864
 21
9.078392037484064
 31
0.0
  0
LINE
  5
F10598
330
261
100
AcDbEntity
  8
Geo
100
AcDbLine
 10
-26.59107328569865
 20
6.867965182873155
 30
0.0
 11
-26.49107328569864
 21
6.777320426010746
 31
0.0
  0
LINE
  5
F1059A
330
261
100
AcDbEntity
  8
Geo
100
AcDbLine
 10
-26.59107328569865
 20
6.578627989256426
 30
0.0
 11
-26.49107328569864
 21
6.491917543281705
 31
0.0
  0
LINE
  5
F1059C
330
261
100
AcDbEntity
  8
Geo
100
AcDbLine
 10
-26.49107328569864
 20
9.078392037484064
 30
0.0
 11
-26.39107328569865
 21
9.068895032866645
 31
0.0
  0
LINE
  5
F1059E
330
261
100
AcDbEntity
  8
Geo
100
AcDbLine
 10
-26.49107328569864
 20
6.777320426010746
 30
0.0
 11
-26.39107328569865
 21
6.687366253629096
 31
0.0
  0
LINE
  5
F105A0
330
261
100
AcDbEntity
  8
Geo
100
AcDbLine
 10
-26.49107328569864
 20
6.491917543281705
 30
0.0
 11
-26.39107328569865
 21
6.406496682467405
 31
0.0
  0
LINE
  5
F105A2
330
261
100
AcDbEntity
  8
Geo
100
AcDbLine
 10
-26.39107328569865
 20
9.068895032866645
 30
0.0
 11
-26.29107328569865
 21
9.054492712206096
 31
0.0
  0
LINE
  5
F105A4
330
261
100
AcDbEntity
  8
Geo
100
AcDbLine
 10
-26.39107328569865
 20
6.687366253629096
 30
0.0
 11
-26.29107328569865
 21
6.598291460634126
 31
0.0
  0
LINE
  5
F105A6
330
261
100
AcDbEntity
  8
Geo
100
AcDbLine
 10
-26.39107328569865
 20
6.406496682467405
 30
0.0
 11
-26.29107328569865
 21
6.322544687251055
 31
0.0
  0
LINE
  5
F105A8
330
261
100
AcDbEntity
  8
Geo
100
AcDbLine
 10
-26.29107328569865
 20
9.104786142924245
 30
0.0
 11
-26.19107328569864
 21
9.100233202082325
 31
0.0
  0
LINE
  5
F105AA
330
261
100
AcDbEntity
  8
Geo
100
AcDbLine
 10
-26.29107328569865
 20
9.054492712206096
 30
0.0
 11
-26.19107328569864
 21
9.035221073803477
 31
0.0
  0
LINE
  5
F105AC
330
261
100
AcDbEntity
  8
Geo
100
AcDbLine
 10
-26.29107328569865
 20
6.598291460634126
 30
0.0
 11
-26.19107328569864
 21
6.510282996299216
 31
0.0
  0
LINE
  5
F105AE
330
261
100
AcDbEntity
  8
Geo
100
AcDbLine
 10
-26.29107328569865
 20
6.322544687251055
 30
0.0
 11
-26.19107328569864
 21
6.240237755229936
 31
0.0
  0
LINE
  5
F105B0
330
261
100
AcDbEntity
  8
Geo
100
AcDbLine
 10
-26.19107328569864
 20
9.100233202082325
 30
0.0
 11
-26.09107328569865
 21
9.090696616094856
 31
0.0
  0
LINE
  5
F105B2
330
261
100
AcDbEntity
  8
Geo
100
AcDbLine
 10
-26.19107328569864
 20
9.035221073803477
 30
0.0
 11
-26.09107328569865
 21
9.011128286718335
 31
0.0
  0
LINE
  5
F105B4
330
261
100
AcDbEntity
  8
Geo
100
AcDbLine
 10
-26.19107328569864
 20
6.510282996299216
 30
0.0
 11
-26.09107328569865
 21
6.423525571897946
 31
0.0
  0
LINE
  5
F105B6
330
261
100
AcDbEntity
  8
Geo
100
AcDbLine
 10
-26.19107328569864
 20
6.240237755229936
 30
0.0
 11
-26.09107328569865
 21
6.159748631359345
 31
0.0
  0
LINE
  5
F105B8
330
261
100
AcDbEntity
  8
Geo
100
AcDbLine
 10
-26.09107328569865
 20
9.090696616094856
 30
0.0
 11
-25.99107328569864
 21
9.076200221460215
 31
0.0
  0
LINE
  5
F105BA
330
261
100
AcDbEntity
  8
Geo
100
AcDbLine
 10
-26.09107328569865
 20
9.011128286718335
 30
0.0
 11
-25.99107328569864
 21
8.982274570371096
 31
0.0
  0
LINE
  5
F105BC
330
261
100
AcDbEntity
  8
Geo
100
AcDbLine
 10
-26.09107328569865
 20
6.423525571897946
 30
0.0
 11
-25.99107328569864
 21
6.338201273033956
 31
0.0
  0
LINE
  5
F105BE
330
261
100
AcDbEntity
  8
Geo
100
AcDbLine
 10
-26.09107328569865
 20
6.159748631359345
 30
0.0
 11
-25.99107328569864
 21
6.081246245397285
 31
0.0
  0
LINE
  5
F105C0
330
261
100
AcDbEntity
  8
Geo
100
AcDbLine
 10
-25.99107328569864
 20
9.076200221460215
 30
0.0
 11
-25.89107328569865
 21
9.056780251615446
 31
0.0
  0
LINE
  5
F105C2
330
261
100
AcDbEntity
  8
Geo
100
AcDbLine
 10
-25.99107328569864
 20
8.982274570371096
 30
0.0
 11
-25.89107328569865
 21
8.948732044025895
 31
0.0
  0
LINE
  5
F105C4
330
261
100
AcDbEntity
  8
Geo
100
AcDbLine
 10
-25.99107328569864
 20
6.338201273033956
 30
0.0
 11
-25.89107328569865
 21
6.254489177481525
 31
0.0
  0
LINE
  5
F105C6
330
261
100
AcDbEntity
  8
Geo
100
AcDbLine
 10
-25.99107328569864
 20
6.081246245397285
 30
0.0
 11
-25.89107328569865
 21
6.004895357356306
 31
0.0
  0
LINE
  5
F105C8
330
261
100
AcDbEntity
  8
Geo
100
AcDbLine
 10
-25.89107328569865
 20
9.056780251615446
 30
0.0
 11
-25.79107328569865
 21
9.032485246371395
 31
0.0
  0
LINE
  5
F105CA
330
261
100
AcDbEntity
  8
Geo
100
AcDbLine
 10
-25.89107328569865
 20
8.948732044025895
 30
0.0
 11
-25.79107328569865
 21
8.910584546530007
 31
0.0
  0
LINE
  5
F105CC
330
261
100
AcDbEntity
  8
Geo
100
AcDbLine
 10
-25.89107328569865
 20
6.254489177481525
 30
0.0
 11
-25.79107328569865
 21
6.172564979338956
 31
0.0
  0
LINE
  5
F105CE
330
261
100
AcDbEntity
  8
Geo
100
AcDbLine
 10
-25.89107328569865
 20
6.004895357356306
 30
0.0
 11
-25.79107328569865
 21
5.930856211706935
 31
0.0
  0
LINE
  5
F105D0
330
261
100
AcDbEntity
  8
Geo
100
AcDbLine
 10
-25.79107328569865
 20
9.032485246371395
 30
0.0
 11
-25.69107328569864
 21
9.003375930588635
 31
0.0
  0
LINE
  5
F105D2
330
261
100
AcDbEntity
  8
Geo
100
AcDbLine
 10
-25.79107328569865
 20
8.910584546530007
 30
0.0
 11
-25.69107328569864
 21
8.867927426760324
 31
0.0
  0
LINE
  5
F105D4
330
261
100
AcDbEntity
  8
Geo
100
AcDbLine
 10
-25.79107328569865
 20
6.172564979338956
 30
0.0
 11
-25.69107328569864
 21
6.092600620283575
 31
0.0
  0
LINE
  5
F105D6
330
261
100
AcDbEntity
  8
Geo
100
AcDbLine
 10
-25.79107328569865
 20
5.930856211706935
 30
0.0
 11
-25.69107328569864
 21
5.859284201058196
 31
0.0
  0
LINE
  5
F105D8
330
261
100
AcDbEntity
  8
Geo
100
AcDbLine
 10
-25.69107328569864
 20
9.003375930588635
 30
0.0
 11
-25.59107328569865
 21
8.969525062396737
 31
0.0
  0
LINE
  5
F105DA
330
261
100
AcDbEntity
  8
Geo
100
AcDbLine
 10
-25.69107328569864
 20
8.867927426760324
 30
0.0
 11
-25.59107328569865
 21
8.820867305300854
 31
0.0
  0
LINE
  5
F105DC
330
261
100
AcDbEntity
  8
Geo
100
AcDbLine
 10
-25.69107328569864
 20
6.092600620283575
 30
0.0
 11
-25.59107328569865
 21
6.014763928702246
 31
0.0
  0
LINE
  5
F105DE
330
261
100
AcDbEntity
  8
Geo
100
AcDbLine
 10
-25.69107328569864
 20
5.859284201058196
 30
0.0
 11
-25.59107328569865
 21
5.790329540021126
 31
0.0
  0
LINE
  5
F105E0
330
261
100
AcDbEntity
  8
Geo
100
AcDbLine
 10
-25.59107328569865
 20
8.969525062396737
 30
0.0
 11
-25.49107328569864
 21
8.931017251336996
 31
0.0
  0
LINE
  5
F105E2
330
261
100
AcDbEntity
  8
Geo
100
AcDbLine
 10
-25.59107328569865
 20
8.820867305300854
 30
0.0
 11
-25.49107328569864
 21
8.769521807946846
 31
0.0
  0
LINE
  5
F105E4
330
261
100
AcDbEntity
  8
Geo
100
AcDbLine
 10
-25.59107328569865
 20
6.014763928702246
 30
0.0
 11
-25.49107328569864
 21
5.939218267454966
 31
0.0
  0
LINE
  5
F105E6
330
261
100
AcDbEntity
  8
Geo
100
AcDbLine
 10
-25.59107328569865
 20
5.790329540021126
 30
0.0
 11
-25.49107328569864
 21
5.724136949939955
 31
0.0
  0
LINE
  5
F105E8
330
261
100
AcDbEntity
  8
Geo
100
AcDbLine
 10
-25.49107328569864
 20
8.931017251336996
 30
0.0
 11
-25.39107328569865
 21
8.887948746882596
 31
0.0
  0
LINE
  5
F105EA
330
261
100
AcDbEntity
  8
Geo
100
AcDbLine
 10
-25.49107328569864
 20
8.769521807946846
 30
0.0
 11
-25.39107328569865
 21
8.714019271701445
 31
0.0
  0
LINE
  5
F105EC
330
261
100
AcDbEntity
  8
Geo
100
AcDbLine
 10
-25.49107328569864
 20
5.939218267454966
 30
0.0
 11
-25.39107328569865
 21
5.866122191010386
 31
0.0
  0
LINE
  5
F105EE
330
261
100
AcDbEntity
  8
Geo
100
AcDbLine
 10
-25.49107328569864
 20
5.724136949939955
 30
0.0
 11
-25.39107328569865
 21
5.660845355152325
 31
0.0
  0
LINE
  5
F105F0
330
261
100
AcDbEntity
  8
Geo
100
AcDbLine
 10
-25.39107328569865
 20
8.887948746882596
 30
0.0
 11
-25.29107328569865
 21
8.840427197865036
 31
0.0
  0
LINE
  5
F105F2
330
261
100
AcDbEntity
  8
Geo
100
AcDbLine
 10
-25.39107328569865
 20
8.714019271701445
 30
0.0
 11
-25.29107328569865
 21
8.654498424000095
 31
0.0
  0
LINE
  5
F105F4
330
261
100
AcDbEntity
  8
Geo
100
AcDbLine
 10
-25.39107328569865
 20
5.866122191010386
 30
0.0
 11
-25.29107328569865
 21
5.795629112673435
 31
0.0
  0
LINE
  5
F105F6
330
261
100
AcDbEntity
  8
Geo
100
AcDbLine
 10
-25.39107328569865
 20
5.660845355152325
 30
0.0
 11
-25.29107328569865
 21
5.600587591416335
 31
0.0
  0
LINE
  5
F105F8
330
261
100
AcDbEntity
  8
Geo
100
AcDbLine
 10
-25.29107328569865
 20
8.840427197865036
 30
0.0
 11
-25.19107328569865
 21
8.788571383408095
 31
0.0
  0
LINE
  5
F105FA
330
261
100
AcDbEntity
  8
Geo
100
AcDbLine
 10
-25.29107328569865
 20
8.654498424000095
 30
0.0
 11
-25.19107328569865
 21
8.591108035964214
 31
0.0
  0
LINE
  5
F105FC
330
261
100
AcDbEntity
  8
Geo
100
AcDbLine
 10
-25.29107328569865
 20
5.795629112673435
 30
0.0
 11
-25.19107328569865
 21
5.727886982602946
 31
0.0
  0
LINE
  5
F105FE
330
261
100
AcDbEntity
  8
Geo
100
AcDbLine
 10
-25.29107328569865
 20
5.600587591416335
 30
0.0
 11
-25.19107328569865
 21
5.543490127116236
 31
0.0
  0
LINE
  5
F10600
330
261
100
AcDbEntity
  8
Geo
100
AcDbLine
 10
-25.19107328569865
 20
8.788571383408095
 30
0.0
 11
-25.09107328569865
 21
8.732510916041926
 31
0.0
  0
LINE
  5
F10602
330
261
100
AcDbEntity
  8
Geo
100
AcDbLine
 10
-25.19107328569865
 20
8.591108035964214
 30
0.0
 11
-25.09107328569865
 21
8.524006550550785
 31
0.0
  0
LINE
  5
F10604
330
261
100
AcDbEntity
  8
Geo
100
AcDbLine
 10
-25.19107328569865
 20
5.727886982602946
 30
0.0
 11
-25.09107328569865
 21
5.663037977295445
 31
0.0
  0
LINE
  5
F10606
330
261
100
AcDbEntity
  8
Geo
100
AcDbLine
 10
-25.19107328569865
 20
5.543490127116236
 30
0.0
 11
-25.09107328569865
 21
5.489672797831786
 31
0.0
  0
LINE
  5
F10608
330
261
100
AcDbEntity
  8
Geo
100
AcDbLine
 10
-25.09107328569865
 20
8.732510916041926
 30
0.0
 11
-24.99107328569864
 21
8.672385917739244
 31
0.0
  0
LINE
  5
F1060A
330
261
100
AcDbEntity
  8
Geo
100
AcDbLine
 10
-25.09107328569865
 20
8.524006550550785
 30
0.0
 11
-24.99107328569864
 21
8.453361686527596
 31
0.0
  0
LINE
  5
F1060C
330
261
100
AcDbEntity
  8
Geo
100
AcDbLine
 10
-25.09107328569865
 20
5.663037977295445
 30
0.0
 11
-24.99107328569864
 21
5.601218201186435
 31
0.0
  0
LINE
  5
F1060E
330
261
100
AcDbEntity
  8
Geo
100
AcDbLine
 10
-25.09107328569865
 20
5.489672797831786
 30
0.0
 11
-24.99107328569864
 21
5.439248554828655
 31
0.0
  0
LINE
  5
F10610
330
261
100
AcDbEntity
  8
Geo
100
AcDbLine
 10
-24.99107328569864
 20
8.672385917739244
 30
0.0
 11
-24.89107328569865
 21
8.608346669683296
 31
0.0
  0
LINE
  5
F10612
330
261
100
AcDbEntity
  8
Geo
100
AcDbLine
 10
-24.99107328569864
 20
8.453361686527596
 30
0.0
 11
-24.89107328569865
 21
8.379350019263556
 31
0.0
  0
LINE
  5
F10614
330
261
100
AcDbEntity
  8
Geo
100
AcDbLine
 10
-24.99107328569864
 20
5.601218201186435
 30
0.0
 11
-24.89107328569865
 21
5.542557400995915
 31
0.0
  0
LINE
  5
F10616
330
261
100
AcDbEntity
  8
Geo
100
AcDbLine
 10
-24.99107328569864
 20
5.439248554828655
 30
0.0
 11
-24.89107328569865
 21
5.392323227997316
 31
0.0
  0
LINE
  5
F10618
330
261
100
AcDbEntity
  8
Geo
100
AcDbLine
 10
-24.89107328569865
 20
8.608346669683296
 30
0.0
 11
-24.79107328569865
 21
8.540553236643226
 31
0.0
  0
LINE
  5
F1061A
330
261
100
AcDbEntity
  8
Geo
100
AcDbLine
 10
-24.89107328569865
 20
8.379350019263556
 30
0.0
 11
-24.79107328569865
 21
8.302156539382286
 31
0.0
  0
LINE
  5
F1061C
330
261
100
AcDbEntity
  8
Geo
100
AcDbLine
 10
-24.89107328569865
 20
5.542557400995915
 30
0.0
 11
-24.79107328569865
 21
5.487178693417195
 31
0.0
  0
LINE
  5
F1061E
330
261
100
AcDbEntity
  8
Geo
100
AcDbLine
 10
-24.89107328569865
 20
5.392323227997316
 30
0.0
 11
-24.79107328569865
 21
5.348995303738485
 31
0.0
  0
LINE
  5
F10620
330
261
100
AcDbEntity
  8
Geo
100
AcDbLine
 10
-24.79107328569865
 20
8.540553236643226
 30
0.0
 11
-24.69107328569864
 21
8.469175066895486
 31
0.0
  0
LINE
  5
F10622
330
261
100
AcDbEntity
  8
Geo
100
AcDbLine
 10
-24.79107328569865
 20
8.302156539382286
 30
0.0
 11
-24.69107328569864
 21
8.221974190381907
 31
0.0
  0
LINE
  5
F10624
330
261
100
AcDbEntity
  8
Geo
100
AcDbLine
 10
-24.79107328569865
 20
5.487178693417195
 30
0.0
 11
-24.69107328569864
 21
5.435198306720856
 31
0.0
  0
LINE
  5
F10626
330
261
100
AcDbEntity
  8
Geo
100
AcDbLine
 10
-24.79107328569865
 20
5.348995303738485
 30
0.0
 11
-24.69107328569864
 21
5.309355718260746
 31
0.0
  0
LINE
  5
F10628
330
261
100
AcDbEntity
  8
Geo
100
AcDbLine
 10
-24.69107328569864
 20
8.469175066895486
 30
0.0
 11
-24.59107328569865
 21
8.394390568691436
 31
0.0
  0
LINE
  5
F1062A
330
261
100
AcDbEntity
  8
Geo
100
AcDbLine
 10
-24.69107328569864
 20
8.221974190381907
 30
0.0
 11
-24.59107328569865
 21
8.139003386376774
 31
0.0
  0
LINE
  5
F1062C
330
261
100
AcDbEntity
  8
Geo
100
AcDbLine
 10
-24.69107328569864
 20
5.435198306720856
 30
0.0
 11
-24.59107328569865
 21
5.386725336816036
 31
0.0
  0
LINE
  5
F1062E
330
261
100
AcDbEntity
  8
Geo
100
AcDbLine
 10
-24.69107328569864
 20
5.309355718260746
 30
0.0
 11
-24.59107328569865
 21
5.273487666724625
 31
0.0
  0
LINE
  5
F10630
330
261
100
AcDbEntity
  8
Geo
100
AcDbLine
 10
-24.59107328569865
 20
8.394390568691436
 30
0.0
 11
-24.49107328569864
 21
8.316386664329556
 31
0.0
  0
LINE
  5
F10632
330
261
100
AcDbEntity
  8
Geo
100
AcDbLine
 10
-24.59107328569865
 20
8.139003386376774
 30
0.0
 11
-24.49107328569864
 21
8.053451511166525
 31
0.0
  0
LINE
  5
F10634
330
261
100
AcDbEntity
  8
Geo
100
AcDbLine
 10
-24.59107328569865
 20
5.386725336816036
 30
0.0
 11
-24.49107328569864
 21
5.341861518281005
 31
0.0
  0
LINE
  5
F10636
330
261
100
AcDbEntity
  8
Geo
100
AcDbLine
 10
-24.59107328569865
 20
5.273487666724625
 30
0.0
 11
-24.49107328569864
 21
5.241466428633415
 31
0.0
  0
LINE
  5
F10638
330
261
100
AcDbEntity
  8
Geo
100
AcDbLine
 10
-24.49107328569864
 20
8.316386664329556
 30
0.0
 11
-24.39107328569865
 21
8.235358322947107
 31
0.0
  0
LINE
  5
F1063A
330
261
100
AcDbEntity
  8
Geo
100
AcDbLine
 10
-24.49107328569864
 20
8.053451511166525
 30
0.0
 11
-24.39107328569865
 21
7.965532399884625
 31
0.0
  0
LINE
  5
F1063C
330
261
100
AcDbEntity
  8
Geo
100
AcDbLine
 10
-24.49107328569864
 20
5.341861518281005
 30
0.0
 11
-24.39107328569865
 21
5.300701010843766
 31
0.0
  0
LINE
  5
F1063E
330
261
100
AcDbEntity
  8
Geo
100
AcDbLine
 10
-24.49107328569864
 20
5.241466428633415
 30
0.0
 11
-24.39107328569865
 21
5.213359209837316
 31
0.0
  0
LINE
  5
F10640
330
261
100
AcDbEntity
  8
Geo
100
AcDbLine
 10
-24.39107328569865
 20
8.235358322947107
 30
0.0
 11
-24.29107328569865
 21
8.151508073198815
 31
0.0
  0
LINE
  5
F10642
330
261
100
AcDbEntity
  8
Geo
100
AcDbLine
 10
-24.39107328569865
 20
7.965532399884625
 30
0.0
 11
-24.29107328569865
 21
7.875465804521915
 31
0.0
  0
LINE
  5
F10644
330
261
100
AcDbEntity
  8
Geo
100
AcDbLine
 10
-24.39107328569865
 20
5.300701010843766
 30
0.0
 11
-24.29107328569865
 21
5.263330201760405
 31
0.0
  0
LINE
  5
F10646
330
261
100
AcDbEntity
  8
Geo
100
AcDbLine
 10
-24.39107328569865
 20
5.213359209837316
 30
0.0
 11
-24.29107328569865
 21
5.189225001482445
 31
0.0
  0
LINE
  5
F10648
330
261
100
AcDbEntity
  8
Geo
100
AcDbLine
 10
-24.29107328569865
 20
8.151508073198815
 30
0.0
 11
-24.19107328569864
 21
8.065045497040657
 31
0.0
  0
LINE
  5
F1064A
330
261
100
AcDbEntity
  8
Geo
100
AcDbLine
 10
-24.29107328569865
 20
7.875465804521915
 30
0.0
 11
-24.19107328569864
 21
7.783476844661006
 31
0.0
  0
LINE
  5
F1064C
330
261
100
AcDbEntity
  8
Geo
100
AcDbLine
 10
-24.29107328569865
 20
5.263330201760405
 30
0.0
 11
-24.19107328569864
 21
5.229827524506555
 31
0.0
  0
LINE
  5
F1064E
330
261
100
AcDbEntity
  8
Geo
100
AcDbLine
 10
-24.29107328569865
 20
5.189225001482445
 30
0.0
 11
-24.19107328569864
 21
5.169114456200865
 31
0.0
  0
LINE
  5
F10650
330
261
100
AcDbEntity
  8
Geo
100
AcDbLine
 10
-24.19107328569864
 20
8.065045497040657
 30
0.0
 11
-24.09107328569865
 21
7.976186705884205
 31
0.0
  0
LINE
  5
F10652
330
261
100
AcDbEntity
  8
Geo
100
AcDbLine
 10
-24.19107328569864
 20
7.783476844661006
 30
0.0
 11
-24.09107328569865
 21
7.689795444794625
 31
0.0
  0
LINE
  5
F10654
330
261
100
AcDbEntity
  8
Geo
100
AcDbLine
 10
-24.19107328569864
 20
5.229827524506555
 30
0.0
 11
-24.09107328569865
 21
5.200263294161885
 31
0.0
  0
LINE
  5
F10656
330
261
100
AcDbEntity
  8
Geo
100
AcDbLine
 10
-24.19107328569864
 20
5.169114456200865
 30
0.0
 11
-24.09107328569865
 21
5.153069781801345
 31
0.0
  0
LINE
  5
F10658
330
261
100
AcDbEntity
  8
Geo
100
AcDbLine
 10
-24.09107328569865
 20
7.976186705884205
 30
0.0
 11
-23.99107328569864
 21
7.885153800430585
 31
0.0
  0
LINE
  5
F1065A
330
261
100
AcDbEntity
  8
Geo
100
AcDbLine
 10
-24.09107328569865
 20
7.689795444794625
 30
0.0
 11
-23.99107328569864
 21
7.594655759634125
 31
0.0
  0
LINE
  5
F1065C
330
261
100
AcDbEntity
  8
Geo
100
AcDbLine
 10
-24.09107328569865
 20
5.200263294161885
 30
0.0
 11
-23.99107328569864
 21
5.174699559833646
 31
0.0
  0
LINE
  5
F1065E
330
261
100
AcDbEntity
  8
Geo
100
AcDbLine
 10
-24.09107328569865
 20
5.153069781801345
 30
0.0
 11
-23.99107328569864
 21
5.141124652683986
 31
0.0
  0
LINE
  5
F10660
330
261
100
AcDbEntity
  8
Geo
100
AcDbLine
 10
-23.99107328569864
 20
7.885153800430585
 30
0.0
 11
-23.89107328569865
 21
7.792174315534415
 31
0.0
  0
LINE
  5
F10662
330
261
100
AcDbEntity
  8
Geo
100
AcDbLine
 10
-23.99107328569864
 20
7.594655759634125
 30
0.0
 11
-23.89107328569865
 21
7.498295588844605
 31
0.0
  0
LINE
  5
F10664
330
261
100
AcDbEntity
  8
Geo
100
AcDbLine
 10
-23.99107328569864
 20
5.174699559833646
 30
0.0
 11
-23.89107328569865
 21
5.153189974428536
 31
0.0
  0
LINE
  5
F10666
330
261
100
AcDbEntity
  8
Geo
100
AcDbLine
 10
-23.99107328569864
 20
5.141124652683986
 30
0.0
 11
-23.89107328569865
 21
5.133304139164835
 31
0.0
  0
LINE
  5
F10668
330
261
100
AcDbEntity
  8
Geo
100
AcDbLine
 10
-23.89107328569865
 20
7.792174315534415
 30
0.0
 11
-23.79107328569865
 21
7.697480651485146
 31
0.0
  0
LINE
  5
F1066A
330
261
100
AcDbEntity
  8
Geo
100
AcDbLine
 10
-23.89107328569865
 20
7.498295588844605
 30
0.0
 11
-23.79107328569865
 21
7.400955782669625
 31
0.0
  0
LINE
  5
F1066C
330
261
100
AcDbEntity
  8
Geo
100
AcDbLine
 10
-23.89107328569865
 20
5.153189974428536
 30
0.0
 11
-23.79107328569865
 21
5.135779682046516
 31
0.0
  0
LINE
  5
F1066E
330
261
100
AcDbEntity
  8
Geo
100
AcDbLine
 10
-23.89107328569865
 20
5.133304139164835
 30
0.0
 11
-23.79107328569865
 21
5.129624654858435
 31
0.0
  0
LINE
  5
F10670
330
261
100
AcDbEntity
  8
Geo
100
AcDbLine
 10
-23.79107328569865
 20
7.697480651485146
 30
0.0
 11
-23.69107328569864
 21
7.601309493127406
 31
0.0
  0
LINE
  5
F10672
330
261
100
AcDbEntity
  8
Geo
100
AcDbLine
 10
-23.79107328569865
 20
7.400955782669625
 30
0.0
 11
-23.69107328569864
 21
7.302879639931046
 31
0.0
  0
LINE
  5
F10674
330
261
100
AcDbEntity
  8
Geo
100
AcDbLine
 10
-23.79107328569865
 20
5.135779682046516
 30
0.0
 11
-23.69107328569864
 21
5.122505223232925
 31
0.0
  0
LINE
  5
F10676
330
261
100
AcDbEntity
  8
Geo
100
AcDbLine
 10
-23.69107328569864
 20
7.601309493127406
 30
0.0
 11
-23.59107328569865
 21
7.503901218272105
 31
0.0
  0
LINE
  5
F10678
330
261
100
AcDbEntity
  8
Geo
100
AcDbLine
 10
-23.69107328569864
 20
7.302879639931046
 30
0.0
 11
-23.59107328569865
 21
7.204312299908636
 31
0.0
  0
LINE
  5
F1067A
330
261
100
AcDbEntity
  8
Geo
100
AcDbLine
 10
-23.69107328569864
 20
5.122505223232925
 30
0.0
 11
-23.59107328569865
 21
5.113394458287485
 31
0.0
  0
LINE
  5
F1067C
330
261
100
AcDbEntity
  8
Geo
100
AcDbLine
 10
-23.59107328569865
 20
7.503901218272105
 30
0.0
 11
-23.49107328569864
 21
7.405499296877136
 31
0.0
  0
LINE
  5
F1067E
330
261
100
AcDbEntity
  8
Geo
100
AcDbLine
 10
-23.59107328569865
 20
7.204312299908636
 30
0.0
 11
-23.49107328569864
 21
7.105500129619585
 31
0.0
  0
LINE
  5
F10680
330
261
100
AcDbEntity
  8
Geo
100
AcDbLine
 10
-23.59107328569865
 20
5.113394458287485
 30
0.0
 11
-23.49107328569864
 21
5.108466508791366
 31
0.0
  0
LINE
  5
F10682
330
261
100
AcDbEntity
  8
Geo
100
AcDbLine
 10
-23.49107328569864
 20
7.405499296877136
 30
0.0
 11
-23.39107328569864
 21
7.306349682499266
 31
0.0
  0
LINE
  5
F10684
330
261
100
AcDbEntity
  8
Geo
100
AcDbLine
 10
-23.49107328569864
 20
7.105500129619585
 30
0.0
 11
-23.39107328569864
 21
7.006690108029216
 31
0.0
  0
LINE
  5
F10686
330
261
100
AcDbEntity
  8
Geo
100
AcDbLine
 10
-23.39107328569864
 20
7.306349682499266
 30
0.0
 11
-23.29107328569865
 21
7.206700197538316
 31
0.0
  0
LINE
  5
F10688
330
261
100
AcDbEntity
  8
Geo
100
AcDbLine
 10
-23.39107328569864
 20
7.006690108029216
 30
0.0
 11
-23.29107328569865
 21
6.908129208732245
 31
0.0
  0
LINE
  5
F1068A
330
261
100
AcDbEntity
  8
Geo
100
AcDbLine
 10
-23.29107328569865
 20
9.082824385426665
 30
0.0
 11
-23.19107328569864
 21
9.077268519179826
 31
0.0
  0
LINE
  5
F1068C
330
261
100
AcDbEntity
  8
Geo
100
AcDbLine
 10
-23.29107328569865
 20
7.206700197538316
 30
0.0
 11
-23.19107328569864
 21
7.106799913810226
 31
0.0
  0
LINE
  5
F1068E
330
261
100
AcDbEntity
  8
Geo
100
AcDbLine
 10
-23.29107328569865
 20
6.908129208732245
 30
0.0
 11
-23.19107328569864
 21
6.810063782647405
 31
0.0
  0
LINE
  5
F10690
330
261
100
AcDbEntity
  8
Geo
100
AcDbLine
 10
-23.19107328569864
 20
9.077268519179826
 30
0.0
 11
-23.09107328569865
 21
9.065845953471775
 31
0.0
  0
LINE
  5
F10692
330
261
100
AcDbEntity
  8
Geo
100
AcDbLine
 10
-23.19107328569864
 20
7.106799913810226
 30
0.0
 11
-23.09107328569865
 21
7.006898529997266
 31
0.0
  0
LINE
  5
F10694
330
261
100
AcDbEntity
  8
Geo
100
AcDbLine
 10
-23.19107328569864
 20
6.810063782647405
 30
0.0
 11
-23.09107328569865
 21
6.712738942268405
 31
0.0
  0
LINE
  5
F10696
330
261
100
AcDbEntity
  8
Geo
100
AcDbLine
 10
-23.09107328569865
 20
9.065845953471775
 30
0.0
 11
-22.99107328569864
 21
9.048590689247895
 31
0.0
  0
LINE
  5
F10698
330
261
100
AcDbEntity
  8
Geo
100
AcDbLine
 10
-23.09107328569865
 20
7.006898529997266
 30
0.0
 11
-22.99107328569864
 21
6.907245747531335
 31
0.0
  0
LINE
  5
F1069A
330
261
100
AcDbEntity
  8
Geo
100
AcDbLine
 10
-23.09107328569865
 20
6.712738942268405
 30
0.0
 11
-22.99107328569864
 21
6.616397949010396
 31
0.0
  0
LINE
  5
F1069C
330
261
100
AcDbEntity
  8
Geo
100
AcDbLine
 10
-22.99107328569864
 20
9.103819755835257
 30
0.0
 11
-22.89107328569865
 21
9.096782813622047
 31
0.0
  0
LINE
  5
F1069E
330
261
100
AcDbEntity
  8
Geo
100
AcDbLine
 10
-22.99107328569864
 20
9.048590689247895
 30
0.0
 11
-22.89107328569865
 21
9.025554089337784
 31
0.0
  0
LINE
  5
F106A0
330
261
100
AcDbEntity
  8
Geo
100
AcDbLine
 10
-22.99107328569864
 20
6.907245747531335
 30
0.0
 11
-22.89107328569865
 21
6.808090646470426
 31
0.0
  0
LINE
  5
F106A2
330
261
100
AcDbEntity
  8
Geo
100
AcDbLine
 10
-22.99107328569864
 20
6.616397949010396
 30
0.0
 11
-22.89107328569865
 21
6.521281605183116
 31
0.0
  0
LINE
  5
F106A4
330
261
100
AcDbEntity
  8
Geo
100
AcDbLine
 10
-22.89107328569865
 20
9.096782813622047
 30
0.0
 11
-22.79107328569865
 21
9.083821084782625
 31
0.0
  0
LINE
  5
F106A6
330
261
100
AcDbEntity
  8
Geo
100
AcDbLine
 10
-22.89107328569865
 20
9.025554089337784
 30
0.0
 11
-22.79107328569865
 21
8.996804725566276
 31
0.0
  0
LINE
  5
F106A8
330
261
100
AcDbEntity
  8
Geo
100
AcDbLine
 10
-22.89107328569865
 20
6.808090646470426
 30
0.0
 11
-22.79107328569865
 21
6.709681062928216
 31
0.0
  0
LINE
  5
F106AA
330
261
100
AcDbEntity
  8
Geo
100
AcDbLine
 10
-22.89107328569865
 20
6.521281605183116
 30
0.0
 11
-22.79107328569865
 21
6.427627652110485
 31
0.0
  0
LINE
  5
F106AC
330
261
100
AcDbEntity
  8
Geo
100
AcDbLine
 10
-22.79107328569865
 20
9.083821084782625
 30
0.0
 11
-22.69107328569864
 21
9.064973151807574
 31
0.0
  0
LINE
  5
F106AE
330
261
100
AcDbEntity
  8
Geo
100
AcDbLine
 10
-22.79107328569865
 20
8.996804725566276
 30
0.0
 11
-22.69107328569864
 21
8.962428174639356
 31
0.0
  0
LINE
  5
F106B0
330
261
100
AcDbEntity
  8
Geo
100
AcDbLine
 10
-22.79107328569865
 20
6.709681062928216
 30
0.0
 11
-22.69107328569864
 21
6.612262969612835
 31
0.0
  0
LINE
  5
F106B2
330
261
100
AcDbEntity
  8
Geo
100
AcDbLine
 10
-22.79107328569865
 20
6.427627652110485
 30
0.0
 11
-22.69107328569864
 21
6.335670175901155
 31
0.0
  0
LINE
  5
F106B4
330
261
100
AcDbEntity
  8
Geo
100
AcDbLine
 10
-22.69107328569864
 20
9.064973151807574
 30
0.0
 11
-22.59107328569865
 21
9.040295118339095
 31
0.0
  0
LINE
  5
F106B6
330
261
100
AcDbEntity
  8
Geo
100
AcDbLine
 10
-22.69107328569864
 20
8.962428174639356
 30
0.0
 11
-22.59107328569865
 21
8.922526763412436
 31
0.0
  0
LINE
  5
F106B8
330
261
100
AcDbEntity
  8
Geo
100
AcDbLine
 10
-22.69107328569864
 20
6.612262969612835
 30
0.0
 11
-22.59107328569865
 21
6.516079861023216
 31
0.0
  0
LINE
  5
F106BA
330
261
100
AcDbEntity
  8
Geo
100
AcDbLine
 10
-22.69107328569864
 20
6.335670175901155
 30
0.0
 11
-22.59107328569865
 21
6.245639022355126
 31
0.0
  0
LINE
  5
F106BC
330
261
100
AcDbEntity
  8
Geo
100
AcDbLine
 10
-22.59107328569865
 20
9.040295118339095
 30
0.0
 11
-22.49107328569864
 21
9.009860442170225
 31
0.0
  0
LINE
  5
F106BE
330
261
100
AcDbEntity
  8
Geo
100
AcDbLine
 10
-22.59107328569865
 20
8.922526763412436
 30
0.0
 11
-22.49107328569864
 21
8.877219264299526
 31
0.0
  0
LINE
  5
F106C0
330
261
100
AcDbEntity
  8
Geo
100
AcDbLine
 10
-22.59107328569865
 20
6.516079861023216
 30
0.0
 11
-22.49107328569864
 21
6.421372144839645
 31
0.0
  0
LINE
  5
F106C2
330
261
100
AcDbEntity
  8
Geo
100
AcDbLine
 10
-22.59107328569865
 20
6.245639022355126
 30
0.0
 11
-22.49107328569864
 21
6.157759222468945
 31
0.0
  0
LINE
  5
F106C4
330
261
100
AcDbEntity
  8
Geo
100
AcDbLine
 10
-22.49107328569864
 20
9.009860442170225
 30
0.0
 11
-22.39107328569865
 21
8.973759716586947
 31
0.0
  0
LINE
  5
F106C6
330
261
100
AcDbEntity
  8
Geo
100
AcDbLine
 10
-22.49107328569864
 20
8.877219264299526
 30
0.0
 11
-22.39107328569865
 21
8.826640541729616
 31
0.0
  0
LINE
  5
F106C8
330
261
100
AcDbEntity
  8
Geo
100
AcDbLine
 10
-22.49107328569864
 20
6.421372144839645
 30
0.0
 11
-22.39107328569865
 21
6.328376541029736
 31
0.0
  0
LINE
  5
F106CA
330
261
100
AcDbEntity
  8
Geo
100
AcDbLine
 10
-22.49107328569864
 20
6.157759222468945
 30
0.0
 11
-22.39107328569865
 21
6.072250429975405
 31
0.0
  0
LINE
  5
F106CC
330
261
100
AcDbEntity
  8
Geo
100
AcDbLine
 10
-22.39107328569865
 20
8.973759716586947
 30
0.0
 11
-22.29107328569865
 21
8.932100400703905
 31
0.0
  0
LINE
  5
F106CE
330
261
100
AcDbEntity
  8
Geo
100
AcDbLine
 10
-22.39107328569865
 20
8.826640541729616
 30
0.0
 11
-22.29107328569865
 21
8.770941150702984
 31
0.0
  0
LINE
  5
F106D0
330
261
100
AcDbEntity
  8
Geo
100
AcDbLine
 10
-22.39107328569865
 20
6.328376541029736
 30
0.0
 11
-22.29107328569865
 21
6.237325490171845
 31
0.0
  0
LINE
  5
F106D2
330
261
100
AcDbEntity
  8
Geo
100
AcDbLine
 10
-22.39107328569865
 20
6.072250429975405
 30
0.0
 11
-22.29107328569865
 21
5.989326372323615
 31
0.0
  0
LINE
  5
F106D4
330
261
100
AcDbEntity
  8
Geo
100
AcDbLine
 10
-22.29107328569865
 20
8.932100400703905
 30
0.0
 11
-22.19107328569864
 21
8.885006499596617
 31
0.0
  0
LINE
  5
F106D6
330
261
100
AcDbEntity
  8
Geo
100
AcDbLine
 10
-22.29107328569865
 20
8.770941150702984
 30
0.0
 11
-22.19107328569864
 21
8.710286888641945
 31
0.0
  0
LINE
  5
F106D8
330
261
100
AcDbEntity
  8
Geo
100
AcDbLine
 10
-22.29107328569865
 20
6.237325490171845
 30
0.0
 11
-22.19107328569864
 21
6.148446572474665
 31
0.0
  0
LINE
  5
F106DA
330
261
100
AcDbEntity
  8
Geo
100
AcDbLine
 10
-22.29107328569865
 20
5.989326372323615
 30
0.0
 11
-22.19107328569864
 21
5.909194316471706
 31
0.0
  0
LINE
  5
F106DC
330
261
100
AcDbEntity
  8
Geo
100
AcDbLine
 10
-22.19107328569864
 20
8.885006499596617
 30
0.0
 11
-22.09107328569865
 21
8.832618195182163
 31
0.0
  0
LINE
  5
F106DE
330
261
100
AcDbEntity
  8
Geo
100
AcDbLine
 10
-22.19107328569864
 20
8.710286888641945
 30
0.0
 11
-22.09107328569865
 21
8.644858301870646
 31
0.0
  0
LINE
  5
F106E0
330
261
100
AcDbEntity
  8
Geo
100
AcDbLine
 10
-22.19107328569864
 20
6.148446572474665
 30
0.0
 11
-22.09107328569865
 21
6.061961938945186
 31
0.0
  0
LINE
  5
F106E2
330
261
100
AcDbEntity
  8
Geo
100
AcDbLine
 10
-22.19107328569864
 20
5.909194316471706
 30
0.0
 11
-22.09107328569865
 21
5.832054550827336
 31
0.0
  0
LINE
  5
F106E4
330
261
100
AcDbEntity
  8
Geo
100
AcDbLine
 10
-22.09107328569865
 20
8.832618195182163
 30
0.0
 11
-21.99107328569864
 21
8.775091428947057
 31
0.0
  0
LINE
  5
F106E6
330
261
100
AcDbEntity
  8
Geo
100
AcDbLine
 10
-22.09107328569865
 20
8.644858301870646
 30
0.0
 11
-21.99107328569864
 21
8.574850148192265
 31
0.0
  0
LINE
  5
F106E8
330
261
100
AcDbEntity
  8
Geo
100
AcDbLine
 10
-22.09107328569865
 20
6.061961938945186
 30
0.0
 11
-21.99107328569864
 21
5.978087756126885
 31
0.0
  0
LINE
  5
F106EA
330
261
100
AcDbEntity
  8
Geo
100
AcDbLine
 10
-22.09107328569865
 20
5.832054550827336
 30
0.0
 11
-21.99107328569864
 21
5.758099884630995
 31
0.0
  0
LINE
  5
F106EC
330
261
100
AcDbEntity
  8
Geo
100
AcDbLine
 10
-21.99107328569864
 20
8.775091428947057
 30
0.0
 11
-21.89107328569865
 21
8.712597437764486
 31
0.0
  0
LINE
  5
F106EE
330
261
100
AcDbEntity
  8
Geo
100
AcDbLine
 10
-21.99107328569864
 20
8.574850148192265
 30
0.0
 11
-21.89107328569865
 21
8.500470817163895
 31
0.0
  0
LINE
  5
F106F0
330
261
100
AcDbEntity
  8
Geo
100
AcDbLine
 10
-21.99107328569864
 20
5.978087756126885
 30
0.0
 11
-21.89107328569865
 21
5.897033665795996
 31
0.0
  0
LINE
  5
F106F2
330
261
100
AcDbEntity
  8
Geo
100
AcDbLine
 10
-21.99107328569864
 20
5.758099884630995
 30
0.0
 11
-21.89107328569865
 21
5.687515166033316
 31
0.0
  0
LINE
  5
F106F4
330
261
100
AcDbEntity
  8
Geo
100
AcDbLine
 10
-21.89107328569865
 20
8.712597437764486
 30
0.0
 11
-21.79107328569865
 21
8.645322244182647
 31
0.0
  0
LINE
  5
F106F6
330
261
100
AcDbEntity
  8
Geo
100
AcDbLine
 10
-21.89107328569865
 20
8.500470817163895
 30
0.0
 11
-21.79107328569865
 21
8.421941709794305
 31
0.0
  0
LINE
  5
F106F8
330
261
100
AcDbEntity
  8
Geo
100
AcDbLine
 10
-21.89107328569865
 20
5.897033665795996
 30
0.0
 11
-21.79107328569865
 21
5.819002260966186
 31
0.0
  0
LINE
  5
F106FA
330
261
100
AcDbEntity
  8
Geo
100
AcDbLine
 10
-21.89107328569865
 20
5.687515166033316
 30
0.0
 11
-21.79107328569865
 21
5.620476820071036
 31
0.0
  0
LINE
  5
F106FC
330
261
100
AcDbEntity
  8
Geo
100
AcDbLine
 10
-21.79107328569865
 20
8.645322244182647
 30
0.0
 11
-21.69107328569864
 21
8.573466102701274
 31
0.0
  0
LINE
  5
F106FE
330
261
100
AcDbEntity
  8
Geo
100
AcDbLine
 10
-21.79107328569865
 20
8.421941709794305
 30
0.0
 11
-21.69107328569864
 21
8.339496579511365
 31
0.0
  0
LINE
  5
F10700
330
261
100
AcDbEntity
  8
Geo
100
AcDbLine
 10
-21.79107328569865
 20
5.819002260966186
 30
0.0
 11
-21.69107328569864
 21
5.744188579511556
 31
0.0
  0
LINE
  5
F10702
330
261
100
AcDbEntity
  8
Geo
100
AcDbLine
 10
-21.79107328569865
 20
5.620476820071036
 30
0.0
 11
-21.69107328569864
 21
5.557152407696106
 31
0.0
  0
LINE
  5
F10704
330
261
100
AcDbEntity
  8
Geo
100
AcDbLine
 10
-21.69107328569864
 20
8.573466102701274
 30
0.0
 11
-21.59107328569865
 21
8.497242903684675
 31
0.0
  0
LINE
  5
F10706
330
261
100
AcDbEntity
  8
Geo
100
AcDbLine
 10
-21.69107328569864
 20
8.339496579511365
 30
0.0
 11
-21.59107328569865
 21
8.253380836360605
 31
0.0
  0
LINE
  5
F10708
330
261
100
AcDbEntity
  8
Geo
100
AcDbLine
 10
-21.69107328569864
 20
5.744188579511556
 30
0.0
 11
-21.59107328569865
 21
5.672779616673536
 31
0.0
  0
LINE
  5
F1070A
330
261
100
AcDbEntity
  8
Geo
100
AcDbLine
 10
-21.69107328569864
 20
5.557152407696106
 30
0.0
 11
-21.59107328569865
 21
5.497700206960766
 31
0.0
  0
LINE
  5
F1070C
330
261
100
AcDbEntity
  8
Geo
100
AcDbLine
 10
-21.59107328569865
 20
8.497242903684675
 30
0.0
 11
-21.49107328569864
 21
8.416879536685677
 31
0.0
  0
LINE
  5
F1070E
330
261
100
AcDbEntity
  8
Geo
100
AcDbLine
 10
-21.59107328569865
 20
8.253380836360605
 30
0.0
 11
-21.49107328569864
 21
8.163850816506146
 31
0.0
  0
LINE
  5
F10710
330
261
100
AcDbEntity
  8
Geo
100
AcDbLine
 10
-21.59107328569865
 20
5.672779616673536
 30
0.0
 11
-21.49107328569864
 21
5.604953857670155
 31
0.0
  0
LINE
  5
F10712
330
261
100
AcDbEntity
  8
Geo
100
AcDbLine
 10
-21.59107328569865
 20
5.497700206960766
 30
0.0
 11
-21.49107328569864
 21
5.442268817404755
 31
0.0
  0
LINE
  5
F10714
330
261
100
AcDbEntity
  8
Geo
100
AcDbLine
 10
-21.49107328569864
 20
8.416879536685677
 30
0.0
 11
-21.39107328569865
 21
8.332615215075467
 31
0.0
  0
LINE
  5
F10716
330
261
100
AcDbEntity
  8
Geo
100
AcDbLine
 10
-21.49107328569864
 20
8.163850816506146
 30
0.0
 11
-21.39107328569865
 21
8.071173019208465
 31
0.0
  0
LINE
  5
F10718
330
261
100
AcDbEntity
  8
Geo
100
AcDbLine
 10
-21.49107328569864
 20
5.604953857670155
 30
0.0
 11
-21.39107328569865
 21
5.540880831575965
 31
0.0
  0
LINE
  5
F1071A
330
261
100
AcDbEntity
  8
Geo
100
AcDbLine
 10
-21.49107328569864
 20
5.442268817404755
 30
0.0
 11
-21.39107328569865
 21
5.390996788633856
 31
0.0
  0
LINE
  5
F1071C
330
261
100
AcDbEntity
  8
Geo
100
AcDbLine
 10
-21.39107328569865
 20
8.332615215075467
 30
0.0
 11
-21.29107328569865
 21
8.244700763989897
 31
0.0
  0
LINE
  5
F1071E
330
261
100
AcDbEntity
  8
Geo
100
AcDbLine
 10
-21.39107328569865
 20
8.071173019208465
 30
0.0
 11
-21.29107328569865
 21
7.975623313550116
 31
0.0
  0
LINE
  5
F10720
330
261
100
AcDbEntity
  8
Geo
100
AcDbLine
 10
-21.39107328569865
 20
5.540880831575965
 30
0.0
 11
-21.29107328569865
 21
5.480720687587576
 31
0.0
  0
LINE
  5
F10722
330
261
100
AcDbEntity
  8
Geo
100
AcDbLine
 10
-21.39107328569865
 20
5.390996788633856
 30
0.0
 11
-21.29107328569865
 21
5.344012274018016
 31
0.0
  0
LINE
  5
F10724
330
261
100
AcDbEntity
  8
Geo
100
AcDbLine
 10
-21.29107328569865
 20
8.244700763989897
 30
0.0
 11
-21.19107328569864
 21
8.153397873711584
 31
0.0
  0
LINE
  5
F10726
330
261
100
AcDbEntity
  8
Geo
100
AcDbLine
 10
-21.29107328569865
 20
7.975623313550116
 30
0.0
 11
-21.19107328569864
 21
7.877486117270955
 31
0.0
  0
LINE
  5
F10728
330
261
100
AcDbEntity
  8
Geo
100
AcDbLine
 10
-21.29107328569865
 20
5.480720687587576
 30
0.0
 11
-21.19107328569864
 21
5.424623794734186
 31
0.0
  0
LINE
  5
F1072A
330
261
100
AcDbEntity
  8
Geo
100
AcDbLine
 10
-21.29107328569865
 20
5.344012274018016
 30
0.0
 11
-21.19107328569864
 21
5.301432710374745
 31
0.0
  0
LINE
  5
F1072C
330
261
100
AcDbEntity
  8
Geo
100
AcDbLine
 10
-21.19107328569864
 20
8.153397873711584
 30
0.0
 11
-21.09107328569865
 21
8.058978320710297
 31
0.0
  0
LINE
  5
F1072E
330
261
100
AcDbEntity
  8
Geo
100
AcDbLine
 10
-21.19107328569864
 20
7.877486117270955
 30
0.0
 11
-21.09107328569865
 21
7.777053550156876
 31
0.0
  0
LINE
  5
F10730
330
261
100
AcDbEntity
  8
Geo
100
AcDbLine
 10
-21.19107328569864
 20
5.424623794734186
 30
0.0
 11
-21.09107328569865
 21
5.372730366033226
 31
0.0
  0
LINE
  5
F10732
330
261
100
AcDbEntity
  8
Geo
100
AcDbLine
 10
-21.19107328569864
 20
5.301432710374745
 30
0.0
 11
-21.09107328569865
 21
5.263364524438106
 31
0.0
  0
LINE
  5
F10734
330
261
100
AcDbEntity
  8
Geo
100
AcDbLine
 10
-21.09107328569865
 20
8.058978320710297
 30
0.0
 11
-21.09107328569865
 21
8.106073003898906
 31
0.0
  0
LINE
  5
F10736
330
261
100
AcDbEntity
  8
Geo
100
AcDbLine
 10
-21.09107328569865
 20
7.777053550156876
 30
0.0
 11
-21.09107328569865
 21
8.106073003898906
 31
0.0
  0
LINE
  5
F10738
330
261
100
AcDbEntity
  8
Geo
100
AcDbLine
 10
-21.09107328569865
 20
7.777053550156876
 30
0.0
 11
-21.09107328569865
 21
7.835465398810266
 31
0.0
  0
LINE
  5
F1073A
330
261
100
AcDbEntity
  8
Geo
100
AcDbLine
 10
-21.09107328569865
 20
5.372730366033226
 30
0.0
 11
-21.09107328569865
 21
5.398895730765925
 31
0.0
  0
LINE
  5
F1073C
330
261
100
AcDbEntity
  8
Geo
100
AcDbLine
 10
-21.09107328569865
 20
5.263364524438106
 30
0.0
 11
-21.09107328569865
 21
5.398895730765925
 31
0.0
  0
LINE
  5
F1073E
330
261
100
AcDbEntity
  8
Geo
100
AcDbLine
 10
-21.09107328569865
 20
5.263364524438106
 30
0.0
 11
-21.09107328569865
 21
5.230558051348086
 31
0.0
  0
LINE
  5
F10740
330
261
100
AcDbEntity
  8
Geo
100
AcDbLine
 10
-33.09107328569865
 20
7.106359788176205
 30
0.0
 11
-33.09107328569865
 21
7.106359788176205
 31
0.0
  0
LINE
  5
F10742
330
261
100
AcDbEntity
  8
Geo
100
AcDbLine
 10
-33.09107328569865
 20
7.106359788176205
 30
0.0
 11
-33.09107328569865
 21
7.106359788176205
 31
0.0
  0
LINE
  5
F10744
330
261
100
AcDbEntity
  8
Geo
100
AcDbLine
 10
23.90892671430135
 20
9.606359788176206
 30
0.0
 11
23.90892671430135
 21
7.106359788176205
 31
0.0
  0
LINE
  5
F10746
330
261
100
AcDbEntity
  8
Geo
100
AcDbLine
 10
-33.09107328569865
 20
7.106359788176205
 30
0.0
 11
-33.09107328569865
 21
5.206359788176206
 31
0.0
  0
LINE
  5
F10748
330
261
100
AcDbEntity
  8
Geo
100
AcDbLine
 10
-33.09107328569865
 20
5.206359788176206
 30
0.0
 11
-32.99107328569864
 21
5.106359788176206
 31
0.0
  0
LINE
  5
F1074A
330
261
100
AcDbEntity
  8
Geo
100
AcDbLine
 10
-32.99107328569864
 20
5.106359788176206
 30
0.0
 11
-21.09107328569865
 21
5.106359788176206
 31
0.0
  0
LINE
  5
F1074C
330
261
100
AcDbEntity
  8
Geo
100
AcDbLine
 10
-21.09107328569865
 20
5.106359788176206
 30
0.0
 11
-21.09107328569865
 21
5.206359788176206
 31
0.0
  0
LINE
  5
F1074E
330
261
100
AcDbEntity
  8
Geo
100
AcDbLine
 10
-21.09107328569865
 20
5.206359788176206
 30
0.0
 11
-15.09107328569865
 21
5.206359788176206
 31
0.0
  0
LINE
  5
F10750
330
261
100
AcDbEntity
  8
Geo
100
AcDbLine
 10
-15.09107328569865
 20
5.206359788176206
 30
0.0
 11
-12.09107328569865
 21
4.106359788176206
 31
0.0
  0
LINE
  5
F10752
330
261
100
AcDbEntity
  8
Geo
100
AcDbLine
 10
-12.09107328569865
 20
4.106359788176206
 30
0.0
 11
23.40892671430135
 21
4.106359788176206
 31
0.0
  0
LINE
  5
F10754
330
261
100
AcDbEntity
  8
Geo
100
AcDbLine
 10
23.40892671430135
 20
4.106359788176206
 30
0.0
 11
23.90892671430135
 21
4.606359788176206
 31
0.0
  0
LINE
  5
F10756
330
261
100
AcDbEntity
  8
Geo
100
AcDbLine
 10
-33.09107328569865
 20
9.006359788176204
 30
0.0
 11
-33.09107328569865
 21
5.206359788176206
 31
0.0
  0
LINE
  5
F10758
330
261
100
AcDbEntity
  8
Geo
100
AcDbLine
 10
-32.99107328569864
 20
9.106359788176206
 30
0.0
 11
-32.99107328569864
 21
5.106359788176206
 31
0.0
  0
LINE
  5
F1075A
330
261
100
AcDbEntity
  8
Geo
100
AcDbLine
 10
-21.09107328569865
 20
9.106359788176206
 30
0.0
 11
-21.09107328569865
 21
5.106359788176206
 31
0.0
  0
LINE
  5
F1075C
330
261
100
AcDbEntity
  8
Geo
100
AcDbLine
 10
-21.09107328569865
 20
9.006359788176204
 30
0.0
 11
-21.09107328569865
 21
5.206359788176206
 31
0.0
  0
LINE
  5
F1075E
330
261
100
AcDbEntity
  8
Geo
100
AcDbLine
 10
-15.09107328569865
 20
9.006359788176204
 30
0.0
 11
-15.09107328569865
 21
5.206359788176206
 31
0.0
  0
LINE
  5
F10760
330
261
100
AcDbEntity
  8
Geo
100
AcDbLine
 10
-12.09107328569865
 20
10.1063597881762
 30
0.0
 11
-12.09107328569865
 21
4.106359788176206
 31
0.0
  0
LINE
  5
F10762
330
261
100
AcDbEntity
  8
Geo
100
AcDbLine
 10
23.40892671430135
 20
10.1063597881762
 30
0.0
 11
23.40892671430135
 21
4.106359788176206
 31
0.0
  0
LINE
  5
F10764
330
261
100
AcDbEntity
  8
Geo
100
AcDbLine
 10
23.90892671430135
 20
9.606359788176206
 30
0.0
 11
23.90892671430135
 21
4.606359788176206
 31
0.0
  0
LWPOLYLINE
  5
F107F2
330
261
100
AcDbEntity
  8
Rahmen
100
AcDbPolyline
 90
        4
 70
     1
 43
0.0
 10
-134.650259067358
 20
99.8316062176166
 10
143.354922279793
 20
99.8316062176166
 10
143.354922279793
 20
-100.103626943005
 10
-134.650259067358
 20
-100.103626943005
  0
LWPOLYLINE
  5
F107F6
330
261
100
AcDbEntity
  8
Rahmen
100
AcDbPolyline
 90
        4
 70
     1
 43
0.0
 10
103.367875647668
 20
-97.11139896373062
 10
143.354922279793
 20
-97.11139896373062
 10
143.354922279793
 20
-100.103626943005
 10
103.367875647668
 20
-100.103626943005
  0
TEXT
  5
F107F8
330
261
100
AcDbEntity
  8
Text
100
AcDbText
 10
104.455958549223
 20
-98.11139896373061
 30
0.0
 40
0.75
  1
Ers. durch:
100
AcDbText
  0
LWPOLYLINE
  5
F107FC
330
261
100
AcDbEntity
  8
Rahmen
100
AcDbPolyline
 90
        4
 70
     1
 43
0.0
 10
63.380829015544
 20
-97.11139896373062
 10
103.367875647668
 20
-97.11139896373062
 10
103.367875647668
 20
-100.103626943005
 10
63.380829015544
 20
-100.103626943005
  0
TEXT
  5
F107FE
330
261
100
AcDbEntity
  8
Text
100
AcDbText
 10
64.46891191709839
 20
-98.11139896373061
 30
0.0
 40
0.75
  1
Ers. für:
100
AcDbText
  0
TEXT
  5
F10800
330
261
100
AcDbEntity
  8
Text
100
AcDbText
 10
91.39896373056991
 20
-99.4715025906736
 30
0.0
 40
0.75
  1

100
AcDbText
  0
LWPOLYLINE
  5
F10802
330
261
100
AcDbEntity
  8
Rahmen
100
AcDbPolyline
 90
        4
 70
     1
 43
0.0
 10
130.025906735751
 20
-94.119170984456
 10
143.354922279793
 20
-94.119170984456
 10
143.354922279793
 20
-97.11139896373062
 10
130.025906735751
 20
-97.11139896373062
  0
TEXT
  5
F10804
330
261
100
AcDbEntity
  8
Text
100
AcDbText
 10
131.113989637306
 20
-95.119170984456
 30
0.0
 40
0.75
  1
Blätter
100
AcDbText
  0
TEXT
  5
F10806
330
261
100
AcDbEntity
  8
Text
100
AcDbText
 10
141.178756476684
 20
-96.479274611399
 30
0.0
 40
0.75
  1

100
AcDbText
  0
LWPOLYLINE
  5
F10808
330
261
100
AcDbEntity
  8
Rahmen
100
AcDbPolyline
 90
        4
 70
     1
 43
0.0
 10
130.025906735751
 20
-91.12694300518128
 10
143.354922279793
 20
-91.12694300518128
 10
143.354922279793
 20
-94.119170984456
 10
130.025906735751
 20
-94.119170984456
  0
TEXT
  5
F1080A
330
261
100
AcDbEntity
  8
Text
100
AcDbText
 10
131.113989637306
 20
-92.12694300518128
 30
0.0
 40
0.75
  1
Blatt
100
AcDbText
  0
TEXT
  5
F1080C
330
261
100
AcDbEntity
  8
Text
100
AcDbText
 10
141.178756476684
 20
-93.48704663212428
 30
0.0
 40
0.75
  1

100
AcDbText
  0
LWPOLYLINE
  5
F1080E
330
261
100
AcDbEntity
  8
Rahmen
100
AcDbPolyline
 90
        4
 70
     1
 43
0.0
 10
63.380829015544
 20
-91.12694300518128
 10
130.025906735751
 20
-91.12694300518128
 10
130.025906735751
 20
-97.11139896373062
 10
63.380829015544
 20
-97.11139896373062
  0
TEXT
  5
F10810
330
261
100
AcDbEntity
  8
Text
100
AcDbText
 10
64.46891191709839
 20
-92.12694300518128
 30
0.0
 40
0.75
  1
Datum:
100
AcDbText
  0
TEXT
  5
F10812
330
261
100
AcDbEntity
  8
Text
100
AcDbText
 10
91.67098445595859
 20
-95.119170984456
 30
0.0
 40
0.75
  1
10.12.2014
100
AcDbText
  0
LWPOLYLINE
  5
F10814
330
261
100
AcDbEntity
  8
Rahmen
100
AcDbPolyline
 90
        4
 70
     1
 43
0.0
 10
63.380829015544
 20
-85.14248704663208
 10
143.354922279793
 20
-85.14248704663208
 10
143.354922279793
 20
-91.12694300518128
 10
63.380829015544
 20
-91.12694300518128
  0
TEXT
  5
F10816
330
261
100
AcDbEntity
  8
Text
100
AcDbText
 10
-208.09585492228
 20
103.0
 30
0.0
 40
1.5
  1

100
AcDbText
  0
TEXT
  5
F10818
330
261
100
AcDbEntity
  8
Text
100
AcDbText
 10
91.67098445595859
 20
-89.01986183074269
 30
0.0
 40
2.5
  1
5000-040
100
AcDbText
  0
LWPOLYLINE
  5
F1081A
330
261
100
AcDbEntity
  8
Rahmen
100
AcDbPolyline
 90
        4
 70
     1
 43
0.0
 10
103.367875647668
 20
-79.1580310880829
 10
143.354922279793
 20
-79.1580310880829
 10
143.354922279793
 20
-85.14248704663208
 10
103.367875647668
 20
-85.14248704663208
  0
TEXT
  5
F1081C
330
261
100
AcDbEntity
  8
Text
100
AcDbText
 10
104.455958549223
 20
-80.1580310880829
 30
0.0
 40
0.75
  1
Zu bearb. Material:
100
AcDbText
  0
TEXT
  5
F1081E
330
261
100
AcDbEntity
  8
Text
100
AcDbText
 10
123.225388601036
 20
-84.5103626943005
 30
0.0
 40
0.75
  1

100
AcDbText
  0
LWPOLYLINE
  5
F10820
330
261
100
AcDbEntity
  8
Rahmen
100
AcDbPolyline
 90
        4
 70
     1
 43
0.0
 10
63.380829015544
 20
-79.1580310880829
 10
103.367875647668
 20
-79.1580310880829
 10
103.367875647668
 20
-85.14248704663208
 10
63.380829015544
 20
-85.14248704663208
  0
TEXT
  5
F10822
330
261
100
AcDbEntity
  8
Text
100
AcDbText
 10
64.46891191709839
 20
-80.1580310880829
 30
0.0
 40
0.75
  1
Werkstoff:
100
AcDbText
  0
LWPOLYLINE
  5
F10826
330
261
100
AcDbEntity
  8
Rahmen
100
AcDbPolyline
 90
        4
 70
     1
 43
0.0
 10
103.367875647668
 20
-76.16580310880831
 10
143.354922279793
 20
-76.16580310880831
 10
143.354922279793
 20
-79.1580310880829
 10
103.367875647668
 20
-79.1580310880829
  0
TEXT
  5
F10828
330
261
100
AcDbEntity
  8
Text
100
AcDbText
 10
-208.09585492228
 20
103.0
 30
0.0
 40
1.5
  1

100
AcDbText
  0
LWPOLYLINE
  5
F1082C
330
261
100
AcDbEntity
  8
Rahmen
100
AcDbPolyline
 90
        4
 70
     1
 43
0.0
 10
63.380829015544
 20
-76.16580310880831
 10
103.367875647668
 20
-76.16580310880831
 10
103.367875647668
 20
-79.1580310880829
 10
63.380829015544
 20
-79.1580310880829
  0
TEXT
  5
F1082E
330
261
100
AcDbEntity
  8
Text
100
AcDbText
 10
64.46891191709839
 20
-77.1658031088083
 30
0.0
 40
0.75
  1
Maßstab:
100
AcDbText
  0
TEXT
  5
F10830
330
261
100
AcDbEntity
  8
Text
100
AcDbText
 10
89.49481865284978
 20
-77.1658031088083
 30
0.0
 40
0.75
  1
1 : 1
100
AcDbText
  0
VIEWPORT
  5
294
102
{ACAD_XDICTIONARY
360
F10A38
102
}
330
25D
100
AcDbEntity
 67
     1
  8
0
 60
     1
100
AcDbViewport
 10
0.0
 20
0.0
 30
0.0
 40
10.0
 41
10.0
 68
    -1
 69
     1
 12
0.0
 22
0.0
 13
0.0
 23
0.0
 14
1.0
 24
1.0
 15
0.0
 25
0.0
 16
0.0
 26
0.0
 36
1.0
 17
0.0
 27
0.0
 37
0.0
 42
0.0
 43
0.0
 44
0.0
 45
10.0
 50
0.0
 51
0.0000000000007958
 72
   100
 90
    32800
  1

281
     0
 71
     0
 74
     0
110
0.0
120
0.0
130
0.0
111
1.0
121
0.0
131
0.0
112
0.0
122
1.0
132
0.0
 79
     0
146
0.0
1001
VD_INVISIBLE_NOT_FOR_READ
1000
VD_INVISIBLE_NOT_FOR_READ
1001
GENIUS_GENSCREG_15
1000
PF
1040
1.0
1000
DF
1040
1.0
1000
MIN
1011
-5.0
1021
-5.0
1031
0.0
1000
MAX
1011
5.0
1021
5.0
1031
0.0
1000
FLAGS
1070
     4
1001
GENIUS_GENODEF_13
1002
{
1000
HIER
1070
     0
1002
}
1002
{
1000
MANEDIT
1070
     0
1002
}
1002
{
1000
NOSEL
1070
     0
1002
}
1002
{
1000
BEHIND
1070
     0
1002
}
1002
{
1000
OTHER
1070
     0
1002
}
1002
{
1000
REACTOR
1002
}
1001
GENIUS_GENOBJ-N-SDF_13
1002
{
1000
OWNER
1000
GEN
1002
}
  0
VIEWPORT
  5
295
102
{ACAD_XDICTIONARY
360
F10A3A
102
}
330
25D
100
AcDbEntity
 67
     1
  8
0
 60
     1
100
AcDbViewport
 10
0.0
 20
0.0
 30
0.0
 40
10.0
 41
10.0
 68
     0
 69
     2
 12
0.0
 22
0.0
 13
0.0
 23
0.0
 14
1.0
 24
1.0
 15
0.0
 25
0.0
 16
0.0
 26
0.0
 36
1.0
 17
0.0
 27
0.0
 37
0.0
 42
0.0
 43
0.0
 44
0.0
 45
10.0
 50
0.0
 51
0.0000000000007958
 72
   100
 90
   163872
  1

281
     0
 71
     0
 74
     0
110
0.0
120
0.0
130
0.0
111
1.0
121
0.0
131
0.0
112
0.0
122
1.0
132
0.0
 79
     0
146
0.0
1001
VD_INVISIBLE_NOT_FOR_READ
1000
VD_INVISIBLE_NOT_FOR_READ
1001
GENIUS_GENSCREG_15
1000
PF
1040
1.0
1000
DF
1040
1.0
1000
MIN
1011
-5.0
1021
-5.0
1031
0.0
1000
MAX
1011
5.0
1021
5.0
1031
0.0
1000
FLAGS
1070
     4
1001
GENIUS_GENOBJ-N-SDF_13
1002
{
1000
OWNER
1000
GEN
1002
}
1001
GENIUS_GENODEF_13
1002
{
1000
HIER
1070
     0
1002
}
1002
{
1000
MANEDIT
1070
     0
1002
}
1002
{
1000
NOSEL
1070
     0
1002
}
1002
{
1000
BEHIND
1070
     0
1002
}
1002
{
1000
OTHER
1070
     0
1002
}
1002
{
1000
REACTOR
1002
}
  0
ENDSEC
  0
SECTION
  2
OBJECTS
  0
DICTIONARY
  5
13
330
0
100
AcDbDictionary
281
     1
  3
ACAD_COLOR
350
FA7
  3
ACAD_GROUP
350
14
  3
ACAD_LAYOUT
350
FCF
  3
ACAD_MATERIAL
350
F7A
  3
ACAD_MLEADERSTYLE
350
FCD
  3
ACAD_MLINESTYLE
350
16
  3
ACAD_PLOTSETTINGS
350
17
  3
ACAD_PLOTSTYLENAME
350
18
  3
ACAD_SCALELIST
350
FAB
  3
ACAD_TABLESTYLE
350
FA8
  3
ACAD_VISUALSTYLE
350
F93
  3
ACDB_RECOMPOSE_DATA
350
F10A36
  3
AcDbVariableDictionary
350
F10A2B
  3
AcmDictionary
350
F10887
  3
AMG
350
F1083B
  3
AMGSNAPSETTINGS
350
F1092C
  3
DWGPROPS
350
F10A37
  0
DICTIONARY
  5
F10A21
330
252
100
AcDbDictionary
280
     1
281
     1
  3
ADSK_XREC_LAYER_RECONCILED
360
F10A22
  0
DICTIONARY
  5
F10A23
330
23F
100
AcDbDictionary
280
     1
281
     1
  3
ADSK_XREC_LAYER_RECONCILED
360
F10A24
  0
DICTIONARY
  5
F10A25
330
240
100
AcDbDictionary
280
     1
281
     1
  3
ADSK_XREC_LAYER_RECONCILED
360
F10A26
  0
DICTIONARY
  5
F10A27
330
241
100
AcDbDictionary
280
     1
281
     1
  3
ADSK_XREC_LAYER_RECONCILED
360
F10A28
  0
DICTIONARY
  5
F10A29
330
57E
100
AcDbDictionary
280
     1
281
     1
  3
ADSK_XREC_LAYER_RECONCILED
360
F10A2A
  0
DICTIONARY
  5
F10A3C
330
296
100
AcDbDictionary
280
     1
281
     1
  3
ACAD_XREC_ROUNDTRIP
360
F10A3D
  0
DICTIONARY
  5
F10A3E
330
297
100
AcDbDictionary
280
     1
281
     1
  3
ACAD_XREC_ROUNDTRIP
360
F10A3F
  0
DICTIONARY
  5
F10A34
330
F108EC
100
AcDbDictionary
280
     1
281
     1
  3
ACAD_MTEXT_2008_RT
360
F10A35
  3
ACAD_MTEXT_RT
360
F10A7D
  0
DICTIONARY
  5
F10A38
330
294
100
AcDbDictionary
280
     1
281
     1
  3
ACAD_XREC_ROUNDTRIP
360
F10A39
  0
DICTIONARY
  5
F10A3A
330
295
100
AcDbDictionary
280
     1
281
     1
  3
ACAD_XREC_ROUNDTRIP
360
F10A3B
  0
DICTIONARY
  5
FA7
102
{ACAD_REACTORS
330
13
102
}
330
13
100
AcDbDictionary
281
     1
  0
DICTIONARY
  5
14
330
13
100
AcDbDictionary
281
     1
  0
DICTIONARY
  5
FCF
102
{ACAD_REACTORS
330
13
102
}
330
13
100
AcDbDictionary
281
     1
  3
Layout1
350
FD1
  3
Model
350
FD0
  0
DICTIONARY
  5
F7A
102
{ACAD_REACTORS
330
13
102
}
330
13
100
AcDbDictionary
281
     1
  3
ByBlock
350
F83
  3
ByLayer
350
F7B
  3
Global
350
F8B
  0
DICTIONARY
  5
FCD
102
{ACAD_REACTORS
330
13
102
}
330
13
100
AcDbDictionary
281
     1
  3
Standard
350
FCE
  0
DICTIONARY
  5
16
330
13
100
AcDbDictionary
281
     1
  3
Standard
350
FAA
  0
DICTIONARY
  5
17
102
{ACAD_REACTORS
330
13
102
}
330
13
100
AcDbDictionary
281
     1
  0
ACDBDICTIONARYWDFLT
  5
18
102
{ACAD_REACTORS
330
13
102
}
330
13
100
AcDbDictionary
281
     1
  3
Normal
350
19
100
AcDbDictionaryWithDefault
340
19
  0
DICTIONARY
  5
FAB
102
{ACAD_REACTORS
330
13
102
}
330
13
100
AcDbDictionary
281
     1
  3
A0
350
FAC
  3
A1
350
FAD
  3
A2
350
FAE
  3
A3
350
FAF
  3
A4
350
FB0
  3
A5
350
FB1
  3
A6
350
FB2
  3
A7
350
FB3
  3
A8
350
FB4
  3
A9
350
FB5
  3
B0
350
FB6
  3
B1
350
FB7
  3
B2
350
FB8
  3
B3
350
FB9
  3
B4
350
FBA
  3
B5
350
FBB
  3
B6
350
FBC
  3
B7
350
FBD
  3
B8
350
FBE
  3
B9
350
FBF
  3
C0
350
FC0
  3
C1
350
FC1
  3
C2
350
FC2
  3
C3
350
FC3
  3
C4
350
FC4
  3
C5
350
FC5
  3
C6
350
FC6
  3
C7
350
FC7
  3
C8
350
FC8
  3
C9
350
FC9
  3
D0
350
FCA
  3
D1
350
FCB
  3
D2
350
FCC
  0
DICTIONARY
  5
FA8
102
{ACAD_REACTORS
330
13
102
}
330
13
100
AcDbDictionary
281
     1
  3
Standard
350
FA9
  0
DICTIONARY
  5
F93
102
{ACAD_REACTORS
330
13
102
}
330
13
100
AcDbDictionary
281
     1
  3
2dWireframe
350
F99
  3
3D Hidden
350
F9B
  3
3dWireframe
350
F9A
  3
Basic
350
F98
  3
Brighten
350
F9F
  3
ColorChange
350
FA3
  3
Conceptual
350
F9C
  3
Dim
350
F9E
  3
EdgeColorOff
350
FA6
  3
Facepattern
350
FA2
  3
Flat
350
F94
  3
FlatWithEdges
350
F95
  3
Gouraud
350
F96
  3
GouraudWithEdges
350
F97
  3
Hidden
350
F10833
  3
JitterOff
350
FA4
  3
Linepattern
350
FA1
  3
OverhangOff
350
FA5
  3
Realistic
350
F9D
  3
Shaded
350
F10838
  3
Shaded with edges
350
F10837
  3
Shades of Gray
350
F10834
  3
Sketchy
350
F10835
  3
Thicken
350
FA0
  3
Wireframe
350
F10832
  3
X-Ray
350
F10836
  0
XRECORD
  5
F10A36
102
{ACAD_REACTORS
330
13
102
}
330
13
100
AcDbXrecord
280
     1
 90
        1
330
FA9
330
F108EC
  0
DICTIONARY
  5
F10A2B
102
{ACAD_REACTORS
330
13
102
}
330
13
100
AcDbDictionary
281
     1
  3
CANNOSCALE
350
F10A2E
  3
CMLEADERSTYLE
350
F10A2D
  3
CTABLESTYLE
350
F10A2C
  3
DIMASSOC
350
F10A31
  3
INDEXCTL
350
F10A30
  3
SORTENTS
350
F10A2F
  3
XCLIPFRAME
350
F10A32
  0
DICTIONARY
  5
F10887
102
{ACAD_REACTORS
330
13
102
}
330
13
100
AcDbDictionary
281
     1
  3
AcmStdDictionary
350
F10892
  0
DICTIONARY
  5
F1083B
102
{ACAD_REACTORS
330
13
102
}
330
13
100
AcDbDictionary
281
     1
  0
DICTIONARY
  5
F1092C
102
{ACAD_REACTORS
330
13
102
}
330
13
100
AcDbDictionary
281
     1
  0
XRECORD
  5
F10A37
102
{ACAD_REACTORS
330
13
102
}
330
13
100
AcDbXrecord
280
     1
  1
DWGPROPS COOKIE
  2

  3

  4

  6

  7

  8
Steigner
  9

300
=
301
=
302
=
303
=
304
=
305
=
306
=
307
=
308
=
309
=
 40
0.0032259143518519
 41
2457002.636171123
 42
2457002.639396192
  1

 90
        0
  0
XRECORD
  5
F10A22
102
{ACAD_REACTORS
330
F10A21
102
}
330
F10A21
100
AcDbXrecord
280
     1
290
     1
  0
XRECORD
  5
F10A24
102
{ACAD_REACTORS
330
F10A23
102
}
330
F10A23
100
AcDbXrecord
280
     1
290
     1
  0
XRECORD
  5
F10A26
102
{ACAD_REACTORS
330
F10A25
102
}
330
F10A25
100
AcDbXrecord
280
     1
290
     1
  0
XRECORD
  5
F10A28
102
{ACAD_REACTORS
330
F10A27
102
}
330
F10A27
100
AcDbXrecord
280
     1
290
     1
  0
XRECORD
  5
F10A2A
102
{ACAD_REACTORS
330
F10A29
102
}
330
F10A29
100
AcDbXrecord
280
     1
290
     1
  0
XRECORD
  5
F10A3D
102
{ACAD_REACTORS
330
F10A3C
102
}
330
F10A3C
100
AcDbXrecord
280
     1
102
SHADEPLOT
 70
     0
  0
XRECORD
  5
F10A3F
102
{ACAD_REACTORS
330
F10A3E
102
}
330
F10A3E
100
AcDbXrecord
280
     1
102
SHADEPLOT
 70
     0
  0
XRECORD
  5
F10A35
102
{ACAD_REACTORS
330
F10A34
102
}
330
F10A34
100
AcDbXrecord
280
     1
 40
30518.0
  1
\A1;30\U+00B0{\H1.250000;\S+5\U+00B0~.+5\U+00B0;}
  0
XRECORD
  5
F10A7D
102
{ACAD_REACTORS
330
F10A34
102
}
330
F10A34
100
AcDbXrecord
280
     1
 40
28745.0
  1
\A1;30°{\H0.5x;\S+5°^ +5°;}
  0
XRECORD
  5
F10A39
102
{ACAD_REACTORS
330
F10A38
102
}
330
F10A38
100
AcDbXrecord
280
     1
102
SHADEPLOT
 70
     0
  0
XRECORD
  5
F10A3B
102
{ACAD_REACTORS
330
F10A3A
102
}
330
F10A3A
100
AcDbXrecord
280
     1
102
SHADEPLOT
 70
     0
  0
LAYOUT
  5
FD1
102
{ACAD_XDICTIONARY
360
F10A69
102
}
102
{ACAD_REACTORS
330
FCF
102
}
330
FCF
100
AcDbPlotSettings
  1

  2
Microsoft XPS Document Writer
  4

  6

 40
0.0
 41
0.0
 42
0.0
 43
0.0
 44
0.0
 45
0.0
 46
0.0
 47
0.0
 48
0.0
 49
0.0
140
0.0
141
0.0
142
1.0
143
1.0
 70
   688
 72
     0
 73
     0
 74
     5
  7

 75
    16
147
1.0
148
0.0
149
0.0
100
AcDbLayout
  1
Layout1
 70
     1
 71
     1
 10
0.0
 20
0.0
 11
12.0
 21
9.0
 12
0.0
 22
0.0
 32
0.0
 14
1.000000000000000E+20
 24
1.000000000000000E+20
 34
1.000000000000000E+20
 15
-1.000000000000000E+20
 25
-1.000000000000000E+20
 35
-1.000000000000000E+20
146
0.0
 13
0.0
 23
0.0
 33
0.0
 16
1.0
 26
0.0
 36
0.0
 17
0.0
 27
1.0
 37
0.0
 76
     0
330
25D
  0
LAYOUT
  5
FD0
102
{ACAD_XDICTIONARY
360
F10A67
102
}
102
{ACAD_REACTORS
330
FCF
102
}
330
FCF
100
AcDbPlotSettings
  1

  2
Microsoft XPS Document Writer
  4

  6

 40
0.0
 41
0.0
 42
0.0
 43
0.0
 44
0.0
 45
0.0
 46
0.0
 47
0.0
 48
0.0
 49
0.0
140
0.0
141
0.0
142
1.0
143
1.0
 70
  1712
 72
     0
 73
     0
 74
     0
  7

 75
     0
147
1.0
148
0.0
149
0.0
100
AcDbLayout
  1
Model
 70
     1
 71
     0
 10
0.0
 20
0.0
 11
12.0
 21
9.0
 12
0.0
 22
0.0
 32
0.0
 14
0.0
 24
0.0
 34
0.0
 15
0.0
 25
0.0
 35
0.0
146
0.0
 13
0.0
 23
0.0
 33
0.0
 16
1.0
 26
0.0
 36
0.0
 17
0.0
 27
1.0
 37
0.0
 76
     0
330
261
331
26B
  0
MATERIAL
  5
F83
102
{ACAD_XDICTIONARY
360
F84
102
}
102
{ACAD_REACTORS
330
F7A
102
}
330
F7A
100
AcDbMaterial
  1
ByBlock
 72
     0
 43
0.0208333333333333
 43
0.0
 43
0.0
 43
0.0
 43
0.0
 43
0.0208333333333333
 43
0.0
 43
0.0
 43
0.0
 43
0.0
 43
1.0
 43
0.0
 43
0.0
 43
0.0
 43
0.0
 43
1.0
 77
     0
 47
0.0208333333333333
 47
0.0
 47
0.0
 47
0.0
 47
0.0
 47
0.0208333333333333
 47
0.0
 47
0.0
 47
0.0
 47
0.0
 47
1.0
 47
0.0
 47
0.0
 47
0.0
 47
0.0
 47
1.0
171
     0
 49
0.0208333333333333
 49
0.0
 49
0.0
 49
0.0
 49
0.0
 49
0.0208333333333333
 49
0.0
 49
0.0
 49
0.0
 49
0.0
 49
1.0
 49
0.0
 49
0.0
 49
0.0
 49
0.0
 49
1.0
175
     0
142
0.0208333333333333
142
0.0
142
0.0
142
0.0
142
0.0
142
0.0208333333333333
142
0.0
142
0.0
142
0.0
142
0.0
142
1.0
142
0.0
142
0.0
142
0.0
142
0.0
142
1.0
179
     0
144
0.0208333333333333
144
0.0
144
0.0
144
0.0
144
0.0
144
0.0208333333333333
144
0.0
144
0.0
144
0.0
144
0.0
144
1.0
144
0.0
144
0.0
144
0.0
144
0.0
144
1.0
147
0.0208333333333333
147
0.0
147
0.0
147
0.0
147
0.0
147
0.0208333333333333
147
0.0
147
0.0
147
0.0
147
0.0
147
1.0
147
0.0
147
0.0
147
0.0
147
0.0
147
1.0
  0
MATERIAL
  5
F7B
102
{ACAD_XDICTIONARY
360
F7C
102
}
102
{ACAD_REACTORS
330
F7A
102
}
330
F7A
100
AcDbMaterial
  1
ByLayer
 72
     0
 43
0.0208333333333333
 43
0.0
 43
0.0
 43
0.0
 43
0.0
 43
0.0208333333333333
 43
0.0
 43
0.0
 43
0.0
 43
0.0
 43
1.0
 43
0.0
 43
0.0
 43
0.0
 43
0.0
 43
1.0
 77
     0
 47
0.0208333333333333
 47
0.0
 47
0.0
 47
0.0
 47
0.0
 47
0.0208333333333333
 47
0.0
 47
0.0
 47
0.0
 47
0.0
 47
1.0
 47
0.0
 47
0.0
 47
0.0
 47
0.0
 47
1.0
171
     0
 49
0.0208333333333333
 49
0.0
 49
0.0
 49
0.0
 49
0.0
 49
0.0208333333333333
 49
0.0
 49
0.0
 49
0.0
 49
0.0
 49
1.0
 49
0.0
 49
0.0
 49
0.0
 49
0.0
 49
1.0
175
     0
142
0.0208333333333333
142
0.0
142
0.0
142
0.0
142
0.0
142
0.0208333333333333
142
0.0
142
0.0
142
0.0
142
0.0
142
1.0
142
0.0
142
0.0
142
0.0
142
0.0
142
1.0
179
     0
144
0.0208333333333333
144
0.0
144
0.0
144
0.0
144
0.0
144
0.0208333333333333
144
0.0
144
0.0
144
0.0
144
0.0
144
1.0
144
0.0
144
0.0
144
0.0
144
0.0
144
1.0
147
0.0208333333333333
147
0.0
147
0.0
147
0.0
147
0.0
147
0.0208333333333333
147
0.0
147
0.0
147
0.0
147
0.0
147
1.0
147
0.0
147
0.0
147
0.0
147
0.0
147
1.0
  0
MATERIAL
  5
F8B
102
{ACAD_XDICTIONARY
360
F8C
102
}
102
{ACAD_REACTORS
330
F7A
102
}
330
F7A
100
AcDbMaterial
  1
Global
 72
     0
 43
0.0208333333333333
 43
0.0
 43
0.0
 43
0.0
 43
0.0
 43
0.0208333333333333
 43
0.0
 43
0.0
 43
0.0
 43
0.0
 43
1.0
 43
0.0
 43
0.0
 43
0.0
 43
0.0
 43
1.0
 77
     0
 47
0.0208333333333333
 47
0.0
 47
0.0
 47
0.0
 47
0.0
 47
0.0208333333333333
 47
0.0
 47
0.0
 47
0.0
 47
0.0
 47
1.0
 47
0.0
 47
0.0
 47
0.0
 47
0.0
 47
1.0
171
     0
 49
0.0208333333333333
 49
0.0
 49
0.0
 49
0.0
 49
0.0
 49
0.0208333333333333
 49
0.0
 49
0.0
 49
0.0
 49
0.0
 49
1.0
 49
0.0
 49
0.0
 49
0.0
 49
0.0
 49
1.0
175
     0
142
0.0208333333333333
142
0.0
142
0.0
142
0.0
142
0.0
142
0.0208333333333333
142
0.0
142
0.0
142
0.0
142
0.0
142
1.0
142
0.0
142
0.0
142
0.0
142
0.0
142
1.0
179
     0
144
0.0208333333333333
144
0.0
144
0.0
144
0.0
144
0.0
144
0.0208333333333333
144
0.0
144
0.0
144
0.0
144
0.0
144
1.0
144
0.0
144
0.0
144
0.0
144
0.0
144
1.0
147
0.0208333333333333
147
0.0
147
0.0
147
0.0
147
0.0
147
0.0208333333333333
147
0.0
147
0.0
147
0.0
147
0.0
147
1.0
147
0.0
147
0.0
147
0.0
147
0.0
147
1.0
  0
MLEADERSTYLE
  5
FCE
102
{ACAD_REACTORS
330
FCD
102
}
330
FCD
100
AcDbMLeaderStyle
170
     2
171
     1
172
     0
 90
        2
 40
0.0
 41
0.0
173
     1
 91
-1056964608
340
256
 92
       -2
290
     1
 42
0.09
291
     1
 43
0.36
  3
Standard
 44
0.18
300

342
253
174
     1
178
     6
175
     1
176
     0
 93
-1056964608
 45
0.18
292
     0
297
     0
 46
0.18
 94
-1056964608
 47
1.0
 49
1.0
140
1.0
293
     1
141
0.0
294
     1
177
     0
142
1.0
295
     0
296
     0
143
0.125
1001
ACAD_MLEADERVER
1070
     2
  0
MLINESTYLE
  5
FAA
102
{ACAD_REACTORS
330
16
102
}
330
16
100
AcDbMlineStyle
  2
STANDARD
 70
     0
  3

 62
   256
 51
90.0
 52
90.0
 71
     2
 49
0.5
 62
   256
  6
BYLAYER
 49
-0.5
 62
   256
  6
BYLAYER
  0
ACDBPLACEHOLDER
  5
19
102
{ACAD_REACTORS
330
18
102
}
330
18
  0
SCALE
  5
FAC
102
{ACAD_REACTORS
330
FAB
102
}
330
FAB
100
AcDbScale
 70
     0
300
1:1
140
1.0
141
1.0
290
     1
  0
SCALE
  5
FAD
102
{ACAD_REACTORS
330
FAB
102
}
330
FAB
100
AcDbScale
 70
     0
300
1:2
140
1.0
141
2.0
290
     0
  0
SCALE
  5
FAE
102
{ACAD_REACTORS
330
FAB
102
}
330
FAB
100
AcDbScale
 70
     0
300
1:4
140
1.0
141
4.0
290
     0
  0
SCALE
  5
FAF
102
{ACAD_REACTORS
330
FAB
102
}
330
FAB
100
AcDbScale
 70
     0
300
1:5
140
1.0
141
5.0
290
     0
  0
SCALE
  5
FB0
102
{ACAD_REACTORS
330
FAB
102
}
330
FAB
100
AcDbScale
 70
     0
300
1:8
140
1.0
141
8.0
290
     0
  0
SCALE
  5
FB1
102
{ACAD_REACTORS
330
FAB
102
}
330
FAB
100
AcDbScale
 70
     0
300
1:10
140
1.0
141
10.0
290
     0
  0
SCALE
  5
FB2
102
{ACAD_REACTORS
330
FAB
102
}
330
FAB
100
AcDbScale
 70
     0
300
1:16
140
1.0
141
16.0
290
     0
  0
SCALE
  5
FB3
102
{ACAD_REACTORS
330
FAB
102
}
330
FAB
100
AcDbScale
 70
     0
300
1:20
140
1.0
141
20.0
290
     0
  0
SCALE
  5
FB4
102
{ACAD_REACTORS
330
FAB
102
}
330
FAB
100
AcDbScale
 70
     0
300
1:30
140
1.0
141
30.0
290
     0
  0
SCALE
  5
FB5
102
{ACAD_REACTORS
330
FAB
102
}
330
FAB
100
AcDbScale
 70
     0
300
1:40
140
1.0
141
40.0
290
     0
  0
SCALE
  5
FB6
102
{ACAD_REACTORS
330
FAB
102
}
330
FAB
100
AcDbScale
 70
     0
300
1:50
140
1.0
141
50.0
290
     0
  0
SCALE
  5
FB7
102
{ACAD_REACTORS
330
FAB
102
}
330
FAB
100
AcDbScale
 70
     0
300
1:100
140
1.0
141
100.0
290
     0
  0
SCALE
  5
FB8
102
{ACAD_REACTORS
330
FAB
102
}
330
FAB
100
AcDbScale
 70
     0
300
2:1
140
2.0
141
1.0
290
     0
  0
SCALE
  5
FB9
102
{ACAD_REACTORS
330
FAB
102
}
330
FAB
100
AcDbScale
 70
     0
300
4:1
140
4.0
141
1.0
290
     0
  0
SCALE
  5
FBA
102
{ACAD_REACTORS
330
FAB
102
}
330
FAB
100
AcDbScale
 70
     0
300
8:1
140
8.0
141
1.0
290
     0
  0
SCALE
  5
FBB
102
{ACAD_REACTORS
330
FAB
102
}
330
FAB
100
AcDbScale
 70
     0
300
10:1
140
10.0
141
1.0
290
     0
  0
SCALE
  5
FBC
102
{ACAD_REACTORS
330
FAB
102
}
330
FAB
100
AcDbScale
 70
     0
300
100:1
140
100.0
141
1.0
290
     0
  0
SCALE
  5
FBD
102
{ACAD_REACTORS
330
FAB
102
}
330
FAB
100
AcDbScale
 70
     0
300
1/128" = 1'-0"
140
0.0078125
141
12.0
290
     0
  0
SCALE
  5
FBE
102
{ACAD_REACTORS
330
FAB
102
}
330
FAB
100
AcDbScale
 70
     0
300
1/64" = 1'-0"
140
0.015625
141
12.0
290
     0
  0
SCALE
  5
FBF
102
{ACAD_REACTORS
330
FAB
102
}
330
FAB
100
AcDbScale
 70
     0
300
1/32" = 1'-0"
140
0.03125
141
12.0
290
     0
  0
SCALE
  5
FC0
102
{ACAD_REACTORS
330
FAB
102
}
330
FAB
100
AcDbScale
 70
     0
300
1/16" = 1'-0"
140
0.0625
141
12.0
290
     0
  0
SCALE
  5
FC1
102
{ACAD_REACTORS
330
FAB
102
}
330
FAB
100
AcDbScale
 70
     0
300
3/32" = 1'-0"
140
0.09375
141
12.0
290
     0
  0
SCALE
  5
FC2
102
{ACAD_REACTORS
330
FAB
102
}
330
FAB
100
AcDbScale
 70
     0
300
1/8" = 1'-0"
140
0.125
141
12.0
290
     0
  0
SCALE
  5
FC3
102
{ACAD_REACTORS
330
FAB
102
}
330
FAB
100
AcDbScale
 70
     0
300
3/16" = 1'-0"
140
0.1875
141
12.0
290
     0
  0
SCALE
  5
FC4
102
{ACAD_REACTORS
330
FAB
102
}
330
FAB
100
AcDbScale
 70
     0
300
1/4" = 1'-0"
140
0.25
141
12.0
290
     0
  0
SCALE
  5
FC5
102
{ACAD_REACTORS
330
FAB
102
}
330
FAB
100
AcDbScale
 70
     0
300
3/8" = 1'-0"
140
0.375
141
12.0
290
     0
  0
SCALE
  5
FC6
102
{ACAD_REACTORS
330
FAB
102
}
330
FAB
100
AcDbScale
 70
     0
300
1/2" = 1'-0"
140
0.5
141
12.0
290
     0
  0
SCALE
  5
FC7
102
{ACAD_REACTORS
330
FAB
102
}
330
FAB
100
AcDbScale
 70
     0
300
3/4" = 1'-0"
140
0.75
141
12.0
290
     0
  0
SCALE
  5
FC8
102
{ACAD_REACTORS
330
FAB
102
}
330
FAB
100
AcDbScale
 70
     0
300
1" = 1'-0"
140
1.0
141
12.0
290
     0
  0
SCALE
  5
FC9
102
{ACAD_REACTORS
330
FAB
102
}
330
FAB
100
AcDbScale
 70
     0
300
1-1/2" = 1'-0"
140
1.5
141
12.0
290
     0
  0
SCALE
  5
FCA
102
{ACAD_REACTORS
330
FAB
102
}
330
FAB
100
AcDbScale
 70
     0
300
3" = 1'-0"
140
3.0
141
12.0
290
     0
  0
SCALE
  5
FCB
102
{ACAD_REACTORS
330
FAB
102
}
330
FAB
100
AcDbScale
 70
     0
300
6" = 1'-0"
140
6.0
141
12.0
290
     0
  0
SCALE
  5
FCC
102
{ACAD_REACTORS
330
FAB
102
}
330
FAB
100
AcDbScale
 70
     0
300
1'-0" = 1'-0"
140
12.0
141
12.0
290
     0
  0
TABLESTYLE
  5
FA9
102
{ACAD_XDICTIONARY
360
FF8
102
}
102
{ACAD_REACTORS
330
FA8
102
}
330
FA8
100
AcDbTableStyle
  3
Standard
 70
     0
 71
     0
 40
0.06
 41
0.06
280
     0
281
     0
  7
Standard
140
0.18
170
     2
 62
     0
 63
     7
283
     0
274
    -2
284
     1
 64
     0
275
    -2
285
     1
 65
     0
276
    -2
286
     1
 66
     0
277
    -2
287
     1
 67
     0
278
    -2
288
     1
 68
     0
279
    -2
289
     1
 69
     0
  7
Standard
140
0.25
170
     5
 62
     0
 63
     7
283
     0
274
    -2
284
     1
 64
     0
275
    -2
285
     1
 65
     0
276
    -2
286
     1
 66
     0
277
    -2
287
     1
 67
     0
278
    -2
288
     1
 68
     0
279
    -2
289
     1
 69
     0
  7
Standard
140
0.18
170
     5
 62
     0
 63
     7
283
     0
274
    -2
284
     1
 64
     0
275
    -2
285
     1
 65
     0
276
    -2
286
     1
 66
     0
277
    -2
287
     1
 67
     0
278
    -2
288
     1
 68
     0
279
    -2
289
     1
 69
     0
  0
VISUALSTYLE
  5
F99
102
{ACAD_XDICTIONARY
360
F10A4A
102
}
102
{ACAD_REACTORS
330
F93
102
}
330
F93
100
AcDbVisualStyle
  2

 70
     4
 71
     0
 72
     2
 73
     0
 90
        0
 40
-0.6
 41
-30.0
 62
     5
 63
     7
 74
     1
 91
        4
 64
     7
 65
   257
 75
     1
175
     1
 42
1.0
 92
        0
 66
   257
 43
1.0
 76
     1
 77
     6
 78
     2
 67
     7
 79
     5
170
     0
171
     0
290
     0
174
     0
 93
        1
 44
0.0
173
     0
291
     0
 45
0.0
1001
ACAD
1000
AcDbSavedByObjectVersion
1070
     0
  0
VISUALSTYLE
  5
F9B
102
{ACAD_XDICTIONARY
360
F10A4E
102
}
102
{ACAD_REACTORS
330
F93
102
}
330
F93
100
AcDbVisualStyle
  2

 70
     6
 71
     1
 72
     2
 73
     2
 90
        0
 40
-0.6
 41
-30.0
 62
     5
 63
     7
 74
     2
 91
        2
 64
     7
 65
   257
 75
     2
175
     1
 42
179.0
 92
        0
 66
   257
 43
1.0
 76
     1
 77
     6
 78
     2
 67
     7
 79
     3
170
     0
171
     0
290
     0
174
     0
 93
        1
 44
0.0
173
     0
291
     0
 45
0.0
1001
ACAD
1000
AcDbSavedByObjectVersion
1070
     0
  0
VISUALSTYLE
  5
F9A
102
{ACAD_XDICTIONARY
360
F10A4C
102
}
102
{ACAD_REACTORS
330
F93
102
}
330
F93
100
AcDbVisualStyle
  2

 70
     5
 71
     0
 72
     2
 73
     0
 90
        0
 40
-0.6
 41
-30.0
 62
     5
 63
     7
 74
     1
 91
        4
 64
     7
 65
   257
 75
     1
175
     1
 42
1.0
 92
        0
 66
   257
 43
1.0
 76
     1
 77
     6
 78
     2
 67
     7
 79
     5
170
     0
171
     0
290
     0
174
     0
 93
        1
 44
0.0
173
     0
291
     0
 45
0.0
1001
ACAD
1000
AcDbSavedByObjectVersion
1070
     0
  0
VISUALSTYLE
  5
F98
102
{ACAD_XDICTIONARY
360
F10A48
102
}
102
{ACAD_REACTORS
330
F93
102
}
330
F93
100
AcDbVisualStyle
  2

 70
     7
 71
     1
 72
     0
 73
     1
 90
        0
 40
-0.6
 41
-30.0
 62
     5
 63
     7
 74
     0
 91
        4
 64
     7
 65
   257
 75
     1
175
     1
 42
1.0
 92
        8
 66
     7
 43
1.0
 76
     1
 77
     6
 78
     2
 67
     7
 79
     5
170
     0
171
     0
290
     0
174
     0
 93
        1
 44
0.0
173
     0
291
     1
 45
0.0
1001
ACAD
1000
AcDbSavedByObjectVersion
1070
     0
  0
VISUALSTYLE
  5
F9F
102
{ACAD_XDICTIONARY
360
F10A56
102
}
102
{ACAD_REACTORS
330
F93
102
}
330
F93
100
AcDbVisualStyle
  2

 70
    12
 71
     2
 72
     2
 73
     0
 90
        0
 40
-0.6
 41
-30.0
 62
     5
 63
     7
 74
     1
 91
        4
 64
     7
 65
   257
 75
     1
175
     1
 42
1.0
 92
        8
 66
     7
 43
1.0
 76
     1
 77
     6
 78
     2
 67
     7
 79
     5
170
     0
171
     0
290
     0
174
     0
 93
        1
 44
50.0
173
     0
291
     1
 45
0.0
1001
ACAD
1000
AcDbSavedByObjectVersion
1070
     0
  0
VISUALSTYLE
  5
FA3
102
{ACAD_XDICTIONARY
360
F10A5E
102
}
102
{ACAD_REACTORS
330
F93
102
}
330
F93
100
AcDbVisualStyle
  2

 70
    16
 71
     2
 72
     2
 73
     3
 90
        0
 40
-0.6
 41
-30.0
 62
     5
 63
     8
 74
     1
 91
        4
 64
     7
 65
   257
 75
     1
175
     1
 42
1.0
 92
        8
 66
     8
 43
1.0
 76
     1
 77
     6
 78
     2
 67
     7
 79
     5
170
     0
171
     0
290
     0
174
     0
 93
        1
 44
0.0
173
     0
291
     1
 45
0.0
1001
ACAD
1000
AcDbSavedByObjectVersion
1070
     0
  0
VISUALSTYLE
  5
F9C
102
{ACAD_XDICTIONARY
360
F10A50
102
}
102
{ACAD_REACTORS
330
F93
102
}
330
F93
100
AcDbVisualStyle
  2

 70
     9
 71
     3
 72
     2
 73
     0
 90
        0
 40
-0.6
 41
-30.0
 62
     5
 63
     7
 74
     2
 91
        2
 64
     7
 65
   257
 75
     1
175
     1
 42
179.0
 92
        8
 66
     7
 43
1.0
 76
     1
 77
     6
 78
     2
 67
     7
 79
     3
170
     0
171
     0
290
     0
174
     0
 93
        1
 44
0.0
173
     0
291
     0
 45
0.0
1001
ACAD
1000
AcDbSavedByObjectVersion
1070
     0
  0
VISUALSTYLE
  5
F9E
102
{ACAD_XDICTIONARY
360
F10A54
102
}
102
{ACAD_REACTORS
330
F93
102
}
330
F93
100
AcDbVisualStyle
  2

 70
    11
 71
     2
 72
     2
 73
     0
 90
        0
 40
-0.6
 41
-30.0
 62
     5
 63
     7
 74
     1
 91
        4
 64
     7
 65
   257
 75
     1
175
     1
 42
1.0
 92
        8
 66
     7
 43
1.0
 76
     1
 77
     6
 78
     2
 67
     7
 79
     5
170
     0
171
     0
290
     0
174
     0
 93
        1
 44
-50.0
173
     0
291
     1
 45
0.0
1001
ACAD
1000
AcDbSavedByObjectVersion
1070
     0
  0
VISUALSTYLE
  5
FA6
102
{ACAD_XDICTIONARY
360
F10A64
102
}
102
{ACAD_REACTORS
330
F93
102
}
330
F93
100
AcDbVisualStyle
  2

 70
    22
 71
     2
 72
     2
 73
     0
 90
        0
 40
-0.6
 41
-30.0
 62
     5
 63
     7
 74
     1
 91
        4
 64
     7
 65
   257
 75
     1
175
     1
 42
1.0
 92
        8
 66
     7
 43
1.0
 76
     1
 77
     6
 78
     2
 67
     7
 79
     5
170
     0
171
     0
290
     0
174
     0
 93
        1
 44
0.0
173
     0
291
     1
 45
0.0
1001
ACAD
1000
AcDbSavedByObjectVersion
1070
     0
  0
VISUALSTYLE
  5
FA2
102
{ACAD_XDICTIONARY
360
F10A5C
102
}
102
{ACAD_REACTORS
330
F93
102
}
330
F93
100
AcDbVisualStyle
  2

 70
    15
 71
     2
 72
     2
 73
     0
 90
        0
 40
-0.6
 41
-30.0
 62
     5
 63
     7
 74
     1
 91
        4
 64
     7
 65
   257
 75
     1
175
     1
 42
1.0
 92
        8
 66
     7
 43
1.0
 76
     1
 77
     6
 78
     2
 67
     7
 79
     5
170
     0
171
     0
290
     0
174
     0
 93
        1
 44
0.0
173
     0
291
     1
 45
0.0
1001
ACAD
1000
AcDbSavedByObjectVersion
1070
     0
  0
VISUALSTYLE
  5
F94
102
{ACAD_XDICTIONARY
360
F10A40
102
}
102
{ACAD_REACTORS
330
F93
102
}
330
F93
100
AcDbVisualStyle
  2

 70
     0
 71
     2
 72
     1
 73
     1
 90
        2
 40
-0.6
 41
30.0
 62
     5
 63
     7
 74
     0
 91
        4
 64
     7
 65
   257
 75
     1
175
     1
 42
1.0
 92
        8
 66
     7
 43
1.0
 76
     1
 77
     6
 78
     2
 67
     7
 79
     5
170
     0
171
     0
290
     0
174
     0
 93
       13
 44
0.0
173
     0
291
     1
 45
0.0
1001
ACAD
1000
AcDbSavedByObjectVersion
1070
     0
  0
VISUALSTYLE
  5
F95
102
{ACAD_XDICTIONARY
360
F10A42
102
}
102
{ACAD_REACTORS
330
F93
102
}
330
F93
100
AcDbVisualStyle
  2

 70
     1
 71
     2
 72
     1
 73
     1
 90
        2
 40
-0.6
 41
30.0
 62
     5
 63
     7
 74
     1
 91
        4
 64
     7
 65
   257
 75
     1
175
     1
 42
1.0
 92
        0
 66
   257
 43
1.0
 76
     1
 77
     6
 78
     2
 67
     7
 79
     5
170
     0
171
     0
290
     0
174
     0
 93
       13
 44
0.0
173
     0
291
     1
 45
0.0
1001
ACAD
1000
AcDbSavedByObjectVersion
1070
     0
  0
VISUALSTYLE
  5
F96
102
{ACAD_XDICTIONARY
360
F10A44
102
}
102
{ACAD_REACTORS
330
F93
102
}
330
F93
100
AcDbVisualStyle
  2

 70
     2
 71
     2
 72
     2
 73
     1
 90
        2
 40
-0.6
 41
30.0
 62
     5
 63
     7
 74
     0
 91
        4
 64
     7
 65
   257
 75
     1
175
     1
 42
1.0
 92
        0
 66
     7
 43
1.0
 76
     1
 77
     6
 78
     2
 67
     7
 79
     5
170
     0
171
     0
290
     0
174
     0
 93
       13
 44
0.0
173
     0
291
     1
 45
0.0
1001
ACAD
1000
AcDbSavedByObjectVersion
1070
     0
  0
VISUALSTYLE
  5
F97
102
{ACAD_XDICTIONARY
360
F10A46
102
}
102
{ACAD_REACTORS
330
F93
102
}
330
F93
100
AcDbVisualStyle
  2

 70
     3
 71
     2
 72
     2
 73
     1
 90
        2
 40
-0.6
 41
30.0
 62
     5
 63
     7
 74
     1
 91
        4
 64
     7
 65
   257
 75
     1
175
     1
 42
1.0
 92
        0
 66
   257
 43
1.0
 76
     1
 77
     6
 78
     2
 67
     7
 79
     5
170
     0
171
     0
290
     0
174
     0
 93
       13
 44
0.0
173
     0
291
     1
 45
0.0
1001
ACAD
1000
AcDbSavedByObjectVersion
1070
     0
  0
VISUALSTYLE
  5
F10833
102
{ACAD_XDICTIONARY
360
F10A6D
102
}
102
{ACAD_REACTORS
330
F93
102
}
330
F93
100
AcDbVisualStyle
  2
Hidden
 70
     6
 71
     1
 72
     2
 73
     2
 90
        0
 40
-0.6
 41
-30.0
 62
     5
 63
     7
 74
     2
 91
        2
 64
     7
 65
   257
 75
     2
175
     1
 42
40.0
 92
        0
 66
   257
 43
1.0
 76
     1
 77
     6
 78
     2
 67
     7
 79
     3
170
     0
171
     0
290
     0
174
     0
 93
        1
 44
0.0
173
     0
291
     0
 45
0.0
1001
ACAD
1000
AcDbSavedByObjectVersion
1070
     0
  0
VISUALSTYLE
  5
FA4
102
{ACAD_XDICTIONARY
360
F10A60
102
}
102
{ACAD_REACTORS
330
F93
102
}
330
F93
100
AcDbVisualStyle
  2

 70
    20
 71
     2
 72
     2
 73
     0
 90
        0
 40
-0.6
 41
-30.0
 62
     5
 63
     7
 74
     1
 91
        4
 64
     7
 65
   257
 75
     1
175
     1
 42
1.0
 92
       10
 66
     7
 43
1.0
 76
     1
 77
     6
 78
     2
 67
     7
 79
     5
170
     0
171
     0
290
     0
174
     0
 93
        1
 44
0.0
173
     0
291
     1
 45
0.0
1001
ACAD
1000
AcDbSavedByObjectVersion
1070
     0
  0
VISUALSTYLE
  5
FA1
102
{ACAD_XDICTIONARY
360
F10A5A
102
}
102
{ACAD_REACTORS
330
F93
102
}
330
F93
100
AcDbVisualStyle
  2

 70
    14
 71
     2
 72
     2
 73
     0
 90
        0
 40
-0.6
 41
-30.0
 62
     5
 63
     7
 74
     1
 91
        4
 64
     7
 65
   257
 75
     7
175
     7
 42
1.0
 92
        8
 66
     7
 43
1.0
 76
     1
 77
     6
 78
     2
 67
     7
 79
     5
170
     0
171
     0
290
     0
174
     0
 93
        1
 44
0.0
173
     0
291
     1
 45
0.0
1001
ACAD
1000
AcDbSavedByObjectVersion
1070
     0
  0
VISUALSTYLE
  5
FA5
102
{ACAD_XDICTIONARY
360
F10A62
102
}
102
{ACAD_REACTORS
330
F93
102
}
330
F93
100
AcDbVisualStyle
  2

 70
    21
 71
     2
 72
     2
 73
     0
 90
        0
 40
-0.6
 41
-30.0
 62
     5
 63
     7
 74
     1
 91
        4
 64
     7
 65
   257
 75
     1
175
     1
 42
1.0
 92
        9
 66
     7
 43
1.0
 76
     1
 77
     6
 78
     2
 67
     7
 79
     5
170
     0
171
     0
290
     0
174
     0
 93
        1
 44
0.0
173
     0
291
     1
 45
0.0
1001
ACAD
1000
AcDbSavedByObjectVersion
1070
     0
  0
VISUALSTYLE
  5
F9D
102
{ACAD_XDICTIONARY
360
F10A52
102
}
102
{ACAD_REACTORS
330
F93
102
}
330
F93
100
AcDbVisualStyle
  2

 70
     8
 71
     2
 72
     2
 73
     0
 90
        0
 40
-0.6
 41
-30.0
 62
     5
 63
     7
 74
     1
 91
        0
 64
     7
 65
   257
 75
     1
175
     1
 42
1.0
 92
        8
 66
     8
 43
1.0
 76
     1
 77
     6
 78
     2
 67
     7
 79
     5
170
     0
171
     0
290
     0
174
     0
 93
       13
 44
0.0
173
     0
291
     0
 45
0.0
1001
ACAD
1000
AcDbSavedByObjectVersion
1070
     0
  0
VISUALSTYLE
  5
F10838
102
{ACAD_XDICTIONARY
360
F10A77
102
}
102
{ACAD_REACTORS
330
F93
102
}
330
F93
100
AcDbVisualStyle
  2
Shaded
 70
    27
 71
     2
 72
     2
 73
     1
 90
        2
 40
-0.6
 41
30.0
 62
     5
 63
     7
 74
     0
 91
        4
 64
     7
 65
   257
 75
     1
175
     1
 42
1.0
 92
        8
 66
   257
 43
1.0
 76
     1
 77
     6
 78
     2
 67
     8
 79
     3
170
     0
171
     0
290
     0
174
     0
 93
        5
 44
0.0
173
     0
291
     0
 45
0.0
1001
ACAD
1000
AcDbSavedByObjectVersion
1070
     0
  0
VISUALSTYLE
  5
F10837
102
{ACAD_XDICTIONARY
360
F10A75
102
}
102
{ACAD_REACTORS
330
F93
102
}
330
F93
100
AcDbVisualStyle
  2
Shaded with edges
 70
    26
 71
     2
 72
     2
 73
     1
 90
        2
 40
-0.6
 41
30.0
 62
     5
 63
     7
 74
     1
 91
       10
 64
     7
 65
   257
 75
     2
175
     1
 42
1.0
 92
        8
 66
   257
 43
1.0
 76
     1
 77
     6
 78
     2
 67
     7
 79
     3
170
     0
171
     0
290
     0
174
     0
 93
        5
 44
0.0
173
     0
291
     0
 45
0.0
1001
ACAD
1000
AcDbSavedByObjectVersion
1070
     0
  0
VISUALSTYLE
  5
F10834
102
{ACAD_XDICTIONARY
360
F10A6F
102
}
102
{ACAD_REACTORS
330
F93
102
}
330
F93
100
AcDbVisualStyle
  2
Shades of Gray
 70
    23
 71
     2
 72
     2
 73
     3
 90
        0
 40
-0.6
 41
-30.0
 62
     5
 63
     7
 74
     2
 91
        2
 64
     7
 65
     7
 75
     1
175
     1
 42
40.0
 92
        8
 66
     7
 43
1.0
 76
     1
 77
     6
 78
     2
 67
     7
 79
     3
170
     0
171
     0
290
     0
174
     0
 93
        1
 44
0.0
173
     0
291
     0
 45
0.0
1001
ACAD
1000
AcDbSavedByObjectVersion
1070
     0
  0
VISUALSTYLE
  5
F10835
102
{ACAD_XDICTIONARY
360
F10A71
102
}
102
{ACAD_REACTORS
330
F93
102
}
330
F93
100
AcDbVisualStyle
  2
Sketchy
 70
    24
 71
     1
 72
     2
 73
     2
 90
        0
 40
-0.6
 41
-30.0
 62
     5
 63
     7
 74
     2
 91
        2
 64
     7
 65
     7
 75
     1
175
     1
 42
40.0
 92
       11
 66
     7
 43
1.0
 76
     1
 77
     6
 78
     2
 67
     7
 79
     6
170
     0
171
     0
290
     0
174
     0
 93
        1
 44
0.0
173
     0
291
     0
 45
0.0
1001
ACAD
1000
AcDbSavedByObjectVersion
1070
     0
  0
VISUALSTYLE
  5
FA0
102
{ACAD_XDICTIONARY
360
F10A58
102
}
102
{ACAD_REACTORS
330
F93
102
}
330
F93
100
AcDbVisualStyle
  2

 70
    13
 71
     2
 72
     2
 73
     0
 90
        0
 40
-0.6
 41
-30.0
 62
     5
 63
     7
 74
     1
 91
        4
 64
     7
 65
   257
 75
     1
175
     1
 42
1.0
 92
       12
 66
     7
 43
1.0
 76
     1
 77
     6
 78
     2
 67
     7
 79
     5
170
     0
171
     0
290
     0
174
     0
 93
        1
 44
0.0
173
     0
291
     1
 45
0.0
1001
ACAD
1000
AcDbSavedByObjectVersion
1070
     0
  0
VISUALSTYLE
  5
F10832
102
{ACAD_XDICTIONARY
360
F10A6B
102
}
102
{ACAD_REACTORS
330
F93
102
}
330
F93
100
AcDbVisualStyle
  2
Wireframe
 70
     5
 71
     0
 72
     2
 73
     0
 90
        0
 40
-0.6
 41
-30.0
 62
     5
 63
     7
 74
     1
 91
        4
 64
     7
 65
   257
 75
     1
175
     1
 42
1.0
 92
        0
 66
   257
 43
1.0
 76
     1
 77
     6
 78
     2
 67
     7
 79
     3
170
     0
171
     0
290
     0
174
     0
 93
        1
 44
0.0
173
     0
291
     0
 45
0.0
1001
ACAD
1000
AcDbSavedByObjectVersion
1070
     0
  0
VISUALSTYLE
  5
F10836
102
{ACAD_XDICTIONARY
360
F10A73
102
}
102
{ACAD_REACTORS
330
F93
102
}
330
F93
100
AcDbVisualStyle
  2
X-Ray
 70
    25
 71
     2
 72
     2
 73
     1
 90
        1
 40
0.5
 41
-30.0
 62
     5
 63
     7
 74
     1
 91
        0
 64
     7
 65
   257
 75
     1
175
     1
 42
1.0
 92
        8
 66
     7
 43
1.0
 76
     1
 77
     6
 78
     2
 67
     7
 79
     3
170
     0
171
     0
290
     0
174
     0
 93
       13
 44
0.0
173
     0
291
     0
 45
0.0
1001
ACAD
1000
AcDbSavedByObjectVersion
1070
     0
  0
DICTIONARYVAR
  5
F10A2E
102
{ACAD_REACTORS
330
F10A2B
102
}
330
F10A2B
100
DictionaryVariables
280
     0
  1
1:1
  0
DICTIONARYVAR
  5
F10A2D
102
{ACAD_REACTORS
330
F10A2B
102
}
330
F10A2B
100
DictionaryVariables
280
     0
  1
STANDARD
  0
DICTIONARYVAR
  5
F10A2C
102
{ACAD_REACTORS
330
F10A2B
102
}
330
F10A2B
100
DictionaryVariables
280
     0
  1
STANDARD
  0
DICTIONARYVAR
  5
F10A31
102
{ACAD_REACTORS
330
F10A2B
102
}
330
F10A2B
100
DictionaryVariables
280
     0
  1
1
  0
DICTIONARYVAR
  5
F10A30
102
{ACAD_REACTORS
330
F10A2B
102
}
330
F10A2B
100
DictionaryVariables
280
     0
  1
0
  0
DICTIONARYVAR
  5
F10A2F
102
{ACAD_REACTORS
330
F10A2B
102
}
330
F10A2B
100
DictionaryVariables
280
     0
  1
127
  0
DICTIONARYVAR
  5
F10A32
102
{ACAD_REACTORS
330
F10A2B
102
}
330
F10A2B
100
DictionaryVariables
280
     0
  1
2
  0
DICTIONARY
  5
F10892
102
{ACAD_REACTORS
330
F10887
102
}
330
F10887
100
AcDbDictionary
281
     1
  0
DICTIONARY
  5
F10A69
330
FD1
100
AcDbDictionary
280
     1
281
     1
  3
ACAD_XREC_ROUNDTRIP
360
F10A6A
  0
DICTIONARY
  5
F10A67
330
FD0
100
AcDbDictionary
280
     1
281
     1
  3
ACAD_XREC_ROUNDTRIP
360
F10A68
  0
DICTIONARY
  5
F84
330
F83
100
AcDbDictionary
280
     1
281
     1
  3
ACAD_XREC_ROUNDTRIP
360
FFF
  3
BUMPTILE
360
F86
  3
DIFFUSETILE
360
F85
  3
OPACITYTILE
360
F89
  3
REFLECTIONTILE
360
F88
  3
REFRACTIONTILE
360
F8A
  3
SPECULARTILE
360
F87
  0
DICTIONARY
  5
F7C
330
F7B
100
AcDbDictionary
280
     1
281
     1
  3
ACAD_XREC_ROUNDTRIP
360
FFE
  3
BUMPTILE
360
F7E
  3
DIFFUSETILE
360
F7D
  3
OPACITYTILE
360
F81
  3
REFLECTIONTILE
360
F80
  3
REFRACTIONTILE
360
F82
  3
SPECULARTILE
360
F7F
  0
DICTIONARY
  5
F8C
330
F8B
100
AcDbDictionary
280
     1
281
     1
  3
ACAD_XREC_ROUNDTRIP
360
1000
  3
BUMPTILE
360
F8E
  3
DIFFUSETILE
360
F8D
  3
OPACITYTILE
360
F91
  3
REFLECTIONTILE
360
F90
  3
REFRACTIONTILE
360
F92
  3
SPECULARTILE
360
F8F
  0
DICTIONARY
  5
FF8
330
FA9
100
AcDbDictionary
280
     1
281
     1
  3
ACAD_ROUNDTRIP_2008_TABLESTYLE_CELLSTYLEMAP
360
F10A33
  3
ACAD_XREC_ROUNDTRIP
360
F10A66
  0
DICTIONARY
  5
F10A4A
330
F99
100
AcDbDictionary
280
     1
281
     1
  3
ACAD_XREC_ROUNDTRIP
360
F10A4B
  0
DICTIONARY
  5
F10A4E
330
F9B
100
AcDbDictionary
280
     1
281
     1
  3
ACAD_XREC_ROUNDTRIP
360
F10A4F
  0
DICTIONARY
  5
F10A4C
330
F9A
100
AcDbDictionary
280
     1
281
     1
  3
ACAD_XREC_ROUNDTRIP
360
F10A4D
  0
DICTIONARY
  5
F10A48
330
F98
100
AcDbDictionary
280
     1
281
     1
  3
ACAD_XREC_ROUNDTRIP
360
F10A49
  0
DICTIONARY
  5
F10A56
330
F9F
100
AcDbDictionary
280
     1
281
     1
  3
ACAD_XREC_ROUNDTRIP
360
F10A57
  0
DICTIONARY
  5
F10A5E
330
FA3
100
AcDbDictionary
280
     1
281
     1
  3
ACAD_XREC_ROUNDTRIP
360
F10A5F
  0
DICTIONARY
  5
F10A50
330
F9C
100
AcDbDictionary
280
     1
281
     1
  3
ACAD_XREC_ROUNDTRIP
360
F10A51
  0
DICTIONARY
  5
F10A54
330
F9E
100
AcDbDictionary
280
     1
281
     1
  3
ACAD_XREC_ROUNDTRIP
360
F10A55
  0
DICTIONARY
  5
F10A64
330
FA6
100
AcDbDictionary
280
     1
281
     1
  3
ACAD_XREC_ROUNDTRIP
360
F10A65
  0
DICTIONARY
  5
F10A5C
330
FA2
100
AcDbDictionary
280
     1
281
     1
  3
ACAD_XREC_ROUNDTRIP
360
F10A5D
  0
DICTIONARY
  5
F10A40
330
F94
100
AcDbDictionary
280
     1
281
     1
  3
ACAD_XREC_ROUNDTRIP
360
F10A41
  0
DICTIONARY
  5
F10A42
330
F95
100
AcDbDictionary
280
     1
281
     1
  3
ACAD_XREC_ROUNDTRIP
360
F10A43
  0
DICTIONARY
  5
F10A44
330
F96
100
AcDbDictionary
280
     1
281
     1
  3
ACAD_XREC_ROUNDTRIP
360
F10A45
  0
DICTIONARY
  5
F10A46
330
F97
100
AcDbDictionary
280
     1
281
     1
  3
ACAD_XREC_ROUNDTRIP
360
F10A47
  0
DICTIONARY
  5
F10A6D
330
F10833
100
AcDbDictionary
280
     1
281
     1
  3
ACAD_XREC_ROUNDTRIP
360
F10A6E
  0
DICTIONARY
  5
F10A60
330
FA4
100
AcDbDictionary
280
     1
281
     1
  3
ACAD_XREC_ROUNDTRIP
360
F10A61
  0
DICTIONARY
  5
F10A5A
330
FA1
100
AcDbDictionary
280
     1
281
     1
  3
ACAD_XREC_ROUNDTRIP
360
F10A5B
  0
DICTIONARY
  5
F10A62
330
FA5
100
AcDbDictionary
280
     1
281
     1
  3
ACAD_XREC_ROUNDTRIP
360
F10A63
  0
DICTIONARY
  5
F10A52
330
F9D
100
AcDbDictionary
280
     1
281
     1
  3
ACAD_XREC_ROUNDTRIP
360
F10A53
  0
DICTIONARY
  5
F10A77
330
F10838
100
AcDbDictionary
280
     1
281
     1
  3
ACAD_XREC_ROUNDTRIP
360
F10A78
  0
DICTIONARY
  5
F10A75
330
F10837
100
AcDbDictionary
280
     1
281
     1
  3
ACAD_XREC_ROUNDTRIP
360
F10A76
  0
DICTIONARY
  5
F10A6F
330
F10834
100
AcDbDictionary
280
     1
281
     1
  3
ACAD_XREC_ROUNDTRIP
360
F10A70
  0
DICTIONARY
  5
F10A71
330
F10835
100
AcDbDictionary
280
     1
281
     1
  3
ACAD_XREC_ROUNDTRIP
360
F10A72
  0
DICTIONARY
  5
F10A58
330
FA0
100
AcDbDictionary
280
     1
281
     1
  3
ACAD_XREC_ROUNDTRIP
360
F10A59
  0
DICTIONARY
  5
F10A6B
330
F10832
100
AcDbDictionary
280
     1
281
     1
  3
ACAD_XREC_ROUNDTRIP
360
F10A6C
  0
DICTIONARY
  5
F10A73
330
F10836
100
AcDbDictionary
280
     1
281
     1
  3
ACAD_XREC_ROUNDTRIP
360
F10A74
  0
XRECORD
  5
F10A6A
102
{ACAD_REACTORS
330
F10A69
102
}
330
F10A69
100
AcDbXrecord
280
     1
102
SHADEPLOT
 70
     0
102
SHADEPLOTRESLEVEL
 70
     2
102
SHADEPLOTCUSTOMDPI
 70
   300
  0
XRECORD
  5
F10A68
102
{ACAD_REACTORS
330
F10A67
102
}
330
F10A67
100
AcDbXrecord
280
     1
102
SHADEPLOT
 70
     0
102
SHADEPLOTRESLEVEL
 70
     2
102
SHADEPLOTCUSTOMDPI
 70
   300
  0
XRECORD
  5
FFF
102
{ACAD_REACTORS
330
F84
102
}
330
F84
100
AcDbXrecord
280
     1
102
MATERIAL
148
0.0
149
0.0
149
0.0
 93
        0
 94
      127
282
     0
 72
     0
 77
     0
171
     0
175
     0
179
     0
273
     0
  0
XRECORD
  5
F86
102
{ACAD_REACTORS
330
F84
102
}
330
F84
100
AcDbXrecord
280
     1
270
     1
271
     1
  0
XRECORD
  5
F85
102
{ACAD_REACTORS
330
F84
102
}
330
F84
100
AcDbXrecord
280
     1
270
     1
271
     1
  0
XRECORD
  5
F89
102
{ACAD_REACTORS
330
F84
102
}
330
F84
100
AcDbXrecord
280
     1
270
     1
271
     1
  0
XRECORD
  5
F88
102
{ACAD_REACTORS
330
F84
102
}
330
F84
100
AcDbXrecord
280
     1
270
     1
271
     1
  0
XRECORD
  5
F8A
102
{ACAD_REACTORS
330
F84
102
}
330
F84
100
AcDbXrecord
280
     1
270
     1
271
     1
  0
XRECORD
  5
F87
102
{ACAD_REACTORS
330
F84
102
}
330
F84
100
AcDbXrecord
280
     1
270
     1
271
     1
  0
XRECORD
  5
FFE
102
{ACAD_REACTORS
330
F7C
102
}
330
F7C
100
AcDbXrecord
280
     1
102
MATERIAL
148
0.0
149
0.0
149
0.0
 93
        0
 94
      127
282
     0
 72
     0
 77
     0
171
     0
175
     0
179
     0
273
     0
  0
XRECORD
  5
F7E
102
{ACAD_REACTORS
330
F7C
102
}
330
F7C
100
AcDbXrecord
280
     1
270
     1
271
     1
  0
XRECORD
  5
F7D
102
{ACAD_REACTORS
330
F7C
102
}
330
F7C
100
AcDbXrecord
280
     1
270
     1
271
     1
  0
XRECORD
  5
F81
102
{ACAD_REACTORS
330
F7C
102
}
330
F7C
100
AcDbXrecord
280
     1
270
     1
271
     1
  0
XRECORD
  5
F80
102
{ACAD_REACTORS
330
F7C
102
}
330
F7C
100
AcDbXrecord
280
     1
270
     1
271
     1
  0
XRECORD
  5
F82
102
{ACAD_REACTORS
330
F7C
102
}
330
F7C
100
AcDbXrecord
280
     1
270
     1
271
     1
  0
XRECORD
  5
F7F
102
{ACAD_REACTORS
330
F7C
102
}
330
F7C
100
AcDbXrecord
280
     1
270
     1
271
     1
  0
XRECORD
  5
1000
102
{ACAD_REACTORS
330
F8C
102
}
330
F8C
100
AcDbXrecord
280
     1
102
MATERIAL
148
0.0
149
0.0
149
0.0
 93
        0
 94
      127
282
     0
 72
     0
 77
     0
171
     0
175
     0
179
     0
273
     0
  0
XRECORD
  5
F8E
102
{ACAD_REACTORS
330
F8C
102
}
330
F8C
100
AcDbXrecord
280
     1
270
     1
271
     1
  0
XRECORD
  5
F8D
102
{ACAD_REACTORS
330
F8C
102
}
330
F8C
100
AcDbXrecord
280
     1
270
     1
271
     1
  0
XRECORD
  5
F91
102
{ACAD_REACTORS
330
F8C
102
}
330
F8C
100
AcDbXrecord
280
     1
270
     1
271
     1
  0
XRECORD
  5
F90
102
{ACAD_REACTORS
330
F8C
102
}
330
F8C
100
AcDbXrecord
280
     1
270
     1
271
     1
  0
XRECORD
  5
F92
102
{ACAD_REACTORS
330
F8C
102
}
330
F8C
100
AcDbXrecord
280
     1
270
     1
271
     1
  0
XRECORD
  5
F8F
102
{ACAD_REACTORS
330
F8C
102
}
330
F8C
100
AcDbXrecord
280
     1
270
     1
271
     1
  0
CELLSTYLEMAP
  5
F10A33
102
{ACAD_REACTORS
330
FF8
102
}
330
FF8
100
AcDbCellStyleMap
 90
        3
300
CELLSTYLE
  1
TABLEFORMAT_BEGIN
 90
        5
170
     1
 91
        0
 92
    32768
 62
   257
 93
        1
300
CONTENTFORMAT
  1
CONTENTFORMAT_BEGIN
 90
        0
 91
        0
 92
      512
 93
        0
300

 40
0.0
140
1.0
 94
        5
 62
     0
340
253
144
0.25
309
CONTENTFORMAT_END
171
     1
301
MARGIN
  1
CELLMARGIN_BEGIN
 40
0.06
 40
0.06
 40
0.06
 40
0.06
 40
0.18
 40
0.18
309
CELLMARGIN_END
 94
        6
 95
        1
302
GRIDFORMAT
  1
GRIDFORMAT_BEGIN
 90
        0
 91
        1
 62
     0
 92
       -2
340
0
 93
        0
 40
0.045
309
GRIDFORMAT_END
 95
        2
302
GRIDFORMAT
  1
GRIDFORMAT_BEGIN
 90
        0
 91
        1
 62
     0
 92
       -2
340
0
 93
        0
 40
0.045
309
GRIDFORMAT_END
 95
        4
302
GRIDFORMAT
  1
GRIDFORMAT_BEGIN
 90
        0
 91
        1
 62
     0
 92
       -2
340
0
 93
        0
 40
0.045
309
GRIDFORMAT_END
 95
        8
302
GRIDFORMAT
  1
GRIDFORMAT_BEGIN
 90
        0
 91
        1
 62
     0
 92
       -2
340
0
 93
        0
 40
0.045
309
GRIDFORMAT_END
 95
       16
302
GRIDFORMAT
  1
GRIDFORMAT_BEGIN
 90
        0
 91
        1
 62
     0
 92
       -2
340
0
 93
        0
 40
0.045
309
GRIDFORMAT_END
 95
       32
302
GRIDFORMAT
  1
GRIDFORMAT_BEGIN
 90
        0
 91
        1
 62
     0
 92
       -2
340
0
 93
        0
 40
0.045
309
GRIDFORMAT_END
309
TABLEFORMAT_END
  1
CELLSTYLE_BEGIN
 90
        1
 91
        1
300
_TITLE
309
CELLSTYLE_END
300
CELLSTYLE
  1
TABLEFORMAT_BEGIN
 90
        5
170
     1
 91
        0
 92
        0
 62
   257
 93
        1
300
CONTENTFORMAT
  1
CONTENTFORMAT_BEGIN
 90
        0
 91
        0
 92
      512
 93
        0
300

 40
0.0
140
1.0
 94
        5
 62
     0
340
253
144
0.18
309
CONTENTFORMAT_END
171
     1
301
MARGIN
  1
CELLMARGIN_BEGIN
 40
0.06
 40
0.06
 40
0.06
 40
0.06
 40
0.18
 40
0.18
309
CELLMARGIN_END
 94
        6
 95
        1
302
GRIDFORMAT
  1
GRIDFORMAT_BEGIN
 90
        0
 91
        1
 62
     0
 92
       -2
340
0
 93
        0
 40
0.045
309
GRIDFORMAT_END
 95
        2
302
GRIDFORMAT
  1
GRIDFORMAT_BEGIN
 90
        0
 91
        1
 62
     0
 92
       -2
340
0
 93
        0
 40
0.045
309
GRIDFORMAT_END
 95
        4
302
GRIDFORMAT
  1
GRIDFORMAT_BEGIN
 90
        0
 91
        1
 62
     0
 92
       -2
340
0
 93
        0
 40
0.045
309
GRIDFORMAT_END
 95
        8
302
GRIDFORMAT
  1
GRIDFORMAT_BEGIN
 90
        0
 91
        1
 62
     0
 92
       -2
340
0
 93
        0
 40
0.045
309
GRIDFORMAT_END
 95
       16
302
GRIDFORMAT
  1
GRIDFORMAT_BEGIN
 90
        0
 91
        1
 62
     0
 92
       -2
340
0
 93
        0
 40
0.045
309
GRIDFORMAT_END
 95
       32
302
GRIDFORMAT
  1
GRIDFORMAT_BEGIN
 90
        0
 91
        1
 62
     0
 92
       -2
340
0
 93
        0
 40
0.045
309
GRIDFORMAT_END
309
TABLEFORMAT_END
  1
CELLSTYLE_BEGIN
 90
        2
 91
        1
300
_HEADER
309
CELLSTYLE_END
300
CELLSTYLE
  1
TABLEFORMAT_BEGIN
 90
        5
170
     1
 91
        0
 92
        0
 62
   257
 93
        1
300
CONTENTFORMAT
  1
CONTENTFORMAT_BEGIN
 90
        0
 91
        0
 92
      512
 93
        0
300

 40
0.0
140
1.0
 94
        2
 62
     0
340
253
144
0.18
309
CONTENTFORMAT_END
171
     1
301
MARGIN
  1
CELLMARGIN_BEGIN
 40
0.06
 40
0.06
 40
0.06
 40
0.06
 40
0.18
 40
0.18
309
CELLMARGIN_END
 94
        6
 95
        1
302
GRIDFORMAT
  1
GRIDFORMAT_BEGIN
 90
        0
 91
        1
 62
     0
 92
       -2
340
0
 93
        0
 40
0.045
309
GRIDFORMAT_END
 95
        2
302
GRIDFORMAT
  1
GRIDFORMAT_BEGIN
 90
        0
 91
        1
 62
     0
 92
       -2
340
0
 93
        0
 40
0.045
309
GRIDFORMAT_END
 95
        4
302
GRIDFORMAT
  1
GRIDFORMAT_BEGIN
 90
        0
 91
        1
 62
     0
 92
       -2
340
0
 93
        0
 40
0.045
309
GRIDFORMAT_END
 95
        8
302
GRIDFORMAT
  1
GRIDFORMAT_BEGIN
 90
        0
 91
        1
 62
     0
 92
       -2
340
0
 93
        0
 40
0.045
309
GRIDFORMAT_END
 95
       16
302
GRIDFORMAT
  1
GRIDFORMAT_BEGIN
 90
        0
 91
        1
 62
     0
 92
       -2
340
0
 93
        0
 40
0.045
309
GRIDFORMAT_END
 95
       32
302
GRIDFORMAT
  1
GRIDFORMAT_BEGIN
 90
        0
 91
        1
 62
     0
 92
       -2
340
0
 93
        0
 40
0.045
309
GRIDFORMAT_END
309
TABLEFORMAT_END
  1
CELLSTYLE_BEGIN
 90
        3
 91
        2
300
_DATA
309
CELLSTYLE_END
  0
XRECORD
  5
F10A66
102
{ACAD_REACTORS
330
FF8
102
}
330
FF8
100
AcDbXrecord
280
     1
102
ACAD_ROUNDTRIP_PRE2007_TABLESTYLE
 90
      512
 91
        0
  1

 92
      512
 93
        0
  2

 94
      512
 95
        0
  3

  0
XRECORD
  5
F10A4B
102
{ACAD_REACTORS
330
F10A4A
102
}
330
F10A4A
100
AcDbXrecord
280
     1
102
RTVSPropertyOp0
 70
     1
102
RTVSPropertyOp1
 70
     1
102
RTVSPropertyOp2
 70
     1
102
RTVSPropertyOp3
 70
     1
102
RTVSPropertyOp4
 70
     1
102
RTVSPropertyOp5
 70
     1
102
RTVSPropertyOp6
 70
     1
102
RTVSPropertyOp7
 70
     1
102
RTVSPropertyOp8
 70
     1
102
RTVSPropertyOp9
 70
     1
102
RTVSPropertyOp10
 70
     1
102
RTVSPropertyOp11
 70
     1
102
RTVSPropertyOp12
 70
     1
102
RTVSPropertyOp13
 70
     1
102
RTVSPropertyOp14
 70
     1
102
RTVSPropertyOp15
 70
     1
102
RTVSPropertyOp16
 70
     1
102
RTVSPropertyOp17
 70
     1
102
RTVSPropertyOp18
 70
     1
102
RTVSPropertyOp19
 70
     1
102
RTVSPropertyOp20
 70
     1
102
RTVSPropertyOp21
 70
     1
102
RTVSPropertyOp22
 70
     1
102
RTVSPropertyOp23
 70
     1
102
RTVSPropertyOp24
 70
     1
102
RTVSPropertyOp25
 70
     1
102
RTVSPropertyOp26
 70
     1
102
RTVSPropertyOp27
 70
     1
102
RTVSPropertyOp28
 70
     1
102
RTVSPropertyOp29
 70
     1
102
RTVSPropertyOp30
 70
     1
102
RTVSPropertyOp31
 70
     1
102
RTVSPropertyOp32
 70
     1
  0
XRECORD
  5
F10A4F
102
{ACAD_REACTORS
330
F10A4E
102
}
330
F10A4E
100
AcDbXrecord
280
     1
102
RTVSPropertyOp0
 70
     1
102
RTVSPropertyOp1
 70
     1
102
RTVSPropertyOp2
 70
     1
102
RTVSPropertyOp3
 70
     1
102
RTVSPropertyOp4
 70
     1
102
RTVSPropertyOp5
 70
     1
102
RTVSPropertyOp6
 70
     1
102
RTVSPropertyOp7
 70
     1
102
RTVSPropertyOp8
 70
     1
102
RTVSPropertyOp9
 70
     1
102
RTVSPropertyOp10
 70
     1
102
RTVSPropertyOp11
 70
     1
102
RTVSPropertyOp12
 70
     1
102
RTVSPropertyOp13
 70
     1
102
RTVSPropertyOp14
 70
     1
102
RTVSPropertyOp15
 70
     1
102
RTVSPropertyOp16
 70
     1
102
RTVSPropertyOp17
 70
     1
102
RTVSPropertyOp18
 70
     1
102
RTVSPropertyOp19
 70
     1
102
RTVSPropertyOp20
 70
     1
102
RTVSPropertyOp21
 70
     1
102
RTVSPropertyOp22
 70
     1
102
RTVSPropertyOp23
 70
     1
102
RTVSPropertyOp24
 70
     1
102
RTVSPropertyOp25
 70
     1
102
RTVSPropertyOp26
 70
     1
102
RTVSPropertyOp27
 70
     1
102
RTVSPropertyOp28
 70
     1
102
RTVSPropertyOp29
 70
     1
102
RTVSPropertyOp30
 70
     1
102
RTVSPropertyOp31
 70
     1
102
RTVSPropertyOp32
 70
     1
  0
XRECORD
  5
F10A4D
102
{ACAD_REACTORS
330
F10A4C
102
}
330
F10A4C
100
AcDbXrecord
280
     1
102
RTVSPropertyOp0
 70
     1
102
RTVSPropertyOp1
 70
     1
102
RTVSPropertyOp2
 70
     1
102
RTVSPropertyOp3
 70
     1
102
RTVSPropertyOp4
 70
     1
102
RTVSPropertyOp5
 70
     1
102
RTVSPropertyOp6
 70
     1
102
RTVSPropertyOp7
 70
     1
102
RTVSPropertyOp8
 70
     1
102
RTVSPropertyOp9
 70
     1
102
RTVSPropertyOp10
 70
     1
102
RTVSPropertyOp11
 70
     1
102
RTVSPropertyOp12
 70
     1
102
RTVSPropertyOp13
 70
     1
102
RTVSPropertyOp14
 70
     1
102
RTVSPropertyOp15
 70
     1
102
RTVSPropertyOp16
 70
     1
102
RTVSPropertyOp17
 70
     1
102
RTVSPropertyOp18
 70
     1
102
RTVSPropertyOp19
 70
     1
102
RTVSPropertyOp20
 70
     1
102
RTVSPropertyOp21
 70
     1
102
RTVSPropertyOp22
 70
     1
102
RTVSPropertyOp23
 70
     1
102
RTVSPropertyOp24
 70
     1
102
RTVSPropertyOp25
 70
     1
102
RTVSPropertyOp26
 70
     1
102
RTVSPropertyOp27
 70
     1
102
RTVSPropertyOp28
 70
     1
102
RTVSPropertyOp29
 70
     1
102
RTVSPropertyOp30
 70
     1
102
RTVSPropertyOp31
 70
     1
102
RTVSPropertyOp32
 70
     1
  0
XRECORD
  5
F10A49
102
{ACAD_REACTORS
330
F10A48
102
}
330
F10A48
100
AcDbXrecord
280
     1
102
RTVSPropertyOp0
 70
     1
102
RTVSPropertyOp1
 70
     1
102
RTVSPropertyOp2
 70
     1
102
RTVSPropertyOp3
 70
     1
102
RTVSPropertyOp4
 70
     1
102
RTVSPropertyOp5
 70
     1
102
RTVSPropertyOp6
 70
     1
102
RTVSPropertyOp7
 70
     1
102
RTVSPropertyOp8
 70
     1
102
RTVSPropertyOp9
 70
     1
102
RTVSPropertyOp10
 70
     1
102
RTVSPropertyOp11
 70
     1
102
RTVSPropertyOp12
 70
     1
102
RTVSPropertyOp13
 70
     1
102
RTVSPropertyOp14
 70
     1
102
RTVSPropertyOp15
 70
     1
102
RTVSPropertyOp16
 70
     1
102
RTVSPropertyOp17
 70
     1
102
RTVSPropertyOp18
 70
     1
102
RTVSPropertyOp19
 70
     1
102
RTVSPropertyOp20
 70
     1
102
RTVSPropertyOp21
 70
     1
102
RTVSPropertyOp22
 70
     1
102
RTVSPropertyOp23
 70
     1
102
RTVSPropertyOp24
 70
     1
102
RTVSPropertyOp25
 70
     1
102
RTVSPropertyOp26
 70
     1
102
RTVSPropertyOp27
 70
     1
102
RTVSPropertyOp28
 70
     1
102
RTVSPropertyOp29
 70
     1
102
RTVSPropertyOp30
 70
     1
102
RTVSPropertyOp31
 70
     1
102
RTVSPropertyOp32
 70
     1
  0
XRECORD
  5
F10A57
102
{ACAD_REACTORS
330
F10A56
102
}
330
F10A56
100
AcDbXrecord
280
     1
102
RTVSPropertyOp0
 70
     1
102
RTVSPropertyOp1
 70
     1
102
RTVSPropertyOp2
 70
     1
102
RTVSPropertyOp3
 70
     1
102
RTVSPropertyOp4
 70
     1
102
RTVSPropertyOp5
 70
     1
102
RTVSPropertyOp6
 70
     1
102
RTVSPropertyOp7
 70
     1
102
RTVSPropertyOp8
 70
     1
102
RTVSPropertyOp9
 70
     1
102
RTVSPropertyOp10
 70
     1
102
RTVSPropertyOp11
 70
     1
102
RTVSPropertyOp12
 70
     1
102
RTVSPropertyOp13
 70
     1
102
RTVSPropertyOp14
 70
     1
102
RTVSPropertyOp15
 70
     1
102
RTVSPropertyOp16
 70
     1
102
RTVSPropertyOp17
 70
     1
102
RTVSPropertyOp18
 70
     1
102
RTVSPropertyOp19
 70
     1
102
RTVSPropertyOp20
 70
     1
102
RTVSPropertyOp21
 70
     1
102
RTVSPropertyOp22
 70
     1
102
RTVSPropertyOp23
 70
     1
102
RTVSPropertyOp24
 70
     1
102
RTVSPropertyOp25
 70
     1
102
RTVSPropertyOp26
 70
     1
102
RTVSPropertyOp27
 70
     1
102
RTVSPropertyOp28
 70
     1
102
RTVSPropertyOp29
 70
     1
102
RTVSPropertyOp30
 70
     1
102
RTVSPropertyOp31
 70
     1
102
RTVSPropertyOp32
 70
     1
  0
XRECORD
  5
F10A5F
102
{ACAD_REACTORS
330
F10A5E
102
}
330
F10A5E
100
AcDbXrecord
280
     1
102
RTVSPropertyOp0
 70
     1
102
RTVSPropertyOp1
 70
     1
102
RTVSPropertyOp2
 70
     1
102
RTVSPropertyOp3
 70
     1
102
RTVSPropertyOp4
 70
     1
102
RTVSPropertyOp5
 70
     1
102
RTVSPropertyOp6
 70
     1
102
RTVSPropertyOp7
 70
     1
102
RTVSPropertyOp8
 70
     1
102
RTVSPropertyOp9
 70
     1
102
RTVSPropertyOp10
 70
     1
102
RTVSPropertyOp11
 70
     1
102
RTVSPropertyOp12
 70
     1
102
RTVSPropertyOp13
 70
     1
102
RTVSPropertyOp14
 70
     1
102
RTVSPropertyOp15
 70
     1
102
RTVSPropertyOp16
 70
     1
102
RTVSPropertyOp17
 70
     1
102
RTVSPropertyOp18
 70
     1
102
RTVSPropertyOp19
 70
     1
102
RTVSPropertyOp20
 70
     1
102
RTVSPropertyOp21
 70
     1
102
RTVSPropertyOp22
 70
     1
102
RTVSPropertyOp23
 70
     1
102
RTVSPropertyOp24
 70
     1
102
RTVSPropertyOp25
 70
     1
102
RTVSPropertyOp26
 70
     1
102
RTVSPropertyOp27
 70
     1
102
RTVSPropertyOp28
 70
     1
102
RTVSPropertyOp29
 70
     1
102
RTVSPropertyOp30
 70
     1
102
RTVSPropertyOp31
 70
     1
102
RTVSPropertyOp32
 70
     1
  0
XRECORD
  5
F10A51
102
{ACAD_REACTORS
330
F10A50
102
}
330
F10A50
100
AcDbXrecord
280
     1
102
RTVSPropertyOp0
 70
     1
102
RTVSPropertyOp1
 70
     1
102
RTVSPropertyOp2
 70
     1
102
RTVSPropertyOp3
 70
     1
102
RTVSPropertyOp4
 70
     1
102
RTVSPropertyOp5
 70
     1
102
RTVSPropertyOp6
 70
     1
102
RTVSPropertyOp7
 70
     1
102
RTVSPropertyOp8
 70
     1
102
RTVSPropertyOp9
 70
     1
102
RTVSPropertyOp10
 70
     1
102
RTVSPropertyOp11
 70
     1
102
RTVSPropertyOp12
 70
     1
102
RTVSPropertyOp13
 70
     1
102
RTVSPropertyOp14
 70
     1
102
RTVSPropertyOp15
 70
     1
102
RTVSPropertyOp16
 70
     1
102
RTVSPropertyOp17
 70
     1
102
RTVSPropertyOp18
 70
     1
102
RTVSPropertyOp19
 70
     1
102
RTVSPropertyOp20
 70
     1
102
RTVSPropertyOp21
 70
     1
102
RTVSPropertyOp22
 70
     1
102
RTVSPropertyOp23
 70
     1
102
RTVSPropertyOp24
 70
     1
102
RTVSPropertyOp25
 70
     1
102
RTVSPropertyOp26
 70
     1
102
RTVSPropertyOp27
 70
     1
102
RTVSPropertyOp28
 70
     1
102
RTVSPropertyOp29
 70
     1
102
RTVSPropertyOp30
 70
     1
102
RTVSPropertyOp31
 70
     1
102
RTVSPropertyOp32
 70
     1
  0
XRECORD
  5
F10A55
102
{ACAD_REACTORS
330
F10A54
102
}
330
F10A54
100
AcDbXrecord
280
     1
102
RTVSPropertyOp0
 70
     1
102
RTVSPropertyOp1
 70
     1
102
RTVSPropertyOp2
 70
     1
102
RTVSPropertyOp3
 70
     1
102
RTVSPropertyOp4
 70
     1
102
RTVSPropertyOp5
 70
     1
102
RTVSPropertyOp6
 70
     1
102
RTVSPropertyOp7
 70
     1
102
RTVSPropertyOp8
 70
     1
102
RTVSPropertyOp9
 70
     1
102
RTVSPropertyOp10
 70
     1
102
RTVSPropertyOp11
 70
     1
102
RTVSPropertyOp12
 70
     1
102
RTVSPropertyOp13
 70
     1
102
RTVSPropertyOp14
 70
     1
102
RTVSPropertyOp15
 70
     1
102
RTVSPropertyOp16
 70
     1
102
RTVSPropertyOp17
 70
     1
102
RTVSPropertyOp18
 70
     1
102
RTVSPropertyOp19
 70
     1
102
RTVSPropertyOp20
 70
     1
102
RTVSPropertyOp21
 70
     1
102
RTVSPropertyOp22
 70
     1
102
RTVSPropertyOp23
 70
     1
102
RTVSPropertyOp24
 70
     1
102
RTVSPropertyOp25
 70
     1
102
RTVSPropertyOp26
 70
     1
102
RTVSPropertyOp27
 70
     1
102
RTVSPropertyOp28
 70
     1
102
RTVSPropertyOp29
 70
     1
102
RTVSPropertyOp30
 70
     1
102
RTVSPropertyOp31
 70
     1
102
RTVSPropertyOp32
 70
     1
  0
XRECORD
  5
F10A65
102
{ACAD_REACTORS
330
F10A64
102
}
330
F10A64
100
AcDbXrecord
280
     1
102
RTVSPropertyOp0
 70
     0
102
RTVSPropertyOp1
 70
     0
102
RTVSPropertyOp2
 70
     0
102
RTVSPropertyOp3
 70
     0
102
RTVSPropertyOp4
 70
     0
102
RTVSPropertyOp5
 70
     0
102
RTVSPropertyOp6
 70
     0
102
RTVSPropertyOp7
 70
     0
102
RTVSPropertyOp8
 70
     0
102
RTVSPropertyOp9
 70
     0
102
RTVSPropertyOp10
 70
     0
102
RTVSPropertyOp11
 70
     0
102
RTVSPropertyOp12
 70
     0
102
RTVSPropertyOp13
 70
     0
102
RTVSPropertyOp14
 70
     2
102
RTVSPropertyOp15
 70
     0
102
RTVSPropertyOp16
 70
     0
102
RTVSPropertyOp17
 70
     0
102
RTVSPropertyOp18
 70
     0
102
RTVSPropertyOp19
 70
     0
102
RTVSPropertyOp20
 70
     0
102
RTVSPropertyOp21
 70
     0
102
RTVSPropertyOp22
 70
     0
102
RTVSPropertyOp23
 70
     0
102
RTVSPropertyOp24
 70
     0
102
RTVSPropertyOp25
 70
     0
102
RTVSPropertyOp26
 70
     0
102
RTVSPropertyOp27
 70
     0
102
RTVSPropertyOp28
 70
     1
102
RTVSPropertyOp29
 70
     1
102
RTVSPropertyOp30
 70
     1
102
RTVSPropertyOp31
 70
     1
102
RTVSPropertyOp32
 70
     1
  0
XRECORD
  5
F10A5D
102
{ACAD_REACTORS
330
F10A5C
102
}
330
F10A5C
100
AcDbXrecord
280
     1
102
RTVSPropertyOp0
 70
     1
102
RTVSPropertyOp1
 70
     1
102
RTVSPropertyOp2
 70
     1
102
RTVSPropertyOp3
 70
     1
102
RTVSPropertyOp4
 70
     1
102
RTVSPropertyOp5
 70
     1
102
RTVSPropertyOp6
 70
     1
102
RTVSPropertyOp7
 70
     1
102
RTVSPropertyOp8
 70
     1
102
RTVSPropertyOp9
 70
     1
102
RTVSPropertyOp10
 70
     1
102
RTVSPropertyOp11
 70
     1
102
RTVSPropertyOp12
 70
     1
102
RTVSPropertyOp13
 70
     1
102
RTVSPropertyOp14
 70
     1
102
RTVSPropertyOp15
 70
     1
102
RTVSPropertyOp16
 70
     1
102
RTVSPropertyOp17
 70
     1
102
RTVSPropertyOp18
 70
     1
102
RTVSPropertyOp19
 70
     1
102
RTVSPropertyOp20
 70
     1
102
RTVSPropertyOp21
 70
     1
102
RTVSPropertyOp22
 70
     1
102
RTVSPropertyOp23
 70
     1
102
RTVSPropertyOp24
 70
     1
102
RTVSPropertyOp25
 70
     1
102
RTVSPropertyOp26
 70
     1
102
RTVSPropertyOp27
 70
     1
102
RTVSPropertyOp28
 70
     1
102
RTVSPropertyOp29
 70
     1
102
RTVSPropertyOp30
 70
     1
102
RTVSPropertyOp31
 70
     1
102
RTVSPropertyOp32
 70
     1
  0
XRECORD
  5
F10A41
102
{ACAD_REACTORS
330
F10A40
102
}
330
F10A40
100
AcDbXrecord
280
     1
102
RTVSPropertyOp0
 70
     1
102
RTVSPropertyOp1
 70
     1
102
RTVSPropertyOp2
 70
     1
102
RTVSPropertyOp3
 70
     1
102
RTVSPropertyOp4
 70
     1
102
RTVSPropertyOp5
 70
     1
102
RTVSPropertyOp6
 70
     1
102
RTVSPropertyOp7
 70
     1
102
RTVSPropertyOp8
 70
     1
102
RTVSPropertyOp9
 70
     1
102
RTVSPropertyOp10
 70
     1
102
RTVSPropertyOp11
 70
     1
102
RTVSPropertyOp12
 70
     1
102
RTVSPropertyOp13
 70
     1
102
RTVSPropertyOp14
 70
     1
102
RTVSPropertyOp15
 70
     1
102
RTVSPropertyOp16
 70
     1
102
RTVSPropertyOp17
 70
     1
102
RTVSPropertyOp18
 70
     1
102
RTVSPropertyOp19
 70
     1
102
RTVSPropertyOp20
 70
     1
102
RTVSPropertyOp21
 70
     1
102
RTVSPropertyOp22
 70
     1
102
RTVSPropertyOp23
 70
     1
102
RTVSPropertyOp24
 70
     1
102
RTVSPropertyOp25
 70
     1
102
RTVSPropertyOp26
 70
     1
102
RTVSPropertyOp27
 70
     1
102
RTVSPropertyOp28
 70
     1
102
RTVSPropertyOp29
 70
     1
102
RTVSPropertyOp30
 70
     1
102
RTVSPropertyOp31
 70
     1
102
RTVSPropertyOp32
 70
     1
  0
XRECORD
  5
F10A43
102
{ACAD_REACTORS
330
F10A42
102
}
330
F10A42
100
AcDbXrecord
280
     1
102
RTVSPropertyOp0
 70
     1
102
RTVSPropertyOp1
 70
     1
102
RTVSPropertyOp2
 70
     1
102
RTVSPropertyOp3
 70
     1
102
RTVSPropertyOp4
 70
     1
102
RTVSPropertyOp5
 70
     1
102
RTVSPropertyOp6
 70
     1
102
RTVSPropertyOp7
 70
     1
102
RTVSPropertyOp8
 70
     1
102
RTVSPropertyOp9
 70
     1
102
RTVSPropertyOp10
 70
     1
102
RTVSPropertyOp11
 70
     1
102
RTVSPropertyOp12
 70
     1
102
RTVSPropertyOp13
 70
     1
102
RTVSPropertyOp14
 70
     1
102
RTVSPropertyOp15
 70
     1
102
RTVSPropertyOp16
 70
     1
102
RTVSPropertyOp17
 70
     1
102
RTVSPropertyOp18
 70
     1
102
RTVSPropertyOp19
 70
     1
102
RTVSPropertyOp20
 70
     1
102
RTVSPropertyOp21
 70
     1
102
RTVSPropertyOp22
 70
     1
102
RTVSPropertyOp23
 70
     1
102
RTVSPropertyOp24
 70
     1
102
RTVSPropertyOp25
 70
     1
102
RTVSPropertyOp26
 70
     1
102
RTVSPropertyOp27
 70
     1
102
RTVSPropertyOp28
 70
     1
102
RTVSPropertyOp29
 70
     1
102
RTVSPropertyOp30
 70
     1
102
RTVSPropertyOp31
 70
     1
102
RTVSPropertyOp32
 70
     1
  0
XRECORD
  5
F10A45
102
{ACAD_REACTORS
330
F10A44
102
}
330
F10A44
100
AcDbXrecord
280
     1
102
RTVSPropertyOp0
 70
     1
102
RTVSPropertyOp1
 70
     1
102
RTVSPropertyOp2
 70
     1
102
RTVSPropertyOp3
 70
     1
102
RTVSPropertyOp4
 70
     1
102
RTVSPropertyOp5
 70
     1
102
RTVSPropertyOp6
 70
     1
102
RTVSPropertyOp7
 70
     1
102
RTVSPropertyOp8
 70
     1
102
RTVSPropertyOp9
 70
     1
102
RTVSPropertyOp10
 70
     1
102
RTVSPropertyOp11
 70
     1
102
RTVSPropertyOp12
 70
     1
102
RTVSPropertyOp13
 70
     1
102
RTVSPropertyOp14
 70
     1
102
RTVSPropertyOp15
 70
     1
102
RTVSPropertyOp16
 70
     1
102
RTVSPropertyOp17
 70
     1
102
RTVSPropertyOp18
 70
     1
102
RTVSPropertyOp19
 70
     1
102
RTVSPropertyOp20
 70
     1
102
RTVSPropertyOp21
 70
     1
102
RTVSPropertyOp22
 70
     1
102
RTVSPropertyOp23
 70
     1
102
RTVSPropertyOp24
 70
     1
102
RTVSPropertyOp25
 70
     1
102
RTVSPropertyOp26
 70
     1
102
RTVSPropertyOp27
 70
     1
102
RTVSPropertyOp28
 70
     1
102
RTVSPropertyOp29
 70
     1
102
RTVSPropertyOp30
 70
     1
102
RTVSPropertyOp31
 70
     1
102
RTVSPropertyOp32
 70
     1
  0
XRECORD
  5
F10A47
102
{ACAD_REACTORS
330
F10A46
102
}
330
F10A46
100
AcDbXrecord
280
     1
102
RTVSPropertyOp0
 70
     1
102
RTVSPropertyOp1
 70
     1
102
RTVSPropertyOp2
 70
     1
102
RTVSPropertyOp3
 70
     1
102
RTVSPropertyOp4
 70
     1
102
RTVSPropertyOp5
 70
     1
102
RTVSPropertyOp6
 70
     1
102
RTVSPropertyOp7
 70
     1
102
RTVSPropertyOp8
 70
     1
102
RTVSPropertyOp9
 70
     1
102
RTVSPropertyOp10
 70
     1
102
RTVSPropertyOp11
 70
     1
102
RTVSPropertyOp12
 70
     1
102
RTVSPropertyOp13
 70
     1
102
RTVSPropertyOp14
 70
     1
102
RTVSPropertyOp15
 70
     1
102
RTVSPropertyOp16
 70
     1
102
RTVSPropertyOp17
 70
     1
102
RTVSPropertyOp18
 70
     1
102
RTVSPropertyOp19
 70
     1
102
RTVSPropertyOp20
 70
     1
102
RTVSPropertyOp21
 70
     1
102
RTVSPropertyOp22
 70
     1
102
RTVSPropertyOp23
 70
     1
102
RTVSPropertyOp24
 70
     1
102
RTVSPropertyOp25
 70
     1
102
RTVSPropertyOp26
 70
     1
102
RTVSPropertyOp27
 70
     1
102
RTVSPropertyOp28
 70
     1
102
RTVSPropertyOp29
 70
     1
102
RTVSPropertyOp30
 70
     1
102
RTVSPropertyOp31
 70
     1
102
RTVSPropertyOp32
 70
     1
  0
XRECORD
  5
F10A6E
102
{ACAD_REACTORS
330
F10A6D
102
}
330
F10A6D
100
AcDbXrecord
280
     1
102
RTVSPropertyOp0
 70
     1
102
RTVSPropertyOp1
 70
     1
102
RTVSPropertyOp2
 70
     1
102
RTVSPropertyOp3
 70
     1
102
RTVSPropertyOp4
 70
     1
102
RTVSPropertyOp5
 70
     1
102
RTVSPropertyOp6
 70
     1
102
RTVSPropertyOp7
 70
     1
102
RTVSPropertyOp8
 70
     1
102
RTVSPropertyOp9
 70
     1
102
RTVSPropertyOp10
 70
     1
102
RTVSPropertyOp11
 70
     1
102
RTVSPropertyOp12
 70
     1
102
RTVSPropertyOp13
 70
     1
102
RTVSPropertyOp14
 70
     1
102
RTVSPropertyOp15
 70
     1
102
RTVSPropertyOp16
 70
     1
102
RTVSPropertyOp17
 70
     1
102
RTVSPropertyOp18
 70
     1
102
RTVSPropertyOp19
 70
     1
102
RTVSPropertyOp20
 70
     1
102
RTVSPropertyOp21
 70
     1
102
RTVSPropertyOp22
 70
     1
102
RTVSPropertyOp23
 70
     1
102
RTVSPropertyOp24
 70
     1
102
RTVSPropertyOp25
 70
     1
102
RTVSPropertyOp26
 70
     1
102
RTVSPropertyOp27
 70
     1
102
RTVSPropertyOp28
 70
     1
102
RTVSPropertyOp29
 70
     1
102
RTVSPropertyOp30
 70
     1
102
RTVSPropertyOp31
 70
     1
102
RTVSPropertyOp32
 70
     1
  0
XRECORD
  5
F10A61
102
{ACAD_REACTORS
330
F10A60
102
}
330
F10A60
100
AcDbXrecord
280
     1
102
RTVSPropertyOp0
 70
     0
102
RTVSPropertyOp1
 70
     0
102
RTVSPropertyOp2
 70
     0
102
RTVSPropertyOp3
 70
     0
102
RTVSPropertyOp4
 70
     0
102
RTVSPropertyOp5
 70
     0
102
RTVSPropertyOp6
 70
     0
102
RTVSPropertyOp7
 70
     0
102
RTVSPropertyOp8
 70
     0
102
RTVSPropertyOp9
 70
     0
102
RTVSPropertyOp10
 70
     0
102
RTVSPropertyOp11
 70
     0
102
RTVSPropertyOp12
 70
     0
102
RTVSPropertyOp13
 70
     0
102
RTVSPropertyOp14
 70
     2
102
RTVSPropertyOp15
 70
     0
102
RTVSPropertyOp16
 70
     0
102
RTVSPropertyOp17
 70
     0
102
RTVSPropertyOp18
 70
     0
102
RTVSPropertyOp19
 70
     0
102
RTVSPropertyOp20
 70
     0
102
RTVSPropertyOp21
 70
     0
102
RTVSPropertyOp22
 70
     0
102
RTVSPropertyOp23
 70
     0
102
RTVSPropertyOp24
 70
     0
102
RTVSPropertyOp25
 70
     0
102
RTVSPropertyOp26
 70
     0
102
RTVSPropertyOp27
 70
     0
102
RTVSPropertyOp28
 70
     1
102
RTVSPropertyOp29
 70
     1
102
RTVSPropertyOp30
 70
     1
102
RTVSPropertyOp31
 70
     1
102
RTVSPropertyOp32
 70
     1
  0
XRECORD
  5
F10A5B
102
{ACAD_REACTORS
330
F10A5A
102
}
330
F10A5A
100
AcDbXrecord
280
     1
102
RTVSPropertyOp0
 70
     1
102
RTVSPropertyOp1
 70
     1
102
RTVSPropertyOp2
 70
     1
102
RTVSPropertyOp3
 70
     1
102
RTVSPropertyOp4
 70
     1
102
RTVSPropertyOp5
 70
     1
102
RTVSPropertyOp6
 70
     1
102
RTVSPropertyOp7
 70
     1
102
RTVSPropertyOp8
 70
     1
102
RTVSPropertyOp9
 70
     1
102
RTVSPropertyOp10
 70
     1
102
RTVSPropertyOp11
 70
     1
102
RTVSPropertyOp12
 70
     1
102
RTVSPropertyOp13
 70
     1
102
RTVSPropertyOp14
 70
     1
102
RTVSPropertyOp15
 70
     1
102
RTVSPropertyOp16
 70
     1
102
RTVSPropertyOp17
 70
     1
102
RTVSPropertyOp18
 70
     1
102
RTVSPropertyOp19
 70
     1
102
RTVSPropertyOp20
 70
     1
102
RTVSPropertyOp21
 70
     1
102
RTVSPropertyOp22
 70
     1
102
RTVSPropertyOp23
 70
     1
102
RTVSPropertyOp24
 70
     1
102
RTVSPropertyOp25
 70
     1
102
RTVSPropertyOp26
 70
     1
102
RTVSPropertyOp27
 70
     1
102
RTVSPropertyOp28
 70
     1
102
RTVSPropertyOp29
 70
     1
102
RTVSPropertyOp30
 70
     1
102
RTVSPropertyOp31
 70
     1
102
RTVSPropertyOp32
 70
     1
  0
XRECORD
  5
F10A63
102
{ACAD_REACTORS
330
F10A62
102
}
330
F10A62
100
AcDbXrecord
280
     1
102
RTVSPropertyOp0
 70
     0
102
RTVSPropertyOp1
 70
     0
102
RTVSPropertyOp2
 70
     0
102
RTVSPropertyOp3
 70
     0
102
RTVSPropertyOp4
 70
     0
102
RTVSPropertyOp5
 70
     0
102
RTVSPropertyOp6
 70
     0
102
RTVSPropertyOp7
 70
     0
102
RTVSPropertyOp8
 70
     0
102
RTVSPropertyOp9
 70
     0
102
RTVSPropertyOp10
 70
     0
102
RTVSPropertyOp11
 70
     0
102
RTVSPropertyOp12
 70
     0
102
RTVSPropertyOp13
 70
     0
102
RTVSPropertyOp14
 70
     2
102
RTVSPropertyOp15
 70
     0
102
RTVSPropertyOp16
 70
     0
102
RTVSPropertyOp17
 70
     0
102
RTVSPropertyOp18
 70
     0
102
RTVSPropertyOp19
 70
     0
102
RTVSPropertyOp20
 70
     0
102
RTVSPropertyOp21
 70
     0
102
RTVSPropertyOp22
 70
     0
102
RTVSPropertyOp23
 70
     0
102
RTVSPropertyOp24
 70
     0
102
RTVSPropertyOp25
 70
     0
102
RTVSPropertyOp26
 70
     0
102
RTVSPropertyOp27
 70
     0
102
RTVSPropertyOp28
 70
     1
102
RTVSPropertyOp29
 70
     1
102
RTVSPropertyOp30
 70
     1
102
RTVSPropertyOp31
 70
     1
102
RTVSPropertyOp32
 70
     1
  0
XRECORD
  5
F10A53
102
{ACAD_REACTORS
330
F10A52
102
}
330
F10A52
100
AcDbXrecord
280
     1
102
RTVSPropertyOp0
 70
     1
102
RTVSPropertyOp1
 70
     1
102
RTVSPropertyOp2
 70
     1
102
RTVSPropertyOp3
 70
     1
102
RTVSPropertyOp4
 70
     1
102
RTVSPropertyOp5
 70
     1
102
RTVSPropertyOp6
 70
     1
102
RTVSPropertyOp7
 70
     1
102
RTVSPropertyOp8
 70
     1
102
RTVSPropertyOp9
 70
     1
102
RTVSPropertyOp10
 70
     1
102
RTVSPropertyOp11
 70
     1
102
RTVSPropertyOp12
 70
     1
102
RTVSPropertyOp13
 70
     1
102
RTVSPropertyOp14
 70
     1
102
RTVSPropertyOp15
 70
     1
102
RTVSPropertyOp16
 70
     1
102
RTVSPropertyOp17
 70
     1
102
RTVSPropertyOp18
 70
     1
102
RTVSPropertyOp19
 70
     1
102
RTVSPropertyOp20
 70
     1
102
RTVSPropertyOp21
 70
     1
102
RTVSPropertyOp22
 70
     1
102
RTVSPropertyOp23
 70
     1
102
RTVSPropertyOp24
 70
     1
102
RTVSPropertyOp25
 70
     1
102
RTVSPropertyOp26
 70
     1
102
RTVSPropertyOp27
 70
     1
102
RTVSPropertyOp28
 70
     1
102
RTVSPropertyOp29
 70
     1
102
RTVSPropertyOp30
 70
     1
102
RTVSPropertyOp31
 70
     1
102
RTVSPropertyOp32
 70
     1
  0
XRECORD
  5
F10A78
102
{ACAD_REACTORS
330
F10A77
102
}
330
F10A77
100
AcDbXrecord
280
     1
102
RTVSPropertyOp0
 70
     1
102
RTVSPropertyOp1
 70
     1
102
RTVSPropertyOp2
 70
     1
102
RTVSPropertyOp3
 70
     1
102
RTVSPropertyOp4
 70
     1
102
RTVSPropertyOp5
 70
     1
102
RTVSPropertyOp6
 70
     1
102
RTVSPropertyOp7
 70
     1
102
RTVSPropertyOp8
 70
     1
102
RTVSPropertyOp9
 70
     1
102
RTVSPropertyOp10
 70
     1
102
RTVSPropertyOp11
 70
     1
102
RTVSPropertyOp12
 70
     1
102
RTVSPropertyOp13
 70
     1
102
RTVSPropertyOp14
 70
     1
102
RTVSPropertyOp15
 70
     1
102
RTVSPropertyOp16
 70
     1
102
RTVSPropertyOp17
 70
     1
102
RTVSPropertyOp18
 70
     1
102
RTVSPropertyOp19
 70
     1
102
RTVSPropertyOp20
 70
     1
102
RTVSPropertyOp21
 70
     1
102
RTVSPropertyOp22
 70
     1
102
RTVSPropertyOp23
 70
     1
102
RTVSPropertyOp24
 70
     1
102
RTVSPropertyOp25
 70
     1
102
RTVSPropertyOp26
 70
     1
102
RTVSPropertyOp27
 70
     1
102
RTVSPropertyOp28
 70
     1
102
RTVSPropertyOp29
 70
     1
102
RTVSPropertyOp30
 70
     1
102
RTVSPropertyOp31
 70
     1
102
RTVSPropertyOp32
 70
     1
  0
XRECORD
  5
F10A76
102
{ACAD_REACTORS
330
F10A75
102
}
330
F10A75
100
AcDbXrecord
280
     1
102
RTVSPropertyOp0
 70
     1
102
RTVSPropertyOp1
 70
     1
102
RTVSPropertyOp2
 70
     1
102
RTVSPropertyOp3
 70
     1
102
RTVSPropertyOp4
 70
     1
102
RTVSPropertyOp5
 70
     1
102
RTVSPropertyOp6
 70
     1
102
RTVSPropertyOp7
 70
     1
102
RTVSPropertyOp8
 70
     1
102
RTVSPropertyOp9
 70
     1
102
RTVSPropertyOp10
 70
     1
102
RTVSPropertyOp11
 70
     1
102
RTVSPropertyOp12
 70
     1
102
RTVSPropertyOp13
 70
     1
102
RTVSPropertyOp14
 70
     1
102
RTVSPropertyOp15
 70
     1
102
RTVSPropertyOp16
 70
     1
102
RTVSPropertyOp17
 70
     1
102
RTVSPropertyOp18
 70
     1
102
RTVSPropertyOp19
 70
     1
102
RTVSPropertyOp20
 70
     1
102
RTVSPropertyOp21
 70
     1
102
RTVSPropertyOp22
 70
     1
102
RTVSPropertyOp23
 70
     1
102
RTVSPropertyOp24
 70
     1
102
RTVSPropertyOp25
 70
     1
102
RTVSPropertyOp26
 70
     1
102
RTVSPropertyOp27
 70
     1
102
RTVSPropertyOp28
 70
     1
102
RTVSPropertyOp29
 70
     1
102
RTVSPropertyOp30
 70
     1
102
RTVSPropertyOp31
 70
     1
102
RTVSPropertyOp32
 70
     1
  0
XRECORD
  5
F10A70
102
{ACAD_REACTORS
330
F10A6F
102
}
330
F10A6F
100
AcDbXrecord
280
     1
102
RTVSPropertyOp0
 70
     1
102
RTVSPropertyOp1
 70
     1
102
RTVSPropertyOp2
 70
     1
102
RTVSPropertyOp3
 70
     1
102
RTVSPropertyOp4
 70
     1
102
RTVSPropertyOp5
 70
     1
102
RTVSPropertyOp6
 70
     1
102
RTVSPropertyOp7
 70
     1
102
RTVSPropertyOp8
 70
     1
102
RTVSPropertyOp9
 70
     1
102
RTVSPropertyOp10
 70
     1
102
RTVSPropertyOp11
 70
     1
102
RTVSPropertyOp12
 70
     1
102
RTVSPropertyOp13
 70
     1
102
RTVSPropertyOp14
 70
     1
102
RTVSPropertyOp15
 70
     1
102
RTVSPropertyOp16
 70
     1
102
RTVSPropertyOp17
 70
     1
102
RTVSPropertyOp18
 70
     1
102
RTVSPropertyOp19
 70
     1
102
RTVSPropertyOp20
 70
     1
102
RTVSPropertyOp21
 70
     1
102
RTVSPropertyOp22
 70
     1
102
RTVSPropertyOp23
 70
     1
102
RTVSPropertyOp24
 70
     1
102
RTVSPropertyOp25
 70
     1
102
RTVSPropertyOp26
 70
     1
102
RTVSPropertyOp27
 70
     1
102
RTVSPropertyOp28
 70
     1
102
RTVSPropertyOp29
 70
     1
102
RTVSPropertyOp30
 70
     1
102
RTVSPropertyOp31
 70
     1
102
RTVSPropertyOp32
 70
     1
  0
XRECORD
  5
F10A72
102
{ACAD_REACTORS
330
F10A71
102
}
330
F10A71
100
AcDbXrecord
280
     1
102
RTVSPropertyOp0
 70
     1
102
RTVSPropertyOp1
 70
     1
102
RTVSPropertyOp2
 70
     1
102
RTVSPropertyOp3
 70
     1
102
RTVSPropertyOp4
 70
     1
102
RTVSPropertyOp5
 70
     1
102
RTVSPropertyOp6
 70
     1
102
RTVSPropertyOp7
 70
     1
102
RTVSPropertyOp8
 70
     1
102
RTVSPropertyOp9
 70
     1
102
RTVSPropertyOp10
 70
     1
102
RTVSPropertyOp11
 70
     1
102
RTVSPropertyOp12
 70
     1
102
RTVSPropertyOp13
 70
     1
102
RTVSPropertyOp14
 70
     1
102
RTVSPropertyOp15
 70
     1
102
RTVSPropertyOp16
 70
     1
102
RTVSPropertyOp17
 70
     1
102
RTVSPropertyOp18
 70
     1
102
RTVSPropertyOp19
 70
     1
102
RTVSPropertyOp20
 70
     1
102
RTVSPropertyOp21
 70
     1
102
RTVSPropertyOp22
 70
     1
102
RTVSPropertyOp23
 70
     1
102
RTVSPropertyOp24
 70
     1
102
RTVSPropertyOp25
 70
     1
102
RTVSPropertyOp26
 70
     1
102
RTVSPropertyOp27
 70
     1
102
RTVSPropertyOp28
 70
     1
102
RTVSPropertyOp29
 70
     1
102
RTVSPropertyOp30
 70
     1
102
RTVSPropertyOp31
 70
     1
102
RTVSPropertyOp32
 70
     1
  0
XRECORD
  5
F10A59
102
{ACAD_REACTORS
330
F10A58
102
}
330
F10A58
100
AcDbXrecord
280
     1
102
RTVSPropertyOp0
 70
     1
102
RTVSPropertyOp1
 70
     1
102
RTVSPropertyOp2
 70
     1
102
RTVSPropertyOp3
 70
     1
102
RTVSPropertyOp4
 70
     1
102
RTVSPropertyOp5
 70
     1
102
RTVSPropertyOp6
 70
     1
102
RTVSPropertyOp7
 70
     1
102
RTVSPropertyOp8
 70
     1
102
RTVSPropertyOp9
 70
     1
102
RTVSPropertyOp10
 70
     1
102
RTVSPropertyOp11
 70
     1
102
RTVSPropertyOp12
 70
     1
102
RTVSPropertyOp13
 70
     1
102
RTVSPropertyOp14
 70
     1
102
RTVSPropertyOp15
 70
     1
102
RTVSPropertyOp16
 70
     1
102
RTVSPropertyOp17
 70
     1
102
RTVSPropertyOp18
 70
     1
102
RTVSPropertyOp19
 70
     1
102
RTVSPropertyOp20
 70
     1
102
RTVSPropertyOp21
 70
     1
102
RTVSPropertyOp22
 70
     1
102
RTVSPropertyOp23
 70
     1
102
RTVSPropertyOp24
 70
     1
102
RTVSPropertyOp25
 70
     1
102
RTVSPropertyOp26
 70
     1
102
RTVSPropertyOp27
 70
     1
102
RTVSPropertyOp28
 70
     1
102
RTVSPropertyOp29
 70
     1
102
RTVSPropertyOp30
 70
     1
102
RTVSPropertyOp31
 70
     1
102
RTVSPropertyOp32
 70
     1
  0
XRECORD
  5
F10A6C
102
{ACAD_REACTORS
330
F10A6B
102
}
330
F10A6B
100
AcDbXrecord
280
     1
102
RTVSPropertyOp0
 70
     1
102
RTVSPropertyOp1
 70
     1
102
RTVSPropertyOp2
 70
     1
102
RTVSPropertyOp3
 70
     1
102
RTVSPropertyOp4
 70
     1
102
RTVSPropertyOp5
 70
     1
102
RTVSPropertyOp6
 70
     1
102
RTVSPropertyOp7
 70
     1
102
RTVSPropertyOp8
 70
     1
102
RTVSPropertyOp9
 70
     1
102
RTVSPropertyOp10
 70
     1
102
RTVSPropertyOp11
 70
     1
102
RTVSPropertyOp12
 70
     1
102
RTVSPropertyOp13
 70
     1
102
RTVSPropertyOp14
 70
     1
102
RTVSPropertyOp15
 70
     1
102
RTVSPropertyOp16
 70
     1
102
RTVSPropertyOp17
 70
     1
102
RTVSPropertyOp18
 70
     1
102
RTVSPropertyOp19
 70
     1
102
RTVSPropertyOp20
 70
     1
102
RTVSPropertyOp21
 70
     1
102
RTVSPropertyOp22
 70
     1
102
RTVSPropertyOp23
 70
     1
102
RTVSPropertyOp24
 70
     1
102
RTVSPropertyOp25
 70
     1
102
RTVSPropertyOp26
 70
     1
102
RTVSPropertyOp27
 70
     1
102
RTVSPropertyOp28
 70
     1
102
RTVSPropertyOp29
 70
     1
102
RTVSPropertyOp30
 70
     1
102
RTVSPropertyOp31
 70
     1
102
RTVSPropertyOp32
 70
     1
  0
XRECORD
  5
F10A74
102
{ACAD_REACTORS
330
F10A73
102
}
330
F10A73
100
AcDbXrecord
280
     1
102
RTVSPropertyOp0
 70
     1
102
RTVSPropertyOp1
 70
     1
102
RTVSPropertyOp2
 70
     1
102
RTVSPropertyOp3
 70
     1
102
RTVSPropertyOp4
 70
     1
102
RTVSPropertyOp5
 70
     1
102
RTVSPropertyOp6
 70
     1
102
RTVSPropertyOp7
 70
     1
102
RTVSPropertyOp8
 70
     1
102
RTVSPropertyOp9
 70
     1
102
RTVSPropertyOp10
 70
     1
102
RTVSPropertyOp11
 70
     1
102
RTVSPropertyOp12
 70
     1
102
RTVSPropertyOp13
 70
     1
102
RTVSPropertyOp14
 70
     1
102
RTVSPropertyOp15
 70
     1
102
RTVSPropertyOp16
 70
     1
102
RTVSPropertyOp17
 70
     1
102
RTVSPropertyOp18
 70
     1
102
RTVSPropertyOp19
 70
     1
102
RTVSPropertyOp20
 70
     1
102
RTVSPropertyOp21
 70
     1
102
RTVSPropertyOp22
 70
     1
102
RTVSPropertyOp23
 70
     1
102
RTVSPropertyOp24
 70
     1
102
RTVSPropertyOp25
 70
     1
102
RTVSPropertyOp26
 70
     1
102
RTVSPropertyOp27
 70
     1
102
RTVSPropertyOp28
 70
     1
102
RTVSPropertyOp29
 70
     1
102
RTVSPropertyOp30
 70
     1
102
RTVSPropertyOp31
 70
     1
102
RTVSPropertyOp32
 70
     1
  0
ENDSEC
  0
EOF
