  0
SECTION
  2
HEADER
  9
$ACADVER
  1
AC1015
  9
$ACADMAINTVER
 70
    20
  9
$DWGCODEPAGE
  3
ANSI_1252
  9
$INSBASE
 10
0.0
 20
0.0
 30
0.0
  9
$EXTMIN
 10
-208.09585492228
 20
-100.103626943005
 30
0.0
  9
$EXTMAX
 10
143.354922279793
 20
106.7646657571623
 30
0.0
  9
$LIMMIN
 10
0.0
 20
0.0
  9
$LIMMAX
 10
12.0
 20
9.0
  9
$ORTHOMODE
 70
     0
  9
$REGENMODE
 70
     1
  9
$FILLMODE
 70
     1
  9
$QTEXTMODE
 70
     0
  9
$MIRRTEXT
 70
     1
  9
$LTSCALE
 40
1.0
  9
$ATTMODE
 70
     1
  9
$TEXTSIZE
 40
0.2
  9
$TRACEWID
 40
0.05
  9
$TEXTSTYLE
  7
Standard
  9
$CLAYER
  8
0
  9
$CELTYPE
  6
ByLayer
  9
$CECOLOR
 62
   256
  9
$CELTSCALE
 40
1.0
  9
$DISPSILH
 70
     0
  9
$DIMSCALE
 40
1.0
  9
$DIMASZ
 40
2.5
  9
$DIMEXO
 40
0.625
  9
$DIMDLI
 40
0.38
  9
$DIMRND
 40
0.0
  9
$DIMDLE
 40
0.0
  9
$DIMEXE
 40
1.25
  9
$DIMTP
 40
0.0
  9
$DIMTM
 40
0.000000001
  9
$DIMTXT
 40
2.5
  9
$DIMCEN
 40
0.09
  9
$DIMTSZ
 40
0.0
  9
$DIMTOL
 70
     1
  9
$DIMLIM
 70
     0
  9
$DIMTIH
 70
     0
  9
$DIMTOH
 70
     0
  9
$DIMSE1
 70
     0
  9
$DIMSE2
 70
     0
  9
$DIMTAD
 70
     1
  9
$DIMZIN
 70
     0
  9
$DIMBLK
  1
VDDIM_DEFAULT
  9
$DIMASO
 70
     1
  9
$DIMSHO
 70
     1
  9
$DIMPOST
  1

  9
$DIMAPOST
  1

  9
$DIMALT
 70
     0
  9
$DIMALTD
 70
     2
  9
$DIMALTF
 40
25.4
  9
$DIMLFAC
 40
1.0
  9
$DIMTOFL
 70
     0
  9
$DIMTVP
 40
0.0
  9
$DIMTIX
 70
     0
  9
$DIMSOXD
 70
     0
  9
$DIMSAH
 70
     0
  9
$DIMBLK1
  1

  9
$DIMBLK2
  1

  9
$DIMSTYLE
  2
BEM-ISBE
  9
$DIMCLRD
 70
     0
  9
$DIMCLRE
 70
     0
  9
$DIMCLRT
 70
     0
  9
$DIMTFAC
 40
0.5
  9
$DIMGAP
 40
0.625
  9
$DIMJUST
 70
     0
  9
$DIMSD1
 70
     0
  9
$DIMSD2
 70
     0
  9
$DIMTOLJ
 70
     1
  9
$DIMTZIN
 70
     0
  9
$DIMALTZ
 70
     0
  9
$DIMALTTZ
 70
     0
  9
$DIMUPT
 70
     0
  9
$DIMDEC
 70
     3
  9
$DIMTDEC
 70
     3
  9
$DIMALTU
 70
     2
  9
$DIMALTTD
 70
     2
  9
$DIMTXSTY
  7
Standard
  9
$DIMAUNIT
 70
     0
  9
$DIMADEC
 70
     3
  9
$DIMALTRND
 40
0.0
  9
$DIMAZIN
 70
     0
  9
$DIMDSEP
 70
    46
  9
$DIMATFIT
 70
     3
  9
$DIMFRAC
 70
     0
  9
$DIMLDRBLK
  1

  9
$DIMLUNIT
 70
     2
  9
$DIMLWD
 70
    -2
  9
$DIMLWE
 70
    -2
  9
$DIMTMOVE
 70
     0
  9
$LUNITS
 70
     2
  9
$LUPREC
 70
     4
  9
$SKETCHINC
 40
0.1
  9
$FILLETRAD
 40
0.0
  9
$AUNITS
 70
     0
  9
$AUPREC
 70
     0
  9
$MENU
  1
.
  9
$ELEVATION
 40
0.0
  9
$PELEVATION
 40
0.0
  9
$THICKNESS
 40
0.0
  9
$LIMCHECK
 70
     0
  9
$CHAMFERA
 40
0.5
  9
$CHAMFERB
 40
0.5
  9
$CHAMFERC
 40
1.0
  9
$CHAMFERD
 40
0.0
  9
$SKPOLY
 70
     0
  9
$TDCREATE
 40
2457073.653100104
  9
$TDUCREATE
 40
2457073.611433438
  9
$TDUPDATE
 40
2457073.654179202
  9
$TDUUPDATE
 40
2457073.612512535
  9
$TDINDWG
 40
0.0010806134
  9
$TDUSRTIMER
 40
0.0010805671
  9
$USRTIMER
 70
     1
  9
$ANGBASE
 50
0.0
  9
$ANGDIR
 70
     0
  9
$PDMODE
 70
     0
  9
$PDSIZE
 40
0.0
  9
$PLINEWID
 40
0.0
  9
$SPLFRAME
 70
     0
  9
$SPLINETYPE
 70
     6
  9
$SPLINESEGS
 70
     8
  9
$HANDSEED
  5
F10C39
  9
$SURFTAB1
 70
     6
  9
$SURFTAB2
 70
     6
  9
$SURFTYPE
 70
     6
  9
$SURFU
 70
     6
  9
$SURFV
 70
     6
  9
$UCSBASE
  2

  9
$UCSNAME
  2

  9
$UCSORG
 10
-19.89515120516323
 20
8.387580182277488
 30
0.0
  9
$UCSXDIR
 10
1.0
 20
0.0
 30
0.0
  9
$UCSYDIR
 10
0.0
 20
1.0
 30
0.0
  9
$UCSORTHOREF
  2

  9
$UCSORTHOVIEW
 70
     0
  9
$UCSORGTOP
 10
0.0
 20
0.0
 30
0.0
  9
$UCSORGBOTTOM
 10
0.0
 20
0.0
 30
0.0
  9
$UCSORGLEFT
 10
0.0
 20
0.0
 30
0.0
  9
$UCSORGRIGHT
 10
0.0
 20
0.0
 30
0.0
  9
$UCSORGFRONT
 10
0.0
 20
0.0
 30
0.0
  9
$UCSORGBACK
 10
0.0
 20
0.0
 30
0.0
  9
$PUCSBASE
  2

  9
$PUCSNAME
  2

  9
$PUCSORG
 10
0.0
 20
0.0
 30
0.0
  9
$PUCSXDIR
 10
1.0
 20
0.0
 30
0.0
  9
$PUCSYDIR
 10
0.0
 20
1.0
 30
0.0
  9
$PUCSORTHOREF
  2

  9
$PUCSORTHOVIEW
 70
     0
  9
$PUCSORGTOP
 10
0.0
 20
0.0
 30
0.0
  9
$PUCSORGBOTTOM
 10
0.0
 20
0.0
 30
0.0
  9
$PUCSORGLEFT
 10
0.0
 20
0.0
 30
0.0
  9
$PUCSORGRIGHT
 10
0.0
 20
0.0
 30
0.0
  9
$PUCSORGFRONT
 10
0.0
 20
0.0
 30
0.0
  9
$PUCSORGBACK
 10
0.0
 20
0.0
 30
0.0
  9
$USERI1
 70
     0
  9
$USERI2
 70
     0
  9
$USERI3
 70
     0
  9
$USERI4
 70
     0
  9
$USERI5
 70
     0
  9
$USERR1
 40
0.0
  9
$USERR2
 40
0.0
  9
$USERR3
 40
0.0
  9
$USERR4
 40
0.0
  9
$USERR5
 40
0.0
  9
$WORLDVIEW
 70
     1
  9
$SHADEDGE
 70
     3
  9
$SHADEDIF
 70
    70
  9
$TILEMODE
 70
     1
  9
$MAXACTVP
 70
    64
  9
$PINSBASE
 10
0.0
 20
0.0
 30
0.0
  9
$PLIMCHECK
 70
     0
  9
$PEXTMIN
 10
1.000000000000000E+20
 20
1.000000000000000E+20
 30
1.000000000000000E+20
  9
$PEXTMAX
 10
-1.000000000000000E+20
 20
-1.000000000000000E+20
 30
-1.000000000000000E+20
  9
$PLIMMIN
 10
0.0
 20
0.0
  9
$PLIMMAX
 10
12.0
 20
9.0
  9
$UNITMODE
 70
     0
  9
$VISRETAIN
 70
     1
  9
$PLINEGEN
 70
     0
  9
$PSLTSCALE
 70
     1
  9
$TREEDEPTH
 70
  3020
  9
$CMLSTYLE
  2
Standard
  9
$CMLJUST
 70
     0
  9
$CMLSCALE
 40
1.0
  9
$PROXYGRAPHICS
 70
     1
  9
$MEASUREMENT
 70
     0
  9
$CELWEIGHT
370
    -1
  9
$ENDCAPS
280
     0
  9
$JOINSTYLE
280
     0
  9
$LWDISPLAY
290
     0
  9
$INSUNITS
 70
     4
  9
$HYPERLINKBASE
  1

  9
$STYLESHEET
  1

  9
$XEDIT
290
     1
  9
$CEPSNTYPE
380
     0
  9
$PSTYLEMODE
290
     0
  9
$FINGERPRINTGUID
  2
{FAEB1C30-E019-11D5-929B-00C0DF256EC4}
  9
$VERSIONGUID
  2
{62D773FF-C415-4E6E-876A-7E4B03FB6B5F}
  9
$EXTNAMES
290
     1
  9
$PSVPSCALE
 40
0.0
  9
$OLESTARTUP
290
     0
  0
ENDSEC
  0
SECTION
  2
CLASSES
  0
CLASS
  1
ACDBDICTIONARYWDFLT
  2
AcDbDictionaryWithDefault
  3
ObjectDBX Classes
 90
        0
280
     0
281
     0
  0
CLASS
  1
MATERIAL
  2
AcDbMaterial
  3
ObjectDBX Classes
 90
     1153
280
     0
281
     0
  0
CLASS
  1
MLEADERSTYLE
  2
AcDbMLeaderStyle
  3
ACDB_MLEADERSTYLE_CLASS
 90
     4095
280
     0
281
     0
  0
CLASS
  1
SCALE
  2
AcDbScale
  3
ObjectDBX Classes
 90
     1153
280
     0
281
     0
  0
CLASS
  1
TABLESTYLE
  2
AcDbTableStyle
  3
ObjectDBX Classes
 90
     4095
280
     0
281
     0
  0
CLASS
  1
VISUALSTYLE
  2
AcDbVisualStyle
  3
ObjectDBX Classes
 90
     4095
280
     0
281
     0
  0
CLASS
  1
DICTIONARYVAR
  2
AcDbDictionaryVar
  3
ObjectDBX Classes
 90
        0
280
     0
281
     0
  0
CLASS
  1
CELLSTYLEMAP
  2
AcDbCellStyleMap
  3
ObjectDBX Classes
 90
     1152
280
     0
281
     0
  0
CLASS
  1
AMGSETTINGSOBJ
  2
AmgSettingsObj
  3
"AcadM|Product Description: AutoCAD Mechanical|Company: Autodesk, Inc."
 90
     1024
280
     0
281
     0
  0
CLASS
  1
ACME_DOCUMENT
  2
AcMeDbDoc
  3
AcMeServices
 90
     1024
280
     0
281
     0
  0
CLASS
  1
ACMESCOPE
  2
AcMeScope
  3
AcMeServices
 90
     1024
280
     0
281
     0
  0
CLASS
  1
ACMECOMMANDHISTORY
  2
AcMeCommandHistory
  3
AcMeServices
 90
     1024
280
     0
281
     0
  0
CLASS
  1
ACIMSYSVARMAN
  2
AcImSysVarManager
  3
AcMeServices
 90
     1024
280
     0
281
     0
  0
CLASS
  1
ACIMINTSYSVAR
  2
AcImIntSysVar
  3
AcMeServices
 90
     1024
280
     0
281
     0
  0
CLASS
  1
ACMESTATEMGR
  2
AcMeStateMgr
  3
AcMeServices
 90
     1024
280
     0
281
     0
  0
CLASS
  1
ACDBENTITYCACHE
  2
AcMeEntityCache
  3
AcMeServices
 90
     1024
280
     0
281
     0
  0
CLASS
  1
ACGREFMASTER
  2
AcGrefMaster
  3
AcAttribServices
 90
     1024
280
     0
281
     0
  0
CLASS
  1
AM_DRAWING_MGR
  2
AcDmDwgMgr
  3
AcMechDwgViewMgmt
 90
     1024
280
     0
281
     0
  0
CLASS
  1
AM_DWG_DOCUMENT
  2
AcDmDwgDocument
  3
AcMechDwgViewMgmt
 90
     1024
280
     0
281
     0
  0
CLASS
  1
AM_DWG_SHEET
  2
AcDmSheet
  3
AcMechDwgViewMgmt
 90
     1024
280
     0
281
     0
  0
CLASS
  1
AM_VIEWDIMPARMAP
  2
AcDmViewDimParMap
  3
AcMechDwgViewMgmt
 90
     1024
280
     0
281
     0
  0
CLASS
  1
AMDTINTERNALREACTOR
  2
AmdtInternalReactor
  3
AcMeServices
 90
     1024
280
     0
281
     0
  0
CLASS
  1
ACIMREALSYSVAR
  2
AcImRealSysVar
  3
AcMeServices
 90
     1024
280
     0
281
     0
  0
CLASS
  1
AM_DWGMGR_NAME
  2
AcDmDwgMgrName
  3
AcMechDwgViewMgmt
 90
     1024
280
     0
281
     0
  0
CLASS
  1
ACME_DATABASE
  2
AcMeDbDatabase
  3
AcMeServices
 90
     1024
280
     0
281
     0
  0
CLASS
  1
ACRFINSADJUSTERMGR
  2
AcRfInsAdjusterMgr
  3
AcMeServices
 90
     1024
280
     0
281
     0
  0
CLASS
  1
ACGREFACADMASTER
  2
AcGrefacadMaster
  3
AcGrefServices
 90
     1024
280
     0
281
     0
  0
CLASS
  1
AMDTMENUSTATEMGR
  2
AmdtMenuStateMgr
  3
McadcomServices
 90
     1024
280
     0
281
     0
  0
CLASS
  1
AMDTMCOMMENUSTATE
  2
AmdtMcomMenuState
  3
McadcomServices
 90
     1024
280
     0
281
     0
  0
CLASS
  1
AMIMASTER
  2
AmiMaster
  3
AmiServices
 90
     1024
280
     0
281
     0
  0
CLASS
  1
MAPIAMMOUDLE
  2
MApiAmModule
  3
MApiAmServices
 90
     1024
280
     0
281
     0
  0
CLASS
  1
ACIMSTRSYSVAR
  2
AcImStrSysVar
  3
AcMeServices
 90
     1024
280
     0
281
     0
  0
CLASS
  1
AMDTDMMENUSTATE
  2
AmdtDmMenuState
  3
AcMechDwgViewMgmt
 90
     1024
280
     0
281
     0
  0
CLASS
  1
AMDTAMMENUSTATE
  2
AmdtAmMenuState
  3
DesignerAssemblies
 90
     1024
280
     0
281
     0
  0
CLASS
  1
ACAMPROJECT
  2
AcAmProject
  3
DesignerAssemblies
 90
     1024
280
     0
281
     0
  0
CLASS
  1
ACAMGRCOMPDEF
  2
AcAmGrCompDef
  3
DesignerAssemblies
 90
     1024
280
     0
281
     0
  0
CLASS
  1
ACAMCOMPDEF
  2
AcAmCompDef
  3
DesignerAssemblies
 90
     1024
280
     0
281
     0
  0
CLASS
  1
ACAMCOMPDEFMGR
  2
AcAmCompDefMgr
  3
DesignerAssemblies
 90
     1024
280
     0
281
     0
  0
CLASS
  1
AMCONTEXTMGR
  2
AcAmContextMgr
  3
DesignerAssemblies
 90
     1024
280
     0
281
     0
  0
CLASS
  1
ACAMCONTEXTMODELER
  2
AcAmContextModeler
  3
DesignerAssemblies
 90
     1024
280
     0
281
     0
  0
CLASS
  1
ACMDATADICTIONARY
  2
AcmDataDictionary
  3
"AcmSymBB|Product Description: AutoCAD Mechanical|Company: Autodesk, Inc."
 90
     1024
280
     0
281
     0
  0
CLASS
  1
ACAMGRCOMPDEFSET
  2
AcAmGrCompDefSet
  3
DesignerAssemblies
 90
     1024
280
     0
281
     0
  0
CLASS
  1
AMDTBROWSERDBTAB
  2
AmdtBrowserDbTab
  3
McadcomServices
 90
     1024
280
     0
281
     0
  0
CLASS
  1
CBROWSERAPPOBJECT
  2
CBrowserAppObject
  3
McadcomServices
 90
     1024
280
     0
281
     0
  0
CLASS
  1
DM_PLACEHOLDER
  2
AcDmSelsetPlaceholder
  3
AcMechDwgViewMgmt
 90
     1024
280
     0
281
     0
  0
CLASS
  1
EXACXREFPANELOBJECT
  2
ExAcXREFPanelObject
  3
EXAC_ESW
 90
     1025
280
     0
281
     0
  0
CLASS
  1
NPOCOLLECTION
  2
AcDbImpNonPersistentObjectsCollection
  3
ObjectDBX Classes
 90
     1153
280
     0
281
     0
  0
CLASS
  1
ACMSTANDARDANSI
  2
AcmStandardANSI
  3
"Amdt_StdImp|Product Description: AutoCAD Mechanical|Company: Autodesk, Inc."
 90
     1024
280
     0
281
     0
  0
CLASS
  1
ACMSURFSTANDARDANSI
  2
AcmSurfTextStdANSI
  3
"Amdt_StdImp|Product Description: AutoCAD Mechanical|Company: Autodesk, Inc."
 90
     1024
280
     0
281
     0
  0
CLASS
  1
ACMFCFSTANDARDANSI
  2
AcmFCFStdANSI
  3
"Amdt_StdImp|Product Description: AutoCAD Mechanical|Company: Autodesk, Inc."
 90
     1024
280
     0
281
     0
  0
CLASS
  1
ACMWELDSTANDARDANSI
  2
AcmWeldingStdANSI
  3
"Amdt_StdImp|Product Description: AutoCAD Mechanical|Company: Autodesk, Inc."
 90
     1024
280
     0
281
     0
  0
CLASS
  1
ACMIDSTANDARDANSI
  2
AcmIdStdANSI
  3
"Amdt_StdImp|Product Description: AutoCAD Mechanical|Company: Autodesk, Inc."
 90
     1024
280
     0
281
     0
  0
CLASS
  1
ACMDATUMSTANDARDANSI
  2
AcmDatumStdANSI
  3
"Amdt_StdImp|Product Description: AutoCAD Mechanical|Company: Autodesk, Inc."
 90
     1024
280
     0
281
     0
  0
CLASS
  1
ACMBOMSTANDARDANSI
  2
AcmBOMStdANSI
  3
"Amdt_StdImp|Product Description: AutoCAD Mechanical|Company: Autodesk, Inc."
 90
     1024
280
     0
281
     0
  0
CLASS
  1
ACMDETAILSTANDARDANSI
  2
AmdtDetailSymStdANSI
  3
"Amdt_StdImp|Product Description: AutoCAD Mechanical|Company: Autodesk, Inc."
 90
     1024
280
     0
281
     0
  0
CLASS
  1
ACMSECTIONSTANDARDANSI
  2
AmdtSectionSymStdANSI
  3
"Amdt_StdImp|Product Description: AutoCAD Mechanical|Company: Autodesk, Inc."
 90
     1024
280
     0
281
     0
  0
CLASS
  1
ACMCENTERLINESTANDARDANSI
  2
AmdtCenterLineStdANSI
  3
"Amdt_StdImp|Product Description: AutoCAD Mechanical|Company: Autodesk, Inc."
 90
     1024
280
     0
281
     0
  0
CLASS
  1
ACMTHREADLINESTANDARDANSI
  2
AmdtThreadLineStdANSI
  3
"Amdt_StdImp|Product Description: AutoCAD Mechanical|Company: Autodesk, Inc."
 90
     1024
280
     0
281
     0
  0
CLASS
  1
ACMNOTESTANDARDANSI
  2
AmdtNoteStdANSI
  3
"Amdt_StdImp|Product Description: AutoCAD Mechanical|Company: Autodesk, Inc."
 90
     1024
280
     0
281
     0
  0
CLASS
  1
ACMTAPERSTANDARDANSI
  2
AcmTaperStdANSI
  3
"Amdt_StdImp|Product Description: AutoCAD Mechanical|Company: Autodesk, Inc."
 90
     1024
280
     0
281
     0
  0
CLASS
  1
ACMANOOTATIONVIEWSTANDARDANSI
  2
AmdtAnViewStdANSI
  3
"Amdt_StdImp|Product Description: AutoCAD Mechanical|Company: Autodesk, Inc."
 90
     1024
280
     0
281
     0
  0
CLASS
  1
ACAMGLAYSTD
  2
AcAmgLayStd
  3
"AmgLay|Product Description: AutoCAD Mechanical|Company: Autodesk, Inc."
 90
     1024
280
     0
281
     0
  0
CLASS
  1
ACAMGDIMSTD
  2
AcAmgDimStd
  3
"AmgDim|Product Description: AutoCAD Mechanical|Company: Autodesk, Inc."
 90
     1024
280
     0
281
     0
  0
CLASS
  1
AMGOBJPROPCFG
  2
AmgObjPropCfg
  3
"AmgLay|Product Description: AutoCAD Mechanical|Company: Autodesk, Inc."
 90
     1025
280
     0
281
     0
  0
CLASS
  1
ACAMGHOLECHARTSTDANSI
  2
AcAmgHoleChartStdANSI
  3
AmgDim|Product Description: AutoCAD Mechanical|Company: Autodesk, Inc.
 90
     1024
280
     0
281
     0
  0
CLASS
  1
ACAMGTITLESTD
  2
AcAmgTitleStd
  3
"AmgTitle|Product Description: AutoCAD Mechanical|Company: Autodesk, Inc."
 90
     4095
280
     0
281
     0
  0
CLASS
  1
AMDTNOTETEMPLATEDB
  2
AmdtNoteTemplateDB
  3
AcmSymBB|Product Description: AutoCAD Mechanical|Company: Autodesk, Inc.
 90
     1024
280
     0
281
     0
  0
CLASS
  1
ACAMGFILTERDAT
  2
AcAmgFilterDat
  3
"AcadM|Product Description: AutoCAD Mechanical|Company: Autodesk, Inc."
 90
     1024
280
     0
281
     0
  0
CLASS
  1
ACDBPLACEHOLDER
  2
AcDbPlaceHolder
  3
ObjectDBX Classes
 90
        0
280
     0
281
     0
  0
CLASS
  1
LAYOUT
  2
AcDbLayout
  3
ObjectDBX Classes
 90
        0
280
     0
281
     0
  0
ENDSEC
  0
SECTION
  2
TABLES
  0
TABLE
  2
VPORT
  5
24A
330
0
100
AcDbSymbolTable
 70
     1
  0
VPORT
  5
26B
330
24A
100
AcDbSymbolTableRecord
100
AcDbViewportTableRecord
  2
*Active
 70
     0
 10
0.0
 20
0.0
 11
1.0
 21
1.0
 12
-30.15288785244269
 22
-18.63482316828825
 13
0.0
 23
0.0
 14
10.0
 24
10.0
 15
10.0
 25
10.0
 16
0.0
 26
0.0
 36
1.0
 17
0.0
 27
0.0
 37
0.0
 40
227.8961494126375
 41
1.670673076923076
 42
1.0
 43
0.0
 44
0.0
 50
0.0
 51
0.0000000000007958
 71
     0
 72
   100
 73
     1
 74
     3
 75
     0
 76
     0
 77
     0
 78
     1
281
     0
 65
     0
110
0.0
120
0.0
130
0.0
111
1.0
121
0.0
131
0.0
112
0.0
122
1.0
132
0.0
 79
     0
146
0.0
  0
ENDTAB
  0
TABLE
  2
LTYPE
  5
247
330
0
100
AcDbSymbolTable
 70
    36
  0
LTYPE
  5
256
330
247
100
AcDbSymbolTableRecord
100
AcDbLinetypeTableRecord
  2
ByBlock
 70
     0
  3

 72
    65
 73
     0
 40
0.0
  0
LTYPE
  5
257
330
247
100
AcDbSymbolTableRecord
100
AcDbLinetypeTableRecord
  2
ByLayer
 70
     0
  3

 72
    65
 73
     0
 40
0.0
  0
LTYPE
  5
258
330
247
100
AcDbSymbolTableRecord
100
AcDbLinetypeTableRecord
  2
Continuous
 70
     0
  3
Solid line
 72
    65
 73
     0
 40
0.0
  0
LTYPE
  5
273
330
247
100
AcDbSymbolTableRecord
100
AcDbLinetypeTableRecord
  2
CENTER
 70
     0
  3
Center ____ _ ____ _ ____ _ ____ _ ____ _ ____
 72
    65
 73
     4
 40
2.0
 49
1.25
 74
     0
 49
-0.25
 74
     0
 49
0.25
 74
     0
 49
-0.25
 74
     0
  0
LTYPE
  5
274
330
247
100
AcDbSymbolTableRecord
100
AcDbLinetypeTableRecord
  2
DASHDOT
 70
     0
  3
Dashdot __ . __ . __ . __ . __ . __ . __ . __
 72
    65
 73
     4
 40
1.0
 49
0.5
 74
     0
 49
-0.25
 74
     0
 49
0.0
 74
     0
 49
-0.25
 74
     0
  0
LTYPE
  5
275
330
247
100
AcDbSymbolTableRecord
100
AcDbLinetypeTableRecord
  2
DASHED
 70
     0
  3
Dashed __ __ __ __ __ __ __ __ __ __ __ __ __ _
 72
    65
 73
     2
 40
0.75
 49
0.5
 74
     0
 49
-0.25
 74
     0
  0
LTYPE
  5
276
330
247
100
AcDbSymbolTableRecord
100
AcDbLinetypeTableRecord
  2
HIDDEN
 70
     0
  3
Hidden __ __ __ __ __ __ __ __ __ __ __ __ __ __
 72
    65
 73
     2
 40
0.375
 49
0.25
 74
     0
 49
-0.125
 74
     0
  0
LTYPE
  5
277
330
247
100
AcDbSymbolTableRecord
100
AcDbLinetypeTableRecord
  2
HIDDEN2
 70
     0
  3
Hidden2 _ _ _ _ _ _ _ _ _ _ _ _ _ _ _ _ _
 72
    65
 73
     2
 40
0.1875
 49
0.125
 74
     0
 49
-0.0625
 74
     0
  0
LTYPE
  5
278
330
247
100
AcDbSymbolTableRecord
100
AcDbLinetypeTableRecord
  2
BORDER
 70
     0
  3
Border __ __ . __ __ . __ __ . __ __ . __ __ .
 72
    65
 73
     6
 40
1.75
 49
0.5
 74
     0
 49
-0.25
 74
     0
 49
0.5
 74
     0
 49
-0.25
 74
     0
 49
0.0
 74
     0
 49
-0.25
 74
     0
  0
LTYPE
  5
279
330
247
100
AcDbSymbolTableRecord
100
AcDbLinetypeTableRecord
  2
BORDER2
 70
     0
  3
Border2 __.__.__.__.__.__.__.__.__.__.__.
 72
    65
 73
     6
 40
0.875
 49
0.25
 74
     0
 49
-0.125
 74
     0
 49
0.25
 74
     0
 49
-0.125
 74
     0
 49
0.0
 74
     0
 49
-0.125
 74
     0
  0
LTYPE
  5
27A
330
247
100
AcDbSymbolTableRecord
100
AcDbLinetypeTableRecord
  2
BORDERX2
 70
     0
  3
Borderx2  ____  ____  .  ____  ____  .  ___
 72
    65
 73
     6
 40
3.5
 49
1.0
 74
     0
 49
-0.5
 74
     0
 49
1.0
 74
     0
 49
-0.5
 74
     0
 49
0.0
 74
     0
 49
-0.5
 74
     0
  0
LTYPE
  5
27B
330
247
100
AcDbSymbolTableRecord
100
AcDbLinetypeTableRecord
  2
CENTER2
 70
     0
  3
Center2  ___ _ ___ _ ___ _ ___ _ ___ _ ___
 72
    65
 73
     4
 40
1.125
 49
0.75
 74
     0
 49
-0.125
 74
     0
 49
0.125
 74
     0
 49
-0.125
 74
     0
  0
LTYPE
  5
27C
330
247
100
AcDbSymbolTableRecord
100
AcDbLinetypeTableRecord
  2
CENTERX2
 70
     0
  3
Centerx2  ________  __  ________  __  _____
 72
    65
 73
     4
 40
4.0
 49
2.5
 74
     0
 49
-0.5
 74
     0
 49
0.5
 74
     0
 49
-0.5
 74
     0
  0
LTYPE
  5
27D
330
247
100
AcDbSymbolTableRecord
100
AcDbLinetypeTableRecord
  2
DASHDOT2
 70
     0
  3
Dashdot2  _._._._._._._._._._._._._._._.
 72
    65
 73
     4
 40
0.5
 49
0.25
 74
     0
 49
-0.125
 74
     0
 49
0.0
 74
     0
 49
-0.125
 74
     0
  0
LTYPE
  5
27E
330
247
100
AcDbSymbolTableRecord
100
AcDbLinetypeTableRecord
  2
DASHDOTX2
 70
     0
  3
Dashdotx2 ____  .  ____  .  ____  .  ___
 72
    65
 73
     4
 40
2.0
 49
1.0
 74
     0
 49
-0.5
 74
     0
 49
0.0
 74
     0
 49
-0.5
 74
     0
  0
LTYPE
  5
27F
330
247
100
AcDbSymbolTableRecord
100
AcDbLinetypeTableRecord
  2
DASHED2
 70
     0
  3
Dashed2 _ _ _ _ _ _ _ _ _ _ _ _ _ _ _ _ _
 72
    65
 73
     2
 40
0.375
 49
0.25
 74
     0
 49
-0.125
 74
     0
  0
LTYPE
  5
280
330
247
100
AcDbSymbolTableRecord
100
AcDbLinetypeTableRecord
  2
DASHEDX2
 70
     0
  3
Dashedx2 ____  ____  ____  ____  ____  ___
 72
    65
 73
     2
 40
1.5
 49
1.0
 74
     0
 49
-0.5
 74
     0
  0
LTYPE
  5
281
330
247
100
AcDbSymbolTableRecord
100
AcDbLinetypeTableRecord
  2
DIVIDE
 70
     0
  3
Divide ____ . . ____ . . ____ . . ____ . . ____
 72
    65
 73
     6
 40
1.25
 49
0.5
 74
     0
 49
-0.25
 74
     0
 49
0.0
 74
     0
 49
-0.25
 74
     0
 49
0.0
 74
     0
 49
-0.25
 74
     0
  0
LTYPE
  5
282
330
247
100
AcDbSymbolTableRecord
100
AcDbLinetypeTableRecord
  2
DIVIDE2
 70
     0
  3
Divide2 __..__..__..__..__..__..__..__.._
 72
    65
 73
     6
 40
0.625
 49
0.25
 74
     0
 49
-0.125
 74
     0
 49
0.0
 74
     0
 49
-0.125
 74
     0
 49
0.0
 74
     0
 49
-0.125
 74
     0
  0
LTYPE
  5
283
330
247
100
AcDbSymbolTableRecord
100
AcDbLinetypeTableRecord
  2
DIVIDEX2
 70
     0
  3
Dividex2 ________  .  .  ________  .  .  _
 72
    65
 73
     6
 40
2.5
 49
1.0
 74
     0
 49
-0.5
 74
     0
 49
0.0
 74
     0
 49
-0.5
 74
     0
 49
0.0
 74
     0
 49
-0.5
 74
     0
  0
LTYPE
  5
284
330
247
100
AcDbSymbolTableRecord
100
AcDbLinetypeTableRecord
  2
DOT
 70
     0
  3
Dot . . . . . . . . . . . . . . . . . . . . . . . .
 72
    65
 73
     2
 40
0.25
 49
0.0
 74
     0
 49
-0.25
 74
     0
  0
LTYPE
  5
285
330
247
100
AcDbSymbolTableRecord
100
AcDbLinetypeTableRecord
  2
DOT2
 70
     0
  3
Dot2 ........................................
 72
    65
 73
     2
 40
0.125
 49
0.0
 74
     0
 49
-0.125
 74
     0
  0
LTYPE
  5
286
330
247
100
AcDbSymbolTableRecord
100
AcDbLinetypeTableRecord
  2
DOTX2
 70
     0
  3
Dotx2 .  .  .  .  .  .  .  .  .  .  .  .  .  .
 72
    65
 73
     2
 40
0.5
 49
0.0
 74
     0
 49
-0.5
 74
     0
  0
LTYPE
  5
287
330
247
100
AcDbSymbolTableRecord
100
AcDbLinetypeTableRecord
  2
HIDDENX2
 70
     0
  3
Hiddenx2 ____ ____ ____ ____ ____ ____ ____
 72
    65
 73
     2
 40
0.75
 49
0.5
 74
     0
 49
-0.25
 74
     0
  0
LTYPE
  5
288
330
247
100
AcDbSymbolTableRecord
100
AcDbLinetypeTableRecord
  2
PHANTOM
 70
     0
  3
Phantom ______  __  __  ______  __  __  ______
 72
    65
 73
     6
 40
2.5
 49
1.25
 74
     0
 49
-0.25
 74
     0
 49
0.25
 74
     0
 49
-0.25
 74
     0
 49
0.25
 74
     0
 49
-0.25
 74
     0
  0
LTYPE
  5
289
330
247
100
AcDbSymbolTableRecord
100
AcDbLinetypeTableRecord
  2
PHANTOM2
 70
     0
  3
Phantom2 ___ _ _ ___ _ _ ___ _ _ ___ _ _
 72
    65
 73
     6
 40
1.25
 49
0.625
 74
     0
 49
-0.125
 74
     0
 49
0.125
 74
     0
 49
-0.125
 74
     0
 49
0.125
 74
     0
 49
-0.125
 74
     0
  0
LTYPE
  5
28A
330
247
100
AcDbSymbolTableRecord
100
AcDbLinetypeTableRecord
  2
PHANTOMX2
 70
     0
  3
Phantomx2 ____________    ____    ____   _
 72
    65
 73
     6
 40
5.0
 49
2.5
 74
     0
 49
-0.5
 74
     0
 49
0.5
 74
     0
 49
-0.5
 74
     0
 49
0.5
 74
     0
 49
-0.5
 74
     0
  0
LTYPE
  5
F10AFB
330
247
100
AcDbSymbolTableRecord
100
AcDbLinetypeTableRecord
  2
AM_ISO02W050
 70
     0
  3
__ __ __ __ __ __ __ __ __ __ __ __ __ __ __
 72
    65
 73
     2
 40
7.5
 49
6.0
 74
     0
 49
-1.5
 74
     0
  0
LTYPE
  5
F10AFC
330
247
100
AcDbSymbolTableRecord
100
AcDbLinetypeTableRecord
  2
AM_ISO08W050
 70
     0
  3
____ . ____ . ____ . ____ . ____ . ____ . ____
 72
    65
 73
     4
 40
18.0
 49
12.0
 74
     0
 49
-1.5
 74
     0
 49
3.0
 74
     0
 49
-1.5
 74
     0
  0
LTYPE
  5
F10AFD
330
247
100
AcDbSymbolTableRecord
100
AcDbLinetypeTableRecord
  2
AM_ISO09W050
 70
     0
  3
_____ . . _____ . . _____ . . ____ .. ____
 72
    65
 73
     6
 40
22.5
 49
12.0
 74
     0
 49
-1.5
 74
     0
 49
3.0
 74
     0
 49
-1.5
 74
     0
 49
3.0
 74
     0
 49
-1.5
 74
     0
  0
LTYPE
  5
F10AFE
330
247
100
AcDbSymbolTableRecord
100
AcDbLinetypeTableRecord
  2
Amconstr
 70
     0
  3
_______________________
 72
    65
 73
     2
 40
9999.0
 49
9999.0
 74
     0
 49
0.0
 74
     0
  0
LTYPE
  5
F10AFF
330
247
100
AcDbSymbolTableRecord
100
AcDbLinetypeTableRecord
  2
AM_ISO08W050x2
 70
     0
  3
__ . __ . __ . __ . __ . __
 72
    65
 73
     4
 40
9.0
 49
6.0
 74
     0
 49
-0.75
 74
     0
 49
1.5
 74
     0
 49
-0.75
 74
     0
  0
LTYPE
  5
F10B00
330
247
100
AcDbSymbolTableRecord
100
AcDbLinetypeTableRecord
  2
AM_ISO02W050x2
 70
     0
  3
 _ _ _ _ _ _ _ _ _ _ _ _
 72
    65
 73
     2
 40
3.75
 49
3.0
 74
     0
 49
-0.75
 74
     0
  0
LTYPE
  5
F10B03
330
247
100
AcDbSymbolTableRecord
100
AcDbLinetypeTableRecord
  2
Amzigzag
 70
     0
  3
/\/-/\/-/\/-/\/-/\/-/\/
 72
    65
 73
     2
 40
11.0001
 49
0.0001
 74
     4
 75
   136
340
F10B02
 46
0.04
 50
0.0
 44
0.0
 45
0.0
 49
-11.0
 74
     0
  0
LTYPE
  5
F10B04
330
247
100
AcDbSymbolTableRecord
100
AcDbLinetypeTableRecord
  2
Amzigzag2
 70
     0
  3
/\/-/\/-/\/-/\/-/\/-/\/
 72
    65
 73
     2
 40
0.4401
 49
0.0001
 74
     4
 75
   136
340
F10B02
 46
0.0016
 50
0.0
 44
0.0
 45
0.0
 49
-0.4400000000000001
 74
     0
  0
LTYPE
  5
F10B12
330
247
100
AcDbSymbolTableRecord
100
AcDbLinetypeTableRecord
  2
ACANSTGB
 70
     0
  3
__ . . __ . .
 72
    65
 73
     6
 40
0.35433070866
 49
0.15748031496
 74
     0
 49
-0.03937007874
 74
     0
 49
0.03937007874
 74
     0
 49
-0.03937007874
 74
     0
 49
0.03937007874
 74
     0
 49
-0.03937007874
 74
     0
  0
LTYPE
  5
F10B13
330
247
100
AcDbSymbolTableRecord
100
AcDbLinetypeTableRecord
  2
ACANSTGL
 70
     0
  3
_ _ _ _ _
 72
    65
 73
     2
 40
0.11811023622
 49
0.07874015748
 74
     0
 49
-0.03937007874
 74
     0
  0
ENDTAB
  0
TABLE
  2
LAYER
  5
244
330
0
100
AcDbSymbolTable
 70
     6
  0
LAYER
  5
252
102
{ACAD_XDICTIONARY
360
F10BE7
102
}
330
244
100
AcDbSymbolTableRecord
100
AcDbLayerTableRecord
  2
0
 70
     0
 62
     7
  6
Continuous
370
     0
390
251
  0
LAYER
  5
23F
102
{ACAD_XDICTIONARY
360
F10BE9
102
}
330
244
100
AcDbSymbolTableRecord
100
AcDbLayerTableRecord
  2
Bemassung
 70
     0
 62
     7
  6
Continuous
370
     0
390
251
  0
LAYER
  5
240
102
{ACAD_XDICTIONARY
360
F10BEB
102
}
330
244
100
AcDbSymbolTableRecord
100
AcDbLayerTableRecord
  2
Rahmen
 70
     0
 62
     7
  6
Continuous
370
     0
390
251
  0
LAYER
  5
241
102
{ACAD_XDICTIONARY
360
F10BED
102
}
330
244
100
AcDbSymbolTableRecord
100
AcDbLayerTableRecord
  2
Geo
 70
     0
 62
     7
  6
Continuous
370
     0
390
251
  0
LAYER
  5
33A
330
244
100
AcDbSymbolTableRecord
100
AcDbLayerTableRecord
  2
Defpoints
 70
     0
 62
     7
  6
Continuous
290
     0
370
    -3
390
251
  0
LAYER
  5
57E
102
{ACAD_XDICTIONARY
360
F10BEF
102
}
330
244
100
AcDbSymbolTableRecord
100
AcDbLayerTableRecord
  2
Text
 70
     0
 62
     7
  6
Continuous
370
     0
390
251
1001
AcAecLayerStandard
1000

1000

  0
ENDTAB
  0
TABLE
  2
STYLE
  5
245
330
0
100
AcDbSymbolTable
 70
     5
  0
STYLE
  5
253
330
245
100
AcDbSymbolTableRecord
100
AcDbTextStyleTableRecord
  2
Standard
 70
     0
 40
0.0
 41
1.0
 50
0.0
 71
     0
 42
0.2
  3
Arial
  4

1001
ACAD
1000
Arial
1071
        0
  0
STYLE
  5
132
330
245
100
AcDbSymbolTableRecord
100
AcDbTextStyleTableRecord
  2
Beschriftung
 70
     0
 40
0.0
 41
1.0
 50
0.0
 71
     0
 42
0.2
  3
Arial
  4

1001
ACAD
1000
Arial
1071
        0
1001
AcadAnnotative
1000
AnnotativeData
1070
     1
1070
     1
  0
STYLE
  5
F10B02
330
245
100
AcDbSymbolTableRecord
100
AcDbTextStyleTableRecord
  2

 70
     1
 40
0.0
 41
1.0
 50
0.0
 71
     0
 42
0.2
  3
genltshp.shx
  4

  0
STYLE
  5
F10B10
330
245
100
AcDbSymbolTableRecord
100
AcDbTextStyleTableRecord
  2
ACANSTS
 70
     0
 40
1.0
 41
1.0
 50
0.0
 71
     0
 42
0.2
  3
romans.shx
  4

  0
STYLE
  5
F10B11
330
245
100
AcDbSymbolTableRecord
100
AcDbTextStyleTableRecord
  2
ACANSGDT
 70
     0
 40
0.0
 41
1.0
 50
0.0
 71
     0
 42
0.2
  3
amgdt.shx
  4

  0
ENDTAB
  0
TABLE
  2
VIEW
  5
248
330
0
100
AcDbSymbolTable
 70
     0
  0
ENDTAB
  0
TABLE
  2
UCS
  5
249
330
0
100
AcDbSymbolTable
 70
     0
  0
ENDTAB
  0
TABLE
  2
APPID
  5
24B
330
0
100
AcDbSymbolTable
 70
    28
  0
APPID
  5
254
330
24B
100
AcDbSymbolTableRecord
100
AcDbRegAppTableRecord
  2
ACAD
 70
     0
  0
APPID
  5
26C
330
24B
100
AcDbSymbolTableRecord
100
AcDbRegAppTableRecord
  2
VD_INVISIBLE_NOT_FOR_READ
 70
     0
  0
APPID
  5
26D
330
24B
100
AcDbSymbolTableRecord
100
AcDbRegAppTableRecord
  2
VD_TEMPHATCH
 70
     0
  0
APPID
  5
26E
330
24B
100
AcDbSymbolTableRecord
100
AcDbRegAppTableRecord
  2
VDEXTRAPARAM
 70
     0
  0
APPID
  5
26F
330
24B
100
AcDbSymbolTableRecord
100
AcDbRegAppTableRecord
  2
PE_URL
 70
     0
  0
APPID
  5
270
330
24B
100
AcDbSymbolTableRecord
100
AcDbRegAppTableRecord
  2
VD_UNKNOWN
 70
     0
  0
APPID
  5
28F
330
24B
100
AcDbSymbolTableRecord
100
AcDbRegAppTableRecord
  2
AcadAnnotative
 70
     0
  0
APPID
  5
290
330
24B
100
AcDbSymbolTableRecord
100
AcDbRegAppTableRecord
  2
ACAD_DSTYLE_DIMJAG
 70
     0
  0
APPID
  5
291
330
24B
100
AcDbSymbolTableRecord
100
AcDbRegAppTableRecord
  2
ACAD_DSTYLE_DIMTALN
 70
     0
  0
APPID
  5
293
330
24B
100
AcDbSymbolTableRecord
100
AcDbRegAppTableRecord
  2
ACAD_PSEXT
 70
     0
  0
APPID
  5
42A
330
24B
100
AcDbSymbolTableRecord
100
AcDbRegAppTableRecord
  2
ACAD_MLEADERVER
 70
     0
  0
APPID
  5
532
330
24B
100
AcDbSymbolTableRecord
100
AcDbRegAppTableRecord
  2
ACAD_EXEMPT_FROM_CAD_STANDARDS
 70
     0
  0
APPID
  5
57F
330
24B
100
AcDbSymbolTableRecord
100
AcDbRegAppTableRecord
  2
AcAecLayerStandard
 70
     0
  0
APPID
  5
F10A95
330
24B
100
AcDbSymbolTableRecord
100
AcDbRegAppTableRecord
  2
MCAD_NO_VIS
 70
     0
  0
APPID
  5
F10A96
330
24B
100
AcDbSymbolTableRecord
100
AcDbRegAppTableRecord
  2
ACAD_TEMP_GRAPHIC
 70
     0
  0
APPID
  5
F10ABF
330
24B
100
AcDbSymbolTableRecord
100
AcDbRegAppTableRecord
  2
AD_DRAW
 70
     0
  0
APPID
  5
F10AC2
330
24B
100
AcDbSymbolTableRecord
100
AcDbRegAppTableRecord
  2
ACATTRIBSERVICES
 70
     0
  0
APPID
  5
F10ADB
330
24B
100
AcDbSymbolTableRecord
100
AcDbRegAppTableRecord
  2
DESIGNERASSEMBLIES
 70
     0
  0
APPID
  5
F10AE0
330
24B
100
AcDbSymbolTableRecord
100
AcDbRegAppTableRecord
  2
ACADM_DIM_EDIT
 70
     0
  0
APPID
  5
F10AE1
330
24B
100
AcDbSymbolTableRecord
100
AcDbRegAppTableRecord
  2
AMDT_DM_ADJ
 70
     0
  0
APPID
  5
F10AF9
330
24B
100
AcDbSymbolTableRecord
100
AcDbRegAppTableRecord
  2
ACAD_DSTYLE_DIMBREAK
 70
     0
  0
APPID
  5
F10B1A
330
24B
100
AcDbSymbolTableRecord
100
AcDbRegAppTableRecord
  2
GENIUS_GENSCREG_15
 70
     0
  0
APPID
  5
F10B1B
330
24B
100
AcDbSymbolTableRecord
100
AcDbRegAppTableRecord
  2
GENIUS_GENOBJ-N-SDF_13
 70
     0
  0
APPID
  5
F10B1C
330
24B
100
AcDbSymbolTableRecord
100
AcDbRegAppTableRecord
  2
GENIUS_GENODEF_13
 70
     0
  0
APPID
  5
F10C35
330
24B
100
AcDbSymbolTableRecord
100
AcDbRegAppTableRecord
  2
ACAD_DSTYLE_DIMARC_LENGTH_SYMBOL
 70
     0
  0
APPID
  5
F10C36
330
24B
100
AcDbSymbolTableRecord
100
AcDbRegAppTableRecord
  2
ACAD_DSTYLE_DIM_LINETYPE
 70
     0
  0
APPID
  5
F10C37
330
24B
100
AcDbSymbolTableRecord
100
AcDbRegAppTableRecord
  2
ACAD_DSTYLE_DIM_EXT1_LINETYPE
 70
     0
  0
APPID
  5
F10C38
330
24B
100
AcDbSymbolTableRecord
100
AcDbRegAppTableRecord
  2
ACAD_DSTYLE_DIM_EXT2_LINETYPE
 70
     0
  0
ENDTAB
  0
TABLE
  2
DIMSTYLE
  5
24C
330
0
100
AcDbSymbolTable
 70
     9
100
AcDbDimStyleTable
 71
     2
340
27
340
269
  0
DIMSTYLE
105
269
330
24C
100
AcDbSymbolTableRecord
100
AcDbDimStyleTableRecord
  2
Standard
 70
     0
172
     1
174
     1
288
     1
340
253
342
23C
  0
DIMSTYLE
105
137
330
24C
100
AcDbSymbolTableRecord
100
AcDbDimStyleTableRecord
  2
Beschriftung
 70
     0
 41
2.5
 42
0.625
 44
1.25
 73
     0
 74
     0
 77
     1
140
2.5
147
0.625
172
     1
174
     1
271
     2
288
     1
340
253
342
23C
1001
AcadAnnotative
1000
AnnotativeData
1070
     1
1070
     1
1001
ACAD_DSTYLE_DIMJAG
1070
   388
1040
1.5
1001
ACAD_DSTYLE_DIMTALN
1070
   392
1070
     0
  0
DIMSTYLE
105
27
102
{ACAD_REACTORS
330
F1000D
330
F10017
330
F10021
330
F10008
330
F10012
102
}
330
24C
100
AcDbSymbolTableRecord
100
AcDbDimStyleTableRecord
  2
BEM-ISBE
 70
     0
 41
2.5
 42
0.625
 44
1.25
 48
0.000000001
 71
     1
 73
     0
 74
     0
 77
     1
140
2.5
146
0.5
147
0.625
171
     3
172
     1
179
     3
271
     3
272
     3
274
     3
340
253
342
23C
1001
ACAD_DSTYLE_DIMJAG
1070
   388
1040
1.5
1001
ACAD_DSTYLE_DIMTALN
1070
   392
1070
     1
  0
DIMSTYLE
105
F10AF8
102
{ACAD_REACTORS
330
F10AE8
102
}
330
24C
100
AcDbSymbolTableRecord
100
AcDbDimStyleTableRecord
  2
AM_ANSI
 70
     0
  4
mm
 41
0.12
 42
0.05
 43
0.5
 44
0.1
 47
0.1
 48
0.1
 78
     7
 79
     2
140
0.12
141
0.0
146
0.71
147
0.06
176
   256
177
   256
178
     2
274
     4
284
     7
340
253
371
    -1
372
    -1
1001
ACAD_DSTYLE_DIMJAG
1070
   388
1040
1.5
1001
ACAD_DSTYLE_DIMBREAK
1070
   391
1040
0.125
1001
ACAD_DSTYLE_DIMARC_LENGTH_SYMBOL
1070
   379
1070
     1
1001
ACAD_DSTYLE_DIM_LINETYPE
1070
   380
1005
256
1001
ACAD_DSTYLE_DIM_EXT1_LINETYPE
1070
   381
1005
256
1001
ACAD_DSTYLE_DIM_EXT2_LINETYPE
1070
   382
1005
256
  0
DIMSTYLE
105
F10B05
330
24C
100
AcDbSymbolTableRecord
100
AcDbDimStyleTableRecord
  2
AM_ANSI$3
 70
     0
  4
mm
 41
0.12
 42
0.05
 43
0.5
 44
0.1
 47
0.1
 48
0.1
 78
     7
 79
     2
140
0.12
141
0.0
146
0.71
147
0.06
176
   256
177
   256
178
     2
274
     4
284
     7
288
     1
289
     0
340
253
371
    -1
372
    -1
1001
ACAD_DSTYLE_DIMBREAK
1070
   391
1040
0.125
1001
ACAD_DSTYLE_DIMJAG
1070
   388
1040
1.5
1001
ACAD_DSTYLE_DIMARC_LENGTH_SYMBOL
1070
   379
1070
     1
1001
ACAD_DSTYLE_DIM_LINETYPE
1070
   380
1005
256
1001
ACAD_DSTYLE_DIM_EXT1_LINETYPE
1070
   381
1005
256
1001
ACAD_DSTYLE_DIM_EXT2_LINETYPE
1070
   382
1005
256
  0
DIMSTYLE
105
F10B06
330
24C
100
AcDbSymbolTableRecord
100
AcDbDimStyleTableRecord
  2
AM_ANSI$4
 70
     0
  4
mm
 41
0.12
 42
0.05
 43
0.5
 44
0.1
 47
0.1
 48
0.1
 78
     7
 79
     2
140
0.12
141
0.0
146
0.71
147
0.06
176
   256
177
   256
178
     2
274
     4
284
     7
288
     1
289
     0
340
253
371
    -1
372
    -1
1001
ACAD_DSTYLE_DIMBREAK
1070
   391
1040
0.125
1001
ACAD_DSTYLE_DIMJAG
1070
   388
1040
1.5
1001
ACAD_DSTYLE_DIMARC_LENGTH_SYMBOL
1070
   379
1070
     1
1001
ACAD_DSTYLE_DIM_LINETYPE
1070
   380
1005
256
1001
ACAD_DSTYLE_DIM_EXT1_LINETYPE
1070
   381
1005
256
1001
ACAD_DSTYLE_DIM_EXT2_LINETYPE
1070
   382
1005
256
  0
DIMSTYLE
105
F10B07
330
24C
100
AcDbSymbolTableRecord
100
AcDbDimStyleTableRecord
  2
AM_ANSI$7
 70
     0
  4
mm
 41
0.12
 42
0.05
 43
0.5
 44
0.1
 47
0.1
 48
0.1
 78
     7
 79
     2
140
0.12
141
0.0
146
0.71
147
0.06
176
   256
177
   256
178
     2
274
     4
284
     7
340
253
371
    -1
372
    -1
1001
ACAD_DSTYLE_DIMBREAK
1070
   391
1040
0.125
1001
ACAD_DSTYLE_DIMJAG
1070
   388
1040
1.5
1001
ACAD_DSTYLE_DIMARC_LENGTH_SYMBOL
1070
   379
1070
     1
1001
ACAD_DSTYLE_DIM_LINETYPE
1070
   380
1005
256
1001
ACAD_DSTYLE_DIM_EXT1_LINETYPE
1070
   381
1005
256
1001
ACAD_DSTYLE_DIM_EXT2_LINETYPE
1070
   382
1005
256
  0
DIMSTYLE
105
F10B08
330
24C
100
AcDbSymbolTableRecord
100
AcDbDimStyleTableRecord
  2
AM_ANSI$SF
 70
     0
  4
mm
 41
0.12
 42
0.05
 43
0.5
 44
0.1
 47
0.1
 48
0.1
 75
     1
 76
     1
 78
     7
 79
     2
140
0.12
141
0.0
146
0.71
147
0.06
176
   256
177
   256
178
     2
274
     4
284
     7
340
253
371
    -1
372
    -1
1001
ACAD_DSTYLE_DIMBREAK
1070
   391
1040
0.125
1001
ACAD_DSTYLE_DIMJAG
1070
   388
1040
1.5
1001
ACAD_DSTYLE_DIMARC_LENGTH_SYMBOL
1070
   379
1070
     1
1001
ACAD_DSTYLE_DIM_LINETYPE
1070
   380
1005
256
1001
ACAD_DSTYLE_DIM_EXT1_LINETYPE
1070
   381
1005
256
1001
ACAD_DSTYLE_DIM_EXT2_LINETYPE
1070
   382
1005
256
  0
DIMSTYLE
105
F10B0D
330
24C
100
AcDbSymbolTableRecord
100
AcDbDimStyleTableRecord
  2
AM_ANSI$SH
 70
     0
  4
mm
 41
0.12
 42
0.05
 43
0.5
 44
0.1
 47
0.1
 48
0.1
 75
     1
 76
     1
 78
     7
 79
     2
140
0.12
141
0.0
146
0.71
147
0.06
173
     1
176
   256
177
   256
178
     2
274
     4
284
     7
340
253
343
F10B09
371
    -1
372
    -1
1001
ACAD_DSTYLE_DIMBREAK
1070
   391
1040
0.125
1001
ACAD_DSTYLE_DIMJAG
1070
   388
1040
1.5
1001
ACAD_DSTYLE_DIMARC_LENGTH_SYMBOL
1070
   379
1070
     1
1001
ACAD_DSTYLE_DIM_LINETYPE
1070
   380
1005
256
1001
ACAD_DSTYLE_DIM_EXT1_LINETYPE
1070
   381
1005
256
1001
ACAD_DSTYLE_DIM_EXT2_LINETYPE
1070
   382
1005
256
  0
ENDTAB
  0
TABLE
  2
BLOCK_RECORD
  5
243
330
0
100
AcDbSymbolTable
 70
    12
  0
BLOCK_RECORD
  5
261
330
243
100
AcDbSymbolTableRecord
100
AcDbBlockTableRecord
  2
*Model_Space
340
FD0
  0
BLOCK_RECORD
  5
25D
330
243
100
AcDbSymbolTableRecord
100
AcDbBlockTableRecord
  2
*Paper_Space
340
FD1
  0
BLOCK_RECORD
  5
265
330
243
100
AcDbSymbolTableRecord
100
AcDbBlockTableRecord
  2
*Paper_Space0
340
0
  0
BLOCK_RECORD
  5
23C
330
243
100
AcDbSymbolTableRecord
100
AcDbBlockTableRecord
  2
VDDIM_DEFAULT
340
0
102
{BLKREFS
331
F10B64
331
F10B65
331
F10B76
331
F10B77
331
F10BBB
331
F10BBC
331
F10BC4
331
F10BC5
331
F10BCF
331
F10BD0
331
F10BD8
331
F10BD9
331
F10BE1
331
F10BE2
102
}
  0
BLOCK_RECORD
  5
23E
330
243
100
AcDbSymbolTableRecord
100
AcDbBlockTableRecord
  2
VDDIM_NONE
340
0
  0
BLOCK_RECORD
  5
F10002
330
243
100
AcDbSymbolTableRecord
100
AcDbBlockTableRecord
  2
*D3
340
0
  0
BLOCK_RECORD
  5
F1000C
330
243
100
AcDbSymbolTableRecord
100
AcDbBlockTableRecord
  2
*D4
340
0
  0
BLOCK_RECORD
  5
F10016
330
243
100
AcDbSymbolTableRecord
100
AcDbBlockTableRecord
  2
*D5
340
0
  0
BLOCK_RECORD
  5
F1001B
330
243
100
AcDbSymbolTableRecord
100
AcDbBlockTableRecord
  2
*D6
340
0
  0
BLOCK_RECORD
  5
F10020
330
243
100
AcDbSymbolTableRecord
100
AcDbBlockTableRecord
  2
*D7
340
0
  0
BLOCK_RECORD
  5
F10007
330
243
100
AcDbSymbolTableRecord
100
AcDbBlockTableRecord
  2
*D8
340
0
  0
BLOCK_RECORD
  5
F10011
330
243
100
AcDbSymbolTableRecord
100
AcDbBlockTableRecord
  2
*D9
340
0
  0
BLOCK_RECORD
  5
F10B09
330
243
100
AcDbSymbolTableRecord
100
AcDbBlockTableRecord
  2
GENAXEH
340
0
  0
ENDTAB
  0
ENDSEC
  0
SECTION
  2
BLOCKS
  0
BLOCK
  5
262
330
261
100
AcDbEntity
  8
0
100
AcDbBlockBegin
  2
*Model_Space
 70
     0
 10
0.0
 20
0.0
 30
0.0
  3
*Model_Space
  1

  0
ENDBLK
  5
263
330
261
100
AcDbEntity
  8
0
100
AcDbBlockEnd
  0
BLOCK
  5
25E
330
25D
100
AcDbEntity
 67
     1
  8
0
100
AcDbBlockBegin
  2
*Paper_Space
 70
     0
 10
0.0
 20
0.0
 30
0.0
  3
*Paper_Space
  1

  0
ENDBLK
  5
25F
330
25D
100
AcDbEntity
 67
     1
  8
0
100
AcDbBlockEnd
  0
BLOCK
  5
266
330
265
100
AcDbEntity
  8
0
100
AcDbBlockBegin
  2
*Paper_Space0
 70
     0
 10
0.0
 20
0.0
 30
0.0
  3
*Paper_Space0
  1

  0
VIEWPORT
  5
296
102
{ACAD_XDICTIONARY
360
58E
102
}
330
265
100
AcDbEntity
  8
0
 60
     1
100
AcDbViewport
 10
0.0
 20
0.0
 30
0.0
 40
10.0
 41
10.0
 69
     0
 12
0.0
 22
0.0
 13
0.0
 23
0.0
 14
1.0
 24
1.0
 15
0.0
 25
0.0
 16
0.0
 26
0.0
 36
1.0
 17
0.0
 27
0.0
 37
0.0
 42
0.0
 43
0.0
 44
0.0
 45
10.0
 50
0.0
 51
0.0000000000007958
 72
   100
 90
   163872
  1

281
     0
 71
     0
 74
     0
110
0.0
120
0.0
130
0.0
111
1.0
121
0.0
131
0.0
112
0.0
122
1.0
132
0.0
 79
     0
146
0.0
1001
VD_INVISIBLE_NOT_FOR_READ
1000
VD_INVISIBLE_NOT_FOR_READ
  0
VIEWPORT
  5
297
102
{ACAD_XDICTIONARY
360
590
102
}
330
265
100
AcDbEntity
  8
0
 60
     1
100
AcDbViewport
 10
0.0
 20
0.0
 30
0.0
 40
10.0
 41
10.0
 69
     0
 12
0.0
 22
0.0
 13
0.0
 23
0.0
 14
1.0
 24
1.0
 15
0.0
 25
0.0
 16
0.0
 26
0.0
 36
1.0
 17
0.0
 27
0.0
 37
0.0
 42
0.0
 43
0.0
 44
0.0
 45
10.0
 50
0.0
 51
0.0000000000007958
 72
   100
 90
   163872
  1

281
     0
 71
     0
 74
     0
110
0.0
120
0.0
130
0.0
111
1.0
121
0.0
131
0.0
112
0.0
122
1.0
132
0.0
 79
     0
146
0.0
1001
VD_INVISIBLE_NOT_FOR_READ
1000
VD_INVISIBLE_NOT_FOR_READ
  0
ENDBLK
  5
267
330
265
100
AcDbEntity
  8
0
100
AcDbBlockEnd
  0
BLOCK
  5
28B
330
23C
100
AcDbEntity
  8
0
100
AcDbBlockBegin
  2
VDDIM_DEFAULT
 70
     0
 10
0.0
 20
0.0
 30
0.0
  3
VDDIM_DEFAULT
  1

  0
LWPOLYLINE
  5
23D
330
23C
100
AcDbEntity
  8
0
  6
Continuous
 62
     0
100
AcDbPolyline
 90
        4
 70
     0
 43
0.0
 10
0.0
 20
0.0
 10
-1.0
 20
-0.1665
 10
-1.0
 20
0.1665
 10
0.0
 20
0.0
1001
VDEXTRAPARAM
1071
        1
1071
        0
1071
        0
1040
1.0
1000

1000

1040
0.0
1040
0.0
  0
HATCH
  5
292
330
23C
100
AcDbEntity
  8
0
  6
Continuous
 62
     0
100
AcDbHatch
 10
0.0
 20
0.0
 30
0.0
210
0.0
220
0.0
230
1.0
  2
SOLID
 70
     1
 71
     0
 91
        1
 92
        2
 72
     0
 73
     1
 93
        3
 10
0.0
 20
0.0
 10
-1.0
 20
-0.1665
 10
-1.0
 20
0.1665
 97
        0
 75
     0
 76
     1
 98
        1
 10
0.0
 20
0.0
1001
VDEXTRAPARAM
1071
        1
1071
        0
1071
        0
1040
1.0
1000

1000

1040
0.0
1040
0.0
1001
VD_TEMPHATCH
1000
VD_TEMPHATCH
  0
ENDBLK
  5
28C
330
23C
100
AcDbEntity
  8
0
100
AcDbBlockEnd
  0
BLOCK
  5
28D
330
23E
100
AcDbEntity
  8
0
100
AcDbBlockBegin
  2
VDDIM_NONE
 70
     0
 10
0.0
 20
0.0
 30
0.0
  3
VDDIM_NONE
  1

  0
ENDBLK
  5
28E
330
23E
100
AcDbEntity
  8
0
100
AcDbBlockEnd
  0
BLOCK
  5
F10025
330
F10002
100
AcDbEntity
  8
0
100
AcDbBlockBegin
  2
*D3
 70
     1
 10
0.0
 20
0.0
 30
0.0
  3
*D3
  1

  0
LINE
  5
F10B5F
330
F10002
100
AcDbEntity
  8
Bemassung
 62
     0
370
    -2
100
AcDbLine
 10
-90.11588683351471
 20
36.7294613710555
 30
0.0
 11
-90.11588683351471
 21
50.3544613710555
 31
0.0
  0
LINE
  5
F10B60
330
F10002
100
AcDbEntity
  8
Bemassung
 62
     0
370
    -2
100
AcDbLine
 10
-89.96588683351472
 20
39.7294613710555
 30
0.0
 11
-89.96588683351472
 21
50.3544613710555
 31
0.0
  0
LINE
  5
F10B61
330
F10002
100
AcDbEntity
  8
Bemassung
 62
     0
370
    -2
100
AcDbLine
 10
-92.61588683351471
 20
49.1044613710555
 30
0.0
 11
-95.11588683351471
 21
49.1044613710555
 31
0.0
  0
LINE
  5
F10B62
330
F10002
100
AcDbEntity
  8
Bemassung
 62
     0
370
    -2
100
AcDbLine
 10
-87.46588683351472
 20
49.1044613710555
 30
0.0
 11
-77.20326746107271
 21
49.1044613710555
 31
0.0
  0
LINE
  5
F10B63
330
F10002
100
AcDbEntity
  8
Bemassung
 62
     0
370
    -2
100
AcDbLine
 10
-90.11588683351471
 20
49.1044613710555
 30
0.0
 11
-89.96588683351472
 21
49.1044613710555
 31
0.0
  0
INSERT
  5
F10B64
330
F10002
100
AcDbEntity
  8
Bemassung
 62
     0
370
    -2
100
AcDbBlockReference
  2
VDDIM_DEFAULT
 10
-90.11588683351471
 20
49.1044613710555
 30
0.0
 41
2.5
 42
2.5
 43
2.5
  0
INSERT
  5
F10B65
330
F10002
100
AcDbEntity
  8
Bemassung
 62
     0
370
    -2
100
AcDbBlockReference
  2
VDDIM_DEFAULT
 10
-89.96588683351472
 20
49.1044613710555
 30
0.0
 41
2.5
 42
2.5
 43
2.5
 50
180.0
  0
MTEXT
  5
F10B66
330
F10002
100
AcDbEntity
  8
Bemassung
 62
     0
100
AcDbMText
 10
-81.08457714729372
 20
49.7294613710555
 30
0.0
 40
2.5
 41
0.0
 71
     8
 72
     1
  1
\A1;0.15
 73
     1
 44
1.0
1001
ACAD
1000
MTEXTBEGIN
1070
    73
1070
     1
1070
    44
1040
1.0
1070
    74
1070
     0
1000
MTEXTEND
  0
POINT
  5
F10B67
330
F10002
100
AcDbEntity
  8
Defpoints
 62
     0
100
AcDbPoint
 10
-90.11588683351471
 20
36.1044613710555
 30
0.0
  0
POINT
  5
F10B68
330
F10002
100
AcDbEntity
  8
Defpoints
 62
     0
100
AcDbPoint
 10
-89.96588683351472
 20
39.1044613710555
 30
0.0
  0
POINT
  5
F10B69
330
F10002
100
AcDbEntity
  8
Defpoints
 62
     0
100
AcDbPoint
 10
-89.96588683351472
 20
49.1044613710555
 30
0.0
  0
ENDBLK
  5
F1002E
330
F10002
100
AcDbEntity
  8
0
100
AcDbBlockEnd
  0
BLOCK
  5
F1002F
330
F1000C
100
AcDbEntity
  8
0
100
AcDbBlockBegin
  2
*D4
 70
     1
 10
0.0
 20
0.0
 30
0.0
  3
*D4
  1

  0
LINE
  5
F10BC1
330
F1000C
100
AcDbEntity
  8
Bemassung
 62
     0
370
    -2
100
AcDbLine
 10
-19.89515120516323
 20
12.01258018227749
 30
0.0
 11
-19.89515120516323
 21
20.43367000405932
 31
0.0
  0
LINE
  5
F10BC2
330
F1000C
100
AcDbEntity
  8
Bemassung
 62
     0
370
    -2
100
AcDbLine
 10
16.10484879483675
 20
11.71258018227748
 30
0.0
 11
16.10484879483675
 21
20.43367000405932
 31
0.0
  0
LINE
  5
F10BC3
330
F1000C
100
AcDbEntity
  8
Bemassung
 62
     0
370
    -2
100
AcDbLine
 10
-17.39515120516323
 20
19.18367000405931
 30
0.0
 11
13.60484879483675
 21
19.18367000405931
 31
0.0
  0
INSERT
  5
F10BC4
330
F1000C
100
AcDbEntity
  8
Bemassung
 62
     0
370
    -2
100
AcDbBlockReference
  2
VDDIM_DEFAULT
 10
-19.89515120516323
 20
19.18367000405931
 30
0.0
 41
2.5
 42
2.5
 43
2.5
 50
180.0
  0
INSERT
  5
F10BC5
330
F1000C
100
AcDbEntity
  8
Bemassung
 62
     0
370
    -2
100
AcDbBlockReference
  2
VDDIM_DEFAULT
 10
16.10484879483675
 20
19.18367000405931
 30
0.0
 41
2.5
 42
2.5
 43
2.5
  0
MTEXT
  5
F10BC6
330
F1000C
100
AcDbEntity
  8
Bemassung
 62
     0
100
AcDbMText
 10
-1.233706821064998
 20
19.80867000405931
 30
0.0
 40
2.5
 41
0.0
 71
     8
 72
     1
  1
\A1;36
 73
     1
 44
1.0
1001
ACAD
1000
MTEXTBEGIN
1070
    73
1070
     1
1070
    44
1040
1.0
1070
    74
1070
     0
1000
MTEXTEND
  0
POINT
  5
F10BC7
330
F1000C
100
AcDbEntity
  8
Defpoints
 62
     0
100
AcDbPoint
 10
-19.89515120516323
 20
11.38758018227749
 30
0.0
  0
POINT
  5
F10BC8
330
F1000C
100
AcDbEntity
  8
Defpoints
 62
     0
100
AcDbPoint
 10
16.10484879483675
 20
11.08758018227748
 30
0.0
  0
POINT
  5
F10BC9
330
F1000C
100
AcDbEntity
  8
Defpoints
 62
     0
100
AcDbPoint
 10
16.10484879483675
 20
19.18367000405931
 30
0.0
  0
ENDBLK
  5
F10038
330
F1000C
100
AcDbEntity
  8
0
100
AcDbBlockEnd
  0
BLOCK
  5
F10039
330
F10016
100
AcDbEntity
  8
0
100
AcDbBlockBegin
  2
*D5
 70
     1
 10
0.0
 20
0.0
 30
0.0
  3
*D5
  1

  0
LINE
  5
F10BD5
330
F10016
100
AcDbEntity
  8
Bemassung
 62
     0
370
    -2
100
AcDbLine
 10
-27.89515120516323
 20
6.012580182277488
 30
0.0
 11
-27.89515120516323
 21
19.12153845174338
 31
0.0
  0
LINE
  5
F10BD6
330
F10016
100
AcDbEntity
  8
Bemassung
 62
     0
370
    -2
100
AcDbLine
 10
-37.89515120516325
 20
9.012580182277488
 30
0.0
 11
-37.89515120516325
 21
19.12153845174338
 31
0.0
  0
LINE
  5
F10BD7
330
F10016
100
AcDbEntity
  8
Bemassung
 62
     0
370
    -2
100
AcDbLine
 10
-30.39515120516323
 20
17.87153845174338
 30
0.0
 11
-35.39515120516325
 21
17.87153845174338
 31
0.0
  0
INSERT
  5
F10BD8
330
F10016
100
AcDbEntity
  8
Bemassung
 62
     0
370
    -2
100
AcDbBlockReference
  2
VDDIM_DEFAULT
 10
-27.89515120516323
 20
17.87153845174338
 30
0.0
 41
2.5
 42
2.5
 43
2.5
  0
INSERT
  5
F10BD9
330
F10016
100
AcDbEntity
  8
Bemassung
 62
     0
370
    -2
100
AcDbBlockReference
  2
VDDIM_DEFAULT
 10
-37.89515120516325
 20
17.87153845174338
 30
0.0
 41
2.5
 42
2.5
 43
2.5
 50
180.0
  0
MTEXT
  5
F10BDA
330
F10016
100
AcDbEntity
  8
Bemassung
 62
     0
100
AcDbMText
 10
-32.49336642214125
 20
18.49653845174338
 30
0.0
 40
2.5
 41
0.0
 71
     8
 72
     1
  1
\A1;10
 73
     1
 44
1.0
1001
ACAD
1000
MTEXTBEGIN
1070
    73
1070
     1
1070
    44
1040
1.0
1070
    74
1070
     0
1000
MTEXTEND
  0
POINT
  5
F10BDB
330
F10016
100
AcDbEntity
  8
Defpoints
 62
     0
100
AcDbPoint
 10
-27.89515120516323
 20
5.387580182277488
 30
0.0
  0
POINT
  5
F10BDC
330
F10016
100
AcDbEntity
  8
Defpoints
 62
     0
100
AcDbPoint
 10
-37.89515120516325
 20
8.387580182277488
 30
0.0
  0
POINT
  5
F10BDD
330
F10016
100
AcDbEntity
  8
Defpoints
 62
     0
100
AcDbPoint
 10
-37.89515120516325
 20
17.87153845174338
 30
0.0
  0
ENDBLK
  5
F10042
330
F10016
100
AcDbEntity
  8
0
100
AcDbBlockEnd
  0
BLOCK
  5
F10043
330
F1001B
100
AcDbEntity
  8
0
100
AcDbBlockBegin
  2
*D6
 70
     1
 10
0.0
 20
0.0
 30
0.0
  3
*D6
  1

  0
LINE
  5
F10B73
330
F1001B
100
AcDbEntity
  8
Bemassung
 62
     0
370
    -2
100
AcDbLine
 10
-72.11588683351469
 20
32.4794613710555
 30
0.0
 11
-72.11588683351469
 21
6.854461371055489
 31
0.0
  0
LINE
  5
F10B74
330
F1001B
100
AcDbEntity
  8
Bemassung
 62
     0
370
    -2
100
AcDbLine
 10
-90.11588683351471
 20
35.4794613710555
 30
0.0
 11
-90.11588683351471
 21
6.854461371055489
 31
0.0
  0
LINE
  5
F10B75
330
F1001B
100
AcDbEntity
  8
Bemassung
 62
     0
370
    -2
100
AcDbLine
 10
-74.61588683351469
 20
8.104461371055489
 30
0.0
 11
-87.61588683351471
 21
8.104461371055489
 31
0.0
  0
INSERT
  5
F10B76
330
F1001B
100
AcDbEntity
  8
Bemassung
 62
     0
370
    -2
100
AcDbBlockReference
  2
VDDIM_DEFAULT
 10
-72.11588683351469
 20
8.104461371055489
 30
0.0
 41
2.5
 42
2.5
 43
2.5
  0
INSERT
  5
F10B77
330
F1001B
100
AcDbEntity
  8
Bemassung
 62
     0
370
    -2
100
AcDbBlockReference
  2
VDDIM_DEFAULT
 10
-90.11588683351471
 20
8.104461371055489
 30
0.0
 41
2.5
 42
2.5
 43
2.5
 50
180.0
  0
MTEXT
  5
F10B78
330
F1001B
100
AcDbEntity
  8
Bemassung
 62
     0
100
AcDbMText
 10
-81.1158868335147
 20
8.729461371055489
 30
0.0
 40
2.5
 41
0.0
 71
     8
 72
     1
  1
\A1;18
 73
     1
 44
1.0
1001
ACAD
1000
MTEXTBEGIN
1070
    73
1070
     1
1070
    44
1040
1.0
1070
    74
1070
     0
1000
MTEXTEND
  0
POINT
  5
F10B79
330
F1001B
100
AcDbEntity
  8
Defpoints
 62
     0
100
AcDbPoint
 10
-72.11588683351469
 20
33.1044613710555
 30
0.0
  0
POINT
  5
F10B7A
330
F1001B
100
AcDbEntity
  8
Defpoints
 62
     0
100
AcDbPoint
 10
-90.11588683351471
 20
36.1044613710555
 30
0.0
  0
POINT
  5
F10B7B
330
F1001B
100
AcDbEntity
  8
Defpoints
 62
     0
100
AcDbPoint
 10
-90.11588683351471
 20
8.104461371055489
 30
0.0
  0
ENDBLK
  5
F1004C
330
F1001B
100
AcDbEntity
  8
0
100
AcDbBlockEnd
  0
BLOCK
  5
F1004D
330
F10020
100
AcDbEntity
  8
0
100
AcDbBlockBegin
  2
*D7
 70
     1
 10
0.0
 20
0.0
 30
0.0
  3
*D7
  1

  0
LINE
  5
F10BDE
330
F10020
100
AcDbEntity
  8
Bemassung
 62
     0
370
    -2
100
AcDbLine
 10
16.10484879483675
 20
11.71258018227748
 30
0.0
 11
16.10484879483675
 21
30.17472351055057
 31
0.0
  0
LINE
  5
F10BDF
330
F10020
100
AcDbEntity
  8
Bemassung
 62
     0
370
    -2
100
AcDbLine
 10
-37.89515120516325
 20
9.012580182277488
 30
0.0
 11
-37.89515120516325
 21
30.17472351055057
 31
0.0
  0
LINE
  5
F10BE0
330
F10020
100
AcDbEntity
  8
Bemassung
 62
     0
370
    -2
100
AcDbLine
 10
13.60484879483675
 20
28.92472351055057
 30
0.0
 11
-35.39515120516325
 21
28.92472351055057
 31
0.0
  0
INSERT
  5
F10BE1
330
F10020
100
AcDbEntity
  8
Bemassung
 62
     0
370
    -2
100
AcDbBlockReference
  2
VDDIM_DEFAULT
 10
16.10484879483675
 20
28.92472351055057
 30
0.0
 41
2.5
 42
2.5
 43
2.5
  0
INSERT
  5
F10BE2
330
F10020
100
AcDbEntity
  8
Bemassung
 62
     0
370
    -2
100
AcDbBlockReference
  2
VDDIM_DEFAULT
 10
-37.89515120516325
 20
28.92472351055057
 30
0.0
 41
2.5
 42
2.5
 43
2.5
 50
180.0
  0
MTEXT
  5
F10BE3
330
F10020
100
AcDbEntity
  8
Bemassung
 62
     0
100
AcDbMText
 10
-12.54573809371574
 20
29.54972351055057
 30
0.0
 40
2.5
 41
0.0
 71
     8
 72
     1
  1
\A1;54
 73
     1
 44
1.0
1001
ACAD
1000
MTEXTBEGIN
1070
    73
1070
     1
1070
    44
1040
1.0
1070
    74
1070
     0
1000
MTEXTEND
  0
POINT
  5
F10BE4
330
F10020
100
AcDbEntity
  8
Defpoints
 62
     0
100
AcDbPoint
 10
16.10484879483675
 20
11.08758018227748
 30
0.0
  0
POINT
  5
F10BE5
330
F10020
100
AcDbEntity
  8
Defpoints
 62
     0
100
AcDbPoint
 10
-37.89515120516325
 20
8.387580182277488
 30
0.0
  0
POINT
  5
F10BE6
330
F10020
100
AcDbEntity
  8
Defpoints
 62
     0
100
AcDbPoint
 10
-37.89515120516325
 20
28.92472351055057
 30
0.0
  0
ENDBLK
  5
F10056
330
F10020
100
AcDbEntity
  8
0
100
AcDbBlockEnd
  0
BLOCK
  5
F10057
330
F10007
100
AcDbEntity
  8
0
100
AcDbBlockBegin
  2
*D8
 70
     1
 10
0.0
 20
0.0
 30
0.0
  3
*D8
  1

  0
LINE
  5
F10BB6
330
F10007
100
AcDbEntity
  8
Bemassung
 62
     0
370
    -2
100
AcDbLine
 10
-38.37015120516325
 20
5.387580182277489
 30
0.0
 11
-44.94733201919766
 21
5.38758018227749
 31
0.0
  0
LINE
  5
F10BB7
330
F10007
100
AcDbEntity
  8
Bemassung
 62
     0
370
    -2
100
AcDbLine
 10
-38.37015120516325
 20
11.38758018227749
 30
0.0
 11
-44.94733201919766
 21
11.38758018227749
 31
0.0
  0
LINE
  5
F10BB8
330
F10007
100
AcDbEntity
  8
Bemassung
 62
     0
370
    -2
100
AcDbLine
 10
-43.69733201919766
 20
13.88758018227749
 30
0.0
 11
-43.69733201919765
 21
16.38758018227749
 31
0.0
  0
LINE
  5
F10BB9
330
F10007
100
AcDbEntity
  8
Bemassung
 62
     0
370
    -2
100
AcDbLine
 10
-43.69733201919766
 20
2.88758018227749
 30
0.0
 11
-43.69733201919766
 21
-5.219513951419651
 31
0.0
  0
LINE
  5
F10BBA
330
F10007
100
AcDbEntity
  8
Bemassung
 62
     0
370
    -2
100
AcDbLine
 10
-43.69733201919766
 20
11.38758018227749
 30
0.0
 11
-43.69733201919766
 21
5.38758018227749
 31
0.0
  0
INSERT
  5
F10BBB
330
F10007
100
AcDbEntity
  8
Bemassung
 62
     0
370
    -2
100
AcDbBlockReference
  2
VDDIM_DEFAULT
 10
-43.69733201919766
 20
11.38758018227749
 30
0.0
 41
2.5
 42
2.5
 43
2.5
 50
270.0
  0
INSERT
  5
F10BBC
330
F10007
100
AcDbEntity
  8
Bemassung
 62
     0
370
    -2
100
AcDbBlockReference
  2
VDDIM_DEFAULT
 10
-43.69733201919766
 20
5.38758018227749
 30
0.0
 41
2.5
 42
2.5
 43
2.5
 50
90.0
  0
MTEXT
  5
F10BBD
330
F10007
100
AcDbEntity
  8
Bemassung
 62
     0
100
AcDbMText
 10
-44.32233201919766
 20
-2.415966884571091
 30
0.0
 40
2.5
 41
0.0
 71
     8
 72
     1
  1
\A1;%%c6
 11
0.0000000000000001
 21
1.0
 31
0.0
 73
     1
 44
1.0
1001
ACAD
1000
MTEXTBEGIN
1070
    73
1070
     1
1070
    44
1040
1.0
1070
    74
1070
     0
1000
MTEXTEND
  0
POINT
  5
F10BBE
330
F10007
100
AcDbEntity
  8
Defpoints
 62
     0
100
AcDbPoint
 10
-37.74515120516325
 20
5.387580182277488
 30
0.0
  0
POINT
  5
F10BBF
330
F10007
100
AcDbEntity
  8
Defpoints
 62
     0
100
AcDbPoint
 10
-37.74515120516325
 20
11.38758018227749
 30
0.0
  0
POINT
  5
F10BC0
330
F10007
100
AcDbEntity
  8
Defpoints
 62
     0
100
AcDbPoint
 10
-43.69733201919766
 20
11.38758018227749
 30
0.0
  0
ENDBLK
  5
F10060
330
F10007
100
AcDbEntity
  8
0
100
AcDbBlockEnd
  0
BLOCK
  5
F10061
330
F10011
100
AcDbEntity
  8
0
100
AcDbBlockBegin
  2
*D9
 70
     1
 10
0.0
 20
0.0
 30
0.0
  3
*D9
  1

  0
LINE
  5
F10BCA
330
F10011
100
AcDbEntity
  8
Bemassung
 62
     0
370
    -2
100
AcDbLine
 10
16.42984879483676
 20
5.387580182277488
 30
0.0
 11
24.72873125623926
 21
5.387580182277486
 31
0.0
  0
LINE
  5
F10BCB
330
F10011
100
AcDbEntity
  8
Bemassung
 62
     0
370
    -2
100
AcDbLine
 10
16.42984879483676
 20
11.38758018227749
 30
0.0
 11
24.72873125623927
 21
11.38758018227749
 31
0.0
  0
LINE
  5
F10BCC
330
F10011
100
AcDbEntity
  8
Bemassung
 62
     0
370
    -2
100
AcDbLine
 10
23.47873125623927
 20
13.88758018227749
 30
0.0
 11
23.47873125623927
 21
16.38758018227749
 31
0.0
  0
LINE
  5
F10BCD
330
F10011
100
AcDbEntity
  8
Bemassung
 62
     0
370
    -2
100
AcDbLine
 10
23.47873125623926
 20
2.887580182277486
 30
0.0
 11
23.47873125623926
 21
-10.07456170039646
 31
0.0
  0
LINE
  5
F10BCE
330
F10011
100
AcDbEntity
  8
Bemassung
 62
     0
370
    -2
100
AcDbLine
 10
23.47873125623927
 20
11.38758018227749
 30
0.0
 11
23.47873125623926
 21
5.387580182277486
 31
0.0
  0
INSERT
  5
F10BCF
330
F10011
100
AcDbEntity
  8
Bemassung
 62
     0
370
    -2
100
AcDbBlockReference
  2
VDDIM_DEFAULT
 10
23.47873125623927
 20
11.38758018227749
 30
0.0
 41
2.5
 42
2.5
 43
2.5
 50
270.0
  0
INSERT
  5
F10BD0
330
F10011
100
AcDbEntity
  8
Bemassung
 62
     0
370
    -2
100
AcDbBlockReference
  2
VDDIM_DEFAULT
 10
23.47873125623926
 20
5.387580182277486
 30
0.0
 41
2.5
 42
2.5
 43
2.5
 50
90.0
  0
MTEXT
  5
F10BD1
330
F10011
100
AcDbEntity
  8
Bemassung
 62
     0
100
AcDbMText
 10
22.85373125623926
 20
-4.84349075905949
 30
0.0
 40
2.5
 41
0.0
 71
     8
 72
     1
  1
\A1;%%c6 h6
 11
0.0000000000000001
 21
1.0
 31
0.0
 73
     1
 44
1.0
1001
ACAD
1000
MTEXTBEGIN
1070
    73
1070
     1
1070
    44
1040
1.0
1070
    74
1070
     0
1000
MTEXTEND
  0
POINT
  5
F10BD2
330
F10011
100
AcDbEntity
  8
Defpoints
 62
     0
100
AcDbPoint
 10
15.80484879483676
 20
5.387580182277488
 30
0.0
  0
POINT
  5
F10BD3
330
F10011
100
AcDbEntity
  8
Defpoints
 62
     0
100
AcDbPoint
 10
15.80484879483676
 20
11.38758018227749
 30
0.0
  0
POINT
  5
F10BD4
330
F10011
100
AcDbEntity
  8
Defpoints
 62
     0
100
AcDbPoint
 10
23.47873125623927
 20
11.38758018227749
 30
0.0
  0
ENDBLK
  5
F1006A
330
F10011
100
AcDbEntity
  8
0
100
AcDbBlockEnd
  0
BLOCK
  5
F10B0B
330
F10B09
100
AcDbEntity
  8
0
100
AcDbBlockBegin
  2
GENAXEH
 70
     0
 10
0.0
 20
0.0
 30
0.0
  3
GENAXEH
  1

  0
LINE
  5
F10B0A
330
F10B09
100
AcDbEntity
  8
0
100
AcDbLine
 10
-1.0
 20
0.0
 30
0.0
 11
1.0
 21
0.0
 31
0.0
  0
ENDBLK
  5
F10B0C
330
F10B09
100
AcDbEntity
  8
0
100
AcDbBlockEnd
  0
ENDSEC
  0
SECTION
  2
ENTITIES
  0
DIMENSION
  5
F1000D
330
261
100
AcDbEntity
  8
Bemassung
100
AcDbDimension
  2
*D4
 10
16.10484879483675
 20
19.18367000405931
 30
0.0
 11
-1.233706821064998
 21
19.18367000405931
 31
0.0
 70
   160
  1
<>
 71
     8
 42
35.99999999999999
  3
BEM-ISBE
100
AcDbAlignedDimension
 13
-19.89515120516323
 23
11.38758018227749
 33
0.0
 14
16.10484879483675
 24
11.08758018227748
 34
0.0
100
AcDbRotatedDimension
1001
ACAD
1000
DSTYLE
1002
{
1070
   147
1040
0.625
1070
    72
1070
     0
1070
    71
1070
     0
1070
   284
1070
     8
1070
    78
1070
     8
1070
   144
1040
1.0
1070
    47
1040
2.0
1070
    48
1040
0.0
1002
}
  0
DIMENSION
  5
F10017
330
261
100
AcDbEntity
  8
Bemassung
100
AcDbDimension
  2
*D5
 10
-37.89515120516325
 20
17.87153845174338
 30
0.0
 11
-32.49336642214125
 21
17.87153845174338
 31
0.0
 70
   160
  1
<>
 71
     8
 42
10.00000000000001
  3
BEM-ISBE
100
AcDbAlignedDimension
 13
-27.89515120516323
 23
5.387580182277488
 33
0.0
 14
-37.89515120516325
 24
8.387580182277488
 34
0.0
100
AcDbRotatedDimension
1001
ACAD
1000
DSTYLE
1002
{
1070
   147
1040
0.625
1070
    72
1070
     0
1070
    71
1070
     0
1070
   284
1070
     8
1070
    78
1070
     8
1070
   144
1040
1.0
1070
    47
1040
1.0
1070
    48
1040
0.0
1002
}
  0
DIMENSION
  5
F10021
330
261
100
AcDbEntity
  8
Bemassung
100
AcDbDimension
  2
*D7
 10
-37.89515120516325
 20
28.92472351055057
 30
0.0
 11
-12.54573809371574
 21
28.92472351055057
 31
0.0
 70
   160
  1
<>
 71
     8
 42
54.0
  3
BEM-ISBE
100
AcDbAlignedDimension
 13
16.10484879483675
 23
11.08758018227748
 33
0.0
 14
-37.89515120516325
 24
8.387580182277488
 34
0.0
100
AcDbRotatedDimension
1001
ACAD
1000
DSTYLE
1002
{
1070
   147
1040
0.625
1070
    72
1070
     0
1070
    71
1070
     0
1070
   284
1070
     8
1070
    78
1070
     8
1070
   144
1040
1.0
1070
    47
1040
2.0
1070
    48
1040
0.0
1002
}
  0
DIMENSION
  5
F10008
330
261
100
AcDbEntity
  8
Bemassung
100
AcDbDimension
  2
*D8
 10
-43.69733201919766
 20
11.38758018227749
 30
0.0
 11
-43.69733201919766
 21
-2.415966884571091
 31
0.0
 70
   160
  1
%%c<>
 71
     8
 42
5.999999999999999
  3
BEM-ISBE
100
AcDbAlignedDimension
 13
-37.74515120516325
 23
5.387580182277488
 33
0.0
 14
-37.74515120516325
 24
11.38758018227749
 34
0.0
 50
90.0
100
AcDbRotatedDimension
1001
ACAD
1000
DSTYLE
1002
{
1070
   147
1040
0.625
1070
    72
1070
     0
1070
    71
1070
     0
1070
   284
1070
     8
1070
    78
1070
     8
1070
   144
1040
1.0
1070
    47
1040
0.0
1070
    48
1040
-0.048
1002
}
  0
DIMENSION
  5
F10012
330
261
100
AcDbEntity
  8
Bemassung
100
AcDbDimension
  2
*D9
 10
23.47873125623927
 20
11.38758018227749
 30
0.0
 11
23.47873125623926
 21
-4.843490759059491
 31
0.0
 70
   160
  1
%%c<> h6
 71
     8
 42
6.0
  3
BEM-ISBE
100
AcDbAlignedDimension
 13
15.80484879483676
 23
5.387580182277488
 33
0.0
 14
15.80484879483676
 24
11.38758018227749
 34
0.0
 50
90.0
100
AcDbRotatedDimension
1001
ACAD
1000
DSTYLE
1002
{
1070
   284
1070
     8
1070
    78
1070
     8
1070
   144
1040
1.0
1070
   147
1040
0.625
1070
    72
1070
     0
1070
    71
1070
     0
1002
}
  0
LINE
  5
F1006B
330
261
100
AcDbEntity
  8
Geo
100
AcDbLine
 10
-37.89515120516325
 20
8.387580182277488
 30
0.0
 11
-37.89515120516325
 21
11.23758018227749
 31
0.0
  0
LINE
  5
F1006D
330
261
100
AcDbEntity
  8
Geo
100
AcDbLine
 10
-37.89515120516325
 20
11.23758018227749
 30
0.0
 11
-37.74515120516325
 21
11.38758018227749
 31
0.0
  0
LINE
  5
F1006F
330
261
100
AcDbEntity
  8
Geo
100
AcDbLine
 10
-37.74515120516325
 20
11.38758018227749
 30
0.0
 11
-19.89515120516323
 21
11.38758018227749
 31
0.0
  0
LINE
  5
F10071
330
261
100
AcDbEntity
  8
Geo
100
AcDbLine
 10
-19.89515120516323
 20
11.38758018227749
 30
0.0
 11
-4.895151205163237
 21
11.38758018227749
 31
0.0
  0
LINE
  5
F10073
330
261
100
AcDbEntity
  8
Geo
100
AcDbLine
 10
-4.895151205163237
 20
11.38758018227749
 30
0.0
 11
-3.995151205163239
 21
10.48758018227749
 31
0.0
  0
LINE
  5
F10075
330
261
100
AcDbEntity
  8
Geo
100
AcDbLine
 10
-3.995151205163239
 20
10.48758018227749
 30
0.0
 11
0.2048487948367637
 21
10.48758018227749
 31
0.0
  0
LINE
  5
F10077
330
261
100
AcDbEntity
  8
Geo
100
AcDbLine
 10
0.2048487948367637
 20
10.48758018227749
 30
0.0
 11
1.104848794836762
 21
11.38758018227749
 31
0.0
  0
LINE
  5
F10079
330
261
100
AcDbEntity
  8
Geo
100
AcDbLine
 10
1.104848794836762
 20
11.38758018227749
 30
0.0
 11
15.80484879483676
 21
11.38758018227749
 31
0.0
  0
LINE
  5
F1007B
330
261
100
AcDbEntity
  8
Geo
100
AcDbLine
 10
15.80484879483676
 20
11.38758018227749
 30
0.0
 11
16.10484879483675
 21
11.08758018227748
 31
0.0
  0
LINE
  5
F1007D
330
261
100
AcDbEntity
  8
Geo
100
AcDbLine
 10
-36.09515120516325
 20
11.38757934876989
 30
0.0
 11
-35.99515120516326
 21
11.38664141875088
 31
0.0
  0
LINE
  5
F1007F
330
261
100
AcDbEntity
  8
Geo
100
AcDbLine
 10
-35.99515120516326
 20
11.38664141875088
 30
0.0
 11
-35.89515120516324
 21
11.38371303658209
 31
0.0
  0
LINE
  5
F10081
330
261
100
AcDbEntity
  8
Geo
100
AcDbLine
 10
-35.89515120516324
 20
11.38371303658209
 30
0.0
 11
-35.79515120516325
 21
11.37879614580669
 31
0.0
  0
LINE
  5
F10083
330
261
100
AcDbEntity
  8
Geo
100
AcDbLine
 10
-35.79515120516325
 20
11.37879614580669
 30
0.0
 11
-35.69515120516324
 21
11.37189400972428
 31
0.0
  0
LINE
  5
F10085
330
261
100
AcDbEntity
  8
Geo
100
AcDbLine
 10
-35.69515120516324
 20
11.37189400972428
 30
0.0
 11
-35.59515120516325
 21
11.36301120922579
 31
0.0
  0
LINE
  5
F10087
330
261
100
AcDbEntity
  8
Geo
100
AcDbLine
 10
-35.59515120516325
 20
11.36301120922579
 30
0.0
 11
-35.49515120516325
 21
11.35215363975219
 31
0.0
  0
LINE
  5
F10089
330
261
100
AcDbEntity
  8
Geo
100
AcDbLine
 10
-35.49515120516325
 20
11.35215363975219
 30
0.0
 11
-35.39515120516325
 21
11.33932850738269
 31
0.0
  0
LINE
  5
F1008B
330
261
100
AcDbEntity
  8
Geo
100
AcDbLine
 10
-35.39515120516325
 20
11.33932850738269
 30
0.0
 11
-35.29515120516325
 21
11.32454432405158
 31
0.0
  0
LINE
  5
F1008D
330
261
100
AcDbEntity
  8
Geo
100
AcDbLine
 10
-35.29515120516325
 20
11.32454432405158
 30
0.0
 11
-35.19515120516324
 21
11.30781090189919
 31
0.0
  0
LINE
  5
F1008F
330
261
100
AcDbEntity
  8
Geo
100
AcDbLine
 10
-35.19515120516324
 20
11.30781090189919
 30
0.0
 11
-35.09515120516325
 21
11.28913934675949
 31
0.0
  0
LINE
  5
F10091
330
261
100
AcDbEntity
  8
Geo
100
AcDbLine
 10
-35.09515120516325
 20
11.28913934675949
 30
0.0
 11
-34.99515120516325
 21
11.26854205078919
 31
0.0
  0
LINE
  5
F10093
330
261
100
AcDbEntity
  8
Geo
100
AcDbLine
 10
-34.99515120516325
 20
11.26854205078919
 30
0.0
 11
-34.89515120516325
 21
11.24603268424339
 31
0.0
  0
LINE
  5
F10095
330
261
100
AcDbEntity
  8
Geo
100
AcDbLine
 10
-34.89515120516325
 20
11.24603268424339
 30
0.0
 11
-34.79515120516325
 21
11.22162618640249
 31
0.0
  0
LINE
  5
F10097
330
261
100
AcDbEntity
  8
Geo
100
AcDbLine
 10
-34.79515120516325
 20
11.22162618640249
 30
0.0
 11
-34.69515120516324
 21
11.19533875565759
 31
0.0
  0
LINE
  5
F10099
330
261
100
AcDbEntity
  8
Geo
100
AcDbLine
 10
-34.69515120516324
 20
11.19533875565759
 30
0.0
 11
-34.59515120516325
 21
11.16718783875888
 31
0.0
  0
LINE
  5
F1009B
330
261
100
AcDbEntity
  8
Geo
100
AcDbLine
 10
-34.59515120516325
 20
11.16718783875888
 30
0.0
 11
-34.49515120516326
 21
11.13719211923729
 31
0.0
  0
LINE
  5
F1009D
330
261
100
AcDbEntity
  8
Geo
100
AcDbLine
 10
-34.49515120516326
 20
11.13719211923729
 30
0.0
 11
-34.39515120516325
 21
11.10537150500388
 31
0.0
  0
LINE
  5
F1009F
330
261
100
AcDbEntity
  8
Geo
100
AcDbLine
 10
-34.39515120516325
 20
11.10537150500388
 30
0.0
 11
-34.29515120516325
 21
11.07174711513739
 31
0.0
  0
LINE
  5
F100A1
330
261
100
AcDbEntity
  8
Geo
100
AcDbLine
 10
-34.29515120516325
 20
11.07174711513739
 30
0.0
 11
-34.19515120516325
 21
11.03634126586719
 31
0.0
  0
LINE
  5
F100A3
330
261
100
AcDbEntity
  8
Geo
100
AcDbLine
 10
-34.19515120516325
 20
11.03634126586719
 30
0.0
 11
-34.09515120516325
 21
10.99917745576288
 31
0.0
  0
LINE
  5
F100A5
330
261
100
AcDbEntity
  8
Geo
100
AcDbLine
 10
-34.09515120516325
 20
10.99917745576288
 30
0.0
 11
-33.99515120516325
 21
10.96028035013799
 31
0.0
  0
LINE
  5
F100A7
330
261
100
AcDbEntity
  8
Geo
100
AcDbLine
 10
-33.99515120516325
 20
10.96028035013799
 30
0.0
 11
-33.89515120516325
 21
10.91967576467989
 31
0.0
  0
LINE
  5
F100A9
330
261
100
AcDbEntity
  8
Geo
100
AcDbLine
 10
-33.89515120516325
 20
10.91967576467989
 30
0.0
 11
-33.79515120516325
 21
10.87739064831638
 31
0.0
  0
LINE
  5
F100AB
330
261
100
AcDbEntity
  8
Geo
100
AcDbLine
 10
-33.79515120516325
 20
10.87739064831638
 30
0.0
 11
-33.69515120516324
 21
10.83345306532958
 31
0.0
  0
LINE
  5
F100AD
330
261
100
AcDbEntity
  8
Geo
100
AcDbLine
 10
-33.69515120516324
 20
10.83345306532958
 30
0.0
 11
-33.59515120516324
 21
10.78789217673009
 31
0.0
  0
LINE
  5
F100AF
330
261
100
AcDbEntity
  8
Geo
100
AcDbLine
 10
-33.59515120516324
 20
10.78789217673009
 30
0.0
 11
-33.49515120516324
 21
10.74073822090299
 31
0.0
  0
LINE
  5
F100B1
330
261
100
AcDbEntity
  8
Geo
100
AcDbLine
 10
-33.49515120516324
 20
10.74073822090299
 30
0.0
 11
-33.39515120516323
 21
10.69202249353898
 31
0.0
  0
LINE
  5
F100B3
330
261
100
AcDbEntity
  8
Geo
100
AcDbLine
 10
-33.39515120516323
 20
10.69202249353898
 30
0.0
 11
-33.29515120516324
 21
10.64177732686349
 31
0.0
  0
LINE
  5
F100B5
330
261
100
AcDbEntity
  8
Geo
100
AcDbLine
 10
-33.29515120516324
 20
10.64177732686349
 30
0.0
 11
-33.19515120516324
 21
10.59003606817849
 31
0.0
  0
LINE
  5
F100B7
330
261
100
AcDbEntity
  8
Geo
100
AcDbLine
 10
-33.19515120516324
 20
10.59003606817849
 30
0.0
 11
-33.09515120516323
 21
10.53683305772939
 31
0.0
  0
LINE
  5
F100B9
330
261
100
AcDbEntity
  8
Geo
100
AcDbLine
 10
-33.09515120516323
 20
10.53683305772939
 30
0.0
 11
-32.99515120516324
 21
10.48220360591459
 31
0.0
  0
LINE
  5
F100BB
330
261
100
AcDbEntity
  8
Geo
100
AcDbLine
 10
-32.99515120516324
 20
10.48220360591459
 30
0.0
 11
-32.89515120516323
 21
10.42618396984949
 31
0.0
  0
LINE
  5
F100BD
330
261
100
AcDbEntity
  8
Geo
100
AcDbLine
 10
-32.89515120516323
 20
10.42618396984949
 30
0.0
 11
-32.79515120516324
 21
10.36881132930359
 31
0.0
  0
LINE
  5
F100BF
330
261
100
AcDbEntity
  8
Geo
100
AcDbLine
 10
-32.79515120516324
 20
10.36881132930359
 30
0.0
 11
-32.69515120516324
 21
10.31012376202399
 31
0.0
  0
LINE
  5
F100C1
330
261
100
AcDbEntity
  8
Geo
100
AcDbLine
 10
-32.69515120516324
 20
10.31012376202399
 30
0.0
 11
-32.59515120516323
 21
10.25016021846399
 31
0.0
  0
LINE
  5
F100C3
330
261
100
AcDbEntity
  8
Geo
100
AcDbLine
 10
-32.59515120516323
 20
10.25016021846399
 30
0.0
 11
-32.49515120516324
 21
10.18896049593179
 31
0.0
  0
LINE
  5
F100C5
330
261
100
AcDbEntity
  8
Geo
100
AcDbLine
 10
-32.49515120516324
 20
10.18896049593179
 30
0.0
 11
-32.39515120516323
 21
10.12656521217719
 31
0.0
  0
LINE
  5
F100C7
330
261
100
AcDbEntity
  8
Geo
100
AcDbLine
 10
-32.39515120516323
 20
10.12656521217719
 30
0.0
 11
-32.29515120516324
 21
10.06301577843428
 31
0.0
  0
LINE
  5
F100C9
330
261
100
AcDbEntity
  8
Geo
100
AcDbLine
 10
-32.29515120516324
 20
10.06301577843428
 30
0.0
 11
-32.19515120516324
 21
9.998354371936784
 31
0.0
  0
LINE
  5
F100CB
330
261
100
AcDbEntity
  8
Geo
100
AcDbLine
 10
-32.19515120516324
 20
9.998354371936784
 30
0.0
 11
-32.09515120516324
 21
9.932623907925787
 31
0.0
  0
LINE
  5
F100CD
330
261
100
AcDbEntity
  8
Geo
100
AcDbLine
 10
-32.09515120516324
 20
9.932623907925787
 30
0.0
 11
-31.99515120516324
 21
9.865868011166789
 31
0.0
  0
LINE
  5
F100CF
330
261
100
AcDbEntity
  8
Geo
100
AcDbLine
 10
-31.99515120516324
 20
9.865868011166789
 30
0.0
 11
-31.89515120516323
 21
9.798130986996589
 31
0.0
  0
LINE
  5
F100D1
330
261
100
AcDbEntity
  8
Geo
100
AcDbLine
 10
-31.89515120516323
 20
9.798130986996589
 30
0.0
 11
-31.79515120516324
 21
9.729457791918285
 31
0.0
  0
LINE
  5
F100D3
330
261
100
AcDbEntity
  8
Geo
100
AcDbLine
 10
-31.79515120516324
 20
9.729457791918285
 30
0.0
 11
-31.69515120516325
 21
9.65989400376349
 31
0.0
  0
LINE
  5
F100D5
330
261
100
AcDbEntity
  8
Geo
100
AcDbLine
 10
-31.69515120516325
 20
9.65989400376349
 30
0.0
 11
-31.59515120516323
 21
9.589485791443486
 31
0.0
  0
LINE
  5
F100D7
330
261
100
AcDbEntity
  8
Geo
100
AcDbLine
 10
-31.59515120516323
 20
9.589485791443486
 30
0.0
 11
-31.49515120516324
 21
9.518279884306785
 31
0.0
  0
LINE
  5
F100D9
330
261
100
AcDbEntity
  8
Geo
100
AcDbLine
 10
-31.49515120516324
 20
9.518279884306785
 30
0.0
 11
-31.39515120516323
 21
9.446323541125188
 31
0.0
  0
LINE
  5
F100DB
330
261
100
AcDbEntity
  8
Geo
100
AcDbLine
 10
-31.39515120516323
 20
9.446323541125188
 30
0.0
 11
-31.29515120516324
 21
9.37366451872878
 31
0.0
  0
LINE
  5
F100DD
330
261
100
AcDbEntity
  8
Geo
100
AcDbLine
 10
-31.29515120516324
 20
9.37366451872878
 30
0.0
 11
-31.19515120516324
 21
9.300351040310289
 31
0.0
  0
LINE
  5
F100DF
330
261
100
AcDbEntity
  8
Geo
100
AcDbLine
 10
-31.19515120516324
 20
9.300351040310289
 30
0.0
 11
-31.09515120516324
 21
9.226431763418986
 31
0.0
  0
LINE
  5
F100E1
330
261
100
AcDbEntity
  8
Geo
100
AcDbLine
 10
-31.09515120516324
 20
9.226431763418986
 30
0.0
 11
-30.99515120516324
 21
9.15195574766799
 31
0.0
  0
LINE
  5
F100E3
330
261
100
AcDbEntity
  8
Geo
100
AcDbLine
 10
-30.99515120516324
 20
9.15195574766799
 30
0.0
 11
-30.89515120516323
 21
9.076972422173284
 31
0.0
  0
LINE
  5
F100E5
330
261
100
AcDbEntity
  8
Geo
100
AcDbLine
 10
-30.89515120516323
 20
9.076972422173284
 30
0.0
 11
-30.79515120516324
 21
9.00153155274809
 31
0.0
  0
LINE
  5
F100E7
330
261
100
AcDbEntity
  8
Geo
100
AcDbLine
 10
-30.79515120516324
 20
9.00153155274809
 30
0.0
 11
-30.69515120516324
 21
8.925683208873785
 31
0.0
  0
LINE
  5
F100E9
330
261
100
AcDbEntity
  8
Geo
100
AcDbLine
 10
-30.69515120516324
 20
8.925683208873785
 30
0.0
 11
-30.59515120516323
 21
8.849477730469089
 31
0.0
  0
LINE
  5
F100EB
330
261
100
AcDbEntity
  8
Geo
100
AcDbLine
 10
-30.59515120516323
 20
8.849477730469089
 30
0.0
 11
-30.49515120516324
 21
8.772965694480284
 31
0.0
  0
LINE
  5
F100ED
330
261
100
AcDbEntity
  8
Geo
100
AcDbLine
 10
-30.49515120516324
 20
8.772965694480284
 30
0.0
 11
-30.39515120516323
 21
8.69619788131289
 31
0.0
  0
LINE
  5
F100EF
330
261
100
AcDbEntity
  8
Geo
100
AcDbLine
 10
-30.39515120516323
 20
8.69619788131289
 30
0.0
 11
-30.29515120516324
 21
8.619225241129889
 31
0.0
  0
LINE
  5
F100F1
330
261
100
AcDbEntity
  8
Geo
100
AcDbLine
 10
-30.29515120516324
 20
8.619225241129889
 30
0.0
 11
-30.19515120516324
 21
8.542098860036382
 31
0.0
  0
LINE
  5
F100F3
330
261
100
AcDbEntity
  8
Geo
100
AcDbLine
 10
-30.19515120516324
 20
8.542098860036382
 30
0.0
 11
-30.09515120516323
 21
8.464869926173882
 31
0.0
  0
LINE
  5
F100F5
330
261
100
AcDbEntity
  8
Geo
100
AcDbLine
 10
-30.09515120516323
 20
8.464869926173882
 30
0.0
 11
-29.99515120516324
 21
8.387589695747195
 31
0.0
  0
LINE
  5
F100F7
330
261
100
AcDbEntity
  8
Geo
100
AcDbLine
 10
-29.99515120516324
 20
8.387589695747195
 30
0.0
 11
-29.89515120516323
 21
8.310309459006589
 31
0.0
  0
LINE
  5
F100F9
330
261
100
AcDbEntity
  8
Geo
100
AcDbLine
 10
-29.89515120516323
 20
8.310309459006589
 30
0.0
 11
-29.79515120516324
 21
8.233080506206192
 31
0.0
  0
LINE
  5
F100FB
330
261
100
AcDbEntity
  8
Geo
100
AcDbLine
 10
-29.79515120516324
 20
8.233080506206192
 30
0.0
 11
-29.69515120516324
 21
8.155954093563586
 31
0.0
  0
LINE
  5
F100FD
330
261
100
AcDbEntity
  8
Geo
100
AcDbLine
 10
-29.69515120516324
 20
8.155954093563586
 30
0.0
 11
-29.59515120516324
 21
8.078981409241194
 31
0.0
  0
LINE
  5
F100FF
330
261
100
AcDbEntity
  8
Geo
100
AcDbLine
 10
-29.59515120516324
 20
8.078981409241194
 30
0.0
 11
-29.49515120516324
 21
8.002213539373386
 31
0.0
  0
LINE
  5
F10101
330
261
100
AcDbEntity
  8
Geo
100
AcDbLine
 10
-29.49515120516324
 20
8.002213539373386
 30
0.0
 11
-29.39515120516323
 21
7.925701434160586
 31
0.0
  0
LINE
  5
F10103
330
261
100
AcDbEntity
  8
Geo
100
AcDbLine
 10
-29.39515120516323
 20
7.925701434160586
 30
0.0
 11
-29.29515120516324
 21
7.849495874054689
 31
0.0
  0
LINE
  5
F10105
330
261
100
AcDbEntity
  8
Geo
100
AcDbLine
 10
-29.29515120516324
 20
7.849495874054689
 30
0.0
 11
-29.19515120516324
 21
7.773647436055789
 31
0.0
  0
LINE
  5
F10107
330
261
100
AcDbEntity
  8
Geo
100
AcDbLine
 10
-29.19515120516324
 20
7.773647436055789
 30
0.0
 11
-29.09515120516323
 21
7.698206460145286
 31
0.0
  0
LINE
  5
F10109
330
261
100
AcDbEntity
  8
Geo
100
AcDbLine
 10
-29.09515120516323
 20
7.698206460145286
 30
0.0
 11
-28.99515120516324
 21
7.62322301587519
 31
0.0
  0
LINE
  5
F1010B
330
261
100
AcDbEntity
  8
Geo
100
AcDbLine
 10
-28.99515120516324
 20
7.62322301587519
 30
0.0
 11
-28.89515120516323
 21
7.548746869137588
 31
0.0
  0
LINE
  5
F1010D
330
261
100
AcDbEntity
  8
Geo
100
AcDbLine
 10
-28.89515120516323
 20
7.548746869137588
 30
0.0
 11
-28.79515120516323
 21
7.47482744913529
 31
0.0
  0
LINE
  5
F1010F
330
261
100
AcDbEntity
  8
Geo
100
AcDbLine
 10
-28.79515120516323
 20
7.47482744913529
 30
0.0
 11
-28.69515120516324
 21
7.401513815576386
 31
0.0
  0
LINE
  5
F10111
330
261
100
AcDbEntity
  8
Geo
100
AcDbLine
 10
-28.69515120516324
 20
7.401513815576386
 30
0.0
 11
-28.59515120516324
 21
7.32885462611339
 31
0.0
  0
LINE
  5
F10113
330
261
100
AcDbEntity
  8
Geo
100
AcDbLine
 10
-28.59515120516324
 20
7.32885462611339
 30
0.0
 11
-28.49515120516324
 21
7.256898104049689
 31
0.0
  0
LINE
  5
F10115
330
261
100
AcDbEntity
  8
Geo
100
AcDbLine
 10
-28.49515120516324
 20
7.256898104049689
 30
0.0
 11
-28.39515120516323
 21
7.185692006333987
 31
0.0
  0
LINE
  5
F10117
330
261
100
AcDbEntity
  8
Geo
100
AcDbLine
 10
-28.39515120516323
 20
7.185692006333987
 30
0.0
 11
-28.29515120516324
 21
7.115283591864788
 31
0.0
  0
LINE
  5
F10119
330
261
100
AcDbEntity
  8
Geo
100
AcDbLine
 10
-28.29515120516324
 20
7.115283591864788
 30
0.0
 11
-28.19515120516324
 21
7.045719590124683
 31
0.0
  0
LINE
  5
F1011B
330
261
100
AcDbEntity
  8
Geo
100
AcDbLine
 10
-28.19515120516324
 20
7.045719590124683
 30
0.0
 11
-28.09515120516323
 21
6.977046170166488
 31
0.0
  0
LINE
  5
F1011D
330
261
100
AcDbEntity
  8
Geo
100
AcDbLine
 10
-28.09515120516323
 20
6.977046170166488
 30
0.0
 11
-27.99515120516324
 21
6.909308909971485
 31
0.0
  0
LINE
  5
F1011F
330
261
100
AcDbEntity
  8
Geo
100
AcDbLine
 10
-27.99515120516324
 20
6.909308909971485
 30
0.0
 11
-27.89515120516323
 21
6.842552766199183
 31
0.0
  0
LINE
  5
F10121
330
261
100
AcDbEntity
  8
Geo
100
AcDbLine
 10
-27.89515120516323
 20
6.842552766199183
 30
0.0
 11
-27.79515120516324
 21
6.768764871872889
 31
0.0
  0
LINE
  5
F10123
330
261
100
AcDbEntity
  8
Geo
100
AcDbLine
 10
-27.79515120516324
 20
6.768764871872889
 30
0.0
 11
-27.69515120516324
 21
6.697262895925888
 31
0.0
  0
LINE
  5
F10125
330
261
100
AcDbEntity
  8
Geo
100
AcDbLine
 10
-27.69515120516324
 20
6.697262895925888
 30
0.0
 11
-27.59515120516323
 21
6.62805205397359
 31
0.0
  0
LINE
  5
F10127
330
261
100
AcDbEntity
  8
Geo
100
AcDbLine
 10
-27.59515120516323
 20
6.62805205397359
 30
0.0
 11
-27.49515120516324
 21
6.561132683215184
 31
0.0
  0
LINE
  5
F10129
330
261
100
AcDbEntity
  8
Geo
100
AcDbLine
 10
-27.49515120516324
 20
6.561132683215184
 30
0.0
 11
-27.39515120516323
 21
6.49650048958199
 31
0.0
  0
LINE
  5
F1012B
330
261
100
AcDbEntity
  8
Geo
100
AcDbLine
 10
-27.39515120516323
 20
6.49650048958199
 30
0.0
 11
-27.29515120516324
 21
6.434146793505291
 31
0.0
  0
LINE
  5
F1012D
330
261
100
AcDbEntity
  8
Geo
100
AcDbLine
 10
-27.29515120516324
 20
6.434146793505291
 30
0.0
 11
-27.19515120516324
 21
6.374058773613292
 31
0.0
  0
LINE
  5
F1012F
330
261
100
AcDbEntity
  8
Geo
100
AcDbLine
 10
-27.19515120516324
 20
6.374058773613292
 30
0.0
 11
-27.09515120516324
 21
6.316219707716484
 31
0.0
  0
LINE
  5
F10131
330
261
100
AcDbEntity
  8
Geo
100
AcDbLine
 10
-27.09515120516324
 20
6.316219707716484
 30
0.0
 11
-26.99515120516324
 21
6.260609210501385
 31
0.0
  0
LINE
  5
F10133
330
261
100
AcDbEntity
  8
Geo
100
AcDbLine
 10
-26.99515120516324
 20
6.260609210501385
 30
0.0
 11
-26.89515120516323
 21
6.207203467400489
 31
0.0
  0
LINE
  5
F10135
330
261
100
AcDbEntity
  8
Geo
100
AcDbLine
 10
-26.89515120516323
 20
6.207203467400489
 30
0.0
 11
-26.79515120516324
 21
6.155975464161087
 31
0.0
  0
LINE
  5
F10137
330
261
100
AcDbEntity
  8
Geo
100
AcDbLine
 10
-26.79515120516324
 20
6.155975464161087
 30
0.0
 11
-26.69515120516325
 21
6.106895211682882
 31
0.0
  0
LINE
  5
F10139
330
261
100
AcDbEntity
  8
Geo
100
AcDbLine
 10
-26.69515120516325
 20
6.106895211682882
 30
0.0
 11
-26.59515120516323
 21
6.059929965743386
 31
0.0
  0
LINE
  5
F1013B
330
261
100
AcDbEntity
  8
Geo
100
AcDbLine
 10
-26.59515120516323
 20
6.059929965743386
 30
0.0
 11
-26.49515120516324
 21
6.015044441272685
 31
0.0
  0
LINE
  5
F1013D
330
261
100
AcDbEntity
  8
Geo
100
AcDbLine
 10
-26.49515120516324
 20
6.015044441272685
 30
0.0
 11
-26.39515120516323
 21
5.972201020886792
 31
0.0
  0
LINE
  5
F1013F
330
261
100
AcDbEntity
  8
Geo
100
AcDbLine
 10
-26.39515120516323
 20
5.972201020886792
 30
0.0
 11
-26.29515120516324
 21
5.931359957426487
 31
0.0
  0
LINE
  5
F10141
330
261
100
AcDbEntity
  8
Geo
100
AcDbLine
 10
-26.29515120516324
 20
5.931359957426487
 30
0.0
 11
-26.19515120516324
 21
5.892479570289488
 31
0.0
  0
LINE
  5
F10143
330
261
100
AcDbEntity
  8
Geo
100
AcDbLine
 10
-26.19515120516324
 20
5.892479570289488
 30
0.0
 11
-26.09515120516324
 21
5.855516435380593
 31
0.0
  0
LINE
  5
F10145
330
261
100
AcDbEntity
  8
Geo
100
AcDbLine
 10
-26.09515120516324
 20
5.855516435380593
 30
0.0
 11
-25.99515120516324
 21
5.820425568541594
 31
0.0
  0
LINE
  5
F10147
330
261
100
AcDbEntity
  8
Geo
100
AcDbLine
 10
-25.99515120516324
 20
5.820425568541594
 30
0.0
 11
-25.89515120516323
 21
5.787160602351185
 31
0.0
  0
LINE
  5
F10149
330
261
100
AcDbEntity
  8
Geo
100
AcDbLine
 10
-25.89515120516323
 20
5.787160602351185
 30
0.0
 11
-25.79515120516324
 21
5.755673956222288
 31
0.0
  0
LINE
  5
F1014B
330
261
100
AcDbEntity
  8
Geo
100
AcDbLine
 10
-25.79515120516324
 20
5.755673956222288
 30
0.0
 11
-25.69515120516324
 21
5.725916999747788
 31
0.0
  0
LINE
  5
F1014D
330
261
100
AcDbEntity
  8
Geo
100
AcDbLine
 10
-25.69515120516324
 20
5.725916999747788
 30
0.0
 11
-25.59515120516323
 21
5.697840209277387
 31
0.0
  0
LINE
  5
F1014F
330
261
100
AcDbEntity
  8
Geo
100
AcDbLine
 10
-25.59515120516323
 20
5.697840209277387
 30
0.0
 11
-25.49515120516324
 21
5.67139331772929
 31
0.0
  0
LINE
  5
F10151
330
261
100
AcDbEntity
  8
Geo
100
AcDbLine
 10
-25.49515120516324
 20
5.67139331772929
 30
0.0
 11
-25.39515120516323
 21
5.646525457667991
 31
0.0
  0
LINE
  5
F10153
330
261
100
AcDbEntity
  8
Geo
100
AcDbLine
 10
-25.39515120516323
 20
5.646525457667991
 30
0.0
 11
-25.29515120516324
 21
5.623185297696785
 31
0.0
  0
LINE
  5
F10155
330
261
100
AcDbEntity
  8
Geo
100
AcDbLine
 10
-25.29515120516324
 20
5.623185297696785
 30
0.0
 11
-25.19515120516324
 21
5.60132117223749
 31
0.0
  0
LINE
  5
F10157
330
261
100
AcDbEntity
  8
Geo
100
AcDbLine
 10
-25.19515120516324
 20
5.60132117223749
 30
0.0
 11
-25.09515120516323
 21
5.580881204783992
 31
0.0
  0
LINE
  5
F10159
330
261
100
AcDbEntity
  8
Geo
100
AcDbLine
 10
-25.09515120516323
 20
5.580881204783992
 30
0.0
 11
-24.99515120516324
 21
5.561813424736094
 31
0.0
  0
LINE
  5
F1015B
330
261
100
AcDbEntity
  8
Geo
100
AcDbLine
 10
-24.99515120516324
 20
5.561813424736094
 30
0.0
 11
-24.89515120516323
 21
5.54406587793219
 31
0.0
  0
LINE
  5
F1015D
330
261
100
AcDbEntity
  8
Geo
100
AcDbLine
 10
-24.89515120516323
 20
5.54406587793219
 30
0.0
 11
-24.79515120516324
 21
5.527586731014388
 31
0.0
  0
LINE
  5
F1015F
330
261
100
AcDbEntity
  8
Geo
100
AcDbLine
 10
-24.79515120516324
 20
5.527586731014388
 30
0.0
 11
-24.69515120516324
 21
5.512324369770688
 31
0.0
  0
LINE
  5
F10161
330
261
100
AcDbEntity
  8
Geo
100
AcDbLine
 10
-24.69515120516324
 20
5.512324369770688
 30
0.0
 11
-24.59515120516324
 21
5.49822749160949
 31
0.0
  0
LINE
  5
F10163
330
261
100
AcDbEntity
  8
Geo
100
AcDbLine
 10
-24.59515120516324
 20
5.49822749160949
 30
0.0
 11
-24.49515120516324
 21
5.485245192331191
 31
0.0
  0
LINE
  5
F10165
330
261
100
AcDbEntity
  8
Geo
100
AcDbLine
 10
-24.49515120516324
 20
5.485245192331191
 30
0.0
 11
-24.39515120516323
 21
5.473327047368591
 31
0.0
  0
LINE
  5
F10167
330
261
100
AcDbEntity
  8
Geo
100
AcDbLine
 10
-24.39515120516323
 20
5.473327047368591
 30
0.0
 11
-24.29515120516324
 21
5.462423187675184
 31
0.0
  0
LINE
  5
F10169
330
261
100
AcDbEntity
  8
Geo
100
AcDbLine
 10
-24.29515120516324
 20
5.462423187675184
 30
0.0
 11
-24.19515120516325
 21
5.45248437044669
 31
0.0
  0
LINE
  5
F1016B
330
261
100
AcDbEntity
  8
Geo
100
AcDbLine
 10
-24.19515120516325
 20
5.45248437044669
 30
0.0
 11
-24.09515120516323
 21
5.443462044863885
 31
0.0
  0
LINE
  5
F1016D
330
261
100
AcDbEntity
  8
Geo
100
AcDbLine
 10
-24.09515120516323
 20
5.443462044863885
 30
0.0
 11
-23.99515120516324
 21
5.43530841304949
 31
0.0
  0
LINE
  5
F1016F
330
261
100
AcDbEntity
  8
Geo
100
AcDbLine
 10
-23.99515120516324
 20
5.43530841304949
 30
0.0
 11
-23.89515120516323
 21
5.427976486435689
 31
0.0
  0
LINE
  5
F10171
330
261
100
AcDbEntity
  8
Geo
100
AcDbLine
 10
-23.89515120516323
 20
5.427976486435689
 30
0.0
 11
-23.79515120516324
 21
5.421420137736689
 31
0.0
  0
LINE
  5
F10173
330
261
100
AcDbEntity
  8
Geo
100
AcDbLine
 10
-23.79515120516324
 20
5.421420137736689
 30
0.0
 11
-23.69515120516324
 21
5.415594148726889
 31
0.0
  0
LINE
  5
F10175
330
261
100
AcDbEntity
  8
Geo
100
AcDbLine
 10
-23.69515120516324
 20
5.415594148726889
 30
0.0
 11
-23.59515120516324
 21
5.410454254021189
 31
0.0
  0
LINE
  5
F10177
330
261
100
AcDbEntity
  8
Geo
100
AcDbLine
 10
-23.59515120516324
 20
5.410454254021189
 30
0.0
 11
-23.49515120516324
 21
5.405957181055093
 31
0.0
  0
LINE
  5
F10179
330
261
100
AcDbEntity
  8
Geo
100
AcDbLine
 10
-23.49515120516324
 20
5.405957181055093
 30
0.0
 11
-23.39515120516323
 21
5.402060686461489
 31
0.0
  0
LINE
  5
F1017B
330
261
100
AcDbEntity
  8
Geo
100
AcDbLine
 10
-23.39515120516323
 20
5.402060686461489
 30
0.0
 11
-23.29515120516324
 21
5.398723589038688
 31
0.0
  0
LINE
  5
F1017D
330
261
100
AcDbEntity
  8
Geo
100
AcDbLine
 10
-23.29515120516324
 20
5.398723589038688
 30
0.0
 11
-23.19515120516324
 21
5.395905799501889
 31
0.0
  0
LINE
  5
F1017F
330
261
100
AcDbEntity
  8
Geo
100
AcDbLine
 10
-23.19515120516324
 20
5.395905799501889
 30
0.0
 11
-23.09515120516323
 21
5.39356834720769
 31
0.0
  0
LINE
  5
F10181
330
261
100
AcDbEntity
  8
Geo
100
AcDbLine
 10
-23.09515120516323
 20
5.39356834720769
 30
0.0
 11
-22.99515120516324
 21
5.391673404038492
 31
0.0
  0
LINE
  5
F10183
330
261
100
AcDbEntity
  8
Geo
100
AcDbLine
 10
-22.99515120516324
 20
5.391673404038492
 30
0.0
 11
-22.89515120516323
 21
5.390184305629091
 31
0.0
  0
LINE
  5
F10185
330
261
100
AcDbEntity
  8
Geo
100
AcDbLine
 10
-22.89515120516323
 20
5.390184305629091
 30
0.0
 11
-22.79515120516323
 21
5.389065570113885
 31
0.0
  0
LINE
  5
F10187
330
261
100
AcDbEntity
  8
Geo
100
AcDbLine
 10
-22.79515120516323
 20
5.389065570113885
 30
0.0
 11
-22.69515120516324
 21
5.388282914570886
 31
0.0
  0
LINE
  5
F10189
330
261
100
AcDbEntity
  8
Geo
100
AcDbLine
 10
-22.69515120516324
 20
5.388282914570886
 30
0.0
 11
-22.59515120516323
 21
5.387803269329488
 31
0.0
  0
LINE
  5
F1018B
330
261
100
AcDbEntity
  8
Geo
100
AcDbLine
 10
-22.59515120516323
 20
5.387803269329488
 30
0.0
 11
-22.49515120516324
 21
5.387594790309591
 31
0.0
  0
LINE
  5
F1018D
330
261
100
AcDbEntity
  8
Geo
100
AcDbLine
 10
-22.49515120516324
 20
5.387594790309591
 30
0.0
 11
-22.39515120516323
 21
5.387580182277488
 31
0.0
  0
LINE
  5
F1018F
330
261
100
AcDbEntity
  8
Geo
100
AcDbLine
 10
-37.89515120516325
 20
10.38916389407349
 30
0.0
 11
-37.79515120516325
 21
10.40461070106178
 31
0.0
  0
LINE
  5
F10191
330
261
100
AcDbEntity
  8
Geo
100
AcDbLine
 10
-37.79515120516325
 20
10.40461070106178
 30
0.0
 11
-37.69515120516324
 21
10.38172353671179
 31
0.0
  0
LINE
  5
F10193
330
261
100
AcDbEntity
  8
Geo
100
AcDbLine
 10
-37.69515120516324
 20
10.38172353671179
 30
0.0
 11
-37.59515120516325
 21
10.32332591795738
 31
0.0
  0
LINE
  5
F10195
330
261
100
AcDbEntity
  8
Geo
100
AcDbLine
 10
-37.59515120516325
 20
10.32332591795738
 30
0.0
 11
-37.49515120516325
 21
10.26364356076079
 31
0.0
  0
LINE
  5
F10197
330
261
100
AcDbEntity
  8
Geo
100
AcDbLine
 10
-37.49515120516325
 20
10.26364356076079
 30
0.0
 11
-37.39515120516325
 21
10.20271607580919
 31
0.0
  0
LINE
  5
F10199
330
261
100
AcDbEntity
  8
Geo
100
AcDbLine
 10
-37.39515120516325
 20
10.20271607580919
 30
0.0
 11
-37.29515120516325
 21
10.14058390017048
 31
0.0
  0
LINE
  5
F1019B
330
261
100
AcDbEntity
  8
Geo
100
AcDbLine
 10
-37.29515120516325
 20
10.14058390017048
 30
0.0
 11
-37.19515120516324
 21
10.07728827045619
 31
0.0
  0
LINE
  5
F1019D
330
261
100
AcDbEntity
  8
Geo
100
AcDbLine
 10
-37.19515120516324
 20
10.07728827045619
 30
0.0
 11
-37.09515120516325
 21
10.01287119545239
 31
0.0
  0
LINE
  5
F1019F
330
261
100
AcDbEntity
  8
Geo
100
AcDbLine
 10
-37.09515120516325
 20
10.01287119545239
 30
0.0
 11
-36.99515120516326
 21
9.94737542823929
 31
0.0
  0
LINE
  5
F101A1
330
261
100
AcDbEntity
  8
Geo
100
AcDbLine
 10
-36.99515120516326
 20
9.94737542823929
 30
0.0
 11
-36.89515120516325
 21
9.880844437816087
 31
0.0
  0
LINE
  5
F101A3
330
261
100
AcDbEntity
  8
Geo
100
AcDbLine
 10
-36.89515120516325
 20
9.880844437816087
 30
0.0
 11
-36.79515120516325
 21
9.813322380251193
 31
0.0
  0
LINE
  5
F101A5
330
261
100
AcDbEntity
  8
Geo
100
AcDbLine
 10
-36.79515120516325
 20
9.813322380251193
 30
0.0
 11
-36.69515120516325
 21
9.744854069375882
 31
0.0
  0
LINE
  5
F101A7
330
261
100
AcDbEntity
  8
Geo
100
AcDbLine
 10
-36.69515120516325
 20
9.744854069375882
 30
0.0
 11
-36.59515120516325
 21
9.675484947042285
 31
0.0
  0
LINE
  5
F101A9
330
261
100
AcDbEntity
  8
Geo
100
AcDbLine
 10
-36.59515120516325
 20
9.675484947042285
 30
0.0
 11
-36.49515120516325
 21
9.605261052963193
 31
0.0
  0
LINE
  5
F101AB
330
261
100
AcDbEntity
  8
Geo
100
AcDbLine
 10
-36.49515120516325
 20
9.605261052963193
 30
0.0
 11
-36.39515120516325
 21
9.534228994156691
 31
0.0
  0
LINE
  5
F101AD
330
261
100
AcDbEntity
  8
Geo
100
AcDbLine
 10
-36.39515120516325
 20
9.534228994156691
 30
0.0
 11
-36.29515120516325
 21
9.462435914012985
 31
0.0
  0
LINE
  5
F101AF
330
261
100
AcDbEntity
  8
Geo
100
AcDbLine
 10
-36.29515120516325
 20
9.462435914012985
 30
0.0
 11
-36.19515120516324
 21
9.389929461005785
 31
0.0
  0
LINE
  5
F101B1
330
261
100
AcDbEntity
  8
Geo
100
AcDbLine
 10
-36.19515120516324
 20
9.389929461005785
 30
0.0
 11
-36.09515120516325
 21
9.316757757068693
 31
0.0
  0
LINE
  5
F101B3
330
261
100
AcDbEntity
  8
Geo
100
AcDbLine
 10
-36.09515120516325
 20
9.316757757068693
 30
0.0
 11
-35.99515120516326
 21
9.242969365656591
 31
0.0
  0
LINE
  5
F101B5
330
261
100
AcDbEntity
  8
Geo
100
AcDbLine
 10
-35.99515120516326
 20
9.242969365656591
 30
0.0
 11
-35.89515120516324
 21
9.168613259514884
 31
0.0
  0
LINE
  5
F101B7
330
261
100
AcDbEntity
  8
Geo
100
AcDbLine
 10
-35.89515120516324
 20
9.168613259514884
 30
0.0
 11
-35.79515120516325
 21
9.093738788176594
 31
0.0
  0
LINE
  5
F101B9
330
261
100
AcDbEntity
  8
Geo
100
AcDbLine
 10
-35.79515120516325
 20
9.093738788176594
 30
0.0
 11
-35.69515120516324
 21
9.018395645209288
 31
0.0
  0
LINE
  5
F101BB
330
261
100
AcDbEntity
  8
Geo
100
AcDbLine
 10
-35.69515120516324
 20
9.018395645209288
 30
0.0
 11
-35.59515120516325
 21
8.94263383523409
 31
0.0
  0
LINE
  5
F101BD
330
261
100
AcDbEntity
  8
Geo
100
AcDbLine
 10
-35.59515120516325
 20
8.94263383523409
 30
0.0
 11
-35.49515120516325
 21
8.866503640737988
 31
0.0
  0
LINE
  5
F101BF
330
261
100
AcDbEntity
  8
Geo
100
AcDbLine
 10
-35.49515120516325
 20
8.866503640737988
 30
0.0
 11
-35.39515120516325
 21
8.790055588701783
 31
0.0
  0
LINE
  5
F101C1
330
261
100
AcDbEntity
  8
Geo
100
AcDbLine
 10
-35.39515120516325
 20
8.790055588701783
 30
0.0
 11
-35.29515120516325
 21
8.713340417065488
 31
0.0
  0
LINE
  5
F101C3
330
261
100
AcDbEntity
  8
Geo
100
AcDbLine
 10
-35.29515120516325
 20
8.713340417065488
 30
0.0
 11
-35.19515120516324
 21
8.636409041054385
 31
0.0
  0
LINE
  5
F101C5
330
261
100
AcDbEntity
  8
Geo
100
AcDbLine
 10
-35.19515120516324
 20
8.636409041054385
 30
0.0
 11
-35.09515120516325
 21
8.559312519386786
 31
0.0
  0
LINE
  5
F101C7
330
261
100
AcDbEntity
  8
Geo
100
AcDbLine
 10
-35.09515120516325
 20
8.559312519386786
 30
0.0
 11
-34.99515120516325
 21
8.482102020386783
 31
0.0
  0
LINE
  5
F101C9
330
261
100
AcDbEntity
  8
Geo
100
AcDbLine
 10
-34.99515120516325
 20
8.482102020386783
 30
0.0
 11
-34.89515120516325
 21
8.40482878802419
 31
0.0
  0
LINE
  5
F101CB
330
261
100
AcDbEntity
  8
Geo
100
AcDbLine
 10
-34.89515120516325
 20
8.40482878802419
 30
0.0
 11
-34.79515120516325
 21
8.327544107904593
 31
0.0
  0
LINE
  5
F101CD
330
261
100
AcDbEntity
  8
Geo
100
AcDbLine
 10
-34.79515120516325
 20
8.327544107904593
 30
0.0
 11
-34.69515120516324
 21
8.250299273231192
 31
0.0
  0
LINE
  5
F101CF
330
261
100
AcDbEntity
  8
Geo
100
AcDbLine
 10
-34.69515120516324
 20
8.250299273231192
 30
0.0
 11
-34.59515120516325
 21
8.173145550762193
 31
0.0
  0
LINE
  5
F101D1
330
261
100
AcDbEntity
  8
Geo
100
AcDbLine
 10
-34.59515120516325
 20
8.173145550762193
 30
0.0
 11
-34.49515120516326
 21
8.096134146785487
 31
0.0
  0
LINE
  5
F101D3
330
261
100
AcDbEntity
  8
Geo
100
AcDbLine
 10
-34.49515120516326
 20
8.096134146785487
 30
0.0
 11
-34.39515120516325
 21
8.019316173133191
 31
0.0
  0
LINE
  5
F101D5
330
261
100
AcDbEntity
  8
Geo
100
AcDbLine
 10
-34.39515120516325
 20
8.019316173133191
 30
0.0
 11
-34.29515120516325
 21
7.942742613259383
 31
0.0
  0
LINE
  5
F101D7
330
261
100
AcDbEntity
  8
Geo
100
AcDbLine
 10
-34.29515120516325
 20
7.942742613259383
 30
0.0
 11
-34.19515120516325
 21
7.866464288402696
 31
0.0
  0
LINE
  5
F101D9
330
261
100
AcDbEntity
  8
Geo
100
AcDbLine
 10
-34.19515120516325
 20
7.866464288402696
 30
0.0
 11
-34.09515120516325
 21
7.790531823856689
 31
0.0
  0
LINE
  5
F101DB
330
261
100
AcDbEntity
  8
Geo
100
AcDbLine
 10
-34.09515120516325
 20
7.790531823856689
 30
0.0
 11
-33.99515120516325
 21
7.71499561537049
 31
0.0
  0
LINE
  5
F101DD
330
261
100
AcDbEntity
  8
Geo
100
AcDbLine
 10
-33.99515120516325
 20
7.71499561537049
 30
0.0
 11
-33.89515120516325
 21
7.639905795701189
 31
0.0
  0
LINE
  5
F101DF
330
261
100
AcDbEntity
  8
Geo
100
AcDbLine
 10
-33.89515120516325
 20
7.639905795701189
 30
0.0
 11
-33.79515120516325
 21
7.565312201341193
 31
0.0
  0
LINE
  5
F101E1
330
261
100
AcDbEntity
  8
Geo
100
AcDbLine
 10
-33.79515120516325
 20
7.565312201341193
 30
0.0
 11
-33.69515120516324
 21
7.491264339442587
 31
0.0
  0
LINE
  5
F101E3
330
261
100
AcDbEntity
  8
Geo
100
AcDbLine
 10
-33.69515120516324
 20
7.491264339442587
 30
0.0
 11
-33.59515120516324
 21
7.417811354959184
 31
0.0
  0
LINE
  5
F101E5
330
261
100
AcDbEntity
  8
Geo
100
AcDbLine
 10
-33.59515120516324
 20
7.417811354959184
 30
0.0
 11
-33.49515120516324
 21
7.345001998029488
 31
0.0
  0
LINE
  5
F101E7
330
261
100
AcDbEntity
  8
Geo
100
AcDbLine
 10
-33.49515120516324
 20
7.345001998029488
 30
0.0
 11
-33.39515120516323
 21
7.272884591621689
 31
0.0
  0
LINE
  5
F101E9
330
261
100
AcDbEntity
  8
Geo
100
AcDbLine
 10
-33.39515120516323
 20
7.272884591621689
 30
0.0
 11
-33.29515120516324
 21
7.201506999462388
 31
0.0
  0
LINE
  5
F101EB
330
261
100
AcDbEntity
  8
Geo
100
AcDbLine
 10
-33.29515120516324
 20
7.201506999462388
 30
0.0
 11
-33.19515120516324
 21
7.130916594269386
 31
0.0
  0
LINE
  5
F101ED
330
261
100
AcDbEntity
  8
Geo
100
AcDbLine
 10
-33.19515120516324
 20
7.130916594269386
 30
0.0
 11
-33.09515120516323
 21
7.061160226311088
 31
0.0
  0
LINE
  5
F101EF
330
261
100
AcDbEntity
  8
Geo
100
AcDbLine
 10
-33.09515120516323
 20
7.061160226311088
 30
0.0
 11
-32.99515120516324
 21
6.992284192312091
 31
0.0
  0
LINE
  5
F101F1
330
261
100
AcDbEntity
  8
Geo
100
AcDbLine
 10
-32.99515120516324
 20
6.992284192312091
 30
0.0
 11
-32.89515120516323
 21
6.924334204726882
 31
0.0
  0
LINE
  5
F101F3
330
261
100
AcDbEntity
  8
Geo
100
AcDbLine
 10
-32.89515120516323
 20
6.924334204726882
 30
0.0
 11
-32.79515120516324
 21
6.857355361400486
 31
0.0
  0
LINE
  5
F101F5
330
261
100
AcDbEntity
  8
Geo
100
AcDbLine
 10
-32.79515120516324
 20
6.857355361400486
 30
0.0
 11
-32.69515120516324
 21
6.791392115637485
 31
0.0
  0
LINE
  5
F101F7
330
261
100
AcDbEntity
  8
Geo
100
AcDbLine
 10
-32.69515120516324
 20
6.791392115637485
 30
0.0
 11
-32.59515120516323
 21
6.726488246698885
 31
0.0
  0
LINE
  5
F101F9
330
261
100
AcDbEntity
  8
Geo
100
AcDbLine
 10
-32.59515120516323
 20
6.726488246698885
 30
0.0
 11
-32.49515120516324
 21
6.662686830745684
 31
0.0
  0
LINE
  5
F101FB
330
261
100
AcDbEntity
  8
Geo
100
AcDbLine
 10
-32.49515120516324
 20
6.662686830745684
 30
0.0
 11
-32.39515120516323
 21
6.600030212250487
 31
0.0
  0
LINE
  5
F101FD
330
261
100
AcDbEntity
  8
Geo
100
AcDbLine
 10
-32.39515120516323
 20
6.600030212250487
 30
0.0
 11
-32.29515120516324
 21
6.538559975892887
 31
0.0
  0
LINE
  5
F101FF
330
261
100
AcDbEntity
  8
Geo
100
AcDbLine
 10
-32.29515120516324
 20
6.538559975892887
 30
0.0
 11
-32.19515120516324
 21
6.478316918960587
 31
0.0
  0
LINE
  5
F10201
330
261
100
AcDbEntity
  8
Geo
100
AcDbLine
 10
-32.19515120516324
 20
6.478316918960587
 30
0.0
 11
-32.09515120516324
 21
6.41934102427249
 31
0.0
  0
LINE
  5
F10203
330
261
100
AcDbEntity
  8
Geo
100
AcDbLine
 10
-32.09515120516324
 20
6.41934102427249
 30
0.0
 11
-31.99515120516324
 21
6.361671433642293
 31
0.0
  0
LINE
  5
F10205
330
261
100
AcDbEntity
  8
Geo
100
AcDbLine
 10
-31.99515120516324
 20
6.361671433642293
 30
0.0
 11
-31.89515120516323
 21
6.305346421900587
 31
0.0
  0
LINE
  5
F10207
330
261
100
AcDbEntity
  8
Geo
100
AcDbLine
 10
-31.89515120516323
 20
6.305346421900587
 30
0.0
 11
-31.79515120516324
 21
6.250403371491991
 31
0.0
  0
LINE
  5
F10209
330
261
100
AcDbEntity
  8
Geo
100
AcDbLine
 10
-31.79515120516324
 20
6.250403371491991
 30
0.0
 11
-31.69515120516325
 21
6.196878747664989
 31
0.0
  0
LINE
  5
F1020B
330
261
100
AcDbEntity
  8
Geo
100
AcDbLine
 10
-31.69515120516325
 20
6.196878747664989
 30
0.0
 11
-31.59515120516323
 21
6.14480807426969
 31
0.0
  0
LINE
  5
F1020D
330
261
100
AcDbEntity
  8
Geo
100
AcDbLine
 10
-31.59515120516323
 20
6.14480807426969
 30
0.0
 11
-31.49515120516324
 21
6.094225910181791
 31
0.0
  0
LINE
  5
F1020F
330
261
100
AcDbEntity
  8
Geo
100
AcDbLine
 10
-31.49515120516324
 20
6.094225910181791
 30
0.0
 11
-31.39515120516323
 21
6.045165826365391
 31
0.0
  0
LINE
  5
F10211
330
261
100
AcDbEntity
  8
Geo
100
AcDbLine
 10
-31.39515120516323
 20
6.045165826365391
 30
0.0
 11
-31.29515120516324
 21
5.997660383592489
 31
0.0
  0
LINE
  5
F10213
330
261
100
AcDbEntity
  8
Geo
100
AcDbLine
 10
-31.29515120516324
 20
5.997660383592489
 30
0.0
 11
-31.19515120516324
 21
5.951741110832692
 31
0.0
  0
LINE
  5
F10215
330
261
100
AcDbEntity
  8
Geo
100
AcDbLine
 10
-31.19515120516324
 20
5.951741110832692
 30
0.0
 11
-31.09515120516324
 21
5.907438484327883
 31
0.0
  0
LINE
  5
F10217
330
261
100
AcDbEntity
  8
Geo
100
AcDbLine
 10
-31.09515120516324
 20
5.907438484327883
 30
0.0
 11
-30.99515120516324
 21
5.864781907364793
 31
0.0
  0
LINE
  5
F10219
330
261
100
AcDbEntity
  8
Geo
100
AcDbLine
 10
-30.99515120516324
 20
5.864781907364793
 30
0.0
 11
-30.89515120516323
 21
5.823799690761092
 31
0.0
  0
LINE
  5
F1021B
330
261
100
AcDbEntity
  8
Geo
100
AcDbLine
 10
-30.89515120516323
 20
5.823799690761092
 30
0.0
 11
-30.79515120516324
 21
5.784519034075188
 31
0.0
  0
LINE
  5
F1021D
330
261
100
AcDbEntity
  8
Geo
100
AcDbLine
 10
-30.79515120516324
 20
5.784519034075188
 30
0.0
 11
-30.69515120516324
 21
5.746966007553993
 31
0.0
  0
LINE
  5
F1021F
330
261
100
AcDbEntity
  8
Geo
100
AcDbLine
 10
-30.69515120516324
 20
5.746966007553993
 30
0.0
 11
-30.59515120516323
 21
5.71116553483089
 31
0.0
  0
LINE
  5
F10221
330
261
100
AcDbEntity
  8
Geo
100
AcDbLine
 10
-30.59515120516323
 20
5.71116553483089
 30
0.0
 11
-30.49515120516324
 21
5.677141376383687
 31
0.0
  0
LINE
  5
F10223
330
261
100
AcDbEntity
  8
Geo
100
AcDbLine
 10
-30.49515120516324
 20
5.677141376383687
 30
0.0
 11
-30.39515120516323
 21
5.644916113764992
 31
0.0
  0
LINE
  5
F10225
330
261
100
AcDbEntity
  8
Geo
100
AcDbLine
 10
-30.39515120516323
 20
5.644916113764992
 30
0.0
 11
-30.29515120516324
 21
5.614511134615291
 31
0.0
  0
LINE
  5
F10227
330
261
100
AcDbEntity
  8
Geo
100
AcDbLine
 10
-30.29515120516324
 20
5.614511134615291
 30
0.0
 11
-30.19515120516324
 21
5.585946618467794
 31
0.0
  0
LINE
  5
F10229
330
261
100
AcDbEntity
  8
Geo
100
AcDbLine
 10
-30.19515120516324
 20
5.585946618467794
 30
0.0
 11
-30.09515120516323
 21
5.559241523355886
 31
0.0
  0
LINE
  5
F1022B
330
261
100
AcDbEntity
  8
Geo
100
AcDbLine
 10
-30.09515120516323
 20
5.559241523355886
 30
0.0
 11
-29.99515120516324
 21
5.534413573230189
 31
0.0
  0
LINE
  5
F1022D
330
261
100
AcDbEntity
  8
Geo
100
AcDbLine
 10
-29.99515120516324
 20
5.534413573230189
 30
0.0
 11
-29.89515120516323
 21
5.511479246196088
 31
0.0
  0
LINE
  5
F1022F
330
261
100
AcDbEntity
  8
Geo
100
AcDbLine
 10
-29.89515120516323
 20
5.511479246196088
 30
0.0
 11
-29.79515120516324
 21
5.490453763576887
 31
0.0
  0
LINE
  5
F10231
330
261
100
AcDbEntity
  8
Geo
100
AcDbLine
 10
-29.79515120516324
 20
5.490453763576887
 30
0.0
 11
-29.69515120516324
 21
5.471351079811491
 31
0.0
  0
LINE
  5
F10233
330
261
100
AcDbEntity
  8
Geo
100
AcDbLine
 10
-29.69515120516324
 20
5.471351079811491
 30
0.0
 11
-29.59515120516324
 21
5.454183873193294
 31
0.0
  0
LINE
  5
F10235
330
261
100
AcDbEntity
  8
Geo
100
AcDbLine
 10
-29.59515120516324
 20
5.454183873193294
 30
0.0
 11
-29.49515120516324
 21
5.438963537455293
 31
0.0
  0
LINE
  5
F10237
330
261
100
AcDbEntity
  8
Geo
100
AcDbLine
 10
-29.49515120516324
 20
5.438963537455293
 30
0.0
 11
-29.39515120516323
 21
5.425700174208486
 31
0.0
  0
LINE
  5
F10239
330
261
100
AcDbEntity
  8
Geo
100
AcDbLine
 10
-29.39515120516323
 20
5.425700174208486
 30
0.0
 11
-29.29515120516324
 21
5.414402586237592
 31
0.0
  0
LINE
  5
F1023B
330
261
100
AcDbEntity
  8
Geo
100
AcDbLine
 10
-29.29515120516324
 20
5.414402586237592
 30
0.0
 11
-29.19515120516324
 21
5.40507827165819
 31
0.0
  0
LINE
  5
F1023D
330
261
100
AcDbEntity
  8
Geo
100
AcDbLine
 10
-29.19515120516324
 20
5.40507827165819
 30
0.0
 11
-29.09515120516323
 21
5.397733418940788
 31
0.0
  0
LINE
  5
F1023F
330
261
100
AcDbEntity
  8
Geo
100
AcDbLine
 10
-29.09515120516323
 20
5.397733418940788
 30
0.0
 11
-28.99515120516324
 21
5.392372902803494
 31
0.0
  0
LINE
  5
F10241
330
261
100
AcDbEntity
  8
Geo
100
AcDbLine
 10
-28.99515120516324
 20
5.392372902803494
 30
0.0
 11
-28.89515120516323
 21
5.389000280976489
 31
0.0
  0
LINE
  5
F10243
330
261
100
AcDbEntity
  8
Geo
100
AcDbLine
 10
-28.89515120516323
 20
5.389000280976489
 30
0.0
 11
-28.79515120516323
 21
5.387617791840987
 31
0.0
  0
LINE
  5
F10245
330
261
100
AcDbEntity
  8
Geo
100
AcDbLine
 10
-37.89515120516325
 20
5.839522117960882
 30
0.0
 11
-37.79515120516325
 21
5.71695060641759
 31
0.0
  0
LINE
  5
F10247
330
261
100
AcDbEntity
  8
Geo
100
AcDbLine
 10
-37.79515120516325
 20
5.71695060641759
 30
0.0
 11
-37.69515120516324
 21
5.639760114634889
 31
0.0
  0
LINE
  5
F10249
330
261
100
AcDbEntity
  8
Geo
100
AcDbLine
 10
-37.69515120516324
 20
5.639760114634889
 30
0.0
 11
-37.59515120516325
 21
5.609658236380688
 31
0.0
  0
LINE
  5
F1024B
330
261
100
AcDbEntity
  8
Geo
100
AcDbLine
 10
-37.59515120516325
 20
5.609658236380688
 30
0.0
 11
-37.49515120516325
 21
5.581400041957088
 31
0.0
  0
LINE
  5
F1024D
330
261
100
AcDbEntity
  8
Geo
100
AcDbLine
 10
-37.49515120516325
 20
5.581400041957088
 30
0.0
 11
-37.39515120516325
 21
5.555004286094188
 31
0.0
  0
LINE
  5
F1024F
330
261
100
AcDbEntity
  8
Geo
100
AcDbLine
 10
-37.39515120516325
 20
5.555004286094188
 30
0.0
 11
-37.29515120516325
 21
5.530488487437089
 31
0.0
  0
LINE
  5
F10251
330
261
100
AcDbEntity
  8
Geo
100
AcDbLine
 10
-37.29515120516325
 20
5.530488487437089
 30
0.0
 11
-37.19515120516324
 21
5.507868916918489
 31
0.0
  0
LINE
  5
F10253
330
261
100
AcDbEntity
  8
Geo
100
AcDbLine
 10
-37.19515120516324
 20
5.507868916918489
 30
0.0
 11
-37.09515120516325
 21
5.487160586960385
 31
0.0
  0
LINE
  5
F10255
330
261
100
AcDbEntity
  8
Geo
100
AcDbLine
 10
-37.09515120516325
 20
5.487160586960385
 30
0.0
 11
-36.99515120516326
 21
5.468377241510289
 31
0.0
  0
LINE
  5
F10257
330
261
100
AcDbEntity
  8
Geo
100
AcDbLine
 10
-36.99515120516326
 20
5.468377241510289
 30
0.0
 11
-36.89515120516325
 21
5.451531346919189
 31
0.0
  0
LINE
  5
F10259
330
261
100
AcDbEntity
  8
Geo
100
AcDbLine
 10
-36.89515120516325
 20
5.451531346919189
 30
0.0
 11
-36.79515120516325
 21
5.436634083668089
 31
0.0
  0
LINE
  5
F1025B
330
261
100
AcDbEntity
  8
Geo
100
AcDbLine
 10
-36.79515120516325
 20
5.436634083668089
 30
0.0
 11
-36.69515120516325
 21
5.423695338947489
 31
0.0
  0
LINE
  5
F1025D
330
261
100
AcDbEntity
  8
Geo
100
AcDbLine
 10
-36.69515120516325
 20
5.423695338947489
 30
0.0
 11
-36.59515120516325
 21
5.412723700095291
 31
0.0
  0
LINE
  5
F1025F
330
261
100
AcDbEntity
  8
Geo
100
AcDbLine
 10
-36.59515120516325
 20
5.412723700095291
 30
0.0
 11
-36.49515120516325
 21
5.403726448897486
 31
0.0
  0
LINE
  5
F10261
330
261
100
AcDbEntity
  8
Geo
100
AcDbLine
 10
-36.49515120516325
 20
5.403726448897486
 30
0.0
 11
-36.39515120516325
 21
5.39670955675529
 31
0.0
  0
LINE
  5
F10263
330
261
100
AcDbEntity
  8
Geo
100
AcDbLine
 10
-36.39515120516325
 20
5.39670955675529
 30
0.0
 11
-36.29515120516325
 21
5.39167768072199
 31
0.0
  0
LINE
  5
F10265
330
261
100
AcDbEntity
  8
Geo
100
AcDbLine
 10
-36.29515120516325
 20
5.39167768072199
 30
0.0
 11
-36.19515120516324
 21
5.388634160412188
 31
0.0
  0
LINE
  5
F10267
330
261
100
AcDbEntity
  8
Geo
100
AcDbLine
 10
-36.19515120516324
 20
5.388634160412188
 30
0.0
 11
-36.09515120516325
 21
5.387581015785094
 31
0.0
  0
LINE
  5
F10269
330
261
100
AcDbEntity
  8
Geo
100
AcDbLine
 10
-22.49515120516324
 20
11.38758018227749
 30
0.0
 11
-22.39515120516323
 21
11.38753349500419
 31
0.0
  0
LINE
  5
F1026B
330
261
100
AcDbEntity
  8
Geo
100
AcDbLine
 10
-22.39515120516323
 20
11.38753349500419
 30
0.0
 11
-22.29515120516324
 21
11.38729022046939
 31
0.0
  0
LINE
  5
F1026D
330
261
100
AcDbEntity
  8
Geo
100
AcDbLine
 10
-22.29515120516324
 20
11.38729022046939
 30
0.0
 11
-22.19515120516324
 21
11.38686386124838
 31
0.0
  0
LINE
  5
F1026F
330
261
100
AcDbEntity
  8
Geo
100
AcDbLine
 10
-22.19515120516324
 20
11.38686386124838
 30
0.0
 11
-22.09515120516323
 21
11.38628126958439
 31
0.0
  0
LINE
  5
F10271
330
261
100
AcDbEntity
  8
Geo
100
AcDbLine
 10
-22.09515120516323
 20
11.38628126958439
 30
0.0
 11
-21.99515120516324
 21
11.38556803457798
 31
0.0
  0
LINE
  5
F10273
330
261
100
AcDbEntity
  8
Geo
100
AcDbLine
 10
-21.99515120516324
 20
11.38556803457798
 30
0.0
 11
-21.89515120516323
 21
11.38474847850249
 31
0.0
  0
LINE
  5
F10275
330
261
100
AcDbEntity
  8
Geo
100
AcDbLine
 10
-21.89515120516323
 20
11.38474847850249
 30
0.0
 11
-21.79515120516324
 21
11.38384565408788
 31
0.0
  0
LINE
  5
F10277
330
261
100
AcDbEntity
  8
Geo
100
AcDbLine
 10
-21.79515120516324
 20
11.38384565408788
 30
0.0
 11
-21.69515120516324
 21
11.38288134265269
 31
0.0
  0
LINE
  5
F10279
330
261
100
AcDbEntity
  8
Geo
100
AcDbLine
 10
-21.69515120516324
 20
11.38288134265269
 30
0.0
 11
-21.59515120516323
 21
11.38187605297138
 31
0.0
  0
LINE
  5
F1027B
330
261
100
AcDbEntity
  8
Geo
100
AcDbLine
 10
-21.59515120516323
 20
11.38187605297138
 30
0.0
 11
-21.49515120516324
 21
11.38084902076999
 31
0.0
  0
LINE
  5
F1027D
330
261
100
AcDbEntity
  8
Geo
100
AcDbLine
 10
-21.49515120516324
 20
11.38084902076999
 30
0.0
 11
-21.39515120516323
 21
11.37981820874738
 31
0.0
  0
LINE
  5
F1027F
330
261
100
AcDbEntity
  8
Geo
100
AcDbLine
 10
-21.39515120516323
 20
11.37981820874738
 30
0.0
 11
-21.29515120516324
 21
11.37880030703009
 31
0.0
  0
LINE
  5
F10281
330
261
100
AcDbEntity
  8
Geo
100
AcDbLine
 10
-21.29515120516324
 20
11.37880030703009
 30
0.0
 11
-21.19515120516324
 21
11.37781073396848
 31
0.0
  0
LINE
  5
F10283
330
261
100
AcDbEntity
  8
Geo
100
AcDbLine
 10
-21.19515120516324
 20
11.37781073396848
 30
0.0
 11
-21.09515120516324
 21
11.37686363719549
 31
0.0
  0
LINE
  5
F10285
330
261
100
AcDbEntity
  8
Geo
100
AcDbLine
 10
-21.09515120516324
 20
11.37686363719549
 30
0.0
 11
-20.99515120516324
 21
11.37597189486948
 31
0.0
  0
LINE
  5
F10287
330
261
100
AcDbEntity
  8
Geo
100
AcDbLine
 10
-20.99515120516324
 20
11.37597189486948
 30
0.0
 11
-20.89515120516323
 21
11.37514711703289
 31
0.0
  0
LINE
  5
F10289
330
261
100
AcDbEntity
  8
Geo
100
AcDbLine
 10
-20.89515120516323
 20
11.37514711703289
 30
0.0
 11
-20.79515120516324
 21
11.37439964702128
 31
0.0
  0
LINE
  5
F1028B
330
261
100
AcDbEntity
  8
Geo
100
AcDbLine
 10
-20.79515120516324
 20
11.37439964702128
 30
0.0
 11
-20.69515120516324
 21
11.37373856286859
 31
0.0
  0
LINE
  5
F1028D
330
261
100
AcDbEntity
  8
Geo
100
AcDbLine
 10
-20.69515120516324
 20
11.37373856286859
 30
0.0
 11
-20.59515120516323
 21
11.37317167865399
 31
0.0
  0
LINE
  5
F1028F
330
261
100
AcDbEntity
  8
Geo
100
AcDbLine
 10
-20.59515120516323
 20
11.37317167865399
 30
0.0
 11
-20.49515120516324
 21
11.37270554574909
 31
0.0
  0
LINE
  5
F10291
330
261
100
AcDbEntity
  8
Geo
100
AcDbLine
 10
-20.49515120516324
 20
11.37270554574909
 30
0.0
 11
-20.39515120516323
 21
11.37234545392398
 31
0.0
  0
LINE
  5
F10293
330
261
100
AcDbEntity
  8
Geo
100
AcDbLine
 10
-20.39515120516323
 20
11.37234545392398
 30
0.0
 11
-20.29515120516323
 21
11.37209543228228
 31
0.0
  0
LINE
  5
F10295
330
261
100
AcDbEntity
  8
Geo
100
AcDbLine
 10
-20.29515120516323
 20
11.37209543228228
 30
0.0
 11
-20.19515120516324
 21
11.37195824999728
 31
0.0
  0
LINE
  5
F10297
330
261
100
AcDbEntity
  8
Geo
100
AcDbLine
 10
-20.19515120516324
 20
11.37195824999728
 30
0.0
 11
-20.09515120516323
 21
11.37193541683049
 31
0.0
  0
LINE
  5
F10299
330
261
100
AcDbEntity
  8
Geo
100
AcDbLine
 10
-20.09515120516323
 20
11.37193541683049
 30
0.0
 11
-19.99515120516324
 21
11.37202718341878
 31
0.0
  0
LINE
  5
F1029B
330
261
100
AcDbEntity
  8
Geo
100
AcDbLine
 10
-19.99515120516324
 20
11.37202718341878
 30
0.0
 11
-19.89515120516323
 21
11.37223254132199
 31
0.0
  0
LINE
  5
F1029D
330
261
100
AcDbEntity
  8
Geo
100
AcDbLine
 10
-28.79515120516323
 20
11.38754257271399
 30
0.0
 11
-28.69515120516324
 21
11.38693401161128
 31
0.0
  0
LINE
  5
F1029F
330
261
100
AcDbEntity
  8
Geo
100
AcDbLine
 10
-28.69515120516324
 20
11.38693401161128
 30
0.0
 11
-28.59515120516324
 21
11.38433480416739
 31
0.0
  0
LINE
  5
F102A1
330
261
100
AcDbEntity
  8
Geo
100
AcDbLine
 10
-28.59515120516324
 20
11.38433480416739
 30
0.0
 11
-28.49515120516324
 21
11.37974667545489
 31
0.0
  0
LINE
  5
F102A3
330
261
100
AcDbEntity
  8
Geo
100
AcDbLine
 10
-28.49515120516324
 20
11.37974667545489
 30
0.0
 11
-28.39515120516323
 21
11.37317267057678
 31
0.0
  0
LINE
  5
F102A5
330
261
100
AcDbEntity
  8
Geo
100
AcDbLine
 10
-28.39515120516323
 20
11.37317267057678
 30
0.0
 11
-28.29515120516324
 21
11.36461715264569
 31
0.0
  0
LINE
  5
F102A7
330
261
100
AcDbEntity
  8
Geo
100
AcDbLine
 10
-28.29515120516324
 20
11.36461715264569
 30
0.0
 11
-28.19515120516324
 21
11.35408579988829
 31
0.0
  0
LINE
  5
F102A9
330
261
100
AcDbEntity
  8
Geo
100
AcDbLine
 10
-28.19515120516324
 20
11.35408579988829
 30
0.0
 11
-28.09515120516323
 21
11.34158560187629
 31
0.0
  0
LINE
  5
F102AB
330
261
100
AcDbEntity
  8
Geo
100
AcDbLine
 10
-28.09515120516323
 20
11.34158560187629
 30
0.0
 11
-27.99515120516324
 21
11.32712485488778
 31
0.0
  0
LINE
  5
F102AD
330
261
100
AcDbEntity
  8
Geo
100
AcDbLine
 10
-27.99515120516324
 20
11.32712485488778
 30
0.0
 11
-27.89515120516323
 21
11.31071315640098
 31
0.0
  0
LINE
  5
F102AF
330
261
100
AcDbEntity
  8
Geo
100
AcDbLine
 10
-27.89515120516323
 20
11.31071315640098
 30
0.0
 11
-27.79515120516324
 21
11.31286846686539
 31
0.0
  0
LINE
  5
F102B1
330
261
100
AcDbEntity
  8
Geo
100
AcDbLine
 10
-27.79515120516324
 20
11.31286846686539
 30
0.0
 11
-27.69515120516324
 21
11.31496617700609
 31
0.0
  0
LINE
  5
F102B3
330
261
100
AcDbEntity
  8
Geo
100
AcDbLine
 10
-27.69515120516324
 20
11.31496617700609
 30
0.0
 11
-27.59515120516323
 21
11.31700742704769
 31
0.0
  0
LINE
  5
F102B5
330
261
100
AcDbEntity
  8
Geo
100
AcDbLine
 10
-27.59515120516323
 20
11.31700742704769
 30
0.0
 11
-27.49515120516324
 21
11.31899334388949
 31
0.0
  0
LINE
  5
F102B7
330
261
100
AcDbEntity
  8
Geo
100
AcDbLine
 10
-27.49515120516324
 20
11.31899334388949
 30
0.0
 11
-27.39515120516323
 21
11.32092504101588
 31
0.0
  0
LINE
  5
F102B9
330
261
100
AcDbEntity
  8
Geo
100
AcDbLine
 10
-27.39515120516323
 20
11.32092504101588
 30
0.0
 11
-27.29515120516324
 21
11.32280361840779
 31
0.0
  0
LINE
  5
F102BB
330
261
100
AcDbEntity
  8
Geo
100
AcDbLine
 10
-27.29515120516324
 20
11.32280361840779
 30
0.0
 11
-27.19515120516324
 21
11.32463016245849
 31
0.0
  0
LINE
  5
F102BD
330
261
100
AcDbEntity
  8
Geo
100
AcDbLine
 10
-27.19515120516324
 20
11.32463016245849
 30
0.0
 11
-27.09515120516324
 21
11.32640574589128
 31
0.0
  0
LINE
  5
F102BF
330
261
100
AcDbEntity
  8
Geo
100
AcDbLine
 10
-27.09515120516324
 20
11.32640574589128
 30
0.0
 11
-26.99515120516324
 21
11.32813142768019
 31
0.0
  0
LINE
  5
F102C1
330
261
100
AcDbEntity
  8
Geo
100
AcDbLine
 10
-26.99515120516324
 20
11.32813142768019
 30
0.0
 11
-26.89515120516323
 21
11.32980825297329
 31
0.0
  0
LINE
  5
F102C3
330
261
100
AcDbEntity
  8
Geo
100
AcDbLine
 10
-26.89515120516323
 20
11.32980825297329
 30
0.0
 11
-26.79515120516324
 21
11.33143725301799
 31
0.0
  0
LINE
  5
F102C5
330
261
100
AcDbEntity
  8
Geo
100
AcDbLine
 10
-26.79515120516324
 20
11.33143725301799
 30
0.0
 11
-26.69515120516325
 21
11.33301944509038
 31
0.0
  0
LINE
  5
F102C7
330
261
100
AcDbEntity
  8
Geo
100
AcDbLine
 10
-26.69515120516325
 20
11.33301944509038
 30
0.0
 11
-26.59515120516323
 21
11.33455583242479
 31
0.0
  0
LINE
  5
F102C9
330
261
100
AcDbEntity
  8
Geo
100
AcDbLine
 10
-26.59515120516323
 20
11.33455583242479
 30
0.0
 11
-26.49515120516324
 21
11.33604740414778
 31
0.0
  0
LINE
  5
F102CB
330
261
100
AcDbEntity
  8
Geo
100
AcDbLine
 10
-26.49515120516324
 20
11.33604740414778
 30
0.0
 11
-26.39515120516323
 21
11.33749513521329
 31
0.0
  0
LINE
  5
F102CD
330
261
100
AcDbEntity
  8
Geo
100
AcDbLine
 10
-26.39515120516323
 20
11.33749513521329
 30
0.0
 11
-26.29515120516324
 21
11.33889998634028
 31
0.0
  0
LINE
  5
F102CF
330
261
100
AcDbEntity
  8
Geo
100
AcDbLine
 10
-26.29515120516324
 20
11.33889998634028
 30
0.0
 11
-26.19515120516324
 21
11.34026290395279
 31
0.0
  0
LINE
  5
F102D1
330
261
100
AcDbEntity
  8
Geo
100
AcDbLine
 10
-26.19515120516324
 20
11.34026290395279
 30
0.0
 11
-26.09515120516324
 21
11.34158482012189
 31
0.0
  0
LINE
  5
F102D3
330
261
100
AcDbEntity
  8
Geo
100
AcDbLine
 10
-26.09515120516324
 20
11.34158482012189
 30
0.0
 11
-25.99515120516324
 21
11.34286665250989
 31
0.0
  0
LINE
  5
F102D5
330
261
100
AcDbEntity
  8
Geo
100
AcDbLine
 10
-25.99515120516324
 20
11.34286665250989
 30
0.0
 11
-25.89515120516323
 21
11.34410930431669
 31
0.0
  0
LINE
  5
F102D7
330
261
100
AcDbEntity
  8
Geo
100
AcDbLine
 10
-25.89515120516323
 20
11.34410930431669
 30
0.0
 11
-25.79515120516324
 21
11.34531366422759
 31
0.0
  0
LINE
  5
F102D9
330
261
100
AcDbEntity
  8
Geo
100
AcDbLine
 10
-25.79515120516324
 20
11.34531366422759
 30
0.0
 11
-25.69515120516324
 21
11.34648060636388
 31
0.0
  0
LINE
  5
F102DB
330
261
100
AcDbEntity
  8
Geo
100
AcDbLine
 10
-25.69515120516324
 20
11.34648060636388
 30
0.0
 11
-25.59515120516323
 21
11.34761099023428
 31
0.0
  0
LINE
  5
F102DD
330
261
100
AcDbEntity
  8
Geo
100
AcDbLine
 10
-25.59515120516323
 20
11.34761099023428
 30
0.0
 11
-25.49515120516324
 21
11.34870566068919
 31
0.0
  0
LINE
  5
F102DF
330
261
100
AcDbEntity
  8
Geo
100
AcDbLine
 10
-25.49515120516324
 20
11.34870566068919
 30
0.0
 11
-25.39515120516323
 21
11.34976544787619
 31
0.0
  0
LINE
  5
F102E1
330
261
100
AcDbEntity
  8
Geo
100
AcDbLine
 10
-25.39515120516323
 20
11.34976544787619
 30
0.0
 11
-25.29515120516324
 21
11.35079116719728
 31
0.0
  0
LINE
  5
F102E3
330
261
100
AcDbEntity
  8
Geo
100
AcDbLine
 10
-25.29515120516324
 20
11.35079116719728
 30
0.0
 11
-25.19515120516324
 21
11.35178361926759
 31
0.0
  0
LINE
  5
F102E5
330
261
100
AcDbEntity
  8
Geo
100
AcDbLine
 10
-25.19515120516324
 20
11.35178361926759
 30
0.0
 11
-25.09515120516323
 21
11.35274358987659
 31
0.0
  0
LINE
  5
F102E7
330
261
100
AcDbEntity
  8
Geo
100
AcDbLine
 10
-25.09515120516323
 20
11.35274358987659
 30
0.0
 11
-24.99515120516324
 21
11.35367184994969
 31
0.0
  0
LINE
  5
F102E9
330
261
100
AcDbEntity
  8
Geo
100
AcDbLine
 10
-24.99515120516324
 20
11.35367184994969
 30
0.0
 11
-24.89515120516323
 21
11.35456915551229
 31
0.0
  0
LINE
  5
F102EB
330
261
100
AcDbEntity
  8
Geo
100
AcDbLine
 10
-24.89515120516323
 20
11.35456915551229
 30
0.0
 11
-24.79515120516324
 21
11.35543624765478
 31
0.0
  0
LINE
  5
F102ED
330
261
100
AcDbEntity
  8
Geo
100
AcDbLine
 10
-24.79515120516324
 20
11.35543624765478
 30
0.0
 11
-24.69515120516324
 21
11.35627385249928
 31
0.0
  0
LINE
  5
F102EF
330
261
100
AcDbEntity
  8
Geo
100
AcDbLine
 10
-24.69515120516324
 20
11.35627385249928
 30
0.0
 11
-24.59515120516324
 21
11.35708268116779
 31
0.0
  0
LINE
  5
F102F1
330
261
100
AcDbEntity
  8
Geo
100
AcDbLine
 10
-24.59515120516324
 20
11.35708268116779
 30
0.0
 11
-24.49515120516324
 21
11.35786342975099
 31
0.0
  0
LINE
  5
F102F3
330
261
100
AcDbEntity
  8
Geo
100
AcDbLine
 10
-24.49515120516324
 20
11.35786342975099
 30
0.0
 11
-24.39515120516323
 21
11.35861677927969
 31
0.0
  0
LINE
  5
F102F5
330
261
100
AcDbEntity
  8
Geo
100
AcDbLine
 10
-24.39515120516323
 20
11.35861677927969
 30
0.0
 11
-24.29515120516324
 21
11.35934339569628
 31
0.0
  0
LINE
  5
F102F7
330
261
100
AcDbEntity
  8
Geo
100
AcDbLine
 10
-24.29515120516324
 20
11.35934339569628
 30
0.0
 11
-24.19515120516325
 21
11.36004392982798
 31
0.0
  0
LINE
  5
F102F9
330
261
100
AcDbEntity
  8
Geo
100
AcDbLine
 10
-24.19515120516325
 20
11.36004392982798
 30
0.0
 11
-24.09515120516323
 21
11.36071901736128
 31
0.0
  0
LINE
  5
F102FB
330
261
100
AcDbEntity
  8
Geo
100
AcDbLine
 10
-24.09515120516323
 20
11.36071901736128
 30
0.0
 11
-23.99515120516324
 21
11.36136927881728
 31
0.0
  0
LINE
  5
F102FD
330
261
100
AcDbEntity
  8
Geo
100
AcDbLine
 10
-23.99515120516324
 20
11.36136927881728
 30
0.0
 11
-23.89515120516323
 21
11.36199531952849
 31
0.0
  0
LINE
  5
F102FF
330
261
100
AcDbEntity
  8
Geo
100
AcDbLine
 10
-23.89515120516323
 20
11.36199531952849
 30
0.0
 11
-23.79515120516324
 21
11.36259772961619
 31
0.0
  0
LINE
  5
F10301
330
261
100
AcDbEntity
  8
Geo
100
AcDbLine
 10
-23.79515120516324
 20
11.36259772961619
 30
0.0
 11
-23.69515120516324
 21
11.36317708396959
 31
0.0
  0
LINE
  5
F10303
330
261
100
AcDbEntity
  8
Geo
100
AcDbLine
 10
-23.69515120516324
 20
11.36317708396959
 30
0.0
 11
-23.59515120516324
 21
11.36373394222509
 31
0.0
  0
LINE
  5
F10305
330
261
100
AcDbEntity
  8
Geo
100
AcDbLine
 10
-23.59515120516324
 20
11.36373394222509
 30
0.0
 11
-23.49515120516324
 21
11.36426884874699
 31
0.0
  0
LINE
  5
F10307
330
261
100
AcDbEntity
  8
Geo
100
AcDbLine
 10
-23.49515120516324
 20
11.36426884874699
 30
0.0
 11
-23.39515120516323
 21
11.36478233260959
 31
0.0
  0
LINE
  5
F10309
330
261
100
AcDbEntity
  8
Geo
100
AcDbLine
 10
-23.39515120516323
 20
11.36478233260959
 30
0.0
 11
-23.29515120516324
 21
11.36527490757869
 31
0.0
  0
LINE
  5
F1030B
330
261
100
AcDbEntity
  8
Geo
100
AcDbLine
 10
-23.29515120516324
 20
11.36527490757869
 30
0.0
 11
-23.19515120516324
 21
11.36574707209599
 31
0.0
  0
LINE
  5
F1030D
330
261
100
AcDbEntity
  8
Geo
100
AcDbLine
 10
-23.19515120516324
 20
11.36574707209599
 30
0.0
 11
-23.09515120516323
 21
11.36619930926249
 31
0.0
  0
LINE
  5
F1030F
330
261
100
AcDbEntity
  8
Geo
100
AcDbLine
 10
-23.09515120516323
 20
11.36619930926249
 30
0.0
 11
-22.99515120516324
 21
11.36663208682388
 31
0.0
  0
LINE
  5
F10311
330
261
100
AcDbEntity
  8
Geo
100
AcDbLine
 10
-22.99515120516324
 20
11.36663208682388
 30
0.0
 11
-22.89515120516323
 21
11.36704585715608
 31
0.0
  0
LINE
  5
F10313
330
261
100
AcDbEntity
  8
Geo
100
AcDbLine
 10
-22.89515120516323
 20
11.36704585715608
 30
0.0
 11
-22.79515120516323
 21
11.36744105725189
 31
0.0
  0
LINE
  5
F10315
330
261
100
AcDbEntity
  8
Geo
100
AcDbLine
 10
-22.79515120516323
 20
11.36744105725189
 30
0.0
 11
-22.69515120516324
 21
11.36781810870798
 31
0.0
  0
LINE
  5
F10317
330
261
100
AcDbEntity
  8
Geo
100
AcDbLine
 10
-22.69515120516324
 20
11.36781810870798
 30
0.0
 11
-22.59515120516323
 21
11.36817741771298
 31
0.0
  0
LINE
  5
F10319
330
261
100
AcDbEntity
  8
Geo
100
AcDbLine
 10
-22.59515120516323
 20
11.36817741771298
 30
0.0
 11
-22.49515120516324
 21
11.36851937503609
 31
0.0
  0
LINE
  5
F1031B
330
261
100
AcDbEntity
  8
Geo
100
AcDbLine
 10
-22.49515120516324
 20
11.36851937503609
 30
0.0
 11
-22.39515120516323
 21
11.36884435601609
 31
0.0
  0
LINE
  5
F1031D
330
261
100
AcDbEntity
  8
Geo
100
AcDbLine
 10
-22.39515120516323
 20
11.36884435601609
 30
0.0
 11
-22.29515120516324
 21
11.36915272055109
 31
0.0
  0
LINE
  5
F1031F
330
261
100
AcDbEntity
  8
Geo
100
AcDbLine
 10
-22.29515120516324
 20
11.36915272055109
 30
0.0
 11
-22.19515120516324
 21
11.36944481308929
 31
0.0
  0
LINE
  5
F10321
330
261
100
AcDbEntity
  8
Geo
100
AcDbLine
 10
-22.19515120516324
 20
11.36944481308929
 30
0.0
 11
-22.09515120516323
 21
11.36972096261969
 31
0.0
  0
LINE
  5
F10323
330
261
100
AcDbEntity
  8
Geo
100
AcDbLine
 10
-22.09515120516323
 20
11.36972096261969
 30
0.0
 11
-21.99515120516324
 21
11.36998148266369
 31
0.0
  0
LINE
  5
F10325
330
261
100
AcDbEntity
  8
Geo
100
AcDbLine
 10
-21.99515120516324
 20
11.36998148266369
 30
0.0
 11
-21.89515120516323
 21
11.37022667126709
 31
0.0
  0
LINE
  5
F10327
330
261
100
AcDbEntity
  8
Geo
100
AcDbLine
 10
-21.89515120516323
 20
11.37022667126709
 30
0.0
 11
-21.79515120516324
 21
11.37045681099299
 31
0.0
  0
LINE
  5
F10329
330
261
100
AcDbEntity
  8
Geo
100
AcDbLine
 10
-21.79515120516324
 20
11.37045681099299
 30
0.0
 11
-21.69515120516324
 21
11.37067216891429
 31
0.0
  0
LINE
  5
F1032B
330
261
100
AcDbEntity
  8
Geo
100
AcDbLine
 10
-21.69515120516324
 20
11.37067216891429
 30
0.0
 11
-21.59515120516323
 21
11.37087299660779
 31
0.0
  0
LINE
  5
F1032D
330
261
100
AcDbEntity
  8
Geo
100
AcDbLine
 10
-21.59515120516323
 20
11.37087299660779
 30
0.0
 11
-21.49515120516324
 21
11.37105953014778
 31
0.0
  0
LINE
  5
F1032F
330
261
100
AcDbEntity
  8
Geo
100
AcDbLine
 10
-21.49515120516324
 20
11.37105953014778
 30
0.0
 11
-21.39515120516323
 21
11.37123199010079
 31
0.0
  0
LINE
  5
F10331
330
261
100
AcDbEntity
  8
Geo
100
AcDbLine
 10
-21.39515120516323
 20
11.37123199010079
 30
0.0
 11
-21.29515120516324
 21
11.37139058152039
 31
0.0
  0
LINE
  5
F10333
330
261
100
AcDbEntity
  8
Geo
100
AcDbLine
 10
-21.29515120516324
 20
11.37139058152039
 30
0.0
 11
-21.19515120516324
 21
11.37153549394219
 31
0.0
  0
LINE
  5
F10335
330
261
100
AcDbEntity
  8
Geo
100
AcDbLine
 10
-21.19515120516324
 20
11.37153549394219
 30
0.0
 11
-21.09515120516324
 21
11.37166690138019
 31
0.0
  0
LINE
  5
F10337
330
261
100
AcDbEntity
  8
Geo
100
AcDbLine
 10
-21.09515120516324
 20
11.37166690138019
 30
0.0
 11
-20.99515120516324
 21
11.37178496232219
 31
0.0
  0
LINE
  5
F10339
330
261
100
AcDbEntity
  8
Geo
100
AcDbLine
 10
-20.99515120516324
 20
11.37178496232219
 30
0.0
 11
-20.89515120516323
 21
11.37188981972669
 31
0.0
  0
LINE
  5
F1033B
330
261
100
AcDbEntity
  8
Geo
100
AcDbLine
 10
-20.89515120516323
 20
11.37188981972669
 30
0.0
 11
-20.79515120516324
 21
11.37198160101969
 31
0.0
  0
LINE
  5
F1033D
330
261
100
AcDbEntity
  8
Geo
100
AcDbLine
 10
-20.79515120516324
 20
11.37198160101969
 30
0.0
 11
-20.69515120516324
 21
11.37206041809178
 31
0.0
  0
LINE
  5
F1033F
330
261
100
AcDbEntity
  8
Geo
100
AcDbLine
 10
-20.69515120516324
 20
11.37206041809178
 30
0.0
 11
-20.59515120516323
 21
11.37212636729569
 31
0.0
  0
LINE
  5
F10341
330
261
100
AcDbEntity
  8
Geo
100
AcDbLine
 10
-20.59515120516323
 20
11.37212636729569
 30
0.0
 11
-20.49515120516324
 21
11.37217952944459
 31
0.0
  0
LINE
  5
F10343
330
261
100
AcDbEntity
  8
Geo
100
AcDbLine
 10
-20.49515120516324
 20
11.37217952944459
 30
0.0
 11
-20.39515120516323
 21
11.37221996980969
 31
0.0
  0
LINE
  5
F10345
330
261
100
AcDbEntity
  8
Geo
100
AcDbLine
 10
-20.39515120516323
 20
11.37221996980969
 30
0.0
 11
-20.29515120516323
 21
11.37224773811959
 31
0.0
  0
LINE
  5
F10347
330
261
100
AcDbEntity
  8
Geo
100
AcDbLine
 10
-20.29515120516323
 20
11.37224773811959
 30
0.0
 11
-20.19515120516324
 21
11.37226286855869
 31
0.0
  0
LINE
  5
F10349
330
261
100
AcDbEntity
  8
Geo
100
AcDbLine
 10
-20.19515120516324
 20
11.37226286855869
 30
0.0
 11
-20.09515120516323
 21
11.37226537976659
 31
0.0
  0
LINE
  5
F1034B
330
261
100
AcDbEntity
  8
Geo
100
AcDbLine
 10
-20.09515120516323
 20
11.37226537976659
 30
0.0
 11
-19.99515120516324
 21
11.37225527483789
 31
0.0
  0
LINE
  5
F1034D
330
261
100
AcDbEntity
  8
Geo
100
AcDbLine
 10
-19.99515120516324
 20
11.37225527483789
 30
0.0
 11
-19.89515120516323
 21
11.37223254132199
 31
0.0
  0
LINE
  5
F1034F
330
261
100
AcDbEntity
  8
Geo
100
AcDbLine
 10
-37.89515120516325
 20
9.646996040723287
 30
0.0
 11
-37.79515120516325
 21
9.629070389696188
 31
0.0
  0
LINE
  5
F10351
330
261
100
AcDbEntity
  8
Geo
100
AcDbLine
 10
-37.79515120516325
 20
9.629070389696188
 30
0.0
 11
-37.69515120516324
 21
9.586256352109785
 31
0.0
  0
LINE
  5
F10353
330
261
100
AcDbEntity
  8
Geo
100
AcDbLine
 10
-37.69515120516324
 20
9.586256352109785
 30
0.0
 11
-37.59515120516325
 21
9.521747137645789
 31
0.0
  0
LINE
  5
F10355
330
261
100
AcDbEntity
  8
Geo
100
AcDbLine
 10
-37.59515120516325
 20
9.521747137645789
 30
0.0
 11
-37.49515120516325
 21
9.456620094126883
 31
0.0
  0
LINE
  5
F10357
330
261
100
AcDbEntity
  8
Geo
100
AcDbLine
 10
-37.49515120516325
 20
9.456620094126883
 30
0.0
 11
-37.39515120516325
 21
9.390910699027891
 31
0.0
  0
LINE
  5
F10359
330
261
100
AcDbEntity
  8
Geo
100
AcDbLine
 10
-37.39515120516325
 20
9.390910699027891
 30
0.0
 11
-37.29515120516325
 21
9.324654747055589
 31
0.0
  0
LINE
  5
F1035B
330
261
100
AcDbEntity
  8
Geo
100
AcDbLine
 10
-37.29515120516325
 20
9.324654747055589
 30
0.0
 11
-37.19515120516324
 21
9.257888330649386
 31
0.0
  0
LINE
  5
F1035D
330
261
100
AcDbEntity
  8
Geo
100
AcDbLine
 10
-37.19515120516324
 20
9.257888330649386
 30
0.0
 11
-37.09515120516325
 21
9.190647820320492
 31
0.0
  0
LINE
  5
F1035F
330
261
100
AcDbEntity
  8
Geo
100
AcDbLine
 10
-37.09515120516325
 20
9.190647820320492
 30
0.0
 11
-36.99515120516326
 21
9.12296984483919
 31
0.0
  0
LINE
  5
F10361
330
261
100
AcDbEntity
  8
Geo
100
AcDbLine
 10
-36.99515120516326
 20
9.12296984483919
 30
0.0
 11
-36.89515120516325
 21
9.054891271281888
 31
0.0
  0
LINE
  5
F10363
330
261
100
AcDbEntity
  8
Geo
100
AcDbLine
 10
-36.89515120516325
 20
9.054891271281888
 30
0.0
 11
-36.79515120516325
 21
8.986449184947694
 31
0.0
  0
LINE
  5
F10365
330
261
100
AcDbEntity
  8
Geo
100
AcDbLine
 10
-36.79515120516325
 20
8.986449184947694
 30
0.0
 11
-36.69515120516325
 21
8.917680869156384
 31
0.0
  0
LINE
  5
F10367
330
261
100
AcDbEntity
  8
Geo
100
AcDbLine
 10
-36.69515120516325
 20
8.917680869156384
 30
0.0
 11
-36.59515120516325
 21
8.848623784939192
 31
0.0
  0
LINE
  5
F10369
330
261
100
AcDbEntity
  8
Geo
100
AcDbLine
 10
-36.59515120516325
 20
8.848623784939192
 30
0.0
 11
-36.49515120516325
 21
8.779315550631693
 31
0.0
  0
LINE
  5
F1036B
330
261
100
AcDbEntity
  8
Geo
100
AcDbLine
 10
-36.49515120516325
 20
8.779315550631693
 30
0.0
 11
-36.39515120516325
 21
8.709793921381489
 31
0.0
  0
LINE
  5
F1036D
330
261
100
AcDbEntity
  8
Geo
100
AcDbLine
 10
-36.39515120516325
 20
8.709793921381489
 30
0.0
 11
-36.29515120516325
 21
8.640096768581585
 31
0.0
  0
LINE
  5
F1036F
330
261
100
AcDbEntity
  8
Geo
100
AcDbLine
 10
-36.29515120516325
 20
8.640096768581585
 30
0.0
 11
-36.19515120516324
 21
8.570262059240192
 31
0.0
  0
LINE
  5
F10371
330
261
100
AcDbEntity
  8
Geo
100
AcDbLine
 10
-36.19515120516324
 20
8.570262059240192
 30
0.0
 11
-36.09515120516325
 21
8.500327835298286
 31
0.0
  0
LINE
  5
F10373
330
261
100
AcDbEntity
  8
Geo
100
AcDbLine
 10
-36.09515120516325
 20
8.500327835298286
 30
0.0
 11
-35.99515120516326
 21
8.430332192906888
 31
0.0
  0
LINE
  5
F10375
330
261
100
AcDbEntity
  8
Geo
100
AcDbLine
 10
-35.99515120516326
 20
8.430332192906888
 30
0.0
 11
-35.89515120516324
 21
8.360313261674093
 31
0.0
  0
LINE
  5
F10377
330
261
100
AcDbEntity
  8
Geo
100
AcDbLine
 10
-35.89515120516324
 20
8.360313261674093
 30
0.0
 11
-35.79515120516325
 21
8.290309183894493
 31
0.0
  0
LINE
  5
F10379
330
261
100
AcDbEntity
  8
Geo
100
AcDbLine
 10
-35.79515120516325
 20
8.290309183894493
 30
0.0
 11
-35.69515120516324
 21
8.220358093771388
 31
0.0
  0
LINE
  5
F1037B
330
261
100
AcDbEntity
  8
Geo
100
AcDbLine
 10
-35.69515120516324
 20
8.220358093771388
 30
0.0
 11
-35.59515120516325
 21
8.150498096643389
 31
0.0
  0
LINE
  5
F1037D
330
261
100
AcDbEntity
  8
Geo
100
AcDbLine
 10
-35.59515120516325
 20
8.150498096643389
 30
0.0
 11
-35.49515120516325
 21
8.080767248226784
 31
0.0
  0
LINE
  5
F1037F
330
261
100
AcDbEntity
  8
Geo
100
AcDbLine
 10
-35.49515120516325
 20
8.080767248226784
 30
0.0
 11
-35.39515120516325
 21
8.011203533885385
 31
0.0
  0
LINE
  5
F10381
330
261
100
AcDbEntity
  8
Geo
100
AcDbLine
 10
-35.39515120516325
 20
8.011203533885385
 30
0.0
 11
-35.29515120516325
 21
7.941844847937694
 31
0.0
  0
LINE
  5
F10383
330
261
100
AcDbEntity
  8
Geo
100
AcDbLine
 10
-35.29515120516325
 20
7.941844847937694
 30
0.0
 11
-35.19515120516324
 21
7.872728973014389
 31
0.0
  0
LINE
  5
F10385
330
261
100
AcDbEntity
  8
Geo
100
AcDbLine
 10
-35.19515120516324
 20
7.872728973014389
 30
0.0
 11
-35.09515120516325
 21
7.803893559476989
 31
0.0
  0
LINE
  5
F10387
330
261
100
AcDbEntity
  8
Geo
100
AcDbLine
 10
-35.09515120516325
 20
7.803893559476989
 30
0.0
 11
-34.99515120516325
 21
7.735376104907487
 31
0.0
  0
LINE
  5
F10389
330
261
100
AcDbEntity
  8
Geo
100
AcDbLine
 10
-34.99515120516325
 20
7.735376104907487
 30
0.0
 11
-34.89515120516325
 21
7.667213933682191
 31
0.0
  0
LINE
  5
F1038B
330
261
100
AcDbEntity
  8
Geo
100
AcDbLine
 10
-34.89515120516325
 20
7.667213933682191
 30
0.0
 11
-34.79515120516325
 21
7.599444176639387
 31
0.0
  0
LINE
  5
F1038D
330
261
100
AcDbEntity
  8
Geo
100
AcDbLine
 10
-34.79515120516325
 20
7.599444176639387
 30
0.0
 11
-34.69515120516324
 21
7.532103750852691
 31
0.0
  0
LINE
  5
F1038F
330
261
100
AcDbEntity
  8
Geo
100
AcDbLine
 10
-34.69515120516324
 20
7.532103750852691
 30
0.0
 11
-34.59515120516325
 21
7.46522933952059
 31
0.0
  0
LINE
  5
F10391
330
261
100
AcDbEntity
  8
Geo
100
AcDbLine
 10
-34.59515120516325
 20
7.46522933952059
 30
0.0
 11
-34.49515120516326
 21
7.398857371983787
 31
0.0
  0
LINE
  5
F10393
330
261
100
AcDbEntity
  8
Geo
100
AcDbLine
 10
-34.49515120516326
 20
7.398857371983787
 30
0.0
 11
-34.39515120516325
 21
7.333024003880389
 31
0.0
  0
LINE
  5
F10395
330
261
100
AcDbEntity
  8
Geo
100
AcDbLine
 10
-34.39515120516325
 20
7.333024003880389
 30
0.0
 11
-34.29515120516325
 21
7.267765097450386
 31
0.0
  0
LINE
  5
F10397
330
261
100
AcDbEntity
  8
Geo
100
AcDbLine
 10
-34.29515120516325
 20
7.267765097450386
 30
0.0
 11
-34.19515120516325
 21
7.203116202000188
 31
0.0
  0
LINE
  5
F10399
330
261
100
AcDbEntity
  8
Geo
100
AcDbLine
 10
-34.19515120516325
 20
7.203116202000188
 30
0.0
 11
-34.09515120516325
 21
7.139112534536991
 31
0.0
  0
LINE
  5
F1039B
330
261
100
AcDbEntity
  8
Geo
100
AcDbLine
 10
-34.09515120516325
 20
7.139112534536991
 30
0.0
 11
-33.99515120516325
 21
7.075788960584986
 31
0.0
  0
LINE
  5
F1039D
330
261
100
AcDbEntity
  8
Geo
100
AcDbLine
 10
-33.99515120516325
 20
7.075788960584986
 30
0.0
 11
-33.89515120516325
 21
7.013179975192485
 31
0.0
  0
LINE
  5
F1039F
330
261
100
AcDbEntity
  8
Geo
100
AcDbLine
 10
-33.89515120516325
 20
7.013179975192485
 30
0.0
 11
-33.79515120516325
 21
6.951319684140791
 31
0.0
  0
LINE
  5
F103A1
330
261
100
AcDbEntity
  8
Geo
100
AcDbLine
 10
-33.79515120516325
 20
6.951319684140791
 30
0.0
 11
-33.69515120516324
 21
6.890241785365788
 31
0.0
  0
LINE
  5
F103A3
330
261
100
AcDbEntity
  8
Geo
100
AcDbLine
 10
-33.69515120516324
 20
6.890241785365788
 30
0.0
 11
-33.59515120516324
 21
6.82997955060069
 31
0.0
  0
LINE
  5
F103A5
330
261
100
AcDbEntity
  8
Geo
100
AcDbLine
 10
-33.59515120516324
 20
6.82997955060069
 30
0.0
 11
-33.49515120516324
 21
6.77056580725199
 31
0.0
  0
LINE
  5
F103A7
330
261
100
AcDbEntity
  8
Geo
100
AcDbLine
 10
-33.49515120516324
 20
6.77056580725199
 30
0.0
 11
-33.39515120516323
 21
6.712032920516492
 31
0.0
  0
LINE
  5
F103A9
330
261
100
AcDbEntity
  8
Geo
100
AcDbLine
 10
-33.39515120516323
 20
6.712032920516492
 30
0.0
 11
-33.29515120516324
 21
6.65441277575119
 31
0.0
  0
LINE
  5
F103AB
330
261
100
AcDbEntity
  8
Geo
100
AcDbLine
 10
-33.29515120516324
 20
6.65441277575119
 30
0.0
 11
-33.19515120516324
 21
6.597736761103384
 31
0.0
  0
LINE
  5
F103AD
330
261
100
AcDbEntity
  8
Geo
100
AcDbLine
 10
-33.19515120516324
 20
6.597736761103384
 30
0.0
 11
-33.09515120516323
 21
6.542035750412686
 31
0.0
  0
LINE
  5
F103AF
330
261
100
AcDbEntity
  8
Geo
100
AcDbLine
 10
-33.09515120516323
 20
6.542035750412686
 30
0.0
 11
-32.99515120516324
 21
6.487340086392485
 31
0.0
  0
LINE
  5
F103B1
330
261
100
AcDbEntity
  8
Geo
100
AcDbLine
 10
-32.99515120516324
 20
6.487340086392485
 30
0.0
 11
-32.89515120516323
 21
6.433679564100785
 31
0.0
  0
LINE
  5
F103B3
330
261
100
AcDbEntity
  8
Geo
100
AcDbLine
 10
-32.89515120516323
 20
6.433679564100785
 30
0.0
 11
-32.79515120516324
 21
6.381083414709991
 31
0.0
  0
LINE
  5
F103B5
330
261
100
AcDbEntity
  8
Geo
100
AcDbLine
 10
-32.79515120516324
 20
6.381083414709991
 30
0.0
 11
-32.69515120516324
 21
6.329580289583383
 31
0.0
  0
LINE
  5
F103B7
330
261
100
AcDbEntity
  8
Geo
100
AcDbLine
 10
-32.69515120516324
 20
6.329580289583383
 30
0.0
 11
-32.59515120516323
 21
6.279198244666986
 31
0.0
  0
LINE
  5
F103B9
330
261
100
AcDbEntity
  8
Geo
100
AcDbLine
 10
-32.59515120516323
 20
6.279198244666986
 30
0.0
 11
-32.49515120516324
 21
6.229964725207089
 31
0.0
  0
LINE
  5
F103BB
330
261
100
AcDbEntity
  8
Geo
100
AcDbLine
 10
-32.49515120516324
 20
6.229964725207089
 30
0.0
 11
-32.39515120516323
 21
6.181906550798885
 31
0.0
  0
LINE
  5
F103BD
330
261
100
AcDbEntity
  8
Geo
100
AcDbLine
 10
-32.39515120516323
 20
6.181906550798885
 30
0.0
 11
-32.29515120516324
 21
6.135049900777289
 31
0.0
  0
LINE
  5
F103BF
330
261
100
AcDbEntity
  8
Geo
100
AcDbLine
 10
-32.29515120516324
 20
6.135049900777289
 30
0.0
 11
-32.19515120516324
 21
6.089420299955492
 31
0.0
  0
LINE
  5
F103C1
330
261
100
AcDbEntity
  8
Geo
100
AcDbLine
 10
-32.19515120516324
 20
6.089420299955492
 30
0.0
 11
-32.09515120516324
 21
6.045042604721089
 31
0.0
  0
LINE
  5
F103C3
330
261
100
AcDbEntity
  8
Geo
100
AcDbLine
 10
-32.09515120516324
 20
6.045042604721089
 30
0.0
 11
-31.99515120516324
 21
6.00194098949489
 31
0.0
  0
LINE
  5
F103C5
330
261
100
AcDbEntity
  8
Geo
100
AcDbLine
 10
-31.99515120516324
 20
6.00194098949489
 30
0.0
 11
-31.89515120516323
 21
5.960138933562888
 31
0.0
  0
LINE
  5
F103C7
330
261
100
AcDbEntity
  8
Geo
100
AcDbLine
 10
-31.89515120516323
 20
5.960138933562888
 30
0.0
 11
-31.79515120516324
 21
5.919659208285686
 31
0.0
  0
LINE
  5
F103C9
330
261
100
AcDbEntity
  8
Geo
100
AcDbLine
 10
-31.79515120516324
 20
5.919659208285686
 30
0.0
 11
-31.69515120516325
 21
5.880523864693991
 31
0.0
  0
LINE
  5
F103CB
330
261
100
AcDbEntity
  8
Geo
100
AcDbLine
 10
-31.69515120516325
 20
5.880523864693991
 30
0.0
 11
-31.59515120516323
 21
5.842754221476589
 31
0.0
  0
LINE
  5
F103CD
330
261
100
AcDbEntity
  8
Geo
100
AcDbLine
 10
-31.59515120516323
 20
5.842754221476589
 30
0.0
 11
-31.49515120516324
 21
5.806370853367191
 31
0.0
  0
LINE
  5
F103CF
330
261
100
AcDbEntity
  8
Geo
100
AcDbLine
 10
-31.49515120516324
 20
5.806370853367191
 30
0.0
 11
-31.39515120516323
 21
5.771393579936095
 31
0.0
  0
LINE
  5
F103D1
330
261
100
AcDbEntity
  8
Geo
100
AcDbLine
 10
-31.39515120516323
 20
5.771393579936095
 30
0.0
 11
-31.29515120516324
 21
5.737841454794384
 31
0.0
  0
LINE
  5
F103D3
330
261
100
AcDbEntity
  8
Geo
100
AcDbLine
 10
-31.29515120516324
 20
5.737841454794384
 30
0.0
 11
-31.19515120516324
 21
5.705732755213688
 31
0.0
  0
LINE
  5
F103D5
330
261
100
AcDbEntity
  8
Geo
100
AcDbLine
 10
-31.19515120516324
 20
5.705732755213688
 30
0.0
 11
-31.09515120516324
 21
5.675084972170587
 31
0.0
  0
LINE
  5
F103D7
330
261
100
AcDbEntity
  8
Geo
100
AcDbLine
 10
-31.09515120516324
 20
5.675084972170587
 30
0.0
 11
-30.99515120516324
 21
5.64591480081809
 31
0.0
  0
LINE
  5
F103D9
330
261
100
AcDbEntity
  8
Geo
100
AcDbLine
 10
-30.99515120516324
 20
5.64591480081809
 30
0.0
 11
-30.89515120516323
 21
5.618238131391088
 31
0.0
  0
LINE
  5
F103DB
330
261
100
AcDbEntity
  8
Geo
100
AcDbLine
 10
-30.89515120516323
 20
5.618238131391088
 30
0.0
 11
-30.79515120516324
 21
5.592070040550488
 31
0.0
  0
LINE
  5
F103DD
330
261
100
AcDbEntity
  8
Geo
100
AcDbLine
 10
-30.79515120516324
 20
5.592070040550488
 30
0.0
 11
-30.69515120516324
 21
5.56742478316999
 31
0.0
  0
LINE
  5
F103DF
330
261
100
AcDbEntity
  8
Geo
100
AcDbLine
 10
-30.69515120516324
 20
5.56742478316999
 30
0.0
 11
-30.59515120516323
 21
5.544315784571288
 31
0.0
  0
LINE
  5
F103E1
330
261
100
AcDbEntity
  8
Geo
100
AcDbLine
 10
-30.59515120516323
 20
5.544315784571288
 30
0.0
 11
-30.49515120516324
 21
5.522755633210287
 31
0.0
  0
LINE
  5
F103E3
330
261
100
AcDbEntity
  8
Geo
100
AcDbLine
 10
-30.49515120516324
 20
5.522755633210287
 30
0.0
 11
-30.39515120516323
 21
5.502756073819789
 31
0.0
  0
LINE
  5
F103E5
330
261
100
AcDbEntity
  8
Geo
100
AcDbLine
 10
-30.39515120516323
 20
5.502756073819789
 30
0.0
 11
-30.29515120516324
 21
5.484328001011789
 31
0.0
  0
LINE
  5
F103E7
330
261
100
AcDbEntity
  8
Geo
100
AcDbLine
 10
-30.29515120516324
 20
5.484328001011789
 30
0.0
 11
-30.19515120516324
 21
5.467481453342692
 31
0.0
  0
LINE
  5
F103E9
330
261
100
AcDbEntity
  8
Geo
100
AcDbLine
 10
-30.19515120516324
 20
5.467481453342692
 30
0.0
 11
-30.09515120516323
 21
5.452225607844589
 31
0.0
  0
LINE
  5
F103EB
330
261
100
AcDbEntity
  8
Geo
100
AcDbLine
 10
-30.09515120516323
 20
5.452225607844589
 30
0.0
 11
-29.99515120516324
 21
5.43856877502629
 31
0.0
  0
LINE
  5
F103ED
330
261
100
AcDbEntity
  8
Geo
100
AcDbLine
 10
-29.99515120516324
 20
5.43856877502629
 30
0.0
 11
-29.89515120516323
 21
5.426518394346587
 31
0.0
  0
LINE
  5
F103EF
330
261
100
AcDbEntity
  8
Geo
100
AcDbLine
 10
-29.89515120516323
 20
5.426518394346587
 30
0.0
 11
-29.79515120516324
 21
5.416081030160988
 31
0.0
  0
LINE
  5
F103F1
330
261
100
AcDbEntity
  8
Geo
100
AcDbLine
 10
-29.79515120516324
 20
5.416081030160988
 30
0.0
 11
-29.69515120516324
 21
5.407262368146589
 31
0.0
  0
LINE
  5
F103F3
330
261
100
AcDbEntity
  8
Geo
100
AcDbLine
 10
-29.69515120516324
 20
5.407262368146589
 30
0.0
 11
-29.59515120516324
 21
5.400067212204092
 31
0.0
  0
LINE
  5
F103F5
330
261
100
AcDbEntity
  8
Geo
100
AcDbLine
 10
-29.59515120516324
 20
5.400067212204092
 30
0.0
 11
-29.49515120516324
 21
5.394499481841386
 31
0.0
  0
LINE
  5
F103F7
330
261
100
AcDbEntity
  8
Geo
100
AcDbLine
 10
-29.49515120516324
 20
5.394499481841386
 30
0.0
 11
-29.39515120516323
 21
5.390562210038687
 31
0.0
  0
LINE
  5
F103F9
330
261
100
AcDbEntity
  8
Geo
100
AcDbLine
 10
-29.39515120516323
 20
5.390562210038687
 30
0.0
 11
-29.29515120516324
 21
5.388257541595287
 31
0.0
  0
LINE
  5
F103FB
330
261
100
AcDbEntity
  8
Geo
100
AcDbLine
 10
-37.89515120516325
 20
6.345258722918089
 30
0.0
 11
-37.79515120516325
 21
6.226154345442992
 31
0.0
  0
LINE
  5
F103FD
330
261
100
AcDbEntity
  8
Geo
100
AcDbLine
 10
-37.79515120516325
 20
6.226154345442992
 30
0.0
 11
-37.69515120516324
 21
6.142469275668489
 31
0.0
  0
LINE
  5
F103FF
330
261
100
AcDbEntity
  8
Geo
100
AcDbLine
 10
-37.69515120516324
 20
6.142469275668489
 30
0.0
 11
-37.59515120516325
 21
6.096641549661789
 31
0.0
  0
LINE
  5
F10401
330
261
100
AcDbEntity
  8
Geo
100
AcDbLine
 10
-37.59515120516325
 20
6.096641549661789
 30
0.0
 11
-37.49515120516325
 21
6.052061795520089
 31
0.0
  0
LINE
  5
F10403
330
261
100
AcDbEntity
  8
Geo
100
AcDbLine
 10
-37.49515120516325
 20
6.052061795520089
 30
0.0
 11
-37.39515120516325
 21
6.008754297734284
 31
0.0
  0
LINE
  5
F10405
330
261
100
AcDbEntity
  8
Geo
100
AcDbLine
 10
-37.39515120516325
 20
6.008754297734284
 30
0.0
 11
-37.29515120516325
 21
5.966742647743593
 31
0.0
  0
LINE
  5
F10407
330
261
100
AcDbEntity
  8
Geo
100
AcDbLine
 10
-37.29515120516325
 20
5.966742647743593
 30
0.0
 11
-37.19515120516324
 21
5.926049731083189
 31
0.0
  0
LINE
  5
F10409
330
261
100
AcDbEntity
  8
Geo
100
AcDbLine
 10
-37.19515120516324
 20
5.926049731083189
 30
0.0
 11
-37.09515120516325
 21
5.886697714918284
 31
0.0
  0
LINE
  5
F1040B
330
261
100
AcDbEntity
  8
Geo
100
AcDbLine
 10
-37.09515120516325
 20
5.886697714918284
 30
0.0
 11
-36.99515120516326
 21
5.848708035968485
 31
0.0
  0
LINE
  5
F1040D
330
261
100
AcDbEntity
  8
Geo
100
AcDbLine
 10
-36.99515120516326
 20
5.848708035968485
 30
0.0
 11
-36.89515120516325
 21
5.812101388830186
 31
0.0
  0
LINE
  5
F1040F
330
261
100
AcDbEntity
  8
Geo
100
AcDbLine
 10
-36.89515120516325
 20
5.812101388830186
 30
0.0
 11
-36.79515120516325
 21
5.776897714703594
 31
0.0
  0
LINE
  5
F10411
330
261
100
AcDbEntity
  8
Geo
100
AcDbLine
 10
-36.79515120516325
 20
5.776897714703594
 30
0.0
 11
-36.69515120516325
 21
5.74311619052959
 31
0.0
  0
LINE
  5
F10413
330
261
100
AcDbEntity
  8
Geo
100
AcDbLine
 10
-36.69515120516325
 20
5.74311619052959
 30
0.0
 11
-36.59515120516325
 21
5.710775218543489
 31
0.0
  0
LINE
  5
F10415
330
261
100
AcDbEntity
  8
Geo
100
AcDbLine
 10
-36.59515120516325
 20
5.710775218543489
 30
0.0
 11
-36.49515120516325
 21
5.679892416250289
 31
0.0
  0
LINE
  5
F10417
330
261
100
AcDbEntity
  8
Geo
100
AcDbLine
 10
-36.49515120516325
 20
5.679892416250289
 30
0.0
 11
-36.39515120516325
 21
5.650484606828094
 31
0.0
  0
LINE
  5
F10419
330
261
100
AcDbEntity
  8
Geo
100
AcDbLine
 10
-36.39515120516325
 20
5.650484606828094
 30
0.0
 11
-36.29515120516325
 21
5.622567809963484
 31
0.0
  0
LINE
  5
F1041B
330
261
100
AcDbEntity
  8
Geo
100
AcDbLine
 10
-36.29515120516325
 20
5.622567809963484
 30
0.0
 11
-36.19515120516324
 21
5.596157233124792
 31
0.0
  0
LINE
  5
F1041D
330
261
100
AcDbEntity
  8
Geo
100
AcDbLine
 10
-36.19515120516324
 20
5.596157233124792
 30
0.0
 11
-36.09515120516325
 21
5.571267263278386
 31
0.0
  0
LINE
  5
F1041F
330
261
100
AcDbEntity
  8
Geo
100
AcDbLine
 10
-36.09515120516325
 20
5.571267263278386
 30
0.0
 11
-35.99515120516326
 21
5.547911459051093
 31
0.0
  0
LINE
  5
F10421
330
261
100
AcDbEntity
  8
Geo
100
AcDbLine
 10
-35.99515120516326
 20
5.547911459051093
 30
0.0
 11
-35.89515120516324
 21
5.526102543344492
 31
0.0
  0
LINE
  5
F10423
330
261
100
AcDbEntity
  8
Geo
100
AcDbLine
 10
-35.89515120516324
 20
5.526102543344492
 30
0.0
 11
-35.79515120516325
 21
5.505852396403888
 31
0.0
  0
LINE
  5
F10425
330
261
100
AcDbEntity
  8
Geo
100
AcDbLine
 10
-35.79515120516325
 20
5.505852396403888
 30
0.0
 11
-35.69515120516324
 21
5.487172049346987
 31
0.0
  0
LINE
  5
F10427
330
261
100
AcDbEntity
  8
Geo
100
AcDbLine
 10
-35.69515120516324
 20
5.487172049346987
 30
0.0
 11
-35.59515120516325
 21
5.470071678154688
 31
0.0
  0
LINE
  5
F10429
330
261
100
AcDbEntity
  8
Geo
100
AcDbLine
 10
-35.59515120516325
 20
5.470071678154688
 30
0.0
 11
-35.49515120516325
 21
5.454560598127486
 31
0.0
  0
LINE
  5
F1042B
330
261
100
AcDbEntity
  8
Geo
100
AcDbLine
 10
-35.49515120516325
 20
5.454560598127486
 30
0.0
 11
-35.39515120516325
 21
5.440647258811594
 31
0.0
  0
LINE
  5
F1042D
330
261
100
AcDbEntity
  8
Geo
100
AcDbLine
 10
-35.39515120516325
 20
5.440647258811594
 30
0.0
 11
-35.29515120516325
 21
5.428339239395491
 31
0.0
  0
LINE
  5
F1042F
330
261
100
AcDbEntity
  8
Geo
100
AcDbLine
 10
-35.29515120516325
 20
5.428339239395491
 30
0.0
 11
-35.19515120516324
 21
5.417643244581689
 31
0.0
  0
LINE
  5
F10431
330
261
100
AcDbEntity
  8
Geo
100
AcDbLine
 10
-35.19515120516324
 20
5.417643244581689
 30
0.0
 11
-35.09515120516325
 21
5.408565100934289
 31
0.0
  0
LINE
  5
F10433
330
261
100
AcDbEntity
  8
Geo
100
AcDbLine
 10
-35.09515120516325
 20
5.408565100934289
 30
0.0
 11
-34.99515120516325
 21
5.401109753704787
 31
0.0
  0
LINE
  5
F10435
330
261
100
AcDbEntity
  8
Geo
100
AcDbLine
 10
-34.99515120516325
 20
5.401109753704787
 30
0.0
 11
-34.89515120516325
 21
5.39528126413839
 31
0.0
  0
LINE
  5
F10437
330
261
100
AcDbEntity
  8
Geo
100
AcDbLine
 10
-34.89515120516325
 20
5.39528126413839
 30
0.0
 11
-34.79515120516325
 21
5.391082807261788
 31
0.0
  0
LINE
  5
F10439
330
261
100
AcDbEntity
  8
Geo
100
AcDbLine
 10
-34.79515120516325
 20
5.391082807261788
 30
0.0
 11
-34.69515120516324
 21
5.388516670153094
 31
0.0
  0
LINE
  5
F1043B
330
261
100
AcDbEntity
  8
Geo
100
AcDbLine
 10
-34.69515120516324
 20
5.388516670153094
 30
0.0
 11
-34.59515120516325
 21
5.38758425069659
 31
0.0
  0
LINE
  5
F1043D
330
261
100
AcDbEntity
  8
Geo
100
AcDbLine
 10
-29.29515120516324
 20
11.38690282295959
 30
0.0
 11
-29.19515120516324
 21
11.38757363259238
 31
0.0
  0
LINE
  5
F1043F
330
261
100
AcDbEntity
  8
Geo
100
AcDbLine
 10
-29.19515120516324
 20
11.38757363259238
 30
0.0
 11
-29.09515120516323
 21
11.38661021799598
 31
0.0
  0
LINE
  5
F10441
330
261
100
AcDbEntity
  8
Geo
100
AcDbLine
 10
-29.09515120516323
 20
11.38661021799598
 30
0.0
 11
-28.99515120516324
 21
11.38401310398338
 31
0.0
  0
LINE
  5
F10443
330
261
100
AcDbEntity
  8
Geo
100
AcDbLine
 10
-28.99515120516324
 20
11.38401310398338
 30
0.0
 11
-28.89515120516323
 21
11.37978370531328
 31
0.0
  0
LINE
  5
F10445
330
261
100
AcDbEntity
  8
Geo
100
AcDbLine
 10
-28.89515120516323
 20
11.37978370531328
 30
0.0
 11
-28.79515120516323
 21
11.37392432591929
 31
0.0
  0
LINE
  5
F10447
330
261
100
AcDbEntity
  8
Geo
100
AcDbLine
 10
-28.79515120516323
 20
11.37392432591929
 30
0.0
 11
-28.69515120516324
 21
11.36643815765489
 31
0.0
  0
LINE
  5
F10449
330
261
100
AcDbEntity
  8
Geo
100
AcDbLine
 10
-28.69515120516324
 20
11.36643815765489
 30
0.0
 11
-28.59515120516324
 21
11.35732927855488
 31
0.0
  0
LINE
  5
F1044B
330
261
100
AcDbEntity
  8
Geo
100
AcDbLine
 10
-28.59515120516324
 20
11.35732927855488
 30
0.0
 11
-28.49515120516324
 21
11.34660265061379
 31
0.0
  0
LINE
  5
F1044D
330
261
100
AcDbEntity
  8
Geo
100
AcDbLine
 10
-28.49515120516324
 20
11.34660265061379
 30
0.0
 11
-28.39515120516323
 21
11.33426411708278
 31
0.0
  0
LINE
  5
F1044F
330
261
100
AcDbEntity
  8
Geo
100
AcDbLine
 10
-28.39515120516323
 20
11.33426411708278
 30
0.0
 11
-28.29515120516324
 21
11.32032039928659
 31
0.0
  0
LINE
  5
F10451
330
261
100
AcDbEntity
  8
Geo
100
AcDbLine
 10
-28.29515120516324
 20
11.32032039928659
 30
0.0
 11
-28.19515120516324
 21
11.30477909296238
 31
0.0
  0
LINE
  5
F10453
330
261
100
AcDbEntity
  8
Geo
100
AcDbLine
 10
-28.19515120516324
 20
11.30477909296238
 30
0.0
 11
-28.09515120516323
 21
11.28764866412169
 31
0.0
  0
LINE
  5
F10455
330
261
100
AcDbEntity
  8
Geo
100
AcDbLine
 10
-28.09515120516323
 20
11.28764866412169
 30
0.0
 11
-27.99515120516324
 21
11.26893844443898
 31
0.0
  0
LINE
  5
F10457
330
261
100
AcDbEntity
  8
Geo
100
AcDbLine
 10
-27.99515120516324
 20
11.26893844443898
 30
0.0
 11
-27.89515120516323
 21
11.24865862616779
 31
0.0
  0
LINE
  5
F10459
330
261
100
AcDbEntity
  8
Geo
100
AcDbLine
 10
-27.89515120516323
 20
11.24865862616779
 30
0.0
 11
-27.79515120516324
 21
11.22399497260029
 31
0.0
  0
LINE
  5
F1045B
330
261
100
AcDbEntity
  8
Geo
100
AcDbLine
 10
-27.79515120516324
 20
11.22399497260029
 30
0.0
 11
-27.69515120516324
 21
11.19769992863598
 31
0.0
  0
LINE
  5
F1045D
330
261
100
AcDbEntity
  8
Geo
100
AcDbLine
 10
-27.69515120516324
 20
11.19769992863598
 30
0.0
 11
-27.59515120516323
 21
11.16985850935669
 31
0.0
  0
LINE
  5
F1045F
330
261
100
AcDbEntity
  8
Geo
100
AcDbLine
 10
-27.59515120516323
 20
11.16985850935669
 30
0.0
 11
-27.49515120516324
 21
11.14055489721178
 31
0.0
  0
LINE
  5
F10461
330
261
100
AcDbEntity
  8
Geo
100
AcDbLine
 10
-27.49515120516324
 20
11.14055489721178
 30
0.0
 11
-27.39515120516323
 21
11.10987232487999
 31
0.0
  0
LINE
  5
F10463
330
261
100
AcDbEntity
  8
Geo
100
AcDbLine
 10
-27.39515120516323
 20
11.10987232487999
 30
0.0
 11
-27.29515120516324
 21
11.07789296669059
 31
0.0
  0
LINE
  5
F10465
330
261
100
AcDbEntity
  8
Geo
100
AcDbLine
 10
-27.29515120516324
 20
11.07789296669059
 30
0.0
 11
-27.19515120516324
 21
11.04469783839999
 31
0.0
  0
LINE
  5
F10467
330
261
100
AcDbEntity
  8
Geo
100
AcDbLine
 10
-27.19515120516324
 20
11.04469783839999
 30
0.0
 11
-27.09515120516324
 21
11.01036670510819
 31
0.0
  0
LINE
  5
F10469
330
261
100
AcDbEntity
  8
Geo
100
AcDbLine
 10
-27.09515120516324
 20
11.01036670510819
 30
0.0
 11
-26.99515120516324
 21
10.97497799708919
 31
0.0
  0
LINE
  5
F1046B
330
261
100
AcDbEntity
  8
Geo
100
AcDbLine
 10
-26.99515120516324
 20
10.97497799708919
 30
0.0
 11
-26.89515120516323
 21
10.93860873329759
 31
0.0
  0
LINE
  5
F1046D
330
261
100
AcDbEntity
  8
Geo
100
AcDbLine
 10
-26.89515120516323
 20
10.93860873329759
 30
0.0
 11
-26.79515120516324
 21
10.90133445230989
 31
0.0
  0
LINE
  5
F1046F
330
261
100
AcDbEntity
  8
Geo
100
AcDbLine
 10
-26.79515120516324
 20
10.90133445230989
 30
0.0
 11
-26.69515120516325
 21
10.86322915044809
 31
0.0
  0
LINE
  5
F10471
330
261
100
AcDbEntity
  8
Geo
100
AcDbLine
 10
-26.69515120516325
 20
10.86322915044809
 30
0.0
 11
-26.59515120516323
 21
10.82436522683088
 31
0.0
  0
LINE
  5
F10473
330
261
100
AcDbEntity
  8
Geo
100
AcDbLine
 10
-26.59515120516323
 20
10.82436522683088
 30
0.0
 11
-26.49515120516324
 21
10.78481343509309
 31
0.0
  0
LINE
  5
F10475
330
261
100
AcDbEntity
  8
Geo
100
AcDbLine
 10
-26.49515120516324
 20
10.78481343509309
 30
0.0
 11
-26.39515120516323
 21
10.74464284150869
 31
0.0
  0
LINE
  5
F10477
330
261
100
AcDbEntity
  8
Geo
100
AcDbLine
 10
-26.39515120516323
 20
10.74464284150869
 30
0.0
 11
-26.29515120516324
 21
10.70392078925449
 31
0.0
  0
LINE
  5
F10479
330
261
100
AcDbEntity
  8
Geo
100
AcDbLine
 10
-26.29515120516324
 20
10.70392078925449
 30
0.0
 11
-26.19515120516324
 21
10.66271286854739
 31
0.0
  0
LINE
  5
F1047B
330
261
100
AcDbEntity
  8
Geo
100
AcDbLine
 10
-26.19515120516324
 20
10.66271286854739
 30
0.0
 11
-26.09515120516324
 21
10.62108289238959
 31
0.0
  0
LINE
  5
F1047D
330
261
100
AcDbEntity
  8
Geo
100
AcDbLine
 10
-26.09515120516324
 20
10.62108289238959
 30
0.0
 11
-25.99515120516324
 21
10.57909287765638
 31
0.0
  0
LINE
  5
F1047F
330
261
100
AcDbEntity
  8
Geo
100
AcDbLine
 10
-25.99515120516324
 20
10.57909287765638
 30
0.0
 11
-25.89515120516323
 21
10.53680303126288
 31
0.0
  0
LINE
  5
F10481
330
261
100
AcDbEntity
  8
Geo
100
AcDbLine
 10
-25.89515120516323
 20
10.53680303126288
 30
0.0
 11
-25.79515120516324
 21
10.49427174114869
 31
0.0
  0
LINE
  5
F10483
330
261
100
AcDbEntity
  8
Geo
100
AcDbLine
 10
-25.79515120516324
 20
10.49427174114869
 30
0.0
 11
-25.69515120516324
 21
10.45155557182038
 31
0.0
  0
LINE
  5
F10485
330
261
100
AcDbEntity
  8
Geo
100
AcDbLine
 10
-25.69515120516324
 20
10.45155557182038
 30
0.0
 11
-25.59515120516323
 21
10.40870926419828
 31
0.0
  0
LINE
  5
F10487
330
261
100
AcDbEntity
  8
Geo
100
AcDbLine
 10
-25.59515120516323
 20
10.40870926419828
 30
0.0
 11
-25.49515120516324
 21
10.36578573951599
 31
0.0
  0
LINE
  5
F10489
330
261
100
AcDbEntity
  8
Geo
100
AcDbLine
 10
-25.49515120516324
 20
10.36578573951599
 30
0.0
 11
-25.39515120516323
 21
10.32283610702549
 31
0.0
  0
LINE
  5
F1048B
330
261
100
AcDbEntity
  8
Geo
100
AcDbLine
 10
-25.39515120516323
 20
10.32283610702549
 30
0.0
 11
-25.29515120516324
 21
10.27990967526699
 31
0.0
  0
LINE
  5
F1048D
330
261
100
AcDbEntity
  8
Geo
100
AcDbLine
 10
-25.29515120516324
 20
10.27990967526699
 30
0.0
 11
-25.19515120516324
 21
10.23705396666648
 31
0.0
  0
LINE
  5
F1048F
330
261
100
AcDbEntity
  8
Geo
100
AcDbLine
 10
-25.19515120516324
 20
10.23705396666648
 30
0.0
 11
-25.09515120516323
 21
10.19431473523148
 31
0.0
  0
LINE
  5
F10491
330
261
100
AcDbEntity
  8
Geo
100
AcDbLine
 10
-25.09515120516323
 20
10.19431473523148
 30
0.0
 11
-24.99515120516324
 21
10.15173598711929
 31
0.0
  0
LINE
  5
F10493
330
261
100
AcDbEntity
  8
Geo
100
AcDbLine
 10
-24.99515120516324
 20
10.15173598711929
 30
0.0
 11
-24.89515120516323
 21
10.10936000385978
 31
0.0
  0
LINE
  5
F10495
330
261
100
AcDbEntity
  8
Geo
100
AcDbLine
 10
-24.89515120516323
 20
10.10936000385978
 30
0.0
 11
-24.79515120516324
 21
10.06722736802189
 31
0.0
  0
LINE
  5
F10497
330
261
100
AcDbEntity
  8
Geo
100
AcDbLine
 10
-24.79515120516324
 20
10.06722736802189
 30
0.0
 11
-24.69515120516324
 21
10.02537699111578
 31
0.0
  0
LINE
  5
F10499
330
261
100
AcDbEntity
  8
Geo
100
AcDbLine
 10
-24.69515120516324
 20
10.02537699111578
 30
0.0
 11
-24.59515120516324
 21
9.983846143536197
 31
0.0
  0
LINE
  5
F1049B
330
261
100
AcDbEntity
  8
Geo
100
AcDbLine
 10
-24.59515120516324
 20
9.983846143536197
 30
0.0
 11
-24.49515120516324
 21
9.942670486350991
 31
0.0
  0
LINE
  5
F1049D
330
261
100
AcDbEntity
  8
Geo
100
AcDbLine
 10
-24.49515120516324
 20
9.942670486350991
 30
0.0
 11
-24.39515120516323
 21
9.901884104753783
 31
0.0
  0
LINE
  5
F1049F
330
261
100
AcDbEntity
  8
Geo
100
AcDbLine
 10
-24.39515120516323
 20
9.901884104753783
 30
0.0
 11
-24.29515120516324
 21
9.861519543000689
 31
0.0
  0
LINE
  5
F104A1
330
261
100
AcDbEntity
  8
Geo
100
AcDbLine
 10
-24.29515120516324
 20
9.861519543000689
 30
0.0
 11
-24.19515120516325
 21
9.821607840661592
 31
0.0
  0
LINE
  5
F104A3
330
261
100
AcDbEntity
  8
Geo
100
AcDbLine
 10
-24.19515120516325
 20
9.821607840661592
 30
0.0
 11
-24.09515120516323
 21
9.782178570021784
 31
0.0
  0
LINE
  5
F104A5
330
261
100
AcDbEntity
  8
Geo
100
AcDbLine
 10
-24.09515120516323
 20
9.782178570021784
 30
0.0
 11
-23.99515120516324
 21
9.743259874477388
 31
0.0
  0
LINE
  5
F104A7
330
261
100
AcDbEntity
  8
Geo
100
AcDbLine
 10
-23.99515120516324
 20
9.743259874477388
 30
0.0
 11
-23.89515120516323
 21
9.704878507774587
 31
0.0
  0
LINE
  5
F104A9
330
261
100
AcDbEntity
  8
Geo
100
AcDbLine
 10
-23.89515120516323
 20
9.704878507774587
 30
0.0
 11
-23.79515120516324
 21
9.66705987394949
 31
0.0
  0
LINE
  5
F104AB
330
261
100
AcDbEntity
  8
Geo
100
AcDbLine
 10
-23.79515120516324
 20
9.66705987394949
 30
0.0
 11
-23.69515120516324
 21
9.629828067833194
 31
0.0
  0
LINE
  5
F104AD
330
261
100
AcDbEntity
  8
Geo
100
AcDbLine
 10
-23.69515120516324
 20
9.629828067833194
 30
0.0
 11
-23.59515120516324
 21
9.593205915990886
 31
0.0
  0
LINE
  5
F104AF
330
261
100
AcDbEntity
  8
Geo
100
AcDbLine
 10
-23.59515120516324
 20
9.593205915990886
 30
0.0
 11
-23.49515120516324
 21
9.557215017974087
 31
0.0
  0
LINE
  5
F104B1
330
261
100
AcDbEntity
  8
Geo
100
AcDbLine
 10
-23.49515120516324
 20
9.557215017974087
 30
0.0
 11
-23.39515120516323
 21
9.521875787766092
 31
0.0
  0
LINE
  5
F104B3
330
261
100
AcDbEntity
  8
Geo
100
AcDbLine
 10
-23.39515120516323
 20
9.521875787766092
 30
0.0
 11
-23.29515120516324
 21
9.487207495313988
 31
0.0
  0
LINE
  5
F104B5
330
261
100
AcDbEntity
  8
Geo
100
AcDbLine
 10
-23.29515120516324
 20
9.487207495313988
 30
0.0
 11
-23.19515120516324
 21
9.453228308039093
 31
0.0
  0
LINE
  5
F104B7
330
261
100
AcDbEntity
  8
Geo
100
AcDbLine
 10
-23.19515120516324
 20
9.453228308039093
 30
0.0
 11
-23.09515120516323
 21
9.41995533222969
 31
0.0
  0
LINE
  5
F104B9
330
261
100
AcDbEntity
  8
Geo
100
AcDbLine
 10
-23.09515120516323
 20
9.41995533222969
 30
0.0
 11
-22.99515120516324
 21
9.387404654222592
 31
0.0
  0
LINE
  5
F104BB
330
261
100
AcDbEntity
  8
Geo
100
AcDbLine
 10
-22.99515120516324
 20
9.387404654222592
 30
0.0
 11
-22.89515120516323
 21
9.355591381285492
 31
0.0
  0
LINE
  5
F104BD
330
261
100
AcDbEntity
  8
Geo
100
AcDbLine
 10
-22.89515120516323
 20
9.355591381285492
 30
0.0
 11
-22.79515120516323
 21
9.324529682119191
 31
0.0
  0
LINE
  5
F104BF
330
261
100
AcDbEntity
  8
Geo
100
AcDbLine
 10
-22.79515120516323
 20
9.324529682119191
 30
0.0
 11
-22.69515120516324
 21
9.294232826902288
 31
0.0
  0
LINE
  5
F104C1
330
261
100
AcDbEntity
  8
Geo
100
AcDbLine
 10
-22.69515120516324
 20
9.294232826902288
 30
0.0
 11
-22.59515120516323
 21
9.264713226806989
 31
0.0
  0
LINE
  5
F104C3
330
261
100
AcDbEntity
  8
Geo
100
AcDbLine
 10
-22.59515120516323
 20
9.264713226806989
 30
0.0
 11
-22.49515120516324
 21
9.235982472918486
 31
0.0
  0
LINE
  5
F104C5
330
261
100
AcDbEntity
  8
Geo
100
AcDbLine
 10
-22.49515120516324
 20
9.235982472918486
 30
0.0
 11
-22.39515120516323
 21
9.208051374495887
 31
0.0
  0
LINE
  5
F104C7
330
261
100
AcDbEntity
  8
Geo
100
AcDbLine
 10
-22.39515120516323
 20
9.208051374495887
 30
0.0
 11
-22.29515120516324
 21
9.180929996516589
 31
0.0
  0
LINE
  5
F104C9
330
261
100
AcDbEntity
  8
Geo
100
AcDbLine
 10
-22.29515120516324
 20
9.180929996516589
 30
0.0
 11
-22.19515120516324
 21
9.154627696449885
 31
0.0
  0
LINE
  5
F104CB
330
261
100
AcDbEntity
  8
Geo
100
AcDbLine
 10
-22.19515120516324
 20
9.154627696449885
 30
0.0
 11
-22.09515120516323
 21
9.129153160210385
 31
0.0
  0
LINE
  5
F104CD
330
261
100
AcDbEntity
  8
Geo
100
AcDbLine
 10
-22.09515120516323
 20
9.129153160210385
 30
0.0
 11
-21.99515120516324
 21
9.104514437244382
 31
0.0
  0
LINE
  5
F104CF
330
261
100
AcDbEntity
  8
Geo
100
AcDbLine
 10
-21.99515120516324
 20
9.104514437244382
 30
0.0
 11
-21.89515120516323
 21
9.080718974707785
 31
0.0
  0
LINE
  5
F104D1
330
261
100
AcDbEntity
  8
Geo
100
AcDbLine
 10
-21.89515120516323
 20
9.080718974707785
 30
0.0
 11
-21.79515120516324
 21
9.05777365069489
 31
0.0
  0
LINE
  5
F104D3
330
261
100
AcDbEntity
  8
Geo
100
AcDbLine
 10
-21.79515120516324
 20
9.05777365069489
 30
0.0
 11
-21.69515120516324
 21
9.035684806484191
 31
0.0
  0
LINE
  5
F104D5
330
261
100
AcDbEntity
  8
Geo
100
AcDbLine
 10
-21.69515120516324
 20
9.035684806484191
 30
0.0
 11
-21.59515120516323
 21
9.014458277765591
 31
0.0
  0
LINE
  5
F104D7
330
261
100
AcDbEntity
  8
Geo
100
AcDbLine
 10
-21.59515120516323
 20
9.014458277765591
 30
0.0
 11
-21.49515120516324
 21
8.994099424821882
 31
0.0
  0
LINE
  5
F104D9
330
261
100
AcDbEntity
  8
Geo
100
AcDbLine
 10
-21.49515120516324
 20
8.994099424821882
 30
0.0
 11
-21.39515120516323
 21
8.974613161634884
 31
0.0
  0
LINE
  5
F104DB
330
261
100
AcDbEntity
  8
Geo
100
AcDbLine
 10
-21.39515120516323
 20
8.974613161634884
 30
0.0
 11
-21.29515120516324
 21
8.956003983891889
 31
0.0
  0
LINE
  5
F104DD
330
261
100
AcDbEntity
  8
Geo
100
AcDbLine
 10
-21.29515120516324
 20
8.956003983891889
 30
0.0
 11
-21.19515120516324
 21
8.938275995871194
 31
0.0
  0
LINE
  5
F104DF
330
261
100
AcDbEntity
  8
Geo
100
AcDbLine
 10
-21.19515120516324
 20
8.938275995871194
 30
0.0
 11
-21.09515120516324
 21
8.921432936184189
 31
0.0
  0
LINE
  5
F104E1
330
261
100
AcDbEntity
  8
Geo
100
AcDbLine
 10
-21.09515120516324
 20
8.921432936184189
 30
0.0
 11
-20.99515120516324
 21
8.905478202356881
 31
0.0
  0
LINE
  5
F104E3
330
261
100
AcDbEntity
  8
Geo
100
AcDbLine
 10
-20.99515120516324
 20
8.905478202356881
 30
0.0
 11
-20.89515120516323
 21
8.890414874234785
 31
0.0
  0
LINE
  5
F104E5
330
261
100
AcDbEntity
  8
Geo
100
AcDbLine
 10
-20.89515120516323
 20
8.890414874234785
 30
0.0
 11
-20.79515120516324
 21
8.876245736194782
 31
0.0
  0
LINE
  5
F104E7
330
261
100
AcDbEntity
  8
Geo
100
AcDbLine
 10
-20.79515120516324
 20
8.876245736194782
 30
0.0
 11
-20.69515120516324
 21
8.862973298152489
 31
0.0
  0
LINE
  5
F104E9
330
261
100
AcDbEntity
  8
Geo
100
AcDbLine
 10
-20.69515120516324
 20
8.862973298152489
 30
0.0
 11
-20.59515120516323
 21
8.850599815351991
 31
0.0
  0
LINE
  5
F104EB
330
261
100
AcDbEntity
  8
Geo
100
AcDbLine
 10
-20.59515120516323
 20
8.850599815351991
 30
0.0
 11
-20.49515120516324
 21
8.839127306928588
 31
0.0
  0
LINE
  5
F104ED
330
261
100
AcDbEntity
  8
Geo
100
AcDbLine
 10
-20.49515120516324
 20
8.839127306928588
 30
0.0
 11
-20.39515120516323
 21
8.828557573234888
 31
0.0
  0
LINE
  5
F104EF
330
261
100
AcDbEntity
  8
Geo
100
AcDbLine
 10
-20.39515120516323
 20
8.828557573234888
 30
0.0
 11
-20.29515120516323
 21
8.818892211921692
 31
0.0
  0
LINE
  5
F104F1
330
261
100
AcDbEntity
  8
Geo
100
AcDbLine
 10
-20.29515120516323
 20
8.818892211921692
 30
0.0
 11
-20.19515120516324
 21
8.810132632767988
 31
0.0
  0
LINE
  5
F104F3
330
261
100
AcDbEntity
  8
Geo
100
AcDbLine
 10
-20.19515120516324
 20
8.810132632767988
 30
0.0
 11
-20.09515120516323
 21
8.802280071252191
 31
0.0
  0
LINE
  5
F104F5
330
261
100
AcDbEntity
  8
Geo
100
AcDbLine
 10
-20.09515120516323
 20
8.802280071252191
 30
0.0
 11
-19.99515120516324
 21
8.795335600860695
 31
0.0
  0
LINE
  5
F104F7
330
261
100
AcDbEntity
  8
Geo
100
AcDbLine
 10
-19.99515120516324
 20
8.795335600860695
 30
0.0
 11
-19.89515120516323
 21
8.789300144128489
 31
0.0
  0
LINE
  5
F104F9
330
261
100
AcDbEntity
  8
Geo
100
AcDbLine
 10
-34.59515120516325
 20
11.38757611385838
 30
0.0
 11
-34.49515120516326
 21
11.38687430773409
 31
0.0
  0
LINE
  5
F104FB
330
261
100
AcDbEntity
  8
Geo
100
AcDbLine
 10
-34.49515120516326
 20
11.38687430773409
 30
0.0
 11
-34.39515120516325
 21
11.38453865833259
 31
0.0
  0
LINE
  5
F104FD
330
261
100
AcDbEntity
  8
Geo
100
AcDbLine
 10
-34.39515120516325
 20
11.38453865833259
 30
0.0
 11
-34.29515120516325
 21
11.38057043798179
 31
0.0
  0
LINE
  5
F104FF
330
261
100
AcDbEntity
  8
Geo
100
AcDbLine
 10
-34.29515120516325
 20
11.38057043798179
 30
0.0
 11
-34.19515120516325
 21
11.37497180834028
 31
0.0
  0
LINE
  5
F10501
330
261
100
AcDbEntity
  8
Geo
100
AcDbLine
 10
-34.19515120516325
 20
11.37497180834028
 30
0.0
 11
-34.09515120516325
 21
11.36774581922019
 31
0.0
  0
LINE
  5
F10503
330
261
100
AcDbEntity
  8
Geo
100
AcDbLine
 10
-34.09515120516325
 20
11.36774581922019
 30
0.0
 11
-33.99515120516325
 21
11.35889640692539
 31
0.0
  0
LINE
  5
F10505
330
261
100
AcDbEntity
  8
Geo
100
AcDbLine
 10
-33.99515120516325
 20
11.35889640692539
 30
0.0
 11
-33.89515120516325
 21
11.34842839210799
 31
0.0
  0
LINE
  5
F10507
330
261
100
AcDbEntity
  8
Geo
100
AcDbLine
 10
-33.89515120516325
 20
11.34842839210799
 30
0.0
 11
-33.79515120516325
 21
11.33634747714149
 31
0.0
  0
LINE
  5
F10509
330
261
100
AcDbEntity
  8
Geo
100
AcDbLine
 10
-33.79515120516325
 20
11.33634747714149
 30
0.0
 11
-33.69515120516324
 21
11.32266024301479
 31
0.0
  0
LINE
  5
F1050B
330
261
100
AcDbEntity
  8
Geo
100
AcDbLine
 10
-33.69515120516324
 20
11.32266024301479
 30
0.0
 11
-33.59515120516324
 21
11.30737414574759
 31
0.0
  0
LINE
  5
F1050D
330
261
100
AcDbEntity
  8
Geo
100
AcDbLine
 10
-33.59515120516324
 20
11.30737414574759
 30
0.0
 11
-33.49515120516324
 21
11.29049751232819
 31
0.0
  0
LINE
  5
F1050F
330
261
100
AcDbEntity
  8
Geo
100
AcDbLine
 10
-33.49515120516324
 20
11.29049751232819
 30
0.0
 11
-33.39515120516323
 21
11.27203953617759
 31
0.0
  0
LINE
  5
F10511
330
261
100
AcDbEntity
  8
Geo
100
AcDbLine
 10
-33.39515120516323
 20
11.27203953617759
 30
0.0
 11
-33.29515120516324
 21
11.25201027214178
 31
0.0
  0
LINE
  5
F10513
330
261
100
AcDbEntity
  8
Geo
100
AcDbLine
 10
-33.29515120516324
 20
11.25201027214178
 30
0.0
 11
-33.19515120516324
 21
11.23042063101428
 31
0.0
  0
LINE
  5
F10515
330
261
100
AcDbEntity
  8
Geo
100
AcDbLine
 10
-33.19515120516324
 20
11.23042063101428
 30
0.0
 11
-33.09515120516323
 21
11.20728237359208
 31
0.0
  0
LINE
  5
F10517
330
261
100
AcDbEntity
  8
Geo
100
AcDbLine
 10
-33.09515120516323
 20
11.20728237359208
 30
0.0
 11
-32.99515120516324
 21
11.1826081042697
 31
0.0
  0
LINE
  5
F10519
330
261
100
AcDbEntity
  8
Geo
100
AcDbLine
 10
-32.99515120516324
 20
11.1826081042697
 30
0.0
 11
-32.89515120516323
 21
11.15641126417279
 31
0.0
  0
LINE
  5
F1051B
330
261
100
AcDbEntity
  8
Geo
100
AcDbLine
 10
-32.89515120516323
 20
11.15641126417279
 30
0.0
 11
-32.79515120516324
 21
11.12870612383609
 31
0.0
  0
LINE
  5
F1051D
330
261
100
AcDbEntity
  8
Geo
100
AcDbLine
 10
-32.79515120516324
 20
11.12870612383609
 30
0.0
 11
-32.69515120516324
 21
11.09950777542978
 31
0.0
  0
LINE
  5
F1051F
330
261
100
AcDbEntity
  8
Geo
100
AcDbLine
 10
-32.69515120516324
 20
11.09950777542978
 30
0.0
 11
-32.59515120516323
 21
11.06883212453809
 31
0.0
  0
LINE
  5
F10521
330
261
100
AcDbEntity
  8
Geo
100
AcDbLine
 10
-32.59515120516323
 20
11.06883212453809
 30
0.0
 11
-32.49515120516324
 21
11.03669588149469
 31
0.0
  0
LINE
  5
F10523
330
261
100
AcDbEntity
  8
Geo
100
AcDbLine
 10
-32.49515120516324
 20
11.03669588149469
 30
0.0
 11
-32.39515120516323
 21
11.00311655228029
 31
0.0
  0
LINE
  5
F10525
330
261
100
AcDbEntity
  8
Geo
100
AcDbLine
 10
-32.39515120516323
 20
11.00311655228029
 30
0.0
 11
-32.29515120516324
 21
10.96811242898589
 31
0.0
  0
LINE
  5
F10527
330
261
100
AcDbEntity
  8
Geo
100
AcDbLine
 10
-32.29515120516324
 20
10.96811242898589
 30
0.0
 11
-32.19515120516324
 21
10.93170257984849
 31
0.0
  0
LINE
  5
F10529
330
261
100
AcDbEntity
  8
Geo
100
AcDbLine
 10
-32.19515120516324
 20
10.93170257984849
 30
0.0
 11
-32.09515120516324
 21
10.89390683886409
 31
0.0
  0
LINE
  5
F1052B
330
261
100
AcDbEntity
  8
Geo
100
AcDbLine
 10
-32.09515120516324
 20
10.89390683886409
 30
0.0
 11
-31.99515120516324
 21
10.85474579498278
 31
0.0
  0
LINE
  5
F1052D
330
261
100
AcDbEntity
  8
Geo
100
AcDbLine
 10
-31.99515120516324
 20
10.85474579498278
 30
0.0
 11
-31.89515120516323
 21
10.81424078089338
 31
0.0
  0
LINE
  5
F1052F
330
261
100
AcDbEntity
  8
Geo
100
AcDbLine
 10
-31.89515120516323
 20
10.81424078089338
 30
0.0
 11
-31.79515120516324
 21
10.77241386140269
 31
0.0
  0
LINE
  5
F10531
330
261
100
AcDbEntity
  8
Geo
100
AcDbLine
 10
-31.79515120516324
 20
10.77241386140269
 30
0.0
 11
-31.69515120516325
 21
10.72928782141528
 31
0.0
  0
LINE
  5
F10533
330
261
100
AcDbEntity
  8
Geo
100
AcDbLine
 10
-31.69515120516325
 20
10.72928782141528
 30
0.0
 11
-31.59515120516323
 21
10.68488615352249
 31
0.0
  0
LINE
  5
F10535
330
261
100
AcDbEntity
  8
Geo
100
AcDbLine
 10
-31.59515120516323
 20
10.68488615352249
 30
0.0
 11
-31.49515120516324
 21
10.63923304520408
 31
0.0
  0
LINE
  5
F10537
330
261
100
AcDbEntity
  8
Geo
100
AcDbLine
 10
-31.49515120516324
 20
10.63923304520408
 30
0.0
 11
-31.39515120516323
 21
10.59235336565319
 31
0.0
  0
LINE
  5
F10539
330
261
100
AcDbEntity
  8
Geo
100
AcDbLine
 10
-31.39515120516323
 20
10.59235336565319
 30
0.0
 11
-31.29515120516324
 21
10.54427265222809
 31
0.0
  0
LINE
  5
F1053B
330
261
100
AcDbEntity
  8
Geo
100
AcDbLine
 10
-31.29515120516324
 20
10.54427265222809
 30
0.0
 11
-31.19515120516324
 21
10.49501709654159
 31
0.0
  0
LINE
  5
F1053D
330
261
100
AcDbEntity
  8
Geo
100
AcDbLine
 10
-31.19515120516324
 20
10.49501709654159
 30
0.0
 11
-31.09515120516324
 21
10.44461353019328
 31
0.0
  0
LINE
  5
F1053F
330
261
100
AcDbEntity
  8
Geo
100
AcDbLine
 10
-31.09515120516324
 20
10.44461353019328
 30
0.0
 11
-30.99515120516324
 21
10.39308941015269
 31
0.0
  0
LINE
  5
F10541
330
261
100
AcDbEntity
  8
Geo
100
AcDbLine
 10
-30.99515120516324
 20
10.39308941015269
 30
0.0
 11
-30.89515120516323
 21
10.34047280380289
 31
0.0
  0
LINE
  5
F10543
330
261
100
AcDbEntity
  8
Geo
100
AcDbLine
 10
-30.89515120516323
 20
10.34047280380289
 30
0.0
 11
-30.79515120516324
 21
10.28679237365099
 31
0.0
  0
LINE
  5
F10545
330
261
100
AcDbEntity
  8
Geo
100
AcDbLine
 10
-30.79515120516324
 20
10.28679237365099
 30
0.0
 11
-30.69515120516324
 21
10.23207736171378
 31
0.0
  0
LINE
  5
F10547
330
261
100
AcDbEntity
  8
Geo
100
AcDbLine
 10
-30.69515120516324
 20
10.23207736171378
 30
0.0
 11
-30.59515120516323
 21
10.17635757358919
 31
0.0
  0
LINE
  5
F10549
330
261
100
AcDbEntity
  8
Geo
100
AcDbLine
 10
-30.59515120516323
 20
10.17635757358919
 30
0.0
 11
-30.49515120516324
 21
10.11966336221949
 31
0.0
  0
LINE
  5
F1054B
330
261
100
AcDbEntity
  8
Geo
100
AcDbLine
 10
-30.49515120516324
 20
10.11966336221949
 30
0.0
 11
-30.39515120516323
 21
10.06202561135659
 31
0.0
  0
LINE
  5
F1054D
330
261
100
AcDbEntity
  8
Geo
100
AcDbLine
 10
-30.39515120516323
 20
10.06202561135659
 30
0.0
 11
-30.29515120516324
 21
10.00347571873869
 31
0.0
  0
LINE
  5
F1054F
330
261
100
AcDbEntity
  8
Geo
100
AcDbLine
 10
-30.29515120516324
 20
10.00347571873869
 30
0.0
 11
-30.19515120516324
 21
9.944045578986589
 31
0.0
  0
LINE
  5
F10551
330
261
100
AcDbEntity
  8
Geo
100
AcDbLine
 10
-30.19515120516324
 20
9.944045578986589
 30
0.0
 11
-30.09515120516323
 21
9.883767566228989
 31
0.0
  0
LINE
  5
F10553
330
261
100
AcDbEntity
  8
Geo
100
AcDbLine
 10
-30.09515120516323
 20
9.883767566228989
 30
0.0
 11
-29.99515120516324
 21
9.822674516467195
 31
0.0
  0
LINE
  5
F10555
330
261
100
AcDbEntity
  8
Geo
100
AcDbLine
 10
-29.99515120516324
 20
9.822674516467195
 30
0.0
 11
-29.89515120516323
 21
9.760799709687987
 31
0.0
  0
LINE
  5
F10557
330
261
100
AcDbEntity
  8
Geo
100
AcDbLine
 10
-29.89515120516323
 20
9.760799709687987
 30
0.0
 11
-29.79515120516324
 21
9.698176851734487
 31
0.0
  0
LINE
  5
F10559
330
261
100
AcDbEntity
  8
Geo
100
AcDbLine
 10
-29.79515120516324
 20
9.698176851734487
 30
0.0
 11
-29.69515120516324
 21
9.634840055944991
 31
0.0
  0
LINE
  5
F1055B
330
261
100
AcDbEntity
  8
Geo
100
AcDbLine
 10
-29.69515120516324
 20
9.634840055944991
 30
0.0
 11
-29.59515120516324
 21
9.57082382457019
 31
0.0
  0
LINE
  5
F1055D
330
261
100
AcDbEntity
  8
Geo
100
AcDbLine
 10
-29.59515120516324
 20
9.57082382457019
 30
0.0
 11
-29.49515120516324
 21
9.506163029978488
 31
0.0
  0
LINE
  5
F1055F
330
261
100
AcDbEntity
  8
Geo
100
AcDbLine
 10
-29.49515120516324
 20
9.506163029978488
 30
0.0
 11
-29.39515120516323
 21
9.440892895659089
 31
0.0
  0
LINE
  5
F10561
330
261
100
AcDbEntity
  8
Geo
100
AcDbLine
 10
-29.39515120516323
 20
9.440892895659089
 30
0.0
 11
-29.29515120516324
 21
9.375048977034587
 31
0.0
  0
LINE
  5
F10563
330
261
100
AcDbEntity
  8
Geo
100
AcDbLine
 10
-29.29515120516324
 20
9.375048977034587
 30
0.0
 11
-29.19515120516324
 21
9.308667142092488
 31
0.0
  0
LINE
  5
F10565
330
261
100
AcDbEntity
  8
Geo
100
AcDbLine
 10
-29.19515120516324
 20
9.308667142092488
 30
0.0
 11
-29.09515120516323
 21
9.241783551845884
 31
0.0
  0
LINE
  5
F10567
330
261
100
AcDbEntity
  8
Geo
100
AcDbLine
 10
-29.09515120516323
 20
9.241783551845884
 30
0.0
 11
-28.99515120516324
 21
9.174434640635695
 31
0.0
  0
LINE
  5
F10569
330
261
100
AcDbEntity
  8
Geo
100
AcDbLine
 10
-28.99515120516324
 20
9.174434640635695
 30
0.0
 11
-28.89515120516323
 21
9.106657096282788
 31
0.0
  0
LINE
  5
F1056B
330
261
100
AcDbEntity
  8
Geo
100
AcDbLine
 10
-28.89515120516323
 20
9.106657096282788
 30
0.0
 11
-28.79515120516323
 21
9.038487840102888
 31
0.0
  0
LINE
  5
F1056D
330
261
100
AcDbEntity
  8
Geo
100
AcDbLine
 10
-28.79515120516323
 20
9.038487840102888
 30
0.0
 11
-28.69515120516324
 21
8.96996400679378
 31
0.0
  0
LINE
  5
F1056F
330
261
100
AcDbEntity
  8
Geo
100
AcDbLine
 10
-28.69515120516324
 20
8.96996400679378
 30
0.0
 11
-28.59515120516324
 21
8.90112292420639
 31
0.0
  0
LINE
  5
F10571
330
261
100
AcDbEntity
  8
Geo
100
AcDbLine
 10
-28.59515120516324
 20
8.90112292420639
 30
0.0
 11
-28.49515120516324
 21
8.83200209301119
 31
0.0
  0
LINE
  5
F10573
330
261
100
AcDbEntity
  8
Geo
100
AcDbLine
 10
-28.49515120516324
 20
8.83200209301119
 30
0.0
 11
-28.39515120516323
 21
8.762639166269188
 31
0.0
  0
LINE
  5
F10575
330
261
100
AcDbEntity
  8
Geo
100
AcDbLine
 10
-28.39515120516323
 20
8.762639166269188
 30
0.0
 11
-28.29515120516324
 21
8.69307192892149
 31
0.0
  0
LINE
  5
F10577
330
261
100
AcDbEntity
  8
Geo
100
AcDbLine
 10
-28.29515120516324
 20
8.69307192892149
 30
0.0
 11
-28.19515120516324
 21
8.623338277205689
 31
0.0
  0
LINE
  5
F10579
330
261
100
AcDbEntity
  8
Geo
100
AcDbLine
 10
-28.19515120516324
 20
8.623338277205689
 30
0.0
 11
-28.09515120516323
 21
8.553476198012589
 31
0.0
  0
LINE
  5
F1057B
330
261
100
AcDbEntity
  8
Geo
100
AcDbLine
 10
-28.09515120516323
 20
8.553476198012589
 30
0.0
 11
-27.99515120516324
 21
8.483523748192688
 31
0.0
  0
LINE
  5
F1057D
330
261
100
AcDbEntity
  8
Geo
100
AcDbLine
 10
-27.99515120516324
 20
8.483523748192688
 30
0.0
 11
-27.89515120516323
 21
8.413519033825288
 31
0.0
  0
LINE
  5
F1057F
330
261
100
AcDbEntity
  8
Geo
100
AcDbLine
 10
-27.89515120516323
 20
8.413519033825288
 30
0.0
 11
-27.79515120516324
 21
8.422266568102592
 31
0.0
  0
LINE
  5
F10581
330
261
100
AcDbEntity
  8
Geo
100
AcDbLine
 10
-27.79515120516324
 20
8.422266568102592
 30
0.0
 11
-27.69515120516324
 21
8.430911651162489
 31
0.0
  0
LINE
  5
F10583
330
261
100
AcDbEntity
  8
Geo
100
AcDbLine
 10
-27.69515120516324
 20
8.430911651162489
 30
0.0
 11
-27.59515120516323
 21
8.439454222673489
 31
0.0
  0
LINE
  5
F10585
330
261
100
AcDbEntity
  8
Geo
100
AcDbLine
 10
-27.59515120516323
 20
8.439454222673489
 30
0.0
 11
-27.49515120516324
 21
8.447894227187191
 31
0.0
  0
LINE
  5
F10587
330
261
100
AcDbEntity
  8
Geo
100
AcDbLine
 10
-27.49515120516324
 20
8.447894227187191
 30
0.0
 11
-27.39515120516323
 21
8.456231613989885
 31
0.0
  0
LINE
  5
F10589
330
261
100
AcDbEntity
  8
Geo
100
AcDbLine
 10
-27.39515120516323
 20
8.456231613989885
 30
0.0
 11
-27.29515120516324
 21
8.464466336956284
 31
0.0
  0
LINE
  5
F1058B
330
261
100
AcDbEntity
  8
Geo
100
AcDbLine
 10
-27.29515120516324
 20
8.464466336956284
 30
0.0
 11
-27.19515120516324
 21
8.472598354404091
 31
0.0
  0
LINE
  5
F1058D
330
261
100
AcDbEntity
  8
Geo
100
AcDbLine
 10
-27.19515120516324
 20
8.472598354404091
 30
0.0
 11
-27.09515120516324
 21
8.480627628950593
 31
0.0
  0
LINE
  5
F1058F
330
261
100
AcDbEntity
  8
Geo
100
AcDbLine
 10
-27.09515120516324
 20
8.480627628950593
 30
0.0
 11
-26.99515120516324
 21
8.488554127371592
 31
0.0
  0
LINE
  5
F10591
330
261
100
AcDbEntity
  8
Geo
100
AcDbLine
 10
-26.99515120516324
 20
8.488554127371592
 30
0.0
 11
-26.89515120516323
 21
8.496377820460885
 31
0.0
  0
LINE
  5
F10593
330
261
100
AcDbEntity
  8
Geo
100
AcDbLine
 10
-26.89515120516323
 20
8.496377820460885
 30
0.0
 11
-26.79515120516324
 21
8.504098682892887
 31
0.0
  0
LINE
  5
F10595
330
261
100
AcDbEntity
  8
Geo
100
AcDbLine
 10
-26.79515120516324
 20
8.504098682892887
 30
0.0
 11
-26.69515120516325
 21
8.511716693085695
 31
0.0
  0
LINE
  5
F10597
330
261
100
AcDbEntity
  8
Geo
100
AcDbLine
 10
-26.69515120516325
 20
8.511716693085695
 30
0.0
 11
-26.59515120516323
 21
8.519231833066591
 31
0.0
  0
LINE
  5
F10599
330
261
100
AcDbEntity
  8
Geo
100
AcDbLine
 10
-26.59515120516323
 20
8.519231833066591
 30
0.0
 11
-26.49515120516324
 21
8.526644088339196
 31
0.0
  0
LINE
  5
F1059B
330
261
100
AcDbEntity
  8
Geo
100
AcDbLine
 10
-26.49515120516324
 20
8.526644088339196
 30
0.0
 11
-26.39515120516323
 21
8.533953447752388
 31
0.0
  0
LINE
  5
F1059D
330
261
100
AcDbEntity
  8
Geo
100
AcDbLine
 10
-26.39515120516323
 20
8.533953447752388
 30
0.0
 11
-26.29515120516324
 21
8.541159903371088
 31
0.0
  0
LINE
  5
F1059F
330
261
100
AcDbEntity
  8
Geo
100
AcDbLine
 10
-26.29515120516324
 20
8.541159903371088
 30
0.0
 11
-26.19515120516324
 21
8.548263450348088
 31
0.0
  0
LINE
  5
F105A1
330
261
100
AcDbEntity
  8
Geo
100
AcDbLine
 10
-26.19515120516324
 20
8.548263450348088
 30
0.0
 11
-26.09515120516324
 21
8.555264086798786
 31
0.0
  0
LINE
  5
F105A3
330
261
100
AcDbEntity
  8
Geo
100
AcDbLine
 10
-26.09515120516324
 20
8.555264086798786
 30
0.0
 11
-25.99515120516324
 21
8.562161813676887
 31
0.0
  0
LINE
  5
F105A5
330
261
100
AcDbEntity
  8
Geo
100
AcDbLine
 10
-25.99515120516324
 20
8.562161813676887
 30
0.0
 11
-25.89515120516323
 21
8.56895663465228
 31
0.0
  0
LINE
  5
F105A7
330
261
100
AcDbEntity
  8
Geo
100
AcDbLine
 10
-25.89515120516323
 20
8.56895663465228
 30
0.0
 11
-25.79515120516324
 21
8.575648555990092
 31
0.0
  0
LINE
  5
F105A9
330
261
100
AcDbEntity
  8
Geo
100
AcDbLine
 10
-25.79515120516324
 20
8.575648555990092
 30
0.0
 11
-25.69515120516324
 21
8.582237586432491
 31
0.0
  0
LINE
  5
F105AB
330
261
100
AcDbEntity
  8
Geo
100
AcDbLine
 10
-25.69515120516324
 20
8.582237586432491
 30
0.0
 11
-25.59515120516323
 21
8.588723737081387
 31
0.0
  0
LINE
  5
F105AD
330
261
100
AcDbEntity
  8
Geo
100
AcDbLine
 10
-25.59515120516323
 20
8.588723737081387
 30
0.0
 11
-25.49515120516324
 21
8.595107021283283
 31
0.0
  0
LINE
  5
F105AF
330
261
100
AcDbEntity
  8
Geo
100
AcDbLine
 10
-25.49515120516324
 20
8.595107021283283
 30
0.0
 11
-25.39515120516323
 21
8.601387454516093
 31
0.0
  0
LINE
  5
F105B1
330
261
100
AcDbEntity
  8
Geo
100
AcDbLine
 10
-25.39515120516323
 20
8.601387454516093
 30
0.0
 11
-25.29515120516324
 21
8.607565054277387
 31
0.0
  0
LINE
  5
F105B3
330
261
100
AcDbEntity
  8
Geo
100
AcDbLine
 10
-25.29515120516324
 20
8.607565054277387
 30
0.0
 11
-25.19515120516324
 21
8.613639839974695
 31
0.0
  0
LINE
  5
F105B5
330
261
100
AcDbEntity
  8
Geo
100
AcDbLine
 10
-25.19515120516324
 20
8.613639839974695
 30
0.0
 11
-25.09515120516323
 21
8.619611832817284
 31
0.0
  0
LINE
  5
F105B7
330
261
100
AcDbEntity
  8
Geo
100
AcDbLine
 10
-25.09515120516323
 20
8.619611832817284
 30
0.0
 11
-24.99515120516324
 21
8.625481055710189
 31
0.0
  0
LINE
  5
F105B9
330
261
100
AcDbEntity
  8
Geo
100
AcDbLine
 10
-24.99515120516324
 20
8.625481055710189
 30
0.0
 11
-24.89515120516323
 21
8.631247533149782
 31
0.0
  0
LINE
  5
F105BB
330
261
100
AcDbEntity
  8
Geo
100
AcDbLine
 10
-24.89515120516323
 20
8.631247533149782
 30
0.0
 11
-24.79515120516324
 21
8.636911291120888
 31
0.0
  0
LINE
  5
F105BD
330
261
100
AcDbEntity
  8
Geo
100
AcDbLine
 10
-24.79515120516324
 20
8.636911291120888
 30
0.0
 11
-24.69515120516324
 21
8.642472356996286
 31
0.0
  0
LINE
  5
F105BF
330
261
100
AcDbEntity
  8
Geo
100
AcDbLine
 10
-24.69515120516324
 20
8.642472356996286
 30
0.0
 11
-24.59515120516324
 21
8.647930759437485
 31
0.0
  0
LINE
  5
F105C1
330
261
100
AcDbEntity
  8
Geo
100
AcDbLine
 10
-24.59515120516324
 20
8.647930759437485
 30
0.0
 11
-24.49515120516324
 21
8.653286528297492
 31
0.0
  0
LINE
  5
F105C3
330
261
100
AcDbEntity
  8
Geo
100
AcDbLine
 10
-24.49515120516324
 20
8.653286528297492
 30
0.0
 11
-24.39515120516323
 21
8.658539694525487
 31
0.0
  0
LINE
  5
F105C5
330
261
100
AcDbEntity
  8
Geo
100
AcDbLine
 10
-24.39515120516323
 20
8.658539694525487
 30
0.0
 11
-24.29515120516324
 21
8.663690290073191
 31
0.0
  0
LINE
  5
F105C7
330
261
100
AcDbEntity
  8
Geo
100
AcDbLine
 10
-24.29515120516324
 20
8.663690290073191
 30
0.0
 11
-24.19515120516325
 21
8.668738347802786
 31
0.0
  0
LINE
  5
F105C9
330
261
100
AcDbEntity
  8
Geo
100
AcDbLine
 10
-24.19515120516325
 20
8.668738347802786
 30
0.0
 11
-24.09515120516323
 21
8.673683901397282
 31
0.0
  0
LINE
  5
F105CB
330
261
100
AcDbEntity
  8
Geo
100
AcDbLine
 10
-24.09515120516323
 20
8.673683901397282
 30
0.0
 11
-23.99515120516324
 21
8.678526985271886
 31
0.0
  0
LINE
  5
F105CD
330
261
100
AcDbEntity
  8
Geo
100
AcDbLine
 10
-23.99515120516324
 20
8.678526985271886
 30
0.0
 11
-23.89515120516323
 21
8.683267634487783
 31
0.0
  0
LINE
  5
F105CF
330
261
100
AcDbEntity
  8
Geo
100
AcDbLine
 10
-23.89515120516323
 20
8.683267634487783
 30
0.0
 11
-23.79515120516324
 21
8.687905884667493
 31
0.0
  0
LINE
  5
F105D1
330
261
100
AcDbEntity
  8
Geo
100
AcDbLine
 10
-23.79515120516324
 20
8.687905884667493
 30
0.0
 11
-23.69515120516324
 21
8.692441771912093
 31
0.0
  0
LINE
  5
F105D3
330
261
100
AcDbEntity
  8
Geo
100
AcDbLine
 10
-23.69515120516324
 20
8.692441771912093
 30
0.0
 11
-23.59515120516324
 21
8.696875332719692
 31
0.0
  0
LINE
  5
F105D5
330
261
100
AcDbEntity
  8
Geo
100
AcDbLine
 10
-23.59515120516324
 20
8.696875332719692
 30
0.0
 11
-23.49515120516324
 21
8.701206603907095
 31
0.0
  0
LINE
  5
F105D7
330
261
100
AcDbEntity
  8
Geo
100
AcDbLine
 10
-23.49515120516324
 20
8.701206603907095
 30
0.0
 11
-23.39515120516323
 21
8.705435622531283
 31
0.0
  0
LINE
  5
F105D9
330
261
100
AcDbEntity
  8
Geo
100
AcDbLine
 10
-23.39515120516323
 20
8.705435622531283
 30
0.0
 11
-23.29515120516324
 21
8.709562425814787
 31
0.0
  0
LINE
  5
F105DB
330
261
100
AcDbEntity
  8
Geo
100
AcDbLine
 10
-23.29515120516324
 20
8.709562425814787
 30
0.0
 11
-23.19515120516324
 21
8.713587051070888
 31
0.0
  0
LINE
  5
F105DD
330
261
100
AcDbEntity
  8
Geo
100
AcDbLine
 10
-23.19515120516324
 20
8.713587051070888
 30
0.0
 11
-23.09515120516323
 21
8.717509535632281
 31
0.0
  0
LINE
  5
F105DF
330
261
100
AcDbEntity
  8
Geo
100
AcDbLine
 10
-23.09515120516323
 20
8.717509535632281
 30
0.0
 11
-22.99515120516324
 21
8.721329916780391
 31
0.0
  0
LINE
  5
F105E1
330
261
100
AcDbEntity
  8
Geo
100
AcDbLine
 10
-22.99515120516324
 20
8.721329916780391
 30
0.0
 11
-22.89515120516323
 21
8.725048231677092
 31
0.0
  0
LINE
  5
F105E3
330
261
100
AcDbEntity
  8
Geo
100
AcDbLine
 10
-22.89515120516323
 20
8.725048231677092
 30
0.0
 11
-22.79515120516323
 21
8.728664517297787
 31
0.0
  0
LINE
  5
F105E5
330
261
100
AcDbEntity
  8
Geo
100
AcDbLine
 10
-22.79515120516323
 20
8.728664517297787
 30
0.0
 11
-22.69515120516324
 21
8.732178810366889
 31
0.0
  0
LINE
  5
F105E7
330
261
100
AcDbEntity
  8
Geo
100
AcDbLine
 10
-22.69515120516324
 20
8.732178810366889
 30
0.0
 11
-22.59515120516323
 21
8.735591147294286
 31
0.0
  0
LINE
  5
F105E9
330
261
100
AcDbEntity
  8
Geo
100
AcDbLine
 10
-22.59515120516323
 20
8.735591147294286
 30
0.0
 11
-22.49515120516324
 21
8.738901564114286
 31
0.0
  0
LINE
  5
F105EB
330
261
100
AcDbEntity
  8
Geo
100
AcDbLine
 10
-22.49515120516324
 20
8.738901564114286
 30
0.0
 11
-22.39515120516323
 21
8.742110096426088
 31
0.0
  0
LINE
  5
F105ED
330
261
100
AcDbEntity
  8
Geo
100
AcDbLine
 10
-22.39515120516323
 20
8.742110096426088
 30
0.0
 11
-22.29515120516324
 21
8.745216779335692
 31
0.0
  0
LINE
  5
F105EF
330
261
100
AcDbEntity
  8
Geo
100
AcDbLine
 10
-22.29515120516324
 20
8.745216779335692
 30
0.0
 11
-22.19515120516324
 21
8.74822164740059
 31
0.0
  0
LINE
  5
F105F1
330
261
100
AcDbEntity
  8
Geo
100
AcDbLine
 10
-22.19515120516324
 20
8.74822164740059
 30
0.0
 11
-22.09515120516323
 21
8.751124734574887
 31
0.0
  0
LINE
  5
F105F3
330
261
100
AcDbEntity
  8
Geo
100
AcDbLine
 10
-22.09515120516323
 20
8.751124734574887
 30
0.0
 11
-21.99515120516324
 21
8.753926074157284
 31
0.0
  0
LINE
  5
F105F5
330
261
100
AcDbEntity
  8
Geo
100
AcDbLine
 10
-21.99515120516324
 20
8.753926074157284
 30
0.0
 11
-21.89515120516323
 21
8.756625698740492
 31
0.0
  0
LINE
  5
F105F7
330
261
100
AcDbEntity
  8
Geo
100
AcDbLine
 10
-21.89515120516323
 20
8.756625698740492
 30
0.0
 11
-21.79515120516324
 21
8.75922364016209
 31
0.0
  0
LINE
  5
F105F9
330
261
100
AcDbEntity
  8
Geo
100
AcDbLine
 10
-21.79515120516324
 20
8.75922364016209
 30
0.0
 11
-21.69515120516324
 21
8.761719929457889
 31
0.0
  0
LINE
  5
F105FB
330
261
100
AcDbEntity
  8
Geo
100
AcDbLine
 10
-21.69515120516324
 20
8.761719929457889
 30
0.0
 11
-21.59515120516323
 21
8.764114596816284
 31
0.0
  0
LINE
  5
F105FD
330
261
100
AcDbEntity
  8
Geo
100
AcDbLine
 10
-21.59515120516323
 20
8.764114596816284
 30
0.0
 11
-21.49515120516324
 21
8.766407671534992
 31
0.0
  0
LINE
  5
F105FF
330
261
100
AcDbEntity
  8
Geo
100
AcDbLine
 10
-21.49515120516324
 20
8.766407671534992
 30
0.0
 11
-21.39515120516323
 21
8.768599181979091
 31
0.0
  0
LINE
  5
F10601
330
261
100
AcDbEntity
  8
Geo
100
AcDbLine
 10
-21.39515120516323
 20
8.768599181979091
 30
0.0
 11
-21.29515120516324
 21
8.77068915554139
 31
0.0
  0
LINE
  5
F10603
330
261
100
AcDbEntity
  8
Geo
100
AcDbLine
 10
-21.29515120516324
 20
8.77068915554139
 30
0.0
 11
-21.19515120516324
 21
8.772677618604092
 31
0.0
  0
LINE
  5
F10605
330
261
100
AcDbEntity
  8
Geo
100
AcDbLine
 10
-21.19515120516324
 20
8.772677618604092
 30
0.0
 11
-21.09515120516324
 21
8.774564596502095
 31
0.0
  0
LINE
  5
F10607
330
261
100
AcDbEntity
  8
Geo
100
AcDbLine
 10
-21.09515120516324
 20
8.774564596502095
 30
0.0
 11
-20.99515120516324
 21
8.776350113488987
 31
0.0
  0
LINE
  5
F10609
330
261
100
AcDbEntity
  8
Geo
100
AcDbLine
 10
-20.99515120516324
 20
8.776350113488987
 30
0.0
 11
-20.89515120516323
 21
8.778034192703692
 31
0.0
  0
LINE
  5
F1060B
330
261
100
AcDbEntity
  8
Geo
100
AcDbLine
 10
-20.89515120516323
 20
8.778034192703692
 30
0.0
 11
-20.79515120516324
 21
8.779616856139483
 31
0.0
  0
LINE
  5
F1060D
330
261
100
AcDbEntity
  8
Geo
100
AcDbLine
 10
-20.79515120516324
 20
8.779616856139483
 30
0.0
 11
-20.69515120516324
 21
8.781098124614693
 31
0.0
  0
LINE
  5
F1060F
330
261
100
AcDbEntity
  8
Geo
100
AcDbLine
 10
-20.69515120516324
 20
8.781098124614693
 30
0.0
 11
-20.59515120516323
 21
8.78247801774529
 31
0.0
  0
LINE
  5
F10611
330
261
100
AcDbEntity
  8
Geo
100
AcDbLine
 10
-20.59515120516323
 20
8.78247801774529
 30
0.0
 11
-20.49515120516324
 21
8.783756553918991
 31
0.0
  0
LINE
  5
F10613
330
261
100
AcDbEntity
  8
Geo
100
AcDbLine
 10
-20.49515120516324
 20
8.783756553918991
 30
0.0
 11
-20.39515120516323
 21
8.784933750270987
 31
0.0
  0
LINE
  5
F10615
330
261
100
AcDbEntity
  8
Geo
100
AcDbLine
 10
-20.39515120516323
 20
8.784933750270987
 30
0.0
 11
-20.29515120516323
 21
8.786009622662284
 31
0.0
  0
LINE
  5
F10617
330
261
100
AcDbEntity
  8
Geo
100
AcDbLine
 10
-20.29515120516323
 20
8.786009622662284
 30
0.0
 11
-20.19515120516324
 21
8.786984185658489
 31
0.0
  0
LINE
  5
F10619
330
261
100
AcDbEntity
  8
Geo
100
AcDbLine
 10
-20.19515120516324
 20
8.786984185658489
 30
0.0
 11
-20.09515120516323
 21
8.787857452511687
 31
0.0
  0
LINE
  5
F1061B
330
261
100
AcDbEntity
  8
Geo
100
AcDbLine
 10
-20.09515120516323
 20
8.787857452511687
 30
0.0
 11
-19.99515120516324
 21
8.788629435143192
 31
0.0
  0
LINE
  5
F1061D
330
261
100
AcDbEntity
  8
Geo
100
AcDbLine
 10
-19.99515120516324
 20
8.788629435143192
 30
0.0
 11
-19.89515120516323
 21
8.789300144128489
 31
0.0
  0
LINE
  5
F1061F
330
261
100
AcDbEntity
  8
Geo
100
AcDbLine
 10
-37.89515120516325
 20
10.10822380898759
 30
0.0
 11
-37.79515120516325
 21
10.11838666879089
 31
0.0
  0
LINE
  5
F10621
330
261
100
AcDbEntity
  8
Geo
100
AcDbLine
 10
-37.89515120516325
 20
9.713178988942786
 30
0.0
 11
-37.79515120516325
 21
9.717921685395388
 31
0.0
  0
LINE
  5
F10623
330
261
100
AcDbEntity
  8
Geo
100
AcDbLine
 10
-37.89515120516325
 20
6.138422582591388
 30
0.0
 11
-37.79515120516325
 21
6.025963950900489
 31
0.0
  0
LINE
  5
F10625
330
261
100
AcDbEntity
  8
Geo
100
AcDbLine
 10
-37.89515120516325
 20
5.925600394615187
 30
0.0
 11
-37.79515120516325
 21
5.82245313612389
 31
0.0
  0
LINE
  5
F10627
330
261
100
AcDbEntity
  8
Geo
100
AcDbLine
 10
-37.79515120516325
 20
10.11838666879089
 30
0.0
 11
-37.69515120516324
 21
10.09040552177999
 31
0.0
  0
LINE
  5
F10629
330
261
100
AcDbEntity
  8
Geo
100
AcDbLine
 10
-37.79515120516325
 20
9.717921685395388
 30
0.0
 11
-37.69515120516324
 21
9.684786160332592
 31
0.0
  0
LINE
  5
F1062B
330
261
100
AcDbEntity
  8
Geo
100
AcDbLine
 10
-37.79515120516325
 20
6.025963950900489
 30
0.0
 11
-37.69515120516324
 21
5.949033679145884
 31
0.0
  0
LINE
  5
F1062D
330
261
100
AcDbEntity
  8
Geo
100
AcDbLine
 10
-37.79515120516325
 20
5.82245313612389
 30
0.0
 11
-37.69515120516324
 21
5.754945098579291
 31
0.0
  0
LINE
  5
F1062F
330
261
100
AcDbEntity
  8
Geo
100
AcDbLine
 10
-37.69515120516324
 20
10.09040552177999
 30
0.0
 11
-37.59515120516325
 21
10.02710726572279
 31
0.0
  0
LINE
  5
F10631
330
261
100
AcDbEntity
  8
Geo
100
AcDbLine
 10
-37.69515120516324
 20
9.684786160332592
 30
0.0
 11
-37.59515120516325
 21
9.61660273244059
 31
0.0
  0
LINE
  5
F10633
330
261
100
AcDbEntity
  8
Geo
100
AcDbLine
 10
-37.69515120516324
 20
5.949033679145884
 30
0.0
 11
-37.59515120516325
 21
5.910066123768793
 31
0.0
  0
LINE
  5
F10635
330
261
100
AcDbEntity
  8
Geo
100
AcDbLine
 10
-37.69515120516324
 20
5.754945098579291
 30
0.0
 11
-37.59515120516325
 21
5.725505505729891
 31
0.0
  0
LINE
  5
F10637
330
261
100
AcDbEntity
  8
Geo
100
AcDbLine
 10
-37.59515120516325
 20
10.02710726572279
 30
0.0
 11
-37.49515120516325
 21
9.962720869094091
 31
0.0
  0
LINE
  5
F10639
330
261
100
AcDbEntity
  8
Geo
100
AcDbLine
 10
-37.59515120516325
 20
9.61660273244059
 30
0.0
 11
-37.49515120516325
 21
9.547603612442287
 31
0.0
  0
LINE
  5
F1063B
330
261
100
AcDbEntity
  8
Geo
100
AcDbLine
 10
-37.59515120516325
 20
5.910066123768793
 30
0.0
 11
-37.49515120516325
 21
5.872448175838989
 31
0.0
  0
LINE
  5
F1063D
330
261
100
AcDbEntity
  8
Geo
100
AcDbLine
 10
-37.59515120516325
 20
5.725505505729891
 30
0.0
 11
-37.49515120516325
 21
5.697516058358594
 31
0.0
  0
LINE
  5
F1063F
330
261
100
AcDbEntity
  8
Geo
100
AcDbLine
 10
-37.49515120516325
 20
9.962720869094091
 30
0.0
 11
-37.39515120516325
 21
9.89728906461309
 31
0.0
  0
LINE
  5
F10641
330
261
100
AcDbEntity
  8
Geo
100
AcDbLine
 10
-37.49515120516325
 20
9.547603612442287
 30
0.0
 11
-37.39515120516325
 21
9.477834594483191
 31
0.0
  0
LINE
  5
F10643
330
261
100
AcDbEntity
  8
Geo
100
AcDbLine
 10
-37.49515120516325
 20
5.872448175838989
 30
0.0
 11
-37.39515120516325
 21
5.836200327455287
 31
0.0
  0
LINE
  5
F10645
330
261
100
AcDbEntity
  8
Geo
100
AcDbLine
 10
-37.49515120516325
 20
5.697516058358594
 30
0.0
 11
-37.39515120516325
 21
5.670992003509589
 31
0.0
  0
LINE
  5
F10647
330
261
100
AcDbEntity
  8
Geo
100
AcDbLine
 10
-37.39515120516325
 20
9.89728906461309
 30
0.0
 11
-37.29515120516325
 21
9.830855278827492
 31
0.0
  0
LINE
  5
F10649
330
261
100
AcDbEntity
  8
Geo
100
AcDbLine
 10
-37.39515120516325
 20
9.477834594483191
 30
0.0
 11
-37.29515120516325
 21
9.407341983683693
 31
0.0
  0
LINE
  5
F1064B
330
261
100
AcDbEntity
  8
Geo
100
AcDbLine
 10
-37.39515120516325
 20
5.836200327455287
 30
0.0
 11
-37.29515120516325
 21
5.801342324364789
 31
0.0
  0
LINE
  5
F1064D
330
261
100
AcDbEntity
  8
Geo
100
AcDbLine
 10
-37.39515120516325
 20
5.670992003509589
 30
0.0
 11
-37.29515120516325
 21
5.645947789965589
 31
0.0
  0
LINE
  5
F1064F
330
261
100
AcDbEntity
  8
Geo
100
AcDbLine
 10
-37.29515120516325
 20
9.830855278827492
 30
0.0
 11
-37.19515120516324
 21
9.763463603291789
 31
0.0
  0
LINE
  5
F10651
330
261
100
AcDbEntity
  8
Geo
100
AcDbLine
 10
-37.29515120516325
 20
9.407341983683693
 30
0.0
 11
-37.19515120516324
 21
9.336172565406791
 31
0.0
  0
LINE
  5
F10653
330
261
100
AcDbEntity
  8
Geo
100
AcDbLine
 10
-37.29515120516325
 20
5.801342324364789
 30
0.0
 11
-37.19515120516324
 21
5.767893155206593
 31
0.0
  0
LINE
  5
F10655
330
261
100
AcDbEntity
  8
Geo
100
AcDbLine
 10
-37.29515120516325
 20
5.645947789965589
 30
0.0
 11
-37.19515120516324
 21
5.622397060376592
 31
0.0
  0
LINE
  5
F10657
330
261
100
AcDbEntity
  8
Geo
100
AcDbLine
 10
-37.19515120516324
 20
9.763463603291789
 30
0.0
 11
-37.09515120516325
 21
9.695158765303787
 31
0.0
  0
LINE
  5
F10659
330
261
100
AcDbEntity
  8
Geo
100
AcDbLine
 10
-37.19515120516324
 20
9.336172565406791
 30
0.0
 11
-37.09515120516325
 21
9.264373574207191
 31
0.0
  0
LINE
  5
F1065B
330
261
100
AcDbEntity
  8
Geo
100
AcDbLine
 10
-37.19515120516324
 20
5.767893155206593
 30
0.0
 11
-37.09515120516325
 21
5.735871041168188
 31
0.0
  0
LINE
  5
F1065D
330
261
100
AcDbEntity
  8
Geo
100
AcDbLine
 10
-37.19515120516324
 20
5.622397060376592
 30
0.0
 11
-37.09515120516325
 21
5.600352643828088
 31
0.0
  0
LINE
  5
F1065F
330
261
100
AcDbEntity
  8
Geo
100
AcDbLine
 10
-37.09515120516325
 20
9.695158765303787
 30
0.0
 11
-36.99515120516326
 21
9.62598609821989
 31
0.0
  0
LINE
  5
F10661
330
261
100
AcDbEntity
  8
Geo
100
AcDbLine
 10
-37.09515120516325
 20
9.264373574207191
 30
0.0
 11
-36.99515120516326
 21
9.191992662481787
 31
0.0
  0
LINE
  5
F10663
330
261
100
AcDbEntity
  8
Geo
100
AcDbLine
 10
-37.09515120516325
 20
5.735871041168188
 30
0.0
 11
-36.99515120516326
 21
5.705293426059093
 31
0.0
  0
LINE
  5
F10665
330
261
100
AcDbEntity
  8
Geo
100
AcDbLine
 10
-37.09515120516325
 20
5.600352643828088
 30
0.0
 11
-36.99515120516326
 21
5.579826548852885
 31
0.0
  0
LINE
  5
F10667
330
261
100
AcDbEntity
  8
Geo
100
AcDbLine
 10
-36.99515120516326
 20
9.62598609821989
 30
0.0
 11
-36.89515120516325
 21
9.555991511367288
 31
0.0
  0
LINE
  5
F10669
330
261
100
AcDbEntity
  8
Geo
100
AcDbLine
 10
-36.99515120516326
 20
9.191992662481787
 30
0.0
 11
-36.89515120516325
 21
9.119077868843191
 31
0.0
  0
LINE
  5
F1066B
330
261
100
AcDbEntity
  8
Geo
100
AcDbLine
 10
-36.99515120516326
 20
5.705293426059093
 30
0.0
 11
-36.89515120516325
 21
5.676176966808888
 31
0.0
  0
LINE
  5
F1066D
330
261
100
AcDbEntity
  8
Geo
100
AcDbLine
 10
-36.99515120516326
 20
5.579826548852885
 30
0.0
 11
-36.89515120516325
 21
5.560829956889392
 31
0.0
  0
LINE
  5
F1066F
330
261
100
AcDbEntity
  8
Geo
100
AcDbLine
 10
-36.89515120516325
 20
9.555991511367288
 30
0.0
 11
-36.79515120516325
 21
9.485221459574781
 31
0.0
  0
LINE
  5
F10671
330
261
100
AcDbEntity
  8
Geo
100
AcDbLine
 10
-36.89515120516325
 20
9.119077868843191
 30
0.0
 11
-36.79515120516325
 21
9.045677586237289
 31
0.0
  0
LINE
  5
F10673
330
261
100
AcDbEntity
  8
Geo
100
AcDbLine
 10
-36.89515120516325
 20
5.676176966808888
 30
0.0
 11
-36.79515120516325
 21
5.64853752439329
 31
0.0
  0
LINE
  5
F10675
330
261
100
AcDbEntity
  8
Geo
100
AcDbLine
 10
-36.89515120516325
 20
5.560829956889392
 30
0.0
 11
-36.79515120516325
 21
5.543373216190389
 31
0.0
  0
LINE
  5
F10677
330
261
100
AcDbEntity
  8
Geo
100
AcDbLine
 10
-36.79515120516325
 20
9.485221459574781
 30
0.0
 11
-36.69515120516325
 21
9.413722912340588
 31
0.0
  0
LINE
  5
F10679
330
261
100
AcDbEntity
  8
Geo
100
AcDbLine
 10
-36.79515120516325
 20
9.045677586237289
 30
0.0
 11
-36.69515120516325
 21
8.971840529824696
 31
0.0
  0
LINE
  5
F1067B
330
261
100
AcDbEntity
  8
Geo
100
AcDbLine
 10
-36.79515120516325
 20
5.64853752439329
 30
0.0
 11
-36.69515120516325
 21
5.622390155193883
 31
0.0
  0
LINE
  5
F1067D
330
261
100
AcDbEntity
  8
Geo
100
AcDbLine
 10
-36.79515120516325
 20
5.543373216190389
 30
0.0
 11
-36.69515120516325
 21
5.527465836186287
 31
0.0
  0
LINE
  5
F1067F
330
261
100
AcDbEntity
  8
Geo
100
AcDbLine
 10
-36.69515120516325
 20
9.413722912340588
 30
0.0
 11
-36.59515120516325
 21
9.341543322659489
 31
0.0
  0
LINE
  5
F10681
330
261
100
AcDbEntity
  8
Geo
100
AcDbLine
 10
-36.69515120516325
 20
8.971840529824696
 30
0.0
 11
-36.59515120516325
 21
8.897615704649588
 31
0.0
  0
LINE
  5
F10683
330
261
100
AcDbEntity
  8
Geo
100
AcDbLine
 10
-36.69515120516325
 20
5.622390155193883
 30
0.0
 11
-36.59515120516325
 21
5.597749102796683
 31
0.0
  0
LINE
  5
F10685
330
261
100
AcDbEntity
  8
Geo
100
AcDbLine
 10
-36.69515120516325
 20
5.527465836186287
 30
0.0
 11
-36.59515120516325
 21
5.513116482304589
 31
0.0
  0
LINE
  5
F10687
330
261
100
AcDbEntity
  8
Geo
100
AcDbLine
 10
-36.59515120516325
 20
9.341543322659489
 30
0.0
 11
-36.49515120516325
 21
9.268730595528388
 31
0.0
  0
LINE
  5
F10689
330
261
100
AcDbEntity
  8
Geo
100
AcDbLine
 10
-36.59515120516325
 20
8.897615704649588
 30
0.0
 11
-36.49515120516325
 21
8.823052373114592
 31
0.0
  0
LINE
  5
F1068B
330
261
100
AcDbEntity
  8
Geo
100
AcDbLine
 10
-36.59515120516325
 20
5.597749102796683
 30
0.0
 11
-36.49515120516325
 21
5.57462779023249
 31
0.0
  0
LINE
  5
F1068D
330
261
100
AcDbEntity
  8
Geo
100
AcDbLine
 10
-36.59515120516325
 20
5.513116482304589
 30
0.0
 11
-36.49515120516325
 21
5.500332971249491
 31
0.0
  0
LINE
  5
F1068F
330
261
100
AcDbEntity
  8
Geo
100
AcDbLine
 10
-36.49515120516325
 20
9.268730595528388
 30
0.0
 11
-36.39515120516325
 21
9.195333056152385
 31
0.0
  0
LINE
  5
F10691
330
261
100
AcDbEntity
  8
Geo
100
AcDbLine
 10
-36.49515120516325
 20
8.823052373114592
 30
0.0
 11
-36.39515120516325
 21
8.748200022286589
 31
0.0
  0
LINE
  5
F10693
330
261
100
AcDbEntity
  8
Geo
100
AcDbLine
 10
-36.49515120516325
 20
5.57462779023249
 30
0.0
 11
-36.39515120516325
 21
5.553038812665185
 31
0.0
  0
LINE
  5
F10695
330
261
100
AcDbEntity
  8
Geo
100
AcDbLine
 10
-36.49515120516325
 20
5.500332971249491
 30
0.0
 11
-36.39515120516325
 21
5.489122266744089
 31
0.0
  0
LINE
  5
F10697
330
261
100
AcDbEntity
  8
Geo
100
AcDbLine
 10
-36.39515120516325
 20
9.195333056152385
 30
0.0
 11
-36.29515120516325
 21
9.121399417871693
 31
0.0
  0
LINE
  5
F10699
330
261
100
AcDbEntity
  8
Geo
100
AcDbLine
 10
-36.39515120516325
 20
8.748200022286589
 30
0.0
 11
-36.29515120516325
 21
8.673108331051984
 31
0.0
  0
LINE
  5
F1069B
330
261
100
AcDbEntity
  8
Geo
100
AcDbLine
 10
-36.39515120516325
 20
5.553038812665185
 30
0.0
 11
-36.29515120516325
 21
5.532993930530686
 31
0.0
  0
LINE
  5
F1069D
330
261
100
AcDbEntity
  8
Geo
100
AcDbLine
 10
-36.39515120516325
 20
5.489122266744089
 30
0.0
 11
-36.29515120516325
 21
5.479490475736788
 31
0.0
  0
LINE
  5
F1069F
330
261
100
AcDbEntity
  8
Geo
100
AcDbLine
 10
-36.29515120516325
 20
9.121399417871693
 30
0.0
 11
-36.19515120516324
 21
9.046978749830692
 31
0.0
  0
LINE
  5
F106A1
330
261
100
AcDbEntity
  8
Geo
100
AcDbLine
 10
-36.29515120516325
 20
8.673108331051984
 30
0.0
 11
-36.19515120516324
 21
8.597827137145486
 31
0.0
  0
LINE
  5
F106A3
330
261
100
AcDbEntity
  8
Geo
100
AcDbLine
 10
-36.29515120516325
 20
5.532993930530686
 30
0.0
 11
-36.19515120516324
 21
5.51450406312999
 31
0.0
  0
LINE
  5
F106A5
330
261
100
AcDbEntity
  8
Geo
100
AcDbLine
 10
-36.29515120516325
 20
5.479490475736788
 30
0.0
 11
-36.19515120516324
 21
5.471442845074392
 31
0.0
  0
LINE
  5
F106A7
330
261
100
AcDbEntity
  8
Geo
100
AcDbLine
 10
-36.19515120516324
 20
9.046978749830692
 30
0.0
 11
-36.09515120516325
 21
8.972120444411594
 31
0.0
  0
LINE
  5
F106A9
330
261
100
AcDbEntity
  8
Geo
100
AcDbLine
 10
-36.19515120516324
 20
8.597827137145486
 30
0.0
 11
-36.09515120516325
 21
8.522406404073088
 31
0.0
  0
LINE
  5
F106AB
330
261
100
AcDbEntity
  8
Geo
100
AcDbLine
 10
-36.19515120516324
 20
5.51450406312999
 30
0.0
 11
-36.09515120516325
 21
5.497579282681591
 31
0.0
  0
LINE
  5
F106AD
330
261
100
AcDbEntity
  8
Geo
100
AcDbLine
 10
-36.19515120516324
 20
5.471442845074392
 30
0.0
 11
-36.09515120516325
 21
5.464983758644187
 31
0.0
  0
LINE
  5
F106AF
330
261
100
AcDbEntity
  8
Geo
100
AcDbLine
 10
-36.09515120516325
 20
8.972120444411594
 30
0.0
 11
-35.99515120516326
 21
8.896874184452784
 31
0.0
  0
LINE
  5
F106B1
330
261
100
AcDbEntity
  8
Geo
100
AcDbLine
 10
-36.09515120516325
 20
8.522406404073088
 30
0.0
 11
-35.99515120516326
 21
8.446896187951985
 31
0.0
  0
LINE
  5
F106B3
330
261
100
AcDbEntity
  8
Geo
100
AcDbLine
 10
-36.09515120516325
 20
5.497579282681591
 30
0.0
 11
-35.99515120516326
 21
5.482228808834392
 31
0.0
  0
LINE
  5
F106B5
330
261
100
AcDbEntity
  8
Geo
100
AcDbLine
 10
-36.09515120516325
 20
5.464983758644187
 30
0.0
 11
-35.99515120516326
 21
5.460116734985589
 31
0.0
  0
LINE
  5
F106B7
330
261
100
AcDbEntity
  8
Geo
100
AcDbLine
 10
-35.99515120516326
 20
8.896874184452784
 30
0.0
 11
-35.89515120516324
 21
8.821289910275091
 31
0.0
  0
LINE
  5
F106B9
330
261
100
AcDbEntity
  8
Geo
100
AcDbLine
 10
-35.99515120516326
 20
8.446896187951985
 30
0.0
 11
-35.89515120516324
 21
8.371346604288191
 31
0.0
  0
LINE
  5
F106BB
330
261
100
AcDbEntity
  8
Geo
100
AcDbLine
 10
-35.99515120516326
 20
5.482228808834392
 30
0.0
 11
-35.89515120516324
 21
5.468461003645487
 31
0.0
  0
LINE
  5
F106BD
330
261
100
AcDbEntity
  8
Geo
100
AcDbLine
 10
-35.99515120516326
 20
5.460116734985589
 30
0.0
 11
-35.89515120516324
 21
5.456844425373787
 31
0.0
  0
LINE
  5
F106BF
330
261
100
AcDbEntity
  8
Geo
100
AcDbLine
 10
-35.89515120516324
 20
8.821289910275091
 30
0.0
 11
-35.79515120516325
 21
8.745417786536386
 31
0.0
  0
LINE
  5
F106C1
330
261
100
AcDbEntity
  8
Geo
100
AcDbLine
 10
-35.89515120516324
 20
8.371346604288191
 30
0.0
 11
-35.79515120516325
 21
8.295807794715891
 31
0.0
  0
LINE
  5
F106C3
330
261
100
AcDbEntity
  8
Geo
100
AcDbLine
 10
-35.89515120516324
 20
5.468461003645487
 30
0.0
 11
-35.79515120516325
 21
5.456283367024688
 31
0.0
  0
LINE
  5
F106C5
330
261
100
AcDbEntity
  8
Geo
100
AcDbLine
 10
-35.89515120516324
 20
5.456844425373787
 30
0.0
 11
-35.79515120516325
 21
5.455168612375288
 31
0.0
  0
LINE
  5
F106C7
330
261
100
AcDbEntity
  8
Geo
100
AcDbLine
 10
-35.79515120516325
 20
8.745417786536386
 30
0.0
 11
-35.69515120516324
 21
8.669308168937888
 31
0.0
  0
LINE
  5
F106C9
330
261
100
AcDbEntity
  8
Geo
100
AcDbLine
 10
-35.79515120516325
 20
8.295807794715891
 30
0.0
 11
-35.69515120516324
 21
8.220329893718592
 31
0.0
  0
LINE
  5
F106CB
330
261
100
AcDbEntity
  8
Geo
100
AcDbLine
 10
-35.79515120516325
 20
5.456283367024688
 30
0.0
 11
-35.69515120516324
 21
5.445702532649484
 31
0.0
  0
LINE
  5
F106CD
330
261
100
AcDbEntity
  8
Geo
100
AcDbLine
 10
-35.69515120516324
 20
8.669308168937888
 30
0.0
 11
-35.59515120516325
 21
8.593011570803696
 31
0.0
  0
LINE
  5
F106CF
330
261
100
AcDbEntity
  8
Geo
100
AcDbLine
 10
-35.69515120516324
 20
8.220329893718592
 30
0.0
 11
-35.59515120516325
 21
8.144962995355086
 31
0.0
  0
LINE
  5
F106D1
330
261
100
AcDbEntity
  8
Geo
100
AcDbLine
 10
-35.69515120516324
 20
5.445702532649484
 30
0.0
 11
-35.59515120516325
 21
5.436724264351191
 31
0.0
  0
LINE
  5
F106D3
330
261
100
AcDbEntity
  8
Geo
100
AcDbLine
 10
-35.69515120516324
 20
11.32007015567829
 30
0.0
 11
-35.59515120516325
 21
11.31855110696719
 31
0.0
  0
LINE
  5
F106D5
330
261
100
AcDbEntity
  8
Geo
100
AcDbLine
 10
-35.59515120516325
 20
8.593011570803696
 30
0.0
 11
-35.49515120516325
 21
8.516578629555191
 31
0.0
  0
LINE
  5
F106D7
330
261
100
AcDbEntity
  8
Geo
100
AcDbLine
 10
-35.59515120516325
 20
8.144962995355086
 30
0.0
 11
-35.49515120516325
 21
8.069757120012887
 31
0.0
  0
LINE
  5
F106D9
330
261
100
AcDbEntity
  8
Geo
100
AcDbLine
 10
-35.59515120516325
 20
5.436724264351191
 30
0.0
 11
-35.49515120516325
 21
5.429353452974886
 31
0.0
  0
LINE
  5
F106DB
330
261
100
AcDbEntity
  8
Geo
100
AcDbLine
 10
-35.59515120516325
 20
11.31855110696719
 30
0.0
 11
-35.49515120516325
 21
11.31543543353699
 31
0.0
  0
LINE
  5
F106DD
330
261
100
AcDbEntity
  8
Geo
100
AcDbLine
 10
-35.49515120516325
 20
8.516578629555191
 30
0.0
 11
-35.39515120516325
 21
8.440060073103587
 31
0.0
  0
LINE
  5
F106DF
330
261
100
AcDbEntity
  8
Geo
100
AcDbLine
 10
-35.49515120516325
 20
8.069757120012887
 30
0.0
 11
-35.39515120516325
 21
7.994762181209694
 31
0.0
  0
LINE
  5
F106E1
330
261
100
AcDbEntity
  8
Geo
100
AcDbLine
 10
-35.49515120516325
 20
5.429353452974886
 30
0.0
 11
-35.39515120516325
 21
5.423594113715687
 31
0.0
  0
LINE
  5
F106E3
330
261
100
AcDbEntity
  8
Geo
100
AcDbLine
 10
-35.49515120516325
 20
11.31543543353699
 30
0.0
 11
-35.39515120516325
 21
11.31072483262759
 31
0.0
  0
LINE
  5
F106E5
330
261
100
AcDbEntity
  8
Geo
100
AcDbLine
 10
-35.39515120516325
 20
8.440060073103587
 30
0.0
 11
-35.29515120516325
 21
8.36350668618239
 31
0.0
  0
LINE
  5
F106E7
330
261
100
AcDbEntity
  8
Geo
100
AcDbLine
 10
-35.39515120516325
 20
7.994762181209694
 30
0.0
 11
-35.29515120516325
 21
7.92002795246649
 31
0.0
  0
LINE
  5
F106E9
330
261
100
AcDbEntity
  8
Geo
100
AcDbLine
 10
-35.39515120516325
 20
5.423594113715687
 30
0.0
 11
-35.29515120516325
 21
5.419449383930789
 31
0.0
  0
LINE
  5
F106EB
330
261
100
AcDbEntity
  8
Geo
100
AcDbLine
 10
-35.39515120516325
 20
11.31072483262759
 30
0.0
 11
-35.29515120516325
 21
11.30442187030409
 31
0.0
  0
LINE
  5
F106ED
330
261
100
AcDbEntity
  8
Geo
100
AcDbLine
 10
-35.29515120516325
 20
8.36350668618239
 30
0.0
 11
-35.19515120516324
 21
8.286969276641492
 31
0.0
  0
LINE
  5
F106EF
330
261
100
AcDbEntity
  8
Geo
100
AcDbLine
 10
-35.29515120516325
 20
7.92002795246649
 30
0.0
 11
-35.19515120516324
 21
7.845604034272987
 31
0.0
  0
LINE
  5
F106F1
330
261
100
AcDbEntity
  8
Geo
100
AcDbLine
 10
-35.29515120516325
 20
5.419449383930789
 30
0.0
 11
-35.19515120516324
 21
5.416921521431291
 31
0.0
  0
LINE
  5
F106F3
330
261
100
AcDbEntity
  8
Geo
100
AcDbLine
 10
-35.29515120516325
 20
11.30442187030409
 30
0.0
 11
-35.19515120516324
 21
11.29652998005859
 31
0.0
  0
LINE
  5
F106F5
330
261
100
AcDbEntity
  8
Geo
100
AcDbLine
 10
-35.19515120516324
 20
8.286969276641492
 30
0.0
 11
-35.09515120516325
 21
8.210498641726886
 31
0.0
  0
LINE
  5
F106F7
330
261
100
AcDbEntity
  8
Geo
100
AcDbLine
 10
-35.19515120516324
 20
7.845604034272987
 30
0.0
 11
-35.09515120516325
 21
7.771539821168389
 31
0.0
  0
LINE
  5
F106F9
330
261
100
AcDbEntity
  8
Geo
100
AcDbLine
 10
-35.19515120516324
 20
5.416921521431291
 30
0.0
 11
-35.09515120516325
 21
5.416011903251387
 31
0.0
  0
LINE
  5
F106FB
330
261
100
AcDbEntity
  8
Geo
100
AcDbLine
 10
-35.19515120516324
 20
11.29652998005859
 30
0.0
 11
-35.09515120516325
 21
11.28705346093979
 31
0.0
  0
LINE
  5
F106FD
330
261
100
AcDbEntity
  8
Geo
100
AcDbLine
 10
-35.09515120516325
 20
8.210498641726886
 30
0.0
 11
-34.99515120516325
 21
8.134145534366886
 31
0.0
  0
LINE
  5
F106FF
330
261
100
AcDbEntity
  8
Geo
100
AcDbLine
 10
-35.09515120516325
 20
7.771539821168389
 30
0.0
 11
-34.99515120516325
 21
7.697884468958783
 31
0.0
  0
LINE
  5
F10701
330
261
100
AcDbEntity
  8
Geo
100
AcDbLine
 10
-35.09515120516325
 20
11.28705346093979
 30
0.0
 11
-34.99515120516325
 21
11.27599747521149
 31
0.0
  0
LINE
  5
F10703
330
261
100
AcDbEntity
  8
Geo
100
AcDbLine
 10
-34.99515120516325
 20
8.134145534366886
 30
0.0
 11
-34.89515120516325
 21
8.057960629487588
 31
0.0
  0
LINE
  5
F10705
330
261
100
AcDbEntity
  8
Geo
100
AcDbLine
 10
-34.99515120516325
 20
7.697884468958783
 30
0.0
 11
-34.89515120516325
 21
7.624686862092389
 31
0.0
  0
LINE
  5
F10707
330
261
100
AcDbEntity
  8
Geo
100
AcDbLine
 10
-34.99515120516325
 20
11.35843933965599
 30
0.0
 11
-34.89515120516325
 21
11.35611186446969
 31
0.0
  0
LINE
  5
F10709
330
261
100
AcDbEntity
  8
Geo
100
AcDbLine
 10
-34.99515120516325
 20
11.27599747521149
 30
0.0
 11
-34.89515120516325
 21
11.26336804553999
 31
0.0
  0
LINE
  5
F1070B
330
261
100
AcDbEntity
  8
Geo
100
AcDbLine
 10
-34.89515120516325
 20
8.057960629487588
 30
0.0
 11
-34.79515120516325
 21
7.981994490380493
 31
0.0
  0
LINE
  5
F1070D
330
261
100
AcDbEntity
  8
Geo
100
AcDbLine
 10
-34.89515120516325
 20
7.624686862092389
 30
0.0
 11
-34.79515120516325
 21
7.551995581215884
 31
0.0
  0
LINE
  5
F1070F
330
261
100
AcDbEntity
  8
Geo
100
AcDbLine
 10
-34.89515120516325
 20
11.35611186446969
 30
0.0
 11
-34.79515120516325
 21
11.35216730361959
 31
0.0
  0
LINE
  5
F10711
330
261
100
AcDbEntity
  8
Geo
100
AcDbLine
 10
-34.89515120516325
 20
11.26336804553999
 30
0.0
 11
-34.79515120516325
 21
11.24917205171358
 31
0.0
  0
LINE
  5
F10713
330
261
100
AcDbEntity
  8
Geo
100
AcDbLine
 10
-34.79515120516325
 20
7.981994490380493
 30
0.0
 11
-34.69515120516324
 21
7.90629753514419
 31
0.0
  0
LINE
  5
F10715
330
261
100
AcDbEntity
  8
Geo
100
AcDbLine
 10
-34.79515120516325
 20
7.551995581215884
 30
0.0
 11
-34.69515120516324
 21
7.479858870931387
 31
0.0
  0
LINE
  5
F10717
330
261
100
AcDbEntity
  8
Geo
100
AcDbLine
 10
-34.79515120516325
 20
11.35216730361959
 30
0.0
 11
-34.69515120516324
 21
11.34660780587599
 31
0.0
  0
LINE
  5
F10719
330
261
100
AcDbEntity
  8
Geo
100
AcDbLine
 10
-34.79515120516325
 20
11.24917205171358
 30
0.0
 11
-34.69515120516324
 21
11.23341722689488
 31
0.0
  0
LINE
  5
F1071B
330
261
100
AcDbEntity
  8
Geo
100
AcDbLine
 10
-34.69515120516324
 20
7.90629753514419
 30
0.0
 11
-34.59515120516325
 21
7.830920003222189
 31
0.0
  0
LINE
  5
F1071D
330
261
100
AcDbEntity
  8
Geo
100
AcDbLine
 10
-34.69515120516324
 20
7.479858870931387
 30
0.0
 11
-34.59515120516325
 21
7.408324607777288
 31
0.0
  0
LINE
  5
F1071F
330
261
100
AcDbEntity
  8
Geo
100
AcDbLine
 10
-34.69515120516324
 20
11.34660780587599
 30
0.0
 11
-34.59515120516325
 21
11.33943639973419
 31
0.0
  0
LINE
  5
F10721
330
261
100
AcDbEntity
  8
Geo
100
AcDbLine
 10
-34.69515120516324
 20
11.23341722689488
 30
0.0
 11
-34.59515120516325
 21
11.21611215340819
 31
0.0
  0
LINE
  5
F10723
330
261
100
AcDbEntity
  8
Geo
100
AcDbLine
 10
-34.59515120516325
 20
7.830920003222189
 30
0.0
 11
-34.49515120516326
 21
7.755911922058992
 31
0.0
  0
LINE
  5
F10725
330
261
100
AcDbEntity
  8
Geo
100
AcDbLine
 10
-34.59515120516325
 20
7.408324607777288
 30
0.0
 11
-34.49515120516326
 21
7.337440268452489
 31
0.0
  0
LINE
  5
F10727
330
261
100
AcDbEntity
  8
Geo
100
AcDbLine
 10
-34.59515120516325
 20
11.33943639973419
 30
0.0
 11
-34.49515120516326
 21
11.33065699176459
 31
0.0
  0
LINE
  5
F10729
330
261
100
AcDbEntity
  8
Geo
100
AcDbLine
 10
-34.59515120516325
 20
11.21611215340819
 30
0.0
 11
-34.49515120516326
 21
11.19726625806419
 31
0.0
  0
LINE
  5
F1072B
330
261
100
AcDbEntity
  8
Geo
100
AcDbLine
 10
-34.49515120516326
 20
7.755911922058992
 30
0.0
 11
-34.39515120516325
 21
7.681323073898283
 31
0.0
  0
LINE
  5
F1072D
330
261
100
AcDbEntity
  8
Geo
100
AcDbLine
 10
-34.49515120516326
 20
7.337440268452489
 30
0.0
 11
-34.39515120516325
 21
7.267252898307091
 31
0.0
  0
LINE
  5
F1072F
330
261
100
AcDbEntity
  8
Geo
100
AcDbLine
 10
-34.49515120516326
 20
11.33065699176459
 30
0.0
 11
-34.39515120516325
 21
11.32027436448469
 31
0.0
  0
LINE
  5
F10731
330
261
100
AcDbEntity
  8
Geo
100
AcDbLine
 10
-34.49515120516326
 20
11.19726625806419
 30
0.0
 11
-34.39515120516325
 21
11.17688980702478
 31
0.0
  0
LINE
  5
F10733
330
261
100
AcDbEntity
  8
Geo
100
AcDbLine
 10
-34.39515120516325
 20
7.681323073898283
 30
0.0
 11
-34.29515120516325
 21
7.607202962741787
 31
0.0
  0
LINE
  5
F10735
330
261
100
AcDbEntity
  8
Geo
100
AcDbLine
 10
-34.39515120516325
 20
7.267252898307091
 30
0.0
 11
-34.29515120516325
 21
7.197809080118489
 31
0.0
  0
LINE
  5
F10737
330
261
100
AcDbEntity
  8
Geo
100
AcDbLine
 10
-34.39515120516325
 20
11.32027436448469
 30
0.0
 11
-34.29515120516325
 21
11.30829417375388
 31
0.0
  0
LINE
  5
F10739
330
261
100
AcDbEntity
  8
Geo
100
AcDbLine
 10
-34.39515120516325
 20
11.17688980702478
 30
0.0
 11
-34.29515120516325
 21
11.15499390021099
 31
0.0
  0
LINE
  5
F1073B
330
261
100
AcDbEntity
  8
Geo
100
AcDbLine
 10
-34.29515120516325
 20
7.607202962741787
 30
0.0
 11
-34.19515120516325
 21
7.533600781494691
 31
0.0
  0
LINE
  5
F1073D
330
261
100
AcDbEntity
  8
Geo
100
AcDbLine
 10
-34.29515120516325
 20
7.197809080118489
 30
0.0
 11
-34.19515120516325
 21
7.129154903174587
 31
0.0
  0
LINE
  5
F1073F
330
261
100
AcDbEntity
  8
Geo
100
AcDbLine
 10
-34.29515120516325
 20
11.30829417375388
 30
0.0
 11
-34.19515120516325
 21
11.29472294569228
 31
0.0
  0
LINE
  5
F10741
330
261
100
AcDbEntity
  8
Geo
100
AcDbLine
 10
-34.29515120516325
 20
11.15499390021099
 30
0.0
 11
-34.19515120516325
 21
11.13159046525589
 31
0.0
  0
LINE
  5
F10743
330
261
100
AcDbEntity
  8
Geo
100
AcDbLine
 10
-34.19515120516325
 20
7.533600781494691
 30
0.0
 11
-34.09515120516325
 21
7.460565379316086
 31
0.0
  0
LINE
  5
F10745
330
261
100
AcDbEntity
  8
Geo
100
AcDbLine
 10
-34.19515120516325
 20
7.129154903174587
 30
0.0
 11
-34.09515120516325
 21
7.061335932685189
 31
0.0
  0
LINE
  5
F10747
330
261
100
AcDbEntity
  8
Geo
100
AcDbLine
 10
-34.19515120516325
 20
11.29472294569228
 30
0.0
 11
-34.09515120516325
 21
11.27956807312619
 31
0.0
  0
LINE
  5
F10749
330
261
100
AcDbEntity
  8
Geo
100
AcDbLine
 10
-34.19515120516325
 20
11.13159046525589
 30
0.0
 11
-34.09515120516325
 21
11.10669225100759
 31
0.0
  0
LINE
  5
F1074B
330
261
100
AcDbEntity
  8
Geo
100
AcDbLine
 10
-34.09515120516325
 20
7.460565379316086
 30
0.0
 11
-33.99515120516325
 21
7.388145229198592
 31
0.0
  0
LINE
  5
F1074D
330
261
100
AcDbEntity
  8
Geo
100
AcDbLine
 10
-34.09515120516325
 20
7.061335932685189
 30
0.0
 11
-33.99515120516325
 21
6.994397179540392
 31
0.0
  0
LINE
  5
F1074F
330
261
100
AcDbEntity
  8
Geo
100
AcDbLine
 10
-34.09515120516325
 20
11.27956807312619
 30
0.0
 11
-33.99515120516325
 21
11.26283781155999
 31
0.0
  0
LINE
  5
F10751
330
261
100
AcDbEntity
  8
Geo
100
AcDbLine
 10
-34.09515120516325
 20
11.10669225100759
 30
0.0
 11
-33.99515120516325
 21
11.08031282058388
 31
0.0
  0
LINE
  5
F10753
330
261
100
AcDbEntity
  8
Geo
100
AcDbLine
 10
-33.99515120516325
 20
7.388145229198592
 30
0.0
 11
-33.89515120516325
 21
7.316388395797289
 31
0.0
  0
LINE
  5
F10755
330
261
100
AcDbEntity
  8
Geo
100
AcDbLine
 10
-33.99515120516325
 20
6.994397179540392
 30
0.0
 11
-33.89515120516325
 21
6.928383070437092
 31
0.0
  0
LINE
  5
F10757
330
261
100
AcDbEntity
  8
Geo
100
AcDbLine
 10
-33.99515120516325
 20
11.26283781155999
 30
0.0
 11
-33.89515120516325
 21
11.24454127467999
 31
0.0
  0
LINE
  5
F10759
330
261
100
AcDbEntity
  8
Geo
100
AcDbLine
 10
-33.99515120516325
 20
11.08031282058388
 30
0.0
 11
-33.89515120516325
 21
11.05246654398438
 31
0.0
  0
LINE
  5
F1075B
330
261
100
AcDbEntity
  8
Geo
100
AcDbLine
 10
-33.89515120516325
 20
7.316388395797289
 30
0.0
 11
-33.79515120516325
 21
7.245342503529286
 31
0.0
  0
LINE
  5
F1075D
330
261
100
AcDbEntity
  8
Geo
100
AcDbLine
 10
-33.89515120516325
 20
6.928383070437092
 30
0.0
 11
-33.79515120516325
 21
6.863337418393989
 31
0.0
  0
LINE
  5
F1075F
330
261
100
AcDbEntity
  8
Geo
100
AcDbLine
 10
-33.89515120516325
 20
11.24454127467999
 30
0.0
 11
-33.79515120516325
 21
11.22468842938928
 31
0.0
  0
LINE
  5
F10761
330
261
100
AcDbEntity
  8
Geo
100
AcDbLine
 10
-33.89515120516325
 20
11.05246654398438
 30
0.0
 11
-33.79515120516325
 21
11.02316859026209
 31
0.0
  0
LINE
  5
F10763
330
261
100
AcDbEntity
  8
Geo
100
AcDbLine
 10
-33.79515120516325
 20
7.245342503529286
 30
0.0
 11
-33.69515120516324
 21
7.175054704965887
 31
0.0
  0
LINE
  5
F10765
330
261
100
AcDbEntity
  8
Geo
100
AcDbLine
 10
-33.79515120516325
 20
6.863337418393989
 30
0.0
 11
-33.69515120516324
 21
6.799303393672488
 31
0.0
  0
LINE
  5
F10767
330
261
100
AcDbEntity
  8
Geo
100
AcDbLine
 10
-33.79515120516325
 20
11.22468842938928
 30
0.0
 11
-33.69515120516324
 21
11.20329009037839
 31
0.0
  0
LINE
  5
F10769
330
261
100
AcDbEntity
  8
Geo
100
AcDbLine
 10
-33.79515120516325
 20
11.02316859026209
 30
0.0
 11
-33.69515120516324
 21
10.99243491926059
 31
0.0
  0
LINE
  5
F1076B
330
261
100
AcDbEntity
  8
Geo
100
AcDbLine
 10
-33.69515120516324
 20
7.175054704965887
 30
0.0
 11
-33.59515120516324
 21
7.105571649537886
 31
0.0
  0
LINE
  5
F1076D
330
261
100
AcDbEntity
  8
Geo
100
AcDbLine
 10
-33.69515120516324
 20
6.799303393672488
 30
0.0
 11
-33.59515120516324
 21
6.73632349512539
 31
0.0
  0
LINE
  5
F1076F
330
261
100
AcDbEntity
  8
Geo
100
AcDbLine
 10
-33.69515120516324
 20
11.20329009037839
 30
0.0
 11
-33.59515120516324
 21
11.18035791423408
 31
0.0
  0
LINE
  5
F10771
330
261
100
AcDbEntity
  8
Geo
100
AcDbLine
 10
-33.69515120516324
 20
10.99243491926059
 30
0.0
 11
-33.59515120516324
 21
10.96028227291959
 31
0.0
  0
LINE
  5
F10773
330
261
100
AcDbEntity
  8
Geo
100
AcDbLine
 10
-33.59515120516324
 20
7.105571649537886
 30
0.0
 11
-33.49515120516324
 21
7.036939452574884
 31
0.0
  0
LINE
  5
F10775
330
261
100
AcDbEntity
  8
Geo
100
AcDbLine
 10
-33.59515120516324
 20
6.73632349512539
 30
0.0
 11
-33.49515120516324
 21
6.674439521990791
 31
0.0
  0
LINE
  5
F10777
330
261
100
AcDbEntity
  8
Geo
100
AcDbLine
 10
-33.59515120516324
 20
11.18035791423408
 30
0.0
 11
-33.49515120516324
 21
11.15590439308958
 31
0.0
  0
LINE
  5
F10779
330
261
100
AcDbEntity
  8
Geo
100
AcDbLine
 10
-33.59515120516324
 20
10.96028227291959
 30
0.0
 11
-33.49515120516324
 21
10.92672816615519
 31
0.0
  0
LINE
  5
F1077B
330
261
100
AcDbEntity
  8
Geo
100
AcDbLine
 10
-33.49515120516324
 20
7.036939452574884
 30
0.0
 11
-33.39515120516323
 21
6.969203664698589
 31
0.0
  0
LINE
  5
F1077D
330
261
100
AcDbEntity
  8
Geo
100
AcDbLine
 10
-33.49515120516324
 20
6.674439521990791
 30
0.0
 11
-33.39515120516323
 21
6.61369254615019
 31
0.0
  0
LINE
  5
F1077F
330
261
100
AcDbEntity
  8
Geo
100
AcDbLine
 10
-33.49515120516324
 20
11.15590439308958
 30
0.0
 11
-33.39515120516323
 21
11.12994284781959
 31
0.0
  0
LINE
  5
F10781
330
261
100
AcDbEntity
  8
Geo
100
AcDbLine
 10
-33.49515120516324
 20
10.92672816615519
 30
0.0
 11
-33.39515120516323
 21
10.89179087731878
 31
0.0
  0
LINE
  5
F10783
330
261
100
AcDbEntity
  8
Geo
100
AcDbLine
 10
-33.39515120516323
 20
6.969203664698589
 30
0.0
 11
-33.29515120516324
 21
6.902409241591385
 31
0.0
  0
LINE
  5
F10785
330
261
100
AcDbEntity
  8
Geo
100
AcDbLine
 10
-33.39515120516323
 20
6.61369254615019
 30
0.0
 11
-33.29515120516324
 21
6.554122884868988
 31
0.0
  0
LINE
  5
F10787
330
261
100
AcDbEntity
  8
Geo
100
AcDbLine
 10
-33.39515120516323
 20
11.12994284781959
 30
0.0
 11
-33.29515120516324
 21
11.10248742078369
 31
0.0
  0
LINE
  5
F10789
330
261
100
AcDbEntity
  8
Geo
100
AcDbLine
 10
-33.39515120516323
 20
10.89179087731878
 30
0.0
 11
-33.29515120516324
 21
10.85548943823988
 31
0.0
  0
LINE
  5
F1078B
330
261
100
AcDbEntity
  8
Geo
100
AcDbLine
 10
-33.29515120516324
 20
6.902409241591385
 30
0.0
 11
-33.19515120516324
 21
6.83660051415979
 31
0.0
  0
LINE
  5
F1078D
330
261
100
AcDbEntity
  8
Geo
100
AcDbLine
 10
-33.29515120516324
 20
6.554122884868988
 30
0.0
 11
-33.19515120516324
 21
6.495770074039185
 31
0.0
  0
LINE
  5
F1078F
330
261
100
AcDbEntity
  8
Geo
100
AcDbLine
 10
-33.29515120516324
 20
11.10248742078369
 30
0.0
 11
-33.19515120516324
 21
11.07355306812269
 31
0.0
  0
LINE
  5
F10791
330
261
100
AcDbEntity
  8
Geo
100
AcDbLine
 10
-33.29515120516324
 20
10.85548943823988
 30
0.0
 11
-33.19515120516324
 21
10.81784362385889
 31
0.0
  0
LINE
  5
F10793
330
261
100
AcDbEntity
  8
Geo
100
AcDbLine
 10
-33.19515120516324
 20
6.83660051415979
 30
0.0
 11
-33.09515120516323
 21
6.771821159112086
 31
0.0
  0
LINE
  5
F10795
330
261
100
AcDbEntity
  8
Geo
100
AcDbLine
 10
-33.19515120516324
 20
6.495770074039185
 30
0.0
 11
-33.09515120516323
 21
6.438672841938789
 31
0.0
  0
LINE
  5
F10797
330
261
100
AcDbEntity
  8
Geo
100
AcDbLine
 10
-33.19515120516324
 20
11.07355306812269
 30
0.0
 11
-33.09515120516323
 21
11.04315555161089
 31
0.0
  0
LINE
  5
F10799
330
261
100
AcDbEntity
  8
Geo
100
AcDbLine
 10
-33.19515120516324
 20
10.81784362385889
 30
0.0
 11
-33.09515120516323
 21
10.77887394145428
 31
0.0
  0
LINE
  5
F1079B
330
261
100
AcDbEntity
  8
Geo
100
AcDbLine
 10
-33.09515120516323
 20
6.771821159112086
 30
0.0
 11
-32.99515120516324
 21
6.708114169970791
 31
0.0
  0
LINE
  5
F1079D
330
261
100
AcDbEntity
  8
Geo
100
AcDbLine
 10
-33.09515120516323
 20
6.438672841938789
 30
0.0
 11
-32.99515120516324
 21
6.382869083528689
 31
0.0
  0
LINE
  5
F1079F
330
261
100
AcDbEntity
  8
Geo
100
AcDbLine
 10
-33.09515120516323
 20
11.04315555161089
 30
0.0
 11
-32.99515120516324
 21
11.01131143007059
 31
0.0
  0
LINE
  5
F107A1
330
261
100
AcDbEntity
  8
Geo
100
AcDbLine
 10
-33.09515120516323
 20
10.77887394145428
 30
0.0
 11
-32.99515120516324
 21
10.73860161947239
 31
0.0
  0
LINE
  5
F107A3
330
261
100
AcDbEntity
  8
Geo
100
AcDbLine
 10
-32.99515120516324
 20
6.708114169970791
 30
0.0
 11
-32.89515120516323
 21
6.645521828537887
 31
0.0
  0
LINE
  5
F107A5
330
261
100
AcDbEntity
  8
Geo
100
AcDbLine
 10
-32.99515120516324
 20
6.382869083528689
 30
0.0
 11
-32.89515120516323
 21
6.328395835302188
 31
0.0
  0
LINE
  5
F107A7
330
261
100
AcDbEntity
  8
Geo
100
AcDbLine
 10
-32.99515120516324
 20
11.01131143007059
 30
0.0
 11
-32.89515120516323
 21
10.97803805035119
 31
0.0
  0
LINE
  5
F107A9
330
261
100
AcDbEntity
  8
Geo
100
AcDbLine
 10
-32.99515120516324
 20
10.73860161947239
 30
0.0
 11
-32.89515120516323
 21
10.69704859596239
 31
0.0
  0
LINE
  5
F107AB
330
261
100
AcDbEntity
  8
Geo
100
AcDbLine
 10
-32.89515120516323
 20
6.645521828537887
 30
0.0
 11
-32.79515120516324
 21
6.584085676832991
 31
0.0
  0
LINE
  5
F107AD
330
261
100
AcDbEntity
  8
Geo
100
AcDbLine
 10
-32.89515120516323
 20
6.328395835302188
 30
0.0
 11
-32.79515120516324
 21
6.275289250703593
 31
0.0
  0
LINE
  5
F107AF
330
261
100
AcDbEntity
  8
Geo
100
AcDbLine
 10
-32.89515120516323
 20
10.97803805035119
 30
0.0
 11
-32.79515120516324
 21
10.94335353788009
 31
0.0
  0
LINE
  5
F107B1
330
261
100
AcDbEntity
  8
Geo
100
AcDbLine
 10
-32.89515120516323
 20
10.69704859596239
 30
0.0
 11
-32.79515120516324
 21
10.65423750662648
 31
0.0
  0
LINE
  5
F107B3
330
261
100
AcDbEntity
  8
Geo
100
AcDbLine
 10
-32.79515120516324
 20
6.584085676832991
 30
0.0
 11
-32.69515120516324
 21
6.523846489521986
 31
0.0
  0
LINE
  5
F107B5
330
261
100
AcDbEntity
  8
Geo
100
AcDbLine
 10
-32.79515120516324
 20
6.275289250703593
 30
0.0
 11
-32.69515120516324
 21
6.223584576134285
 31
0.0
  0
LINE
  5
F107B7
330
261
100
AcDbEntity
  8
Geo
100
AcDbLine
 10
-32.79515120516324
 20
10.94335353788009
 30
0.0
 11
-32.69515120516324
 21
10.90727678678888
 31
0.0
  0
LINE
  5
F107B9
330
261
100
AcDbEntity
  8
Geo
100
AcDbLine
 10
-32.79515120516324
 20
10.65423750662648
 30
0.0
 11
-32.69515120516324
 21
10.61019167248849
 31
0.0
  0
LINE
  5
F107BB
330
261
100
AcDbEntity
  8
Geo
100
AcDbLine
 10
-32.69515120516324
 20
6.523846489521986
 30
0.0
 11
-32.59515120516323
 21
6.464844246855591
 31
0.0
  0
LINE
  5
F107BD
330
261
100
AcDbEntity
  8
Geo
100
AcDbLine
 10
-32.69515120516324
 20
6.223584576134285
 30
0.0
 11
-32.59515120516323
 21
6.173316127559189
 31
0.0
  0
LINE
  5
F107BF
330
261
100
AcDbEntity
  8
Geo
100
AcDbLine
 10
-32.69515120516324
 20
10.90727678678888
 30
0.0
 11
-32.59515120516323
 21
10.86982744962049
 31
0.0
  0
LINE
  5
F107C1
330
261
100
AcDbEntity
  8
Geo
100
AcDbLine
 10
-32.69515120516324
 20
10.61019167248849
 30
0.0
 11
-32.59515120516323
 21
10.56493508719089
 31
0.0
  0
LINE
  5
F107C3
330
261
100
AcDbEntity
  8
Geo
100
AcDbLine
 10
-32.59515120516323
 20
6.464844246855591
 30
0.0
 11
-32.49515120516324
 21
6.40711810813439
 31
0.0
  0
LINE
  5
F107C5
330
261
100
AcDbEntity
  8
Geo
100
AcDbLine
 10
-32.59515120516323
 20
6.173316127559189
 30
0.0
 11
-32.49515120516324
 21
6.124517267732088
 31
0.0
  0
LINE
  5
F107C7
330
261
100
AcDbEntity
  8
Geo
100
AcDbLine
 10
-32.59515120516323
 20
10.86982744962049
 30
0.0
 11
-32.49515120516324
 21
10.83102592662438
 31
0.0
  0
LINE
  5
F107C9
330
261
100
AcDbEntity
  8
Geo
100
AcDbLine
 10
-32.59515120516323
 20
10.56493508719089
 30
0.0
 11
-32.49515120516324
 21
10.51849240392328
 31
0.0
  0
LINE
  5
F107CB
330
261
100
AcDbEntity
  8
Geo
100
AcDbLine
 10
-32.49515120516324
 20
6.40711810813439
 30
0.0
 11
-32.39515120516323
 21
6.35070638571959
 31
0.0
  0
LINE
  5
F107CD
330
261
100
AcDbEntity
  8
Geo
100
AcDbLine
 10
-32.49515120516324
 20
6.124517267732088
 30
0.0
 11
-32.39515120516323
 21
6.077220384052886
 31
0.0
  0
LINE
  5
F107CF
330
261
100
AcDbEntity
  8
Geo
100
AcDbLine
 10
-32.49515120516324
 20
10.83102592662438
 30
0.0
 11
-32.39515120516323
 21
10.79089335464288
 31
0.0
  0
LINE
  5
F107D1
330
261
100
AcDbEntity
  8
Geo
100
AcDbLine
 10
-32.49515120516324
 20
10.51849240392328
 30
0.0
 11
-32.39515120516323
 21
10.47088892199389
 31
0.0
  0
LINE
  5
F107D3
330
261
100
AcDbEntity
  8
Geo
100
AcDbLine
 10
-32.39515120516323
 20
6.35070638571959
 30
0.0
 11
-32.29515120516324
 21
6.295646519604993
 31
0.0
  0
LINE
  5
F107D5
330
261
100
AcDbEntity
  8
Geo
100
AcDbLine
 10
-32.39515120516323
 20
6.077220384052886
 30
0.0
 11
-32.29515120516324
 21
6.031456867072293
 31
0.0
  0
LINE
  5
F107D7
330
261
100
AcDbEntity
  8
Geo
100
AcDbLine
 10
-32.39515120516323
 20
10.79089335464288
 30
0.0
 11
-32.29515120516324
 21
10.74945159559769
 31
0.0
  0
LINE
  5
F107D9
330
261
100
AcDbEntity
  8
Geo
100
AcDbLine
 10
-32.39515120516323
 20
10.47088892199389
 30
0.0
 11
-32.29515120516324
 21
10.42215057304699
 31
0.0
  0
LINE
  5
F107DB
330
261
100
AcDbEntity
  8
Geo
100
AcDbLine
 10
-32.29515120516324
 20
6.295646519604993
 30
0.0
 11
-32.19515120516324
 21
6.241975052568385
 31
0.0
  0
LINE
  5
F107DD
330
261
100
AcDbEntity
  8
Geo
100
AcDbLine
 10
-32.29515120516324
 20
6.031456867072293
 30
0.0
 11
-32.19515120516324
 21
5.987257089658186
 31
0.0
  0
LINE
  5
F107DF
330
261
100
AcDbEntity
  8
Geo
100
AcDbLine
 10
-32.29515120516324
 20
10.74945159559769
 30
0.0
 11
-32.19515120516324
 21
10.70672322458029
 31
0.0
  0
LINE
  5
F107E1
330
261
100
AcDbEntity
  8
Geo
100
AcDbLine
 10
-32.29515120516324
 20
10.42215057304699
 30
0.0
 11
-32.19515120516324
 21
10.37230390693759
 31
0.0
  0
LINE
  5
F107E3
330
261
100
AcDbEntity
  8
Geo
100
AcDbLine
 10
-32.19515120516324
 20
6.241975052568385
 30
0.0
 11
-32.09515120516324
 21
6.189727605918889
 31
0.0
  0
LINE
  5
F107E5
330
261
100
AcDbEntity
  8
Geo
100
AcDbLine
 10
-32.19515120516324
 20
5.987257089658186
 30
0.0
 11
-32.09515120516324
 21
5.944650386837388
 31
0.0
  0
LINE
  5
F107E7
330
261
100
AcDbEntity
  8
Geo
100
AcDbLine
 10
-32.19515120516324
 20
10.70672322458029
 30
0.0
 11
-32.09515120516324
 21
10.66273151755449
 31
0.0
  0
LINE
  5
F107E9
330
261
100
AcDbEntity
  8
Geo
100
AcDbLine
 10
-32.19515120516324
 20
10.37230390693759
 30
0.0
 11
-32.09515120516324
 21
10.32137607726809
 31
0.0
  0
LINE
  5
F107EB
330
261
100
AcDbEntity
  8
Geo
100
AcDbLine
 10
-32.09515120516324
 20
6.189727605918889
 30
0.0
 11
-31.99515120516324
 21
6.138938855854988
 31
0.0
  0
LINE
  5
F107ED
330
261
100
AcDbEntity
  8
Geo
100
AcDbLine
 10
-32.09515120516324
 20
5.944650386837388
 30
0.0
 11
-31.99515120516324
 21
5.903665036326387
 31
0.0
  0
LINE
  5
F107EF
330
261
100
AcDbEntity
  8
Geo
100
AcDbLine
 10
-32.09515120516324
 20
10.66273151755449
 30
0.0
 11
-31.99515120516324
 21
10.61750043867709
 31
0.0
  0
LINE
  5
F107F1
330
261
100
AcDbEntity
  8
Geo
100
AcDbLine
 10
-32.09515120516324
 20
10.32137607726809
 30
0.0
 11
-31.99515120516324
 21
10.26939482659678
 31
0.0
  0
LINE
  5
F107F3
330
261
100
AcDbEntity
  8
Geo
100
AcDbLine
 10
-31.99515120516324
 20
6.138938855854988
 30
0.0
 11
-31.89515120516323
 21
6.08964251045009
 31
0.0
  0
LINE
  5
F107F5
330
261
100
AcDbEntity
  8
Geo
100
AcDbLine
 10
-31.99515120516324
 20
5.903665036326387
 30
0.0
 11
-31.89515120516323
 21
5.864328239763388
 31
0.0
  0
LINE
  5
F107F7
330
261
100
AcDbEntity
  8
Geo
100
AcDbLine
 10
-31.99515120516324
 20
10.61750043867709
 30
0.0
 11
-31.89515120516323
 21
10.57105462724369
 31
0.0
  0
LINE
  5
F107F9
330
261
100
AcDbEntity
  8
Geo
100
AcDbLine
 10
-31.99515120516324
 20
10.26939482659678
 30
0.0
 11
-31.89515120516323
 21
10.21638847132529
 31
0.0
  0
LINE
  5
F107FB
330
261
100
AcDbEntity
  8
Geo
100
AcDbLine
 10
-31.89515120516323
 20
6.08964251045009
 30
0.0
 11
-31.79515120516324
 21
6.041871287281189
 31
0.0
  0
LINE
  5
F107FD
330
261
100
AcDbEntity
  8
Geo
100
AcDbLine
 10
-31.89515120516323
 20
5.864328239763388
 30
0.0
 11
-31.79515120516324
 21
5.826666104655288
 31
0.0
  0
LINE
  5
F107FF
330
261
100
AcDbEntity
  8
Geo
100
AcDbLine
 10
-31.89515120516323
 20
10.57105462724369
 30
0.0
 11
-31.79515120516324
 21
10.52341938426628
 31
0.0
  0
LINE
  5
F10801
330
261
100
AcDbEntity
  8
Geo
100
AcDbLine
 10
-31.89515120516323
 20
10.21638847132529
 30
0.0
 11
-31.79515120516324
 21
10.16238588627328
 31
0.0
  0
LINE
  5
F10803
330
261
100
AcDbEntity
  8
Geo
100
AcDbLine
 10
-31.79515120516324
 20
6.041871287281189
 30
0.0
 11
-31.69515120516325
 21
5.995656891714091
 31
0.0
  0
LINE
  5
F10805
330
261
100
AcDbEntity
  8
Geo
100
AcDbLine
 10
-31.79515120516324
 20
5.826666104655288
 30
0.0
 11
-31.69515120516325
 21
5.790703627049595
 31
0.0
  0
LINE
  5
F10807
330
261
100
AcDbEntity
  8
Geo
100
AcDbLine
 10
-31.79515120516324
 20
10.52341938426628
 30
0.0
 11
-31.69515120516325
 21
10.47462065869098
 31
0.0
  0
LINE
  5
F10809
330
261
100
AcDbEntity
  8
Geo
100
AcDbLine
 10
-31.79515120516324
 20
10.16238588627328
 30
0.0
 11
-31.69515120516325
 21
10.10741648894939
 31
0.0
  0
LINE
  5
F1080B
330
261
100
AcDbEntity
  8
Geo
100
AcDbLine
 10
-31.69515120516325
 20
5.995656891714091
 30
0.0
 11
-31.59515120516323
 21
5.95102999586119
 31
0.0
  0
LINE
  5
F1080D
330
261
100
AcDbEntity
  8
Geo
100
AcDbLine
 10
-31.69515120516325
 20
5.790703627049595
 30
0.0
 11
-31.59515120516323
 21
5.75646467494559
 31
0.0
  0
LINE
  5
F1080F
330
261
100
AcDbEntity
  8
Geo
100
AcDbLine
 10
-31.69515120516325
 20
10.47462065869098
 30
0.0
 11
-31.59515120516323
 21
10.42468503326219
 31
0.0
  0
LINE
  5
F10811
330
261
100
AcDbEntity
  8
Geo
100
AcDbLine
 10
-31.69515120516325
 20
10.10741648894939
 30
0.0
 11
-31.59515120516323
 21
10.05151022352589
 31
0.0
  0
LINE
  5
F10813
330
261
100
AcDbEntity
  8
Geo
100
AcDbLine
 10
-31.59515120516323
 20
5.95102999586119
 30
0.0
 11
-31.49515120516324
 21
5.908020218224386
 31
0.0
  0
LINE
  5
F10815
330
261
100
AcDbEntity
  8
Geo
100
AcDbLine
 10
-31.59515120516323
 20
5.75646467494559
 30
0.0
 11
-31.49515120516324
 21
5.723971972452588
 31
0.0
  0
LINE
  5
F10817
330
261
100
AcDbEntity
  8
Geo
100
AcDbLine
 10
-31.59515120516323
 20
10.42468503326219
 30
0.0
 11
-31.49515120516324
 21
10.37363971004249
 31
0.0
  0
LINE
  5
F10819
330
261
100
AcDbEntity
  8
Geo
100
AcDbLine
 10
-31.59515120516323
 20
10.05151022352589
 30
0.0
 11
-31.49515120516324
 21
9.994697544527191
 31
0.0
  0
LINE
  5
F1081B
330
261
100
AcDbEntity
  8
Geo
100
AcDbLine
 10
-31.49515120516324
 20
5.908020218224386
 30
0.0
 11
-31.39515120516323
 21
5.866656104037289
 31
0.0
  0
LINE
  5
F1081D
330
261
100
AcDbEntity
  8
Geo
100
AcDbLine
 10
-31.49515120516324
 20
5.723971972452588
 30
0.0
 11
-31.39515120516323
 21
5.693247084708588
 31
0.0
  0
LINE
  5
F1081F
330
261
100
AcDbEntity
  8
Geo
100
AcDbLine
 10
-31.49515120516324
 20
10.37363971004249
 30
0.0
 11
-31.39515120516323
 21
10.32151249559378
 31
0.0
  0
LINE
  5
F10821
330
261
100
AcDbEntity
  8
Geo
100
AcDbLine
 10
-31.49515120516324
 20
9.994697544527191
 30
0.0
 11
-31.39515120516323
 21
9.937009400239588
 31
0.0
  0
LINE
  5
F10823
330
261
100
AcDbEntity
  8
Geo
100
AcDbLine
 10
-31.39515120516323
 20
5.866656104037289
 30
0.0
 11
-31.29515120516324
 21
5.826965106320791
 31
0.0
  0
LINE
  5
F10825
330
261
100
AcDbEntity
  8
Geo
100
AcDbLine
 10
-31.39515120516323
 20
5.693247084708588
 30
0.0
 11
-31.29515120516324
 21
5.664310403567789
 31
0.0
  0
LINE
  5
F10827
330
261
100
AcDbEntity
  8
Geo
100
AcDbLine
 10
-31.39515120516323
 20
10.32151249559378
 30
0.0
 11
-31.29515120516324
 21
10.26833178583038
 31
0.0
  0
LINE
  5
F10829
330
261
100
AcDbEntity
  8
Geo
100
AcDbLine
 10
-31.39515120516323
 20
9.937009400239588
 30
0.0
 11
-31.29515120516324
 21
9.878477215852889
 31
0.0
  0
LINE
  5
F1082B
330
261
100
AcDbEntity
  8
Geo
100
AcDbLine
 10
-31.29515120516324
 20
5.826965106320791
 30
0.0
 11
-31.19515120516324
 21
5.788973567661891
 31
0.0
  0
LINE
  5
F1082D
330
261
100
AcDbEntity
  8
Geo
100
AcDbLine
 10
-31.29515120516324
 20
5.664310403567789
 30
0.0
 11
-31.19515120516324
 21
5.637181134066089
 31
0.0
  0
LINE
  5
F1082F
330
261
100
AcDbEntity
  8
Geo
100
AcDbLine
 10
-31.29515120516324
 20
10.26833178583038
 30
0.0
 11
-31.19515120516324
 21
10.21412655055049
 31
0.0
  0
LINE
  5
F10831
330
261
100
AcDbEntity
  8
Geo
100
AcDbLine
 10
-31.29515120516324
 20
9.878477215852889
 30
0.0
 11
-31.19515120516324
 21
9.819132876341193
 31
0.0
  0
LINE
  5
F10833
330
261
100
AcDbEntity
  8
Geo
100
AcDbLine
 10
-31.19515120516324
 20
5.788973567661891
 30
0.0
 11
-31.09515120516324
 21
5.752706702730684
 31
0.0
  0
LINE
  5
F10835
330
261
100
AcDbEntity
  8
Geo
100
AcDbLine
 10
-31.19515120516324
 20
5.637181134066089
 30
0.0
 11
-31.09515120516324
 21
5.61187728167539
 31
0.0
  0
LINE
  5
F10837
330
261
100
AcDbEntity
  8
Geo
100
AcDbLine
 10
-31.19515120516324
 20
10.21412655055049
 30
0.0
 11
-31.09515120516324
 21
10.15892631765459
 31
0.0
  0
LINE
  5
F10839
330
261
100
AcDbEntity
  8
Geo
100
AcDbLine
 10
-31.19515120516324
 20
9.819132876341193
 30
0.0
 11
-31.09515120516324
 21
9.759008709094388
 31
0.0
  0
LINE
  5
F1083B
330
261
100
AcDbEntity
  8
Geo
100
AcDbLine
 10
-31.09515120516324
 20
5.752706702730684
 30
0.0
 11
-30.99515120516324
 21
5.718188581545589
 31
0.0
  0
LINE
  5
F1083D
330
261
100
AcDbEntity
  8
Geo
100
AcDbLine
 10
-31.09515120516324
 20
5.61187728167539
 30
0.0
 11
-30.99515120516324
 21
5.588415640353389
 31
0.0
  0
LINE
  5
F1083F
330
261
100
AcDbEntity
  8
Geo
100
AcDbLine
 10
-31.09515120516324
 20
10.15892631765459
 30
0.0
 11
-30.99515120516324
 21
10.10276115706129
 31
0.0
  0
LINE
  5
F10841
330
261
100
AcDbEntity
  8
Geo
100
AcDbLine
 10
-31.09515120516324
 20
9.759008709094388
 30
0.0
 11
-30.99515120516324
 21
9.698137466307493
 31
0.0
  0
LINE
  5
F10843
330
261
100
AcDbEntity
  8
Geo
100
AcDbLine
 10
-30.99515120516324
 20
5.718188581545589
 30
0.0
 11
-30.89515120516323
 21
5.685442113498289
 31
0.0
  0
LINE
  5
F10845
330
261
100
AcDbEntity
  8
Geo
100
AcDbLine
 10
-30.99515120516324
 20
5.588415640353389
 30
0.0
 11
-30.89515120516323
 21
5.56681178139739
 31
0.0
  0
LINE
  5
F10847
330
261
100
AcDbEntity
  8
Geo
100
AcDbLine
 10
-30.99515120516324
 20
10.10276115706129
 30
0.0
 11
-30.89515120516323
 21
10.04566166432589
 31
0.0
  0
LINE
  5
F10849
330
261
100
AcDbEntity
  8
Geo
100
AcDbLine
 10
-30.99515120516324
 20
9.698137466307493
 30
0.0
 11
-30.89515120516323
 21
9.636552307139488
 31
0.0
  0
LINE
  5
F1084B
330
261
100
AcDbEntity
  8
Geo
100
AcDbLine
 10
-30.89515120516323
 20
5.685442113498289
 30
0.0
 11
-30.79515120516324
 21
5.654489032148987
 31
0.0
  0
LINE
  5
F1084D
330
261
100
AcDbEntity
  8
Geo
100
AcDbLine
 10
-30.89515120516323
 20
5.56681178139739
 30
0.0
 11
-30.79515120516324
 21
5.547080043110184
 31
0.0
  0
LINE
  5
F1084F
330
261
100
AcDbEntity
  8
Geo
100
AcDbLine
 10
-30.89515120516323
 20
10.04566166432589
 30
0.0
 11
-30.79515120516324
 21
9.987658943974587
 31
0.0
  0
LINE
  5
F10851
330
261
100
AcDbEntity
  8
Geo
100
AcDbLine
 10
-30.89515120516323
 20
9.636552307139488
 30
0.0
 11
-30.79515120516324
 21
9.574286779650087
 31
0.0
  0
LINE
  5
F10853
330
261
100
AcDbEntity
  8
Geo
100
AcDbLine
 10
-30.79515120516324
 20
5.654489032148987
 30
0.0
 11
-30.69515120516324
 21
5.625349880801792
 31
0.0
  0
LINE
  5
F10855
330
261
100
AcDbEntity
  8
Geo
100
AcDbLine
 10
-30.79515120516324
 20
5.547080043110184
 30
0.0
 11
-30.69515120516324
 21
5.529233521283089
 31
0.0
  0
LINE
  5
F10857
330
261
100
AcDbEntity
  8
Geo
100
AcDbLine
 10
-30.79515120516324
 20
9.987658943974587
 30
0.0
 11
-30.69515120516324
 21
9.928784592560091
 31
0.0
  0
LINE
  5
F10859
330
261
100
AcDbEntity
  8
Geo
100
AcDbLine
 10
-30.79515120516324
 20
9.574286779650087
 30
0.0
 11
-30.69515120516324
 21
9.511374802524592
 31
0.0
  0
LINE
  5
F1085B
330
261
100
AcDbEntity
  8
Geo
100
AcDbLine
 10
-30.69515120516324
 20
5.625349880801792
 30
0.0
 11
-30.59515120516323
 21
5.598043998870593
 31
0.0
  0
LINE
  5
F1085D
330
261
100
AcDbEntity
  8
Geo
100
AcDbLine
 10
-30.69515120516324
 20
5.529233521283089
 30
0.0
 11
-30.59515120516323
 21
5.513284060505291
 31
0.0
  0
LINE
  5
F1085F
330
261
100
AcDbEntity
  8
Geo
100
AcDbLine
 10
-30.69515120516324
 20
9.928784592560091
 30
0.0
 11
-30.59515120516323
 21
9.869070681449485
 31
0.0
  0
LINE
  5
F10861
330
261
100
AcDbEntity
  8
Geo
100
AcDbLine
 10
-30.69515120516324
 20
9.511374802524592
 30
0.0
 11
-30.59515120516323
 21
9.44785064659699
 31
0.0
  0
LINE
  5
F10863
330
261
100
AcDbEntity
  8
Geo
100
AcDbLine
 10
-30.59515120516323
 20
5.598043998870593
 30
0.0
 11
-30.49515120516324
 21
5.572589509043588
 31
0.0
  0
LINE
  5
F10865
330
261
100
AcDbEntity
  8
Geo
100
AcDbLine
 10
-30.59515120516323
 20
5.513284060505291
 30
0.0
 11
-30.49515120516324
 21
5.499242246301989
 31
0.0
  0
LINE
  5
F10867
330
261
100
AcDbEntity
  8
Geo
100
AcDbLine
 10
-30.59515120516323
 20
9.869070681449485
 30
0.0
 11
-30.49515120516324
 21
9.808549739353885
 31
0.0
  0
LINE
  5
F10869
330
261
100
AcDbEntity
  8
Geo
100
AcDbLine
 10
-30.59515120516323
 20
9.44785064659699
 30
0.0
 11
-30.49515120516324
 21
9.383748916180884
 31
0.0
  0
LINE
  5
F1086B
330
261
100
AcDbEntity
  8
Geo
100
AcDbLine
 10
-30.49515120516324
 20
5.572589509043588
 30
0.0
 11
-30.39515120516323
 21
5.549003305255091
 31
0.0
  0
LINE
  5
F1086D
330
261
100
AcDbEntity
  8
Geo
100
AcDbLine
 10
-30.49515120516324
 20
5.499242246301989
 30
0.0
 11
-30.39515120516323
 21
5.487117398109184
 31
0.0
  0
LINE
  5
F1086F
330
261
100
AcDbEntity
  8
Geo
100
AcDbLine
 10
-30.49515120516324
 20
9.808549739353885
 30
0.0
 11
-30.39515120516323
 21
9.747254734608787
 31
0.0
  0
LINE
  5
F10871
330
261
100
AcDbEntity
  8
Geo
100
AcDbLine
 10
-30.49515120516324
 20
9.383748916180884
 30
0.0
 11
-30.39515120516323
 21
9.319104530219689
 31
0.0
  0
LINE
  5
F10873
330
261
100
AcDbEntity
  8
Geo
100
AcDbLine
 10
-30.39515120516323
 20
5.549003305255091
 30
0.0
 11
-30.29515120516324
 21
5.527301041473684
 31
0.0
  0
LINE
  5
F10875
330
261
100
AcDbEntity
  8
Geo
100
AcDbLine
 10
-30.39515120516323
 20
5.487117398109184
 30
0.0
 11
-30.29515120516324
 21
5.476917563088484
 31
0.0
  0
LINE
  5
F10877
330
261
100
AcDbEntity
  8
Geo
100
AcDbLine
 10
-30.39515120516323
 20
9.747254734608787
 30
0.0
 11
-30.29515120516324
 21
9.685219057214091
 31
0.0
  0
LINE
  5
F10879
330
261
100
AcDbEntity
  8
Geo
100
AcDbLine
 10
-30.39515120516323
 20
9.319104530219689
 30
0.0
 11
-30.29515120516324
 21
9.25395270326409
 31
0.0
  0
LINE
  5
F1087B
330
261
100
AcDbEntity
  8
Geo
100
AcDbLine
 10
-30.29515120516324
 20
5.527301041473684
 30
0.0
 11
-30.19515120516324
 21
5.50749712131239
 31
0.0
  0
LINE
  5
F1087D
330
261
100
AcDbEntity
  8
Geo
100
AcDbLine
 10
-30.29515120516324
 20
5.476917563088484
 30
0.0
 11
-30.19515120516324
 21
5.468649510785887
 31
0.0
  0
LINE
  5
F1087F
330
261
100
AcDbEntity
  8
Geo
100
AcDbLine
 10
-30.29515120516324
 20
9.685219057214091
 30
0.0
 11
-30.19515120516324
 21
9.622476500646193
 31
0.0
  0
LINE
  5
F10881
330
261
100
AcDbEntity
  8
Geo
100
AcDbLine
 10
-30.29515120516324
 20
9.25395270326409
 30
0.0
 11
-30.19515120516324
 21
9.188328926289692
 31
0.0
  0
LINE
  5
F10883
330
261
100
AcDbEntity
  8
Geo
100
AcDbLine
 10
-30.19515120516324
 20
5.50749712131239
 30
0.0
 11
-30.09515120516323
 21
5.489604688469292
 31
0.0
  0
LINE
  5
F10885
330
261
100
AcDbEntity
  8
Geo
100
AcDbLine
 10
-30.19515120516324
 20
5.468649510785887
 30
0.0
 11
-30.09515120516323
 21
5.462318728639488
 31
0.0
  0
LINE
  5
F10887
330
261
100
AcDbEntity
  8
Geo
100
AcDbLine
 10
-30.19515120516324
 20
9.622476500646193
 30
0.0
 11
-30.09515120516323
 21
9.559061243448283
 31
0.0
  0
LINE
  5
F10889
330
261
100
AcDbEntity
  8
Geo
100
AcDbLine
 10
-30.19515120516324
 20
9.188328926289692
 30
0.0
 11
-30.09515120516323
 21
9.122268947363387
 31
0.0
  0
LINE
  5
F1088B
330
261
100
AcDbEntity
  8
Geo
100
AcDbLine
 10
-30.09515120516323
 20
5.489604688469292
 30
0.0
 11
-29.99515120516324
 21
5.473635618004188
 31
0.0
  0
LINE
  5
F1088D
330
261
100
AcDbEntity
  8
Geo
100
AcDbLine
 10
-30.09515120516323
 20
5.462318728639488
 30
0.0
 11
-29.99515120516324
 21
5.457929418336988
 31
0.0
  0
LINE
  5
F1088F
330
261
100
AcDbEntity
  8
Geo
100
AcDbLine
 10
-30.09515120516323
 20
9.559061243448283
 30
0.0
 11
-29.99515120516324
 21
9.495007830612387
 31
0.0
  0
LINE
  5
F10891
330
261
100
AcDbEntity
  8
Geo
100
AcDbLine
 10
-30.09515120516323
 20
9.122268947363387
 30
0.0
 11
-29.99515120516324
 21
9.055808752169696
 31
0.0
  0
LINE
  5
F10893
330
261
100
AcDbEntity
  8
Geo
100
AcDbLine
 10
-29.99515120516324
 20
5.473635618004188
 30
0.0
 11
-29.89515120516323
 21
5.459600508457093
 31
0.0
  0
LINE
  5
F10895
330
261
100
AcDbEntity
  8
Geo
100
AcDbLine
 10
-29.99515120516324
 20
5.457929418336988
 30
0.0
 11
-29.89515120516323
 21
5.455484493027491
 31
0.0
  0
LINE
  5
F10897
330
261
100
AcDbEntity
  8
Geo
100
AcDbLine
 10
-29.99515120516324
 20
9.495007830612387
 30
0.0
 11
-29.89515120516323
 21
9.43035115476119
 31
0.0
  0
LINE
  5
F10899
330
261
100
AcDbEntity
  8
Geo
100
AcDbLine
 10
-29.99515120516324
 20
9.055808752169696
 30
0.0
 11
-29.89515120516323
 21
8.98898454440809
 31
0.0
  0
LINE
  5
F1089B
330
261
100
AcDbEntity
  8
Geo
100
AcDbLine
 10
-29.89515120516323
 20
5.459600508457093
 30
0.0
 11
-29.79515120516324
 21
5.447508674814187
 31
0.0
  0
LINE
  5
F1089D
330
261
100
AcDbEntity
  8
Geo
100
AcDbLine
 10
-29.89515120516323
 20
9.43035115476119
 30
0.0
 11
-29.79515120516324
 21
9.36512643714019
 31
0.0
  0
LINE
  5
F1089F
330
261
100
AcDbEntity
  8
Geo
100
AcDbLine
 10
-29.89515120516323
 20
8.98898454440809
 30
0.0
 11
-29.79515120516324
 21
8.921832726071194
 31
0.0
  0
LINE
  5
F108A1
330
261
100
AcDbEntity
  8
Geo
100
AcDbLine
 10
-29.79515120516324
 20
5.447508674814187
 30
0.0
 11
-29.69515120516324
 21
5.437368142325588
 31
0.0
  0
LINE
  5
F108A3
330
261
100
AcDbEntity
  8
Geo
100
AcDbLine
 10
-29.79515120516324
 20
11.32017478916749
 30
0.0
 11
-29.69515120516324
 21
11.31872736801028
 31
0.0
  0
LINE
  5
F108A5
330
261
100
AcDbEntity
  8
Geo
100
AcDbLine
 10
-29.79515120516324
 20
9.36512643714019
 30
0.0
 11
-29.69515120516324
 21
9.299369208431691
 31
0.0
  0
LINE
  5
F108A7
330
261
100
AcDbEntity
  8
Geo
100
AcDbLine
 10
-29.79515120516324
 20
8.921832726071194
 30
0.0
 11
-29.69515120516324
 21
8.854389877615091
 31
0.0
  0
LINE
  5
F108A9
330
261
100
AcDbEntity
  8
Geo
100
AcDbLine
 10
-29.69515120516324
 20
5.437368142325588
 30
0.0
 11
-29.59515120516324
 21
5.42918564117869
 31
0.0
  0
LINE
  5
F108AB
330
261
100
AcDbEntity
  8
Geo
100
AcDbLine
 10
-29.69515120516324
 20
11.31872736801028
 30
0.0
 11
-29.59515120516324
 21
11.31533456869739
 31
0.0
  0
LINE
  5
F108AD
330
261
100
AcDbEntity
  8
Geo
100
AcDbLine
 10
-29.69515120516324
 20
9.299369208431691
 30
0.0
 11
-29.59515120516324
 21
9.233115289399286
 31
0.0
  0
LINE
  5
F108AF
330
261
100
AcDbEntity
  8
Geo
100
AcDbLine
 10
-29.69515120516324
 20
8.854389877615091
 30
0.0
 11
-29.59515120516324
 21
8.786692738032286
 31
0.0
  0
LINE
  5
F108B1
330
261
100
AcDbEntity
  8
Geo
100
AcDbLine
 10
-29.59515120516324
 20
5.42918564117869
 30
0.0
 11
-29.49515120516324
 21
5.42296660203209
 31
0.0
  0
LINE
  5
F108B3
330
261
100
AcDbEntity
  8
Geo
100
AcDbLine
 10
-29.59515120516324
 20
11.31533456869739
 30
0.0
 11
-29.49515120516324
 21
11.30999864300169
 31
0.0
  0
LINE
  5
F108B5
330
261
100
AcDbEntity
  8
Geo
100
AcDbLine
 10
-29.59515120516324
 20
9.233115289399286
 30
0.0
 11
-29.49515120516324
 21
9.166400771375194
 31
0.0
  0
LINE
  5
F108B7
330
261
100
AcDbEntity
  8
Geo
100
AcDbLine
 10
-29.59515120516324
 20
8.786692738032286
 30
0.0
 11
-29.49515120516324
 21
8.718778184838591
 31
0.0
  0
LINE
  5
F108B9
330
261
100
AcDbEntity
  8
Geo
100
AcDbLine
 10
-29.49515120516324
 20
5.42296660203209
 30
0.0
 11
-29.39515120516323
 21
5.418715152410491
 31
0.0
  0
LINE
  5
F108BB
330
261
100
AcDbEntity
  8
Geo
100
AcDbLine
 10
-29.49515120516324
 20
11.30999864300169
 30
0.0
 11
-29.39515120516323
 21
11.30272313233299
 31
0.0
  0
LINE
  5
F108BD
330
261
100
AcDbEntity
  8
Geo
100
AcDbLine
 10
-29.49515120516324
 20
9.166400771375194
 30
0.0
 11
-29.39515120516323
 21
9.099261996599089
 31
0.0
  0
LINE
  5
F108BF
330
261
100
AcDbEntity
  8
Geo
100
AcDbLine
 10
-29.49515120516324
 20
8.718778184838591
 30
0.0
 11
-29.39515120516323
 21
8.650683213984194
 31
0.0
  0
LINE
  5
F108C1
330
261
100
AcDbEntity
  8
Geo
100
AcDbLine
 10
-29.39515120516323
 20
5.418715152410491
 30
0.0
 11
-29.29515120516324
 21
5.416434113965884
 31
0.0
  0
LINE
  5
F108C3
330
261
100
AcDbEntity
  8
Geo
100
AcDbLine
 10
-29.39515120516323
 20
11.30272313233299
 30
0.0
 11
-29.29515120516324
 21
11.29351286538749
 31
0.0
  0
LINE
  5
F108C5
330
261
100
AcDbEntity
  8
Geo
100
AcDbLine
 10
-29.39515120516323
 20
9.099261996599089
 30
0.0
 11
-29.29515120516324
 21
9.031735538421884
 31
0.0
  0
LINE
  5
F108C7
330
261
100
AcDbEntity
  8
Geo
100
AcDbLine
 10
-29.39515120516323
 20
8.650683213984194
 30
0.0
 11
-29.29515120516324
 21
8.582444919700485
 31
0.0
  0
LINE
  5
F108C9
330
261
100
AcDbEntity
  8
Geo
100
AcDbLine
 10
-29.29515120516324
 20
11.29351286538749
 30
0.0
 11
-29.19515120516324
 21
11.28237395494329
 31
0.0
  0
LINE
  5
F108CB
330
261
100
AcDbEntity
  8
Geo
100
AcDbLine
 10
-29.29515120516324
 20
9.031735538421884
 30
0.0
 11
-29.19515120516324
 21
8.963858181381688
 31
0.0
  0
LINE
  5
F108CD
330
261
100
AcDbEntity
  8
Geo
100
AcDbLine
 10
-29.29515120516324
 20
8.582444919700485
 30
0.0
 11
-29.19515120516324
 21
8.514100474293194
 31
0.0
  0
LINE
  5
F108CF
330
261
100
AcDbEntity
  8
Geo
100
AcDbLine
 10
-29.19515120516324
 20
11.35903536395039
 30
0.0
 11
-29.09515120516323
 21
11.35737234707219
 31
0.0
  0
LINE
  5
F108D1
330
261
100
AcDbEntity
  8
Geo
100
AcDbLine
 10
-29.19515120516324
 20
11.28237395494329
 30
0.0
 11
-29.09515120516323
 21
11.26931379380309
 31
0.0
  0
LINE
  5
F108D3
330
261
100
AcDbEntity
  8
Geo
100
AcDbLine
 10
-29.19515120516324
 20
8.963858181381688
 30
0.0
 11
-29.09515120516323
 21
8.895666901166592
 31
0.0
  0
LINE
  5
F108D5
330
261
100
AcDbEntity
  8
Geo
100
AcDbLine
 10
-29.19515120516324
 20
8.514100474293194
 30
0.0
 11
-29.09515120516323
 21
8.445687107893284
 31
0.0
  0
LINE
  5
F108D7
330
261
100
AcDbEntity
  8
Geo
100
AcDbLine
 10
-29.09515120516323
 20
11.35737234707219
 30
0.0
 11
-28.99515120516324
 21
11.35373830368529
 31
0.0
  0
LINE
  5
F108D9
330
261
100
AcDbEntity
  8
Geo
100
AcDbLine
 10
-29.09515120516323
 20
11.26931379380309
 30
0.0
 11
-28.99515120516324
 21
11.25434104988799
 31
0.0
  0
LINE
  5
F108DB
330
261
100
AcDbEntity
  8
Geo
100
AcDbLine
 10
-29.09515120516323
 20
8.895666901166592
 30
0.0
 11
-28.99515120516324
 21
8.827198844471787
 31
0.0
  0
LINE
  5
F108DD
330
261
100
AcDbEntity
  8
Geo
100
AcDbLine
 10
-29.09515120516323
 20
8.445687107893284
 30
0.0
 11
-28.99515120516324
 21
8.377242088175691
 31
0.0
  0
LINE
  5
F108DF
330
261
100
AcDbEntity
  8
Geo
100
AcDbLine
 10
-28.99515120516324
 20
11.35373830368529
 30
0.0
 11
-28.89515120516323
 21
11.34813564567409
 31
0.0
  0
LINE
  5
F108E1
330
261
100
AcDbEntity
  8
Geo
100
AcDbLine
 10
-28.99515120516324
 20
11.25434104988799
 30
0.0
 11
-28.89515120516323
 21
11.23746566048419
 31
0.0
  0
LINE
  5
F108E3
330
261
100
AcDbEntity
  8
Geo
100
AcDbLine
 10
-28.99515120516324
 20
8.827198844471787
 30
0.0
 11
-28.89515120516323
 21
8.758491308764284
 31
0.0
  0
LINE
  5
F108E5
330
261
100
AcDbEntity
  8
Geo
100
AcDbLine
 10
-28.99515120516324
 20
8.377242088175691
 30
0.0
 11
-28.89515120516323
 21
8.308802700058286
 31
0.0
  0
LINE
  5
F108E7
330
261
100
AcDbEntity
  8
Geo
100
AcDbLine
 10
-28.89515120516323
 20
11.34813564567409
 30
0.0
 11
-28.79515120516323
 21
11.34056809147649
 31
0.0
  0
LINE
  5
F108E9
330
261
100
AcDbEntity
  8
Geo
100
AcDbLine
 10
-28.89515120516323
 20
11.23746566048419
 30
0.0
 11
-28.79515120516323
 21
11.21869882564829
 31
0.0
  0
LINE
  5
F108EB
330
261
100
AcDbEntity
  8
Geo
100
AcDbLine
 10
-28.89515120516323
 20
8.758491308764284
 30
0.0
 11
-28.79515120516323
 21
8.689581721965694
 31
0.0
  0
LINE
  5
F108ED
330
261
100
AcDbEntity
  8
Geo
100
AcDbLine
 10
-28.89515120516323
 20
8.308802700058286
 30
0.0
 11
-28.79515120516323
 21
8.240406225391289
 31
0.0
  0
LINE
  5
F108EF
330
261
100
AcDbEntity
  8
Geo
100
AcDbLine
 10
-28.79515120516323
 20
11.34056809147649
 30
0.0
 11
-28.69515120516324
 21
11.33104066361559
 31
0.0
  0
LINE
  5
F108F1
330
261
100
AcDbEntity
  8
Geo
100
AcDbLine
 10
-28.79515120516323
 20
11.21869882564829
 30
0.0
 11
-28.69515120516324
 21
11.19805300077328
 31
0.0
  0
LINE
  5
F108F3
330
261
100
AcDbEntity
  8
Geo
100
AcDbLine
 10
-28.79515120516323
 20
8.689581721965694
 30
0.0
 11
-28.69515120516324
 21
8.620507622063591
 31
0.0
  0
LINE
  5
F108F5
330
261
100
AcDbEntity
  8
Geo
100
AcDbLine
 10
-28.79515120516323
 20
8.240406225391289
 30
0.0
 11
-28.69515120516324
 21
8.17208992264819
 31
0.0
  0
LINE
  5
F108F7
330
261
100
AcDbEntity
  8
Geo
100
AcDbLine
 10
-28.69515120516324
 20
11.33104066361559
 30
0.0
 11
-28.59515120516324
 21
11.31955968536649
 31
0.0
  0
LINE
  5
F108F9
330
261
100
AcDbEntity
  8
Geo
100
AcDbLine
 10
-28.69515120516324
 20
11.19805300077328
 30
0.0
 11
-28.59515120516324
 21
11.17554188832259
 31
0.0
  0
LINE
  5
F108FB
330
261
100
AcDbEntity
  8
Geo
100
AcDbLine
 10
-28.69515120516324
 20
8.620507622063591
 30
0.0
 11
-28.59515120516324
 21
8.551306636662488
 31
0.0
  0
LINE
  5
F108FD
330
261
100
AcDbEntity
  8
Geo
100
AcDbLine
 10
-28.69515120516324
 20
8.17208992264819
 30
0.0
 11
-28.59515120516324
 21
8.103891006629091
 31
0.0
  0
LINE
  5
F108FF
330
261
100
AcDbEntity
  8
Geo
100
AcDbLine
 10
-28.59515120516324
 20
11.31955968536649
 30
0.0
 11
-28.49515120516324
 21
11.30613277655959
 31
0.0
  0
LINE
  5
F10901
330
261
100
AcDbEntity
  8
Geo
100
AcDbLine
 10
-28.59515120516324
 20
11.17554188832259
 30
0.0
 11
-28.49515120516324
 21
11.15118042873538
 31
0.0
  0
LINE
  5
F10903
330
261
100
AcDbEntity
  8
Geo
100
AcDbLine
 10
-28.59515120516324
 20
8.551306636662488
 30
0.0
 11
-28.49515120516324
 21
8.482016462487088
 31
0.0
  0
LINE
  5
F10905
330
261
100
AcDbEntity
  8
Geo
100
AcDbLine
 10
-28.59515120516324
 20
8.103891006629091
 30
0.0
 11
-28.49515120516324
 21
8.035846628188785
 31
0.0
  0
LINE
  5
F10907
330
261
100
AcDbEntity
  8
Geo
100
AcDbLine
 10
-28.49515120516324
 20
11.30613277655959
 30
0.0
 11
-28.39515120516323
 21
11.29076884852319
 31
0.0
  0
LINE
  5
F10909
330
261
100
AcDbEntity
  8
Geo
100
AcDbLine
 10
-28.49515120516324
 20
11.15118042873538
 30
0.0
 11
-28.39515120516323
 21
11.12498479051109
 31
0.0
  0
LINE
  5
F1090B
330
261
100
AcDbEntity
  8
Geo
100
AcDbLine
 10
-28.49515120516324
 20
8.482016462487088
 30
0.0
 11
-28.39515120516323
 21
8.412674844846883
 31
0.0
  0
LINE
  5
F1090D
330
261
100
AcDbEntity
  8
Geo
100
AcDbLine
 10
-28.49515120516324
 20
8.035846628188785
 30
0.0
 11
-28.39515120516323
 21
7.96799385399899
 31
0.0
  0
LINE
  5
F1090F
330
261
100
AcDbEntity
  8
Geo
100
AcDbLine
 10
-28.39515120516323
 20
11.29076884852319
 30
0.0
 11
-28.29515120516324
 21
11.27347809816938
 31
0.0
  0
LINE
  5
F10911
330
261
100
AcDbEntity
  8
Geo
100
AcDbLine
 10
-28.39515120516323
 20
11.12498479051109
 30
0.0
 11
-28.29515120516324
 21
11.09697235947799
 31
0.0
  0
LINE
  5
F10913
330
261
100
AcDbEntity
  8
Geo
100
AcDbLine
 10
-28.39515120516323
 20
8.412674844846883
 30
0.0
 11
-28.29515120516324
 21
8.343319557075091
 31
0.0
  0
LINE
  5
F10915
330
261
100
AcDbEntity
  8
Geo
100
AcDbLine
 10
-28.39515120516323
 20
7.96799385399899
 30
0.0
 11
-28.29515120516324
 21
7.900369646356189
 31
0.0
  0
LINE
  5
F10917
330
261
100
AcDbEntity
  8
Geo
100
AcDbLine
 10
-28.29515120516324
 20
11.27347809816938
 30
0.0
 11
-28.19515120516324
 21
11.25427200122628
 31
0.0
  0
LINE
  5
F10919
330
261
100
AcDbEntity
  8
Geo
100
AcDbLine
 10
-28.29515120516324
 20
11.09697235947799
 30
0.0
 11
-28.19515120516324
 21
11.06716172725528
 31
0.0
  0
LINE
  5
F1091B
330
261
100
AcDbEntity
  8
Geo
100
AcDbLine
 10
-28.29515120516324
 20
8.343319557075091
 30
0.0
 11
-28.19515120516324
 21
8.273988379951283
 31
0.0
  0
LINE
  5
F1091D
330
261
100
AcDbEntity
  8
Geo
100
AcDbLine
 10
-28.29515120516324
 20
7.900369646356189
 30
0.0
 11
-28.19515120516324
 21
7.833010843046885
 31
0.0
  0
LINE
  5
F1091F
330
261
100
AcDbEntity
  8
Geo
100
AcDbLine
 10
-28.19515120516324
 20
11.25427200122628
 30
0.0
 11
-28.09515120516323
 21
11.23316330462159
 31
0.0
  0
LINE
  5
F10921
330
261
100
AcDbEntity
  8
Geo
100
AcDbLine
 10
-28.19515120516324
 20
11.06716172725528
 30
0.0
 11
-28.09515120516323
 21
11.03557267891299
 31
0.0
  0
LINE
  5
F10923
330
261
100
AcDbEntity
  8
Geo
100
AcDbLine
 10
-28.19515120516324
 20
8.273988379951283
 30
0.0
 11
-28.09515120516323
 21
8.204719081121091
 31
0.0
  0
LINE
  5
F10925
330
261
100
AcDbEntity
  8
Geo
100
AcDbLine
 10
-28.19515120516324
 20
7.833010843046885
 30
0.0
 11
-28.09515120516323
 21
7.765954137280886
 31
0.0
  0
LINE
  5
F10927
330
261
100
AcDbEntity
  8
Geo
100
AcDbLine
 10
-28.09515120516323
 20
11.23316330462159
 30
0.0
 11
-27.99515120516324
 21
11.21016601802269
 31
0.0
  0
LINE
  5
F10929
330
261
100
AcDbEntity
  8
Geo
100
AcDbLine
 10
-28.09515120516323
 20
11.03557267891299
 30
0.0
 11
-27.99515120516324
 21
11.00222617984129
 31
0.0
  0
LINE
  5
F1092B
330
261
100
AcDbEntity
  8
Geo
100
AcDbLine
 10
-28.09515120516323
 20
8.204719081121091
 30
0.0
 11
-27.99515120516324
 21
8.135549394522385
 31
0.0
  0
LINE
  5
F1092D
330
261
100
AcDbEntity
  8
Geo
100
AcDbLine
 10
-28.09515120516323
 20
7.765954137280886
 30
0.0
 11
-27.99515120516324
 21
7.699236057702194
 31
0.0
  0
LINE
  5
F1092F
330
261
100
AcDbEntity
  8
Geo
100
AcDbLine
 10
-27.99515120516324
 20
11.21016601802269
 30
0.0
 11
-27.89515120516323
 21
11.18529540453869
 31
0.0
  0
LINE
  5
F10931
330
261
100
AcDbEntity
  8
Geo
100
AcDbLine
 10
-27.99515120516324
 20
11.00222617984129
 30
0.0
 11
-27.89515120516323
 21
10.96714436183609
 31
0.0
  0
LINE
  5
F10933
330
261
100
AcDbEntity
  8
Geo
100
AcDbLine
 10
-27.99515120516324
 20
8.135549394522385
 30
0.0
 11
-27.89515120516323
 21
8.066516999830092
 31
0.0
  0
LINE
  5
F10935
330
261
100
AcDbEntity
  8
Geo
100
AcDbLine
 10
-27.99515120516324
 20
7.699236057702194
 30
0.0
 11
-27.89515120516323
 21
7.632892948490884
 31
0.0
  0
LINE
  5
F10937
330
261
100
AcDbEntity
  8
Geo
100
AcDbLine
 10
-37.89515120516325
 20
8.387580182277488
 30
0.0
 11
-37.89515120516325
 21
8.387580182277488
 31
0.0
  0
LINE
  5
F10939
330
261
100
AcDbEntity
  8
Geo
100
AcDbLine
 10
-37.89515120516325
 20
8.387580182277488
 30
0.0
 11
-37.89515120516325
 21
8.387580182277488
 31
0.0
  0
LINE
  5
F1093B
330
261
100
AcDbEntity
  8
Geo
100
AcDbLine
 10
-38.89515120516325
 20
8.387580182277488
 30
0.0
 11
-38.59515120516325
 21
8.387580182277488
 31
0.0
  0
LINE
  5
F1093D
330
261
100
AcDbEntity
  8
Geo
100
AcDbLine
 10
-38.46765120516325
 20
8.387580182277488
 30
0.0
 11
-38.38265120516324
 21
8.387580182277488
 31
0.0
  0
LINE
  5
F1093F
330
261
100
AcDbEntity
  8
Geo
100
AcDbLine
 10
-38.17015120516325
 20
8.387580182277488
 30
0.0
 11
-37.74515120516325
 21
8.387580182277488
 31
0.0
  0
LINE
  5
F10941
330
261
100
AcDbEntity
  8
Geo
100
AcDbLine
 10
-37.61765120516324
 20
8.387580182277488
 30
0.0
 11
-37.53265120516325
 21
8.387580182277488
 31
0.0
  0
LINE
  5
F10943
330
261
100
AcDbEntity
  8
Geo
100
AcDbLine
 10
-37.32015120516325
 20
8.387580182277488
 30
0.0
 11
-36.89515120516325
 21
8.387580182277488
 31
0.0
  0
LINE
  5
F10945
330
261
100
AcDbEntity
  8
Geo
100
AcDbLine
 10
16.10484879483675
 20
11.08758018227748
 30
0.0
 11
16.10484879483675
 21
8.387580182277488
 31
0.0
  0
LINE
  5
F10947
330
261
100
AcDbEntity
  8
Geo
100
AcDbLine
 10
-37.89515120516325
 20
8.387580182277488
 30
0.0
 11
-37.89515120516325
 21
5.537580182277487
 31
0.0
  0
LINE
  5
F10949
330
261
100
AcDbEntity
  8
Geo
100
AcDbLine
 10
-37.89515120516325
 20
5.537580182277487
 30
0.0
 11
-37.74515120516325
 21
5.387580182277488
 31
0.0
  0
LINE
  5
F1094B
330
261
100
AcDbEntity
  8
Geo
100
AcDbLine
 10
-37.74515120516325
 20
5.387580182277488
 30
0.0
 11
-19.89515120516323
 21
5.387580182277488
 31
0.0
  0
LINE
  5
F1094D
330
261
100
AcDbEntity
  8
Geo
100
AcDbLine
 10
-19.89515120516323
 20
5.387580182277488
 30
0.0
 11
15.80484879483676
 21
5.387580182277488
 31
0.0
  0
LINE
  5
F1094F
330
261
100
AcDbEntity
  8
Geo
100
AcDbLine
 10
15.80484879483676
 20
5.387580182277488
 30
0.0
 11
16.10484879483675
 21
5.687580182277486
 31
0.0
  0
LINE
  5
F10951
330
261
100
AcDbEntity
  8
Geo
100
AcDbLine
 10
-37.89515120516325
 20
11.23758018227749
 30
0.0
 11
-37.89515120516325
 21
5.537580182277487
 31
0.0
  0
LINE
  5
F10953
330
261
100
AcDbEntity
  8
Geo
100
AcDbLine
 10
-37.74515120516325
 20
11.38758018227749
 30
0.0
 11
-37.74515120516325
 21
5.387580182277488
 31
0.0
  0
LINE
  5
F10955
330
261
100
AcDbEntity
  8
Geo
100
AcDbLine
 10
-37.74515120516325
 20
11.38758018227749
 30
0.0
 11
-37.74515120516325
 21
5.387580182277488
 31
0.0
  0
LINE
  5
F10957
330
261
100
AcDbEntity
  8
Geo
100
AcDbLine
 10
-19.89515120516323
 20
11.38758018227749
 30
0.0
 11
-19.89515120516323
 21
5.387580182277488
 31
0.0
  0
LINE
  5
F10959
330
261
100
AcDbEntity
  8
Geo
100
AcDbLine
 10
-19.89515120516323
 20
11.38758018227749
 30
0.0
 11
-19.89515120516323
 21
5.387580182277488
 31
0.0
  0
LINE
  5
F1095B
330
261
100
AcDbEntity
  8
Geo
100
AcDbLine
 10
15.80484879483676
 20
11.38758018227749
 30
0.0
 11
15.80484879483676
 21
5.387580182277488
 31
0.0
  0
LINE
  5
F1095D
330
261
100
AcDbEntity
  8
Geo
100
AcDbLine
 10
16.10484879483675
 20
11.08758018227748
 30
0.0
 11
16.10484879483675
 21
5.687580182277486
 31
0.0
  0
TEXT
  5
F10981
330
261
100
AcDbEntity
  8
Text
100
AcDbText
 10
-8.432642487046619
 20
-53.2625215889465
 30
0.0
 40
2.0
  1

100
AcDbText
  0
TEXT
  5
F10991
330
261
100
AcDbEntity
  8
Text
100
AcDbText
 10
-8.432642487046619
 20
-61.15112262521591
 30
0.0
 40
2.0
  1

100
AcDbText
  0
TEXT
  5
F10A35
330
261
100
AcDbEntity
  8
Text
100
AcDbText
 10
85.1424870466322
 20
-55.04404145077721
 30
0.0
 40
1.5
  1

100
AcDbText
  0
TEXT
  5
F10A39
330
261
100
AcDbEntity
  8
Text
100
AcDbText
 10
115.064766839378
 20
-55.04404145077721
 30
0.0
 40
1.5
  1

100
AcDbText
  0
TEXT
  5
F10A3D
330
261
100
AcDbEntity
  8
Text
100
AcDbText
 10
85.1424870466322
 20
-58.0362694300518
 30
0.0
 40
1.5
  1

100
AcDbText
  0
TEXT
  5
F10A41
330
261
100
AcDbEntity
  8
Text
100
AcDbText
 10
115.064766839378
 20
-58.0362694300518
 30
0.0
 40
1.5
  1

100
AcDbText
  0
LWPOLYLINE
  5
F10A47
330
261
100
AcDbEntity
  8
Rahmen
100
AcDbPolyline
 90
        4
 70
     1
 43
0.0
 10
-134.650259067358
 20
99.8316062176166
 10
143.354922279793
 20
99.8316062176166
 10
143.354922279793
 20
-100.103626943005
 10
-134.650259067358
 20
-100.103626943005
  0
LWPOLYLINE
  5
F10A4B
330
261
100
AcDbEntity
  8
Rahmen
100
AcDbPolyline
 90
        4
 70
     1
 43
0.0
 10
103.367875647668
 20
-97.11139896373062
 10
143.354922279793
 20
-97.11139896373062
 10
143.354922279793
 20
-100.103626943005
 10
103.367875647668
 20
-100.103626943005
  0
TEXT
  5
F10A4D
330
261
100
AcDbEntity
  8
Text
100
AcDbText
 10
104.455958549223
 20
-98.11139896373061
 30
0.0
 40
0.75
  1
Ers. durch:
100
AcDbText
  0
LWPOLYLINE
  5
F10A51
330
261
100
AcDbEntity
  8
Rahmen
100
AcDbPolyline
 90
        4
 70
     1
 43
0.0
 10
63.380829015544
 20
-97.11139896373062
 10
103.367875647668
 20
-97.11139896373062
 10
103.367875647668
 20
-100.103626943005
 10
63.380829015544
 20
-100.103626943005
  0
TEXT
  5
F10A53
330
261
100
AcDbEntity
  8
Text
100
AcDbText
 10
64.46891191709839
 20
-98.11139896373061
 30
0.0
 40
0.75
  1
Ers. für:
100
AcDbText
  0
TEXT
  5
F10A55
330
261
100
AcDbEntity
  8
Text
100
AcDbText
 10
91.39896373056991
 20
-99.4715025906736
 30
0.0
 40
0.75
  1

100
AcDbText
  0
LWPOLYLINE
  5
F10A57
330
261
100
AcDbEntity
  8
Rahmen
100
AcDbPolyline
 90
        4
 70
     1
 43
0.0
 10
130.025906735751
 20
-94.119170984456
 10
143.354922279793
 20
-94.119170984456
 10
143.354922279793
 20
-97.11139896373062
 10
130.025906735751
 20
-97.11139896373062
  0
TEXT
  5
F10A59
330
261
100
AcDbEntity
  8
Text
100
AcDbText
 10
131.113989637306
 20
-95.119170984456
 30
0.0
 40
0.75
  1
Blätter
100
AcDbText
  0
TEXT
  5
F10A5B
330
261
100
AcDbEntity
  8
Text
100
AcDbText
 10
141.178756476684
 20
-96.479274611399
 30
0.0
 40
0.75
  1

100
AcDbText
  0
LWPOLYLINE
  5
F10A5D
330
261
100
AcDbEntity
  8
Rahmen
100
AcDbPolyline
 90
        4
 70
     1
 43
0.0
 10
130.025906735751
 20
-91.12694300518128
 10
143.354922279793
 20
-91.12694300518128
 10
143.354922279793
 20
-94.119170984456
 10
130.025906735751
 20
-94.119170984456
  0
TEXT
  5
F10A5F
330
261
100
AcDbEntity
  8
Text
100
AcDbText
 10
131.113989637306
 20
-92.12694300518128
 30
0.0
 40
0.75
  1
Blatt
100
AcDbText
  0
TEXT
  5
F10A61
330
261
100
AcDbEntity
  8
Text
100
AcDbText
 10
141.178756476684
 20
-93.48704663212428
 30
0.0
 40
0.75
  1

100
AcDbText
  0
LWPOLYLINE
  5
F10A63
330
261
100
AcDbEntity
  8
Rahmen
100
AcDbPolyline
 90
        4
 70
     1
 43
0.0
 10
63.380829015544
 20
-91.12694300518128
 10
130.025906735751
 20
-91.12694300518128
 10
130.025906735751
 20
-97.11139896373062
 10
63.380829015544
 20
-97.11139896373062
  0
TEXT
  5
F10A65
330
261
100
AcDbEntity
  8
Text
100
AcDbText
 10
64.46891191709839
 20
-92.12694300518128
 30
0.0
 40
0.75
  1
Datum:
100
AcDbText
  0
LWPOLYLINE
  5
F10A69
330
261
100
AcDbEntity
  8
Rahmen
100
AcDbPolyline
 90
        4
 70
     1
 43
0.0
 10
63.380829015544
 20
-85.14248704663208
 10
143.354922279793
 20
-85.14248704663208
 10
143.354922279793
 20
-91.12694300518128
 10
63.380829015544
 20
-91.12694300518128
  0
TEXT
  5
F10A6B
330
261
100
AcDbEntity
  8
Text
100
AcDbText
 10
-208.09585492228
 20
103.0
 30
0.0
 40
1.5
  1

100
AcDbText
  0
TEXT
  5
F10A6D
330
261
100
AcDbEntity
  8
Text
100
AcDbText
 10
82.1502590673575
 20
-89.01986183074269
 30
0.0
 40
2.5
  1
7300-060 
100
AcDbText
  0
LWPOLYLINE
  5
F10A6F
330
261
100
AcDbEntity
  8
Rahmen
100
AcDbPolyline
 90
        4
 70
     1
 43
0.0
 10
103.367875647668
 20
-79.1580310880829
 10
143.354922279793
 20
-79.1580310880829
 10
143.354922279793
 20
-85.14248704663208
 10
103.367875647668
 20
-85.14248704663208
  0
TEXT
  5
F10A71
330
261
100
AcDbEntity
  8
Text
100
AcDbText
 10
104.455958549223
 20
-80.1580310880829
 30
0.0
 40
0.75
  1
Zu bearb. Material:
100
AcDbText
  0
LWPOLYLINE
  5
F10A75
330
261
100
AcDbEntity
  8
Rahmen
100
AcDbPolyline
 90
        4
 70
     1
 43
0.0
 10
63.380829015544
 20
-79.1580310880829
 10
103.367875647668
 20
-79.1580310880829
 10
103.367875647668
 20
-85.14248704663208
 10
63.380829015544
 20
-85.14248704663208
  0
TEXT
  5
F10A77
330
261
100
AcDbEntity
  8
Text
100
AcDbText
 10
64.46891191709839
 20
-80.1580310880829
 30
0.0
 40
0.75
  1
Werkstoff:
100
AcDbText
  0
LWPOLYLINE
  5
F10A7B
330
261
100
AcDbEntity
  8
Rahmen
100
AcDbPolyline
 90
        4
 70
     1
 43
0.0
 10
103.367875647668
 20
-76.16580310880831
 10
143.354922279793
 20
-76.16580310880831
 10
143.354922279793
 20
-79.1580310880829
 10
103.367875647668
 20
-79.1580310880829
  0
TEXT
  5
F10A7D
330
261
100
AcDbEntity
  8
Text
100
AcDbText
 10
-208.09585492228
 20
103.0
 30
0.0
 40
1.5
  1

100
AcDbText
  0
LWPOLYLINE
  5
F10A81
330
261
100
AcDbEntity
  8
Rahmen
100
AcDbPolyline
 90
        4
 70
     1
 43
0.0
 10
63.380829015544
 20
-76.16580310880831
 10
103.367875647668
 20
-76.16580310880831
 10
103.367875647668
 20
-79.1580310880829
 10
63.380829015544
 20
-79.1580310880829
  0
TEXT
  5
F10A83
330
261
100
AcDbEntity
  8
Text
100
AcDbText
 10
64.46891191709839
 20
-77.1658031088083
 30
0.0
 40
0.75
  1
Maßstab:
100
AcDbText
  0
VIEWPORT
  5
294
102
{ACAD_XDICTIONARY
360
58A
102
}
330
25D
100
AcDbEntity
 67
     1
  8
0
 60
     1
100
AcDbViewport
 10
0.0
 20
0.0
 30
0.0
 40
10.0
 41
10.0
 68
    -1
 69
     1
 12
0.0
 22
0.0
 13
0.0
 23
0.0
 14
1.0
 24
1.0
 15
0.0
 25
0.0
 16
0.0
 26
0.0
 36
1.0
 17
0.0
 27
0.0
 37
0.0
 42
0.0
 43
0.0
 44
0.0
 45
10.0
 50
0.0
 51
0.0000000000007958
 72
   100
 90
    32800
  1

281
     0
 71
     0
 74
     0
110
0.0
120
0.0
130
0.0
111
1.0
121
0.0
131
0.0
112
0.0
122
1.0
132
0.0
 79
     0
146
0.0
1001
VD_INVISIBLE_NOT_FOR_READ
1000
VD_INVISIBLE_NOT_FOR_READ
1001
GENIUS_GENSCREG_15
1000
PF
1040
1.0
1000
DF
1040
1.0
1000
MIN
1011
-5.0
1021
-5.0
1031
0.0
1000
MAX
1011
5.0
1021
5.0
1031
0.0
1000
FLAGS
1070
     4
1001
GENIUS_GENOBJ-N-SDF_13
1002
{
1000
OWNER
1000
GEN
1002
}
1001
GENIUS_GENODEF_13
1002
{
1000
HIER
1070
     0
1002
}
1002
{
1000
MANEDIT
1070
     0
1002
}
1002
{
1000
NOSEL
1070
     0
1002
}
1002
{
1000
BEHIND
1070
     0
1002
}
1002
{
1000
OTHER
1070
     0
1002
}
1002
{
1000
REACTOR
1002
}
  0
VIEWPORT
  5
295
102
{ACAD_XDICTIONARY
360
58C
102
}
330
25D
100
AcDbEntity
 67
     1
  8
0
 60
     1
100
AcDbViewport
 10
0.0
 20
0.0
 30
0.0
 40
10.0
 41
10.0
 68
     0
 69
     2
 12
0.0
 22
0.0
 13
0.0
 23
0.0
 14
1.0
 24
1.0
 15
0.0
 25
0.0
 16
0.0
 26
0.0
 36
1.0
 17
0.0
 27
0.0
 37
0.0
 42
0.0
 43
0.0
 44
0.0
 45
10.0
 50
0.0
 51
0.0000000000007958
 72
   100
 90
   163872
  1

281
     0
 71
     0
 74
     0
110
0.0
120
0.0
130
0.0
111
1.0
121
0.0
131
0.0
112
0.0
122
1.0
132
0.0
 79
     0
146
0.0
1001
VD_INVISIBLE_NOT_FOR_READ
1000
VD_INVISIBLE_NOT_FOR_READ
1001
GENIUS_GENSCREG_15
1000
PF
1040
1.0
1000
DF
1040
1.0
1000
MIN
1011
-5.0
1021
-5.0
1031
0.0
1000
MAX
1011
5.0
1021
5.0
1031
0.0
1000
FLAGS
1070
     4
1001
GENIUS_GENOBJ-N-SDF_13
1002
{
1000
OWNER
1000
GEN
1002
}
1001
GENIUS_GENODEF_13
1002
{
1000
HIER
1070
     0
1002
}
1002
{
1000
MANEDIT
1070
     0
1002
}
1002
{
1000
NOSEL
1070
     0
1002
}
1002
{
1000
BEHIND
1070
     0
1002
}
1002
{
1000
OTHER
1070
     0
1002
}
1002
{
1000
REACTOR
1002
}
  0
ENDSEC
  0
SECTION
  2
OBJECTS
  0
DICTIONARY
  5
13
330
0
100
AcDbDictionary
281
     1
  3
ACAD_COLOR
350
FA7
  3
ACAD_GROUP
350
14
  3
ACAD_LAYOUT
350
FCF
  3
ACAD_MATERIAL
350
F7A
  3
ACAD_MLEADERSTYLE
350
FCD
  3
ACAD_MLINESTYLE
350
16
  3
ACAD_PLOTSETTINGS
350
17
  3
ACAD_PLOTSTYLENAME
350
18
  3
ACAD_SCALELIST
350
FAB
  3
ACAD_TABLESTYLE
350
FA8
  3
ACAD_VISUALSTYLE
350
F93
  3
ACDB_RECOMPOSE_DATA
350
F10BFA
  3
AcDbVariableDictionary
350
F10BF1
  3
AcmDictionary
350
F10ADC
  3
AMG
350
F10A90
  3
AMGSNAPSETTINGS
350
F10B1D
  3
DWGPROPS
350
F10BFB
  0
DICTIONARY
  5
F10BE7
330
252
100
AcDbDictionary
280
     1
281
     1
  3
ADSK_XREC_LAYER_RECONCILED
360
F10BE8
  0
DICTIONARY
  5
F10BE9
330
23F
100
AcDbDictionary
280
     1
281
     1
  3
ADSK_XREC_LAYER_RECONCILED
360
F10BEA
  0
DICTIONARY
  5
F10BEB
330
240
100
AcDbDictionary
280
     1
281
     1
  3
ADSK_XREC_LAYER_RECONCILED
360
F10BEC
  0
DICTIONARY
  5
F10BED
330
241
100
AcDbDictionary
280
     1
281
     1
  3
ADSK_XREC_LAYER_RECONCILED
360
F10BEE
  0
DICTIONARY
  5
F10BEF
330
57E
100
AcDbDictionary
280
     1
281
     1
  3
ADSK_XREC_LAYER_RECONCILED
360
F10BF0
  0
DICTIONARY
  5
FA7
102
{ACAD_REACTORS
330
13
102
}
330
13
100
AcDbDictionary
281
     1
  0
DICTIONARY
  5
14
330
13
100
AcDbDictionary
281
     1
  0
DICTIONARY
  5
FCF
102
{ACAD_REACTORS
330
13
102
}
330
13
100
AcDbDictionary
281
     1
  3
Layout1
350
FD1
  3
Model
350
FD0
  0
DICTIONARY
  5
F7A
102
{ACAD_REACTORS
330
13
102
}
330
13
100
AcDbDictionary
281
     1
  3
ByBlock
350
F83
  3
ByLayer
350
F7B
  3
Global
350
F8B
  0
DICTIONARY
  5
FCD
102
{ACAD_REACTORS
330
13
102
}
330
13
100
AcDbDictionary
281
     1
  3
Standard
350
FCE
  0
DICTIONARY
  5
16
330
13
100
AcDbDictionary
281
     1
  3
Standard
350
FAA
  0
DICTIONARY
  5
17
102
{ACAD_REACTORS
330
13
102
}
330
13
100
AcDbDictionary
281
     1
  0
ACDBDICTIONARYWDFLT
  5
18
102
{ACAD_REACTORS
330
13
102
}
330
13
100
AcDbDictionary
281
     1
  3
Normal
350
19
100
AcDbDictionaryWithDefault
340
19
  0
DICTIONARY
  5
FAB
102
{ACAD_REACTORS
330
13
102
}
330
13
100
AcDbDictionary
281
     1
  3
A0
350
FAC
  3
A1
350
FAD
  3
A2
350
FAE
  3
A3
350
FAF
  3
A4
350
FB0
  3
A5
350
FB1
  3
A6
350
FB2
  3
A7
350
FB3
  3
A8
350
FB4
  3
A9
350
FB5
  3
B0
350
FB6
  3
B1
350
FB7
  3
B2
350
FB8
  3
B3
350
FB9
  3
B4
350
FBA
  3
B5
350
FBB
  3
B6
350
FBC
  3
B7
350
FBD
  3
B8
350
FBE
  3
B9
350
FBF
  3
C0
350
FC0
  3
C1
350
FC1
  3
C2
350
FC2
  3
C3
350
FC3
  3
C4
350
FC4
  3
C5
350
FC5
  3
C6
350
FC6
  3
C7
350
FC7
  3
C8
350
FC8
  3
C9
350
FC9
  3
D0
350
FCA
  3
D1
350
FCB
  3
D2
350
FCC
  0
DICTIONARY
  5
FA8
102
{ACAD_REACTORS
330
13
102
}
330
13
100
AcDbDictionary
281
     1
  3
Standard
350
FA9
  0
DICTIONARY
  5
F93
102
{ACAD_REACTORS
330
13
102
}
330
13
100
AcDbDictionary
281
     1
  3
2dWireframe
350
F99
  3
3D Hidden
350
F9B
  3
3dWireframe
350
F9A
  3
Basic
350
F98
  3
Brighten
350
F9F
  3
ColorChange
350
FA3
  3
Conceptual
350
F9C
  3
Dim
350
F9E
  3
EdgeColorOff
350
FA6
  3
Facepattern
350
FA2
  3
Flat
350
F94
  3
FlatWithEdges
350
F95
  3
Gouraud
350
F96
  3
GouraudWithEdges
350
F97
  3
Hidden
350
F10A88
  3
JitterOff
350
FA4
  3
Linepattern
350
FA1
  3
OverhangOff
350
FA5
  3
Realistic
350
F9D
  3
Shaded
350
F10A8D
  3
Shaded with edges
350
F10A8C
  3
Shades of Gray
350
F10A89
  3
Sketchy
350
F10A8A
  3
Thicken
350
FA0
  3
Wireframe
350
F10A87
  3
X-Ray
350
F10A8B
  0
XRECORD
  5
F10BFA
102
{ACAD_REACTORS
330
13
102
}
330
13
100
AcDbXrecord
280
     1
 90
        1
330
FA9
  0
DICTIONARY
  5
F10BF1
102
{ACAD_REACTORS
330
13
102
}
330
13
100
AcDbDictionary
281
     1
  3
CANNOSCALE
350
F10BF4
  3
CMLEADERSTYLE
350
F10BF3
  3
CTABLESTYLE
350
F10BF2
  3
DIMASSOC
350
F10BF7
  3
INDEXCTL
350
F10BF6
  3
SORTENTS
350
F10BF5
  3
XCLIPFRAME
350
F10BF8
  0
DICTIONARY
  5
F10ADC
102
{ACAD_REACTORS
330
13
102
}
330
13
100
AcDbDictionary
281
     1
  3
AcmStdDictionary
350
F10AE7
  0
DICTIONARY
  5
F10A90
102
{ACAD_REACTORS
330
13
102
}
330
13
100
AcDbDictionary
281
     1
  0
DICTIONARY
  5
F10B1D
102
{ACAD_REACTORS
330
13
102
}
330
13
100
AcDbDictionary
281
     1
  0
XRECORD
  5
F10BFB
102
{ACAD_REACTORS
330
13
102
}
330
13
100
AcDbXrecord
280
     1
  1
DWGPROPS COOKIE
  2

  3

  4

  6

  7

  8
Steigner
  9

300
=
301
=
302
=
303
=
304
=
305
=
306
=
307
=
308
=
309
=
 40
0.0010803009259259
 41
2457073.653100104
 42
2457073.654179202
  1

 90
        0
  0
XRECORD
  5
F10BE8
102
{ACAD_REACTORS
330
F10BE7
102
}
330
F10BE7
100
AcDbXrecord
280
     1
290
     1
  0
XRECORD
  5
F10BEA
102
{ACAD_REACTORS
330
F10BE9
102
}
330
F10BE9
100
AcDbXrecord
280
     1
290
     1
  0
XRECORD
  5
F10BEC
102
{ACAD_REACTORS
330
F10BEB
102
}
330
F10BEB
100
AcDbXrecord
280
     1
290
     1
  0
XRECORD
  5
F10BEE
102
{ACAD_REACTORS
330
F10BED
102
}
330
F10BED
100
AcDbXrecord
280
     1
290
     1
  0
XRECORD
  5
F10BF0
102
{ACAD_REACTORS
330
F10BEF
102
}
330
F10BEF
100
AcDbXrecord
280
     1
290
     1
  0
LAYOUT
  5
FD1
102
{ACAD_XDICTIONARY
360
F10C25
102
}
102
{ACAD_REACTORS
330
FCF
102
}
330
FCF
100
AcDbPlotSettings
  1

  2
Microsoft XPS Document Writer
  4

  6

 40
0.0
 41
0.0
 42
0.0
 43
0.0
 44
0.0
 45
0.0
 46
0.0
 47
0.0
 48
0.0
 49
0.0
140
0.0
141
0.0
142
1.0
143
1.0
 70
   688
 72
     0
 73
     0
 74
     5
  7

 75
    16
147
1.0
148
0.0
149
0.0
100
AcDbLayout
  1
Layout1
 70
     1
 71
     1
 10
0.0
 20
0.0
 11
12.0
 21
9.0
 12
0.0
 22
0.0
 32
0.0
 14
1.000000000000000E+20
 24
1.000000000000000E+20
 34
1.000000000000000E+20
 15
-1.000000000000000E+20
 25
-1.000000000000000E+20
 35
-1.000000000000000E+20
146
0.0
 13
0.0
 23
0.0
 33
0.0
 16
1.0
 26
0.0
 36
0.0
 17
0.0
 27
1.0
 37
0.0
 76
     0
330
25D
  0
LAYOUT
  5
FD0
102
{ACAD_XDICTIONARY
360
F10C23
102
}
102
{ACAD_REACTORS
330
FCF
102
}
330
FCF
100
AcDbPlotSettings
  1

  2
Microsoft XPS Document Writer
  4

  6

 40
0.0
 41
0.0
 42
0.0
 43
0.0
 44
0.0
 45
0.0
 46
0.0
 47
0.0
 48
0.0
 49
0.0
140
0.0
141
0.0
142
1.0
143
1.0
 70
  1712
 72
     0
 73
     0
 74
     0
  7

 75
     0
147
1.0
148
0.0
149
0.0
100
AcDbLayout
  1
Model
 70
     1
 71
     0
 10
0.0
 20
0.0
 11
12.0
 21
9.0
 12
0.0
 22
0.0
 32
0.0
 14
0.0
 24
0.0
 34
0.0
 15
0.0
 25
0.0
 35
0.0
146
0.0
 13
0.0
 23
0.0
 33
0.0
 16
1.0
 26
0.0
 36
0.0
 17
0.0
 27
1.0
 37
0.0
 76
     0
330
261
331
26B
  0
MATERIAL
  5
F83
102
{ACAD_XDICTIONARY
360
F84
102
}
102
{ACAD_REACTORS
330
F7A
102
}
330
F7A
100
AcDbMaterial
  1
ByBlock
 72
     0
 43
0.0208333333333333
 43
0.0
 43
0.0
 43
0.0
 43
0.0
 43
0.0208333333333333
 43
0.0
 43
0.0
 43
0.0
 43
0.0
 43
1.0
 43
0.0
 43
0.0
 43
0.0
 43
0.0
 43
1.0
 77
     0
 47
0.0208333333333333
 47
0.0
 47
0.0
 47
0.0
 47
0.0
 47
0.0208333333333333
 47
0.0
 47
0.0
 47
0.0
 47
0.0
 47
1.0
 47
0.0
 47
0.0
 47
0.0
 47
0.0
 47
1.0
171
     0
 49
0.0208333333333333
 49
0.0
 49
0.0
 49
0.0
 49
0.0
 49
0.0208333333333333
 49
0.0
 49
0.0
 49
0.0
 49
0.0
 49
1.0
 49
0.0
 49
0.0
 49
0.0
 49
0.0
 49
1.0
175
     0
142
0.0208333333333333
142
0.0
142
0.0
142
0.0
142
0.0
142
0.0208333333333333
142
0.0
142
0.0
142
0.0
142
0.0
142
1.0
142
0.0
142
0.0
142
0.0
142
0.0
142
1.0
179
     0
144
0.0208333333333333
144
0.0
144
0.0
144
0.0
144
0.0
144
0.0208333333333333
144
0.0
144
0.0
144
0.0
144
0.0
144
1.0
144
0.0
144
0.0
144
0.0
144
0.0
144
1.0
147
0.0208333333333333
147
0.0
147
0.0
147
0.0
147
0.0
147
0.0208333333333333
147
0.0
147
0.0
147
0.0
147
0.0
147
1.0
147
0.0
147
0.0
147
0.0
147
0.0
147
1.0
  0
MATERIAL
  5
F7B
102
{ACAD_XDICTIONARY
360
F7C
102
}
102
{ACAD_REACTORS
330
F7A
102
}
330
F7A
100
AcDbMaterial
  1
ByLayer
 72
     0
 43
0.0208333333333333
 43
0.0
 43
0.0
 43
0.0
 43
0.0
 43
0.0208333333333333
 43
0.0
 43
0.0
 43
0.0
 43
0.0
 43
1.0
 43
0.0
 43
0.0
 43
0.0
 43
0.0
 43
1.0
 77
     0
 47
0.0208333333333333
 47
0.0
 47
0.0
 47
0.0
 47
0.0
 47
0.0208333333333333
 47
0.0
 47
0.0
 47
0.0
 47
0.0
 47
1.0
 47
0.0
 47
0.0
 47
0.0
 47
0.0
 47
1.0
171
     0
 49
0.0208333333333333
 49
0.0
 49
0.0
 49
0.0
 49
0.0
 49
0.0208333333333333
 49
0.0
 49
0.0
 49
0.0
 49
0.0
 49
1.0
 49
0.0
 49
0.0
 49
0.0
 49
0.0
 49
1.0
175
     0
142
0.0208333333333333
142
0.0
142
0.0
142
0.0
142
0.0
142
0.0208333333333333
142
0.0
142
0.0
142
0.0
142
0.0
142
1.0
142
0.0
142
0.0
142
0.0
142
0.0
142
1.0
179
     0
144
0.0208333333333333
144
0.0
144
0.0
144
0.0
144
0.0
144
0.0208333333333333
144
0.0
144
0.0
144
0.0
144
0.0
144
1.0
144
0.0
144
0.0
144
0.0
144
0.0
144
1.0
147
0.0208333333333333
147
0.0
147
0.0
147
0.0
147
0.0
147
0.0208333333333333
147
0.0
147
0.0
147
0.0
147
0.0
147
1.0
147
0.0
147
0.0
147
0.0
147
0.0
147
1.0
  0
MATERIAL
  5
F8B
102
{ACAD_XDICTIONARY
360
F8C
102
}
102
{ACAD_REACTORS
330
F7A
102
}
330
F7A
100
AcDbMaterial
  1
Global
 72
     0
 43
0.0208333333333333
 43
0.0
 43
0.0
 43
0.0
 43
0.0
 43
0.0208333333333333
 43
0.0
 43
0.0
 43
0.0
 43
0.0
 43
1.0
 43
0.0
 43
0.0
 43
0.0
 43
0.0
 43
1.0
 77
     0
 47
0.0208333333333333
 47
0.0
 47
0.0
 47
0.0
 47
0.0
 47
0.0208333333333333
 47
0.0
 47
0.0
 47
0.0
 47
0.0
 47
1.0
 47
0.0
 47
0.0
 47
0.0
 47
0.0
 47
1.0
171
     0
 49
0.0208333333333333
 49
0.0
 49
0.0
 49
0.0
 49
0.0
 49
0.0208333333333333
 49
0.0
 49
0.0
 49
0.0
 49
0.0
 49
1.0
 49
0.0
 49
0.0
 49
0.0
 49
0.0
 49
1.0
175
     0
142
0.0208333333333333
142
0.0
142
0.0
142
0.0
142
0.0
142
0.0208333333333333
142
0.0
142
0.0
142
0.0
142
0.0
142
1.0
142
0.0
142
0.0
142
0.0
142
0.0
142
1.0
179
     0
144
0.0208333333333333
144
0.0
144
0.0
144
0.0
144
0.0
144
0.0208333333333333
144
0.0
144
0.0
144
0.0
144
0.0
144
1.0
144
0.0
144
0.0
144
0.0
144
0.0
144
1.0
147
0.0208333333333333
147
0.0
147
0.0
147
0.0
147
0.0
147
0.0208333333333333
147
0.0
147
0.0
147
0.0
147
0.0
147
1.0
147
0.0
147
0.0
147
0.0
147
0.0
147
1.0
  0
MLEADERSTYLE
  5
FCE
102
{ACAD_REACTORS
330
FCD
102
}
330
FCD
100
AcDbMLeaderStyle
170
     2
171
     1
172
     0
 90
        2
 40
0.0
 41
0.0
173
     1
 91
-1056964608
340
256
 92
       -2
290
     1
 42
0.09
291
     1
 43
0.36
  3
Standard
 44
0.18
300

342
253
174
     1
178
     6
175
     1
176
     0
 93
-1056964608
 45
0.18
292
     0
297
     0
 46
0.18
 94
-1056964608
 47
1.0
 49
1.0
140
1.0
293
     1
141
0.0
294
     1
177
     0
142
1.0
295
     0
296
     0
143
0.125
1001
ACAD_MLEADERVER
1070
     2
  0
MLINESTYLE
  5
FAA
102
{ACAD_REACTORS
330
16
102
}
330
16
100
AcDbMlineStyle
  2
STANDARD
 70
     0
  3

 62
   256
 51
90.0
 52
90.0
 71
     2
 49
0.5
 62
   256
  6
BYLAYER
 49
-0.5
 62
   256
  6
BYLAYER
  0
ACDBPLACEHOLDER
  5
19
102
{ACAD_REACTORS
330
18
102
}
330
18
  0
SCALE
  5
FAC
102
{ACAD_REACTORS
330
FAB
102
}
330
FAB
100
AcDbScale
 70
     0
300
1:1
140
1.0
141
1.0
290
     1
  0
SCALE
  5
FAD
102
{ACAD_REACTORS
330
FAB
102
}
330
FAB
100
AcDbScale
 70
     0
300
1:2
140
1.0
141
2.0
290
     0
  0
SCALE
  5
FAE
102
{ACAD_REACTORS
330
FAB
102
}
330
FAB
100
AcDbScale
 70
     0
300
1:4
140
1.0
141
4.0
290
     0
  0
SCALE
  5
FAF
102
{ACAD_REACTORS
330
FAB
102
}
330
FAB
100
AcDbScale
 70
     0
300
1:5
140
1.0
141
5.0
290
     0
  0
SCALE
  5
FB0
102
{ACAD_REACTORS
330
FAB
102
}
330
FAB
100
AcDbScale
 70
     0
300
1:8
140
1.0
141
8.0
290
     0
  0
SCALE
  5
FB1
102
{ACAD_REACTORS
330
FAB
102
}
330
FAB
100
AcDbScale
 70
     0
300
1:10
140
1.0
141
10.0
290
     0
  0
SCALE
  5
FB2
102
{ACAD_REACTORS
330
FAB
102
}
330
FAB
100
AcDbScale
 70
     0
300
1:16
140
1.0
141
16.0
290
     0
  0
SCALE
  5
FB3
102
{ACAD_REACTORS
330
FAB
102
}
330
FAB
100
AcDbScale
 70
     0
300
1:20
140
1.0
141
20.0
290
     0
  0
SCALE
  5
FB4
102
{ACAD_REACTORS
330
FAB
102
}
330
FAB
100
AcDbScale
 70
     0
300
1:30
140
1.0
141
30.0
290
     0
  0
SCALE
  5
FB5
102
{ACAD_REACTORS
330
FAB
102
}
330
FAB
100
AcDbScale
 70
     0
300
1:40
140
1.0
141
40.0
290
     0
  0
SCALE
  5
FB6
102
{ACAD_REACTORS
330
FAB
102
}
330
FAB
100
AcDbScale
 70
     0
300
1:50
140
1.0
141
50.0
290
     0
  0
SCALE
  5
FB7
102
{ACAD_REACTORS
330
FAB
102
}
330
FAB
100
AcDbScale
 70
     0
300
1:100
140
1.0
141
100.0
290
     0
  0
SCALE
  5
FB8
102
{ACAD_REACTORS
330
FAB
102
}
330
FAB
100
AcDbScale
 70
     0
300
2:1
140
2.0
141
1.0
290
     0
  0
SCALE
  5
FB9
102
{ACAD_REACTORS
330
FAB
102
}
330
FAB
100
AcDbScale
 70
     0
300
4:1
140
4.0
141
1.0
290
     0
  0
SCALE
  5
FBA
102
{ACAD_REACTORS
330
FAB
102
}
330
FAB
100
AcDbScale
 70
     0
300
8:1
140
8.0
141
1.0
290
     0
  0
SCALE
  5
FBB
102
{ACAD_REACTORS
330
FAB
102
}
330
FAB
100
AcDbScale
 70
     0
300
10:1
140
10.0
141
1.0
290
     0
  0
SCALE
  5
FBC
102
{ACAD_REACTORS
330
FAB
102
}
330
FAB
100
AcDbScale
 70
     0
300
100:1
140
100.0
141
1.0
290
     0
  0
SCALE
  5
FBD
102
{ACAD_REACTORS
330
FAB
102
}
330
FAB
100
AcDbScale
 70
     0
300
1/128" = 1'-0"
140
0.0078125
141
12.0
290
     0
  0
SCALE
  5
FBE
102
{ACAD_REACTORS
330
FAB
102
}
330
FAB
100
AcDbScale
 70
     0
300
1/64" = 1'-0"
140
0.015625
141
12.0
290
     0
  0
SCALE
  5
FBF
102
{ACAD_REACTORS
330
FAB
102
}
330
FAB
100
AcDbScale
 70
     0
300
1/32" = 1'-0"
140
0.03125
141
12.0
290
     0
  0
SCALE
  5
FC0
102
{ACAD_REACTORS
330
FAB
102
}
330
FAB
100
AcDbScale
 70
     0
300
1/16" = 1'-0"
140
0.0625
141
12.0
290
     0
  0
SCALE
  5
FC1
102
{ACAD_REACTORS
330
FAB
102
}
330
FAB
100
AcDbScale
 70
     0
300
3/32" = 1'-0"
140
0.09375
141
12.0
290
     0
  0
SCALE
  5
FC2
102
{ACAD_REACTORS
330
FAB
102
}
330
FAB
100
AcDbScale
 70
     0
300
1/8" = 1'-0"
140
0.125
141
12.0
290
     0
  0
SCALE
  5
FC3
102
{ACAD_REACTORS
330
FAB
102
}
330
FAB
100
AcDbScale
 70
     0
300
3/16" = 1'-0"
140
0.1875
141
12.0
290
     0
  0
SCALE
  5
FC4
102
{ACAD_REACTORS
330
FAB
102
}
330
FAB
100
AcDbScale
 70
     0
300
1/4" = 1'-0"
140
0.25
141
12.0
290
     0
  0
SCALE
  5
FC5
102
{ACAD_REACTORS
330
FAB
102
}
330
FAB
100
AcDbScale
 70
     0
300
3/8" = 1'-0"
140
0.375
141
12.0
290
     0
  0
SCALE
  5
FC6
102
{ACAD_REACTORS
330
FAB
102
}
330
FAB
100
AcDbScale
 70
     0
300
1/2" = 1'-0"
140
0.5
141
12.0
290
     0
  0
SCALE
  5
FC7
102
{ACAD_REACTORS
330
FAB
102
}
330
FAB
100
AcDbScale
 70
     0
300
3/4" = 1'-0"
140
0.75
141
12.0
290
     0
  0
SCALE
  5
FC8
102
{ACAD_REACTORS
330
FAB
102
}
330
FAB
100
AcDbScale
 70
     0
300
1" = 1'-0"
140
1.0
141
12.0
290
     0
  0
SCALE
  5
FC9
102
{ACAD_REACTORS
330
FAB
102
}
330
FAB
100
AcDbScale
 70
     0
300
1-1/2" = 1'-0"
140
1.5
141
12.0
290
     0
  0
SCALE
  5
FCA
102
{ACAD_REACTORS
330
FAB
102
}
330
FAB
100
AcDbScale
 70
     0
300
3" = 1'-0"
140
3.0
141
12.0
290
     0
  0
SCALE
  5
FCB
102
{ACAD_REACTORS
330
FAB
102
}
330
FAB
100
AcDbScale
 70
     0
300
6" = 1'-0"
140
6.0
141
12.0
290
     0
  0
SCALE
  5
FCC
102
{ACAD_REACTORS
330
FAB
102
}
330
FAB
100
AcDbScale
 70
     0
300
1'-0" = 1'-0"
140
12.0
141
12.0
290
     0
  0
TABLESTYLE
  5
FA9
102
{ACAD_XDICTIONARY
360
FF8
102
}
102
{ACAD_REACTORS
330
FA8
102
}
330
FA8
100
AcDbTableStyle
  3
Standard
 70
     0
 71
     0
 40
0.06
 41
0.06
280
     0
281
     0
  7
Standard
140
0.18
170
     2
 62
     0
 63
     7
283
     0
274
    -2
284
     1
 64
     0
275
    -2
285
     1
 65
     0
276
    -2
286
     1
 66
     0
277
    -2
287
     1
 67
     0
278
    -2
288
     1
 68
     0
279
    -2
289
     1
 69
     0
  7
Standard
140
0.25
170
     5
 62
     0
 63
     7
283
     0
274
    -2
284
     1
 64
     0
275
    -2
285
     1
 65
     0
276
    -2
286
     1
 66
     0
277
    -2
287
     1
 67
     0
278
    -2
288
     1
 68
     0
279
    -2
289
     1
 69
     0
  7
Standard
140
0.18
170
     5
 62
     0
 63
     7
283
     0
274
    -2
284
     1
 64
     0
275
    -2
285
     1
 65
     0
276
    -2
286
     1
 66
     0
277
    -2
287
     1
 67
     0
278
    -2
288
     1
 68
     0
279
    -2
289
     1
 69
     0
  0
VISUALSTYLE
  5
F99
102
{ACAD_XDICTIONARY
360
F10C06
102
}
102
{ACAD_REACTORS
330
F93
102
}
330
F93
100
AcDbVisualStyle
  2

 70
     4
 71
     0
 72
     2
 73
     0
 90
        0
 40
-0.6
 41
-30.0
 62
     5
 63
     7
 74
     1
 91
        4
 64
     7
 65
   257
 75
     1
175
     1
 42
1.0
 92
        0
 66
   257
 43
1.0
 76
     1
 77
     6
 78
     2
 67
     7
 79
     5
170
     0
171
     0
290
     0
174
     0
 93
        1
 44
0.0
173
     0
291
     0
 45
0.0
1001
ACAD
1000
AcDbSavedByObjectVersion
1070
     0
  0
VISUALSTYLE
  5
F9B
102
{ACAD_XDICTIONARY
360
F10C0A
102
}
102
{ACAD_REACTORS
330
F93
102
}
330
F93
100
AcDbVisualStyle
  2

 70
     6
 71
     1
 72
     2
 73
     2
 90
        0
 40
-0.6
 41
-30.0
 62
     5
 63
     7
 74
     2
 91
        2
 64
     7
 65
   257
 75
     2
175
     1
 42
179.0
 92
        0
 66
   257
 43
1.0
 76
     1
 77
     6
 78
     2
 67
     7
 79
     3
170
     0
171
     0
290
     0
174
     0
 93
        1
 44
0.0
173
     0
291
     0
 45
0.0
1001
ACAD
1000
AcDbSavedByObjectVersion
1070
     0
  0
VISUALSTYLE
  5
F9A
102
{ACAD_XDICTIONARY
360
F10C08
102
}
102
{ACAD_REACTORS
330
F93
102
}
330
F93
100
AcDbVisualStyle
  2

 70
     5
 71
     0
 72
     2
 73
     0
 90
        0
 40
-0.6
 41
-30.0
 62
     5
 63
     7
 74
     1
 91
        4
 64
     7
 65
   257
 75
     1
175
     1
 42
1.0
 92
        0
 66
   257
 43
1.0
 76
     1
 77
     6
 78
     2
 67
     7
 79
     5
170
     0
171
     0
290
     0
174
     0
 93
        1
 44
0.0
173
     0
291
     0
 45
0.0
1001
ACAD
1000
AcDbSavedByObjectVersion
1070
     0
  0
VISUALSTYLE
  5
F98
102
{ACAD_XDICTIONARY
360
F10C04
102
}
102
{ACAD_REACTORS
330
F93
102
}
330
F93
100
AcDbVisualStyle
  2

 70
     7
 71
     1
 72
     0
 73
     1
 90
        0
 40
-0.6
 41
-30.0
 62
     5
 63
     7
 74
     0
 91
        4
 64
     7
 65
   257
 75
     1
175
     1
 42
1.0
 92
        8
 66
     7
 43
1.0
 76
     1
 77
     6
 78
     2
 67
     7
 79
     5
170
     0
171
     0
290
     0
174
     0
 93
        1
 44
0.0
173
     0
291
     1
 45
0.0
1001
ACAD
1000
AcDbSavedByObjectVersion
1070
     0
  0
VISUALSTYLE
  5
F9F
102
{ACAD_XDICTIONARY
360
F10C12
102
}
102
{ACAD_REACTORS
330
F93
102
}
330
F93
100
AcDbVisualStyle
  2

 70
    12
 71
     2
 72
     2
 73
     0
 90
        0
 40
-0.6
 41
-30.0
 62
     5
 63
     7
 74
     1
 91
        4
 64
     7
 65
   257
 75
     1
175
     1
 42
1.0
 92
        8
 66
     7
 43
1.0
 76
     1
 77
     6
 78
     2
 67
     7
 79
     5
170
     0
171
     0
290
     0
174
     0
 93
        1
 44
50.0
173
     0
291
     1
 45
0.0
1001
ACAD
1000
AcDbSavedByObjectVersion
1070
     0
  0
VISUALSTYLE
  5
FA3
102
{ACAD_XDICTIONARY
360
F10C1A
102
}
102
{ACAD_REACTORS
330
F93
102
}
330
F93
100
AcDbVisualStyle
  2

 70
    16
 71
     2
 72
     2
 73
     3
 90
        0
 40
-0.6
 41
-30.0
 62
     5
 63
     8
 74
     1
 91
        4
 64
     7
 65
   257
 75
     1
175
     1
 42
1.0
 92
        8
 66
     8
 43
1.0
 76
     1
 77
     6
 78
     2
 67
     7
 79
     5
170
     0
171
     0
290
     0
174
     0
 93
        1
 44
0.0
173
     0
291
     1
 45
0.0
1001
ACAD
1000
AcDbSavedByObjectVersion
1070
     0
  0
VISUALSTYLE
  5
F9C
102
{ACAD_XDICTIONARY
360
F10C0C
102
}
102
{ACAD_REACTORS
330
F93
102
}
330
F93
100
AcDbVisualStyle
  2

 70
     9
 71
     3
 72
     2
 73
     0
 90
        0
 40
-0.6
 41
-30.0
 62
     5
 63
     7
 74
     2
 91
        2
 64
     7
 65
   257
 75
     1
175
     1
 42
179.0
 92
        8
 66
     7
 43
1.0
 76
     1
 77
     6
 78
     2
 67
     7
 79
     3
170
     0
171
     0
290
     0
174
     0
 93
        1
 44
0.0
173
     0
291
     0
 45
0.0
1001
ACAD
1000
AcDbSavedByObjectVersion
1070
     0
  0
VISUALSTYLE
  5
F9E
102
{ACAD_XDICTIONARY
360
F10C10
102
}
102
{ACAD_REACTORS
330
F93
102
}
330
F93
100
AcDbVisualStyle
  2

 70
    11
 71
     2
 72
     2
 73
     0
 90
        0
 40
-0.6
 41
-30.0
 62
     5
 63
     7
 74
     1
 91
        4
 64
     7
 65
   257
 75
     1
175
     1
 42
1.0
 92
        8
 66
     7
 43
1.0
 76
     1
 77
     6
 78
     2
 67
     7
 79
     5
170
     0
171
     0
290
     0
174
     0
 93
        1
 44
-50.0
173
     0
291
     1
 45
0.0
1001
ACAD
1000
AcDbSavedByObjectVersion
1070
     0
  0
VISUALSTYLE
  5
FA6
102
{ACAD_XDICTIONARY
360
F10C20
102
}
102
{ACAD_REACTORS
330
F93
102
}
330
F93
100
AcDbVisualStyle
  2

 70
    22
 71
     2
 72
     2
 73
     0
 90
        0
 40
-0.6
 41
-30.0
 62
     5
 63
     7
 74
     1
 91
        4
 64
     7
 65
   257
 75
     1
175
     1
 42
1.0
 92
        8
 66
     7
 43
1.0
 76
     1
 77
     6
 78
     2
 67
     7
 79
     5
170
     0
171
     0
290
     0
174
     0
 93
        1
 44
0.0
173
     0
291
     1
 45
0.0
1001
ACAD
1000
AcDbSavedByObjectVersion
1070
     0
  0
VISUALSTYLE
  5
FA2
102
{ACAD_XDICTIONARY
360
F10C18
102
}
102
{ACAD_REACTORS
330
F93
102
}
330
F93
100
AcDbVisualStyle
  2

 70
    15
 71
     2
 72
     2
 73
     0
 90
        0
 40
-0.6
 41
-30.0
 62
     5
 63
     7
 74
     1
 91
        4
 64
     7
 65
   257
 75
     1
175
     1
 42
1.0
 92
        8
 66
     7
 43
1.0
 76
     1
 77
     6
 78
     2
 67
     7
 79
     5
170
     0
171
     0
290
     0
174
     0
 93
        1
 44
0.0
173
     0
291
     1
 45
0.0
1001
ACAD
1000
AcDbSavedByObjectVersion
1070
     0
  0
VISUALSTYLE
  5
F94
102
{ACAD_XDICTIONARY
360
F10BFC
102
}
102
{ACAD_REACTORS
330
F93
102
}
330
F93
100
AcDbVisualStyle
  2

 70
     0
 71
     2
 72
     1
 73
     1
 90
        2
 40
-0.6
 41
30.0
 62
     5
 63
     7
 74
     0
 91
        4
 64
     7
 65
   257
 75
     1
175
     1
 42
1.0
 92
        8
 66
     7
 43
1.0
 76
     1
 77
     6
 78
     2
 67
     7
 79
     5
170
     0
171
     0
290
     0
174
     0
 93
       13
 44
0.0
173
     0
291
     1
 45
0.0
1001
ACAD
1000
AcDbSavedByObjectVersion
1070
     0
  0
VISUALSTYLE
  5
F95
102
{ACAD_XDICTIONARY
360
F10BFE
102
}
102
{ACAD_REACTORS
330
F93
102
}
330
F93
100
AcDbVisualStyle
  2

 70
     1
 71
     2
 72
     1
 73
     1
 90
        2
 40
-0.6
 41
30.0
 62
     5
 63
     7
 74
     1
 91
        4
 64
     7
 65
   257
 75
     1
175
     1
 42
1.0
 92
        0
 66
   257
 43
1.0
 76
     1
 77
     6
 78
     2
 67
     7
 79
     5
170
     0
171
     0
290
     0
174
     0
 93
       13
 44
0.0
173
     0
291
     1
 45
0.0
1001
ACAD
1000
AcDbSavedByObjectVersion
1070
     0
  0
VISUALSTYLE
  5
F96
102
{ACAD_XDICTIONARY
360
F10C00
102
}
102
{ACAD_REACTORS
330
F93
102
}
330
F93
100
AcDbVisualStyle
  2

 70
     2
 71
     2
 72
     2
 73
     1
 90
        2
 40
-0.6
 41
30.0
 62
     5
 63
     7
 74
     0
 91
        4
 64
     7
 65
   257
 75
     1
175
     1
 42
1.0
 92
        0
 66
     7
 43
1.0
 76
     1
 77
     6
 78
     2
 67
     7
 79
     5
170
     0
171
     0
290
     0
174
     0
 93
       13
 44
0.0
173
     0
291
     1
 45
0.0
1001
ACAD
1000
AcDbSavedByObjectVersion
1070
     0
  0
VISUALSTYLE
  5
F97
102
{ACAD_XDICTIONARY
360
F10C02
102
}
102
{ACAD_REACTORS
330
F93
102
}
330
F93
100
AcDbVisualStyle
  2

 70
     3
 71
     2
 72
     2
 73
     1
 90
        2
 40
-0.6
 41
30.0
 62
     5
 63
     7
 74
     1
 91
        4
 64
     7
 65
   257
 75
     1
175
     1
 42
1.0
 92
        0
 66
   257
 43
1.0
 76
     1
 77
     6
 78
     2
 67
     7
 79
     5
170
     0
171
     0
290
     0
174
     0
 93
       13
 44
0.0
173
     0
291
     1
 45
0.0
1001
ACAD
1000
AcDbSavedByObjectVersion
1070
     0
  0
VISUALSTYLE
  5
F10A88
102
{ACAD_XDICTIONARY
360
F10C29
102
}
102
{ACAD_REACTORS
330
F93
102
}
330
F93
100
AcDbVisualStyle
  2
Hidden
 70
     6
 71
     1
 72
     2
 73
     2
 90
        0
 40
-0.6
 41
-30.0
 62
     5
 63
     7
 74
     2
 91
        2
 64
     7
 65
   257
 75
     2
175
     1
 42
40.0
 92
        0
 66
   257
 43
1.0
 76
     1
 77
     6
 78
     2
 67
     7
 79
     3
170
     0
171
     0
290
     0
174
     0
 93
        1
 44
0.0
173
     0
291
     0
 45
0.0
1001
ACAD
1000
AcDbSavedByObjectVersion
1070
     0
  0
VISUALSTYLE
  5
FA4
102
{ACAD_XDICTIONARY
360
F10C1C
102
}
102
{ACAD_REACTORS
330
F93
102
}
330
F93
100
AcDbVisualStyle
  2

 70
    20
 71
     2
 72
     2
 73
     0
 90
        0
 40
-0.6
 41
-30.0
 62
     5
 63
     7
 74
     1
 91
        4
 64
     7
 65
   257
 75
     1
175
     1
 42
1.0
 92
       10
 66
     7
 43
1.0
 76
     1
 77
     6
 78
     2
 67
     7
 79
     5
170
     0
171
     0
290
     0
174
     0
 93
        1
 44
0.0
173
     0
291
     1
 45
0.0
1001
ACAD
1000
AcDbSavedByObjectVersion
1070
     0
  0
VISUALSTYLE
  5
FA1
102
{ACAD_XDICTIONARY
360
F10C16
102
}
102
{ACAD_REACTORS
330
F93
102
}
330
F93
100
AcDbVisualStyle
  2

 70
    14
 71
     2
 72
     2
 73
     0
 90
        0
 40
-0.6
 41
-30.0
 62
     5
 63
     7
 74
     1
 91
        4
 64
     7
 65
   257
 75
     7
175
     7
 42
1.0
 92
        8
 66
     7
 43
1.0
 76
     1
 77
     6
 78
     2
 67
     7
 79
     5
170
     0
171
     0
290
     0
174
     0
 93
        1
 44
0.0
173
     0
291
     1
 45
0.0
1001
ACAD
1000
AcDbSavedByObjectVersion
1070
     0
  0
VISUALSTYLE
  5
FA5
102
{ACAD_XDICTIONARY
360
F10C1E
102
}
102
{ACAD_REACTORS
330
F93
102
}
330
F93
100
AcDbVisualStyle
  2

 70
    21
 71
     2
 72
     2
 73
     0
 90
        0
 40
-0.6
 41
-30.0
 62
     5
 63
     7
 74
     1
 91
        4
 64
     7
 65
   257
 75
     1
175
     1
 42
1.0
 92
        9
 66
     7
 43
1.0
 76
     1
 77
     6
 78
     2
 67
     7
 79
     5
170
     0
171
     0
290
     0
174
     0
 93
        1
 44
0.0
173
     0
291
     1
 45
0.0
1001
ACAD
1000
AcDbSavedByObjectVersion
1070
     0
  0
VISUALSTYLE
  5
F9D
102
{ACAD_XDICTIONARY
360
F10C0E
102
}
102
{ACAD_REACTORS
330
F93
102
}
330
F93
100
AcDbVisualStyle
  2

 70
     8
 71
     2
 72
     2
 73
     0
 90
        0
 40
-0.6
 41
-30.0
 62
     5
 63
     7
 74
     1
 91
        0
 64
     7
 65
   257
 75
     1
175
     1
 42
1.0
 92
        8
 66
     8
 43
1.0
 76
     1
 77
     6
 78
     2
 67
     7
 79
     5
170
     0
171
     0
290
     0
174
     0
 93
       13
 44
0.0
173
     0
291
     0
 45
0.0
1001
ACAD
1000
AcDbSavedByObjectVersion
1070
     0
  0
VISUALSTYLE
  5
F10A8D
102
{ACAD_XDICTIONARY
360
F10C33
102
}
102
{ACAD_REACTORS
330
F93
102
}
330
F93
100
AcDbVisualStyle
  2
Shaded
 70
    27
 71
     2
 72
     2
 73
     1
 90
        2
 40
-0.6
 41
30.0
 62
     5
 63
     7
 74
     0
 91
        4
 64
     7
 65
   257
 75
     1
175
     1
 42
1.0
 92
        8
 66
   257
 43
1.0
 76
     1
 77
     6
 78
     2
 67
     8
 79
     3
170
     0
171
     0
290
     0
174
     0
 93
        5
 44
0.0
173
     0
291
     0
 45
0.0
1001
ACAD
1000
AcDbSavedByObjectVersion
1070
     0
  0
VISUALSTYLE
  5
F10A8C
102
{ACAD_XDICTIONARY
360
F10C31
102
}
102
{ACAD_REACTORS
330
F93
102
}
330
F93
100
AcDbVisualStyle
  2
Shaded with edges
 70
    26
 71
     2
 72
     2
 73
     1
 90
        2
 40
-0.6
 41
30.0
 62
     5
 63
     7
 74
     1
 91
       10
 64
     7
 65
   257
 75
     2
175
     1
 42
1.0
 92
        8
 66
   257
 43
1.0
 76
     1
 77
     6
 78
     2
 67
     7
 79
     3
170
     0
171
     0
290
     0
174
     0
 93
        5
 44
0.0
173
     0
291
     0
 45
0.0
1001
ACAD
1000
AcDbSavedByObjectVersion
1070
     0
  0
VISUALSTYLE
  5
F10A89
102
{ACAD_XDICTIONARY
360
F10C2B
102
}
102
{ACAD_REACTORS
330
F93
102
}
330
F93
100
AcDbVisualStyle
  2
Shades of Gray
 70
    23
 71
     2
 72
     2
 73
     3
 90
        0
 40
-0.6
 41
-30.0
 62
     5
 63
     7
 74
     2
 91
        2
 64
     7
 65
     7
 75
     1
175
     1
 42
40.0
 92
        8
 66
     7
 43
1.0
 76
     1
 77
     6
 78
     2
 67
     7
 79
     3
170
     0
171
     0
290
     0
174
     0
 93
        1
 44
0.0
173
     0
291
     0
 45
0.0
1001
ACAD
1000
AcDbSavedByObjectVersion
1070
     0
  0
VISUALSTYLE
  5
F10A8A
102
{ACAD_XDICTIONARY
360
F10C2D
102
}
102
{ACAD_REACTORS
330
F93
102
}
330
F93
100
AcDbVisualStyle
  2
Sketchy
 70
    24
 71
     1
 72
     2
 73
     2
 90
        0
 40
-0.6
 41
-30.0
 62
     5
 63
     7
 74
     2
 91
        2
 64
     7
 65
     7
 75
     1
175
     1
 42
40.0
 92
       11
 66
     7
 43
1.0
 76
     1
 77
     6
 78
     2
 67
     7
 79
     6
170
     0
171
     0
290
     0
174
     0
 93
        1
 44
0.0
173
     0
291
     0
 45
0.0
1001
ACAD
1000
AcDbSavedByObjectVersion
1070
     0
  0
VISUALSTYLE
  5
FA0
102
{ACAD_XDICTIONARY
360
F10C14
102
}
102
{ACAD_REACTORS
330
F93
102
}
330
F93
100
AcDbVisualStyle
  2

 70
    13
 71
     2
 72
     2
 73
     0
 90
        0
 40
-0.6
 41
-30.0
 62
     5
 63
     7
 74
     1
 91
        4
 64
     7
 65
   257
 75
     1
175
     1
 42
1.0
 92
       12
 66
     7
 43
1.0
 76
     1
 77
     6
 78
     2
 67
     7
 79
     5
170
     0
171
     0
290
     0
174
     0
 93
        1
 44
0.0
173
     0
291
     1
 45
0.0
1001
ACAD
1000
AcDbSavedByObjectVersion
1070
     0
  0
VISUALSTYLE
  5
F10A87
102
{ACAD_XDICTIONARY
360
F10C27
102
}
102
{ACAD_REACTORS
330
F93
102
}
330
F93
100
AcDbVisualStyle
  2
Wireframe
 70
     5
 71
     0
 72
     2
 73
     0
 90
        0
 40
-0.6
 41
-30.0
 62
     5
 63
     7
 74
     1
 91
        4
 64
     7
 65
   257
 75
     1
175
     1
 42
1.0
 92
        0
 66
   257
 43
1.0
 76
     1
 77
     6
 78
     2
 67
     7
 79
     3
170
     0
171
     0
290
     0
174
     0
 93
        1
 44
0.0
173
     0
291
     0
 45
0.0
1001
ACAD
1000
AcDbSavedByObjectVersion
1070
     0
  0
VISUALSTYLE
  5
F10A8B
102
{ACAD_XDICTIONARY
360
F10C2F
102
}
102
{ACAD_REACTORS
330
F93
102
}
330
F93
100
AcDbVisualStyle
  2
X-Ray
 70
    25
 71
     2
 72
     2
 73
     1
 90
        1
 40
0.5
 41
-30.0
 62
     5
 63
     7
 74
     1
 91
        0
 64
     7
 65
   257
 75
     1
175
     1
 42
1.0
 92
        8
 66
     7
 43
1.0
 76
     1
 77
     6
 78
     2
 67
     7
 79
     3
170
     0
171
     0
290
     0
174
     0
 93
       13
 44
0.0
173
     0
291
     0
 45
0.0
1001
ACAD
1000
AcDbSavedByObjectVersion
1070
     0
  0
DICTIONARYVAR
  5
F10BF4
102
{ACAD_REACTORS
330
F10BF1
102
}
330
F10BF1
100
DictionaryVariables
280
     0
  1
1:1
  0
DICTIONARYVAR
  5
F10BF3
102
{ACAD_REACTORS
330
F10BF1
102
}
330
F10BF1
100
DictionaryVariables
280
     0
  1
STANDARD
  0
DICTIONARYVAR
  5
F10BF2
102
{ACAD_REACTORS
330
F10BF1
102
}
330
F10BF1
100
DictionaryVariables
280
     0
  1
STANDARD
  0
DICTIONARYVAR
  5
F10BF7
102
{ACAD_REACTORS
330
F10BF1
102
}
330
F10BF1
100
DictionaryVariables
280
     0
  1
1
  0
DICTIONARYVAR
  5
F10BF6
102
{ACAD_REACTORS
330
F10BF1
102
}
330
F10BF1
100
DictionaryVariables
280
     0
  1
0
  0
DICTIONARYVAR
  5
F10BF5
102
{ACAD_REACTORS
330
F10BF1
102
}
330
F10BF1
100
DictionaryVariables
280
     0
  1
127
  0
DICTIONARYVAR
  5
F10BF8
102
{ACAD_REACTORS
330
F10BF1
102
}
330
F10BF1
100
DictionaryVariables
280
     0
  1
2
  0
DICTIONARY
  5
F10AE7
102
{ACAD_REACTORS
330
F10ADC
102
}
330
F10ADC
100
AcDbDictionary
281
     1
  0
DICTIONARY
  5
F10C25
330
FD1
100
AcDbDictionary
280
     1
281
     1
  3
ACAD_XREC_ROUNDTRIP
360
F10C26
  0
DICTIONARY
  5
F10C23
330
FD0
100
AcDbDictionary
280
     1
281
     1
  3
ACAD_XREC_ROUNDTRIP
360
F10C24
  0
DICTIONARY
  5
F84
330
F83
100
AcDbDictionary
280
     1
281
     1
  3
ACAD_XREC_ROUNDTRIP
360
FFF
  3
BUMPTILE
360
F86
  3
DIFFUSETILE
360
F85
  3
OPACITYTILE
360
F89
  3
REFLECTIONTILE
360
F88
  3
REFRACTIONTILE
360
F8A
  3
SPECULARTILE
360
F87
  0
DICTIONARY
  5
F7C
330
F7B
100
AcDbDictionary
280
     1
281
     1
  3
ACAD_XREC_ROUNDTRIP
360
FFE
  3
BUMPTILE
360
F7E
  3
DIFFUSETILE
360
F7D
  3
OPACITYTILE
360
F81
  3
REFLECTIONTILE
360
F80
  3
REFRACTIONTILE
360
F82
  3
SPECULARTILE
360
F7F
  0
DICTIONARY
  5
F8C
330
F8B
100
AcDbDictionary
280
     1
281
     1
  3
ACAD_XREC_ROUNDTRIP
360
1000
  3
BUMPTILE
360
F8E
  3
DIFFUSETILE
360
F8D
  3
OPACITYTILE
360
F91
  3
REFLECTIONTILE
360
F90
  3
REFRACTIONTILE
360
F92
  3
SPECULARTILE
360
F8F
  0
DICTIONARY
  5
FF8
330
FA9
100
AcDbDictionary
280
     1
281
     1
  3
ACAD_ROUNDTRIP_2008_TABLESTYLE_CELLSTYLEMAP
360
F10BF9
  3
ACAD_XREC_ROUNDTRIP
360
F10C22
  0
DICTIONARY
  5
F10C06
330
F99
100
AcDbDictionary
280
     1
281
     1
  3
ACAD_XREC_ROUNDTRIP
360
F10C07
  0
DICTIONARY
  5
F10C0A
330
F9B
100
AcDbDictionary
280
     1
281
     1
  3
ACAD_XREC_ROUNDTRIP
360
F10C0B
  0
DICTIONARY
  5
F10C08
330
F9A
100
AcDbDictionary
280
     1
281
     1
  3
ACAD_XREC_ROUNDTRIP
360
F10C09
  0
DICTIONARY
  5
F10C04
330
F98
100
AcDbDictionary
280
     1
281
     1
  3
ACAD_XREC_ROUNDTRIP
360
F10C05
  0
DICTIONARY
  5
F10C12
330
F9F
100
AcDbDictionary
280
     1
281
     1
  3
ACAD_XREC_ROUNDTRIP
360
F10C13
  0
DICTIONARY
  5
F10C1A
330
FA3
100
AcDbDictionary
280
     1
281
     1
  3
ACAD_XREC_ROUNDTRIP
360
F10C1B
  0
DICTIONARY
  5
F10C0C
330
F9C
100
AcDbDictionary
280
     1
281
     1
  3
ACAD_XREC_ROUNDTRIP
360
F10C0D
  0
DICTIONARY
  5
F10C10
330
F9E
100
AcDbDictionary
280
     1
281
     1
  3
ACAD_XREC_ROUNDTRIP
360
F10C11
  0
DICTIONARY
  5
F10C20
330
FA6
100
AcDbDictionary
280
     1
281
     1
  3
ACAD_XREC_ROUNDTRIP
360
F10C21
  0
DICTIONARY
  5
F10C18
330
FA2
100
AcDbDictionary
280
     1
281
     1
  3
ACAD_XREC_ROUNDTRIP
360
F10C19
  0
DICTIONARY
  5
F10BFC
330
F94
100
AcDbDictionary
280
     1
281
     1
  3
ACAD_XREC_ROUNDTRIP
360
F10BFD
  0
DICTIONARY
  5
F10BFE
330
F95
100
AcDbDictionary
280
     1
281
     1
  3
ACAD_XREC_ROUNDTRIP
360
F10BFF
  0
DICTIONARY
  5
F10C00
330
F96
100
AcDbDictionary
280
     1
281
     1
  3
ACAD_XREC_ROUNDTRIP
360
F10C01
  0
DICTIONARY
  5
F10C02
330
F97
100
AcDbDictionary
280
     1
281
     1
  3
ACAD_XREC_ROUNDTRIP
360
F10C03
  0
DICTIONARY
  5
F10C29
330
F10A88
100
AcDbDictionary
280
     1
281
     1
  3
ACAD_XREC_ROUNDTRIP
360
F10C2A
  0
DICTIONARY
  5
F10C1C
330
FA4
100
AcDbDictionary
280
     1
281
     1
  3
ACAD_XREC_ROUNDTRIP
360
F10C1D
  0
DICTIONARY
  5
F10C16
330
FA1
100
AcDbDictionary
280
     1
281
     1
  3
ACAD_XREC_ROUNDTRIP
360
F10C17
  0
DICTIONARY
  5
F10C1E
330
FA5
100
AcDbDictionary
280
     1
281
     1
  3
ACAD_XREC_ROUNDTRIP
360
F10C1F
  0
DICTIONARY
  5
F10C0E
330
F9D
100
AcDbDictionary
280
     1
281
     1
  3
ACAD_XREC_ROUNDTRIP
360
F10C0F
  0
DICTIONARY
  5
F10C33
330
F10A8D
100
AcDbDictionary
280
     1
281
     1
  3
ACAD_XREC_ROUNDTRIP
360
F10C34
  0
DICTIONARY
  5
F10C31
330
F10A8C
100
AcDbDictionary
280
     1
281
     1
  3
ACAD_XREC_ROUNDTRIP
360
F10C32
  0
DICTIONARY
  5
F10C2B
330
F10A89
100
AcDbDictionary
280
     1
281
     1
  3
ACAD_XREC_ROUNDTRIP
360
F10C2C
  0
DICTIONARY
  5
F10C2D
330
F10A8A
100
AcDbDictionary
280
     1
281
     1
  3
ACAD_XREC_ROUNDTRIP
360
F10C2E
  0
DICTIONARY
  5
F10C14
330
FA0
100
AcDbDictionary
280
     1
281
     1
  3
ACAD_XREC_ROUNDTRIP
360
F10C15
  0
DICTIONARY
  5
F10C27
330
F10A87
100
AcDbDictionary
280
     1
281
     1
  3
ACAD_XREC_ROUNDTRIP
360
F10C28
  0
DICTIONARY
  5
F10C2F
330
F10A8B
100
AcDbDictionary
280
     1
281
     1
  3
ACAD_XREC_ROUNDTRIP
360
F10C30
  0
XRECORD
  5
F10C26
102
{ACAD_REACTORS
330
F10C25
102
}
330
F10C25
100
AcDbXrecord
280
     1
102
SHADEPLOT
 70
     0
102
SHADEPLOTRESLEVEL
 70
     2
102
SHADEPLOTCUSTOMDPI
 70
   300
  0
XRECORD
  5
F10C24
102
{ACAD_REACTORS
330
F10C23
102
}
330
F10C23
100
AcDbXrecord
280
     1
102
SHADEPLOT
 70
     0
102
SHADEPLOTRESLEVEL
 70
     2
102
SHADEPLOTCUSTOMDPI
 70
   300
  0
XRECORD
  5
FFF
102
{ACAD_REACTORS
330
F84
102
}
330
F84
100
AcDbXrecord
280
     1
102
MATERIAL
148
0.0
149
0.0
149
0.0
 93
        0
 94
      127
282
     0
 72
     0
 77
     0
171
     0
175
     0
179
     0
273
     0
  0
XRECORD
  5
F86
102
{ACAD_REACTORS
330
F84
102
}
330
F84
100
AcDbXrecord
280
     1
270
     1
271
     1
  0
XRECORD
  5
F85
102
{ACAD_REACTORS
330
F84
102
}
330
F84
100
AcDbXrecord
280
     1
270
     1
271
     1
  0
XRECORD
  5
F89
102
{ACAD_REACTORS
330
F84
102
}
330
F84
100
AcDbXrecord
280
     1
270
     1
271
     1
  0
XRECORD
  5
F88
102
{ACAD_REACTORS
330
F84
102
}
330
F84
100
AcDbXrecord
280
     1
270
     1
271
     1
  0
XRECORD
  5
F8A
102
{ACAD_REACTORS
330
F84
102
}
330
F84
100
AcDbXrecord
280
     1
270
     1
271
     1
  0
XRECORD
  5
F87
102
{ACAD_REACTORS
330
F84
102
}
330
F84
100
AcDbXrecord
280
     1
270
     1
271
     1
  0
XRECORD
  5
FFE
102
{ACAD_REACTORS
330
F7C
102
}
330
F7C
100
AcDbXrecord
280
     1
102
MATERIAL
148
0.0
149
0.0
149
0.0
 93
        0
 94
      127
282
     0
 72
     0
 77
     0
171
     0
175
     0
179
     0
273
     0
  0
XRECORD
  5
F7E
102
{ACAD_REACTORS
330
F7C
102
}
330
F7C
100
AcDbXrecord
280
     1
270
     1
271
     1
  0
XRECORD
  5
F7D
102
{ACAD_REACTORS
330
F7C
102
}
330
F7C
100
AcDbXrecord
280
     1
270
     1
271
     1
  0
XRECORD
  5
F81
102
{ACAD_REACTORS
330
F7C
102
}
330
F7C
100
AcDbXrecord
280
     1
270
     1
271
     1
  0
XRECORD
  5
F80
102
{ACAD_REACTORS
330
F7C
102
}
330
F7C
100
AcDbXrecord
280
     1
270
     1
271
     1
  0
XRECORD
  5
F82
102
{ACAD_REACTORS
330
F7C
102
}
330
F7C
100
AcDbXrecord
280
     1
270
     1
271
     1
  0
XRECORD
  5
F7F
102
{ACAD_REACTORS
330
F7C
102
}
330
F7C
100
AcDbXrecord
280
     1
270
     1
271
     1
  0
XRECORD
  5
1000
102
{ACAD_REACTORS
330
F8C
102
}
330
F8C
100
AcDbXrecord
280
     1
102
MATERIAL
148
0.0
149
0.0
149
0.0
 93
        0
 94
      127
282
     0
 72
     0
 77
     0
171
     0
175
     0
179
     0
273
     0
  0
XRECORD
  5
F8E
102
{ACAD_REACTORS
330
F8C
102
}
330
F8C
100
AcDbXrecord
280
     1
270
     1
271
     1
  0
XRECORD
  5
F8D
102
{ACAD_REACTORS
330
F8C
102
}
330
F8C
100
AcDbXrecord
280
     1
270
     1
271
     1
  0
XRECORD
  5
F91
102
{ACAD_REACTORS
330
F8C
102
}
330
F8C
100
AcDbXrecord
280
     1
270
     1
271
     1
  0
XRECORD
  5
F90
102
{ACAD_REACTORS
330
F8C
102
}
330
F8C
100
AcDbXrecord
280
     1
270
     1
271
     1
  0
XRECORD
  5
F92
102
{ACAD_REACTORS
330
F8C
102
}
330
F8C
100
AcDbXrecord
280
     1
270
     1
271
     1
  0
XRECORD
  5
F8F
102
{ACAD_REACTORS
330
F8C
102
}
330
F8C
100
AcDbXrecord
280
     1
270
     1
271
     1
  0
CELLSTYLEMAP
  5
F10BF9
102
{ACAD_REACTORS
330
FF8
102
}
330
FF8
100
AcDbCellStyleMap
 90
        3
300
CELLSTYLE
  1
TABLEFORMAT_BEGIN
 90
        5
170
     1
 91
        0
 92
    32768
 62
   257
 93
        1
300
CONTENTFORMAT
  1
CONTENTFORMAT_BEGIN
 90
        0
 91
        0
 92
      512
 93
        0
300

 40
0.0
140
1.0
 94
        5
 62
     0
340
253
144
0.25
309
CONTENTFORMAT_END
171
     1
301
MARGIN
  1
CELLMARGIN_BEGIN
 40
0.06
 40
0.06
 40
0.06
 40
0.06
 40
0.18
 40
0.18
309
CELLMARGIN_END
 94
        6
 95
        1
302
GRIDFORMAT
  1
GRIDFORMAT_BEGIN
 90
        0
 91
        1
 62
     0
 92
       -2
340
0
 93
        0
 40
0.045
309
GRIDFORMAT_END
 95
        2
302
GRIDFORMAT
  1
GRIDFORMAT_BEGIN
 90
        0
 91
        1
 62
     0
 92
       -2
340
0
 93
        0
 40
0.045
309
GRIDFORMAT_END
 95
        4
302
GRIDFORMAT
  1
GRIDFORMAT_BEGIN
 90
        0
 91
        1
 62
     0
 92
       -2
340
0
 93
        0
 40
0.045
309
GRIDFORMAT_END
 95
        8
302
GRIDFORMAT
  1
GRIDFORMAT_BEGIN
 90
        0
 91
        1
 62
     0
 92
       -2
340
0
 93
        0
 40
0.045
309
GRIDFORMAT_END
 95
       16
302
GRIDFORMAT
  1
GRIDFORMAT_BEGIN
 90
        0
 91
        1
 62
     0
 92
       -2
340
0
 93
        0
 40
0.045
309
GRIDFORMAT_END
 95
       32
302
GRIDFORMAT
  1
GRIDFORMAT_BEGIN
 90
        0
 91
        1
 62
     0
 92
       -2
340
0
 93
        0
 40
0.045
309
GRIDFORMAT_END
309
TABLEFORMAT_END
  1
CELLSTYLE_BEGIN
 90
        1
 91
        1
300
_TITLE
309
CELLSTYLE_END
300
CELLSTYLE
  1
TABLEFORMAT_BEGIN
 90
        5
170
     1
 91
        0
 92
        0
 62
   257
 93
        1
300
CONTENTFORMAT
  1
CONTENTFORMAT_BEGIN
 90
        0
 91
        0
 92
      512
 93
        0
300

 40
0.0
140
1.0
 94
        5
 62
     0
340
253
144
0.18
309
CONTENTFORMAT_END
171
     1
301
MARGIN
  1
CELLMARGIN_BEGIN
 40
0.06
 40
0.06
 40
0.06
 40
0.06
 40
0.18
 40
0.18
309
CELLMARGIN_END
 94
        6
 95
        1
302
GRIDFORMAT
  1
GRIDFORMAT_BEGIN
 90
        0
 91
        1
 62
     0
 92
       -2
340
0
 93
        0
 40
0.045
309
GRIDFORMAT_END
 95
        2
302
GRIDFORMAT
  1
GRIDFORMAT_BEGIN
 90
        0
 91
        1
 62
     0
 92
       -2
340
0
 93
        0
 40
0.045
309
GRIDFORMAT_END
 95
        4
302
GRIDFORMAT
  1
GRIDFORMAT_BEGIN
 90
        0
 91
        1
 62
     0
 92
       -2
340
0
 93
        0
 40
0.045
309
GRIDFORMAT_END
 95
        8
302
GRIDFORMAT
  1
GRIDFORMAT_BEGIN
 90
        0
 91
        1
 62
     0
 92
       -2
340
0
 93
        0
 40
0.045
309
GRIDFORMAT_END
 95
       16
302
GRIDFORMAT
  1
GRIDFORMAT_BEGIN
 90
        0
 91
        1
 62
     0
 92
       -2
340
0
 93
        0
 40
0.045
309
GRIDFORMAT_END
 95
       32
302
GRIDFORMAT
  1
GRIDFORMAT_BEGIN
 90
        0
 91
        1
 62
     0
 92
       -2
340
0
 93
        0
 40
0.045
309
GRIDFORMAT_END
309
TABLEFORMAT_END
  1
CELLSTYLE_BEGIN
 90
        2
 91
        1
300
_HEADER
309
CELLSTYLE_END
300
CELLSTYLE
  1
TABLEFORMAT_BEGIN
 90
        5
170
     1
 91
        0
 92
        0
 62
   257
 93
        1
300
CONTENTFORMAT
  1
CONTENTFORMAT_BEGIN
 90
        0
 91
        0
 92
      512
 93
        0
300

 40
0.0
140
1.0
 94
        2
 62
     0
340
253
144
0.18
309
CONTENTFORMAT_END
171
     1
301
MARGIN
  1
CELLMARGIN_BEGIN
 40
0.06
 40
0.06
 40
0.06
 40
0.06
 40
0.18
 40
0.18
309
CELLMARGIN_END
 94
        6
 95
        1
302
GRIDFORMAT
  1
GRIDFORMAT_BEGIN
 90
        0
 91
        1
 62
     0
 92
       -2
340
0
 93
        0
 40
0.045
309
GRIDFORMAT_END
 95
        2
302
GRIDFORMAT
  1
GRIDFORMAT_BEGIN
 90
        0
 91
        1
 62
     0
 92
       -2
340
0
 93
        0
 40
0.045
309
GRIDFORMAT_END
 95
        4
302
GRIDFORMAT
  1
GRIDFORMAT_BEGIN
 90
        0
 91
        1
 62
     0
 92
       -2
340
0
 93
        0
 40
0.045
309
GRIDFORMAT_END
 95
        8
302
GRIDFORMAT
  1
GRIDFORMAT_BEGIN
 90
        0
 91
        1
 62
     0
 92
       -2
340
0
 93
        0
 40
0.045
309
GRIDFORMAT_END
 95
       16
302
GRIDFORMAT
  1
GRIDFORMAT_BEGIN
 90
        0
 91
        1
 62
     0
 92
       -2
340
0
 93
        0
 40
0.045
309
GRIDFORMAT_END
 95
       32
302
GRIDFORMAT
  1
GRIDFORMAT_BEGIN
 90
        0
 91
        1
 62
     0
 92
       -2
340
0
 93
        0
 40
0.045
309
GRIDFORMAT_END
309
TABLEFORMAT_END
  1
CELLSTYLE_BEGIN
 90
        3
 91
        2
300
_DATA
309
CELLSTYLE_END
  0
XRECORD
  5
F10C22
102
{ACAD_REACTORS
330
FF8
102
}
330
FF8
100
AcDbXrecord
280
     1
102
ACAD_ROUNDTRIP_PRE2007_TABLESTYLE
 90
      512
 91
        0
  1

 92
      512
 93
        0
  2

 94
      512
 95
        0
  3

  0
XRECORD
  5
F10C07
102
{ACAD_REACTORS
330
F10C06
102
}
330
F10C06
100
AcDbXrecord
280
     1
102
RTVSPropertyOp0
 70
     1
102
RTVSPropertyOp1
 70
     1
102
RTVSPropertyOp2
 70
     1
102
RTVSPropertyOp3
 70
     1
102
RTVSPropertyOp4
 70
     1
102
RTVSPropertyOp5
 70
     1
102
RTVSPropertyOp6
 70
     1
102
RTVSPropertyOp7
 70
     1
102
RTVSPropertyOp8
 70
     1
102
RTVSPropertyOp9
 70
     1
102
RTVSPropertyOp10
 70
     1
102
RTVSPropertyOp11
 70
     1
102
RTVSPropertyOp12
 70
     1
102
RTVSPropertyOp13
 70
     1
102
RTVSPropertyOp14
 70
     1
102
RTVSPropertyOp15
 70
     1
102
RTVSPropertyOp16
 70
     1
102
RTVSPropertyOp17
 70
     1
102
RTVSPropertyOp18
 70
     1
102
RTVSPropertyOp19
 70
     1
102
RTVSPropertyOp20
 70
     1
102
RTVSPropertyOp21
 70
     1
102
RTVSPropertyOp22
 70
     1
102
RTVSPropertyOp23
 70
     1
102
RTVSPropertyOp24
 70
     1
102
RTVSPropertyOp25
 70
     1
102
RTVSPropertyOp26
 70
     1
102
RTVSPropertyOp27
 70
     1
102
RTVSPropertyOp28
 70
     1
102
RTVSPropertyOp29
 70
     1
102
RTVSPropertyOp30
 70
     1
102
RTVSPropertyOp31
 70
     1
102
RTVSPropertyOp32
 70
     1
  0
XRECORD
  5
F10C0B
102
{ACAD_REACTORS
330
F10C0A
102
}
330
F10C0A
100
AcDbXrecord
280
     1
102
RTVSPropertyOp0
 70
     1
102
RTVSPropertyOp1
 70
     1
102
RTVSPropertyOp2
 70
     1
102
RTVSPropertyOp3
 70
     1
102
RTVSPropertyOp4
 70
     1
102
RTVSPropertyOp5
 70
     1
102
RTVSPropertyOp6
 70
     1
102
RTVSPropertyOp7
 70
     1
102
RTVSPropertyOp8
 70
     1
102
RTVSPropertyOp9
 70
     1
102
RTVSPropertyOp10
 70
     1
102
RTVSPropertyOp11
 70
     1
102
RTVSPropertyOp12
 70
     1
102
RTVSPropertyOp13
 70
     1
102
RTVSPropertyOp14
 70
     1
102
RTVSPropertyOp15
 70
     1
102
RTVSPropertyOp16
 70
     1
102
RTVSPropertyOp17
 70
     1
102
RTVSPropertyOp18
 70
     1
102
RTVSPropertyOp19
 70
     1
102
RTVSPropertyOp20
 70
     1
102
RTVSPropertyOp21
 70
     1
102
RTVSPropertyOp22
 70
     1
102
RTVSPropertyOp23
 70
     1
102
RTVSPropertyOp24
 70
     1
102
RTVSPropertyOp25
 70
     1
102
RTVSPropertyOp26
 70
     1
102
RTVSPropertyOp27
 70
     1
102
RTVSPropertyOp28
 70
     1
102
RTVSPropertyOp29
 70
     1
102
RTVSPropertyOp30
 70
     1
102
RTVSPropertyOp31
 70
     1
102
RTVSPropertyOp32
 70
     1
  0
XRECORD
  5
F10C09
102
{ACAD_REACTORS
330
F10C08
102
}
330
F10C08
100
AcDbXrecord
280
     1
102
RTVSPropertyOp0
 70
     1
102
RTVSPropertyOp1
 70
     1
102
RTVSPropertyOp2
 70
     1
102
RTVSPropertyOp3
 70
     1
102
RTVSPropertyOp4
 70
     1
102
RTVSPropertyOp5
 70
     1
102
RTVSPropertyOp6
 70
     1
102
RTVSPropertyOp7
 70
     1
102
RTVSPropertyOp8
 70
     1
102
RTVSPropertyOp9
 70
     1
102
RTVSPropertyOp10
 70
     1
102
RTVSPropertyOp11
 70
     1
102
RTVSPropertyOp12
 70
     1
102
RTVSPropertyOp13
 70
     1
102
RTVSPropertyOp14
 70
     1
102
RTVSPropertyOp15
 70
     1
102
RTVSPropertyOp16
 70
     1
102
RTVSPropertyOp17
 70
     1
102
RTVSPropertyOp18
 70
     1
102
RTVSPropertyOp19
 70
     1
102
RTVSPropertyOp20
 70
     1
102
RTVSPropertyOp21
 70
     1
102
RTVSPropertyOp22
 70
     1
102
RTVSPropertyOp23
 70
     1
102
RTVSPropertyOp24
 70
     1
102
RTVSPropertyOp25
 70
     1
102
RTVSPropertyOp26
 70
     1
102
RTVSPropertyOp27
 70
     1
102
RTVSPropertyOp28
 70
     1
102
RTVSPropertyOp29
 70
     1
102
RTVSPropertyOp30
 70
     1
102
RTVSPropertyOp31
 70
     1
102
RTVSPropertyOp32
 70
     1
  0
XRECORD
  5
F10C05
102
{ACAD_REACTORS
330
F10C04
102
}
330
F10C04
100
AcDbXrecord
280
     1
102
RTVSPropertyOp0
 70
     1
102
RTVSPropertyOp1
 70
     1
102
RTVSPropertyOp2
 70
     1
102
RTVSPropertyOp3
 70
     1
102
RTVSPropertyOp4
 70
     1
102
RTVSPropertyOp5
 70
     1
102
RTVSPropertyOp6
 70
     1
102
RTVSPropertyOp7
 70
     1
102
RTVSPropertyOp8
 70
     1
102
RTVSPropertyOp9
 70
     1
102
RTVSPropertyOp10
 70
     1
102
RTVSPropertyOp11
 70
     1
102
RTVSPropertyOp12
 70
     1
102
RTVSPropertyOp13
 70
     1
102
RTVSPropertyOp14
 70
     1
102
RTVSPropertyOp15
 70
     1
102
RTVSPropertyOp16
 70
     1
102
RTVSPropertyOp17
 70
     1
102
RTVSPropertyOp18
 70
     1
102
RTVSPropertyOp19
 70
     1
102
RTVSPropertyOp20
 70
     1
102
RTVSPropertyOp21
 70
     1
102
RTVSPropertyOp22
 70
     1
102
RTVSPropertyOp23
 70
     1
102
RTVSPropertyOp24
 70
     1
102
RTVSPropertyOp25
 70
     1
102
RTVSPropertyOp26
 70
     1
102
RTVSPropertyOp27
 70
     1
102
RTVSPropertyOp28
 70
     1
102
RTVSPropertyOp29
 70
     1
102
RTVSPropertyOp30
 70
     1
102
RTVSPropertyOp31
 70
     1
102
RTVSPropertyOp32
 70
     1
  0
XRECORD
  5
F10C13
102
{ACAD_REACTORS
330
F10C12
102
}
330
F10C12
100
AcDbXrecord
280
     1
102
RTVSPropertyOp0
 70
     1
102
RTVSPropertyOp1
 70
     1
102
RTVSPropertyOp2
 70
     1
102
RTVSPropertyOp3
 70
     1
102
RTVSPropertyOp4
 70
     1
102
RTVSPropertyOp5
 70
     1
102
RTVSPropertyOp6
 70
     1
102
RTVSPropertyOp7
 70
     1
102
RTVSPropertyOp8
 70
     1
102
RTVSPropertyOp9
 70
     1
102
RTVSPropertyOp10
 70
     1
102
RTVSPropertyOp11
 70
     1
102
RTVSPropertyOp12
 70
     1
102
RTVSPropertyOp13
 70
     1
102
RTVSPropertyOp14
 70
     1
102
RTVSPropertyOp15
 70
     1
102
RTVSPropertyOp16
 70
     1
102
RTVSPropertyOp17
 70
     1
102
RTVSPropertyOp18
 70
     1
102
RTVSPropertyOp19
 70
     1
102
RTVSPropertyOp20
 70
     1
102
RTVSPropertyOp21
 70
     1
102
RTVSPropertyOp22
 70
     1
102
RTVSPropertyOp23
 70
     1
102
RTVSPropertyOp24
 70
     1
102
RTVSPropertyOp25
 70
     1
102
RTVSPropertyOp26
 70
     1
102
RTVSPropertyOp27
 70
     1
102
RTVSPropertyOp28
 70
     1
102
RTVSPropertyOp29
 70
     1
102
RTVSPropertyOp30
 70
     1
102
RTVSPropertyOp31
 70
     1
102
RTVSPropertyOp32
 70
     1
  0
XRECORD
  5
F10C1B
102
{ACAD_REACTORS
330
F10C1A
102
}
330
F10C1A
100
AcDbXrecord
280
     1
102
RTVSPropertyOp0
 70
     1
102
RTVSPropertyOp1
 70
     1
102
RTVSPropertyOp2
 70
     1
102
RTVSPropertyOp3
 70
     1
102
RTVSPropertyOp4
 70
     1
102
RTVSPropertyOp5
 70
     1
102
RTVSPropertyOp6
 70
     1
102
RTVSPropertyOp7
 70
     1
102
RTVSPropertyOp8
 70
     1
102
RTVSPropertyOp9
 70
     1
102
RTVSPropertyOp10
 70
     1
102
RTVSPropertyOp11
 70
     1
102
RTVSPropertyOp12
 70
     1
102
RTVSPropertyOp13
 70
     1
102
RTVSPropertyOp14
 70
     1
102
RTVSPropertyOp15
 70
     1
102
RTVSPropertyOp16
 70
     1
102
RTVSPropertyOp17
 70
     1
102
RTVSPropertyOp18
 70
     1
102
RTVSPropertyOp19
 70
     1
102
RTVSPropertyOp20
 70
     1
102
RTVSPropertyOp21
 70
     1
102
RTVSPropertyOp22
 70
     1
102
RTVSPropertyOp23
 70
     1
102
RTVSPropertyOp24
 70
     1
102
RTVSPropertyOp25
 70
     1
102
RTVSPropertyOp26
 70
     1
102
RTVSPropertyOp27
 70
     1
102
RTVSPropertyOp28
 70
     1
102
RTVSPropertyOp29
 70
     1
102
RTVSPropertyOp30
 70
     1
102
RTVSPropertyOp31
 70
     1
102
RTVSPropertyOp32
 70
     1
  0
XRECORD
  5
F10C0D
102
{ACAD_REACTORS
330
F10C0C
102
}
330
F10C0C
100
AcDbXrecord
280
     1
102
RTVSPropertyOp0
 70
     1
102
RTVSPropertyOp1
 70
     1
102
RTVSPropertyOp2
 70
     1
102
RTVSPropertyOp3
 70
     1
102
RTVSPropertyOp4
 70
     1
102
RTVSPropertyOp5
 70
     1
102
RTVSPropertyOp6
 70
     1
102
RTVSPropertyOp7
 70
     1
102
RTVSPropertyOp8
 70
     1
102
RTVSPropertyOp9
 70
     1
102
RTVSPropertyOp10
 70
     1
102
RTVSPropertyOp11
 70
     1
102
RTVSPropertyOp12
 70
     1
102
RTVSPropertyOp13
 70
     1
102
RTVSPropertyOp14
 70
     1
102
RTVSPropertyOp15
 70
     1
102
RTVSPropertyOp16
 70
     1
102
RTVSPropertyOp17
 70
     1
102
RTVSPropertyOp18
 70
     1
102
RTVSPropertyOp19
 70
     1
102
RTVSPropertyOp20
 70
     1
102
RTVSPropertyOp21
 70
     1
102
RTVSPropertyOp22
 70
     1
102
RTVSPropertyOp23
 70
     1
102
RTVSPropertyOp24
 70
     1
102
RTVSPropertyOp25
 70
     1
102
RTVSPropertyOp26
 70
     1
102
RTVSPropertyOp27
 70
     1
102
RTVSPropertyOp28
 70
     1
102
RTVSPropertyOp29
 70
     1
102
RTVSPropertyOp30
 70
     1
102
RTVSPropertyOp31
 70
     1
102
RTVSPropertyOp32
 70
     1
  0
XRECORD
  5
F10C11
102
{ACAD_REACTORS
330
F10C10
102
}
330
F10C10
100
AcDbXrecord
280
     1
102
RTVSPropertyOp0
 70
     1
102
RTVSPropertyOp1
 70
     1
102
RTVSPropertyOp2
 70
     1
102
RTVSPropertyOp3
 70
     1
102
RTVSPropertyOp4
 70
     1
102
RTVSPropertyOp5
 70
     1
102
RTVSPropertyOp6
 70
     1
102
RTVSPropertyOp7
 70
     1
102
RTVSPropertyOp8
 70
     1
102
RTVSPropertyOp9
 70
     1
102
RTVSPropertyOp10
 70
     1
102
RTVSPropertyOp11
 70
     1
102
RTVSPropertyOp12
 70
     1
102
RTVSPropertyOp13
 70
     1
102
RTVSPropertyOp14
 70
     1
102
RTVSPropertyOp15
 70
     1
102
RTVSPropertyOp16
 70
     1
102
RTVSPropertyOp17
 70
     1
102
RTVSPropertyOp18
 70
     1
102
RTVSPropertyOp19
 70
     1
102
RTVSPropertyOp20
 70
     1
102
RTVSPropertyOp21
 70
     1
102
RTVSPropertyOp22
 70
     1
102
RTVSPropertyOp23
 70
     1
102
RTVSPropertyOp24
 70
     1
102
RTVSPropertyOp25
 70
     1
102
RTVSPropertyOp26
 70
     1
102
RTVSPropertyOp27
 70
     1
102
RTVSPropertyOp28
 70
     1
102
RTVSPropertyOp29
 70
     1
102
RTVSPropertyOp30
 70
     1
102
RTVSPropertyOp31
 70
     1
102
RTVSPropertyOp32
 70
     1
  0
XRECORD
  5
F10C21
102
{ACAD_REACTORS
330
F10C20
102
}
330
F10C20
100
AcDbXrecord
280
     1
102
RTVSPropertyOp0
 70
     0
102
RTVSPropertyOp1
 70
     0
102
RTVSPropertyOp2
 70
     0
102
RTVSPropertyOp3
 70
     0
102
RTVSPropertyOp4
 70
     0
102
RTVSPropertyOp5
 70
     0
102
RTVSPropertyOp6
 70
     0
102
RTVSPropertyOp7
 70
     0
102
RTVSPropertyOp8
 70
     0
102
RTVSPropertyOp9
 70
     0
102
RTVSPropertyOp10
 70
     0
102
RTVSPropertyOp11
 70
     0
102
RTVSPropertyOp12
 70
     0
102
RTVSPropertyOp13
 70
     0
102
RTVSPropertyOp14
 70
     2
102
RTVSPropertyOp15
 70
     0
102
RTVSPropertyOp16
 70
     0
102
RTVSPropertyOp17
 70
     0
102
RTVSPropertyOp18
 70
     0
102
RTVSPropertyOp19
 70
     0
102
RTVSPropertyOp20
 70
     0
102
RTVSPropertyOp21
 70
     0
102
RTVSPropertyOp22
 70
     0
102
RTVSPropertyOp23
 70
     0
102
RTVSPropertyOp24
 70
     0
102
RTVSPropertyOp25
 70
     0
102
RTVSPropertyOp26
 70
     0
102
RTVSPropertyOp27
 70
     0
102
RTVSPropertyOp28
 70
     1
102
RTVSPropertyOp29
 70
     1
102
RTVSPropertyOp30
 70
     1
102
RTVSPropertyOp31
 70
     1
102
RTVSPropertyOp32
 70
     1
  0
XRECORD
  5
F10C19
102
{ACAD_REACTORS
330
F10C18
102
}
330
F10C18
100
AcDbXrecord
280
     1
102
RTVSPropertyOp0
 70
     1
102
RTVSPropertyOp1
 70
     1
102
RTVSPropertyOp2
 70
     1
102
RTVSPropertyOp3
 70
     1
102
RTVSPropertyOp4
 70
     1
102
RTVSPropertyOp5
 70
     1
102
RTVSPropertyOp6
 70
     1
102
RTVSPropertyOp7
 70
     1
102
RTVSPropertyOp8
 70
     1
102
RTVSPropertyOp9
 70
     1
102
RTVSPropertyOp10
 70
     1
102
RTVSPropertyOp11
 70
     1
102
RTVSPropertyOp12
 70
     1
102
RTVSPropertyOp13
 70
     1
102
RTVSPropertyOp14
 70
     1
102
RTVSPropertyOp15
 70
     1
102
RTVSPropertyOp16
 70
     1
102
RTVSPropertyOp17
 70
     1
102
RTVSPropertyOp18
 70
     1
102
RTVSPropertyOp19
 70
     1
102
RTVSPropertyOp20
 70
     1
102
RTVSPropertyOp21
 70
     1
102
RTVSPropertyOp22
 70
     1
102
RTVSPropertyOp23
 70
     1
102
RTVSPropertyOp24
 70
     1
102
RTVSPropertyOp25
 70
     1
102
RTVSPropertyOp26
 70
     1
102
RTVSPropertyOp27
 70
     1
102
RTVSPropertyOp28
 70
     1
102
RTVSPropertyOp29
 70
     1
102
RTVSPropertyOp30
 70
     1
102
RTVSPropertyOp31
 70
     1
102
RTVSPropertyOp32
 70
     1
  0
XRECORD
  5
F10BFD
102
{ACAD_REACTORS
330
F10BFC
102
}
330
F10BFC
100
AcDbXrecord
280
     1
102
RTVSPropertyOp0
 70
     1
102
RTVSPropertyOp1
 70
     1
102
RTVSPropertyOp2
 70
     1
102
RTVSPropertyOp3
 70
     1
102
RTVSPropertyOp4
 70
     1
102
RTVSPropertyOp5
 70
     1
102
RTVSPropertyOp6
 70
     1
102
RTVSPropertyOp7
 70
     1
102
RTVSPropertyOp8
 70
     1
102
RTVSPropertyOp9
 70
     1
102
RTVSPropertyOp10
 70
     1
102
RTVSPropertyOp11
 70
     1
102
RTVSPropertyOp12
 70
     1
102
RTVSPropertyOp13
 70
     1
102
RTVSPropertyOp14
 70
     1
102
RTVSPropertyOp15
 70
     1
102
RTVSPropertyOp16
 70
     1
102
RTVSPropertyOp17
 70
     1
102
RTVSPropertyOp18
 70
     1
102
RTVSPropertyOp19
 70
     1
102
RTVSPropertyOp20
 70
     1
102
RTVSPropertyOp21
 70
     1
102
RTVSPropertyOp22
 70
     1
102
RTVSPropertyOp23
 70
     1
102
RTVSPropertyOp24
 70
     1
102
RTVSPropertyOp25
 70
     1
102
RTVSPropertyOp26
 70
     1
102
RTVSPropertyOp27
 70
     1
102
RTVSPropertyOp28
 70
     1
102
RTVSPropertyOp29
 70
     1
102
RTVSPropertyOp30
 70
     1
102
RTVSPropertyOp31
 70
     1
102
RTVSPropertyOp32
 70
     1
  0
XRECORD
  5
F10BFF
102
{ACAD_REACTORS
330
F10BFE
102
}
330
F10BFE
100
AcDbXrecord
280
     1
102
RTVSPropertyOp0
 70
     1
102
RTVSPropertyOp1
 70
     1
102
RTVSPropertyOp2
 70
     1
102
RTVSPropertyOp3
 70
     1
102
RTVSPropertyOp4
 70
     1
102
RTVSPropertyOp5
 70
     1
102
RTVSPropertyOp6
 70
     1
102
RTVSPropertyOp7
 70
     1
102
RTVSPropertyOp8
 70
     1
102
RTVSPropertyOp9
 70
     1
102
RTVSPropertyOp10
 70
     1
102
RTVSPropertyOp11
 70
     1
102
RTVSPropertyOp12
 70
     1
102
RTVSPropertyOp13
 70
     1
102
RTVSPropertyOp14
 70
     1
102
RTVSPropertyOp15
 70
     1
102
RTVSPropertyOp16
 70
     1
102
RTVSPropertyOp17
 70
     1
102
RTVSPropertyOp18
 70
     1
102
RTVSPropertyOp19
 70
     1
102
RTVSPropertyOp20
 70
     1
102
RTVSPropertyOp21
 70
     1
102
RTVSPropertyOp22
 70
     1
102
RTVSPropertyOp23
 70
     1
102
RTVSPropertyOp24
 70
     1
102
RTVSPropertyOp25
 70
     1
102
RTVSPropertyOp26
 70
     1
102
RTVSPropertyOp27
 70
     1
102
RTVSPropertyOp28
 70
     1
102
RTVSPropertyOp29
 70
     1
102
RTVSPropertyOp30
 70
     1
102
RTVSPropertyOp31
 70
     1
102
RTVSPropertyOp32
 70
     1
  0
XRECORD
  5
F10C01
102
{ACAD_REACTORS
330
F10C00
102
}
330
F10C00
100
AcDbXrecord
280
     1
102
RTVSPropertyOp0
 70
     1
102
RTVSPropertyOp1
 70
     1
102
RTVSPropertyOp2
 70
     1
102
RTVSPropertyOp3
 70
     1
102
RTVSPropertyOp4
 70
     1
102
RTVSPropertyOp5
 70
     1
102
RTVSPropertyOp6
 70
     1
102
RTVSPropertyOp7
 70
     1
102
RTVSPropertyOp8
 70
     1
102
RTVSPropertyOp9
 70
     1
102
RTVSPropertyOp10
 70
     1
102
RTVSPropertyOp11
 70
     1
102
RTVSPropertyOp12
 70
     1
102
RTVSPropertyOp13
 70
     1
102
RTVSPropertyOp14
 70
     1
102
RTVSPropertyOp15
 70
     1
102
RTVSPropertyOp16
 70
     1
102
RTVSPropertyOp17
 70
     1
102
RTVSPropertyOp18
 70
     1
102
RTVSPropertyOp19
 70
     1
102
RTVSPropertyOp20
 70
     1
102
RTVSPropertyOp21
 70
     1
102
RTVSPropertyOp22
 70
     1
102
RTVSPropertyOp23
 70
     1
102
RTVSPropertyOp24
 70
     1
102
RTVSPropertyOp25
 70
     1
102
RTVSPropertyOp26
 70
     1
102
RTVSPropertyOp27
 70
     1
102
RTVSPropertyOp28
 70
     1
102
RTVSPropertyOp29
 70
     1
102
RTVSPropertyOp30
 70
     1
102
RTVSPropertyOp31
 70
     1
102
RTVSPropertyOp32
 70
     1
  0
XRECORD
  5
F10C03
102
{ACAD_REACTORS
330
F10C02
102
}
330
F10C02
100
AcDbXrecord
280
     1
102
RTVSPropertyOp0
 70
     1
102
RTVSPropertyOp1
 70
     1
102
RTVSPropertyOp2
 70
     1
102
RTVSPropertyOp3
 70
     1
102
RTVSPropertyOp4
 70
     1
102
RTVSPropertyOp5
 70
     1
102
RTVSPropertyOp6
 70
     1
102
RTVSPropertyOp7
 70
     1
102
RTVSPropertyOp8
 70
     1
102
RTVSPropertyOp9
 70
     1
102
RTVSPropertyOp10
 70
     1
102
RTVSPropertyOp11
 70
     1
102
RTVSPropertyOp12
 70
     1
102
RTVSPropertyOp13
 70
     1
102
RTVSPropertyOp14
 70
     1
102
RTVSPropertyOp15
 70
     1
102
RTVSPropertyOp16
 70
     1
102
RTVSPropertyOp17
 70
     1
102
RTVSPropertyOp18
 70
     1
102
RTVSPropertyOp19
 70
     1
102
RTVSPropertyOp20
 70
     1
102
RTVSPropertyOp21
 70
     1
102
RTVSPropertyOp22
 70
     1
102
RTVSPropertyOp23
 70
     1
102
RTVSPropertyOp24
 70
     1
102
RTVSPropertyOp25
 70
     1
102
RTVSPropertyOp26
 70
     1
102
RTVSPropertyOp27
 70
     1
102
RTVSPropertyOp28
 70
     1
102
RTVSPropertyOp29
 70
     1
102
RTVSPropertyOp30
 70
     1
102
RTVSPropertyOp31
 70
     1
102
RTVSPropertyOp32
 70
     1
  0
XRECORD
  5
F10C2A
102
{ACAD_REACTORS
330
F10C29
102
}
330
F10C29
100
AcDbXrecord
280
     1
102
RTVSPropertyOp0
 70
     1
102
RTVSPropertyOp1
 70
     1
102
RTVSPropertyOp2
 70
     1
102
RTVSPropertyOp3
 70
     1
102
RTVSPropertyOp4
 70
     1
102
RTVSPropertyOp5
 70
     1
102
RTVSPropertyOp6
 70
     1
102
RTVSPropertyOp7
 70
     1
102
RTVSPropertyOp8
 70
     1
102
RTVSPropertyOp9
 70
     1
102
RTVSPropertyOp10
 70
     1
102
RTVSPropertyOp11
 70
     1
102
RTVSPropertyOp12
 70
     1
102
RTVSPropertyOp13
 70
     1
102
RTVSPropertyOp14
 70
     1
102
RTVSPropertyOp15
 70
     1
102
RTVSPropertyOp16
 70
     1
102
RTVSPropertyOp17
 70
     1
102
RTVSPropertyOp18
 70
     1
102
RTVSPropertyOp19
 70
     1
102
RTVSPropertyOp20
 70
     1
102
RTVSPropertyOp21
 70
     1
102
RTVSPropertyOp22
 70
     1
102
RTVSPropertyOp23
 70
     1
102
RTVSPropertyOp24
 70
     1
102
RTVSPropertyOp25
 70
     1
102
RTVSPropertyOp26
 70
     1
102
RTVSPropertyOp27
 70
     1
102
RTVSPropertyOp28
 70
     1
102
RTVSPropertyOp29
 70
     1
102
RTVSPropertyOp30
 70
     1
102
RTVSPropertyOp31
 70
     1
102
RTVSPropertyOp32
 70
     1
  0
XRECORD
  5
F10C1D
102
{ACAD_REACTORS
330
F10C1C
102
}
330
F10C1C
100
AcDbXrecord
280
     1
102
RTVSPropertyOp0
 70
     0
102
RTVSPropertyOp1
 70
     0
102
RTVSPropertyOp2
 70
     0
102
RTVSPropertyOp3
 70
     0
102
RTVSPropertyOp4
 70
     0
102
RTVSPropertyOp5
 70
     0
102
RTVSPropertyOp6
 70
     0
102
RTVSPropertyOp7
 70
     0
102
RTVSPropertyOp8
 70
     0
102
RTVSPropertyOp9
 70
     0
102
RTVSPropertyOp10
 70
     0
102
RTVSPropertyOp11
 70
     0
102
RTVSPropertyOp12
 70
     0
102
RTVSPropertyOp13
 70
     0
102
RTVSPropertyOp14
 70
     2
102
RTVSPropertyOp15
 70
     0
102
RTVSPropertyOp16
 70
     0
102
RTVSPropertyOp17
 70
     0
102
RTVSPropertyOp18
 70
     0
102
RTVSPropertyOp19
 70
     0
102
RTVSPropertyOp20
 70
     0
102
RTVSPropertyOp21
 70
     0
102
RTVSPropertyOp22
 70
     0
102
RTVSPropertyOp23
 70
     0
102
RTVSPropertyOp24
 70
     0
102
RTVSPropertyOp25
 70
     0
102
RTVSPropertyOp26
 70
     0
102
RTVSPropertyOp27
 70
     0
102
RTVSPropertyOp28
 70
     1
102
RTVSPropertyOp29
 70
     1
102
RTVSPropertyOp30
 70
     1
102
RTVSPropertyOp31
 70
     1
102
RTVSPropertyOp32
 70
     1
  0
XRECORD
  5
F10C17
102
{ACAD_REACTORS
330
F10C16
102
}
330
F10C16
100
AcDbXrecord
280
     1
102
RTVSPropertyOp0
 70
     1
102
RTVSPropertyOp1
 70
     1
102
RTVSPropertyOp2
 70
     1
102
RTVSPropertyOp3
 70
     1
102
RTVSPropertyOp4
 70
     1
102
RTVSPropertyOp5
 70
     1
102
RTVSPropertyOp6
 70
     1
102
RTVSPropertyOp7
 70
     1
102
RTVSPropertyOp8
 70
     1
102
RTVSPropertyOp9
 70
     1
102
RTVSPropertyOp10
 70
     1
102
RTVSPropertyOp11
 70
     1
102
RTVSPropertyOp12
 70
     1
102
RTVSPropertyOp13
 70
     1
102
RTVSPropertyOp14
 70
     1
102
RTVSPropertyOp15
 70
     1
102
RTVSPropertyOp16
 70
     1
102
RTVSPropertyOp17
 70
     1
102
RTVSPropertyOp18
 70
     1
102
RTVSPropertyOp19
 70
     1
102
RTVSPropertyOp20
 70
     1
102
RTVSPropertyOp21
 70
     1
102
RTVSPropertyOp22
 70
     1
102
RTVSPropertyOp23
 70
     1
102
RTVSPropertyOp24
 70
     1
102
RTVSPropertyOp25
 70
     1
102
RTVSPropertyOp26
 70
     1
102
RTVSPropertyOp27
 70
     1
102
RTVSPropertyOp28
 70
     1
102
RTVSPropertyOp29
 70
     1
102
RTVSPropertyOp30
 70
     1
102
RTVSPropertyOp31
 70
     1
102
RTVSPropertyOp32
 70
     1
  0
XRECORD
  5
F10C1F
102
{ACAD_REACTORS
330
F10C1E
102
}
330
F10C1E
100
AcDbXrecord
280
     1
102
RTVSPropertyOp0
 70
     0
102
RTVSPropertyOp1
 70
     0
102
RTVSPropertyOp2
 70
     0
102
RTVSPropertyOp3
 70
     0
102
RTVSPropertyOp4
 70
     0
102
RTVSPropertyOp5
 70
     0
102
RTVSPropertyOp6
 70
     0
102
RTVSPropertyOp7
 70
     0
102
RTVSPropertyOp8
 70
     0
102
RTVSPropertyOp9
 70
     0
102
RTVSPropertyOp10
 70
     0
102
RTVSPropertyOp11
 70
     0
102
RTVSPropertyOp12
 70
     0
102
RTVSPropertyOp13
 70
     0
102
RTVSPropertyOp14
 70
     2
102
RTVSPropertyOp15
 70
     0
102
RTVSPropertyOp16
 70
     0
102
RTVSPropertyOp17
 70
     0
102
RTVSPropertyOp18
 70
     0
102
RTVSPropertyOp19
 70
     0
102
RTVSPropertyOp20
 70
     0
102
RTVSPropertyOp21
 70
     0
102
RTVSPropertyOp22
 70
     0
102
RTVSPropertyOp23
 70
     0
102
RTVSPropertyOp24
 70
     0
102
RTVSPropertyOp25
 70
     0
102
RTVSPropertyOp26
 70
     0
102
RTVSPropertyOp27
 70
     0
102
RTVSPropertyOp28
 70
     1
102
RTVSPropertyOp29
 70
     1
102
RTVSPropertyOp30
 70
     1
102
RTVSPropertyOp31
 70
     1
102
RTVSPropertyOp32
 70
     1
  0
XRECORD
  5
F10C0F
102
{ACAD_REACTORS
330
F10C0E
102
}
330
F10C0E
100
AcDbXrecord
280
     1
102
RTVSPropertyOp0
 70
     1
102
RTVSPropertyOp1
 70
     1
102
RTVSPropertyOp2
 70
     1
102
RTVSPropertyOp3
 70
     1
102
RTVSPropertyOp4
 70
     1
102
RTVSPropertyOp5
 70
     1
102
RTVSPropertyOp6
 70
     1
102
RTVSPropertyOp7
 70
     1
102
RTVSPropertyOp8
 70
     1
102
RTVSPropertyOp9
 70
     1
102
RTVSPropertyOp10
 70
     1
102
RTVSPropertyOp11
 70
     1
102
RTVSPropertyOp12
 70
     1
102
RTVSPropertyOp13
 70
     1
102
RTVSPropertyOp14
 70
     1
102
RTVSPropertyOp15
 70
     1
102
RTVSPropertyOp16
 70
     1
102
RTVSPropertyOp17
 70
     1
102
RTVSPropertyOp18
 70
     1
102
RTVSPropertyOp19
 70
     1
102
RTVSPropertyOp20
 70
     1
102
RTVSPropertyOp21
 70
     1
102
RTVSPropertyOp22
 70
     1
102
RTVSPropertyOp23
 70
     1
102
RTVSPropertyOp24
 70
     1
102
RTVSPropertyOp25
 70
     1
102
RTVSPropertyOp26
 70
     1
102
RTVSPropertyOp27
 70
     1
102
RTVSPropertyOp28
 70
     1
102
RTVSPropertyOp29
 70
     1
102
RTVSPropertyOp30
 70
     1
102
RTVSPropertyOp31
 70
     1
102
RTVSPropertyOp32
 70
     1
  0
XRECORD
  5
F10C34
102
{ACAD_REACTORS
330
F10C33
102
}
330
F10C33
100
AcDbXrecord
280
     1
102
RTVSPropertyOp0
 70
     1
102
RTVSPropertyOp1
 70
     1
102
RTVSPropertyOp2
 70
     1
102
RTVSPropertyOp3
 70
     1
102
RTVSPropertyOp4
 70
     1
102
RTVSPropertyOp5
 70
     1
102
RTVSPropertyOp6
 70
     1
102
RTVSPropertyOp7
 70
     1
102
RTVSPropertyOp8
 70
     1
102
RTVSPropertyOp9
 70
     1
102
RTVSPropertyOp10
 70
     1
102
RTVSPropertyOp11
 70
     1
102
RTVSPropertyOp12
 70
     1
102
RTVSPropertyOp13
 70
     1
102
RTVSPropertyOp14
 70
     1
102
RTVSPropertyOp15
 70
     1
102
RTVSPropertyOp16
 70
     1
102
RTVSPropertyOp17
 70
     1
102
RTVSPropertyOp18
 70
     1
102
RTVSPropertyOp19
 70
     1
102
RTVSPropertyOp20
 70
     1
102
RTVSPropertyOp21
 70
     1
102
RTVSPropertyOp22
 70
     1
102
RTVSPropertyOp23
 70
     1
102
RTVSPropertyOp24
 70
     1
102
RTVSPropertyOp25
 70
     1
102
RTVSPropertyOp26
 70
     1
102
RTVSPropertyOp27
 70
     1
102
RTVSPropertyOp28
 70
     1
102
RTVSPropertyOp29
 70
     1
102
RTVSPropertyOp30
 70
     1
102
RTVSPropertyOp31
 70
     1
102
RTVSPropertyOp32
 70
     1
  0
XRECORD
  5
F10C32
102
{ACAD_REACTORS
330
F10C31
102
}
330
F10C31
100
AcDbXrecord
280
     1
102
RTVSPropertyOp0
 70
     1
102
RTVSPropertyOp1
 70
     1
102
RTVSPropertyOp2
 70
     1
102
RTVSPropertyOp3
 70
     1
102
RTVSPropertyOp4
 70
     1
102
RTVSPropertyOp5
 70
     1
102
RTVSPropertyOp6
 70
     1
102
RTVSPropertyOp7
 70
     1
102
RTVSPropertyOp8
 70
     1
102
RTVSPropertyOp9
 70
     1
102
RTVSPropertyOp10
 70
     1
102
RTVSPropertyOp11
 70
     1
102
RTVSPropertyOp12
 70
     1
102
RTVSPropertyOp13
 70
     1
102
RTVSPropertyOp14
 70
     1
102
RTVSPropertyOp15
 70
     1
102
RTVSPropertyOp16
 70
     1
102
RTVSPropertyOp17
 70
     1
102
RTVSPropertyOp18
 70
     1
102
RTVSPropertyOp19
 70
     1
102
RTVSPropertyOp20
 70
     1
102
RTVSPropertyOp21
 70
     1
102
RTVSPropertyOp22
 70
     1
102
RTVSPropertyOp23
 70
     1
102
RTVSPropertyOp24
 70
     1
102
RTVSPropertyOp25
 70
     1
102
RTVSPropertyOp26
 70
     1
102
RTVSPropertyOp27
 70
     1
102
RTVSPropertyOp28
 70
     1
102
RTVSPropertyOp29
 70
     1
102
RTVSPropertyOp30
 70
     1
102
RTVSPropertyOp31
 70
     1
102
RTVSPropertyOp32
 70
     1
  0
XRECORD
  5
F10C2C
102
{ACAD_REACTORS
330
F10C2B
102
}
330
F10C2B
100
AcDbXrecord
280
     1
102
RTVSPropertyOp0
 70
     1
102
RTVSPropertyOp1
 70
     1
102
RTVSPropertyOp2
 70
     1
102
RTVSPropertyOp3
 70
     1
102
RTVSPropertyOp4
 70
     1
102
RTVSPropertyOp5
 70
     1
102
RTVSPropertyOp6
 70
     1
102
RTVSPropertyOp7
 70
     1
102
RTVSPropertyOp8
 70
     1
102
RTVSPropertyOp9
 70
     1
102
RTVSPropertyOp10
 70
     1
102
RTVSPropertyOp11
 70
     1
102
RTVSPropertyOp12
 70
     1
102
RTVSPropertyOp13
 70
     1
102
RTVSPropertyOp14
 70
     1
102
RTVSPropertyOp15
 70
     1
102
RTVSPropertyOp16
 70
     1
102
RTVSPropertyOp17
 70
     1
102
RTVSPropertyOp18
 70
     1
102
RTVSPropertyOp19
 70
     1
102
RTVSPropertyOp20
 70
     1
102
RTVSPropertyOp21
 70
     1
102
RTVSPropertyOp22
 70
     1
102
RTVSPropertyOp23
 70
     1
102
RTVSPropertyOp24
 70
     1
102
RTVSPropertyOp25
 70
     1
102
RTVSPropertyOp26
 70
     1
102
RTVSPropertyOp27
 70
     1
102
RTVSPropertyOp28
 70
     1
102
RTVSPropertyOp29
 70
     1
102
RTVSPropertyOp30
 70
     1
102
RTVSPropertyOp31
 70
     1
102
RTVSPropertyOp32
 70
     1
  0
XRECORD
  5
F10C2E
102
{ACAD_REACTORS
330
F10C2D
102
}
330
F10C2D
100
AcDbXrecord
280
     1
102
RTVSPropertyOp0
 70
     1
102
RTVSPropertyOp1
 70
     1
102
RTVSPropertyOp2
 70
     1
102
RTVSPropertyOp3
 70
     1
102
RTVSPropertyOp4
 70
     1
102
RTVSPropertyOp5
 70
     1
102
RTVSPropertyOp6
 70
     1
102
RTVSPropertyOp7
 70
     1
102
RTVSPropertyOp8
 70
     1
102
RTVSPropertyOp9
 70
     1
102
RTVSPropertyOp10
 70
     1
102
RTVSPropertyOp11
 70
     1
102
RTVSPropertyOp12
 70
     1
102
RTVSPropertyOp13
 70
     1
102
RTVSPropertyOp14
 70
     1
102
RTVSPropertyOp15
 70
     1
102
RTVSPropertyOp16
 70
     1
102
RTVSPropertyOp17
 70
     1
102
RTVSPropertyOp18
 70
     1
102
RTVSPropertyOp19
 70
     1
102
RTVSPropertyOp20
 70
     1
102
RTVSPropertyOp21
 70
     1
102
RTVSPropertyOp22
 70
     1
102
RTVSPropertyOp23
 70
     1
102
RTVSPropertyOp24
 70
     1
102
RTVSPropertyOp25
 70
     1
102
RTVSPropertyOp26
 70
     1
102
RTVSPropertyOp27
 70
     1
102
RTVSPropertyOp28
 70
     1
102
RTVSPropertyOp29
 70
     1
102
RTVSPropertyOp30
 70
     1
102
RTVSPropertyOp31
 70
     1
102
RTVSPropertyOp32
 70
     1
  0
XRECORD
  5
F10C15
102
{ACAD_REACTORS
330
F10C14
102
}
330
F10C14
100
AcDbXrecord
280
     1
102
RTVSPropertyOp0
 70
     1
102
RTVSPropertyOp1
 70
     1
102
RTVSPropertyOp2
 70
     1
102
RTVSPropertyOp3
 70
     1
102
RTVSPropertyOp4
 70
     1
102
RTVSPropertyOp5
 70
     1
102
RTVSPropertyOp6
 70
     1
102
RTVSPropertyOp7
 70
     1
102
RTVSPropertyOp8
 70
     1
102
RTVSPropertyOp9
 70
     1
102
RTVSPropertyOp10
 70
     1
102
RTVSPropertyOp11
 70
     1
102
RTVSPropertyOp12
 70
     1
102
RTVSPropertyOp13
 70
     1
102
RTVSPropertyOp14
 70
     1
102
RTVSPropertyOp15
 70
     1
102
RTVSPropertyOp16
 70
     1
102
RTVSPropertyOp17
 70
     1
102
RTVSPropertyOp18
 70
     1
102
RTVSPropertyOp19
 70
     1
102
RTVSPropertyOp20
 70
     1
102
RTVSPropertyOp21
 70
     1
102
RTVSPropertyOp22
 70
     1
102
RTVSPropertyOp23
 70
     1
102
RTVSPropertyOp24
 70
     1
102
RTVSPropertyOp25
 70
     1
102
RTVSPropertyOp26
 70
     1
102
RTVSPropertyOp27
 70
     1
102
RTVSPropertyOp28
 70
     1
102
RTVSPropertyOp29
 70
     1
102
RTVSPropertyOp30
 70
     1
102
RTVSPropertyOp31
 70
     1
102
RTVSPropertyOp32
 70
     1
  0
XRECORD
  5
F10C28
102
{ACAD_REACTORS
330
F10C27
102
}
330
F10C27
100
AcDbXrecord
280
     1
102
RTVSPropertyOp0
 70
     1
102
RTVSPropertyOp1
 70
     1
102
RTVSPropertyOp2
 70
     1
102
RTVSPropertyOp3
 70
     1
102
RTVSPropertyOp4
 70
     1
102
RTVSPropertyOp5
 70
     1
102
RTVSPropertyOp6
 70
     1
102
RTVSPropertyOp7
 70
     1
102
RTVSPropertyOp8
 70
     1
102
RTVSPropertyOp9
 70
     1
102
RTVSPropertyOp10
 70
     1
102
RTVSPropertyOp11
 70
     1
102
RTVSPropertyOp12
 70
     1
102
RTVSPropertyOp13
 70
     1
102
RTVSPropertyOp14
 70
     1
102
RTVSPropertyOp15
 70
     1
102
RTVSPropertyOp16
 70
     1
102
RTVSPropertyOp17
 70
     1
102
RTVSPropertyOp18
 70
     1
102
RTVSPropertyOp19
 70
     1
102
RTVSPropertyOp20
 70
     1
102
RTVSPropertyOp21
 70
     1
102
RTVSPropertyOp22
 70
     1
102
RTVSPropertyOp23
 70
     1
102
RTVSPropertyOp24
 70
     1
102
RTVSPropertyOp25
 70
     1
102
RTVSPropertyOp26
 70
     1
102
RTVSPropertyOp27
 70
     1
102
RTVSPropertyOp28
 70
     1
102
RTVSPropertyOp29
 70
     1
102
RTVSPropertyOp30
 70
     1
102
RTVSPropertyOp31
 70
     1
102
RTVSPropertyOp32
 70
     1
  0
XRECORD
  5
F10C30
102
{ACAD_REACTORS
330
F10C2F
102
}
330
F10C2F
100
AcDbXrecord
280
     1
102
RTVSPropertyOp0
 70
     1
102
RTVSPropertyOp1
 70
     1
102
RTVSPropertyOp2
 70
     1
102
RTVSPropertyOp3
 70
     1
102
RTVSPropertyOp4
 70
     1
102
RTVSPropertyOp5
 70
     1
102
RTVSPropertyOp6
 70
     1
102
RTVSPropertyOp7
 70
     1
102
RTVSPropertyOp8
 70
     1
102
RTVSPropertyOp9
 70
     1
102
RTVSPropertyOp10
 70
     1
102
RTVSPropertyOp11
 70
     1
102
RTVSPropertyOp12
 70
     1
102
RTVSPropertyOp13
 70
     1
102
RTVSPropertyOp14
 70
     1
102
RTVSPropertyOp15
 70
     1
102
RTVSPropertyOp16
 70
     1
102
RTVSPropertyOp17
 70
     1
102
RTVSPropertyOp18
 70
     1
102
RTVSPropertyOp19
 70
     1
102
RTVSPropertyOp20
 70
     1
102
RTVSPropertyOp21
 70
     1
102
RTVSPropertyOp22
 70
     1
102
RTVSPropertyOp23
 70
     1
102
RTVSPropertyOp24
 70
     1
102
RTVSPropertyOp25
 70
     1
102
RTVSPropertyOp26
 70
     1
102
RTVSPropertyOp27
 70
     1
102
RTVSPropertyOp28
 70
     1
102
RTVSPropertyOp29
 70
     1
102
RTVSPropertyOp30
 70
     1
102
RTVSPropertyOp31
 70
     1
102
RTVSPropertyOp32
 70
     1
  0
ENDSEC
  0
EOF
