  0
SECTION
  2
HEADER
  9
$ACADVER
  1
AC1015
  9
$ACADMAINTVER
 70
    20
  9
$DWGCODEPAGE
  3
ANSI_1252
  9
$INSBASE
 10
0.0
 20
0.0
 30
0.0
  9
$EXTMIN
 10
-148.5
 20
-100.174576271186
 30
0.0
  9
$EXTMAX
 10
143.466101694915
 20
109.2383945707213
 30
0.0
  9
$LIMMIN
 10
0.0
 20
0.0
  9
$LIMMAX
 10
12.0
 20
9.0
  9
$ORTHOMODE
 70
     0
  9
$REGENMODE
 70
     1
  9
$FILLMODE
 70
     1
  9
$QTEXTMODE
 70
     0
  9
$MIRRTEXT
 70
     1
  9
$LTSCALE
 40
1.0
  9
$ATTMODE
 70
     1
  9
$TEXTSIZE
 40
0.2
  9
$TRACEWID
 40
0.05
  9
$TEXTSTYLE
  7
Standard
  9
$CLAYER
  8
0
  9
$CELTYPE
  6
ByLayer
  9
$CECOLOR
 62
   256
  9
$CELTSCALE
 40
1.0
  9
$DISPSILH
 70
     0
  9
$DIMSCALE
 40
1.0
  9
$DIMASZ
 40
2.5
  9
$DIMEXO
 40
0.625
  9
$DIMDLI
 40
0.38
  9
$DIMRND
 40
0.0
  9
$DIMDLE
 40
0.0
  9
$DIMEXE
 40
1.25
  9
$DIMTP
 40
0.0
  9
$DIMTM
 40
0.000000001
  9
$DIMTXT
 40
2.5
  9
$DIMCEN
 40
0.09
  9
$DIMTSZ
 40
0.0
  9
$DIMTOL
 70
     1
  9
$DIMLIM
 70
     0
  9
$DIMTIH
 70
     0
  9
$DIMTOH
 70
     0
  9
$DIMSE1
 70
     0
  9
$DIMSE2
 70
     0
  9
$DIMTAD
 70
     1
  9
$DIMZIN
 70
     0
  9
$DIMBLK
  1
VDDIM_DEFAULT
  9
$DIMASO
 70
     1
  9
$DIMSHO
 70
     1
  9
$DIMPOST
  1

  9
$DIMAPOST
  1

  9
$DIMALT
 70
     0
  9
$DIMALTD
 70
     2
  9
$DIMALTF
 40
25.4
  9
$DIMLFAC
 40
1.0
  9
$DIMTOFL
 70
     0
  9
$DIMTVP
 40
0.0
  9
$DIMTIX
 70
     0
  9
$DIMSOXD
 70
     0
  9
$DIMSAH
 70
     0
  9
$DIMBLK1
  1

  9
$DIMBLK2
  1

  9
$DIMSTYLE
  2
BEM-ISBE
  9
$DIMCLRD
 70
     0
  9
$DIMCLRE
 70
     0
  9
$DIMCLRT
 70
     0
  9
$DIMTFAC
 40
0.5
  9
$DIMGAP
 40
0.625
  9
$DIMJUST
 70
     0
  9
$DIMSD1
 70
     0
  9
$DIMSD2
 70
     0
  9
$DIMTOLJ
 70
     1
  9
$DIMTZIN
 70
     0
  9
$DIMALTZ
 70
     0
  9
$DIMALTTZ
 70
     0
  9
$DIMUPT
 70
     0
  9
$DIMDEC
 70
     3
  9
$DIMTDEC
 70
     3
  9
$DIMALTU
 70
     2
  9
$DIMALTTD
 70
     2
  9
$DIMTXSTY
  7
Standard
  9
$DIMAUNIT
 70
     0
  9
$DIMADEC
 70
     3
  9
$DIMALTRND
 40
0.0
  9
$DIMAZIN
 70
     0
  9
$DIMDSEP
 70
    46
  9
$DIMATFIT
 70
     3
  9
$DIMFRAC
 70
     0
  9
$DIMLDRBLK
  1

  9
$DIMLUNIT
 70
     2
  9
$DIMLWD
 70
    -2
  9
$DIMLWE
 70
    -2
  9
$DIMTMOVE
 70
     0
  9
$LUNITS
 70
     2
  9
$LUPREC
 70
     4
  9
$SKETCHINC
 40
0.1
  9
$FILLETRAD
 40
0.0
  9
$AUNITS
 70
     0
  9
$AUPREC
 70
     0
  9
$MENU
  1
.
  9
$ELEVATION
 40
0.0
  9
$PELEVATION
 40
0.0
  9
$THICKNESS
 40
0.0
  9
$LIMCHECK
 70
     0
  9
$CHAMFERA
 40
0.5
  9
$CHAMFERB
 40
0.5
  9
$CHAMFERC
 40
1.0
  9
$CHAMFERD
 40
0.0
  9
$SKPOLY
 70
     0
  9
$TDCREATE
 40
2456800.628199456
  9
$TDUCREATE
 40
2456800.544866123
  9
$TDUPDATE
 40
2456800.629391053
  9
$TDUUPDATE
 40
2456800.546057720
  9
$TDINDWG
 40
0.0011967593
  9
$TDUSRTIMER
 40
0.0011967130
  9
$USRTIMER
 70
     1
  9
$ANGBASE
 50
0.0
  9
$ANGDIR
 70
     0
  9
$PDMODE
 70
     0
  9
$PDSIZE
 40
0.0
  9
$PLINEWID
 40
0.0
  9
$SPLFRAME
 70
     0
  9
$SPLINETYPE
 70
     6
  9
$SPLINESEGS
 70
     8
  9
$HANDSEED
  5
F10966
  9
$SURFTAB1
 70
     6
  9
$SURFTAB2
 70
     6
  9
$SURFTYPE
 70
     6
  9
$SURFU
 70
     6
  9
$SURFV
 70
     6
  9
$UCSBASE
  2

  9
$UCSNAME
  2

  9
$UCSORG
 10
0.0
 20
0.0
 30
0.0
  9
$UCSXDIR
 10
1.0
 20
0.0
 30
0.0
  9
$UCSYDIR
 10
0.0
 20
1.0
 30
0.0
  9
$UCSORTHOREF
  2

  9
$UCSORTHOVIEW
 70
     0
  9
$UCSORGTOP
 10
0.0
 20
0.0
 30
0.0
  9
$UCSORGBOTTOM
 10
0.0
 20
0.0
 30
0.0
  9
$UCSORGLEFT
 10
0.0
 20
0.0
 30
0.0
  9
$UCSORGRIGHT
 10
0.0
 20
0.0
 30
0.0
  9
$UCSORGFRONT
 10
0.0
 20
0.0
 30
0.0
  9
$UCSORGBACK
 10
0.0
 20
0.0
 30
0.0
  9
$PUCSBASE
  2

  9
$PUCSNAME
  2

  9
$PUCSORG
 10
0.0
 20
0.0
 30
0.0
  9
$PUCSXDIR
 10
1.0
 20
0.0
 30
0.0
  9
$PUCSYDIR
 10
0.0
 20
1.0
 30
0.0
  9
$PUCSORTHOREF
  2

  9
$PUCSORTHOVIEW
 70
     0
  9
$PUCSORGTOP
 10
0.0
 20
0.0
 30
0.0
  9
$PUCSORGBOTTOM
 10
0.0
 20
0.0
 30
0.0
  9
$PUCSORGLEFT
 10
0.0
 20
0.0
 30
0.0
  9
$PUCSORGRIGHT
 10
0.0
 20
0.0
 30
0.0
  9
$PUCSORGFRONT
 10
0.0
 20
0.0
 30
0.0
  9
$PUCSORGBACK
 10
0.0
 20
0.0
 30
0.0
  9
$USERI1
 70
     0
  9
$USERI2
 70
     0
  9
$USERI3
 70
     0
  9
$USERI4
 70
     0
  9
$USERI5
 70
     0
  9
$USERR1
 40
0.0
  9
$USERR2
 40
0.0
  9
$USERR3
 40
0.0
  9
$USERR4
 40
0.0
  9
$USERR5
 40
0.0
  9
$WORLDVIEW
 70
     1
  9
$SHADEDGE
 70
     3
  9
$SHADEDIF
 70
    70
  9
$TILEMODE
 70
     1
  9
$MAXACTVP
 70
    64
  9
$PINSBASE
 10
0.0
 20
0.0
 30
0.0
  9
$PLIMCHECK
 70
     0
  9
$PEXTMIN
 10
1.000000000000000E+20
 20
1.000000000000000E+20
 30
1.000000000000000E+20
  9
$PEXTMAX
 10
-1.000000000000000E+20
 20
-1.000000000000000E+20
 30
-1.000000000000000E+20
  9
$PLIMMIN
 10
0.0
 20
0.0
  9
$PLIMMAX
 10
12.0
 20
9.0
  9
$UNITMODE
 70
     0
  9
$VISRETAIN
 70
     1
  9
$PLINEGEN
 70
     0
  9
$PSLTSCALE
 70
     1
  9
$TREEDEPTH
 70
  3020
  9
$CMLSTYLE
  2
Standard
  9
$CMLJUST
 70
     0
  9
$CMLSCALE
 40
1.0
  9
$PROXYGRAPHICS
 70
     1
  9
$MEASUREMENT
 70
     0
  9
$CELWEIGHT
370
    -1
  9
$ENDCAPS
280
     0
  9
$JOINSTYLE
280
     0
  9
$LWDISPLAY
290
     0
  9
$INSUNITS
 70
     4
  9
$HYPERLINKBASE
  1

  9
$STYLESHEET
  1

  9
$XEDIT
290
     1
  9
$CEPSNTYPE
380
     0
  9
$PSTYLEMODE
290
     0
  9
$FINGERPRINTGUID
  2
{FAEB1C30-E019-11D5-929B-00C0DF256EC4}
  9
$VERSIONGUID
  2
{D72B33A4-1376-4E4F-AB15-62F8A5EAFA5B}
  9
$EXTNAMES
290
     1
  9
$PSVPSCALE
 40
0.0
  9
$OLESTARTUP
290
     0
  0
ENDSEC
  0
SECTION
  2
CLASSES
  0
CLASS
  1
ACDBDICTIONARYWDFLT
  2
AcDbDictionaryWithDefault
  3
ObjectDBX Classes
 90
        0
280
     0
281
     0
  0
CLASS
  1
MATERIAL
  2
AcDbMaterial
  3
ObjectDBX Classes
 90
     1153
280
     0
281
     0
  0
CLASS
  1
MLEADERSTYLE
  2
AcDbMLeaderStyle
  3
ACDB_MLEADERSTYLE_CLASS
 90
     4095
280
     0
281
     0
  0
CLASS
  1
SCALE
  2
AcDbScale
  3
ObjectDBX Classes
 90
     1153
280
     0
281
     0
  0
CLASS
  1
TABLESTYLE
  2
AcDbTableStyle
  3
ObjectDBX Classes
 90
     4095
280
     0
281
     0
  0
CLASS
  1
VISUALSTYLE
  2
AcDbVisualStyle
  3
ObjectDBX Classes
 90
     4095
280
     0
281
     0
  0
CLASS
  1
DICTIONARYVAR
  2
AcDbDictionaryVar
  3
ObjectDBX Classes
 90
        0
280
     0
281
     0
  0
CLASS
  1
CELLSTYLEMAP
  2
AcDbCellStyleMap
  3
ObjectDBX Classes
 90
     1152
280
     0
281
     0
  0
CLASS
  1
AMGSETTINGSOBJ
  2
AmgSettingsObj
  3
"AcadM|Product Description: AutoCAD Mechanical|Company: Autodesk, Inc."
 90
     1024
280
     0
281
     0
  0
CLASS
  1
ACME_DOCUMENT
  2
AcMeDbDoc
  3
AcMeServices
 90
     1024
280
     0
281
     0
  0
CLASS
  1
ACMESCOPE
  2
AcMeScope
  3
AcMeServices
 90
     1024
280
     0
281
     0
  0
CLASS
  1
ACMECOMMANDHISTORY
  2
AcMeCommandHistory
  3
AcMeServices
 90
     1024
280
     0
281
     0
  0
CLASS
  1
ACIMSYSVARMAN
  2
AcImSysVarManager
  3
AcMeServices
 90
     1024
280
     0
281
     0
  0
CLASS
  1
ACIMINTSYSVAR
  2
AcImIntSysVar
  3
AcMeServices
 90
     1024
280
     0
281
     0
  0
CLASS
  1
ACMESTATEMGR
  2
AcMeStateMgr
  3
AcMeServices
 90
     1024
280
     0
281
     0
  0
CLASS
  1
ACDBENTITYCACHE
  2
AcMeEntityCache
  3
AcMeServices
 90
     1024
280
     0
281
     0
  0
CLASS
  1
ACGREFMASTER
  2
AcGrefMaster
  3
AcAttribServices
 90
     1024
280
     0
281
     0
  0
CLASS
  1
AM_DRAWING_MGR
  2
AcDmDwgMgr
  3
AcMechDwgViewMgmt
 90
     1024
280
     0
281
     0
  0
CLASS
  1
AM_DWG_DOCUMENT
  2
AcDmDwgDocument
  3
AcMechDwgViewMgmt
 90
     1024
280
     0
281
     0
  0
CLASS
  1
AM_DWG_SHEET
  2
AcDmSheet
  3
AcMechDwgViewMgmt
 90
     1024
280
     0
281
     0
  0
CLASS
  1
AM_VIEWDIMPARMAP
  2
AcDmViewDimParMap
  3
AcMechDwgViewMgmt
 90
     1024
280
     0
281
     0
  0
CLASS
  1
AMDTINTERNALREACTOR
  2
AmdtInternalReactor
  3
AcMeServices
 90
     1024
280
     0
281
     0
  0
CLASS
  1
ACIMREALSYSVAR
  2
AcImRealSysVar
  3
AcMeServices
 90
     1024
280
     0
281
     0
  0
CLASS
  1
AM_DWGMGR_NAME
  2
AcDmDwgMgrName
  3
AcMechDwgViewMgmt
 90
     1024
280
     0
281
     0
  0
CLASS
  1
ACME_DATABASE
  2
AcMeDbDatabase
  3
AcMeServices
 90
     1024
280
     0
281
     0
  0
CLASS
  1
ACRFINSADJUSTERMGR
  2
AcRfInsAdjusterMgr
  3
AcMeServices
 90
     1024
280
     0
281
     0
  0
CLASS
  1
ACGREFACADMASTER
  2
AcGrefacadMaster
  3
AcGrefServices
 90
     1024
280
     0
281
     0
  0
CLASS
  1
AMDTMENUSTATEMGR
  2
AmdtMenuStateMgr
  3
McadcomServices
 90
     1024
280
     0
281
     0
  0
CLASS
  1
AMDTMCOMMENUSTATE
  2
AmdtMcomMenuState
  3
McadcomServices
 90
     1024
280
     0
281
     0
  0
CLASS
  1
AMIMASTER
  2
AmiMaster
  3
AmiServices
 90
     1024
280
     0
281
     0
  0
CLASS
  1
MAPIAMMOUDLE
  2
MApiAmModule
  3
MApiAmServices
 90
     1024
280
     0
281
     0
  0
CLASS
  1
ACIMSTRSYSVAR
  2
AcImStrSysVar
  3
AcMeServices
 90
     1024
280
     0
281
     0
  0
CLASS
  1
AMDTDMMENUSTATE
  2
AmdtDmMenuState
  3
AcMechDwgViewMgmt
 90
     1024
280
     0
281
     0
  0
CLASS
  1
AMDTAMMENUSTATE
  2
AmdtAmMenuState
  3
DesignerAssemblies
 90
     1024
280
     0
281
     0
  0
CLASS
  1
ACAMPROJECT
  2
AcAmProject
  3
DesignerAssemblies
 90
     1024
280
     0
281
     0
  0
CLASS
  1
ACAMGRCOMPDEF
  2
AcAmGrCompDef
  3
DesignerAssemblies
 90
     1024
280
     0
281
     0
  0
CLASS
  1
ACAMCOMPDEF
  2
AcAmCompDef
  3
DesignerAssemblies
 90
     1024
280
     0
281
     0
  0
CLASS
  1
ACAMCOMPDEFMGR
  2
AcAmCompDefMgr
  3
DesignerAssemblies
 90
     1024
280
     0
281
     0
  0
CLASS
  1
AMCONTEXTMGR
  2
AcAmContextMgr
  3
DesignerAssemblies
 90
     1024
280
     0
281
     0
  0
CLASS
  1
ACAMCONTEXTMODELER
  2
AcAmContextModeler
  3
DesignerAssemblies
 90
     1024
280
     0
281
     0
  0
CLASS
  1
ACMDATADICTIONARY
  2
AcmDataDictionary
  3
"AcmSymBB|Product Description: AutoCAD Mechanical|Company: Autodesk, Inc."
 90
     1024
280
     0
281
     0
  0
CLASS
  1
ACAMGRCOMPDEFSET
  2
AcAmGrCompDefSet
  3
DesignerAssemblies
 90
     1024
280
     0
281
     0
  0
CLASS
  1
AMDTBROWSERDBTAB
  2
AmdtBrowserDbTab
  3
McadcomServices
 90
     1024
280
     0
281
     0
  0
CLASS
  1
CBROWSERAPPOBJECT
  2
CBrowserAppObject
  3
McadcomServices
 90
     1024
280
     0
281
     0
  0
CLASS
  1
DM_PLACEHOLDER
  2
AcDmSelsetPlaceholder
  3
AcMechDwgViewMgmt
 90
     1024
280
     0
281
     0
  0
CLASS
  1
EXACXREFPANELOBJECT
  2
ExAcXREFPanelObject
  3
EXAC_ESW
 90
     1025
280
     0
281
     0
  0
CLASS
  1
NPOCOLLECTION
  2
AcDbImpNonPersistentObjectsCollection
  3
ObjectDBX Classes
 90
     1153
280
     0
281
     0
  0
CLASS
  1
ACMSTANDARDANSI
  2
AcmStandardANSI
  3
"Amdt_StdImp|Product Description: AutoCAD Mechanical|Company: Autodesk, Inc."
 90
     1024
280
     0
281
     0
  0
CLASS
  1
ACMSURFSTANDARDANSI
  2
AcmSurfTextStdANSI
  3
"Amdt_StdImp|Product Description: AutoCAD Mechanical|Company: Autodesk, Inc."
 90
     1024
280
     0
281
     0
  0
CLASS
  1
ACMFCFSTANDARDANSI
  2
AcmFCFStdANSI
  3
"Amdt_StdImp|Product Description: AutoCAD Mechanical|Company: Autodesk, Inc."
 90
     1024
280
     0
281
     0
  0
CLASS
  1
ACMWELDSTANDARDANSI
  2
AcmWeldingStdANSI
  3
"Amdt_StdImp|Product Description: AutoCAD Mechanical|Company: Autodesk, Inc."
 90
     1024
280
     0
281
     0
  0
CLASS
  1
ACMIDSTANDARDANSI
  2
AcmIdStdANSI
  3
"Amdt_StdImp|Product Description: AutoCAD Mechanical|Company: Autodesk, Inc."
 90
     1024
280
     0
281
     0
  0
CLASS
  1
ACMDATUMSTANDARDANSI
  2
AcmDatumStdANSI
  3
"Amdt_StdImp|Product Description: AutoCAD Mechanical|Company: Autodesk, Inc."
 90
     1024
280
     0
281
     0
  0
CLASS
  1
ACMBOMSTANDARDANSI
  2
AcmBOMStdANSI
  3
"Amdt_StdImp|Product Description: AutoCAD Mechanical|Company: Autodesk, Inc."
 90
     1024
280
     0
281
     0
  0
CLASS
  1
ACMDETAILSTANDARDANSI
  2
AmdtDetailSymStdANSI
  3
"Amdt_StdImp|Product Description: AutoCAD Mechanical|Company: Autodesk, Inc."
 90
     1024
280
     0
281
     0
  0
CLASS
  1
ACMSECTIONSTANDARDANSI
  2
AmdtSectionSymStdANSI
  3
"Amdt_StdImp|Product Description: AutoCAD Mechanical|Company: Autodesk, Inc."
 90
     1024
280
     0
281
     0
  0
CLASS
  1
ACMCENTERLINESTANDARDANSI
  2
AmdtCenterLineStdANSI
  3
"Amdt_StdImp|Product Description: AutoCAD Mechanical|Company: Autodesk, Inc."
 90
     1024
280
     0
281
     0
  0
CLASS
  1
ACMTHREADLINESTANDARDANSI
  2
AmdtThreadLineStdANSI
  3
"Amdt_StdImp|Product Description: AutoCAD Mechanical|Company: Autodesk, Inc."
 90
     1024
280
     0
281
     0
  0
CLASS
  1
ACMNOTESTANDARDANSI
  2
AmdtNoteStdANSI
  3
"Amdt_StdImp|Product Description: AutoCAD Mechanical|Company: Autodesk, Inc."
 90
     1024
280
     0
281
     0
  0
CLASS
  1
ACMTAPERSTANDARDANSI
  2
AcmTaperStdANSI
  3
"Amdt_StdImp|Product Description: AutoCAD Mechanical|Company: Autodesk, Inc."
 90
     1024
280
     0
281
     0
  0
CLASS
  1
ACMANOOTATIONVIEWSTANDARDANSI
  2
AmdtAnViewStdANSI
  3
"Amdt_StdImp|Product Description: AutoCAD Mechanical|Company: Autodesk, Inc."
 90
     1024
280
     0
281
     0
  0
CLASS
  1
ACAMGLAYSTD
  2
AcAmgLayStd
  3
"AmgLay|Product Description: AutoCAD Mechanical|Company: Autodesk, Inc."
 90
     1024
280
     0
281
     0
  0
CLASS
  1
ACAMGDIMSTD
  2
AcAmgDimStd
  3
"AmgDim|Product Description: AutoCAD Mechanical|Company: Autodesk, Inc."
 90
     1024
280
     0
281
     0
  0
CLASS
  1
AMGOBJPROPCFG
  2
AmgObjPropCfg
  3
"AmgLay|Product Description: AutoCAD Mechanical|Company: Autodesk, Inc."
 90
     1025
280
     0
281
     0
  0
CLASS
  1
ACAMGHOLECHARTSTDANSI
  2
AcAmgHoleChartStdANSI
  3
AmgDim|Product Description: AutoCAD Mechanical|Company: Autodesk, Inc.
 90
     1024
280
     0
281
     0
  0
CLASS
  1
ACAMGTITLESTD
  2
AcAmgTitleStd
  3
"AmgTitle|Product Description: AutoCAD Mechanical|Company: Autodesk, Inc."
 90
     4095
280
     0
281
     0
  0
CLASS
  1
AMDTNOTETEMPLATEDB
  2
AmdtNoteTemplateDB
  3
AcmSymBB|Product Description: AutoCAD Mechanical|Company: Autodesk, Inc.
 90
     1024
280
     0
281
     0
  0
CLASS
  1
ACAMGFILTERDAT
  2
AcAmgFilterDat
  3
"AcadM|Product Description: AutoCAD Mechanical|Company: Autodesk, Inc."
 90
     1024
280
     0
281
     0
  0
CLASS
  1
ACDBPLACEHOLDER
  2
AcDbPlaceHolder
  3
ObjectDBX Classes
 90
        0
280
     0
281
     0
  0
CLASS
  1
LAYOUT
  2
AcDbLayout
  3
ObjectDBX Classes
 90
        0
280
     0
281
     0
  0
ENDSEC
  0
SECTION
  2
TABLES
  0
TABLE
  2
VPORT
  5
24A
330
0
100
AcDbSymbolTable
 70
     1
  0
VPORT
  5
26B
330
24A
100
AcDbSymbolTableRecord
100
AcDbViewportTableRecord
  2
*Active
 70
     0
 10
0.0
 20
0.0
 11
1.0
 21
1.0
 12
43.86654866067289
 22
-10.20929668816697
 13
0.0
 23
0.0
 14
10.0
 24
10.0
 15
10.0
 25
10.0
 16
0.0
 26
0.0
 36
1.0
 17
0.0
 27
0.0
 37
0.0
 40
318.7366067140778
 41
1.438709677419354
 42
1.0
 43
0.0
 44
0.0
 50
0.0
 51
0.0000000000007958
 71
     0
 72
   100
 73
     1
 74
     3
 75
     0
 76
     0
 77
     0
 78
     1
281
     0
 65
     0
110
0.0
120
0.0
130
0.0
111
1.0
121
0.0
131
0.0
112
0.0
122
1.0
132
0.0
 79
     0
146
0.0
  0
ENDTAB
  0
TABLE
  2
LTYPE
  5
247
330
0
100
AcDbSymbolTable
 70
    36
  0
LTYPE
  5
256
330
247
100
AcDbSymbolTableRecord
100
AcDbLinetypeTableRecord
  2
ByBlock
 70
     0
  3

 72
    65
 73
     0
 40
0.0
  0
LTYPE
  5
257
330
247
100
AcDbSymbolTableRecord
100
AcDbLinetypeTableRecord
  2
ByLayer
 70
     0
  3

 72
    65
 73
     0
 40
0.0
  0
LTYPE
  5
258
330
247
100
AcDbSymbolTableRecord
100
AcDbLinetypeTableRecord
  2
Continuous
 70
     0
  3
Solid line
 72
    65
 73
     0
 40
0.0
  0
LTYPE
  5
273
330
247
100
AcDbSymbolTableRecord
100
AcDbLinetypeTableRecord
  2
CENTER
 70
     0
  3
Center ____ _ ____ _ ____ _ ____ _ ____ _ ____
 72
    65
 73
     4
 40
2.0
 49
1.25
 74
     0
 49
-0.25
 74
     0
 49
0.25
 74
     0
 49
-0.25
 74
     0
  0
LTYPE
  5
274
330
247
100
AcDbSymbolTableRecord
100
AcDbLinetypeTableRecord
  2
DASHDOT
 70
     0
  3
Dashdot __ . __ . __ . __ . __ . __ . __ . __
 72
    65
 73
     4
 40
1.0
 49
0.5
 74
     0
 49
-0.25
 74
     0
 49
0.0
 74
     0
 49
-0.25
 74
     0
  0
LTYPE
  5
275
330
247
100
AcDbSymbolTableRecord
100
AcDbLinetypeTableRecord
  2
DASHED
 70
     0
  3
Dashed __ __ __ __ __ __ __ __ __ __ __ __ __ _
 72
    65
 73
     2
 40
0.75
 49
0.5
 74
     0
 49
-0.25
 74
     0
  0
LTYPE
  5
276
330
247
100
AcDbSymbolTableRecord
100
AcDbLinetypeTableRecord
  2
HIDDEN
 70
     0
  3
Hidden __ __ __ __ __ __ __ __ __ __ __ __ __ __
 72
    65
 73
     2
 40
0.375
 49
0.25
 74
     0
 49
-0.125
 74
     0
  0
LTYPE
  5
277
330
247
100
AcDbSymbolTableRecord
100
AcDbLinetypeTableRecord
  2
HIDDEN2
 70
     0
  3
Hidden2 _ _ _ _ _ _ _ _ _ _ _ _ _ _ _ _ _
 72
    65
 73
     2
 40
0.1875
 49
0.125
 74
     0
 49
-0.0625
 74
     0
  0
LTYPE
  5
278
330
247
100
AcDbSymbolTableRecord
100
AcDbLinetypeTableRecord
  2
BORDER
 70
     0
  3
Border __ __ . __ __ . __ __ . __ __ . __ __ .
 72
    65
 73
     6
 40
1.75
 49
0.5
 74
     0
 49
-0.25
 74
     0
 49
0.5
 74
     0
 49
-0.25
 74
     0
 49
0.0
 74
     0
 49
-0.25
 74
     0
  0
LTYPE
  5
279
330
247
100
AcDbSymbolTableRecord
100
AcDbLinetypeTableRecord
  2
BORDER2
 70
     0
  3
Border2 __.__.__.__.__.__.__.__.__.__.__.
 72
    65
 73
     6
 40
0.875
 49
0.25
 74
     0
 49
-0.125
 74
     0
 49
0.25
 74
     0
 49
-0.125
 74
     0
 49
0.0
 74
     0
 49
-0.125
 74
     0
  0
LTYPE
  5
27A
330
247
100
AcDbSymbolTableRecord
100
AcDbLinetypeTableRecord
  2
BORDERX2
 70
     0
  3
Borderx2  ____  ____  .  ____  ____  .  ___
 72
    65
 73
     6
 40
3.5
 49
1.0
 74
     0
 49
-0.5
 74
     0
 49
1.0
 74
     0
 49
-0.5
 74
     0
 49
0.0
 74
     0
 49
-0.5
 74
     0
  0
LTYPE
  5
27B
330
247
100
AcDbSymbolTableRecord
100
AcDbLinetypeTableRecord
  2
CENTER2
 70
     0
  3
Center2  ___ _ ___ _ ___ _ ___ _ ___ _ ___
 72
    65
 73
     4
 40
1.125
 49
0.75
 74
     0
 49
-0.125
 74
     0
 49
0.125
 74
     0
 49
-0.125
 74
     0
  0
LTYPE
  5
27C
330
247
100
AcDbSymbolTableRecord
100
AcDbLinetypeTableRecord
  2
CENTERX2
 70
     0
  3
Centerx2  ________  __  ________  __  _____
 72
    65
 73
     4
 40
4.0
 49
2.5
 74
     0
 49
-0.5
 74
     0
 49
0.5
 74
     0
 49
-0.5
 74
     0
  0
LTYPE
  5
27D
330
247
100
AcDbSymbolTableRecord
100
AcDbLinetypeTableRecord
  2
DASHDOT2
 70
     0
  3
Dashdot2  _._._._._._._._._._._._._._._.
 72
    65
 73
     4
 40
0.5
 49
0.25
 74
     0
 49
-0.125
 74
     0
 49
0.0
 74
     0
 49
-0.125
 74
     0
  0
LTYPE
  5
27E
330
247
100
AcDbSymbolTableRecord
100
AcDbLinetypeTableRecord
  2
DASHDOTX2
 70
     0
  3
Dashdotx2 ____  .  ____  .  ____  .  ___
 72
    65
 73
     4
 40
2.0
 49
1.0
 74
     0
 49
-0.5
 74
     0
 49
0.0
 74
     0
 49
-0.5
 74
     0
  0
LTYPE
  5
27F
330
247
100
AcDbSymbolTableRecord
100
AcDbLinetypeTableRecord
  2
DASHED2
 70
     0
  3
Dashed2 _ _ _ _ _ _ _ _ _ _ _ _ _ _ _ _ _
 72
    65
 73
     2
 40
0.375
 49
0.25
 74
     0
 49
-0.125
 74
     0
  0
LTYPE
  5
280
330
247
100
AcDbSymbolTableRecord
100
AcDbLinetypeTableRecord
  2
DASHEDX2
 70
     0
  3
Dashedx2 ____  ____  ____  ____  ____  ___
 72
    65
 73
     2
 40
1.5
 49
1.0
 74
     0
 49
-0.5
 74
     0
  0
LTYPE
  5
281
330
247
100
AcDbSymbolTableRecord
100
AcDbLinetypeTableRecord
  2
DIVIDE
 70
     0
  3
Divide ____ . . ____ . . ____ . . ____ . . ____
 72
    65
 73
     6
 40
1.25
 49
0.5
 74
     0
 49
-0.25
 74
     0
 49
0.0
 74
     0
 49
-0.25
 74
     0
 49
0.0
 74
     0
 49
-0.25
 74
     0
  0
LTYPE
  5
282
330
247
100
AcDbSymbolTableRecord
100
AcDbLinetypeTableRecord
  2
DIVIDE2
 70
     0
  3
Divide2 __..__..__..__..__..__..__..__.._
 72
    65
 73
     6
 40
0.625
 49
0.25
 74
     0
 49
-0.125
 74
     0
 49
0.0
 74
     0
 49
-0.125
 74
     0
 49
0.0
 74
     0
 49
-0.125
 74
     0
  0
LTYPE
  5
283
330
247
100
AcDbSymbolTableRecord
100
AcDbLinetypeTableRecord
  2
DIVIDEX2
 70
     0
  3
Dividex2 ________  .  .  ________  .  .  _
 72
    65
 73
     6
 40
2.5
 49
1.0
 74
     0
 49
-0.5
 74
     0
 49
0.0
 74
     0
 49
-0.5
 74
     0
 49
0.0
 74
     0
 49
-0.5
 74
     0
  0
LTYPE
  5
284
330
247
100
AcDbSymbolTableRecord
100
AcDbLinetypeTableRecord
  2
DOT
 70
     0
  3
Dot . . . . . . . . . . . . . . . . . . . . . . . .
 72
    65
 73
     2
 40
0.25
 49
0.0
 74
     0
 49
-0.25
 74
     0
  0
LTYPE
  5
285
330
247
100
AcDbSymbolTableRecord
100
AcDbLinetypeTableRecord
  2
DOT2
 70
     0
  3
Dot2 ........................................
 72
    65
 73
     2
 40
0.125
 49
0.0
 74
     0
 49
-0.125
 74
     0
  0
LTYPE
  5
286
330
247
100
AcDbSymbolTableRecord
100
AcDbLinetypeTableRecord
  2
DOTX2
 70
     0
  3
Dotx2 .  .  .  .  .  .  .  .  .  .  .  .  .  .
 72
    65
 73
     2
 40
0.5
 49
0.0
 74
     0
 49
-0.5
 74
     0
  0
LTYPE
  5
287
330
247
100
AcDbSymbolTableRecord
100
AcDbLinetypeTableRecord
  2
HIDDENX2
 70
     0
  3
Hiddenx2 ____ ____ ____ ____ ____ ____ ____
 72
    65
 73
     2
 40
0.75
 49
0.5
 74
     0
 49
-0.25
 74
     0
  0
LTYPE
  5
288
330
247
100
AcDbSymbolTableRecord
100
AcDbLinetypeTableRecord
  2
PHANTOM
 70
     0
  3
Phantom ______  __  __  ______  __  __  ______
 72
    65
 73
     6
 40
2.5
 49
1.25
 74
     0
 49
-0.25
 74
     0
 49
0.25
 74
     0
 49
-0.25
 74
     0
 49
0.25
 74
     0
 49
-0.25
 74
     0
  0
LTYPE
  5
289
330
247
100
AcDbSymbolTableRecord
100
AcDbLinetypeTableRecord
  2
PHANTOM2
 70
     0
  3
Phantom2 ___ _ _ ___ _ _ ___ _ _ ___ _ _
 72
    65
 73
     6
 40
1.25
 49
0.625
 74
     0
 49
-0.125
 74
     0
 49
0.125
 74
     0
 49
-0.125
 74
     0
 49
0.125
 74
     0
 49
-0.125
 74
     0
  0
LTYPE
  5
28A
330
247
100
AcDbSymbolTableRecord
100
AcDbLinetypeTableRecord
  2
PHANTOMX2
 70
     0
  3
Phantomx2 ____________    ____    ____   _
 72
    65
 73
     6
 40
5.0
 49
2.5
 74
     0
 49
-0.5
 74
     0
 49
0.5
 74
     0
 49
-0.5
 74
     0
 49
0.5
 74
     0
 49
-0.5
 74
     0
  0
LTYPE
  5
F10776
330
247
100
AcDbSymbolTableRecord
100
AcDbLinetypeTableRecord
  2
AM_ISO02W050
 70
     0
  3
__ __ __ __ __ __ __ __ __ __ __ __ __ __ __
 72
    65
 73
     2
 40
7.5
 49
6.0
 74
     0
 49
-1.5
 74
     0
  0
LTYPE
  5
F10777
330
247
100
AcDbSymbolTableRecord
100
AcDbLinetypeTableRecord
  2
AM_ISO08W050
 70
     0
  3
____ . ____ . ____ . ____ . ____ . ____ . ____
 72
    65
 73
     4
 40
18.0
 49
12.0
 74
     0
 49
-1.5
 74
     0
 49
3.0
 74
     0
 49
-1.5
 74
     0
  0
LTYPE
  5
F10778
330
247
100
AcDbSymbolTableRecord
100
AcDbLinetypeTableRecord
  2
AM_ISO09W050
 70
     0
  3
_____ . . _____ . . _____ . . ____ .. ____
 72
    65
 73
     6
 40
22.5
 49
12.0
 74
     0
 49
-1.5
 74
     0
 49
3.0
 74
     0
 49
-1.5
 74
     0
 49
3.0
 74
     0
 49
-1.5
 74
     0
  0
LTYPE
  5
F10779
330
247
100
AcDbSymbolTableRecord
100
AcDbLinetypeTableRecord
  2
Amconstr
 70
     0
  3
_______________________
 72
    65
 73
     2
 40
9999.0
 49
9999.0
 74
     0
 49
0.0
 74
     0
  0
LTYPE
  5
F1077A
330
247
100
AcDbSymbolTableRecord
100
AcDbLinetypeTableRecord
  2
AM_ISO08W050x2
 70
     0
  3
__ . __ . __ . __ . __ . __
 72
    65
 73
     4
 40
9.0
 49
6.0
 74
     0
 49
-0.75
 74
     0
 49
1.5
 74
     0
 49
-0.75
 74
     0
  0
LTYPE
  5
F1077B
330
247
100
AcDbSymbolTableRecord
100
AcDbLinetypeTableRecord
  2
AM_ISO02W050x2
 70
     0
  3
 _ _ _ _ _ _ _ _ _ _ _ _
 72
    65
 73
     2
 40
3.75
 49
3.0
 74
     0
 49
-0.75
 74
     0
  0
LTYPE
  5
F1077E
330
247
100
AcDbSymbolTableRecord
100
AcDbLinetypeTableRecord
  2
Amzigzag
 70
     0
  3
/\/-/\/-/\/-/\/-/\/-/\/
 72
    65
 73
     2
 40
11.0001
 49
0.0001
 74
     4
 75
   136
340
F1077D
 46
0.04
 50
0.0
 44
0.0
 45
0.0
 49
-11.0
 74
     0
  0
LTYPE
  5
F1077F
330
247
100
AcDbSymbolTableRecord
100
AcDbLinetypeTableRecord
  2
Amzigzag2
 70
     0
  3
/\/-/\/-/\/-/\/-/\/-/\/
 72
    65
 73
     2
 40
0.4401
 49
0.0001
 74
     4
 75
   136
340
F1077D
 46
0.0016
 50
0.0
 44
0.0
 45
0.0
 49
-0.4400000000000001
 74
     0
  0
LTYPE
  5
F1078D
330
247
100
AcDbSymbolTableRecord
100
AcDbLinetypeTableRecord
  2
ACANSTGB
 70
     0
  3
__ . . __ . .
 72
    65
 73
     6
 40
0.35433070866
 49
0.15748031496
 74
     0
 49
-0.03937007874
 74
     0
 49
0.03937007874
 74
     0
 49
-0.03937007874
 74
     0
 49
0.03937007874
 74
     0
 49
-0.03937007874
 74
     0
  0
LTYPE
  5
F1078E
330
247
100
AcDbSymbolTableRecord
100
AcDbLinetypeTableRecord
  2
ACANSTGL
 70
     0
  3
_ _ _ _ _
 72
    65
 73
     2
 40
0.11811023622
 49
0.07874015748
 74
     0
 49
-0.03937007874
 74
     0
  0
ENDTAB
  0
TABLE
  2
LAYER
  5
244
330
0
100
AcDbSymbolTable
 70
     6
  0
LAYER
  5
252
102
{ACAD_XDICTIONARY
360
F1090C
102
}
330
244
100
AcDbSymbolTableRecord
100
AcDbLayerTableRecord
  2
0
 70
     0
 62
     7
  6
Continuous
370
     0
390
19
  0
LAYER
  5
23F
102
{ACAD_XDICTIONARY
360
F1090E
102
}
330
244
100
AcDbSymbolTableRecord
100
AcDbLayerTableRecord
  2
Bemassung
 70
     0
 62
     7
  6
Continuous
370
     0
390
19
  0
LAYER
  5
240
102
{ACAD_XDICTIONARY
360
F10910
102
}
330
244
100
AcDbSymbolTableRecord
100
AcDbLayerTableRecord
  2
Rahmen
 70
     0
 62
     7
  6
Continuous
370
     0
390
19
  0
LAYER
  5
241
102
{ACAD_XDICTIONARY
360
F10912
102
}
330
244
100
AcDbSymbolTableRecord
100
AcDbLayerTableRecord
  2
Geo
 70
     0
 62
     7
  6
Continuous
370
     0
390
19
  0
LAYER
  5
33A
330
244
100
AcDbSymbolTableRecord
100
AcDbLayerTableRecord
  2
Defpoints
 70
     0
 62
     7
  6
Continuous
290
     0
370
    -3
390
19
  0
LAYER
  5
57E
102
{ACAD_XDICTIONARY
360
F10914
102
}
330
244
100
AcDbSymbolTableRecord
100
AcDbLayerTableRecord
  2
Text
 70
     0
 62
     7
  6
Continuous
370
     0
390
19
1001
AcAecLayerStandard
1000

1000

  0
ENDTAB
  0
TABLE
  2
STYLE
  5
245
330
0
100
AcDbSymbolTable
 70
     5
  0
STYLE
  5
253
330
245
100
AcDbSymbolTableRecord
100
AcDbTextStyleTableRecord
  2
Standard
 70
     0
 40
0.0
 41
1.0
 50
0.0
 71
     0
 42
0.2
  3
Arial
  4

1001
ACAD
1000
Arial
1071
        0
  0
STYLE
  5
132
330
245
100
AcDbSymbolTableRecord
100
AcDbTextStyleTableRecord
  2
Beschriftung
 70
     0
 40
0.0
 41
1.0
 50
0.0
 71
     0
 42
0.2
  3
Arial
  4

1001
ACAD
1000
Arial
1071
        0
1001
AcadAnnotative
1000
AnnotativeData
1070
     1
1070
     1
  0
STYLE
  5
F1077D
330
245
100
AcDbSymbolTableRecord
100
AcDbTextStyleTableRecord
  2

 70
     1
 40
0.0
 41
1.0
 50
0.0
 71
     0
 42
0.2
  3
genltshp.shx
  4

  0
STYLE
  5
F1078B
330
245
100
AcDbSymbolTableRecord
100
AcDbTextStyleTableRecord
  2
ACANSTS
 70
     0
 40
1.0
 41
1.0
 50
0.0
 71
     0
 42
0.2
  3
romans.shx
  4

  0
STYLE
  5
F1078C
330
245
100
AcDbSymbolTableRecord
100
AcDbTextStyleTableRecord
  2
ACANSGDT
 70
     0
 40
0.0
 41
1.0
 50
0.0
 71
     0
 42
0.2
  3
amgdt.shx
  4

  0
ENDTAB
  0
TABLE
  2
VIEW
  5
248
330
0
100
AcDbSymbolTable
 70
     0
  0
ENDTAB
  0
TABLE
  2
UCS
  5
249
330
0
100
AcDbSymbolTable
 70
     0
  0
ENDTAB
  0
TABLE
  2
APPID
  5
24B
330
0
100
AcDbSymbolTable
 70
    30
  0
APPID
  5
254
330
24B
100
AcDbSymbolTableRecord
100
AcDbRegAppTableRecord
  2
ACAD
 70
     0
  0
APPID
  5
26C
330
24B
100
AcDbSymbolTableRecord
100
AcDbRegAppTableRecord
  2
VD_INVISIBLE_NOT_FOR_READ
 70
     0
  0
APPID
  5
26D
330
24B
100
AcDbSymbolTableRecord
100
AcDbRegAppTableRecord
  2
VD_TEMPHATCH
 70
     0
  0
APPID
  5
26E
330
24B
100
AcDbSymbolTableRecord
100
AcDbRegAppTableRecord
  2
VDEXTRAPARAM
 70
     0
  0
APPID
  5
26F
330
24B
100
AcDbSymbolTableRecord
100
AcDbRegAppTableRecord
  2
PE_URL
 70
     0
  0
APPID
  5
270
330
24B
100
AcDbSymbolTableRecord
100
AcDbRegAppTableRecord
  2
VD_UNKNOWN
 70
     0
  0
APPID
  5
28F
330
24B
100
AcDbSymbolTableRecord
100
AcDbRegAppTableRecord
  2
AcadAnnotative
 70
     0
  0
APPID
  5
290
330
24B
100
AcDbSymbolTableRecord
100
AcDbRegAppTableRecord
  2
ACAD_DSTYLE_DIMJAG
 70
     0
  0
APPID
  5
291
330
24B
100
AcDbSymbolTableRecord
100
AcDbRegAppTableRecord
  2
ACAD_DSTYLE_DIMTALN
 70
     0
  0
APPID
  5
293
330
24B
100
AcDbSymbolTableRecord
100
AcDbRegAppTableRecord
  2
ACAD_PSEXT
 70
     0
  0
APPID
  5
42A
330
24B
100
AcDbSymbolTableRecord
100
AcDbRegAppTableRecord
  2
ACAD_MLEADERVER
 70
     0
  0
APPID
  5
532
330
24B
100
AcDbSymbolTableRecord
100
AcDbRegAppTableRecord
  2
ACAD_EXEMPT_FROM_CAD_STANDARDS
 70
     0
  0
APPID
  5
57F
330
24B
100
AcDbSymbolTableRecord
100
AcDbRegAppTableRecord
  2
AcAecLayerStandard
 70
     0
  0
APPID
  5
F10710
330
24B
100
AcDbSymbolTableRecord
100
AcDbRegAppTableRecord
  2
MCAD_NO_VIS
 70
     0
  0
APPID
  5
F10711
330
24B
100
AcDbSymbolTableRecord
100
AcDbRegAppTableRecord
  2
ACAD_TEMP_GRAPHIC
 70
     0
  0
APPID
  5
F1073A
330
24B
100
AcDbSymbolTableRecord
100
AcDbRegAppTableRecord
  2
AD_DRAW
 70
     0
  0
APPID
  5
F1073D
330
24B
100
AcDbSymbolTableRecord
100
AcDbRegAppTableRecord
  2
ACATTRIBSERVICES
 70
     0
  0
APPID
  5
F10756
330
24B
100
AcDbSymbolTableRecord
100
AcDbRegAppTableRecord
  2
DESIGNERASSEMBLIES
 70
     0
  0
APPID
  5
F1075B
330
24B
100
AcDbSymbolTableRecord
100
AcDbRegAppTableRecord
  2
ACADM_DIM_EDIT
 70
     0
  0
APPID
  5
F1075C
330
24B
100
AcDbSymbolTableRecord
100
AcDbRegAppTableRecord
  2
AMDT_DM_ADJ
 70
     0
  0
APPID
  5
F10774
330
24B
100
AcDbSymbolTableRecord
100
AcDbRegAppTableRecord
  2
ACAD_DSTYLE_DIMBREAK
 70
     0
  0
APPID
  5
F10795
330
24B
100
AcDbSymbolTableRecord
100
AcDbRegAppTableRecord
  2
GENIUS_GENSCREG_15
 70
     0
  0
APPID
  5
F10796
330
24B
100
AcDbSymbolTableRecord
100
AcDbRegAppTableRecord
  2
GENIUS_GENOBJ-N-SDF_13
 70
     0
  0
APPID
  5
F10797
330
24B
100
AcDbSymbolTableRecord
100
AcDbRegAppTableRecord
  2
GENIUS_GENODEF_13
 70
     0
  0
APPID
  5
F107DC
330
24B
100
AcDbSymbolTableRecord
100
AcDbRegAppTableRecord
  2
GENIUS_GENDTOL_13
 70
     0
  0
APPID
  5
F10804
330
24B
100
AcDbSymbolTableRecord
100
AcDbRegAppTableRecord
  2
ACAD_DSTYLE_DIMINSPECT
 70
     0
  0
APPID
  5
F10962
330
24B
100
AcDbSymbolTableRecord
100
AcDbRegAppTableRecord
  2
ACAD_DSTYLE_DIMARC_LENGTH_SYMBOL
 70
     0
  0
APPID
  5
F10963
330
24B
100
AcDbSymbolTableRecord
100
AcDbRegAppTableRecord
  2
ACAD_DSTYLE_DIM_LINETYPE
 70
     0
  0
APPID
  5
F10964
330
24B
100
AcDbSymbolTableRecord
100
AcDbRegAppTableRecord
  2
ACAD_DSTYLE_DIM_EXT1_LINETYPE
 70
     0
  0
APPID
  5
F10965
330
24B
100
AcDbSymbolTableRecord
100
AcDbRegAppTableRecord
  2
ACAD_DSTYLE_DIM_EXT2_LINETYPE
 70
     0
  0
ENDTAB
  0
TABLE
  2
DIMSTYLE
  5
24C
330
0
100
AcDbSymbolTable
 70
     9
100
AcDbDimStyleTable
 71
     2
340
27
340
269
  0
DIMSTYLE
105
269
330
24C
100
AcDbSymbolTableRecord
100
AcDbDimStyleTableRecord
  2
Standard
 70
     0
172
     1
174
     1
288
     1
340
253
342
23C
  0
DIMSTYLE
105
137
330
24C
100
AcDbSymbolTableRecord
100
AcDbDimStyleTableRecord
  2
Beschriftung
 70
     0
 41
2.5
 42
0.625
 44
1.25
 73
     0
 74
     0
 77
     1
140
2.5
147
0.625
172
     1
174
     1
271
     2
288
     1
340
253
342
23C
1001
AcadAnnotative
1000
AnnotativeData
1070
     1
1070
     1
1001
ACAD_DSTYLE_DIMJAG
1070
   388
1040
1.5
1001
ACAD_DSTYLE_DIMTALN
1070
   392
1070
     0
  0
DIMSTYLE
105
27
102
{ACAD_REACTORS
330
F1000D
330
F10017
330
F1001C
330
F10008
330
F10012
102
}
330
24C
100
AcDbSymbolTableRecord
100
AcDbDimStyleTableRecord
  2
BEM-ISBE
 70
     0
 41
2.5
 42
0.625
 44
1.25
 48
0.000000001
 71
     1
 73
     0
 74
     0
 77
     1
140
2.5
146
0.5
147
0.625
171
     3
172
     1
179
     3
271
     3
272
     3
274
     3
340
253
342
23C
1001
ACAD_DSTYLE_DIMJAG
1070
   388
1040
1.5
1001
ACAD_DSTYLE_DIMTALN
1070
   392
1070
     1
  0
DIMSTYLE
105
F10773
102
{ACAD_REACTORS
330
F10763
102
}
330
24C
100
AcDbSymbolTableRecord
100
AcDbDimStyleTableRecord
  2
AM_ANSI
 70
     0
  4
mm
 41
0.12
 42
0.05
 43
0.5
 44
0.1
 47
0.1
 48
0.1
 78
     7
 79
     2
140
0.12
141
0.0
146
0.71
147
0.06
176
   256
177
   256
178
     2
274
     4
284
     7
340
253
371
    -1
372
    -1
1001
ACAD_DSTYLE_DIMJAG
1070
   388
1040
1.5
1001
ACAD_DSTYLE_DIMBREAK
1070
   391
1040
0.125
1001
ACAD_DSTYLE_DIMARC_LENGTH_SYMBOL
1070
   379
1070
     1
1001
ACAD_DSTYLE_DIM_LINETYPE
1070
   380
1005
256
1001
ACAD_DSTYLE_DIM_EXT1_LINETYPE
1070
   381
1005
256
1001
ACAD_DSTYLE_DIM_EXT2_LINETYPE
1070
   382
1005
256
  0
DIMSTYLE
105
F10780
330
24C
100
AcDbSymbolTableRecord
100
AcDbDimStyleTableRecord
  2
AM_ANSI$3
 70
     0
  4
mm
 41
0.12
 42
0.05
 43
0.5
 44
0.1
 47
0.1
 48
0.1
 78
     7
 79
     2
140
0.12
141
0.0
146
0.71
147
0.06
176
   256
177
   256
178
     2
274
     4
284
     7
288
     1
289
     0
340
253
371
    -1
372
    -1
1001
ACAD_DSTYLE_DIMBREAK
1070
   391
1040
0.125
1001
ACAD_DSTYLE_DIMJAG
1070
   388
1040
1.5
1001
ACAD_DSTYLE_DIMARC_LENGTH_SYMBOL
1070
   379
1070
     1
1001
ACAD_DSTYLE_DIM_LINETYPE
1070
   380
1005
256
1001
ACAD_DSTYLE_DIM_EXT1_LINETYPE
1070
   381
1005
256
1001
ACAD_DSTYLE_DIM_EXT2_LINETYPE
1070
   382
1005
256
  0
DIMSTYLE
105
F10781
330
24C
100
AcDbSymbolTableRecord
100
AcDbDimStyleTableRecord
  2
AM_ANSI$4
 70
     0
  4
mm
 41
0.12
 42
0.05
 43
0.5
 44
0.1
 47
0.1
 48
0.1
 78
     7
 79
     2
140
0.12
141
0.0
146
0.71
147
0.06
176
   256
177
   256
178
     2
274
     4
284
     7
288
     1
289
     0
340
253
371
    -1
372
    -1
1001
ACAD_DSTYLE_DIMBREAK
1070
   391
1040
0.125
1001
ACAD_DSTYLE_DIMJAG
1070
   388
1040
1.5
1001
ACAD_DSTYLE_DIMARC_LENGTH_SYMBOL
1070
   379
1070
     1
1001
ACAD_DSTYLE_DIM_LINETYPE
1070
   380
1005
256
1001
ACAD_DSTYLE_DIM_EXT1_LINETYPE
1070
   381
1005
256
1001
ACAD_DSTYLE_DIM_EXT2_LINETYPE
1070
   382
1005
256
  0
DIMSTYLE
105
F10782
330
24C
100
AcDbSymbolTableRecord
100
AcDbDimStyleTableRecord
  2
AM_ANSI$7
 70
     0
  4
mm
 41
0.12
 42
0.05
 43
0.5
 44
0.1
 47
0.1
 48
0.1
 78
     7
 79
     2
140
0.12
141
0.0
146
0.71
147
0.06
176
   256
177
   256
178
     2
274
     4
284
     7
340
253
371
    -1
372
    -1
1001
ACAD_DSTYLE_DIMBREAK
1070
   391
1040
0.125
1001
ACAD_DSTYLE_DIMJAG
1070
   388
1040
1.5
1001
ACAD_DSTYLE_DIMARC_LENGTH_SYMBOL
1070
   379
1070
     1
1001
ACAD_DSTYLE_DIM_LINETYPE
1070
   380
1005
256
1001
ACAD_DSTYLE_DIM_EXT1_LINETYPE
1070
   381
1005
256
1001
ACAD_DSTYLE_DIM_EXT2_LINETYPE
1070
   382
1005
256
  0
DIMSTYLE
105
F10783
330
24C
100
AcDbSymbolTableRecord
100
AcDbDimStyleTableRecord
  2
AM_ANSI$SF
 70
     0
  4
mm
 41
0.12
 42
0.05
 43
0.5
 44
0.1
 47
0.1
 48
0.1
 75
     1
 76
     1
 78
     7
 79
     2
140
0.12
141
0.0
146
0.71
147
0.06
176
   256
177
   256
178
     2
274
     4
284
     7
340
253
371
    -1
372
    -1
1001
ACAD_DSTYLE_DIMBREAK
1070
   391
1040
0.125
1001
ACAD_DSTYLE_DIMJAG
1070
   388
1040
1.5
1001
ACAD_DSTYLE_DIMARC_LENGTH_SYMBOL
1070
   379
1070
     1
1001
ACAD_DSTYLE_DIM_LINETYPE
1070
   380
1005
256
1001
ACAD_DSTYLE_DIM_EXT1_LINETYPE
1070
   381
1005
256
1001
ACAD_DSTYLE_DIM_EXT2_LINETYPE
1070
   382
1005
256
  0
DIMSTYLE
105
F10788
330
24C
100
AcDbSymbolTableRecord
100
AcDbDimStyleTableRecord
  2
AM_ANSI$SH
 70
     0
  4
mm
 41
0.12
 42
0.05
 43
0.5
 44
0.1
 47
0.1
 48
0.1
 75
     1
 76
     1
 78
     7
 79
     2
140
0.12
141
0.0
146
0.71
147
0.06
173
     1
176
   256
177
   256
178
     2
274
     4
284
     7
340
253
343
F10784
371
    -1
372
    -1
1001
ACAD_DSTYLE_DIMBREAK
1070
   391
1040
0.125
1001
ACAD_DSTYLE_DIMJAG
1070
   388
1040
1.5
1001
ACAD_DSTYLE_DIMARC_LENGTH_SYMBOL
1070
   379
1070
     1
1001
ACAD_DSTYLE_DIM_LINETYPE
1070
   380
1005
256
1001
ACAD_DSTYLE_DIM_EXT1_LINETYPE
1070
   381
1005
256
1001
ACAD_DSTYLE_DIM_EXT2_LINETYPE
1070
   382
1005
256
  0
ENDTAB
  0
TABLE
  2
BLOCK_RECORD
  5
243
330
0
100
AcDbSymbolTable
 70
    11
  0
BLOCK_RECORD
  5
261
330
243
100
AcDbSymbolTableRecord
100
AcDbBlockTableRecord
  2
*Model_Space
340
FD0
  0
BLOCK_RECORD
  5
25D
330
243
100
AcDbSymbolTableRecord
100
AcDbBlockTableRecord
  2
*Paper_Space
340
FD1
  0
BLOCK_RECORD
  5
265
330
243
100
AcDbSymbolTableRecord
100
AcDbBlockTableRecord
  2
*Paper_Space0
340
0
  0
BLOCK_RECORD
  5
23C
330
243
100
AcDbSymbolTableRecord
100
AcDbBlockTableRecord
  2
VDDIM_DEFAULT
340
0
102
{BLKREFS
331
F107A5
331
F107A6
331
F108E0
331
F108E1
331
F108E9
331
F108EA
331
F108F4
331
F108F5
331
F108FD
331
F108FE
331
F10906
331
F10907
102
}
  0
BLOCK_RECORD
  5
23E
330
243
100
AcDbSymbolTableRecord
100
AcDbBlockTableRecord
  2
VDDIM_NONE
340
0
  0
BLOCK_RECORD
  5
F10002
330
243
100
AcDbSymbolTableRecord
100
AcDbBlockTableRecord
  2
*D3
340
0
  0
BLOCK_RECORD
  5
F1000C
330
243
100
AcDbSymbolTableRecord
100
AcDbBlockTableRecord
  2
*D4
340
0
  0
BLOCK_RECORD
  5
F10016
330
243
100
AcDbSymbolTableRecord
100
AcDbBlockTableRecord
  2
*D5
340
0
  0
BLOCK_RECORD
  5
F1001B
330
243
100
AcDbSymbolTableRecord
100
AcDbBlockTableRecord
  2
*D6
340
0
  0
BLOCK_RECORD
  5
F10007
330
243
100
AcDbSymbolTableRecord
100
AcDbBlockTableRecord
  2
*D7
340
0
  0
BLOCK_RECORD
  5
F10011
330
243
100
AcDbSymbolTableRecord
100
AcDbBlockTableRecord
  2
*D8
340
0
  0
BLOCK_RECORD
  5
F10784
330
243
100
AcDbSymbolTableRecord
100
AcDbBlockTableRecord
  2
GENAXEH
340
0
  0
ENDTAB
  0
ENDSEC
  0
SECTION
  2
BLOCKS
  0
BLOCK
  5
262
330
261
100
AcDbEntity
  8
0
100
AcDbBlockBegin
  2
*Model_Space
 70
     0
 10
0.0
 20
0.0
 30
0.0
  3
*Model_Space
  1

  0
ENDBLK
  5
263
330
261
100
AcDbEntity
  8
0
100
AcDbBlockEnd
  0
BLOCK
  5
25E
330
25D
100
AcDbEntity
 67
     1
  8
0
100
AcDbBlockBegin
  2
*Paper_Space
 70
     0
 10
0.0
 20
0.0
 30
0.0
  3
*Paper_Space
  1

  0
ENDBLK
  5
25F
330
25D
100
AcDbEntity
 67
     1
  8
0
100
AcDbBlockEnd
  0
BLOCK
  5
266
330
265
100
AcDbEntity
  8
0
100
AcDbBlockBegin
  2
*Paper_Space0
 70
     0
 10
0.0
 20
0.0
 30
0.0
  3
*Paper_Space0
  1

  0
VIEWPORT
  5
296
102
{ACAD_XDICTIONARY
360
F10925
102
}
330
265
100
AcDbEntity
  8
0
 60
     1
100
AcDbViewport
 10
0.0
 20
0.0
 30
0.0
 40
10.0
 41
10.0
 69
     0
 12
0.0
 22
0.0
 13
0.0
 23
0.0
 14
1.0
 24
1.0
 15
0.0
 25
0.0
 16
0.0
 26
0.0
 36
1.0
 17
0.0
 27
0.0
 37
0.0
 42
0.0
 43
0.0
 44
0.0
 45
10.0
 50
0.0
 51
0.0000000000007958
 72
   100
 90
   163872
  1

281
     0
 71
     0
 74
     0
110
0.0
120
0.0
130
0.0
111
1.0
121
0.0
131
0.0
112
0.0
122
1.0
132
0.0
 79
     0
146
0.0
1001
VD_INVISIBLE_NOT_FOR_READ
1000
VD_INVISIBLE_NOT_FOR_READ
  0
VIEWPORT
  5
297
102
{ACAD_XDICTIONARY
360
F10927
102
}
330
265
100
AcDbEntity
  8
0
 60
     1
100
AcDbViewport
 10
0.0
 20
0.0
 30
0.0
 40
10.0
 41
10.0
 69
     0
 12
0.0
 22
0.0
 13
0.0
 23
0.0
 14
1.0
 24
1.0
 15
0.0
 25
0.0
 16
0.0
 26
0.0
 36
1.0
 17
0.0
 27
0.0
 37
0.0
 42
0.0
 43
0.0
 44
0.0
 45
10.0
 50
0.0
 51
0.0000000000007958
 72
   100
 90
   163872
  1

281
     0
 71
     0
 74
     0
110
0.0
120
0.0
130
0.0
111
1.0
121
0.0
131
0.0
112
0.0
122
1.0
132
0.0
 79
     0
146
0.0
1001
VD_INVISIBLE_NOT_FOR_READ
1000
VD_INVISIBLE_NOT_FOR_READ
  0
ENDBLK
  5
267
330
265
100
AcDbEntity
  8
0
100
AcDbBlockEnd
  0
BLOCK
  5
28B
330
23C
100
AcDbEntity
  8
0
100
AcDbBlockBegin
  2
VDDIM_DEFAULT
 70
     0
 10
0.0
 20
0.0
 30
0.0
  3
VDDIM_DEFAULT
  1

  0
LWPOLYLINE
  5
23D
330
23C
100
AcDbEntity
  8
0
  6
Continuous
 62
     0
100
AcDbPolyline
 90
        4
 70
     0
 43
0.0
 10
0.0
 20
0.0
 10
-1.0
 20
-0.1665
 10
-1.0
 20
0.1665
 10
0.0
 20
0.0
1001
VDEXTRAPARAM
1071
        1
1071
        0
1071
        0
1040
1.0
1000

1000

1040
0.0
1040
0.0
  0
HATCH
  5
292
330
23C
100
AcDbEntity
  8
0
  6
Continuous
 62
     0
100
AcDbHatch
 10
0.0
 20
0.0
 30
0.0
210
0.0
220
0.0
230
1.0
  2
SOLID
 70
     1
 71
     0
 91
        1
 92
        2
 72
     0
 73
     1
 93
        3
 10
0.0
 20
0.0
 10
-1.0
 20
-0.1665
 10
-1.0
 20
0.1665
 97
        0
 75
     0
 76
     1
 98
        1
 10
0.0
 20
0.0
1001
VDEXTRAPARAM
1071
        1
1071
        0
1071
        0
1040
1.0
1000

1000

1040
0.0
1040
0.0
1001
VD_TEMPHATCH
1000
VD_TEMPHATCH
  0
ENDBLK
  5
28C
330
23C
100
AcDbEntity
  8
0
100
AcDbBlockEnd
  0
BLOCK
  5
28D
330
23E
100
AcDbEntity
  8
0
100
AcDbBlockBegin
  2
VDDIM_NONE
 70
     0
 10
0.0
 20
0.0
 30
0.0
  3
VDDIM_NONE
  1

  0
ENDBLK
  5
28E
330
23E
100
AcDbEntity
  8
0
100
AcDbBlockEnd
  0
BLOCK
  5
F10020
330
F10002
100
AcDbEntity
  8
0
100
AcDbBlockBegin
  2
*D3
 70
     1
 10
0.0
 20
0.0
 30
0.0
  3
*D3
  1

  0
LINE
  5
F107A0
330
F10002
100
AcDbEntity
  8
Bemassung
 62
     0
370
    -2
100
AcDbLine
 10
-82.1233480176213
 20
-0.9609030837005001
 30
0.0
 11
-82.1233480176213
 21
27.6640969162995
 31
0.0
  0
LINE
  5
F107A1
330
F10002
100
AcDbEntity
  8
Bemassung
 62
     0
370
    -2
100
AcDbLine
 10
-82.05334801762131
 20
17.0390969162995
 30
0.0
 11
-82.05334801762131
 21
27.6640969162995
 31
0.0
  0
LINE
  5
F107A2
330
F10002
100
AcDbEntity
  8
Bemassung
 62
     0
370
    -2
100
AcDbLine
 10
-84.6233480176213
 20
26.4140969162995
 30
0.0
 11
-87.1233480176213
 21
26.4140969162995
 31
0.0
  0
LINE
  5
F107A3
330
F10002
100
AcDbEntity
  8
Bemassung
 62
     0
370
    -2
100
AcDbLine
 10
-79.55334801762131
 20
26.4140969162995
 30
0.0
 11
-69.30948717178228
 21
26.4140969162995
 31
0.0
  0
LINE
  5
F107A4
330
F10002
100
AcDbEntity
  8
Bemassung
 62
     0
370
    -2
100
AcDbLine
 10
-82.1233480176213
 20
26.4140969162995
 30
0.0
 11
-82.05334801762131
 21
26.4140969162995
 31
0.0
  0
INSERT
  5
F107A5
330
F10002
100
AcDbEntity
  8
Bemassung
 62
     0
370
    -2
100
AcDbBlockReference
  2
VDDIM_DEFAULT
 10
-82.1233480176213
 20
26.4140969162995
 30
0.0
 41
2.5
 42
2.5
 43
2.5
  0
INSERT
  5
F107A6
330
F10002
100
AcDbEntity
  8
Bemassung
 62
     0
370
    -2
100
AcDbBlockReference
  2
VDDIM_DEFAULT
 10
-82.05334801762131
 20
26.4140969162995
 30
0.0
 41
2.5
 42
2.5
 43
2.5
 50
180.0
  0
MTEXT
  5
F107A7
330
F10002
100
AcDbEntity
  8
Bemassung
 62
     0
100
AcDbMText
 10
-73.18141759470179
 20
27.0390969162995
 30
0.0
 40
2.5
 41
0.0
 71
     8
 72
     1
  1
\A1;0.07
 73
     1
 44
1.0
1001
ACAD
1000
MTEXTBEGIN
1070
    73
1070
     1
1070
    44
1040
1.0
1070
    74
1070
     0
1000
MTEXTEND
  0
POINT
  5
F107A8
330
F10002
100
AcDbEntity
  8
Defpoints
 62
     0
100
AcDbPoint
 10
-82.1233480176213
 20
-1.5859030837005
 30
0.0
  0
POINT
  5
F107A9
330
F10002
100
AcDbEntity
  8
Defpoints
 62
     0
100
AcDbPoint
 10
-82.05334801762131
 20
16.4140969162995
 30
0.0
  0
POINT
  5
F107AA
330
F10002
100
AcDbEntity
  8
Defpoints
 62
     0
100
AcDbPoint
 10
-82.05334801762131
 20
26.4140969162995
 30
0.0
  0
ENDBLK
  5
F10029
330
F10002
100
AcDbEntity
  8
0
100
AcDbBlockEnd
  0
BLOCK
  5
F1002A
330
F1000C
100
AcDbEntity
  8
0
100
AcDbBlockBegin
  2
*D4
 70
     1
 10
0.0
 20
0.0
 30
0.0
  3
*D4
  1

  0
LINE
  5
F108E6
330
F1000C
100
AcDbEntity
  8
Bemassung
 62
     0
370
    -2
100
AcDbLine
 10
0.0
 20
3.625
 30
0.0
 11
0.0000000000000016
 21
29.25
 31
0.0
  0
LINE
  5
F108E7
330
F1000C
100
AcDbEntity
  8
Bemassung
 62
     0
370
    -2
100
AcDbLine
 10
36.0
 20
3.325000000000002
 30
0.0
 11
36.0
 21
29.25
 31
0.0
  0
LINE
  5
F108E8
330
F1000C
100
AcDbEntity
  8
Bemassung
 62
     0
370
    -2
100
AcDbLine
 10
2.500000000000001
 20
28.0
 30
0.0
 11
33.5
 21
28.0
 31
0.0
  0
INSERT
  5
F108E9
330
F1000C
100
AcDbEntity
  8
Bemassung
 62
     0
370
    -2
100
AcDbBlockReference
  2
VDDIM_DEFAULT
 10
0.0000000000000015
 20
28.0
 30
0.0
 41
2.5
 42
2.5
 43
2.5
 50
180.0
  0
INSERT
  5
F108EA
330
F1000C
100
AcDbEntity
  8
Bemassung
 62
     0
370
    -2
100
AcDbBlockReference
  2
VDDIM_DEFAULT
 10
36.0
 20
28.0
 30
0.0
 41
2.5
 42
2.5
 43
2.5
  0
MTEXT
  5
F108EB
330
F1000C
100
AcDbEntity
  8
Bemassung
 62
     0
100
AcDbMText
 10
18.0
 20
28.625
 30
0.0
 40
2.5
 41
0.0
 71
     8
 72
     1
  1
\A1;36
 73
     1
 44
1.0
1001
ACAD
1000
MTEXTBEGIN
1070
    73
1070
     1
1070
    44
1040
1.0
1070
    74
1070
     0
1000
MTEXTEND
  0
POINT
  5
F108EC
330
F1000C
100
AcDbEntity
  8
Defpoints
 62
     0
100
AcDbPoint
 10
0.0
 20
3.0
 30
0.0
  0
POINT
  5
F108ED
330
F1000C
100
AcDbEntity
  8
Defpoints
 62
     0
100
AcDbPoint
 10
36.0
 20
2.700000000000002
 30
0.0
  0
POINT
  5
F108EE
330
F1000C
100
AcDbEntity
  8
Defpoints
 62
     0
100
AcDbPoint
 10
36.0
 20
28.0
 30
0.0
  0
ENDBLK
  5
F10033
330
F1000C
100
AcDbEntity
  8
0
100
AcDbBlockEnd
  0
BLOCK
  5
F10034
330
F10016
100
AcDbEntity
  8
0
100
AcDbBlockBegin
  2
*D5
 70
     1
 10
0.0
 20
0.0
 30
0.0
  3
*D5
  1

  0
LINE
  5
F108FA
330
F10016
100
AcDbEntity
  8
Bemassung
 62
     0
370
    -2
100
AcDbLine
 10
-8.0
 20
-3.624999999999998
 30
0.0
 11
-8.0
 21
-14.25
 31
0.0
  0
LINE
  5
F108FB
330
F10016
100
AcDbEntity
  8
Bemassung
 62
     0
370
    -2
100
AcDbLine
 10
-18.0
 20
-14.375
 30
0.0
 11
-18.0
 21
-11.75
 31
0.0
  0
LINE
  5
F108FC
330
F10016
100
AcDbEntity
  8
Bemassung
 62
     0
370
    -2
100
AcDbLine
 10
-10.5
 20
-13.0
 30
0.0
 11
-15.5
 21
-13.0
 31
0.0
  0
INSERT
  5
F108FD
330
F10016
100
AcDbEntity
  8
Bemassung
 62
     0
370
    -2
100
AcDbBlockReference
  2
VDDIM_DEFAULT
 10
-8.0
 20
-13.0
 30
0.0
 41
2.5
 42
2.5
 43
2.5
  0
INSERT
  5
F108FE
330
F10016
100
AcDbEntity
  8
Bemassung
 62
     0
370
    -2
100
AcDbBlockReference
  2
VDDIM_DEFAULT
 10
-18.0
 20
-13.0
 30
0.0
 41
2.5
 42
2.5
 43
2.5
 50
180.0
  0
MTEXT
  5
F108FF
330
F10016
100
AcDbEntity
  8
Bemassung
 62
     0
100
AcDbMText
 10
-13.0
 20
-12.375
 30
0.0
 40
2.5
 41
0.0
 71
     8
 72
     1
  1
\A1;10
 73
     1
 44
1.0
1001
ACAD
1000
MTEXTBEGIN
1070
    73
1070
     1
1070
    44
1040
1.0
1070
    74
1070
     0
1000
MTEXTEND
  0
POINT
  5
F10900
330
F10016
100
AcDbEntity
  8
Defpoints
 62
     0
100
AcDbPoint
 10
-8.0
 20
-2.999999999999998
 30
0.0
  0
POINT
  5
F10901
330
F10016
100
AcDbEntity
  8
Defpoints
 62
     0
100
AcDbPoint
 10
-18.0
 20
-15.0
 30
0.0
  0
POINT
  5
F10902
330
F10016
100
AcDbEntity
  8
Defpoints
 62
     0
100
AcDbPoint
 10
-18.0
 20
-13.0
 30
0.0
  0
ENDBLK
  5
F1003D
330
F10016
100
AcDbEntity
  8
0
100
AcDbBlockEnd
  0
BLOCK
  5
F1003E
330
F1001B
100
AcDbEntity
  8
0
100
AcDbBlockBegin
  2
*D6
 70
     1
 10
0.0
 20
0.0
 30
0.0
  3
*D6
  1

  0
LINE
  5
F10903
330
F1001B
100
AcDbEntity
  8
Bemassung
 62
     0
370
    -2
100
AcDbLine
 10
36.0
 20
3.325000000000002
 30
0.0
 11
36.0
 21
44.24999999999999
 31
0.0
  0
LINE
  5
F10904
330
F1001B
100
AcDbEntity
  8
Bemassung
 62
     0
370
    -2
100
AcDbLine
 10
-18.0
 20
-14.375
 30
0.0
 11
-18.0
 21
44.24999999999999
 31
0.0
  0
LINE
  5
F10905
330
F1001B
100
AcDbEntity
  8
Bemassung
 62
     0
370
    -2
100
AcDbLine
 10
33.5
 20
43.0
 30
0.0
 11
-15.5
 21
43.0
 31
0.0
  0
INSERT
  5
F10906
330
F1001B
100
AcDbEntity
  8
Bemassung
 62
     0
370
    -2
100
AcDbBlockReference
  2
VDDIM_DEFAULT
 10
36.0
 20
43.0
 30
0.0
 41
2.5
 42
2.5
 43
2.5
  0
INSERT
  5
F10907
330
F1001B
100
AcDbEntity
  8
Bemassung
 62
     0
370
    -2
100
AcDbBlockReference
  2
VDDIM_DEFAULT
 10
-18.0
 20
43.0
 30
0.0
 41
2.5
 42
2.5
 43
2.5
 50
180.0
  0
MTEXT
  5
F10908
330
F1001B
100
AcDbEntity
  8
Bemassung
 62
     0
100
AcDbMText
 10
8.999999999999998
 20
43.62499999999999
 30
0.0
 40
2.5
 41
0.0
 71
     8
 72
     1
  1
\A1;54
 73
     1
 44
1.0
1001
ACAD
1000
MTEXTBEGIN
1070
    73
1070
     1
1070
    44
1040
1.0
1070
    74
1070
     0
1000
MTEXTEND
  0
POINT
  5
F10909
330
F1001B
100
AcDbEntity
  8
Defpoints
 62
     0
100
AcDbPoint
 10
36.0
 20
2.700000000000002
 30
0.0
  0
POINT
  5
F1090A
330
F1001B
100
AcDbEntity
  8
Defpoints
 62
     0
100
AcDbPoint
 10
-18.0
 20
-15.0
 30
0.0
  0
POINT
  5
F1090B
330
F1001B
100
AcDbEntity
  8
Defpoints
 62
     0
100
AcDbPoint
 10
-18.0
 20
43.0
 30
0.0
  0
ENDBLK
  5
F10047
330
F1001B
100
AcDbEntity
  8
0
100
AcDbBlockEnd
  0
BLOCK
  5
F10048
330
F10007
100
AcDbEntity
  8
0
100
AcDbBlockBegin
  2
*D7
 70
     1
 10
0.0
 20
0.0
 30
0.0
  3
*D7
  1

  0
LINE
  5
F108DB
330
F10007
100
AcDbEntity
  8
Bemassung
 62
     0
370
    -2
100
AcDbLine
 10
-18.55500000000001
 20
-2.999999999999998
 30
0.0
 11
-29.24999999999999
 21
-2.999999999999994
 31
0.0
  0
LINE
  5
F108DC
330
F10007
100
AcDbEntity
  8
Bemassung
 62
     0
370
    -2
100
AcDbLine
 10
-18.55500000000001
 20
3.0
 30
0.0
 11
-29.24999999999999
 21
3.000000000000003
 31
0.0
  0
LINE
  5
F108DD
330
F10007
100
AcDbEntity
  8
Bemassung
 62
     0
370
    -2
100
AcDbLine
 10
-27.99999999999999
 20
-5.499999999999995
 30
0.0
 11
-27.99999999999999
 21
-7.999999999999995
 31
0.0
  0
LINE
  5
F108DE
330
F10007
100
AcDbEntity
  8
Bemassung
 62
     0
370
    -2
100
AcDbLine
 10
-27.99999999999999
 20
5.500000000000002
 30
0.0
 11
-27.99999999999999
 21
8.000000000000001
 31
0.0
  0
LINE
  5
F108DF
330
F10007
100
AcDbEntity
  8
Bemassung
 62
     0
370
    -2
100
AcDbLine
 10
-27.99999999999999
 20
-2.999999999999995
 30
0.0
 11
-27.99999999999999
 21
3.000000000000002
 31
0.0
  0
INSERT
  5
F108E0
330
F10007
100
AcDbEntity
  8
Bemassung
 62
     0
370
    -2
100
AcDbBlockReference
  2
VDDIM_DEFAULT
 10
-27.99999999999999
 20
-2.999999999999995
 30
0.0
 41
2.5
 42
2.5
 43
2.5
 50
90.0
  0
INSERT
  5
F108E1
330
F10007
100
AcDbEntity
  8
Bemassung
 62
     0
370
    -2
100
AcDbBlockReference
  2
VDDIM_DEFAULT
 10
-27.99999999999999
 20
3.000000000000002
 30
0.0
 41
2.5
 42
2.5
 43
2.5
 50
270.0
  0
MTEXT
  5
F108E2
330
F10007
100
AcDbEntity
  8
Bemassung
 62
     0
100
AcDbMText
 10
-28.62499999999999
 20
-0.0000000000000007
 30
0.0
 40
2.5
 41
0.0
 71
     8
 72
     1
  1
\A1;%%c6
 11
0.0000000000000001
 21
1.0
 31
0.0
 73
     1
 44
1.0
1001
ACAD
1000
MTEXTBEGIN
1070
    73
1070
     1
1070
    44
1040
1.0
1070
    74
1070
     0
1000
MTEXTEND
  0
POINT
  5
F108E3
330
F10007
100
AcDbEntity
  8
Defpoints
 62
     0
100
AcDbPoint
 10
-17.93000000000001
 20
-2.999999999999998
 30
0.0
  0
POINT
  5
F108E4
330
F10007
100
AcDbEntity
  8
Defpoints
 62
     0
100
AcDbPoint
 10
-17.93000000000001
 20
3.0
 30
0.0
  0
POINT
  5
F108E5
330
F10007
100
AcDbEntity
  8
Defpoints
 62
     0
100
AcDbPoint
 10
-27.99999999999999
 20
3.000000000000002
 30
0.0
  0
ENDBLK
  5
F10051
330
F10007
100
AcDbEntity
  8
0
100
AcDbBlockEnd
  0
BLOCK
  5
F10052
330
F10011
100
AcDbEntity
  8
0
100
AcDbBlockBegin
  2
*D8
 70
     1
 10
0.0
 20
0.0
 30
0.0
  3
*D8
  1

  0
LINE
  5
F108EF
330
F10011
100
AcDbEntity
  8
Bemassung
 62
     0
370
    -2
100
AcDbLine
 10
36.32499999999999
 20
-2.999999999999998
 30
0.0
 11
47.25
 21
-3.000000000000001
 31
0.0
  0
LINE
  5
F108F0
330
F10011
100
AcDbEntity
  8
Bemassung
 62
     0
370
    -2
100
AcDbLine
 10
36.32499999999999
 20
3.0
 30
0.0
 11
47.25
 21
2.999999999999996
 31
0.0
  0
LINE
  5
F108F1
330
F10011
100
AcDbEntity
  8
Bemassung
 62
     0
370
    -2
100
AcDbLine
 10
46.0
 20
-5.500000000000001
 30
0.0
 11
46.0
 21
-8.000000000000001
 31
0.0
  0
LINE
  5
F108F2
330
F10011
100
AcDbEntity
  8
Bemassung
 62
     0
370
    -2
100
AcDbLine
 10
46.0
 20
5.499999999999996
 30
0.0
 11
46.0
 21
7.999999999999996
 31
0.0
  0
LINE
  5
F108F3
330
F10011
100
AcDbEntity
  8
Bemassung
 62
     0
370
    -2
100
AcDbLine
 10
46.0
 20
-3.0
 30
0.0
 11
46.0
 21
2.999999999999997
 31
0.0
  0
INSERT
  5
F108F4
330
F10011
100
AcDbEntity
  8
Bemassung
 62
     0
370
    -2
100
AcDbBlockReference
  2
VDDIM_DEFAULT
 10
46.0
 20
-3.0
 30
0.0
 41
2.5
 42
2.5
 43
2.5
 50
90.0
  0
INSERT
  5
F108F5
330
F10011
100
AcDbEntity
  8
Bemassung
 62
     0
370
    -2
100
AcDbBlockReference
  2
VDDIM_DEFAULT
 10
46.0
 20
2.999999999999997
 30
0.0
 41
2.5
 42
2.5
 43
2.5
 50
270.0
  0
MTEXT
  5
F108F6
330
F10011
100
AcDbEntity
  8
Bemassung
 62
     0
100
AcDbMText
 10
45.375
 20
0.0000000000000059
 30
0.0
 40
2.5
 41
0.0
 71
     8
 72
     1
  1
\A1;%%C6
 11
0.0000000000000001
 21
1.0
 31
0.0
 73
     1
 44
1.0
1001
ACAD
1000
MTEXTBEGIN
1070
    73
1070
     1
1070
    44
1040
1.0
1070
    74
1070
     0
1000
MTEXTEND
  0
POINT
  5
F108F7
330
F10011
100
AcDbEntity
  8
Defpoints
 62
     0
100
AcDbPoint
 10
35.69999999999999
 20
-2.999999999999998
 30
0.0
  0
POINT
  5
F108F8
330
F10011
100
AcDbEntity
  8
Defpoints
 62
     0
100
AcDbPoint
 10
35.69999999999999
 20
3.0
 30
0.0
  0
POINT
  5
F108F9
330
F10011
100
AcDbEntity
  8
Defpoints
 62
     0
100
AcDbPoint
 10
46.0
 20
2.999999999999997
 30
0.0
  0
ENDBLK
  5
F1005B
330
F10011
100
AcDbEntity
  8
0
100
AcDbBlockEnd
  0
BLOCK
  5
F10786
330
F10784
100
AcDbEntity
  8
0
100
AcDbBlockBegin
  2
GENAXEH
 70
     0
 10
0.0
 20
0.0
 30
0.0
  3
GENAXEH
  1

  0
LINE
  5
F10785
330
F10784
100
AcDbEntity
  8
0
100
AcDbLine
 10
-1.0
 20
0.0
 30
0.0
 11
1.0
 21
0.0
 31
0.0
  0
ENDBLK
  5
F10787
330
F10784
100
AcDbEntity
  8
0
100
AcDbBlockEnd
  0
ENDSEC
  0
SECTION
  2
ENTITIES
  0
DIMENSION
  5
F1000D
330
261
100
AcDbEntity
  8
Bemassung
100
AcDbDimension
  2
*D4
 10
36.0
 20
28.0
 30
0.0
 11
18.0
 21
29.90228512960437
 31
0.0
 70
    32
  1
<>
 71
     8
 42
36.0
  3
BEM-ISBE
100
AcDbAlignedDimension
 13
0.0
 23
3.0
 33
0.0
 14
36.0
 24
2.700000000000002
 34
0.0
100
AcDbRotatedDimension
1001
ACAD
1000
DSTYLE
1002
{
1070
    47
1040
2.0
1070
    48
1040
0.0
1070
    71
1070
     0
1070
    78
1070
     8
1070
   284
1070
     8
1002
}
  0
DIMENSION
  5
F10017
330
261
100
AcDbEntity
  8
Bemassung
100
AcDbDimension
  2
*D5
 10
-18.0
 20
-13.0
 30
0.0
 11
-13.0
 21
-11.09856753069577
 31
0.0
 70
    32
  1
<>
 71
     8
 42
10.0
  3
BEM-ISBE
100
AcDbAlignedDimension
 13
-8.0
 23
-2.999999999999998
 33
0.0
 14
-18.0
 24
-15.0
 34
0.0
100
AcDbRotatedDimension
1001
ACAD
1000
DSTYLE
1002
{
1070
    47
1040
1.0
1070
    48
1040
0.0
1070
    71
1070
     0
1070
    78
1070
     8
1070
   284
1070
     8
1002
}
  0
DIMENSION
  5
F1001C
330
261
100
AcDbEntity
  8
Bemassung
100
AcDbDimension
  2
*D6
 10
-18.0
 20
43.0
 30
0.0
 11
8.999999999999998
 21
44.89631650750341
 31
0.0
 70
    32
  1
<>
 71
     8
 42
53.99999999999999
  3
BEM-ISBE
100
AcDbAlignedDimension
 13
36.0
 23
2.700000000000002
 33
0.0
 14
-18.0
 24
-15.0
 34
0.0
100
AcDbRotatedDimension
1001
ACAD
1000
DSTYLE
1002
{
1070
    47
1040
2.0
1070
    48
1040
0.0
1070
    71
1070
     0
1070
    78
1070
     8
1070
   284
1070
     8
1002
}
  0
DIMENSION
  5
F10008
330
261
100
AcDbEntity
  8
Bemassung
100
AcDbDimension
  2
*D7
 10
-27.99999999999999
 20
3.000000000000002
 30
0.0
 11
-29.9713506139154
 21
-0.0000000000000007
 31
0.0
 70
    32
  1
%%c<>
 71
     8
 42
5.999999999999998
  3
BEM-ISBE
100
AcDbAlignedDimension
 13
-17.93000000000001
 23
-2.999999999999998
 33
0.0
 14
-17.93000000000001
 24
3.0
 34
0.0
 50
90.0
100
AcDbRotatedDimension
1001
ACAD
1000
DSTYLE
1002
{
1070
    48
1040
-0.048
1070
    71
1070
     0
1070
    78
1070
     8
1070
   284
1070
     8
1002
}
  0
DIMENSION
  5
F10012
330
261
100
AcDbEntity
  8
Bemassung
100
AcDbDimension
  2
*D8
 10
46.0
 20
2.999999999999997
 30
0.0
 11
44.02864938608458
 21
0.0000000000000059
 31
0.0
 70
    32
  1
%%C<>
 71
     8
 42
5.999999999999998
  3
BEM-ISBE
100
AcDbAlignedDimension
 13
35.69999999999999
 23
-2.999999999999998
 33
0.0
 14
35.69999999999999
 24
3.0
 34
0.0
 50
90.0
100
AcDbRotatedDimension
1001
ACAD
1000
DSTYLE
1002
{
1070
    71
1070
     0
1070
    78
1070
     8
1002
}
1001
ACAD_DSTYLE_DIMINSPECT
1070
   396
1000
100%
1070
   395
1000

1070
   394
1070
    33
1070
   393
1070
     0
  0
LINE
  5
F1005C
330
261
100
AcDbEntity
  8
Geo
100
AcDbLine
 10
-18.0
 20
0.0000000000000018
 30
0.0
 11
-18.0
 21
2.929999999999999
 31
0.0
  0
LINE
  5
F1005E
330
261
100
AcDbEntity
  8
Geo
100
AcDbLine
 10
-18.0
 20
2.929999999999999
 30
0.0
 11
-17.93000000000001
 21
3.0
 31
0.0
  0
LINE
  5
F10060
330
261
100
AcDbEntity
  8
Geo
100
AcDbLine
 10
-17.93000000000001
 20
3.0
 30
0.0
 11
-8.0
 21
3.0
 31
0.0
  0
LINE
  5
F10062
330
261
100
AcDbEntity
  8
Geo
100
AcDbLine
 10
-8.0
 20
3.0
 30
0.0
 11
0.0
 21
3.0
 31
0.0
  0
LINE
  5
F10064
330
261
100
AcDbEntity
  8
Geo
100
AcDbLine
 10
0.0
 20
3.0
 30
0.0
 11
15.0
 21
3.0
 31
0.0
  0
LINE
  5
F10066
330
261
100
AcDbEntity
  8
Geo
100
AcDbLine
 10
15.0
 20
3.0
 30
0.0
 11
15.9
 21
2.100000000000001
 31
0.0
  0
LINE
  5
F10068
330
261
100
AcDbEntity
  8
Geo
100
AcDbLine
 10
15.9
 20
2.100000000000001
 30
0.0
 11
20.1
 21
2.100000000000001
 31
0.0
  0
LINE
  5
F1006A
330
261
100
AcDbEntity
  8
Geo
100
AcDbLine
 10
20.1
 20
2.100000000000001
 30
0.0
 11
21.0
 21
3.0
 31
0.0
  0
LINE
  5
F1006C
330
261
100
AcDbEntity
  8
Geo
100
AcDbLine
 10
21.0
 20
3.0
 30
0.0
 11
35.69999999999999
 21
3.0
 31
0.0
  0
LINE
  5
F1006E
330
261
100
AcDbEntity
  8
Geo
100
AcDbLine
 10
35.69999999999999
 20
3.0
 30
0.0
 11
36.0
 21
2.700000000000002
 31
0.0
  0
LINE
  5
F10070
330
261
100
AcDbEntity
  8
Geo
100
AcDbLine
 10
-16.3
 20
2.999290553574599
 30
0.0
 11
-16.2
 21
2.999972333581901
 31
0.0
  0
LINE
  5
F10072
330
261
100
AcDbEntity
  8
Geo
100
AcDbLine
 10
-16.2
 20
2.999972333581901
 30
0.0
 11
-16.09999999999999
 21
2.998619556581601
 31
0.0
  0
LINE
  5
F10074
330
261
100
AcDbEntity
  8
Geo
100
AcDbLine
 10
-16.09999999999999
 20
2.998619556581601
 30
0.0
 11
-16.0
 21
2.995233140016001
 31
0.0
  0
LINE
  5
F10076
330
261
100
AcDbEntity
  8
Geo
100
AcDbLine
 10
-16.0
 20
2.995233140016001
 30
0.0
 11
-15.9
 21
2.989815380525499
 31
0.0
  0
LINE
  5
F10078
330
261
100
AcDbEntity
  8
Geo
100
AcDbLine
 10
-15.9
 20
2.989815380525499
 30
0.0
 11
-15.8
 21
2.982369952390801
 31
0.0
  0
LINE
  5
F1007A
330
261
100
AcDbEntity
  8
Geo
100
AcDbLine
 10
-15.8
 20
2.982369952390801
 30
0.0
 11
-15.7
 21
2.9729019050413
 31
0.0
  0
LINE
  5
F1007C
330
261
100
AcDbEntity
  8
Geo
100
AcDbLine
 10
-15.7
 20
2.9729019050413
 30
0.0
 11
-15.59999999999999
 21
2.9614176596301
 31
0.0
  0
LINE
  5
F1007E
330
261
100
AcDbEntity
  8
Geo
100
AcDbLine
 10
-15.59999999999999
 20
2.9614176596301
 30
0.0
 11
-15.5
 21
2.947925004679699
 31
0.0
  0
LINE
  5
F10080
330
261
100
AcDbEntity
  8
Geo
100
AcDbLine
 10
-15.5
 20
2.947925004679699
 30
0.0
 11
-15.4
 21
2.932433090799701
 31
0.0
  0
LINE
  5
F10082
330
261
100
AcDbEntity
  8
Geo
100
AcDbLine
 10
-15.4
 20
2.932433090799701
 30
0.0
 11
-15.3
 21
2.914952424481001
 31
0.0
  0
LINE
  5
F10084
330
261
100
AcDbEntity
  8
Geo
100
AcDbLine
 10
-15.3
 20
2.914952424481001
 30
0.0
 11
-15.2
 21
2.895494860970401
 31
0.0
  0
LINE
  5
F10086
330
261
100
AcDbEntity
  8
Geo
100
AcDbLine
 10
-15.2
 20
2.895494860970401
 30
0.0
 11
-15.09999999999999
 21
2.8740735962302
 31
0.0
  0
LINE
  5
F10088
330
261
100
AcDbEntity
  8
Geo
100
AcDbLine
 10
-15.09999999999999
 20
2.8740735962302
 30
0.0
 11
-15.0
 21
2.850703157989201
 31
0.0
  0
LINE
  5
F1008A
330
261
100
AcDbEntity
  8
Geo
100
AcDbLine
 10
-15.0
 20
2.850703157989201
 30
0.0
 11
-14.9
 21
2.8253993958898
 31
0.0
  0
LINE
  5
F1008C
330
261
100
AcDbEntity
  8
Geo
100
AcDbLine
 10
-14.9
 20
2.8253993958898
 30
0.0
 11
-14.79999999999999
 21
2.798179470739199
 31
0.0
  0
LINE
  5
F1008E
330
261
100
AcDbEntity
  8
Geo
100
AcDbLine
 10
-14.79999999999999
 20
2.798179470739199
 30
0.0
 11
-14.7
 21
2.769061842870801
 31
0.0
  0
LINE
  5
F10090
330
261
100
AcDbEntity
  8
Geo
100
AcDbLine
 10
-14.7
 20
2.769061842870801
 30
0.0
 11
-14.59999999999999
 21
2.738066259624503
 31
0.0
  0
LINE
  5
F10092
330
261
100
AcDbEntity
  8
Geo
100
AcDbLine
 10
-14.59999999999999
 20
2.738066259624503
 30
0.0
 11
-14.5
 21
2.7052137419547
 31
0.0
  0
LINE
  5
F10094
330
261
100
AcDbEntity
  8
Geo
100
AcDbLine
 10
-14.5
 20
2.7052137419547
 30
0.0
 11
-14.4
 21
2.6705265701735
 31
0.0
  0
LINE
  5
F10096
330
261
100
AcDbEntity
  8
Geo
100
AcDbLine
 10
-14.4
 20
2.6705265701735
 30
0.0
 11
-14.29999999999999
 21
2.634028268840499
 31
0.0
  0
LINE
  5
F10098
330
261
100
AcDbEntity
  8
Geo
100
AcDbLine
 10
-14.29999999999999
 20
2.634028268840499
 30
0.0
 11
-14.2
 21
2.595743590809099
 31
0.0
  0
LINE
  5
F1009A
330
261
100
AcDbEntity
  8
Geo
100
AcDbLine
 10
-14.2
 20
2.595743590809099
 30
0.0
 11
-14.09999999999999
 21
2.555698500438701
 31
0.0
  0
LINE
  5
F1009C
330
261
100
AcDbEntity
  8
Geo
100
AcDbLine
 10
-14.09999999999999
 20
2.555698500438701
 30
0.0
 11
-14.0
 21
2.513920155986101
 31
0.0
  0
LINE
  5
F1009E
330
261
100
AcDbEntity
  8
Geo
100
AcDbLine
 10
-14.0
 20
2.513920155986101
 30
0.0
 11
-13.9
 21
2.470436891187098
 31
0.0
  0
LINE
  5
F100A0
330
261
100
AcDbEntity
  8
Geo
100
AcDbLine
 10
-13.9
 20
2.470436891187098
 30
0.0
 11
-13.8
 21
2.4252781960408
 31
0.0
  0
LINE
  5
F100A2
330
261
100
AcDbEntity
  8
Geo
100
AcDbLine
 10
-13.8
 20
2.4252781960408
 30
0.0
 11
-13.7
 21
2.3784746968094
 31
0.0
  0
LINE
  5
F100A4
330
261
100
AcDbEntity
  8
Geo
100
AcDbLine
 10
-13.7
 20
2.3784746968094
 30
0.0
 11
-13.59999999999999
 21
2.3300581352481
 31
0.0
  0
LINE
  5
F100A6
330
261
100
AcDbEntity
  8
Geo
100
AcDbLine
 10
-13.59999999999999
 20
2.3300581352481
 30
0.0
 11
-13.5
 21
2.280061347078
 31
0.0
  0
LINE
  5
F100A8
330
261
100
AcDbEntity
  8
Geo
100
AcDbLine
 10
-13.5
 20
2.280061347078
 30
0.0
 11
-13.4
 21
2.228518239716899
 31
0.0
  0
LINE
  5
F100AA
330
261
100
AcDbEntity
  8
Geo
100
AcDbLine
 10
-13.4
 20
2.228518239716899
 30
0.0
 11
-13.3
 21
2.1754637692841
 31
0.0
  0
LINE
  5
F100AC
330
261
100
AcDbEntity
  8
Geo
100
AcDbLine
 10
-13.3
 20
2.1754637692841
 30
0.0
 11
-13.2
 21
2.1209339168928
 31
0.0
  0
LINE
  5
F100AE
330
261
100
AcDbEntity
  8
Geo
100
AcDbLine
 10
-13.2
 20
2.1209339168928
 30
0.0
 11
-13.09999999999999
 21
2.064965664248601
 31
0.0
  0
LINE
  5
F100B0
330
261
100
AcDbEntity
  8
Geo
100
AcDbLine
 10
-13.09999999999999
 20
2.064965664248601
 30
0.0
 11
-13.0
 21
2.0075969685684
 31
0.0
  0
LINE
  5
F100B2
330
261
100
AcDbEntity
  8
Geo
100
AcDbLine
 10
-13.0
 20
2.0075969685684
 30
0.0
 11
-12.9
 21
1.948866736838198
 31
0.0
  0
LINE
  5
F100B4
330
261
100
AcDbEntity
  8
Geo
100
AcDbLine
 10
-12.9
 20
1.948866736838198
 30
0.0
 11
-12.8
 21
1.888814799427001
 31
0.0
  0
LINE
  5
F100B6
330
261
100
AcDbEntity
  8
Geo
100
AcDbLine
 10
-12.8
 20
1.888814799427001
 30
0.0
 11
-12.7
 21
1.8274818830736
 31
0.0
  0
LINE
  5
F100B8
330
261
100
AcDbEntity
  8
Geo
100
AcDbLine
 10
-12.7
 20
1.8274818830736
 30
0.0
 11
-12.59999999999999
 21
1.764909583266501
 31
0.0
  0
LINE
  5
F100BA
330
261
100
AcDbEntity
  8
Geo
100
AcDbLine
 10
-12.59999999999999
 20
1.764909583266501
 30
0.0
 11
-12.5
 21
1.701140336034198
 31
0.0
  0
LINE
  5
F100BC
330
261
100
AcDbEntity
  8
Geo
100
AcDbLine
 10
-12.5
 20
1.701140336034198
 30
0.0
 11
-12.4
 21
1.6362173891651
 31
0.0
  0
LINE
  5
F100BE
330
261
100
AcDbEntity
  8
Geo
100
AcDbLine
 10
-12.4
 20
1.6362173891651
 30
0.0
 11
-12.29999999999999
 21
1.570184772877301
 31
0.0
  0
LINE
  5
F100C0
330
261
100
AcDbEntity
  8
Geo
100
AcDbLine
 10
-12.29999999999999
 20
1.570184772877301
 30
0.0
 11
-12.2
 21
1.503087269958001
 31
0.0
  0
LINE
  5
F100C2
330
261
100
AcDbEntity
  8
Geo
100
AcDbLine
 10
-12.2
 20
1.503087269958001
 30
0.0
 11
-12.09999999999999
 21
1.434970385391801
 31
0.0
  0
LINE
  5
F100C4
330
261
100
AcDbEntity
  8
Geo
100
AcDbLine
 10
-12.09999999999999
 20
1.434970385391801
 30
0.0
 11
-12.0
 21
1.3658803154996
 31
0.0
  0
LINE
  5
F100C6
330
261
100
AcDbEntity
  8
Geo
100
AcDbLine
 10
-12.0
 20
1.3658803154996
 30
0.0
 11
-11.9
 21
1.295863916608801
 31
0.0
  0
LINE
  5
F100C8
330
261
100
AcDbEntity
  8
Geo
100
AcDbLine
 10
-11.9
 20
1.295863916608801
 30
0.0
 11
-11.79999999999999
 21
1.2249686732757
 31
0.0
  0
LINE
  5
F100CA
330
261
100
AcDbEntity
  8
Geo
100
AcDbLine
 10
-11.79999999999999
 20
1.2249686732757
 30
0.0
 11
-11.7
 21
1.153242666081698
 31
0.0
  0
LINE
  5
F100CC
330
261
100
AcDbEntity
  8
Geo
100
AcDbLine
 10
-11.7
 20
1.153242666081698
 30
0.0
 11
-11.59999999999999
 21
1.0807345390256
 31
0.0
  0
LINE
  5
F100CE
330
261
100
AcDbEntity
  8
Geo
100
AcDbLine
 10
-11.59999999999999
 20
1.0807345390256
 30
0.0
 11
-11.5
 21
1.0074934665335
 31
0.0
  0
LINE
  5
F100D0
330
261
100
AcDbEntity
  8
Geo
100
AcDbLine
 10
-11.5
 20
1.0074934665335
 30
0.0
 11
-11.4
 21
0.9335691201094018
 31
0.0
  0
LINE
  5
F100D2
330
261
100
AcDbEntity
  8
Geo
100
AcDbLine
 10
-11.4
 20
0.9335691201094018
 30
0.0
 11
-11.29999999999999
 21
0.8590116346479028
 31
0.0
  0
LINE
  5
F100D4
330
261
100
AcDbEntity
  8
Geo
100
AcDbLine
 10
-11.29999999999999
 20
0.8590116346479028
 30
0.0
 11
-11.2
 21
0.7838715744334995
 31
0.0
  0
LINE
  5
F100D6
330
261
100
AcDbEntity
  8
Geo
100
AcDbLine
 10
-11.2
 20
0.7838715744334995
 30
0.0
 11
-11.09999999999999
 21
0.7081998988481005
 31
0.0
  0
LINE
  5
F100D8
330
261
100
AcDbEntity
  8
Geo
100
AcDbLine
 10
-11.09999999999999
 20
0.7081998988481005
 30
0.0
 11
-11.0
 21
0.6320479278110991
 31
0.0
  0
LINE
  5
F100DA
330
261
100
AcDbEntity
  8
Geo
100
AcDbLine
 10
-11.0
 20
0.6320479278110991
 30
0.0
 11
-10.9
 21
0.5554673069740997
 31
0.0
  0
LINE
  5
F100DC
330
261
100
AcDbEntity
  8
Geo
100
AcDbLine
 10
-10.9
 20
0.5554673069740997
 30
0.0
 11
-10.8
 21
0.4785099726957008
 31
0.0
  0
LINE
  5
F100DE
330
261
100
AcDbEntity
  8
Geo
100
AcDbLine
 10
-10.8
 20
0.4785099726957008
 30
0.0
 11
-10.7
 21
0.4012281168184
 31
0.0
  0
LINE
  5
F100E0
330
261
100
AcDbEntity
  8
Geo
100
AcDbLine
 10
-10.7
 20
0.4012281168184
 30
0.0
 11
-10.59999999999999
 21
0.323674151272801
 31
0.0
  0
LINE
  5
F100E2
330
261
100
AcDbEntity
  8
Geo
100
AcDbLine
 10
-10.59999999999999
 20
0.323674151272801
 30
0.0
 11
-10.5
 21
0.2459006725319011
 31
0.0
  0
LINE
  5
F100E4
330
261
100
AcDbEntity
  8
Geo
100
AcDbLine
 10
-10.5
 20
0.2459006725319011
 30
0.0
 11
-10.4
 21
0.1679604259409011
 31
0.0
  0
LINE
  5
F100E6
330
261
100
AcDbEntity
  8
Geo
100
AcDbLine
 10
-10.4
 20
0.1679604259409011
 30
0.0
 11
-10.3
 21
0.0899062699455016
 31
0.0
  0
LINE
  5
F100E8
330
261
100
AcDbEntity
  8
Geo
100
AcDbLine
 10
-10.3
 20
0.0899062699455016
 30
0.0
 11
-10.2
 21
0.0117911402440019
 31
0.0
  0
LINE
  5
F100EA
330
261
100
AcDbEntity
  8
Geo
100
AcDbLine
 10
-10.2
 20
0.0117911402440019
 30
0.0
 11
-10.09999999999999
 21
-0.0663319861136991
 31
0.0
  0
LINE
  5
F100EC
330
261
100
AcDbEntity
  8
Geo
100
AcDbLine
 10
-10.09999999999999
 20
-0.0663319861136991
 30
0.0
 11
-10.0
 21
-0.1444101266539999
 31
0.0
  0
LINE
  5
F100EE
330
261
100
AcDbEntity
  8
Geo
100
AcDbLine
 10
-10.0
 20
-0.1444101266539999
 30
0.0
 11
-9.900000000000005
 21
-0.2223903294128
 31
0.0
  0
LINE
  5
F100F0
330
261
100
AcDbEntity
  8
Geo
100
AcDbLine
 10
-9.900000000000005
 20
-0.2223903294128
 30
0.0
 11
-9.799999999999997
 21
-0.300219708846301
 31
0.0
  0
LINE
  5
F100F2
330
261
100
AcDbEntity
  8
Geo
100
AcDbLine
 10
-9.799999999999997
 20
-0.300219708846301
 30
0.0
 11
-9.700000000000002
 21
-0.3778454816978982
 31
0.0
  0
LINE
  5
F100F4
330
261
100
AcDbEntity
  8
Geo
100
AcDbLine
 10
-9.700000000000002
 20
-0.3778454816978982
 30
0.0
 11
-9.599999999999994
 21
-0.4552150027954998
 31
0.0
  0
LINE
  5
F100F6
330
261
100
AcDbEntity
  8
Geo
100
AcDbLine
 10
-9.599999999999994
 20
-0.4552150027954998
 30
0.0
 11
-9.5
 21
-0.5322758007545989
 31
0.0
  0
LINE
  5
F100F8
330
261
100
AcDbEntity
  8
Geo
100
AcDbLine
 10
-9.5
 20
-0.5322758007545989
 30
0.0
 11
-9.400000000000005
 21
-0.6089756135645992
 31
0.0
  0
LINE
  5
F100FA
330
261
100
AcDbEntity
  8
Geo
100
AcDbLine
 10
-9.400000000000005
 20
-0.6089756135645992
 30
0.0
 11
-9.299999999999997
 21
-0.6852624240317997
 31
0.0
  0
LINE
  5
F100FC
330
261
100
AcDbEntity
  8
Geo
100
AcDbLine
 10
-9.299999999999997
 20
-0.6852624240317997
 30
0.0
 11
-9.200000000000002
 21
-0.7610844950573999
 31
0.0
  0
LINE
  5
F100FE
330
261
100
AcDbEntity
  8
Geo
100
AcDbLine
 10
-9.200000000000002
 20
-0.7610844950573999
 30
0.0
 11
-9.099999999999994
 21
-0.8363904047253996
 31
0.0
  0
LINE
  5
F10100
330
261
100
AcDbEntity
  8
Geo
100
AcDbLine
 10
-9.099999999999994
 20
-0.8363904047253996
 30
0.0
 11
-9.0
 21
-0.911129081175801
 31
0.0
  0
LINE
  5
F10102
330
261
100
AcDbEntity
  8
Geo
100
AcDbLine
 10
-9.0
 20
-0.911129081175801
 30
0.0
 11
-8.900000000000005
 21
-0.9852498372419979
 31
0.0
  0
LINE
  5
F10104
330
261
100
AcDbEntity
  8
Geo
100
AcDbLine
 10
-8.900000000000005
 20
-0.9852498372419979
 30
0.0
 11
-8.799999999999997
 21
-1.058702404825901
 31
0.0
  0
LINE
  5
F10106
330
261
100
AcDbEntity
  8
Geo
100
AcDbLine
 10
-8.799999999999997
 20
-1.058702404825901
 30
0.0
 11
-8.700000000000002
 21
-1.131436968989399
 31
0.0
  0
LINE
  5
F10108
330
261
100
AcDbEntity
  8
Geo
100
AcDbLine
 10
-8.700000000000002
 20
-1.131436968989399
 30
0.0
 11
-8.599999999999994
 21
-1.203404201738399
 31
0.0
  0
LINE
  5
F1010A
330
261
100
AcDbEntity
  8
Geo
100
AcDbLine
 10
-8.599999999999994
 20
-1.203404201738399
 30
0.0
 11
-8.5
 21
-1.274555295476901
 31
0.0
  0
LINE
  5
F1010C
330
261
100
AcDbEntity
  8
Geo
100
AcDbLine
 10
-8.5
 20
-1.274555295476901
 30
0.0
 11
-8.400000000000005
 21
-1.344841996107899
 31
0.0
  0
LINE
  5
F1010E
330
261
100
AcDbEntity
  8
Geo
100
AcDbLine
 10
-8.400000000000005
 20
-1.344841996107899
 30
0.0
 11
-8.299999999999997
 21
-1.414216635758497
 31
0.0
  0
LINE
  5
F10110
330
261
100
AcDbEntity
  8
Geo
100
AcDbLine
 10
-8.299999999999997
 20
-1.414216635758497
 30
0.0
 11
-8.200000000000002
 21
-1.482632165108597
 31
0.0
  0
LINE
  5
F10112
330
261
100
AcDbEntity
  8
Geo
100
AcDbLine
 10
-8.200000000000002
 20
-1.482632165108597
 30
0.0
 11
-8.099999999999994
 21
-1.550042185298698
 31
0.0
  0
LINE
  5
F10114
330
261
100
AcDbEntity
  8
Geo
100
AcDbLine
 10
-8.099999999999994
 20
-1.550042185298698
 30
0.0
 11
-8.0
 21
-1.616400979397299
 31
0.0
  0
LINE
  5
F10116
330
261
100
AcDbEntity
  8
Geo
100
AcDbLine
 10
-8.0
 20
-1.616400979397299
 30
0.0
 11
-8.0
 21
-1.616400979397401
 31
0.0
  0
LINE
  5
F10118
330
261
100
AcDbEntity
  8
Geo
100
AcDbLine
 10
-8.0
 20
-1.616400979397401
 30
0.0
 11
-8.0
 21
-1.616400979397401
 31
0.0
  0
LINE
  5
F1011A
330
261
100
AcDbEntity
  8
Geo
100
AcDbLine
 10
-8.0
 20
-1.616400979397401
 30
0.0
 11
-7.900000000000005
 21
-1.690808838851697
 31
0.0
  0
LINE
  5
F1011C
330
261
100
AcDbEntity
  8
Geo
100
AcDbLine
 10
-7.900000000000005
 20
-1.690808838851697
 30
0.0
 11
-7.799999999999997
 21
-1.765056197741998
 31
0.0
  0
LINE
  5
F1011E
330
261
100
AcDbEntity
  8
Geo
100
AcDbLine
 10
-7.799999999999997
 20
-1.765056197741998
 30
0.0
 11
-7.700000000000002
 21
-1.8389887018585
 31
0.0
  0
LINE
  5
F10120
330
261
100
AcDbEntity
  8
Geo
100
AcDbLine
 10
-7.700000000000002
 20
-1.8389887018585
 30
0.0
 11
-7.599999999999994
 21
-1.9124444719184
 31
0.0
  0
LINE
  5
F10122
330
261
100
AcDbEntity
  8
Geo
100
AcDbLine
 10
-7.599999999999994
 20
-1.9124444719184
 30
0.0
 11
-7.5
 21
-1.985254125977098
 31
0.0
  0
LINE
  5
F10124
330
261
100
AcDbEntity
  8
Geo
100
AcDbLine
 10
-7.5
 20
-1.985254125977098
 30
0.0
 11
-7.400000000000005
 21
-2.057240836758598
 31
0.0
  0
LINE
  5
F10126
330
261
100
AcDbEntity
  8
Geo
100
AcDbLine
 10
-7.400000000000005
 20
-2.057240836758598
 30
0.0
 11
-7.299999999999997
 21
-2.128220426492598
 31
0.0
  0
LINE
  5
F10128
330
261
100
AcDbEntity
  8
Geo
100
AcDbLine
 10
-7.299999999999997
 20
-2.128220426492598
 30
0.0
 11
-7.200000000000002
 21
-2.1980015018709
 31
0.0
  0
LINE
  5
F1012A
330
261
100
AcDbEntity
  8
Geo
100
AcDbLine
 10
-7.200000000000002
 20
-2.1980015018709
 30
0.0
 11
-7.099999999999994
 21
-2.2663856317455
 31
0.0
  0
LINE
  5
F1012C
330
261
100
AcDbEntity
  8
Geo
100
AcDbLine
 10
-7.099999999999994
 20
-2.2663856317455
 30
0.0
 11
-7.0
 21
-2.333167570182698
 31
0.0
  0
LINE
  5
F1012E
330
261
100
AcDbEntity
  8
Geo
100
AcDbLine
 10
-7.0
 20
-2.333167570182698
 30
0.0
 11
-6.900000000000005
 21
-2.398135527466898
 31
0.0
  0
LINE
  5
F10130
330
261
100
AcDbEntity
  8
Geo
100
AcDbLine
 10
-6.900000000000005
 20
-2.398135527466898
 30
0.0
 11
-6.799999999999997
 21
-2.461071491601098
 31
0.0
  0
LINE
  5
F10132
330
261
100
AcDbEntity
  8
Geo
100
AcDbLine
 10
-6.799999999999997
 20
-2.461071491601098
 30
0.0
 11
-6.700000000000002
 21
-2.521751602790299
 31
0.0
  0
LINE
  5
F10134
330
261
100
AcDbEntity
  8
Geo
100
AcDbLine
 10
-6.700000000000002
 20
-2.521751602790299
 30
0.0
 11
-6.599999999999994
 21
-2.579946583306099
 31
0.0
  0
LINE
  5
F10136
330
261
100
AcDbEntity
  8
Geo
100
AcDbLine
 10
-6.599999999999994
 20
-2.579946583306099
 30
0.0
 11
-6.5
 21
-2.635422225021999
 31
0.0
  0
LINE
  5
F10138
330
261
100
AcDbEntity
  8
Geo
100
AcDbLine
 10
-6.5
 20
-2.635422225021999
 30
0.0
 11
-6.400000000000005
 21
-2.6879399367713
 31
0.0
  0
LINE
  5
F1013A
330
261
100
AcDbEntity
  8
Geo
100
AcDbLine
 10
-6.400000000000005
 20
-2.6879399367713
 30
0.0
 11
-6.299999999999997
 21
-2.737257353517399
 31
0.0
  0
LINE
  5
F1013C
330
261
100
AcDbEntity
  8
Geo
100
AcDbLine
 10
-6.299999999999997
 20
-2.737257353517399
 30
0.0
 11
-6.200000000000002
 21
-2.783129009131599
 31
0.0
  0
LINE
  5
F1013E
330
261
100
AcDbEntity
  8
Geo
100
AcDbLine
 10
-6.200000000000002
 20
-2.783129009131599
 30
0.0
 11
-6.099999999999994
 21
-2.825307074351799
 31
0.0
  0
LINE
  5
F10140
330
261
100
AcDbEntity
  8
Geo
100
AcDbLine
 10
-6.099999999999994
 20
-2.825307074351799
 30
0.0
 11
-6.0
 21
-2.863542161239399
 31
0.0
  0
LINE
  5
F10142
330
261
100
AcDbEntity
  8
Geo
100
AcDbLine
 10
-6.0
 20
-2.863542161239399
 30
0.0
 11
-5.900000000000005
 21
-2.897584195161499
 31
0.0
  0
LINE
  5
F10144
330
261
100
AcDbEntity
  8
Geo
100
AcDbLine
 10
-5.900000000000005
 20
-2.897584195161499
 30
0.0
 11
-5.799999999999997
 21
-2.927183355002899
 31
0.0
  0
LINE
  5
F10146
330
261
100
AcDbEntity
  8
Geo
100
AcDbLine
 10
-5.799999999999997
 20
-2.927183355002899
 30
0.0
 11
-5.700000000000002
 21
-2.952091081950898
 31
0.0
  0
LINE
  5
F10148
330
261
100
AcDbEntity
  8
Geo
100
AcDbLine
 10
-5.700000000000002
 20
-2.952091081950898
 30
0.0
 11
-5.599999999999994
 21
-2.972061156800899
 31
0.0
  0
LINE
  5
F1014A
330
261
100
AcDbEntity
  8
Geo
100
AcDbLine
 10
-5.599999999999994
 20
-2.972061156800899
 30
0.0
 11
-5.5
 21
-2.986850845294398
 31
0.0
  0
LINE
  5
F1014C
330
261
100
AcDbEntity
  8
Geo
100
AcDbLine
 10
-5.5
 20
-2.986850845294398
 30
0.0
 11
-5.400000000000005
 21
-2.996222110530499
 31
0.0
  0
LINE
  5
F1014E
330
261
100
AcDbEntity
  8
Geo
100
AcDbLine
 10
-5.400000000000005
 20
-2.996222110530499
 30
0.0
 11
-5.299999999999997
 21
-2.999942890980801
 31
0.0
  0
LINE
  5
F10150
330
261
100
AcDbEntity
  8
Geo
100
AcDbLine
 10
-18.0
 20
2.057765513822699
 30
0.0
 11
-18.0
 21
2.057765513822699
 31
0.0
  0
LINE
  5
F10152
330
261
100
AcDbEntity
  8
Geo
100
AcDbLine
 10
-18.0
 20
2.057765513822699
 30
0.0
 11
-18.0
 21
2.106927147258803
 31
0.0
  0
LINE
  5
F10154
330
261
100
AcDbEntity
  8
Geo
100
AcDbLine
 10
-18.0
 20
2.106927147258803
 30
0.0
 11
-17.9
 21
2.050601433320899
 31
0.0
  0
LINE
  5
F10156
330
261
100
AcDbEntity
  8
Geo
100
AcDbLine
 10
-17.9
 20
2.050601433320899
 30
0.0
 11
-17.8
 21
1.992885018052399
 31
0.0
  0
LINE
  5
F10158
330
261
100
AcDbEntity
  8
Geo
100
AcDbLine
 10
-17.8
 20
1.992885018052399
 30
0.0
 11
-17.7
 21
1.933817044259999
 31
0.0
  0
LINE
  5
F1015A
330
261
100
AcDbEntity
  8
Geo
100
AcDbLine
 10
-17.7
 20
1.933817044259999
 30
0.0
 11
-17.59999999999999
 21
1.873437571366402
 31
0.0
  0
LINE
  5
F1015C
330
261
100
AcDbEntity
  8
Geo
100
AcDbLine
 10
-17.59999999999999
 20
1.873437571366402
 30
0.0
 11
-17.5
 21
1.8117875482426
 31
0.0
  0
LINE
  5
F1015E
330
261
100
AcDbEntity
  8
Geo
100
AcDbLine
 10
-17.5
 20
1.8117875482426
 30
0.0
 11
-17.4
 21
1.748908785436199
 31
0.0
  0
LINE
  5
F10160
330
261
100
AcDbEntity
  8
Geo
100
AcDbLine
 10
-17.4
 20
1.748908785436199
 30
0.0
 11
-17.29999999999999
 21
1.684843926816499
 31
0.0
  0
LINE
  5
F10162
330
261
100
AcDbEntity
  8
Geo
100
AcDbLine
 10
-17.29999999999999
 20
1.684843926816499
 30
0.0
 11
-17.2
 21
1.619636420653
 31
0.0
  0
LINE
  5
F10164
330
261
100
AcDbEntity
  8
Geo
100
AcDbLine
 10
-17.2
 20
1.619636420653
 30
0.0
 11
-17.09999999999999
 21
1.553330490149901
 31
0.0
  0
LINE
  5
F10166
330
261
100
AcDbEntity
  8
Geo
100
AcDbLine
 10
-17.09999999999999
 20
1.553330490149901
 30
0.0
 11
-17.0
 21
1.485971103453699
 31
0.0
  0
LINE
  5
F10168
330
261
100
AcDbEntity
  8
Geo
100
AcDbLine
 10
-17.0
 20
1.485971103453699
 30
0.0
 11
-16.9
 21
1.4176039431564
 31
0.0
  0
LINE
  5
F1016A
330
261
100
AcDbEntity
  8
Geo
100
AcDbLine
 10
-16.9
 20
1.4176039431564
 30
0.0
 11
-16.79999999999999
 21
1.348275375314001
 31
0.0
  0
LINE
  5
F1016C
330
261
100
AcDbEntity
  8
Geo
100
AcDbLine
 10
-16.79999999999999
 20
1.348275375314001
 30
0.0
 11
-16.7
 21
1.278032418001199
 31
0.0
  0
LINE
  5
F1016E
330
261
100
AcDbEntity
  8
Geo
100
AcDbLine
 10
-16.7
 20
1.278032418001199
 30
0.0
 11
-16.59999999999999
 21
1.206922709424501
 31
0.0
  0
LINE
  5
F10170
330
261
100
AcDbEntity
  8
Geo
100
AcDbLine
 10
-16.59999999999999
 20
1.206922709424501
 30
0.0
 11
-16.5
 21
1.134994475613803
 31
0.0
  0
LINE
  5
F10172
330
261
100
AcDbEntity
  8
Geo
100
AcDbLine
 10
-16.5
 20
1.134994475613803
 30
0.0
 11
-16.4
 21
1.062296497716401
 31
0.0
  0
LINE
  5
F10174
330
261
100
AcDbEntity
  8
Geo
100
AcDbLine
 10
-16.4
 20
1.062296497716401
 30
0.0
 11
-16.3
 21
0.9888780789137001
 31
0.0
  0
LINE
  5
F10176
330
261
100
AcDbEntity
  8
Geo
100
AcDbLine
 10
-16.3
 20
0.9888780789137001
 30
0.0
 11
-16.2
 21
0.9147890109846006
 31
0.0
  0
LINE
  5
F10178
330
261
100
AcDbEntity
  8
Geo
100
AcDbLine
 10
-16.2
 20
0.9147890109846006
 30
0.0
 11
-16.09999999999999
 21
0.840079540536303
 31
0.0
  0
LINE
  5
F1017A
330
261
100
AcDbEntity
  8
Geo
100
AcDbLine
 10
-16.09999999999999
 20
0.840079540536303
 30
0.0
 11
-16.0
 21
0.764800334928502
 31
0.0
  0
LINE
  5
F1017C
330
261
100
AcDbEntity
  8
Geo
100
AcDbLine
 10
-16.0
 20
0.764800334928502
 30
0.0
 11
-15.9
 21
0.6890024479104007
 31
0.0
  0
LINE
  5
F1017E
330
261
100
AcDbEntity
  8
Geo
100
AcDbLine
 10
-15.9
 20
0.6890024479104007
 30
0.0
 11
-15.8
 21
0.6127372849968023
 31
0.0
  0
LINE
  5
F10180
330
261
100
AcDbEntity
  8
Geo
100
AcDbLine
 10
-15.8
 20
0.6127372849968023
 30
0.0
 11
-15.7
 21
0.5360565686052006
 31
0.0
  0
LINE
  5
F10182
330
261
100
AcDbEntity
  8
Geo
100
AcDbLine
 10
-15.7
 20
0.5360565686052006
 30
0.0
 11
-15.59999999999999
 21
0.4590123029780991
 31
0.0
  0
LINE
  5
F10184
330
261
100
AcDbEntity
  8
Geo
100
AcDbLine
 10
-15.59999999999999
 20
0.4590123029780991
 30
0.0
 11
-15.5
 21
0.3816567389144012
 31
0.0
  0
LINE
  5
F10186
330
261
100
AcDbEntity
  8
Geo
100
AcDbLine
 10
-15.5
 20
0.3816567389144012
 30
0.0
 11
-15.4
 21
0.3040423383326996
 31
0.0
  0
LINE
  5
F10188
330
261
100
AcDbEntity
  8
Geo
100
AcDbLine
 10
-15.4
 20
0.3040423383326996
 30
0.0
 11
-15.3
 21
0.2262217386927006
 31
0.0
  0
LINE
  5
F1018A
330
261
100
AcDbEntity
  8
Geo
100
AcDbLine
 10
-15.3
 20
0.2262217386927006
 30
0.0
 11
-15.2
 21
0.1482477172965986
 31
0.0
  0
LINE
  5
F1018C
330
261
100
AcDbEntity
  8
Geo
100
AcDbLine
 10
-15.2
 20
0.1482477172965986
 30
0.0
 11
-15.09999999999999
 21
0.0701731554960006
 31
0.0
  0
LINE
  5
F1018E
330
261
100
AcDbEntity
  8
Geo
100
AcDbLine
 10
-15.09999999999999
 20
0.0701731554960006
 30
0.0
 11
-15.0
 21
-0.007948997171999
 31
0.0
  0
LINE
  5
F10190
330
261
100
AcDbEntity
  8
Geo
100
AcDbLine
 10
-15.0
 20
-0.007948997171999
 30
0.0
 11
-14.9
 21
-0.0860657588942999
 31
0.0
  0
LINE
  5
F10192
330
261
100
AcDbEntity
  8
Geo
100
AcDbLine
 10
-14.9
 20
-0.0860657588942999
 30
0.0
 11
-14.79999999999999
 21
-0.1641241515139988
 31
0.0
  0
LINE
  5
F10194
330
261
100
AcDbEntity
  8
Geo
100
AcDbLine
 10
-14.79999999999999
 20
-0.1641241515139988
 30
0.0
 11
-14.7
 21
-0.2420712364596973
 31
0.0
  0
LINE
  5
F10196
330
261
100
AcDbEntity
  8
Geo
100
AcDbLine
 10
-14.7
 20
-0.2420712364596973
 30
0.0
 11
-14.59999999999999
 21
-0.3198541506478012
 31
0.0
  0
LINE
  5
F10198
330
261
100
AcDbEntity
  8
Geo
100
AcDbLine
 10
-14.59999999999999
 20
-0.3198541506478012
 30
0.0
 11
-14.5
 21
-0.3974201423342993
 31
0.0
  0
LINE
  5
F1019A
330
261
100
AcDbEntity
  8
Geo
100
AcDbLine
 10
-14.5
 20
-0.3974201423342993
 30
0.0
 11
-14.4
 21
-0.4747166068900004
 31
0.0
  0
LINE
  5
F1019C
330
261
100
AcDbEntity
  8
Geo
100
AcDbLine
 10
-14.4
 20
-0.4747166068900004
 30
0.0
 11
-14.29999999999999
 21
-0.5516911224769015
 31
0.0
  0
LINE
  5
F1019E
330
261
100
AcDbEntity
  8
Geo
100
AcDbLine
 10
-14.29999999999999
 20
-0.5516911224769015
 30
0.0
 11
-14.2
 21
-0.6282914856000979
 31
0.0
  0
LINE
  5
F101A0
330
261
100
AcDbEntity
  8
Geo
100
AcDbLine
 10
-14.2
 20
-0.6282914856000979
 30
0.0
 11
-14.09999999999999
 21
-0.7044657465122004
 31
0.0
  0
LINE
  5
F101A2
330
261
100
AcDbEntity
  8
Geo
100
AcDbLine
 10
-14.09999999999999
 20
-0.7044657465122004
 30
0.0
 11
-14.0
 21
-0.7801622444445986
 31
0.0
  0
LINE
  5
F101A4
330
261
100
AcDbEntity
  8
Geo
100
AcDbLine
 10
-14.0
 20
-0.7801622444445986
 30
0.0
 11
-13.9
 21
-0.8553296426435981
 31
0.0
  0
LINE
  5
F101A6
330
261
100
AcDbEntity
  8
Geo
100
AcDbLine
 10
-13.9
 20
-0.8553296426435981
 30
0.0
 11
-13.8
 21
-0.929916963186999
 31
0.0
  0
LINE
  5
F101A8
330
261
100
AcDbEntity
  8
Geo
100
AcDbLine
 10
-13.8
 20
-0.929916963186999
 30
0.0
 11
-13.7
 21
-1.0038736215563
 31
0.0
  0
LINE
  5
F101AA
330
261
100
AcDbEntity
  8
Geo
100
AcDbLine
 10
-13.7
 20
-1.0038736215563
 30
0.0
 11
-13.59999999999999
 21
-1.077149460943198
 31
0.0
  0
LINE
  5
F101AC
330
261
100
AcDbEntity
  8
Geo
100
AcDbLine
 10
-13.59999999999999
 20
-1.077149460943198
 30
0.0
 11
-13.5
 21
-1.149694786265197
 31
0.0
  0
LINE
  5
F101AE
330
261
100
AcDbEntity
  8
Geo
100
AcDbLine
 10
-13.5
 20
-1.149694786265197
 30
0.0
 11
-13.4
 21
-1.221460397868399
 31
0.0
  0
LINE
  5
F101B0
330
261
100
AcDbEntity
  8
Geo
100
AcDbLine
 10
-13.4
 20
-1.221460397868399
 30
0.0
 11
-13.3
 21
-1.292397624894899
 31
0.0
  0
LINE
  5
F101B2
330
261
100
AcDbEntity
  8
Geo
100
AcDbLine
 10
-13.3
 20
-1.292397624894899
 30
0.0
 11
-13.2
 21
-1.362458358290098
 31
0.0
  0
LINE
  5
F101B4
330
261
100
AcDbEntity
  8
Geo
100
AcDbLine
 10
-13.2
 20
-1.362458358290098
 30
0.0
 11
-13.09999999999999
 21
-1.431595083430398
 31
0.0
  0
LINE
  5
F101B6
330
261
100
AcDbEntity
  8
Geo
100
AcDbLine
 10
-13.09999999999999
 20
-1.431595083430398
 30
0.0
 11
-13.0
 21
-1.499760912347198
 31
0.0
  0
LINE
  5
F101B8
330
261
100
AcDbEntity
  8
Geo
100
AcDbLine
 10
-13.0
 20
-1.499760912347198
 30
0.0
 11
-12.9
 21
-1.566909615526
 31
0.0
  0
LINE
  5
F101BA
330
261
100
AcDbEntity
  8
Geo
100
AcDbLine
 10
-12.9
 20
-1.566909615526
 30
0.0
 11
-12.8
 21
-1.632995653258499
 31
0.0
  0
LINE
  5
F101BC
330
261
100
AcDbEntity
  8
Geo
100
AcDbLine
 10
-12.8
 20
-1.632995653258499
 30
0.0
 11
-12.7
 21
-1.697974206527698
 31
0.0
  0
LINE
  5
F101BE
330
261
100
AcDbEntity
  8
Geo
100
AcDbLine
 10
-12.7
 20
-1.697974206527698
 30
0.0
 11
-12.59999999999999
 21
-1.761801207403498
 31
0.0
  0
LINE
  5
F101C0
330
261
100
AcDbEntity
  8
Geo
100
AcDbLine
 10
-12.59999999999999
 20
-1.761801207403498
 30
0.0
 11
-12.5
 21
-1.824433368929499
 31
0.0
  0
LINE
  5
F101C2
330
261
100
AcDbEntity
  8
Geo
100
AcDbLine
 10
-12.5
 20
-1.824433368929499
 30
0.0
 11
-12.4
 21
-1.885828214479499
 31
0.0
  0
LINE
  5
F101C4
330
261
100
AcDbEntity
  8
Geo
100
AcDbLine
 10
-12.4
 20
-1.885828214479499
 30
0.0
 11
-12.29999999999999
 21
-1.9459441065651
 31
0.0
  0
LINE
  5
F101C6
330
261
100
AcDbEntity
  8
Geo
100
AcDbLine
 10
-12.29999999999999
 20
-1.9459441065651
 30
0.0
 11
-12.2
 21
-2.004740275073899
 31
0.0
  0
LINE
  5
F101C8
330
261
100
AcDbEntity
  8
Geo
100
AcDbLine
 10
-12.2
 20
-2.004740275073899
 30
0.0
 11
-12.09999999999999
 21
-2.062176844919198
 31
0.0
  0
LINE
  5
F101CA
330
261
100
AcDbEntity
  8
Geo
100
AcDbLine
 10
-12.09999999999999
 20
-2.062176844919198
 30
0.0
 11
-12.0
 21
-2.118214863083199
 31
0.0
  0
LINE
  5
F101CC
330
261
100
AcDbEntity
  8
Geo
100
AcDbLine
 10
-12.0
 20
-2.118214863083199
 30
0.0
 11
-11.9
 21
-2.172816325034597
 31
0.0
  0
LINE
  5
F101CE
330
261
100
AcDbEntity
  8
Geo
100
AcDbLine
 10
-11.9
 20
-2.172816325034597
 30
0.0
 11
-11.79999999999999
 21
-2.225944200502899
 31
0.0
  0
LINE
  5
F101D0
330
261
100
AcDbEntity
  8
Geo
100
AcDbLine
 10
-11.79999999999999
 20
-2.225944200502899
 30
0.0
 11
-11.7
 21
-2.277562458591999
 31
0.0
  0
LINE
  5
F101D2
330
261
100
AcDbEntity
  8
Geo
100
AcDbLine
 10
-11.7
 20
-2.277562458591999
 30
0.0
 11
-11.59999999999999
 21
-2.327636092216199
 31
0.0
  0
LINE
  5
F101D4
330
261
100
AcDbEntity
  8
Geo
100
AcDbLine
 10
-11.59999999999999
 20
-2.327636092216199
 30
0.0
 11
-11.5
 21
-2.376131141841598
 31
0.0
  0
LINE
  5
F101D6
330
261
100
AcDbEntity
  8
Geo
100
AcDbLine
 10
-11.5
 20
-2.376131141841598
 30
0.0
 11
-11.4
 21
-2.4230147185171
 31
0.0
  0
LINE
  5
F101D8
330
261
100
AcDbEntity
  8
Geo
100
AcDbLine
 10
-11.4
 20
-2.4230147185171
 30
0.0
 11
-11.29999999999999
 21
-2.4682550261798
 31
0.0
  0
LINE
  5
F101DA
330
261
100
AcDbEntity
  8
Geo
100
AcDbLine
 10
-11.29999999999999
 20
-2.4682550261798
 30
0.0
 11
-11.2
 21
-2.511821383218299
 31
0.0
  0
LINE
  5
F101DC
330
261
100
AcDbEntity
  8
Geo
100
AcDbLine
 10
-11.2
 20
-2.511821383218299
 30
0.0
 11
-11.09999999999999
 21
-2.553684243281098
 31
0.0
  0
LINE
  5
F101DE
330
261
100
AcDbEntity
  8
Geo
100
AcDbLine
 10
-11.09999999999999
 20
-2.553684243281098
 30
0.0
 11
-11.0
 21
-2.593815215314799
 31
0.0
  0
LINE
  5
F101E0
330
261
100
AcDbEntity
  8
Geo
100
AcDbLine
 10
-11.0
 20
-2.593815215314799
 30
0.0
 11
-10.9
 21
-2.632187082817999
 31
0.0
  0
LINE
  5
F101E2
330
261
100
AcDbEntity
  8
Geo
100
AcDbLine
 10
-10.9
 20
-2.632187082817999
 30
0.0
 11
-10.8
 21
-2.6687738223004
 31
0.0
  0
LINE
  5
F101E4
330
261
100
AcDbEntity
  8
Geo
100
AcDbLine
 10
-10.8
 20
-2.6687738223004
 30
0.0
 11
-10.7
 21
-2.7035506209304
 31
0.0
  0
LINE
  5
F101E6
330
261
100
AcDbEntity
  8
Geo
100
AcDbLine
 10
-10.7
 20
-2.7035506209304
 30
0.0
 11
-10.59999999999999
 21
-2.736493893364299
 31
0.0
  0
LINE
  5
F101E8
330
261
100
AcDbEntity
  8
Geo
100
AcDbLine
 10
-10.59999999999999
 20
-2.736493893364299
 30
0.0
 11
-10.5
 21
-2.7675812977408
 31
0.0
  0
LINE
  5
F101EA
330
261
100
AcDbEntity
  8
Geo
100
AcDbLine
 10
-10.5
 20
-2.7675812977408
 30
0.0
 11
-10.4
 21
-2.796791750833198
 31
0.0
  0
LINE
  5
F101EC
330
261
100
AcDbEntity
  8
Geo
100
AcDbLine
 10
-10.4
 20
-2.796791750833198
 30
0.0
 11
-10.3
 21
-2.824105442348098
 31
0.0
  0
LINE
  5
F101EE
330
261
100
AcDbEntity
  8
Geo
100
AcDbLine
 10
-10.3
 20
-2.824105442348098
 30
0.0
 11
-10.2
 21
-2.849503848360697
 31
0.0
  0
LINE
  5
F101F0
330
261
100
AcDbEntity
  8
Geo
100
AcDbLine
 10
-10.2
 20
-2.849503848360697
 30
0.0
 11
-10.09999999999999
 21
-2.872969743877
 31
0.0
  0
LINE
  5
F101F2
330
261
100
AcDbEntity
  8
Geo
100
AcDbLine
 10
-10.09999999999999
 20
-2.872969743877
 30
0.0
 11
-10.0
 21
-2.894487214516299
 31
0.0
  0
LINE
  5
F101F4
330
261
100
AcDbEntity
  8
Geo
100
AcDbLine
 10
-10.0
 20
-2.894487214516299
 30
0.0
 11
-9.900000000000005
 21
-2.914041667303598
 31
0.0
  0
LINE
  5
F101F6
330
261
100
AcDbEntity
  8
Geo
100
AcDbLine
 10
-9.900000000000005
 20
-2.914041667303598
 30
0.0
 11
-9.799999999999997
 21
-2.931619840567199
 31
0.0
  0
LINE
  5
F101F8
330
261
100
AcDbEntity
  8
Geo
100
AcDbLine
 10
-9.799999999999997
 20
-2.931619840567199
 30
0.0
 11
-9.700000000000002
 21
-2.947209812931799
 31
0.0
  0
LINE
  5
F101FA
330
261
100
AcDbEntity
  8
Geo
100
AcDbLine
 10
-9.700000000000002
 20
-2.947209812931799
 30
0.0
 11
-9.599999999999994
 21
-2.960801011404198
 31
0.0
  0
LINE
  5
F101FC
330
261
100
AcDbEntity
  8
Geo
100
AcDbLine
 10
-9.599999999999994
 20
-2.960801011404198
 30
0.0
 11
-9.5
 21
-2.972384218543098
 31
0.0
  0
LINE
  5
F101FE
330
261
100
AcDbEntity
  8
Geo
100
AcDbLine
 10
-9.5
 20
-2.972384218543098
 30
0.0
 11
-9.400000000000005
 21
-2.981951578711299
 31
0.0
  0
LINE
  5
F10200
330
261
100
AcDbEntity
  8
Geo
100
AcDbLine
 10
-9.400000000000005
 20
-2.981951578711299
 30
0.0
 11
-9.299999999999997
 21
-2.989496603402098
 31
0.0
  0
LINE
  5
F10202
330
261
100
AcDbEntity
  8
Geo
100
AcDbLine
 10
-9.299999999999997
 20
-2.989496603402098
 30
0.0
 11
-9.200000000000002
 21
-2.9950141756409
 31
0.0
  0
LINE
  5
F10204
330
261
100
AcDbEntity
  8
Geo
100
AcDbLine
 10
-9.200000000000002
 20
-2.9950141756409
 30
0.0
 11
-9.099999999999994
 21
-2.998500553454599
 31
0.0
  0
LINE
  5
F10206
330
261
100
AcDbEntity
  8
Geo
100
AcDbLine
 10
-9.099999999999994
 20
-2.998500553454599
 30
0.0
 11
-9.0
 21
-2.999953372410098
 31
0.0
  0
LINE
  5
F10208
330
261
100
AcDbEntity
  8
Geo
100
AcDbLine
 10
-18.0
 20
-2.619584391469198
 30
0.0
 11
-18.0
 21
-2.619584391469198
 31
0.0
  0
LINE
  5
F1020A
330
261
100
AcDbEntity
  8
Geo
100
AcDbLine
 10
-18.0
 20
-2.619584391469198
 30
0.0
 11
-18.0
 21
-2.682168318910399
 31
0.0
  0
LINE
  5
F1020C
330
261
100
AcDbEntity
  8
Geo
100
AcDbLine
 10
-18.0
 20
-2.682168318910399
 30
0.0
 11
-17.9
 21
-2.716252930471998
 31
0.0
  0
LINE
  5
F1020E
330
261
100
AcDbEntity
  8
Geo
100
AcDbLine
 10
-17.9
 20
-2.716252930471998
 30
0.0
 11
-17.8
 21
-2.748495401233599
 31
0.0
  0
LINE
  5
F10210
330
261
100
AcDbEntity
  8
Geo
100
AcDbLine
 10
-17.8
 20
-2.748495401233599
 30
0.0
 11
-17.7
 21
-2.778873864612098
 31
0.0
  0
LINE
  5
F10212
330
261
100
AcDbEntity
  8
Geo
100
AcDbLine
 10
-17.7
 20
-2.778873864612098
 30
0.0
 11
-17.59999999999999
 21
-2.807367718178801
 31
0.0
  0
LINE
  5
F10214
330
261
100
AcDbEntity
  8
Geo
100
AcDbLine
 10
-17.59999999999999
 20
-2.807367718178801
 30
0.0
 11
-17.5
 21
-2.833957637632499
 31
0.0
  0
LINE
  5
F10216
330
261
100
AcDbEntity
  8
Geo
100
AcDbLine
 10
-17.5
 20
-2.833957637632499
 30
0.0
 11
-17.4
 21
-2.858625589904498
 31
0.0
  0
LINE
  5
F10218
330
261
100
AcDbEntity
  8
Geo
100
AcDbLine
 10
-17.4
 20
-2.858625589904498
 30
0.0
 11
-17.29999999999999
 21
-2.881354845388798
 31
0.0
  0
LINE
  5
F1021A
330
261
100
AcDbEntity
  8
Geo
100
AcDbLine
 10
-17.29999999999999
 20
-2.881354845388798
 30
0.0
 11
-17.2
 21
-2.9021299892879
 31
0.0
  0
LINE
  5
F1021C
330
261
100
AcDbEntity
  8
Geo
100
AcDbLine
 10
-17.2
 20
-2.9021299892879
 30
0.0
 11
-17.09999999999999
 21
-2.920936932067098
 31
0.0
  0
LINE
  5
F1021E
330
261
100
AcDbEntity
  8
Geo
100
AcDbLine
 10
-17.09999999999999
 20
-2.920936932067098
 30
0.0
 11
-17.0
 21
-2.937762919009498
 31
0.0
  0
LINE
  5
F10220
330
261
100
AcDbEntity
  8
Geo
100
AcDbLine
 10
-17.0
 20
-2.937762919009498
 30
0.0
 11
-16.9
 21
-2.952596538866799
 31
0.0
  0
LINE
  5
F10222
330
261
100
AcDbEntity
  8
Geo
100
AcDbLine
 10
-16.9
 20
-2.952596538866799
 30
0.0
 11
-16.79999999999999
 21
-2.965427731597801
 31
0.0
  0
LINE
  5
F10224
330
261
100
AcDbEntity
  8
Geo
100
AcDbLine
 10
-16.79999999999999
 20
-2.965427731597801
 30
0.0
 11
-16.7
 21
-2.976247795191198
 31
0.0
  0
LINE
  5
F10226
330
261
100
AcDbEntity
  8
Geo
100
AcDbLine
 10
-16.7
 20
-2.976247795191198
 30
0.0
 11
-16.59999999999999
 21
-2.985049391567198
 31
0.0
  0
LINE
  5
F10228
330
261
100
AcDbEntity
  8
Geo
100
AcDbLine
 10
-16.59999999999999
 20
-2.985049391567198
 30
0.0
 11
-16.5
 21
-2.991826551554298
 31
0.0
  0
LINE
  5
F1022A
330
261
100
AcDbEntity
  8
Geo
100
AcDbLine
 10
-16.5
 20
-2.991826551554298
 30
0.0
 11
-16.4
 21
-2.996574678937399
 31
0.0
  0
LINE
  5
F1022C
330
261
100
AcDbEntity
  8
Geo
100
AcDbLine
 10
-16.4
 20
-2.996574678937399
 30
0.0
 11
-16.3
 21
-2.999290553574599
 31
0.0
  0
LINE
  5
F1022E
330
261
100
AcDbEntity
  8
Geo
100
AcDbLine
 10
-5.299999999999997
 20
2.999942890980801
 30
0.0
 11
-5.200000000000002
 21
2.997788442088101
 31
0.0
  0
LINE
  5
F10230
330
261
100
AcDbEntity
  8
Geo
100
AcDbLine
 10
-5.200000000000002
 20
2.997788442088101
 30
0.0
 11
-5.099999999999994
 21
2.9895427388441
 31
0.0
  0
LINE
  5
F10232
330
261
100
AcDbEntity
  8
Geo
100
AcDbLine
 10
-5.099999999999994
 20
2.9895427388441
 30
0.0
 11
-5.0
 21
2.9749999361184
 31
0.0
  0
LINE
  5
F10234
330
261
100
AcDbEntity
  8
Geo
100
AcDbLine
 10
-5.0
 20
2.9749999361184
 30
0.0
 11
-5.0
 21
2.9749999361184
 31
0.0
  0
LINE
  5
F10236
330
261
100
AcDbEntity
  8
Geo
100
AcDbLine
 10
-9.0
 20
2.9999533724101
 30
0.0
 11
-8.900000000000005
 21
2.999371647217301
 31
0.0
  0
LINE
  5
F10238
330
261
100
AcDbEntity
  8
Geo
100
AcDbLine
 10
-8.900000000000005
 20
2.999371647217301
 30
0.0
 11
-8.799999999999997
 21
2.996755772397399
 31
0.0
  0
LINE
  5
F1023A
330
261
100
AcDbEntity
  8
Geo
100
AcDbLine
 10
-8.799999999999997
 20
2.996755772397399
 30
0.0
 11
-8.700000000000002
 21
2.992107522015601
 31
0.0
  0
LINE
  5
F1023C
330
261
100
AcDbEntity
  8
Geo
100
AcDbLine
 10
-8.700000000000002
 20
2.992107522015601
 30
0.0
 11
-8.599999999999994
 21
2.985430048477802
 31
0.0
  0
LINE
  5
F1023E
330
261
100
AcDbEntity
  8
Geo
100
AcDbLine
 10
-8.599999999999994
 20
2.985430048477802
 30
0.0
 11
-8.5
 21
2.976727880392701
 31
0.0
  0
LINE
  5
F10240
330
261
100
AcDbEntity
  8
Geo
100
AcDbLine
 10
-8.5
 20
2.976727880392701
 30
0.0
 11
-8.400000000000005
 21
2.966006919500401
 31
0.0
  0
LINE
  5
F10242
330
261
100
AcDbEntity
  8
Geo
100
AcDbLine
 10
-8.400000000000005
 20
2.966006919500401
 30
0.0
 11
-8.299999999999997
 21
2.953274436669801
 31
0.0
  0
LINE
  5
F10244
330
261
100
AcDbEntity
  8
Geo
100
AcDbLine
 10
-8.299999999999997
 20
2.953274436669801
 30
0.0
 11
-8.200000000000002
 21
2.9385390669681
 31
0.0
  0
LINE
  5
F10246
330
261
100
AcDbEntity
  8
Geo
100
AcDbLine
 10
-8.200000000000002
 20
2.9385390669681
 30
0.0
 11
-8.099999999999994
 21
2.921810803804
 31
0.0
  0
LINE
  5
F10248
330
261
100
AcDbEntity
  8
Geo
100
AcDbLine
 10
-8.099999999999994
 20
2.921810803804
 30
0.0
 11
-8.0
 21
2.903100992150502
 31
0.0
  0
LINE
  5
F1024A
330
261
100
AcDbEntity
  8
Geo
100
AcDbLine
 10
-8.0
 20
2.903100992150502
 30
0.0
 11
-8.0
 21
2.903100992150502
 31
0.0
  0
LINE
  5
F1024C
330
261
100
AcDbEntity
  8
Geo
100
AcDbLine
 10
-8.0
 20
2.903100992150502
 30
0.0
 11
-8.0
 21
2.903100992150502
 31
0.0
  0
LINE
  5
F1024E
330
261
100
AcDbEntity
  8
Geo
100
AcDbLine
 10
-8.0
 20
2.903100992150502
 30
0.0
 11
-7.900000000000005
 21
2.905583377315902
 31
0.0
  0
LINE
  5
F10250
330
261
100
AcDbEntity
  8
Geo
100
AcDbLine
 10
-7.900000000000005
 20
2.905583377315902
 30
0.0
 11
-7.799999999999997
 21
2.908079074707899
 31
0.0
  0
LINE
  5
F10252
330
261
100
AcDbEntity
  8
Geo
100
AcDbLine
 10
-7.799999999999997
 20
2.908079074707899
 30
0.0
 11
-7.700000000000002
 21
2.9105862642078
 31
0.0
  0
LINE
  5
F10254
330
261
100
AcDbEntity
  8
Geo
100
AcDbLine
 10
-7.700000000000002
 20
2.9105862642078
 30
0.0
 11
-7.599999999999994
 21
2.913103090426698
 31
0.0
  0
LINE
  5
F10256
330
261
100
AcDbEntity
  8
Geo
100
AcDbLine
 10
-7.599999999999994
 20
2.913103090426698
 30
0.0
 11
-7.5
 21
2.915627662637199
 31
0.0
  0
LINE
  5
F10258
330
261
100
AcDbEntity
  8
Geo
100
AcDbLine
 10
-7.5
 20
2.915627662637199
 30
0.0
 11
-7.400000000000005
 21
2.918158054708602
 31
0.0
  0
LINE
  5
F1025A
330
261
100
AcDbEntity
  8
Geo
100
AcDbLine
 10
-7.400000000000005
 20
2.918158054708602
 30
0.0
 11
-7.299999999999997
 21
2.920692305045101
 31
0.0
  0
LINE
  5
F1025C
330
261
100
AcDbEntity
  8
Geo
100
AcDbLine
 10
-7.299999999999997
 20
2.920692305045101
 30
0.0
 11
-7.200000000000002
 21
2.9232284165288
 31
0.0
  0
LINE
  5
F1025E
330
261
100
AcDbEntity
  8
Geo
100
AcDbLine
 10
-7.200000000000002
 20
2.9232284165288
 30
0.0
 11
-7.099999999999994
 21
2.925764356466302
 31
0.0
  0
LINE
  5
F10260
330
261
100
AcDbEntity
  8
Geo
100
AcDbLine
 10
-7.099999999999994
 20
2.925764356466302
 30
0.0
 11
-7.0
 21
2.928298056540199
 31
0.0
  0
LINE
  5
F10262
330
261
100
AcDbEntity
  8
Geo
100
AcDbLine
 10
-7.0
 20
2.928298056540199
 30
0.0
 11
-6.900000000000005
 21
2.930827412764802
 31
0.0
  0
LINE
  5
F10264
330
261
100
AcDbEntity
  8
Geo
100
AcDbLine
 10
-6.900000000000005
 20
2.930827412764802
 30
0.0
 11
-6.799999999999997
 21
2.933350285447698
 31
0.0
  0
LINE
  5
F10266
330
261
100
AcDbEntity
  8
Geo
100
AcDbLine
 10
-6.799999999999997
 20
2.933350285447698
 30
0.0
 11
-6.700000000000002
 21
2.935864499155602
 31
0.0
  0
LINE
  5
F10268
330
261
100
AcDbEntity
  8
Geo
100
AcDbLine
 10
-6.700000000000002
 20
2.935864499155602
 30
0.0
 11
-6.599999999999994
 21
2.938367842686801
 31
0.0
  0
LINE
  5
F1026A
330
261
100
AcDbEntity
  8
Geo
100
AcDbLine
 10
-6.599999999999994
 20
2.938367842686801
 30
0.0
 11
-6.5
 21
2.9408580690489
 31
0.0
  0
LINE
  5
F1026C
330
261
100
AcDbEntity
  8
Geo
100
AcDbLine
 10
-6.5
 20
2.9408580690489
 30
0.0
 11
-6.400000000000005
 21
2.9433328954428
 31
0.0
  0
LINE
  5
F1026E
330
261
100
AcDbEntity
  8
Geo
100
AcDbLine
 10
-6.400000000000005
 20
2.9433328954428
 30
0.0
 11
-6.299999999999997
 21
2.9457900032533
 31
0.0
  0
LINE
  5
F10270
330
261
100
AcDbEntity
  8
Geo
100
AcDbLine
 10
-6.299999999999997
 20
2.9457900032533
 30
0.0
 11
-6.200000000000002
 21
2.9482270380465
 31
0.0
  0
LINE
  5
F10272
330
261
100
AcDbEntity
  8
Geo
100
AcDbLine
 10
-6.200000000000002
 20
2.9482270380465
 30
0.0
 11
-6.099999999999994
 21
2.950641609574098
 31
0.0
  0
LINE
  5
F10274
330
261
100
AcDbEntity
  8
Geo
100
AcDbLine
 10
-6.099999999999994
 20
2.950641609574098
 30
0.0
 11
-6.0
 21
2.953031291785499
 31
0.0
  0
LINE
  5
F10276
330
261
100
AcDbEntity
  8
Geo
100
AcDbLine
 10
-6.0
 20
2.953031291785499
 30
0.0
 11
-5.900000000000005
 21
2.9553936228471
 31
0.0
  0
LINE
  5
F10278
330
261
100
AcDbEntity
  8
Geo
100
AcDbLine
 10
-5.900000000000005
 20
2.9553936228471
 30
0.0
 11
-5.799999999999997
 21
2.957726105170099
 31
0.0
  0
LINE
  5
F1027A
330
261
100
AcDbEntity
  8
Geo
100
AcDbLine
 10
-5.799999999999997
 20
2.957726105170099
 30
0.0
 11
-5.700000000000002
 21
2.960026205446499
 31
0.0
  0
LINE
  5
F1027C
330
261
100
AcDbEntity
  8
Geo
100
AcDbLine
 10
-5.700000000000002
 20
2.960026205446499
 30
0.0
 11
-5.599999999999994
 21
2.962291354693803
 31
0.0
  0
LINE
  5
F1027E
330
261
100
AcDbEntity
  8
Geo
100
AcDbLine
 10
-5.599999999999994
 20
2.962291354693803
 30
0.0
 11
-5.5
 21
2.9645189483087
 31
0.0
  0
LINE
  5
F10280
330
261
100
AcDbEntity
  8
Geo
100
AcDbLine
 10
-5.5
 20
2.9645189483087
 30
0.0
 11
-5.400000000000005
 21
2.966706346130202
 31
0.0
  0
LINE
  5
F10282
330
261
100
AcDbEntity
  8
Geo
100
AcDbLine
 10
-5.400000000000005
 20
2.966706346130202
 30
0.0
 11
-5.299999999999997
 21
2.968850872512998
 31
0.0
  0
LINE
  5
F10284
330
261
100
AcDbEntity
  8
Geo
100
AcDbLine
 10
-5.299999999999997
 20
2.968850872512998
 30
0.0
 11
-5.200000000000002
 21
2.970949816409699
 31
0.0
  0
LINE
  5
F10286
330
261
100
AcDbEntity
  8
Geo
100
AcDbLine
 10
-5.200000000000002
 20
2.970949816409699
 30
0.0
 11
-5.099999999999994
 21
2.9730004314648
 31
0.0
  0
LINE
  5
F10288
330
261
100
AcDbEntity
  8
Geo
100
AcDbLine
 10
-5.099999999999994
 20
2.9730004314648
 30
0.0
 11
-5.0
 21
2.9749999361184
 31
0.0
  0
LINE
  5
F1028A
330
261
100
AcDbEntity
  8
Geo
100
AcDbLine
 10
-5.0
 20
2.9749999361184
 30
0.0
 11
-5.0
 21
2.9749999361184
 31
0.0
  0
LINE
  5
F1028C
330
261
100
AcDbEntity
  8
Geo
100
AcDbLine
 10
-18.0
 20
1.294764097157301
 30
0.0
 11
-18.0
 21
1.294764097157301
 31
0.0
  0
LINE
  5
F1028E
330
261
100
AcDbEntity
  8
Geo
100
AcDbLine
 10
-18.0
 20
1.294764097157301
 30
0.0
 11
-18.0
 21
1.3256970278061
 31
0.0
  0
LINE
  5
F10290
330
261
100
AcDbEntity
  8
Geo
100
AcDbLine
 10
-18.0
 20
1.3256970278061
 30
0.0
 11
-17.9
 21
1.262528495000301
 31
0.0
  0
LINE
  5
F10292
330
261
100
AcDbEntity
  8
Geo
100
AcDbLine
 10
-17.9
 20
1.262528495000301
 30
0.0
 11
-17.8
 21
1.198672209140699
 31
0.0
  0
LINE
  5
F10294
330
261
100
AcDbEntity
  8
Geo
100
AcDbLine
 10
-17.8
 20
1.198672209140699
 30
0.0
 11
-17.7
 21
1.134162955466599
 31
0.0
  0
LINE
  5
F10296
330
261
100
AcDbEntity
  8
Geo
100
AcDbLine
 10
-17.7
 20
1.134162955466599
 30
0.0
 11
-17.59999999999999
 21
1.069035874916401
 31
0.0
  0
LINE
  5
F10298
330
261
100
AcDbEntity
  8
Geo
100
AcDbLine
 10
-17.59999999999999
 20
1.069035874916401
 30
0.0
 11
-17.5
 21
1.0033264449852
 31
0.0
  0
LINE
  5
F1029A
330
261
100
AcDbEntity
  8
Geo
100
AcDbLine
 10
-17.5
 20
1.0033264449852
 30
0.0
 11
-17.4
 21
0.937070460398802
 31
0.0
  0
LINE
  5
F1029C
330
261
100
AcDbEntity
  8
Geo
100
AcDbLine
 10
-17.4
 20
0.937070460398802
 30
0.0
 11
-17.29999999999999
 21
0.8703040136142998
 31
0.0
  0
LINE
  5
F1029E
330
261
100
AcDbEntity
  8
Geo
100
AcDbLine
 10
-17.29999999999999
 20
0.8703040136142998
 30
0.0
 11
-17.2
 21
0.8030634751595009
 31
0.0
  0
LINE
  5
F102A0
330
261
100
AcDbEntity
  8
Geo
100
AcDbLine
 10
-17.2
 20
0.8030634751595009
 30
0.0
 11
-17.09999999999999
 21
0.7353854738201005
 31
0.0
  0
LINE
  5
F102A2
330
261
100
AcDbEntity
  8
Geo
100
AcDbLine
 10
-17.09999999999999
 20
0.7353854738201005
 30
0.0
 11
-17.0
 21
0.6673068766863999
 31
0.0
  0
LINE
  5
F102A4
330
261
100
AcDbEntity
  8
Geo
100
AcDbLine
 10
-17.0
 20
0.6673068766863999
 30
0.0
 11
-16.9
 21
0.5988647690703015
 31
0.0
  0
LINE
  5
F102A6
330
261
100
AcDbEntity
  8
Geo
100
AcDbLine
 10
-16.9
 20
0.5988647690703015
 30
0.0
 11
-16.79999999999999
 21
0.530096434303502
 31
0.0
  0
LINE
  5
F102A8
330
261
100
AcDbEntity
  8
Geo
100
AcDbLine
 10
-16.79999999999999
 20
0.530096434303502
 30
0.0
 11
-16.7
 21
0.4610393334273013
 31
0.0
  0
LINE
  5
F102AA
330
261
100
AcDbEntity
  8
Geo
100
AcDbLine
 10
-16.7
 20
0.4610393334273013
 30
0.0
 11
-16.59999999999999
 21
0.3917310847864019
 31
0.0
  0
LINE
  5
F102AC
330
261
100
AcDbEntity
  8
Geo
100
AcDbLine
 10
-16.59999999999999
 20
0.3917310847864019
 30
0.0
 11
-16.5
 21
0.3222094435361988
 31
0.0
  0
LINE
  5
F102AE
330
261
100
AcDbEntity
  8
Geo
100
AcDbLine
 10
-16.5
 20
0.3222094435361988
 30
0.0
 11
-16.4
 21
0.2525122810764024
 31
0.0
  0
LINE
  5
F102B0
330
261
100
AcDbEntity
  8
Geo
100
AcDbLine
 10
-16.4
 20
0.2525122810764024
 30
0.0
 11
-16.3
 21
0.1826775644203007
 31
0.0
  0
LINE
  5
F102B2
330
261
100
AcDbEntity
  8
Geo
100
AcDbLine
 10
-16.3
 20
0.1826775644203007
 30
0.0
 11
-16.2
 21
0.112743335512901
 31
0.0
  0
LINE
  5
F102B4
330
261
100
AcDbEntity
  8
Geo
100
AcDbLine
 10
-16.2
 20
0.112743335512901
 30
0.0
 11
-16.09999999999999
 21
0.0427476905079018
 31
0.0
  0
LINE
  5
F102B6
330
261
100
AcDbEntity
  8
Geo
100
AcDbLine
 10
-16.09999999999999
 20
0.0427476905079018
 30
0.0
 11
-16.0
 21
-0.027271240984998
 31
0.0
  0
LINE
  5
F102B8
330
261
100
AcDbEntity
  8
Geo
100
AcDbLine
 10
-16.0
 20
-0.027271240984998
 30
0.0
 11
-15.9
 21
-0.0972753166713005
 31
0.0
  0
LINE
  5
F102BA
330
261
100
AcDbEntity
  8
Geo
100
AcDbLine
 10
-15.9
 20
-0.0972753166713005
 30
0.0
 11
-15.8
 21
-0.1672264023488008
 31
0.0
  0
LINE
  5
F102BC
330
261
100
AcDbEntity
  8
Geo
100
AcDbLine
 10
-15.8
 20
-0.1672264023488008
 30
0.0
 11
-15.7
 21
-0.2370863926811992
 31
0.0
  0
LINE
  5
F102BE
330
261
100
AcDbEntity
  8
Geo
100
AcDbLine
 10
-15.7
 20
-0.2370863926811992
 30
0.0
 11
-15.59999999999999
 21
-0.3068172319558986
 31
0.0
  0
LINE
  5
F102C0
330
261
100
AcDbEntity
  8
Geo
100
AcDbLine
 10
-15.59999999999999
 20
-0.3068172319558986
 30
0.0
 11
-15.5
 21
-0.3763809348142999
 31
0.0
  0
LINE
  5
F102C2
330
261
100
AcDbEntity
  8
Geo
100
AcDbLine
 10
-15.5
 20
-0.3763809348142999
 30
0.0
 11
-15.4
 21
-0.4457396069439988
 31
0.0
  0
LINE
  5
F102C4
330
261
100
AcDbEntity
  8
Geo
100
AcDbLine
 10
-15.4
 20
-0.4457396069439988
 30
0.0
 11
-15.3
 21
-0.5148554657216984
 31
0.0
  0
LINE
  5
F102C6
330
261
100
AcDbEntity
  8
Geo
100
AcDbLine
 10
-15.3
 20
-0.5148554657216984
 30
0.0
 11
-15.2
 21
-0.583690860794901
 31
0.0
  0
LINE
  5
F102C8
330
261
100
AcDbEntity
  8
Geo
100
AcDbLine
 10
-15.2
 20
-0.583690860794901
 30
0.0
 11
-15.09999999999999
 21
-0.6522082945915991
 31
0.0
  0
LINE
  5
F102CA
330
261
100
AcDbEntity
  8
Geo
100
AcDbLine
 10
-15.09999999999999
 20
-0.6522082945915991
 30
0.0
 11
-15.0
 21
-0.7203704427466971
 31
0.0
  0
LINE
  5
F102CC
330
261
100
AcDbEntity
  8
Geo
100
AcDbLine
 10
-15.0
 20
-0.7203704427466971
 30
0.0
 11
-14.9
 21
-0.7881401744346981
 31
0.0
  0
LINE
  5
F102CE
330
261
100
AcDbEntity
  8
Geo
100
AcDbLine
 10
-14.9
 20
-0.7881401744346981
 30
0.0
 11
-14.79999999999999
 21
-0.8554805725955993
 31
0.0
  0
LINE
  5
F102D0
330
261
100
AcDbEntity
  8
Geo
100
AcDbLine
 10
-14.79999999999999
 20
-0.8554805725955993
 30
0.0
 11
-14.7
 21
-0.9223549540459998
 31
0.0
  0
LINE
  5
F102D2
330
261
100
AcDbEntity
  8
Geo
100
AcDbLine
 10
-14.7
 20
-0.9223549540459998
 30
0.0
 11
-14.59999999999999
 21
-0.9887268894615992
 31
0.0
  0
LINE
  5
F102D4
330
261
100
AcDbEntity
  8
Geo
100
AcDbLine
 10
-14.59999999999999
 20
-0.9887268894615992
 30
0.0
 11
-14.5
 21
-1.054560223221598
 31
0.0
  0
LINE
  5
F102D6
330
261
100
AcDbEntity
  8
Geo
100
AcDbLine
 10
-14.5
 20
-1.054560223221598
 30
0.0
 11
-14.4
 21
-1.119819093104899
 31
0.0
  0
LINE
  5
F102D8
330
261
100
AcDbEntity
  8
Geo
100
AcDbLine
 10
-14.4
 20
-1.119819093104899
 30
0.0
 11
-14.29999999999999
 21
-1.184467949824899
 31
0.0
  0
LINE
  5
F102DA
330
261
100
AcDbEntity
  8
Geo
100
AcDbLine
 10
-14.29999999999999
 20
-1.184467949824899
 30
0.0
 11
-14.2
 21
-1.248471576395498
 31
0.0
  0
LINE
  5
F102DC
330
261
100
AcDbEntity
  8
Geo
100
AcDbLine
 10
-14.2
 20
-1.248471576395498
 30
0.0
 11
-14.09999999999999
 21
-1.3117951073148
 31
0.0
  0
LINE
  5
F102DE
330
261
100
AcDbEntity
  8
Geo
100
AcDbLine
 10
-14.09999999999999
 20
-1.3117951073148
 30
0.0
 11
-14.0
 21
-1.374404047557998
 31
0.0
  0
LINE
  5
F102E0
330
261
100
AcDbEntity
  8
Geo
100
AcDbLine
 10
-14.0
 20
-1.374404047557998
 30
0.0
 11
-13.9
 21
-1.4362642913682
 31
0.0
  0
LINE
  5
F102E2
330
261
100
AcDbEntity
  8
Geo
100
AcDbLine
 10
-13.9
 20
-1.4362642913682
 30
0.0
 11
-13.8
 21
-1.497342140835399
 31
0.0
  0
LINE
  5
F102E4
330
261
100
AcDbEntity
  8
Geo
100
AcDbLine
 10
-13.8
 20
-1.497342140835399
 30
0.0
 11
-13.7
 21
-1.557604324253301
 31
0.0
  0
LINE
  5
F102E6
330
261
100
AcDbEntity
  8
Geo
100
AcDbLine
 10
-13.7
 20
-1.557604324253301
 30
0.0
 11
-13.59999999999999
 21
-1.617018014243301
 31
0.0
  0
LINE
  5
F102E8
330
261
100
AcDbEntity
  8
Geo
100
AcDbLine
 10
-13.59999999999999
 20
-1.617018014243301
 30
0.0
 11
-13.5
 21
-1.675550845637598
 31
0.0
  0
LINE
  5
F102EA
330
261
100
AcDbEntity
  8
Geo
100
AcDbLine
 10
-13.5
 20
-1.675550845637598
 30
0.0
 11
-13.4
 21
-1.733170933109398
 31
0.0
  0
LINE
  5
F102EC
330
261
100
AcDbEntity
  8
Geo
100
AcDbLine
 10
-13.4
 20
-1.733170933109398
 30
0.0
 11
-13.3
 21
-1.789846888542598
 31
0.0
  0
LINE
  5
F102EE
330
261
100
AcDbEntity
  8
Geo
100
AcDbLine
 10
-13.3
 20
-1.789846888542598
 30
0.0
 11
-13.2
 21
-1.845547838129901
 31
0.0
  0
LINE
  5
F102F0
330
261
100
AcDbEntity
  8
Geo
100
AcDbLine
 10
-13.2
 20
-1.845547838129901
 30
0.0
 11
-13.09999999999999
 21
-1.900243439191299
 31
0.0
  0
LINE
  5
F102F2
330
261
100
AcDbEntity
  8
Geo
100
AcDbLine
 10
-13.09999999999999
 20
-1.900243439191299
 30
0.0
 11
-13.0
 21
-1.953903896702801
 31
0.0
  0
LINE
  5
F102F4
330
261
100
AcDbEntity
  8
Geo
100
AcDbLine
 10
-13.0
 20
-1.953903896702801
 30
0.0
 11
-12.9
 21
-2.006499979527498
 31
0.0
  0
LINE
  5
F102F6
330
261
100
AcDbEntity
  8
Geo
100
AcDbLine
 10
-12.9
 20
-2.006499979527498
 30
0.0
 11
-12.8
 21
-2.0580030363384
 31
0.0
  0
LINE
  5
F102F8
330
261
100
AcDbEntity
  8
Geo
100
AcDbLine
 10
-12.8
 20
-2.0580030363384
 30
0.0
 11
-12.7
 21
-2.108385011226399
 31
0.0
  0
LINE
  5
F102FA
330
261
100
AcDbEntity
  8
Geo
100
AcDbLine
 10
-12.7
 20
-2.108385011226399
 30
0.0
 11
-12.59999999999999
 21
-2.157618458983799
 31
0.0
  0
LINE
  5
F102FC
330
261
100
AcDbEntity
  8
Geo
100
AcDbLine
 10
-12.59999999999999
 20
-2.157618458983799
 30
0.0
 11
-12.5
 21
-2.205676560054097
 31
0.0
  0
LINE
  5
F102FE
330
261
100
AcDbEntity
  8
Geo
100
AcDbLine
 10
-12.5
 20
-2.205676560054097
 30
0.0
 11
-12.4
 21
-2.252533135142499
 31
0.0
  0
LINE
  5
F10300
330
261
100
AcDbEntity
  8
Geo
100
AcDbLine
 10
-12.4
 20
-2.252533135142499
 30
0.0
 11
-12.29999999999999
 21
-2.298162659476497
 31
0.0
  0
LINE
  5
F10302
330
261
100
AcDbEntity
  8
Geo
100
AcDbLine
 10
-12.29999999999999
 20
-2.298162659476497
 30
0.0
 11
-12.2
 21
-2.342540276710399
 31
0.0
  0
LINE
  5
F10304
330
261
100
AcDbEntity
  8
Geo
100
AcDbLine
 10
-12.2
 20
-2.342540276710399
 30
0.0
 11
-12.09999999999999
 21
-2.385641812465697
 31
0.0
  0
LINE
  5
F10306
330
261
100
AcDbEntity
  8
Geo
100
AcDbLine
 10
-12.09999999999999
 20
-2.385641812465697
 30
0.0
 11
-12.0
 21
-2.4274437874998
 31
0.0
  0
LINE
  5
F10308
330
261
100
AcDbEntity
  8
Geo
100
AcDbLine
 10
-12.0
 20
-2.4274437874998
 30
0.0
 11
-11.9
 21
-2.467923430496098
 31
0.0
  0
LINE
  5
F1030A
330
261
100
AcDbEntity
  8
Geo
100
AcDbLine
 10
-11.9
 20
-2.467923430496098
 30
0.0
 11
-11.79999999999999
 21
-2.507058690468698
 31
0.0
  0
LINE
  5
F1030C
330
261
100
AcDbEntity
  8
Geo
100
AcDbLine
 10
-11.79999999999999
 20
-2.507058690468698
 30
0.0
 11
-11.7
 21
-2.544828248774399
 31
0.0
  0
LINE
  5
F1030E
330
261
100
AcDbEntity
  8
Geo
100
AcDbLine
 10
-11.7
 20
-2.544828248774399
 30
0.0
 11
-11.59999999999999
 21
-2.581211530725799
 31
0.0
  0
LINE
  5
F10310
330
261
100
AcDbEntity
  8
Geo
100
AcDbLine
 10
-11.59999999999999
 20
-2.581211530725799
 30
0.0
 11
-11.5
 21
-2.616188716799397
 31
0.0
  0
LINE
  5
F10312
330
261
100
AcDbEntity
  8
Geo
100
AcDbLine
 10
-11.5
 20
-2.616188716799397
 30
0.0
 11
-11.4
 21
-2.649740753431901
 31
0.0
  0
LINE
  5
F10314
330
261
100
AcDbEntity
  8
Geo
100
AcDbLine
 10
-11.4
 20
-2.649740753431901
 30
0.0
 11
-11.29999999999999
 21
-2.681849363399598
 31
0.0
  0
LINE
  5
F10316
330
261
100
AcDbEntity
  8
Geo
100
AcDbLine
 10
-11.29999999999999
 20
-2.681849363399598
 30
0.0
 11
-11.2
 21
-2.7124970557749
 31
0.0
  0
LINE
  5
F10318
330
261
100
AcDbEntity
  8
Geo
100
AcDbLine
 10
-11.2
 20
-2.7124970557749
 30
0.0
 11
-11.09999999999999
 21
-2.741667135454299
 31
0.0
  0
LINE
  5
F1031A
330
261
100
AcDbEntity
  8
Geo
100
AcDbLine
 10
-11.09999999999999
 20
-2.741667135454299
 30
0.0
 11
-11.0
 21
-2.769343712252698
 31
0.0
  0
LINE
  5
F1031C
330
261
100
AcDbEntity
  8
Geo
100
AcDbLine
 10
-11.0
 20
-2.769343712252698
 30
0.0
 11
-10.9
 21
-2.795511709559697
 31
0.0
  0
LINE
  5
F1031E
330
261
100
AcDbEntity
  8
Geo
100
AcDbLine
 10
-10.9
 20
-2.795511709559697
 30
0.0
 11
-10.8
 21
-2.8201568725525
 31
0.0
  0
LINE
  5
F10320
330
261
100
AcDbEntity
  8
Geo
100
AcDbLine
 10
-10.8
 20
-2.8201568725525
 30
0.0
 11
-10.7
 21
-2.843265775960899
 31
0.0
  0
LINE
  5
F10322
330
261
100
AcDbEntity
  8
Geo
100
AcDbLine
 10
-10.7
 20
-2.843265775960899
 30
0.0
 11
-10.59999999999999
 21
-2.8648258313808
 31
0.0
  0
LINE
  5
F10324
330
261
100
AcDbEntity
  8
Geo
100
AcDbLine
 10
-10.59999999999999
 20
-2.8648258313808
 30
0.0
 11
-10.5
 21
-2.884825294131598
 31
0.0
  0
LINE
  5
F10326
330
261
100
AcDbEntity
  8
Geo
100
AcDbLine
 10
-10.5
 20
-2.884825294131598
 30
0.0
 11
-10.4
 21
-2.9032532696539
 31
0.0
  0
LINE
  5
F10328
330
261
100
AcDbEntity
  8
Geo
100
AcDbLine
 10
-10.4
 20
-2.9032532696539
 30
0.0
 11
-10.3
 21
-2.920099719444598
 31
0.0
  0
LINE
  5
F1032A
330
261
100
AcDbEntity
  8
Geo
100
AcDbLine
 10
-10.3
 20
-2.920099719444598
 30
0.0
 11
-10.2
 21
-2.935355466524699
 31
0.0
  0
LINE
  5
F1032C
330
261
100
AcDbEntity
  8
Geo
100
AcDbLine
 10
-10.2
 20
-2.935355466524699
 30
0.0
 11
-10.09999999999999
 21
-2.949012200438998
 31
0.0
  0
LINE
  5
F1032E
330
261
100
AcDbEntity
  8
Geo
100
AcDbLine
 10
-10.09999999999999
 20
-2.949012200438998
 30
0.0
 11
-10.0
 21
-2.961062481782699
 31
0.0
  0
LINE
  5
F10330
330
261
100
AcDbEntity
  8
Geo
100
AcDbLine
 10
-10.0
 20
-2.961062481782699
 30
0.0
 11
-9.900000000000005
 21
-2.971499746254197
 31
0.0
  0
LINE
  5
F10332
330
261
100
AcDbEntity
  8
Geo
100
AcDbLine
 10
-9.900000000000005
 20
-2.971499746254197
 30
0.0
 11
-9.799999999999997
 21
-2.980318308231
 31
0.0
  0
LINE
  5
F10334
330
261
100
AcDbEntity
  8
Geo
100
AcDbLine
 10
-9.799999999999997
 20
-2.980318308231
 30
0.0
 11
-9.700000000000002
 21
-2.987513363866598
 31
0.0
  0
LINE
  5
F10336
330
261
100
AcDbEntity
  8
Geo
100
AcDbLine
 10
-9.700000000000002
 20
-2.987513363866598
 30
0.0
 11
-9.599999999999994
 21
-2.9930809937079
 31
0.0
  0
LINE
  5
F10338
330
261
100
AcDbEntity
  8
Geo
100
AcDbLine
 10
-9.599999999999994
 20
-2.9930809937079
 30
0.0
 11
-9.5
 21
-2.9970181648295
 31
0.0
  0
LINE
  5
F1033A
330
261
100
AcDbEntity
  8
Geo
100
AcDbLine
 10
-9.5
 20
-2.9970181648295
 30
0.0
 11
-9.400000000000005
 21
-2.999322732486799
 31
0.0
  0
LINE
  5
F1033C
330
261
100
AcDbEntity
  8
Geo
100
AcDbLine
 10
-18.0
 20
-2.099652724213598
 30
0.0
 11
-18.0
 21
-2.099652724213598
 31
0.0
  0
LINE
  5
F1033E
330
261
100
AcDbEntity
  8
Geo
100
AcDbLine
 10
-18.0
 20
-2.099652724213598
 30
0.0
 11
-18.0
 21
-2.149815075986598
 31
0.0
  0
LINE
  5
F10340
330
261
100
AcDbEntity
  8
Geo
100
AcDbLine
 10
-18.0
 20
-2.149815075986598
 30
0.0
 11
-17.9
 21
-2.198063113476299
 31
0.0
  0
LINE
  5
F10342
330
261
100
AcDbEntity
  8
Geo
100
AcDbLine
 10
-17.9
 20
-2.198063113476299
 30
0.0
 11
-17.8
 21
-2.245113772352798
 31
0.0
  0
LINE
  5
F10344
330
261
100
AcDbEntity
  8
Geo
100
AcDbLine
 10
-17.8
 20
-2.245113772352798
 30
0.0
 11
-17.7
 21
-2.290941422117899
 31
0.0
  0
LINE
  5
F10346
330
261
100
AcDbEntity
  8
Geo
100
AcDbLine
 10
-17.7
 20
-2.290941422117899
 30
0.0
 11
-17.59999999999999
 21
-2.3355210984984
 31
0.0
  0
LINE
  5
F10348
330
261
100
AcDbEntity
  8
Geo
100
AcDbLine
 10
-17.59999999999999
 20
-2.3355210984984
 30
0.0
 11
-17.5
 21
-2.378828517045798
 31
0.0
  0
LINE
  5
F1034A
330
261
100
AcDbEntity
  8
Geo
100
AcDbLine
 10
-17.5
 20
-2.378828517045798
 30
0.0
 11
-17.4
 21
-2.420840086364098
 31
0.0
  0
LINE
  5
F1034C
330
261
100
AcDbEntity
  8
Geo
100
AcDbLine
 10
-17.4
 20
-2.420840086364098
 30
0.0
 11
-17.29999999999999
 21
-2.461532920961998
 31
0.0
  0
LINE
  5
F1034E
330
261
100
AcDbEntity
  8
Geo
100
AcDbLine
 10
-17.29999999999999
 20
-2.461532920961998
 30
0.0
 11
-17.2
 21
-2.500884853718998
 31
0.0
  0
LINE
  5
F10350
330
261
100
AcDbEntity
  8
Geo
100
AcDbLine
 10
-17.2
 20
-2.500884853718998
 30
0.0
 11
-17.09999999999999
 21
-2.538874447960999
 31
0.0
  0
LINE
  5
F10352
330
261
100
AcDbEntity
  8
Geo
100
AcDbLine
 10
-17.09999999999999
 20
-2.538874447960999
 30
0.0
 11
-17.0
 21
-2.575481009137497
 31
0.0
  0
LINE
  5
F10354
330
261
100
AcDbEntity
  8
Geo
100
AcDbLine
 10
-17.0
 20
-2.575481009137497
 30
0.0
 11
-16.9
 21
-2.610684596095499
 31
0.0
  0
LINE
  5
F10356
330
261
100
AcDbEntity
  8
Geo
100
AcDbLine
 10
-16.9
 20
-2.610684596095499
 30
0.0
 11
-16.79999999999999
 21
-2.6444660319414
 31
0.0
  0
LINE
  5
F10358
330
261
100
AcDbEntity
  8
Geo
100
AcDbLine
 10
-16.79999999999999
 20
-2.6444660319414
 30
0.0
 11
-16.7
 21
-2.676806914487999
 31
0.0
  0
LINE
  5
F1035A
330
261
100
AcDbEntity
  8
Geo
100
AcDbLine
 10
-16.7
 20
-2.676806914487999
 30
0.0
 11
-16.59999999999999
 21
-2.707689626278998
 31
0.0
  0
LINE
  5
F1035C
330
261
100
AcDbEntity
  8
Geo
100
AcDbLine
 10
-16.59999999999999
 20
-2.707689626278998
 30
0.0
 11
-16.5
 21
-2.737097344185697
 31
0.0
  0
LINE
  5
F1035E
330
261
100
AcDbEntity
  8
Geo
100
AcDbLine
 10
-16.5
 20
-2.737097344185697
 30
0.0
 11
-16.4
 21
-2.7650140485713
 31
0.0
  0
LINE
  5
F10360
330
261
100
AcDbEntity
  8
Geo
100
AcDbLine
 10
-16.4
 20
-2.7650140485713
 30
0.0
 11
-16.3
 21
-2.791424532017799
 31
0.0
  0
LINE
  5
F10362
330
261
100
AcDbEntity
  8
Geo
100
AcDbLine
 10
-16.3
 20
-2.791424532017799
 30
0.0
 11
-16.2
 21
-2.8163144076098
 31
0.0
  0
LINE
  5
F10364
330
261
100
AcDbEntity
  8
Geo
100
AcDbLine
 10
-16.2
 20
-2.8163144076098
 30
0.0
 11
-16.09999999999999
 21
-2.839670116771698
 31
0.0
  0
LINE
  5
F10366
330
261
100
AcDbEntity
  8
Geo
100
AcDbLine
 10
-16.09999999999999
 20
-2.839670116771698
 30
0.0
 11
-16.0
 21
-2.861478936653899
 31
0.0
  0
LINE
  5
F10368
330
261
100
AcDbEntity
  8
Geo
100
AcDbLine
 10
-16.0
 20
-2.861478936653899
 30
0.0
 11
-15.9
 21
-2.881728987063198
 31
0.0
  0
LINE
  5
F1036A
330
261
100
AcDbEntity
  8
Geo
100
AcDbLine
 10
-15.9
 20
-2.881728987063198
 30
0.0
 11
-15.8
 21
-2.900409236934299
 31
0.0
  0
LINE
  5
F1036C
330
261
100
AcDbEntity
  8
Geo
100
AcDbLine
 10
-15.8
 20
-2.900409236934299
 30
0.0
 11
-15.7
 21
-2.917509510339499
 31
0.0
  0
LINE
  5
F1036E
330
261
100
AcDbEntity
  8
Geo
100
AcDbLine
 10
-15.7
 20
-2.917509510339499
 30
0.0
 11
-15.59999999999999
 21
-2.933020492031499
 31
0.0
  0
LINE
  5
F10370
330
261
100
AcDbEntity
  8
Geo
100
AcDbLine
 10
-15.59999999999999
 20
-2.933020492031499
 30
0.0
 11
-15.5
 21
-2.946933732517598
 31
0.0
  0
LINE
  5
F10372
330
261
100
AcDbEntity
  8
Geo
100
AcDbLine
 10
-15.5
 20
-2.946933732517598
 30
0.0
 11
-15.4
 21
-2.959241652663198
 31
0.0
  0
LINE
  5
F10374
330
261
100
AcDbEntity
  8
Geo
100
AcDbLine
 10
-15.4
 20
-2.959241652663198
 30
0.0
 11
-15.3
 21
-2.969937547819698
 31
0.0
  0
LINE
  5
F10376
330
261
100
AcDbEntity
  8
Geo
100
AcDbLine
 10
-15.3
 20
-2.969937547819698
 30
0.0
 11
-15.2
 21
-2.979015591477599
 31
0.0
  0
LINE
  5
F10378
330
261
100
AcDbEntity
  8
Geo
100
AcDbLine
 10
-15.2
 20
-2.979015591477599
 30
0.0
 11
-15.09999999999999
 21
-2.986470838439698
 31
0.0
  0
LINE
  5
F1037A
330
261
100
AcDbEntity
  8
Geo
100
AcDbLine
 10
-15.09999999999999
 20
-2.986470838439698
 30
0.0
 11
-15.0
 21
-2.992299227515399
 31
0.0
  0
LINE
  5
F1037C
330
261
100
AcDbEntity
  8
Geo
100
AcDbLine
 10
-15.0
 20
-2.992299227515399
 30
0.0
 11
-14.9
 21
-2.9964975837328
 31
0.0
  0
LINE
  5
F1037E
330
261
100
AcDbEntity
  8
Geo
100
AcDbLine
 10
-14.9
 20
-2.9964975837328
 30
0.0
 11
-14.79999999999999
 21
-2.999063620068598
 31
0.0
  0
LINE
  5
F10380
330
261
100
AcDbEntity
  8
Geo
100
AcDbLine
 10
-14.79999999999999
 20
-2.999063620068598
 30
0.0
 11
-14.7
 21
-2.999995938693301
 31
0.0
  0
LINE
  5
F10382
330
261
100
AcDbEntity
  8
Geo
100
AcDbLine
 10
-9.400000000000005
 20
2.999322732486803
 30
0.0
 11
-9.299999999999997
 21
2.9999934412835
 31
0.0
  0
LINE
  5
F10384
330
261
100
AcDbEntity
  8
Geo
100
AcDbLine
 10
-9.299999999999997
 20
2.9999934412835
 30
0.0
 11
-9.200000000000002
 21
2.999029925856
 31
0.0
  0
LINE
  5
F10386
330
261
100
AcDbEntity
  8
Geo
100
AcDbLine
 10
-9.200000000000002
 20
2.999029925856
 30
0.0
 11
-9.099999999999994
 21
2.996432711072099
 31
0.0
  0
LINE
  5
F10388
330
261
100
AcDbEntity
  8
Geo
100
AcDbLine
 10
-9.099999999999994
 20
2.996432711072099
 30
0.0
 11
-9.0
 21
2.992203211745501
 31
0.0
  0
LINE
  5
F1038A
330
261
100
AcDbEntity
  8
Geo
100
AcDbLine
 10
-9.0
 20
2.992203211745501
 30
0.0
 11
-8.900000000000005
 21
2.986343731864501
 31
0.0
  0
LINE
  5
F1038C
330
261
100
AcDbEntity
  8
Geo
100
AcDbLine
 10
-8.900000000000005
 20
2.986343731864501
 30
0.0
 11
-8.799999999999997
 21
2.978857463337501
 31
0.0
  0
LINE
  5
F1038E
330
261
100
AcDbEntity
  8
Geo
100
AcDbLine
 10
-8.799999999999997
 20
2.978857463337501
 30
0.0
 11
-8.700000000000002
 21
2.969748484253802
 31
0.0
  0
LINE
  5
F10390
330
261
100
AcDbEntity
  8
Geo
100
AcDbLine
 10
-8.700000000000002
 20
2.969748484253802
 30
0.0
 11
-8.599999999999994
 21
2.959021756662302
 31
0.0
  0
LINE
  5
F10392
330
261
100
AcDbEntity
  8
Geo
100
AcDbLine
 10
-8.599999999999994
 20
2.959021756662302
 30
0.0
 11
-8.5
 21
2.946683123868599
 31
0.0
  0
LINE
  5
F10394
330
261
100
AcDbEntity
  8
Geo
100
AcDbLine
 10
-8.5
 20
2.946683123868599
 30
0.0
 11
-8.400000000000005
 21
2.932739307251601
 31
0.0
  0
LINE
  5
F10396
330
261
100
AcDbEntity
  8
Geo
100
AcDbLine
 10
-8.400000000000005
 20
2.932739307251601
 30
0.0
 11
-8.299999999999997
 21
2.917197902602097
 31
0.0
  0
LINE
  5
F10398
330
261
100
AcDbEntity
  8
Geo
100
AcDbLine
 10
-8.299999999999997
 20
2.917197902602097
 30
0.0
 11
-8.200000000000002
 21
2.900067375985301
 31
0.0
  0
LINE
  5
F1039A
330
261
100
AcDbEntity
  8
Geo
100
AcDbLine
 10
-8.200000000000002
 20
2.900067375985301
 30
0.0
 11
-8.099999999999994
 21
2.881357059128799
 31
0.0
  0
LINE
  5
F1039C
330
261
100
AcDbEntity
  8
Geo
100
AcDbLine
 10
-8.099999999999994
 20
2.881357059128799
 30
0.0
 11
-8.0
 21
2.861077144339201
 31
0.0
  0
LINE
  5
F1039E
330
261
100
AcDbEntity
  8
Geo
100
AcDbLine
 10
-8.0
 20
2.861077144339201
 30
0.0
 11
-8.0
 21
2.861077144339201
 31
0.0
  0
LINE
  5
F103A0
330
261
100
AcDbEntity
  8
Geo
100
AcDbLine
 10
-8.0
 20
2.861077144339201
 30
0.0
 11
-8.0
 21
2.861077144339201
 31
0.0
  0
LINE
  5
F103A2
330
261
100
AcDbEntity
  8
Geo
100
AcDbLine
 10
-8.0
 20
2.861077144339201
 30
0.0
 11
-7.900000000000005
 21
2.835526049370098
 31
0.0
  0
LINE
  5
F103A4
330
261
100
AcDbEntity
  8
Geo
100
AcDbLine
 10
-7.900000000000005
 20
2.835526049370098
 30
0.0
 11
-7.799999999999997
 21
2.806289418205199
 31
0.0
  0
LINE
  5
F103A6
330
261
100
AcDbEntity
  8
Geo
100
AcDbLine
 10
-7.799999999999997
 20
2.806289418205199
 30
0.0
 11
-7.700000000000002
 21
2.7730258663092
 31
0.0
  0
LINE
  5
F103A8
330
261
100
AcDbEntity
  8
Geo
100
AcDbLine
 10
-7.700000000000002
 20
2.7730258663092
 30
0.0
 11
-7.599999999999994
 21
2.7353853252975
 31
0.0
  0
LINE
  5
F103AA
330
261
100
AcDbEntity
  8
Geo
100
AcDbLine
 10
-7.599999999999994
 20
2.7353853252975
 30
0.0
 11
-7.5
 21
2.6930113073584
 31
0.0
  0
LINE
  5
F103AC
330
261
100
AcDbEntity
  8
Geo
100
AcDbLine
 10
-7.5
 20
2.6930113073584
 30
0.0
 11
-7.400000000000005
 21
2.645543473138801
 31
0.0
  0
LINE
  5
F103AE
330
261
100
AcDbEntity
  8
Geo
100
AcDbLine
 10
-7.400000000000005
 20
2.645543473138801
 30
0.0
 11
-7.299999999999997
 21
2.5926205225715
 31
0.0
  0
LINE
  5
F103B0
330
261
100
AcDbEntity
  8
Geo
100
AcDbLine
 10
-7.299999999999997
 20
2.5926205225715
 30
0.0
 11
-7.200000000000002
 21
2.5338834263421
 31
0.0
  0
LINE
  5
F103B2
330
261
100
AcDbEntity
  8
Geo
100
AcDbLine
 10
-7.200000000000002
 20
2.5338834263421
 30
0.0
 11
-7.099999999999994
 21
2.468979013326
 31
0.0
  0
LINE
  5
F103B4
330
261
100
AcDbEntity
  8
Geo
100
AcDbLine
 10
-7.099999999999994
 20
2.468979013326
 30
0.0
 11
-7.0
 21
2.397563926322199
 31
0.0
  0
LINE
  5
F103B6
330
261
100
AcDbEntity
  8
Geo
100
AcDbLine
 10
-7.0
 20
2.397563926322199
 30
0.0
 11
-6.900000000000005
 21
2.3193089546959
 31
0.0
  0
LINE
  5
F103B8
330
261
100
AcDbEntity
  8
Geo
100
AcDbLine
 10
-6.900000000000005
 20
2.3193089546959
 30
0.0
 11
-6.799999999999997
 21
2.233903748067401
 31
0.0
  0
LINE
  5
F103BA
330
261
100
AcDbEntity
  8
Geo
100
AcDbLine
 10
-6.799999999999997
 20
2.233903748067401
 30
0.0
 11
-6.700000000000002
 21
2.141061909898699
 31
0.0
  0
LINE
  5
F103BC
330
261
100
AcDbEntity
  8
Geo
100
AcDbLine
 10
-6.700000000000002
 20
2.141061909898699
 30
0.0
 11
-6.599999999999994
 21
2.040526463678
 31
0.0
  0
LINE
  5
F103BE
330
261
100
AcDbEntity
  8
Geo
100
AcDbLine
 10
-6.599999999999994
 20
2.040526463678
 30
0.0
 11
-6.5
 21
1.9320756773521
 31
0.0
  0
LINE
  5
F103C0
330
261
100
AcDbEntity
  8
Geo
100
AcDbLine
 10
-6.5
 20
1.9320756773521
 30
0.0
 11
-6.400000000000005
 21
1.8155292236787
 31
0.0
  0
LINE
  5
F103C2
330
261
100
AcDbEntity
  8
Geo
100
AcDbLine
 10
-6.400000000000005
 20
1.8155292236787
 30
0.0
 11
-6.299999999999997
 21
1.6907546452467
 31
0.0
  0
LINE
  5
F103C4
330
261
100
AcDbEntity
  8
Geo
100
AcDbLine
 10
-6.299999999999997
 20
1.6907546452467
 30
0.0
 11
-6.200000000000002
 21
1.557674083055099
 31
0.0
  0
LINE
  5
F103C6
330
261
100
AcDbEntity
  8
Geo
100
AcDbLine
 10
-6.200000000000002
 20
1.557674083055099
 30
0.0
 11
-6.099999999999994
 21
1.416271216761199
 31
0.0
  0
LINE
  5
F103C8
330
261
100
AcDbEntity
  8
Geo
100
AcDbLine
 10
-6.099999999999994
 20
1.416271216761199
 30
0.0
 11
-6.0
 21
1.266598353064399
 31
0.0
  0
LINE
  5
F103CA
330
261
100
AcDbEntity
  8
Geo
100
AcDbLine
 10
-6.0
 20
1.266598353064399
 30
0.0
 11
-5.900000000000005
 21
1.108783586250899
 31
0.0
  0
LINE
  5
F103CC
330
261
100
AcDbEntity
  8
Geo
100
AcDbLine
 10
-5.900000000000005
 20
1.108783586250899
 30
0.0
 11
-5.799999999999997
 21
0.943037941799
 31
0.0
  0
LINE
  5
F103CE
330
261
100
AcDbEntity
  8
Geo
100
AcDbLine
 10
-5.799999999999997
 20
0.943037941799
 30
0.0
 11
-5.700000000000002
 21
0.7696624002671016
 31
0.0
  0
LINE
  5
F103D0
330
261
100
AcDbEntity
  8
Geo
100
AcDbLine
 10
-5.700000000000002
 20
0.7696624002671016
 30
0.0
 11
-5.599999999999994
 21
0.5890546846502005
 31
0.0
  0
LINE
  5
F103D2
330
261
100
AcDbEntity
  8
Geo
100
AcDbLine
 10
-5.599999999999994
 20
0.5890546846502005
 30
0.0
 11
-5.5
 21
0.4017156802017006
 31
0.0
  0
LINE
  5
F103D4
330
261
100
AcDbEntity
  8
Geo
100
AcDbLine
 10
-5.5
 20
0.4017156802017006
 30
0.0
 11
-5.5
 21
0.4017156802017006
 31
0.0
  0
LINE
  5
F103D6
330
261
100
AcDbEntity
  8
Geo
100
AcDbLine
 10
-14.7
 20
2.999995938693299
 30
0.0
 11
-14.59999999999999
 21
2.999294031733402
 31
0.0
  0
LINE
  5
F103D8
330
261
100
AcDbEntity
  8
Geo
100
AcDbLine
 10
-14.59999999999999
 20
2.999294031733402
 30
0.0
 11
-14.5
 21
2.996958281547403
 31
0.0
  0
LINE
  5
F103DA
330
261
100
AcDbEntity
  8
Geo
100
AcDbLine
 10
-14.5
 20
2.996958281547403
 30
0.0
 11
-14.4
 21
2.992989960518002
 31
0.0
  0
LINE
  5
F103DC
330
261
100
AcDbEntity
  8
Geo
100
AcDbLine
 10
-14.4
 20
2.992989960518002
 30
0.0
 11
-14.29999999999999
 21
2.987391230358699
 31
0.0
  0
LINE
  5
F103DE
330
261
100
AcDbEntity
  8
Geo
100
AcDbLine
 10
-14.29999999999999
 20
2.987391230358699
 30
0.0
 11
-14.2
 21
2.9801651409363
 31
0.0
  0
LINE
  5
F103E0
330
261
100
AcDbEntity
  8
Geo
100
AcDbLine
 10
-14.2
 20
2.9801651409363
 30
0.0
 11
-14.09999999999999
 21
2.971315628609502
 31
0.0
  0
LINE
  5
F103E2
330
261
100
AcDbEntity
  8
Geo
100
AcDbLine
 10
-14.09999999999999
 20
2.971315628609502
 30
0.0
 11
-14.0
 21
2.9608475140848
 31
0.0
  0
LINE
  5
F103E4
330
261
100
AcDbEntity
  8
Geo
100
AcDbLine
 10
-14.0
 20
2.9608475140848
 30
0.0
 11
-13.9
 21
2.948766499789901
 31
0.0
  0
LINE
  5
F103E6
330
261
100
AcDbEntity
  8
Geo
100
AcDbLine
 10
-13.9
 20
2.948766499789901
 30
0.0
 11
-13.8
 21
2.935079166768002
 31
0.0
  0
LINE
  5
F103E8
330
261
100
AcDbEntity
  8
Geo
100
AcDbLine
 10
-13.8
 20
2.935079166768002
 30
0.0
 11
-13.7
 21
2.919792971092501
 31
0.0
  0
LINE
  5
F103EA
330
261
100
AcDbEntity
  8
Geo
100
AcDbLine
 10
-13.7
 20
2.919792971092501
 30
0.0
 11
-13.59999999999999
 21
2.902916239805403
 31
0.0
  0
LINE
  5
F103EC
330
261
100
AcDbEntity
  8
Geo
100
AcDbLine
 10
-13.59999999999999
 20
2.902916239805403
 30
0.0
 11
-13.5
 21
2.884458166381101
 31
0.0
  0
LINE
  5
F103EE
330
261
100
AcDbEntity
  8
Geo
100
AcDbLine
 10
-13.5
 20
2.884458166381101
 30
0.0
 11
-13.4
 21
2.864428805718503
 31
0.0
  0
LINE
  5
F103F0
330
261
100
AcDbEntity
  8
Geo
100
AcDbLine
 10
-13.4
 20
2.864428805718503
 30
0.0
 11
-13.3
 21
2.842839068663501
 31
0.0
  0
LINE
  5
F103F2
330
261
100
AcDbEntity
  8
Geo
100
AcDbLine
 10
-13.3
 20
2.842839068663501
 30
0.0
 11
-13.2
 21
2.819700716065803
 31
0.0
  0
LINE
  5
F103F4
330
261
100
AcDbEntity
  8
Geo
100
AcDbLine
 10
-13.2
 20
2.819700716065803
 30
0.0
 11
-13.09999999999999
 21
2.7950263523715
 31
0.0
  0
LINE
  5
F103F6
330
261
100
AcDbEntity
  8
Geo
100
AcDbLine
 10
-13.09999999999999
 20
2.7950263523715
 30
0.0
 11
-13.0
 21
2.7688294187577
 31
0.0
  0
LINE
  5
F103F8
330
261
100
AcDbEntity
  8
Geo
100
AcDbLine
 10
-13.0
 20
2.7688294187577
 30
0.0
 11
-12.9
 21
2.7411241858101
 31
0.0
  0
LINE
  5
F103FA
330
261
100
AcDbEntity
  8
Geo
100
AcDbLine
 10
-12.9
 20
2.7411241858101
 30
0.0
 11
-12.8
 21
2.7119257457494
 31
0.0
  0
LINE
  5
F103FC
330
261
100
AcDbEntity
  8
Geo
100
AcDbLine
 10
-12.8
 20
2.7119257457494
 30
0.0
 11
-12.7
 21
2.681250004209498
 31
0.0
  0
LINE
  5
F103FE
330
261
100
AcDbEntity
  8
Geo
100
AcDbLine
 10
-12.7
 20
2.681250004209498
 30
0.0
 11
-12.59999999999999
 21
2.6491136715738
 31
0.0
  0
LINE
  5
F10400
330
261
100
AcDbEntity
  8
Geo
100
AcDbLine
 10
-12.59999999999999
 20
2.6491136715738
 30
0.0
 11
-12.5
 21
2.615534253871501
 31
0.0
  0
LINE
  5
F10402
330
261
100
AcDbEntity
  8
Geo
100
AcDbLine
 10
-12.5
 20
2.615534253871501
 30
0.0
 11
-12.4
 21
2.580530043241999
 31
0.0
  0
LINE
  5
F10404
330
261
100
AcDbEntity
  8
Geo
100
AcDbLine
 10
-12.4
 20
2.580530043241999
 30
0.0
 11
-12.29999999999999
 21
2.5441201079699
 31
0.0
  0
LINE
  5
F10406
330
261
100
AcDbEntity
  8
Geo
100
AcDbLine
 10
-12.29999999999999
 20
2.5441201079699
 30
0.0
 11
-12.2
 21
2.506324282097901
 31
0.0
  0
LINE
  5
F10408
330
261
100
AcDbEntity
  8
Geo
100
AcDbLine
 10
-12.2
 20
2.506324282097901
 30
0.0
 11
-12.09999999999999
 21
2.467163154622602
 31
0.0
  0
LINE
  5
F1040A
330
261
100
AcDbEntity
  8
Geo
100
AcDbLine
 10
-12.09999999999999
 20
2.467163154622602
 30
0.0
 11
-12.0
 21
2.426658058278199
 31
0.0
  0
LINE
  5
F1040C
330
261
100
AcDbEntity
  8
Geo
100
AcDbLine
 10
-12.0
 20
2.426658058278199
 30
0.0
 11
-11.9
 21
2.384831057916301
 31
0.0
  0
LINE
  5
F1040E
330
261
100
AcDbEntity
  8
Geo
100
AcDbLine
 10
-11.9
 20
2.384831057916301
 30
0.0
 11
-11.79999999999999
 21
2.3417049384856
 31
0.0
  0
LINE
  5
F10410
330
261
100
AcDbEntity
  8
Geo
100
AcDbLine
 10
-11.79999999999999
 20
2.3417049384856
 30
0.0
 11
-11.7
 21
2.297303192620701
 31
0.0
  0
LINE
  5
F10412
330
261
100
AcDbEntity
  8
Geo
100
AcDbLine
 10
-11.7
 20
2.297303192620701
 30
0.0
 11
-11.59999999999999
 21
2.251650007843801
 31
0.0
  0
LINE
  5
F10414
330
261
100
AcDbEntity
  8
Geo
100
AcDbLine
 10
-11.59999999999999
 20
2.251650007843801
 30
0.0
 11
-11.5
 21
2.2047702533897
 31
0.0
  0
LINE
  5
F10416
330
261
100
AcDbEntity
  8
Geo
100
AcDbLine
 10
-11.5
 20
2.2047702533897
 30
0.0
 11
-11.4
 21
2.1566894666574
 31
0.0
  0
LINE
  5
F10418
330
261
100
AcDbEntity
  8
Geo
100
AcDbLine
 10
-11.4
 20
2.1566894666574
 30
0.0
 11
-11.29999999999999
 21
2.107433839299901
 31
0.0
  0
LINE
  5
F1041A
330
261
100
AcDbEntity
  8
Geo
100
AcDbLine
 10
-11.29999999999999
 20
2.107433839299901
 30
0.0
 11
-11.2
 21
2.057030202955402
 31
0.0
  0
LINE
  5
F1041C
330
261
100
AcDbEntity
  8
Geo
100
AcDbLine
 10
-11.2
 20
2.057030202955402
 30
0.0
 11
-11.09999999999999
 21
2.005506014631999
 31
0.0
  0
LINE
  5
F1041E
330
261
100
AcDbEntity
  8
Geo
100
AcDbLine
 10
-11.09999999999999
 20
2.005506014631999
 30
0.0
 11
-11.0
 21
1.9528893417498
 31
0.0
  0
LINE
  5
F10420
330
261
100
AcDbEntity
  8
Geo
100
AcDbLine
 10
-11.0
 20
1.9528893417498
 30
0.0
 11
-10.9
 21
1.899208846852001
 31
0.0
  0
LINE
  5
F10422
330
261
100
AcDbEntity
  8
Geo
100
AcDbLine
 10
-10.9
 20
1.899208846852001
 30
0.0
 11
-10.8
 21
1.844493771990901
 31
0.0
  0
LINE
  5
F10424
330
261
100
AcDbEntity
  8
Geo
100
AcDbLine
 10
-10.8
 20
1.844493771990901
 30
0.0
 11
-10.7
 21
1.788773922798601
 31
0.0
  0
LINE
  5
F10426
330
261
100
AcDbEntity
  8
Geo
100
AcDbLine
 10
-10.7
 20
1.788773922798601
 30
0.0
 11
-10.59999999999999
 21
1.7320796522506
 31
0.0
  0
LINE
  5
F10428
330
261
100
AcDbEntity
  8
Geo
100
AcDbLine
 10
-10.59999999999999
 20
1.7320796522506
 30
0.0
 11
-10.5
 21
1.674441844131001
 31
0.0
  0
LINE
  5
F1042A
330
261
100
AcDbEntity
  8
Geo
100
AcDbLine
 10
-10.5
 20
1.674441844131001
 30
0.0
 11
-10.4
 21
1.615891896209401
 31
0.0
  0
LINE
  5
F1042C
330
261
100
AcDbEntity
  8
Geo
100
AcDbLine
 10
-10.4
 20
1.615891896209401
 30
0.0
 11
-10.3
 21
1.5564617031366
 31
0.0
  0
LINE
  5
F1042E
330
261
100
AcDbEntity
  8
Geo
100
AcDbLine
 10
-10.3
 20
1.5564617031366
 30
0.0
 11
-10.2
 21
1.496183639070302
 31
0.0
  0
LINE
  5
F10430
330
261
100
AcDbEntity
  8
Geo
100
AcDbLine
 10
-10.2
 20
1.496183639070302
 30
0.0
 11
-10.09999999999999
 21
1.435090540039901
 31
0.0
  0
LINE
  5
F10432
330
261
100
AcDbEntity
  8
Geo
100
AcDbLine
 10
-10.09999999999999
 20
1.435090540039901
 30
0.0
 11
-10.0
 21
1.3732156860588
 31
0.0
  0
LINE
  5
F10434
330
261
100
AcDbEntity
  8
Geo
100
AcDbLine
 10
-10.0
 20
1.3732156860588
 30
0.0
 11
-9.900000000000005
 21
1.310592782996
 31
0.0
  0
LINE
  5
F10436
330
261
100
AcDbEntity
  8
Geo
100
AcDbLine
 10
-9.900000000000005
 20
1.310592782996
 30
0.0
 11
-9.799999999999997
 21
1.247255944214199
 31
0.0
  0
LINE
  5
F10438
330
261
100
AcDbEntity
  8
Geo
100
AcDbLine
 10
-9.799999999999997
 20
1.247255944214199
 30
0.0
 11
-9.700000000000002
 21
1.183239671987802
 31
0.0
  0
LINE
  5
F1043A
330
261
100
AcDbEntity
  8
Geo
100
AcDbLine
 10
-9.700000000000002
 20
1.183239671987802
 30
0.0
 11
-9.599999999999994
 21
1.1185788387072
 31
0.0
  0
LINE
  5
F1043C
330
261
100
AcDbEntity
  8
Geo
100
AcDbLine
 10
-9.599999999999994
 20
1.1185788387072
 30
0.0
 11
-9.5
 21
1.053308667882902
 31
0.0
  0
LINE
  5
F1043E
330
261
100
AcDbEntity
  8
Geo
100
AcDbLine
 10
-9.5
 20
1.053308667882902
 30
0.0
 11
-9.400000000000005
 21
0.9874647149572002
 31
0.0
  0
LINE
  5
F10440
330
261
100
AcDbEntity
  8
Geo
100
AcDbLine
 10
-9.400000000000005
 20
0.9874647149572002
 30
0.0
 11
-9.299999999999997
 21
0.9210828479361996
 31
0.0
  0
LINE
  5
F10442
330
261
100
AcDbEntity
  8
Geo
100
AcDbLine
 10
-9.299999999999997
 20
0.9210828479361996
 30
0.0
 11
-9.200000000000002
 21
0.8541992278508008
 31
0.0
  0
LINE
  5
F10444
330
261
100
AcDbEntity
  8
Geo
100
AcDbLine
 10
-9.200000000000002
 20
0.8541992278508008
 30
0.0
 11
-9.099999999999994
 21
0.7868502890579024
 31
0.0
  0
LINE
  5
F10446
330
261
100
AcDbEntity
  8
Geo
100
AcDbLine
 10
-9.099999999999994
 20
0.7868502890579024
 30
0.0
 11
-9.0
 21
0.7190727193935001
 31
0.0
  0
LINE
  5
F10448
330
261
100
AcDbEntity
  8
Geo
100
AcDbLine
 10
-9.0
 20
0.7190727193935001
 30
0.0
 11
-8.900000000000005
 21
0.6509034401871006
 31
0.0
  0
LINE
  5
F1044A
330
261
100
AcDbEntity
  8
Geo
100
AcDbLine
 10
-8.900000000000005
 20
0.6509034401871006
 30
0.0
 11
-8.799999999999997
 21
0.5823795861489014
 31
0.0
  0
LINE
  5
F1044C
330
261
100
AcDbEntity
  8
Geo
100
AcDbLine
 10
-8.799999999999997
 20
0.5823795861489014
 30
0.0
 11
-8.700000000000002
 21
0.5135384851413996
 31
0.0
  0
LINE
  5
F1044E
330
261
100
AcDbEntity
  8
Geo
100
AcDbLine
 10
-8.700000000000002
 20
0.5135384851413996
 30
0.0
 11
-8.599999999999994
 21
0.4444176378448024
 31
0.0
  0
LINE
  5
F10450
330
261
100
AcDbEntity
  8
Geo
100
AcDbLine
 10
-8.599999999999994
 20
0.4444176378448024
 30
0.0
 11
-8.5
 21
0.3750546973290998
 31
0.0
  0
LINE
  5
F10452
330
261
100
AcDbEntity
  8
Geo
100
AcDbLine
 10
-8.5
 20
0.3750546973290998
 30
0.0
 11
-8.400000000000005
 21
0.3054874485428005
 31
0.0
  0
LINE
  5
F10454
330
261
100
AcDbEntity
  8
Geo
100
AcDbLine
 10
-8.400000000000005
 20
0.3054874485428005
 30
0.0
 11
-8.299999999999997
 21
0.2357537877299016
 31
0.0
  0
LINE
  5
F10456
330
261
100
AcDbEntity
  8
Geo
100
AcDbLine
 10
-8.299999999999997
 20
0.2357537877299016
 30
0.0
 11
-8.200000000000002
 21
0.1658917017859025
 31
0.0
  0
LINE
  5
F10458
330
261
100
AcDbEntity
  8
Geo
100
AcDbLine
 10
-8.200000000000002
 20
0.1658917017859025
 30
0.0
 11
-8.099999999999994
 21
0.095939247565001
 31
0.0
  0
LINE
  5
F1045A
330
261
100
AcDbEntity
  8
Geo
100
AcDbLine
 10
-8.099999999999994
 20
0.095939247565001
 30
0.0
 11
-8.0
 21
0.0259345311492005
 31
0.0
  0
LINE
  5
F1045C
330
261
100
AcDbEntity
  8
Geo
100
AcDbLine
 10
-8.0
 20
0.0259345311492005
 30
0.0
 11
-8.0
 21
0.0259345311492005
 31
0.0
  0
LINE
  5
F1045E
330
261
100
AcDbEntity
  8
Geo
100
AcDbLine
 10
-8.0
 20
0.0259345311492005
 30
0.0
 11
-8.0
 21
0.0259345311492005
 31
0.0
  0
LINE
  5
F10460
330
261
100
AcDbEntity
  8
Geo
100
AcDbLine
 10
-8.0
 20
0.0259345311492005
 30
0.0
 11
-7.900000000000005
 21
0.0349843517477009
 31
0.0
  0
LINE
  5
F10462
330
261
100
AcDbEntity
  8
Geo
100
AcDbLine
 10
-7.900000000000005
 20
0.0349843517477009
 30
0.0
 11
-7.799999999999997
 21
0.0445362453963014
 31
0.0
  0
LINE
  5
F10464
330
261
100
AcDbEntity
  8
Geo
100
AcDbLine
 10
-7.799999999999997
 20
0.0445362453963014
 30
0.0
 11
-7.700000000000002
 21
0.0545900512295994
 31
0.0
  0
LINE
  5
F10466
330
261
100
AcDbEntity
  8
Geo
100
AcDbLine
 10
-7.700000000000002
 20
0.0545900512295994
 30
0.0
 11
-7.599999999999994
 21
0.0651455724121011
 31
0.0
  0
LINE
  5
F10468
330
261
100
AcDbEntity
  8
Geo
100
AcDbLine
 10
-7.599999999999994
 20
0.0651455724121011
 30
0.0
 11
-7.5
 21
0.0762025719128996
 31
0.0
  0
LINE
  5
F1046A
330
261
100
AcDbEntity
  8
Geo
100
AcDbLine
 10
-7.5
 20
0.0762025719128996
 30
0.0
 11
-7.400000000000005
 21
0.0877607680696997
 31
0.0
  0
LINE
  5
F1046C
330
261
100
AcDbEntity
  8
Geo
100
AcDbLine
 10
-7.400000000000005
 20
0.0877607680696997
 30
0.0
 11
-7.299999999999997
 21
0.0998198299453002
 31
0.0
  0
LINE
  5
F1046E
330
261
100
AcDbEntity
  8
Geo
100
AcDbLine
 10
-7.299999999999997
 20
0.0998198299453002
 30
0.0
 11
-7.200000000000002
 21
0.1123793724747006
 31
0.0
  0
LINE
  5
F10470
330
261
100
AcDbEntity
  8
Geo
100
AcDbLine
 10
-7.200000000000002
 20
0.1123793724747006
 30
0.0
 11
-7.099999999999994
 21
0.1254389514046021
 31
0.0
  0
LINE
  5
F10472
330
261
100
AcDbEntity
  8
Geo
100
AcDbLine
 10
-7.099999999999994
 20
0.1254389514046021
 30
0.0
 11
-7.0
 21
0.1389980580265018
 31
0.0
  0
LINE
  5
F10474
330
261
100
AcDbEntity
  8
Geo
100
AcDbLine
 10
-7.0
 20
0.1389980580265018
 30
0.0
 11
-6.900000000000005
 21
0.153056113702501
 31
0.0
  0
LINE
  5
F10476
330
261
100
AcDbEntity
  8
Geo
100
AcDbLine
 10
-6.900000000000005
 20
0.153056113702501
 30
0.0
 11
-6.799999999999997
 21
0.167612464187199
 31
0.0
  0
LINE
  5
F10478
330
261
100
AcDbEntity
  8
Geo
100
AcDbLine
 10
-6.799999999999997
 20
0.167612464187199
 30
0.0
 11
-6.700000000000002
 21
0.182666373744901
 31
0.0
  0
LINE
  5
F1047A
330
261
100
AcDbEntity
  8
Geo
100
AcDbLine
 10
-6.700000000000002
 20
0.182666373744901
 30
0.0
 11
-6.599999999999994
 21
0.1982170190640016
 31
0.0
  0
LINE
  5
F1047C
330
261
100
AcDbEntity
  8
Geo
100
AcDbLine
 10
-6.599999999999994
 20
0.1982170190640016
 30
0.0
 11
-6.5
 21
0.2142634829704004
 31
0.0
  0
LINE
  5
F1047E
330
261
100
AcDbEntity
  8
Geo
100
AcDbLine
 10
-6.5
 20
0.2142634829704004
 30
0.0
 11
-6.400000000000005
 21
0.230804747940601
 31
0.0
  0
LINE
  5
F10480
330
261
100
AcDbEntity
  8
Geo
100
AcDbLine
 10
-6.400000000000005
 20
0.230804747940601
 30
0.0
 11
-6.299999999999997
 21
0.247839689417102
 31
0.0
  0
LINE
  5
F10482
330
261
100
AcDbEntity
  8
Geo
100
AcDbLine
 10
-6.299999999999997
 20
0.247839689417102
 30
0.0
 11
-6.200000000000002
 21
0.2653670689274019
 31
0.0
  0
LINE
  5
F10484
330
261
100
AcDbEntity
  8
Geo
100
AcDbLine
 10
-6.200000000000002
 20
0.2653670689274019
 30
0.0
 11
-6.099999999999994
 21
0.2833855270091003
 31
0.0
  0
LINE
  5
F10486
330
261
100
AcDbEntity
  8
Geo
100
AcDbLine
 10
-6.099999999999994
 20
0.2833855270091003
 30
0.0
 11
-6.0
 21
0.301893575942902
 31
0.0
  0
LINE
  5
F10488
330
261
100
AcDbEntity
  8
Geo
100
AcDbLine
 10
-6.0
 20
0.301893575942902
 30
0.0
 11
-5.900000000000005
 21
0.3208895922964015
 31
0.0
  0
LINE
  5
F1048A
330
261
100
AcDbEntity
  8
Geo
100
AcDbLine
 10
-5.900000000000005
 20
0.3208895922964015
 30
0.0
 11
-5.799999999999997
 21
0.3403718092814998
 31
0.0
  0
LINE
  5
F1048C
330
261
100
AcDbEntity
  8
Geo
100
AcDbLine
 10
-5.799999999999997
 20
0.3403718092814998
 30
0.0
 11
-5.700000000000002
 21
0.3603383089283998
 31
0.0
  0
LINE
  5
F1048E
330
261
100
AcDbEntity
  8
Geo
100
AcDbLine
 10
-5.700000000000002
 20
0.3603383089283998
 30
0.0
 11
-5.599999999999994
 21
0.3807870140785994
 31
0.0
  0
LINE
  5
F10490
330
261
100
AcDbEntity
  8
Geo
100
AcDbLine
 10
-5.599999999999994
 20
0.3807870140785994
 30
0.0
 11
-5.5
 21
0.4017156802017006
 31
0.0
  0
LINE
  5
F10492
330
261
100
AcDbEntity
  8
Geo
100
AcDbLine
 10
-5.5
 20
0.4017156802017006
 30
0.0
 11
-5.5
 21
0.4017156802017006
 31
0.0
  0
LINE
  5
F10494
330
261
100
AcDbEntity
  8
Geo
100
AcDbLine
 10
-18.0
 20
1.7362421873626
 30
0.0
 11
-17.9
 21
1.7155917756304
 31
0.0
  0
LINE
  5
F10496
330
261
100
AcDbEntity
  8
Geo
100
AcDbLine
 10
-18.0
 20
-2.319381538070098
 30
0.0
 11
-17.9
 21
-2.415261437422898
 31
0.0
  0
LINE
  5
F10498
330
261
100
AcDbEntity
  8
Geo
100
AcDbLine
 10
-17.9
 20
1.7155917756304
 30
0.0
 11
-17.8
 21
1.6522976746352
 31
0.0
  0
LINE
  5
F1049A
330
261
100
AcDbEntity
  8
Geo
100
AcDbLine
 10
-17.9
 20
-2.415261437422898
 30
0.0
 11
-17.8
 21
-2.454413795363599
 31
0.0
  0
LINE
  5
F1049C
330
261
100
AcDbEntity
  8
Geo
100
AcDbLine
 10
-17.8
 20
1.6522976746352
 30
0.0
 11
-17.7
 21
1.587882998701699
 31
0.0
  0
LINE
  5
F1049E
330
261
100
AcDbEntity
  8
Geo
100
AcDbLine
 10
-17.8
 20
-2.454413795363599
 30
0.0
 11
-17.7
 21
-2.492229129554299
 31
0.0
  0
LINE
  5
F104A0
330
261
100
AcDbEntity
  8
Geo
100
AcDbLine
 10
-17.7
 20
1.587882998701699
 30
0.0
 11
-17.59999999999999
 21
1.522391433342901
 31
0.0
  0
LINE
  5
F104A2
330
261
100
AcDbEntity
  8
Geo
100
AcDbLine
 10
-17.7
 20
-2.492229129554299
 30
0.0
 11
-17.59999999999999
 21
-2.528686840371697
 31
0.0
  0
LINE
  5
F104A4
330
261
100
AcDbEntity
  8
Geo
100
AcDbLine
 10
-17.59999999999999
 20
1.522391433342901
 30
0.0
 11
-17.5
 21
1.4558673944094
 31
0.0
  0
LINE
  5
F104A6
330
261
100
AcDbEntity
  8
Geo
100
AcDbLine
 10
-17.59999999999999
 20
-2.528686840371697
 30
0.0
 11
-17.5
 21
-2.563767067747498
 31
0.0
  0
LINE
  5
F104A8
330
261
100
AcDbEntity
  8
Geo
100
AcDbLine
 10
-17.5
 20
1.4558673944094
 30
0.0
 11
-17.4
 21
1.388355997967101
 31
0.0
  0
LINE
  5
F104AA
330
261
100
AcDbEntity
  8
Geo
100
AcDbLine
 10
-17.5
 20
-2.563767067747498
 30
0.0
 11
-17.4
 21
-2.597450701987598
 31
0.0
  0
LINE
  5
F104AC
330
261
100
AcDbEntity
  8
Geo
100
AcDbLine
 10
-17.4
 20
1.388355997967101
 30
0.0
 11
-17.29999999999999
 21
1.3199030297
 31
0.0
  0
LINE
  5
F104AE
330
261
100
AcDbEntity
  8
Geo
100
AcDbLine
 10
-17.4
 20
-2.597450701987598
 30
0.0
 11
-17.29999999999999
 21
-2.629719394181497
 31
0.0
  0
LINE
  5
F104B0
330
261
100
AcDbEntity
  8
Geo
100
AcDbLine
 10
-17.29999999999999
 20
1.3199030297
 30
0.0
 11
-17.2
 21
1.2505549138582
 31
0.0
  0
LINE
  5
F104B2
330
261
100
AcDbEntity
  8
Geo
100
AcDbLine
 10
-17.29999999999999
 20
-2.629719394181497
 30
0.0
 11
-17.2
 21
-2.660555566197899
 31
0.0
  0
LINE
  5
F104B4
330
261
100
AcDbEntity
  8
Geo
100
AcDbLine
 10
-17.2
 20
1.2505549138582
 30
0.0
 11
-17.09999999999999
 21
1.180358681773698
 31
0.0
  0
LINE
  5
F104B6
330
261
100
AcDbEntity
  8
Geo
100
AcDbLine
 10
-17.2
 20
-2.660555566197899
 30
0.0
 11
-17.09999999999999
 21
-2.689942420260399
 31
0.0
  0
LINE
  5
F104B8
330
261
100
AcDbEntity
  8
Geo
100
AcDbLine
 10
-17.09999999999999
 20
1.180358681773698
 30
0.0
 11
-17.0
 21
1.109361939964299
 31
0.0
  0
LINE
  5
F104BA
330
261
100
AcDbEntity
  8
Geo
100
AcDbLine
 10
-17.09999999999999
 20
-2.689942420260399
 30
0.0
 11
-17.0
 21
-2.717863948097699
 31
0.0
  0
LINE
  5
F104BC
330
261
100
AcDbEntity
  8
Geo
100
AcDbLine
 10
-17.0
 20
1.109361939964299
 30
0.0
 11
-16.9
 21
1.0376128378469
 31
0.0
  0
LINE
  5
F104BE
330
261
100
AcDbEntity
  8
Geo
100
AcDbLine
 10
-17.0
 20
-2.717863948097699
 30
0.0
 11
-16.9
 21
-2.744304939664099
 31
0.0
  0
LINE
  5
F104C0
330
261
100
AcDbEntity
  8
Geo
100
AcDbLine
 10
-16.9
 20
1.0376128378469
 30
0.0
 11
-16.79999999999999
 21
0.9651600350830022
 31
0.0
  0
LINE
  5
F104C2
330
261
100
AcDbEntity
  8
Geo
100
AcDbLine
 10
-16.9
 20
-2.744304939664099
 30
0.0
 11
-16.79999999999999
 21
-2.769250991425197
 31
0.0
  0
LINE
  5
F104C4
330
261
100
AcDbEntity
  8
Geo
100
AcDbLine
 10
-16.79999999999999
 20
0.9651600350830022
 30
0.0
 11
-16.7
 21
0.8920526685784011
 31
0.0
  0
LINE
  5
F104C6
330
261
100
AcDbEntity
  8
Geo
100
AcDbLine
 10
-16.79999999999999
 20
-2.769250991425197
 30
0.0
 11
-16.7
 21
-2.7926885142039
 31
0.0
  0
LINE
  5
F104C8
330
261
100
AcDbEntity
  8
Geo
100
AcDbLine
 10
-16.7
 20
0.8920526685784011
 30
0.0
 11
-16.59999999999999
 21
0.8183403191584996
 31
0.0
  0
LINE
  5
F104CA
330
261
100
AcDbEntity
  8
Geo
100
AcDbLine
 10
-16.7
 20
-2.7926885142039
 30
0.0
 11
-16.59999999999999
 21
-2.814604740583099
 31
0.0
  0
LINE
  5
F104CC
330
261
100
AcDbEntity
  8
Geo
100
AcDbLine
 10
-16.59999999999999
 20
0.8183403191584996
 30
0.0
 11
-16.5
 21
0.7440729779434001
 31
0.0
  0
LINE
  5
F104CE
330
261
100
AcDbEntity
  8
Geo
100
AcDbLine
 10
-16.59999999999999
 20
-2.814604740583099
 30
0.0
 11
-16.5
 21
-2.834987731860799
 31
0.0
  0
LINE
  5
F104D0
330
261
100
AcDbEntity
  8
Geo
100
AcDbLine
 10
-16.5
 20
0.7440729779434001
 30
0.0
 11
-16.4
 21
0.6693010124440022
 31
0.0
  0
LINE
  5
F104D2
330
261
100
AcDbEntity
  8
Geo
100
AcDbLine
 10
-16.5
 20
-2.834987731860799
 30
0.0
 11
-16.4
 21
-2.853826384553197
 31
0.0
  0
LINE
  5
F104D4
330
261
100
AcDbEntity
  8
Geo
100
AcDbLine
 10
-16.4
 20
0.6693010124440022
 30
0.0
 11
-16.3
 21
0.5940751324036011
 31
0.0
  0
LINE
  5
F104D6
330
261
100
AcDbEntity
  8
Geo
100
AcDbLine
 10
-16.4
 20
-2.853826384553197
 30
0.0
 11
-16.3
 21
-2.8711104364438
 31
0.0
  0
LINE
  5
F104D8
330
261
100
AcDbEntity
  8
Geo
100
AcDbLine
 10
-16.3
 20
0.5940751324036011
 30
0.0
 11
-16.2
 21
0.5184463554063026
 31
0.0
  0
LINE
  5
F104DA
330
261
100
AcDbEntity
  8
Geo
100
AcDbLine
 10
-16.3
 20
-2.8711104364438
 30
0.0
 11
-16.2
 21
-2.886830472173198
 31
0.0
  0
LINE
  5
F104DC
330
261
100
AcDbEntity
  8
Geo
100
AcDbLine
 10
-16.2
 20
0.5184463554063026
 30
0.0
 11
-16.09999999999999
 21
0.4424659722780007
 31
0.0
  0
LINE
  5
F104DE
330
261
100
AcDbEntity
  8
Geo
100
AcDbLine
 10
-16.2
 20
-2.886830472173198
 30
0.0
 11
-16.09999999999999
 21
-2.9009779283683
 31
0.0
  0
LINE
  5
F104E0
330
261
100
AcDbEntity
  8
Geo
100
AcDbLine
 10
-16.09999999999999
 20
0.4424659722780007
 30
0.0
 11
-16.0
 21
0.3661855123008024
 31
0.0
  0
LINE
  5
F104E2
330
261
100
AcDbEntity
  8
Geo
100
AcDbLine
 10
-16.09999999999999
 20
-2.9009779283683
 30
0.0
 11
-16.0
 21
-2.913545098306999
 31
0.0
  0
LINE
  5
F104E4
330
261
100
AcDbEntity
  8
Geo
100
AcDbLine
 10
-16.0
 20
0.3661855123008024
 30
0.0
 11
-15.9
 21
0.2896567082665999
 31
0.0
  0
LINE
  5
F104E6
330
261
100
AcDbEntity
  8
Geo
100
AcDbLine
 10
-16.0
 20
-2.913545098306999
 30
0.0
 11
-15.9
 21
-2.924525136116498
 31
0.0
  0
LINE
  5
F104E8
330
261
100
AcDbEntity
  8
Geo
100
AcDbLine
 10
-15.9
 20
0.2896567082665999
 30
0.0
 11
-15.8
 21
0.2129314613923015
 31
0.0
  0
LINE
  5
F104EA
330
261
100
AcDbEntity
  8
Geo
100
AcDbLine
 10
-15.9
 20
-2.924525136116498
 30
0.0
 11
-15.8
 21
-2.933912060502498
 31
0.0
  0
LINE
  5
F104EC
330
261
100
AcDbEntity
  8
Geo
100
AcDbLine
 10
-15.8
 20
0.2129314613923015
 30
0.0
 11
-15.7
 21
0.1360618061205994
 31
0.0
  0
LINE
  5
F104EE
330
261
100
AcDbEntity
  8
Geo
100
AcDbLine
 10
-15.8
 20
-2.933912060502498
 30
0.0
 11
-15.7
 21
-2.9417007580073
 31
0.0
  0
LINE
  5
F104F0
330
261
100
AcDbEntity
  8
Geo
100
AcDbLine
 10
-15.7
 20
0.1360618061205994
 30
0.0
 11
-15.59999999999999
 21
0.0590998748308032
 31
0.0
  0
LINE
  5
F104F2
330
261
100
AcDbEntity
  8
Geo
100
AcDbLine
 10
-15.7
 20
-2.9417007580073
 30
0.0
 11
-15.59999999999999
 21
-2.947886985795799
 31
0.0
  0
LINE
  5
F104F4
330
261
100
AcDbEntity
  8
Geo
100
AcDbLine
 10
-15.59999999999999
 20
0.0590998748308032
 30
0.0
 11
-15.5
 21
-0.0179021375166979
 31
0.0
  0
LINE
  5
F104F6
330
261
100
AcDbEntity
  8
Geo
100
AcDbLine
 10
-15.59999999999999
 20
-2.947886985795799
 30
0.0
 11
-15.5
 21
-2.9524673739659
 31
0.0
  0
LINE
  5
F104F8
330
261
100
AcDbEntity
  8
Geo
100
AcDbLine
 10
-15.5
 20
-0.0179021375166979
 30
0.0
 11
-15.4
 21
-0.0948920087791976
 31
0.0
  0
LINE
  5
F104FA
330
261
100
AcDbEntity
  8
Geo
100
AcDbLine
 10
-15.5
 20
-2.9524673739659
 30
0.0
 11
-15.4
 21
-2.9554394273853
 31
0.0
  0
LINE
  5
F104FC
330
261
100
AcDbEntity
  8
Geo
100
AcDbLine
 10
-15.4
 20
-0.0948920087791976
 30
0.0
 11
-15.3
 21
-0.1718175250476985
 31
0.0
  0
LINE
  5
F104FE
330
261
100
AcDbEntity
  8
Geo
100
AcDbLine
 10
-15.4
 20
-2.9554394273853
 30
0.0
 11
-15.3
 21
-2.956801527049799
 31
0.0
  0
LINE
  5
F10500
330
261
100
AcDbEntity
  8
Geo
100
AcDbLine
 10
-15.3
 20
-0.1718175250476985
 30
0.0
 11
-15.2
 21
-0.2486265160583976
 31
0.0
  0
LINE
  5
F10502
330
261
100
AcDbEntity
  8
Geo
100
AcDbLine
 10
-15.2
 20
-0.2486265160583976
 30
0.0
 11
-15.09999999999999
 21
-0.3252668905738005
 31
0.0
  0
LINE
  5
F10504
330
261
100
AcDbEntity
  8
Geo
100
AcDbLine
 10
-15.2
 20
2.956552930965699
 30
0.0
 11
-15.09999999999999
 21
2.954693774553902
 31
0.0
  0
LINE
  5
F10506
330
261
100
AcDbEntity
  8
Geo
100
AcDbLine
 10
-15.09999999999999
 20
-0.3252668905738005
 30
0.0
 11
-15.0
 21
-0.4016866717110972
 31
0.0
  0
LINE
  5
F10508
330
261
100
AcDbEntity
  8
Geo
100
AcDbLine
 10
-15.09999999999999
 20
2.954693774553902
 30
0.0
 11
-15.0
 21
2.951225070576001
 31
0.0
  0
LINE
  5
F1050A
330
261
100
AcDbEntity
  8
Geo
100
AcDbLine
 10
-15.0
 20
-0.4016866717110972
 30
0.0
 11
-14.9
 21
-0.4778340321919004
 31
0.0
  0
LINE
  5
F1050C
330
261
100
AcDbEntity
  8
Geo
100
AcDbLine
 10
-15.0
 20
2.951225070576001
 30
0.0
 11
-14.9
 21
2.946148708582899
 31
0.0
  0
LINE
  5
F1050E
330
261
100
AcDbEntity
  8
Geo
100
AcDbLine
 10
-14.9
 20
-0.4778340321919004
 30
0.0
 11
-14.79999999999999
 21
-0.5536573294910987
 31
0.0
  0
LINE
  5
F10510
330
261
100
AcDbEntity
  8
Geo
100
AcDbLine
 10
-14.9
 20
2.946148708582899
 30
0.0
 11
-14.79999999999999
 21
2.9394674538852
 31
0.0
  0
LINE
  5
F10512
330
261
100
AcDbEntity
  8
Geo
100
AcDbLine
 10
-14.79999999999999
 20
-0.5536573294910987
 30
0.0
 11
-14.7
 21
-0.6291051408610997
 31
0.0
  0
LINE
  5
F10514
330
261
100
AcDbEntity
  8
Geo
100
AcDbLine
 10
-14.79999999999999
 20
2.9394674538852
 30
0.0
 11
-14.7
 21
2.931184946046901
 31
0.0
  0
LINE
  5
F10516
330
261
100
AcDbEntity
  8
Geo
100
AcDbLine
 10
-14.7
 20
-0.6291051408610997
 30
0.0
 11
-14.59999999999999
 21
-0.7041262982054004
 31
0.0
  0
LINE
  5
F10518
330
261
100
AcDbEntity
  8
Geo
100
AcDbLine
 10
-14.7
 20
2.931184946046901
 30
0.0
 11
-14.59999999999999
 21
2.921305696903001
 31
0.0
  0
LINE
  5
F1051A
330
261
100
AcDbEntity
  8
Geo
100
AcDbLine
 10
-14.59999999999999
 20
-0.7041262982054004
 30
0.0
 11
-14.5
 21
-0.7786699227810985
 31
0.0
  0
LINE
  5
F1051C
330
261
100
AcDbEntity
  8
Geo
100
AcDbLine
 10
-14.59999999999999
 20
2.921305696903001
 30
0.0
 11
-14.5
 21
2.9098350881012
 31
0.0
  0
LINE
  5
F1051E
330
261
100
AcDbEntity
  8
Geo
100
AcDbLine
 10
-14.5
 20
-0.7786699227810985
 30
0.0
 11
-14.4
 21
-0.8526854597040003
 31
0.0
  0
LINE
  5
F10520
330
261
100
AcDbEntity
  8
Geo
100
AcDbLine
 10
-14.5
 20
2.9098350881012
 30
0.0
 11
-14.4
 21
2.8967793681708
 31
0.0
  0
LINE
  5
F10522
330
261
100
AcDbEntity
  8
Geo
100
AcDbLine
 10
-14.4
 20
-0.8526854597040003
 30
0.0
 11
-14.29999999999999
 21
-0.9261227122346991
 31
0.0
  0
LINE
  5
F10524
330
261
100
AcDbEntity
  8
Geo
100
AcDbLine
 10
-14.4
 20
2.8967793681708
 30
0.0
 11
-14.29999999999999
 21
2.882145649118697
 31
0.0
  0
LINE
  5
F10526
330
261
100
AcDbEntity
  8
Geo
100
AcDbLine
 10
-14.29999999999999
 20
-0.9261227122346991
 30
0.0
 11
-14.2
 21
-0.9989318758217997
 31
0.0
  0
LINE
  5
F10528
330
261
100
AcDbEntity
  8
Geo
100
AcDbLine
 10
-14.29999999999999
 20
2.882145649118697
 30
0.0
 11
-14.2
 21
2.865941902554901
 31
0.0
  0
LINE
  5
F1052A
330
261
100
AcDbEntity
  8
Geo
100
AcDbLine
 10
-14.2
 20
-0.9989318758217997
 30
0.0
 11
-14.09999999999999
 21
-1.071063571878399
 31
0.0
  0
LINE
  5
F1052C
330
261
100
AcDbEntity
  8
Geo
100
AcDbLine
 10
-14.2
 20
2.865941902554901
 30
0.0
 11
-14.09999999999999
 21
2.848176955350499
 31
0.0
  0
LINE
  5
F1052E
330
261
100
AcDbEntity
  8
Geo
100
AcDbLine
 10
-14.09999999999999
 20
-1.071063571878399
 30
0.0
 11
-14.0
 21
-1.142468881270898
 31
0.0
  0
LINE
  5
F10530
330
261
100
AcDbEntity
  8
Geo
100
AcDbLine
 10
-14.09999999999999
 20
2.848176955350499
 30
0.0
 11
-14.0
 21
2.828860484828901
 31
0.0
  0
LINE
  5
F10532
330
261
100
AcDbEntity
  8
Geo
100
AcDbLine
 10
-14.0
 20
-1.142468881270898
 30
0.0
 11
-13.9
 21
-1.213099377495199
 31
0.0
  0
LINE
  5
F10534
330
261
100
AcDbEntity
  8
Geo
100
AcDbLine
 10
-14.0
 20
2.828860484828901
 30
0.0
 11
-13.9
 21
2.808003013494701
 31
0.0
  0
LINE
  5
F10536
330
261
100
AcDbEntity
  8
Geo
100
AcDbLine
 10
-13.9
 20
-1.213099377495199
 30
0.0
 11
-13.8
 21
-1.282907159519098
 31
0.0
  0
LINE
  5
F10538
330
261
100
AcDbEntity
  8
Geo
100
AcDbLine
 10
-13.9
 20
2.808003013494701
 30
0.0
 11
-13.8
 21
2.785615903300801
 31
0.0
  0
LINE
  5
F1053A
330
261
100
AcDbEntity
  8
Geo
100
AcDbLine
 10
-13.8
 20
-1.282907159519098
 30
0.0
 11
-13.7
 21
-1.351844884268697
 31
0.0
  0
LINE
  5
F1053C
330
261
100
AcDbEntity
  8
Geo
100
AcDbLine
 10
-13.8
 20
2.785615903300801
 30
0.0
 11
-13.7
 21
2.761711349459901
 31
0.0
  0
LINE
  5
F1053E
330
261
100
AcDbEntity
  8
Geo
100
AcDbLine
 10
-13.7
 20
-1.351844884268697
 30
0.0
 11
-13.59999999999999
 21
-1.4198657987358
 31
0.0
  0
LINE
  5
F10540
330
261
100
AcDbEntity
  8
Geo
100
AcDbLine
 10
-13.7
 20
2.761711349459901
 30
0.0
 11
-13.59999999999999
 21
2.7363023738008
 31
0.0
  0
LINE
  5
F10542
330
261
100
AcDbEntity
  8
Geo
100
AcDbLine
 10
-13.59999999999999
 20
-1.4198657987358
 30
0.0
 11
-13.5
 21
-1.486923771685599
 31
0.0
  0
LINE
  5
F10544
330
261
100
AcDbEntity
  8
Geo
100
AcDbLine
 10
-13.59999999999999
 20
2.7363023738008
 30
0.0
 11
-13.5
 21
2.709402817674899
 31
0.0
  0
LINE
  5
F10546
330
261
100
AcDbEntity
  8
Geo
100
AcDbLine
 10
-13.5
 20
-1.486923771685599
 30
0.0
 11
-13.4
 21
-1.552973324942399
 31
0.0
  0
LINE
  5
F10548
330
261
100
AcDbEntity
  8
Geo
100
AcDbLine
 10
-13.5
 20
2.709402817674899
 30
0.0
 11
-13.4
 21
2.681027334416302
 31
0.0
  0
LINE
  5
F1054A
330
261
100
AcDbEntity
  8
Geo
100
AcDbLine
 10
-13.4
 20
-1.552973324942399
 30
0.0
 11
-13.3
 21
-1.617969664232697
 31
0.0
  0
LINE
  5
F1054C
330
261
100
AcDbEntity
  8
Geo
100
AcDbLine
 10
-13.4
 20
2.681027334416302
 30
0.0
 11
-13.3
 21
2.651191381359499
 31
0.0
  0
LINE
  5
F1054E
330
261
100
AcDbEntity
  8
Geo
100
AcDbLine
 10
-13.3
 20
-1.617969664232697
 30
0.0
 11
-13.2
 21
-1.681868709564097
 31
0.0
  0
LINE
  5
F10550
330
261
100
AcDbEntity
  8
Geo
100
AcDbLine
 10
-13.3
 20
2.651191381359499
 30
0.0
 11
-13.2
 21
2.6199112114192
 31
0.0
  0
LINE
  5
F10552
330
261
100
AcDbEntity
  8
Geo
100
AcDbLine
 10
-13.2
 20
-1.681868709564097
 30
0.0
 11
-13.09999999999999
 21
-1.7446271251201
 31
0.0
  0
LINE
  5
F10554
330
261
100
AcDbEntity
  8
Geo
100
AcDbLine
 10
-13.2
 20
2.6199112114192
 30
0.0
 11
-13.09999999999999
 21
2.5872038642364
 31
0.0
  0
LINE
  5
F10556
330
261
100
AcDbEntity
  8
Geo
100
AcDbLine
 10
-13.09999999999999
 20
-1.7446271251201
 30
0.0
 11
-13.0
 21
-1.806202348650099
 31
0.0
  0
LINE
  5
F10558
330
261
100
AcDbEntity
  8
Geo
100
AcDbLine
 10
-13.09999999999999
 20
2.5872038642364
 30
0.0
 11
-13.0
 21
2.553087156896401
 31
0.0
  0
LINE
  5
F1055A
330
261
100
AcDbEntity
  8
Geo
100
AcDbLine
 10
-13.0
 20
-1.806202348650099
 30
0.0
 11
-12.9
 21
-1.8665526203349
 31
0.0
  0
LINE
  5
F1055C
330
261
100
AcDbEntity
  8
Geo
100
AcDbLine
 10
-13.0
 20
2.553087156896401
 30
0.0
 11
-12.9
 21
2.5175796742231
 31
0.0
  0
LINE
  5
F1055E
330
261
100
AcDbEntity
  8
Geo
100
AcDbLine
 10
-12.9
 20
-1.8665526203349
 30
0.0
 11
-12.8
 21
-1.925637011107498
 31
0.0
  0
LINE
  5
F10560
330
261
100
AcDbEntity
  8
Geo
100
AcDbLine
 10
-12.9
 20
2.5175796742231
 30
0.0
 11
-12.8
 21
2.480700758654799
 31
0.0
  0
LINE
  5
F10562
330
261
100
AcDbEntity
  8
Geo
100
AcDbLine
 10
-12.8
 20
-1.925637011107498
 30
0.0
 11
-12.7
 21
-1.983415450411399
 31
0.0
  0
LINE
  5
F10564
330
261
100
AcDbEntity
  8
Geo
100
AcDbLine
 10
-12.8
 20
2.480700758654799
 30
0.0
 11
-12.7
 21
2.442470499707802
 31
0.0
  0
LINE
  5
F10566
330
261
100
AcDbEntity
  8
Geo
100
AcDbLine
 10
-12.7
 20
-1.983415450411399
 30
0.0
 11
-12.59999999999999
 21
-2.0398487533758
 31
0.0
  0
LINE
  5
F10568
330
261
100
AcDbEntity
  8
Geo
100
AcDbLine
 10
-12.7
 20
2.442470499707802
 30
0.0
 11
-12.59999999999999
 21
2.4029097230329
 31
0.0
  0
LINE
  5
F1056A
330
261
100
AcDbEntity
  8
Geo
100
AcDbLine
 10
-12.59999999999999
 20
-2.0398487533758
 30
0.0
 11
-12.5
 21
-2.094898647390197
 31
0.0
  0
LINE
  5
F1056C
330
261
100
AcDbEntity
  8
Geo
100
AcDbLine
 10
-12.59999999999999
 20
2.4029097230329
 30
0.0
 11
-12.5
 21
2.3620399790702
 31
0.0
  0
LINE
  5
F1056E
330
261
100
AcDbEntity
  8
Geo
100
AcDbLine
 10
-12.5
 20
-2.094898647390197
 30
0.0
 11
-12.4
 21
-2.148527798061097
 31
0.0
  0
LINE
  5
F10570
330
261
100
AcDbEntity
  8
Geo
100
AcDbLine
 10
-12.5
 20
2.3620399790702
 30
0.0
 11
-12.4
 21
2.319883531310301
 31
0.0
  0
LINE
  5
F10572
330
261
100
AcDbEntity
  8
Geo
100
AcDbLine
 10
-12.4
 20
-2.148527798061097
 30
0.0
 11
-12.29999999999999
 21
-2.2006998345318
 31
0.0
  0
LINE
  5
F10574
330
261
100
AcDbEntity
  8
Geo
100
AcDbLine
 10
-12.4
 20
2.319883531310301
 30
0.0
 11
-12.29999999999999
 21
2.276463344166199
 31
0.0
  0
LINE
  5
F10576
330
261
100
AcDbEntity
  8
Geo
100
AcDbLine
 10
-12.29999999999999
 20
-2.2006998345318
 30
0.0
 11
-12.2
 21
-2.251379374148399
 31
0.0
  0
LINE
  5
F10578
330
261
100
AcDbEntity
  8
Geo
100
AcDbLine
 10
-12.29999999999999
 20
2.276463344166199
 30
0.0
 11
-12.2
 21
2.231803070463401
 31
0.0
  0
LINE
  5
F1057A
330
261
100
AcDbEntity
  8
Geo
100
AcDbLine
 10
-12.2
 20
-2.251379374148399
 30
0.0
 11
-12.09999999999999
 21
-2.300532046456499
 31
0.0
  0
LINE
  5
F1057C
330
261
100
AcDbEntity
  8
Geo
100
AcDbLine
 10
-12.2
 20
2.231803070463401
 30
0.0
 11
-12.09999999999999
 21
2.185927038555599
 31
0.0
  0
LINE
  5
F1057E
330
261
100
AcDbEntity
  8
Geo
100
AcDbLine
 10
-12.09999999999999
 20
-2.300532046456499
 30
0.0
 11
-12.0
 21
-2.348124516510697
 31
0.0
  0
LINE
  5
F10580
330
261
100
AcDbEntity
  8
Geo
100
AcDbLine
 10
-12.09999999999999
 20
2.185927038555599
 30
0.0
 11
-12.0
 21
2.138860239071501
 31
0.0
  0
LINE
  5
F10582
330
261
100
AcDbEntity
  8
Geo
100
AcDbLine
 10
-12.0
 20
-2.348124516510697
 30
0.0
 11
-11.9
 21
-2.394124507482198
 31
0.0
  0
LINE
  5
F10584
330
261
100
AcDbEntity
  8
Geo
100
AcDbLine
 10
-12.0
 20
2.138860239071501
 30
0.0
 11
-11.9
 21
2.090628311301802
 31
0.0
  0
LINE
  5
F10586
330
261
100
AcDbEntity
  8
Geo
100
AcDbLine
 10
-11.9
 20
-2.394124507482198
 30
0.0
 11
-11.79999999999999
 21
-2.438500822548597
 31
0.0
  0
LINE
  5
F10588
330
261
100
AcDbEntity
  8
Geo
100
AcDbLine
 10
-11.9
 20
2.090628311301802
 30
0.0
 11
-11.79999999999999
 21
2.0412575292323
 31
0.0
  0
LINE
  5
F1058A
330
261
100
AcDbEntity
  8
Geo
100
AcDbLine
 10
-11.79999999999999
 20
-2.438500822548597
 30
0.0
 11
-11.7
 21
-2.481223366051398
 31
0.0
  0
LINE
  5
F1058C
330
261
100
AcDbEntity
  8
Geo
100
AcDbLine
 10
-11.79999999999999
 20
2.0412575292323
 30
0.0
 11
-11.7
 21
1.990774787231101
 31
0.0
  0
LINE
  5
F1058E
330
261
100
AcDbEntity
  8
Geo
100
AcDbLine
 10
-11.7
 20
-2.481223366051398
 30
0.0
 11
-11.59999999999999
 21
-2.522263163906799
 31
0.0
  0
LINE
  5
F10590
330
261
100
AcDbEntity
  8
Geo
100
AcDbLine
 10
-11.7
 20
1.990774787231101
 30
0.0
 11
-11.59999999999999
 21
1.9392075853982
 31
0.0
  0
LINE
  5
F10592
330
261
100
AcDbEntity
  8
Geo
100
AcDbLine
 10
-11.59999999999999
 20
-2.522263163906799
 30
0.0
 11
-11.5
 21
-2.561592383255099
 31
0.0
  0
LINE
  5
F10594
330
261
100
AcDbEntity
  8
Geo
100
AcDbLine
 10
-11.59999999999999
 20
1.9392075853982
 30
0.0
 11
-11.5
 21
1.886584014585199
 31
0.0
  0
LINE
  5
F10596
330
261
100
AcDbEntity
  8
Geo
100
AcDbLine
 10
-11.5
 20
-2.561592383255099
 30
0.0
 11
-11.4
 21
-2.599184351337598
 31
0.0
  0
LINE
  5
F10598
330
261
100
AcDbEntity
  8
Geo
100
AcDbLine
 10
-11.5
 20
1.886584014585199
 30
0.0
 11
-11.4
 21
1.832932741092802
 31
0.0
  0
LINE
  5
F1059A
330
261
100
AcDbEntity
  8
Geo
100
AcDbLine
 10
-11.4
 20
-2.599184351337598
 30
0.0
 11
-11.29999999999999
 21
-2.635013573584998
 31
0.0
  0
LINE
  5
F1059C
330
261
100
AcDbEntity
  8
Geo
100
AcDbLine
 10
-11.4
 20
1.832932741092802
 30
0.0
 11
-11.29999999999999
 21
1.7782829910553
 31
0.0
  0
LINE
  5
F1059E
330
261
100
AcDbEntity
  8
Geo
100
AcDbLine
 10
-11.29999999999999
 20
-2.635013573584998
 30
0.0
 11
-11.2
 21
-2.669055750908199
 31
0.0
  0
LINE
  5
F105A0
330
261
100
AcDbEntity
  8
Geo
100
AcDbLine
 10
-11.29999999999999
 20
1.7782829910553
 30
0.0
 11
-11.2
 21
1.722664534519401
 31
0.0
  0
LINE
  5
F105A2
330
261
100
AcDbEntity
  8
Geo
100
AcDbLine
 10
-11.2
 20
-2.669055750908199
 30
0.0
 11
-11.09999999999999
 21
-2.701287796177499
 31
0.0
  0
LINE
  5
F105A4
330
261
100
AcDbEntity
  8
Geo
100
AcDbLine
 10
-11.2
 20
1.722664534519401
 30
0.0
 11
-11.09999999999999
 21
1.666107669227802
 31
0.0
  0
LINE
  5
F105A6
330
261
100
AcDbEntity
  8
Geo
100
AcDbLine
 10
-11.09999999999999
 20
-2.701287796177499
 30
0.0
 11
-11.0
 21
-2.731687849880099
 31
0.0
  0
LINE
  5
F105A8
330
261
100
AcDbEntity
  8
Geo
100
AcDbLine
 10
-11.09999999999999
 20
1.666107669227802
 30
0.0
 11
-11.0
 21
1.6086432041141
 31
0.0
  0
LINE
  5
F105AA
330
261
100
AcDbEntity
  8
Geo
100
AcDbLine
 10
-11.0
 20
-2.731687849880099
 30
0.0
 11
-10.9
 21
-2.760235294945198
 31
0.0
  0
LINE
  5
F105AC
330
261
100
AcDbEntity
  8
Geo
100
AcDbLine
 10
-11.0
 20
1.6086432041141
 30
0.0
 11
-10.9
 21
1.5503024425206
 31
0.0
  0
LINE
  5
F105AE
330
261
100
AcDbEntity
  8
Geo
100
AcDbLine
 10
-10.9
 20
-2.760235294945198
 30
0.0
 11
-10.8
 21
-2.786910770725899
 31
0.0
  0
LINE
  5
F105B0
330
261
100
AcDbEntity
  8
Geo
100
AcDbLine
 10
-10.9
 20
1.5503024425206
 30
0.0
 11
-10.8
 21
1.4911171651454
 31
0.0
  0
LINE
  5
F105B2
330
261
100
AcDbEntity
  8
Geo
100
AcDbLine
 10
-10.8
 20
-2.786910770725899
 30
0.0
 11
-10.7
 21
-2.811696186130099
 31
0.0
  0
LINE
  5
F105B4
330
261
100
AcDbEntity
  8
Geo
100
AcDbLine
 10
-10.8
 20
1.4911171651454
 30
0.0
 11
-10.7
 21
1.431119612730102
 31
0.0
  0
LINE
  5
F105B6
330
261
100
AcDbEntity
  8
Geo
100
AcDbLine
 10
-10.7
 20
-2.811696186130099
 30
0.0
 11
-10.59999999999999
 21
-2.834574731889198
 31
0.0
  0
LINE
  5
F105B8
330
261
100
AcDbEntity
  8
Geo
100
AcDbLine
 10
-10.7
 20
1.431119612730102
 30
0.0
 11
-10.59999999999999
 21
1.370342468497501
 31
0.0
  0
LINE
  5
F105BA
330
261
100
AcDbEntity
  8
Geo
100
AcDbLine
 10
-10.59999999999999
 20
-2.834574731889198
 30
0.0
 11
-10.5
 21
-2.855530891958299
 31
0.0
  0
LINE
  5
F105BC
330
261
100
AcDbEntity
  8
Geo
100
AcDbLine
 10
-10.59999999999999
 20
1.370342468497501
 30
0.0
 11
-10.5
 21
1.308818840346999
 31
0.0
  0
LINE
  5
F105BE
330
261
100
AcDbEntity
  8
Geo
100
AcDbLine
 10
-10.5
 20
-2.855530891958299
 30
0.0
 11
-10.4
 21
-2.874550454038899
 31
0.0
  0
LINE
  5
F105C0
330
261
100
AcDbEntity
  8
Geo
100
AcDbLine
 10
-10.5
 20
1.308818840346999
 30
0.0
 11
-10.4
 21
1.246582242819901
 31
0.0
  0
LINE
  5
F105C2
330
261
100
AcDbEntity
  8
Geo
100
AcDbLine
 10
-10.4
 20
-2.874550454038899
 30
0.0
 11
-10.3
 21
-2.891620519217598
 31
0.0
  0
LINE
  5
F105C4
330
261
100
AcDbEntity
  8
Geo
100
AcDbLine
 10
-10.4
 20
1.246582242819901
 30
0.0
 11
-10.3
 21
1.183666578841902
 31
0.0
  0
LINE
  5
F105C6
330
261
100
AcDbEntity
  8
Geo
100
AcDbLine
 10
-10.3
 20
-2.891620519217598
 30
0.0
 11
-10.2
 21
-2.906729510713999
 31
0.0
  0
LINE
  5
F105C8
330
261
100
AcDbEntity
  8
Geo
100
AcDbLine
 10
-10.3
 20
1.183666578841902
 30
0.0
 11
-10.2
 21
1.1201061212553
 31
0.0
  0
LINE
  5
F105CA
330
261
100
AcDbEntity
  8
Geo
100
AcDbLine
 10
-10.2
 20
-2.906729510713999
 30
0.0
 11
-10.09999999999999
 21
-2.919867181732099
 31
0.0
  0
LINE
  5
F105CC
330
261
100
AcDbEntity
  8
Geo
100
AcDbLine
 10
-10.2
 20
1.1201061212553
 30
0.0
 11
-10.09999999999999
 21
1.0559354941491
 31
0.0
  0
LINE
  5
F105CE
330
261
100
AcDbEntity
  8
Geo
100
AcDbLine
 10
-10.09999999999999
 20
-2.919867181732099
 30
0.0
 11
-10.0
 21
-2.931024622409598
 31
0.0
  0
LINE
  5
F105D0
330
261
100
AcDbEntity
  8
Geo
100
AcDbLine
 10
-10.09999999999999
 20
1.0559354941491
 30
0.0
 11
-10.0
 21
0.9911896539975018
 31
0.0
  0
LINE
  5
F105D2
330
261
100
AcDbEntity
  8
Geo
100
AcDbLine
 10
-10.0
 20
-2.931024622409598
 30
0.0
 11
-9.900000000000005
 21
-2.940194265860197
 31
0.0
  0
LINE
  5
F105D4
330
261
100
AcDbEntity
  8
Geo
100
AcDbLine
 10
-10.0
 20
0.9911896539975018
 30
0.0
 11
-9.900000000000005
 21
0.925903870617601
 31
0.0
  0
LINE
  5
F105D6
330
261
100
AcDbEntity
  8
Geo
100
AcDbLine
 10
-9.900000000000005
 20
-2.940194265860197
 30
0.0
 11
-9.799999999999997
 21
-2.947369893305998
 31
0.0
  0
LINE
  5
F105D8
330
261
100
AcDbEntity
  8
Geo
100
AcDbLine
 10
-9.900000000000005
 20
0.925903870617601
 30
0.0
 11
-9.799999999999997
 21
0.8601137079568008
 31
0.0
  0
LINE
  5
F105DA
330
261
100
AcDbEntity
  8
Geo
100
AcDbLine
 10
-9.799999999999997
 20
-2.947369893305998
 30
0.0
 11
-9.700000000000002
 21
-2.952546638294197
 31
0.0
  0
LINE
  5
F105DC
330
261
100
AcDbEntity
  8
Geo
100
AcDbLine
 10
-9.799999999999997
 20
0.8601137079568008
 30
0.0
 11
-9.700000000000002
 21
0.7938550047193012
 31
0.0
  0
LINE
  5
F105DE
330
261
100
AcDbEntity
  8
Geo
100
AcDbLine
 10
-9.700000000000002
 20
-2.952546638294197
 30
0.0
 11
-9.599999999999994
 21
-2.955720989998198
 31
0.0
  0
LINE
  5
F105E0
330
261
100
AcDbEntity
  8
Geo
100
AcDbLine
 10
-9.700000000000002
 20
0.7938550047193012
 30
0.0
 11
-9.599999999999994
 21
0.7271638548431998
 31
0.0
  0
LINE
  5
F105E2
330
261
100
AcDbEntity
  8
Geo
100
AcDbLine
 10
-9.599999999999994
 20
-2.955720989998198
 30
0.0
 11
-9.5
 21
-2.956890795598399
 31
0.0
  0
LINE
  5
F105E4
330
261
100
AcDbEntity
  8
Geo
100
AcDbLine
 10
-9.599999999999994
 20
0.7271638548431998
 30
0.0
 11
-9.5
 21
0.6600765878390007
 31
0.0
  0
LINE
  5
F105E6
330
261
100
AcDbEntity
  8
Geo
100
AcDbLine
 10
-9.5
 20
0.6600765878390007
 30
0.0
 11
-9.400000000000005
 21
0.5926297489987001
 31
0.0
  0
LINE
  5
F105E8
330
261
100
AcDbEntity
  8
Geo
100
AcDbLine
 10
-9.400000000000005
 20
2.9560552617421
 30
0.0
 11
-9.299999999999997
 21
2.953214955081499
 31
0.0
  0
LINE
  5
F105EA
330
261
100
AcDbEntity
  8
Geo
100
AcDbLine
 10
-9.400000000000005
 20
0.5926297489987001
 30
0.0
 11
-9.299999999999997
 21
0.5248600794888017
 31
0.0
  0
LINE
  5
F105EC
330
261
100
AcDbEntity
  8
Geo
100
AcDbLine
 10
-9.299999999999997
 20
2.953214955081499
 30
0.0
 11
-9.200000000000002
 21
2.948371801889699
 31
0.0
  0
LINE
  5
F105EE
330
261
100
AcDbEntity
  8
Geo
100
AcDbLine
 10
-9.299999999999997
 20
0.5248600794888017
 30
0.0
 11
-9.200000000000002
 21
0.4568044963349998
 31
0.0
  0
LINE
  5
F105F0
330
261
100
AcDbEntity
  8
Geo
100
AcDbLine
 10
-9.200000000000002
 20
2.948371801889699
 30
0.0
 11
-9.099999999999994
 21
2.941529086754002
 31
0.0
  0
LINE
  5
F105F2
330
261
100
AcDbEntity
  8
Geo
100
AcDbLine
 10
-9.200000000000002
 20
0.4568044963349998
 30
0.0
 11
-9.099999999999994
 21
0.3885000723125991
 31
0.0
  0
LINE
  5
F105F4
330
261
100
AcDbEntity
  8
Geo
100
AcDbLine
 10
-9.099999999999994
 20
2.941529086754002
 30
0.0
 11
-9.0
 21
2.932691450348698
 31
0.0
  0
LINE
  5
F105F6
330
261
100
AcDbEntity
  8
Geo
100
AcDbLine
 10
-9.099999999999994
 20
0.3885000723125991
 30
0.0
 11
-9.0
 21
0.3199840157512011
 31
0.0
  0
LINE
  5
F105F8
330
261
100
AcDbEntity
  8
Geo
100
AcDbLine
 10
-9.0
 20
2.932691450348698
 30
0.0
 11
-8.900000000000005
 21
2.921864886287302
 31
0.0
  0
LINE
  5
F105FA
330
261
100
AcDbEntity
  8
Geo
100
AcDbLine
 10
-9.0
 20
0.3199840157512011
 30
0.0
 11
-8.900000000000005
 21
0.2512936502653016
 31
0.0
  0
LINE
  5
F105FC
330
261
100
AcDbEntity
  8
Geo
100
AcDbLine
 10
-8.900000000000005
 20
2.921864886287302
 30
0.0
 11
-8.799999999999997
 21
2.9090567370582
 31
0.0
  0
LINE
  5
F105FE
330
261
100
AcDbEntity
  8
Geo
100
AcDbLine
 10
-8.900000000000005
 20
0.2512936502653016
 30
0.0
 11
-8.799999999999997
 21
0.1824663944233027
 31
0.0
  0
LINE
  5
F10600
330
261
100
AcDbEntity
  8
Geo
100
AcDbLine
 10
-8.799999999999997
 20
2.9090567370582
 30
0.0
 11
-8.700000000000002
 21
2.8942756890447
 31
0.0
  0
LINE
  5
F10602
330
261
100
AcDbEntity
  8
Geo
100
AcDbLine
 10
-8.799999999999997
 20
0.1824663944233027
 30
0.0
 11
-8.700000000000002
 21
0.1135397413634003
 31
0.0
  0
LINE
  5
F10604
330
261
100
AcDbEntity
  8
Geo
100
AcDbLine
 10
-8.700000000000002
 20
2.8942756890447
 30
0.0
 11
-8.599999999999994
 21
2.877531766634202
 31
0.0
  0
LINE
  5
F10606
330
261
100
AcDbEntity
  8
Geo
100
AcDbLine
 10
-8.700000000000002
 20
0.1135397413634003
 30
0.0
 11
-8.599999999999994
 21
0.0445512383695999
 31
0.0
  0
LINE
  5
F10608
330
261
100
AcDbEntity
  8
Geo
100
AcDbLine
 10
-8.599999999999994
 20
2.877531766634202
 30
0.0
 11
-8.5
 21
2.858836325419602
 31
0.0
  0
LINE
  5
F1060A
330
261
100
AcDbEntity
  8
Geo
100
AcDbLine
 10
-8.599999999999994
 20
0.0445512383695999
 30
0.0
 11
-8.5
 21
-0.0244615335814995
 31
0.0
  0
LINE
  5
F1060C
330
261
100
AcDbEntity
  8
Geo
100
AcDbLine
 10
-8.5
 20
2.858836325419602
 30
0.0
 11
-8.400000000000005
 21
2.838202044498302
 31
0.0
  0
LINE
  5
F1060E
330
261
100
AcDbEntity
  8
Geo
100
AcDbLine
 10
-8.5
 20
-0.0244615335814995
 30
0.0
 11
-8.400000000000005
 21
-0.0934609802931981
 31
0.0
  0
LINE
  5
F10610
330
261
100
AcDbEntity
  8
Geo
100
AcDbLine
 10
-8.400000000000005
 20
2.838202044498302
 30
0.0
 11
-8.299999999999997
 21
2.8156429178728
 31
0.0
  0
LINE
  5
F10612
330
261
100
AcDbEntity
  8
Geo
100
AcDbLine
 10
-8.400000000000005
 20
-0.0934609802931981
 30
0.0
 11
-8.299999999999997
 21
-0.1624095148276989
 31
0.0
  0
LINE
  5
F10614
330
261
100
AcDbEntity
  8
Geo
100
AcDbLine
 10
-8.299999999999997
 20
2.8156429178728
 30
0.0
 11
-8.200000000000002
 21
2.7911742449606
 31
0.0
  0
LINE
  5
F10616
330
261
100
AcDbEntity
  8
Geo
100
AcDbLine
 10
-8.299999999999997
 20
-0.1624095148276989
 30
0.0
 11
-8.200000000000002
 21
-0.231269577980898
 31
0.0
  0
LINE
  5
F10618
330
261
100
AcDbEntity
  8
Geo
100
AcDbLine
 10
-8.200000000000002
 20
2.7911742449606
 30
0.0
 11
-8.099999999999994
 21
2.764812620218098
 31
0.0
  0
LINE
  5
F1061A
330
261
100
AcDbEntity
  8
Geo
100
AcDbLine
 10
-8.200000000000002
 20
-0.231269577980898
 30
0.0
 11
-8.099999999999994
 21
-0.3000036587430994
 31
0.0
  0
LINE
  5
F1061C
330
261
100
AcDbEntity
  8
Geo
100
AcDbLine
 10
-8.099999999999994
 20
2.764812620218098
 30
0.0
 11
-8.0
 21
2.736575921886398
 31
0.0
  0
LINE
  5
F1061E
330
261
100
AcDbEntity
  8
Geo
100
AcDbLine
 10
-8.099999999999994
 20
-0.3000036587430994
 30
0.0
 11
-8.0
 21
-0.3685743147325979
 31
0.0
  0
LINE
  5
F10620
330
261
100
AcDbEntity
  8
Geo
100
AcDbLine
 10
-8.0
 20
2.736575921886398
 30
0.0
 11
-8.0
 21
2.903100992150502
 31
0.0
  0
LINE
  5
F10622
330
261
100
AcDbEntity
  8
Geo
100
AcDbLine
 10
-8.0
 20
2.736575921886398
 30
0.0
 11
-8.0
 21
-2.861077144339198
 31
0.0
  0
LINE
  5
F10624
330
261
100
AcDbEntity
  8
Geo
100
AcDbLine
 10
-8.0
 20
-0.3685743147325979
 30
0.0
 11
-8.0
 21
0.0259345311492005
 31
0.0
  0
LINE
  5
F10626
330
261
100
AcDbEntity
  8
Geo
100
AcDbLine
 10
-8.0
 20
-0.3685743147325979
 30
0.0
 11
-8.0
 21
-1.616400979397299
 31
0.0
  0
LINE
  5
F10628
330
261
100
AcDbEntity
  8
Geo
100
AcDbLine
 10
-18.0
 20
0.0000000000000018
 30
0.0
 11
-18.0
 21
0.0000000000000018
 31
0.0
  0
LINE
  5
F1062A
330
261
100
AcDbEntity
  8
Geo
100
AcDbLine
 10
-18.0
 20
0.0000000000000018
 30
0.0
 11
-18.0
 21
0.0000000000000018
 31
0.0
  0
LINE
  5
F1062C
330
261
100
AcDbEntity
  8
Geo
100
AcDbLine
 10
36.0
 20
2.700000000000002
 30
0.0
 11
36.0
 21
0.0000000000000018
 31
0.0
  0
LINE
  5
F1062E
330
261
100
AcDbEntity
  8
Geo
100
AcDbLine
 10
-18.0
 20
0.0000000000000018
 30
0.0
 11
-18.0
 21
-2.929999999999997
 31
0.0
  0
LINE
  5
F10630
330
261
100
AcDbEntity
  8
Geo
100
AcDbLine
 10
-18.0
 20
-2.929999999999997
 30
0.0
 11
-17.93000000000001
 21
-2.999999999999998
 31
0.0
  0
LINE
  5
F10632
330
261
100
AcDbEntity
  8
Geo
100
AcDbLine
 10
-17.93000000000001
 20
-2.999999999999998
 30
0.0
 11
-8.0
 21
-2.999999999999998
 31
0.0
  0
LINE
  5
F10634
330
261
100
AcDbEntity
  8
Geo
100
AcDbLine
 10
-8.0
 20
-2.999999999999998
 30
0.0
 11
0.0
 21
-2.999999999999998
 31
0.0
  0
LINE
  5
F10636
330
261
100
AcDbEntity
  8
Geo
100
AcDbLine
 10
0.0
 20
-2.999999999999998
 30
0.0
 11
35.69999999999999
 21
-2.999999999999998
 31
0.0
  0
LINE
  5
F10638
330
261
100
AcDbEntity
  8
Geo
100
AcDbLine
 10
35.69999999999999
 20
-2.999999999999998
 30
0.0
 11
36.0
 21
-2.699999999999999
 31
0.0
  0
LINE
  5
F1063A
330
261
100
AcDbEntity
  8
Geo
100
AcDbLine
 10
-18.0
 20
2.929999999999999
 30
0.0
 11
-18.0
 21
-2.929999999999997
 31
0.0
  0
LINE
  5
F1063C
330
261
100
AcDbEntity
  8
Geo
100
AcDbLine
 10
-17.93000000000001
 20
3.0
 30
0.0
 11
-17.93000000000001
 21
-2.999999999999998
 31
0.0
  0
LINE
  5
F1063E
330
261
100
AcDbEntity
  8
Geo
100
AcDbLine
 10
-8.0
 20
3.0
 30
0.0
 11
-8.0
 21
-2.999999999999998
 31
0.0
  0
LINE
  5
F10640
330
261
100
AcDbEntity
  8
Geo
100
AcDbLine
 10
0.0
 20
3.0
 30
0.0
 11
0.0
 21
-2.999999999999998
 31
0.0
  0
LINE
  5
F10642
330
261
100
AcDbEntity
  8
Geo
100
AcDbLine
 10
35.69999999999999
 20
3.0
 30
0.0
 11
35.69999999999999
 21
-2.999999999999998
 31
0.0
  0
LINE
  5
F10644
330
261
100
AcDbEntity
  8
Geo
100
AcDbLine
 10
36.0
 20
2.700000000000002
 30
0.0
 11
36.0
 21
-2.699999999999999
 31
0.0
  0
TEXT
  5
F10670
330
261
100
AcDbEntity
  8
Text
100
AcDbText
 10
-38.5093220338983
 20
-64.33192090395479
 30
0.0
 40
2.0
  1

100
AcDbText
  0
TEXT
  5
F10688
330
261
100
AcDbEntity
  8
Text
100
AcDbText
 10
-38.5093220338983
 20
-75.90988700564969
 30
0.0
 40
2.0
  1

100
AcDbText
  0
LWPOLYLINE
  5
F106C2
330
261
100
AcDbEntity
  8
Rahmen
100
AcDbPolyline
 90
        4
 70
     1
 43
0.0
 10
-134.656779661017
 20
99.9228813559322
 10
143.466101694915
 20
99.9228813559322
 10
143.466101694915
 20
-100.174576271186
 10
-134.656779661017
 20
-100.174576271186
  0
TEXT
  5
F106C4
330
261
100
AcDbEntity
  8
Text
100
AcDbText
 10
-133.65
 20
-99.67457627118641
 30
0.0
 40
1.0
  1
ISBESketcher
100
AcDbText
  0
LWPOLYLINE
  5
F106C6
330
261
100
AcDbEntity
  8
Rahmen
100
AcDbPolyline
 90
        4
 70
     1
 43
0.0
 10
103.446610169492
 20
-97.1542372881356
 10
143.466101694915
 20
-97.1542372881356
 10
143.466101694915
 20
-100.174576271186
 10
103.446610169492
 20
-100.174576271186
  0
TEXT
  5
F106C8
330
261
100
AcDbEntity
  8
Text
100
AcDbText
 10
104.453389830508
 20
-98.15423728813559
 30
0.0
 40
0.75
  1
Ers. durch:
100
AcDbText
  0
TEXT
  5
F106CA
330
261
100
AcDbEntity
  8
Text
100
AcDbText
 10
125.34406779661
 20
-98.15423728813559
 30
0.0
 40
0.75
  1
K.-H. Maier
100
AcDbText
  0
LWPOLYLINE
  5
F106CC
330
261
100
AcDbEntity
  8
Rahmen
100
AcDbPolyline
 90
        4
 70
     1
 43
0.0
 10
63.42711864406779
 20
-97.1542372881356
 10
103.446610169492
 20
-97.1542372881356
 10
103.446610169492
 20
-100.174576271186
 10
63.42711864406779
 20
-100.174576271186
  0
TEXT
  5
F106CE
330
261
100
AcDbEntity
  8
Text
100
AcDbText
 10
64.43389830508471
 20
-98.15423728813559
 30
0.0
 40
0.75
  1
Ers. für:
100
AcDbText
  0
TEXT
  5
F106D0
330
261
100
AcDbEntity
  8
Text
100
AcDbText
 10
91.11355932203391
 20
-99.4127118644068
 30
0.0
 40
0.75
  1

100
AcDbText
  0
LWPOLYLINE
  5
F106D2
330
261
100
AcDbEntity
  8
Rahmen
100
AcDbPolyline
 90
        4
 70
     1
 43
0.0
 10
130.126271186441
 20
-94.13389830508469
 10
143.466101694915
 20
-94.13389830508469
 10
143.466101694915
 20
-97.1542372881356
 10
130.126271186441
 20
-97.1542372881356
  0
TEXT
  5
F106D4
330
261
100
AcDbEntity
  8
Text
100
AcDbText
 10
131.133050847458
 20
-95.1338983050847
 30
0.0
 40
0.75
  1
Blätter
100
AcDbText
  0
TEXT
  5
F106D6
330
261
100
AcDbEntity
  8
Text
100
AcDbText
 10
141.200847457627
 20
-96.39237288135591
 30
0.0
 40
0.75
  1

100
AcDbText
  0
LWPOLYLINE
  5
F106D8
330
261
100
AcDbEntity
  8
Rahmen
100
AcDbPolyline
 90
        4
 70
     1
 43
0.0
 10
130.126271186441
 20
-91.11355932203391
 10
143.466101694915
 20
-91.11355932203391
 10
143.466101694915
 20
-94.13389830508469
 10
130.126271186441
 20
-94.13389830508469
  0
TEXT
  5
F106DA
330
261
100
AcDbEntity
  8
Text
100
AcDbText
 10
131.133050847458
 20
-92.11355932203391
 30
0.0
 40
0.75
  1
Blatt
100
AcDbText
  0
TEXT
  5
F106DC
330
261
100
AcDbEntity
  8
Text
100
AcDbText
 10
141.200847457627
 20
-93.37203389830509
 30
0.0
 40
0.75
  1

100
AcDbText
  0
LWPOLYLINE
  5
F106DE
330
261
100
AcDbEntity
  8
Rahmen
100
AcDbPolyline
 90
        4
 70
     1
 43
0.0
 10
63.42711864406779
 20
-91.11355932203391
 10
130.126271186441
 20
-91.11355932203391
 10
130.126271186441
 20
-97.1542372881356
 10
63.42711864406779
 20
-97.1542372881356
  0
TEXT
  5
F106E0
330
261
100
AcDbEntity
  8
Text
100
AcDbText
 10
64.43389830508471
 20
-92.11355932203391
 30
0.0
 40
0.75
  1
Datum:
100
AcDbText
  0
TEXT
  5
F106E2
330
261
100
AcDbEntity
  8
Text
100
AcDbText
 10
90.8618644067797
 20
-95.1338983050847
 30
0.0
 40
0.75
  1
16.01.2013
100
AcDbText
  0
LWPOLYLINE
  5
F106E4
330
261
100
AcDbEntity
  8
Rahmen
100
AcDbPolyline
 90
        4
 70
     1
 43
0.0
 10
63.42711864406779
 20
-85.07288135593221
 10
143.466101694915
 20
-85.07288135593221
 10
143.466101694915
 20
-91.11355932203391
 10
63.42711864406779
 20
-91.11355932203391
  0
TEXT
  5
F106E6
330
261
100
AcDbEntity
  8
Text
100
AcDbText
 10
-148.5
 20
105.473728813559
 30
0.0
 40
1.5
  1

100
AcDbText
  0
TEXT
  5
F106E8
330
261
100
AcDbEntity
  8
Text
100
AcDbText
 10
82.5559322033898
 20
-88.90960451977399
 30
0.0
 40
2.5
  1
Schaftfräser 7525-060
100
AcDbText
  0
LWPOLYLINE
  5
F106EA
330
261
100
AcDbEntity
  8
Rahmen
100
AcDbPolyline
 90
        4
 70
     1
 43
0.0
 10
103.446610169492
 20
-79.0322033898305
 10
143.466101694915
 20
-79.0322033898305
 10
143.466101694915
 20
-85.07288135593221
 10
103.446610169492
 20
-85.07288135593221
  0
TEXT
  5
F106EC
330
261
100
AcDbEntity
  8
Text
100
AcDbText
 10
104.453389830508
 20
-80.0322033898305
 30
0.0
 40
0.75
  1
Zu bearb. Material:
100
AcDbText
  0
TEXT
  5
F106EE
330
261
100
AcDbEntity
  8
Text
100
AcDbText
 10
123.330508474576
 20
-84.3110169491525
 30
0.0
 40
0.75
  1

100
AcDbText
  0
LWPOLYLINE
  5
F106F0
330
261
100
AcDbEntity
  8
Rahmen
100
AcDbPolyline
 90
        4
 70
     1
 43
0.0
 10
63.42711864406779
 20
-79.0322033898305
 10
103.446610169492
 20
-79.0322033898305
 10
103.446610169492
 20
-85.07288135593221
 10
63.42711864406779
 20
-85.07288135593221
  0
TEXT
  5
F106F2
330
261
100
AcDbEntity
  8
Text
100
AcDbText
 10
64.43389830508471
 20
-80.0322033898305
 30
0.0
 40
0.75
  1
Werkstoff:
100
AcDbText
  0
LWPOLYLINE
  5
F106F6
330
261
100
AcDbEntity
  8
Rahmen
100
AcDbPolyline
 90
        4
 70
     1
 43
0.0
 10
103.446610169492
 20
-76.01186440677969
 10
143.466101694915
 20
-76.01186440677969
 10
143.466101694915
 20
-79.0322033898305
 10
103.446610169492
 20
-79.0322033898305
  0
TEXT
  5
F106F8
330
261
100
AcDbEntity
  8
Text
100
AcDbText
 10
-148.5
 20
105.473728813559
 30
0.0
 40
1.5
  1

100
AcDbText
  0
LWPOLYLINE
  5
F106FC
330
261
100
AcDbEntity
  8
Rahmen
100
AcDbPolyline
 90
        4
 70
     1
 43
0.0
 10
63.42711864406779
 20
-76.01186440677969
 10
103.446610169492
 20
-76.01186440677969
 10
103.446610169492
 20
-79.0322033898305
 10
63.42711864406779
 20
-79.0322033898305
  0
TEXT
  5
F106FE
330
261
100
AcDbEntity
  8
Text
100
AcDbText
 10
64.43389830508471
 20
-77.01186440677969
 30
0.0
 40
0.75
  1
Maßstab:
100
AcDbText
  0
TEXT
  5
F10700
330
261
100
AcDbEntity
  8
Text
100
AcDbText
 10
88.84830508474578
 20
-77.01186440677969
 30
0.0
 40
0.75
  1
1: 1
100
AcDbText
  0
VIEWPORT
  5
294
102
{ACAD_XDICTIONARY
360
F10921
102
}
330
25D
100
AcDbEntity
 67
     1
  8
0
 60
     1
100
AcDbViewport
 10
0.0
 20
0.0
 30
0.0
 40
10.0
 41
10.0
 68
    -1
 69
     1
 12
0.0
 22
0.0
 13
0.0
 23
0.0
 14
1.0
 24
1.0
 15
0.0
 25
0.0
 16
0.0
 26
0.0
 36
1.0
 17
0.0
 27
0.0
 37
0.0
 42
0.0
 43
0.0
 44
0.0
 45
10.0
 50
0.0
 51
0.0000000000007958
 72
   100
 90
    32800
  1

281
     0
 71
     0
 74
     0
110
0.0
120
0.0
130
0.0
111
1.0
121
0.0
131
0.0
112
0.0
122
1.0
132
0.0
 79
     0
146
0.0
1001
VD_INVISIBLE_NOT_FOR_READ
1000
VD_INVISIBLE_NOT_FOR_READ
1001
GENIUS_GENSCREG_15
1000
PF
1040
1.0
1000
DF
1040
1.0
1000
MIN
1011
-5.0
1021
-5.0
1031
0.0
1000
MAX
1011
5.0
1021
5.0
1031
0.0
1000
FLAGS
1070
     4
1001
GENIUS_GENOBJ-N-SDF_13
1002
{
1000
OWNER
1000
GEN
1002
}
1001
GENIUS_GENODEF_13
1002
{
1000
HIER
1070
     0
1002
}
1002
{
1000
MANEDIT
1070
     0
1002
}
1002
{
1000
NOSEL
1070
     0
1002
}
1002
{
1000
BEHIND
1070
     0
1002
}
1002
{
1000
OTHER
1070
     0
1002
}
1002
{
1000
REACTOR
1002
}
  0
VIEWPORT
  5
295
102
{ACAD_XDICTIONARY
360
F10923
102
}
330
25D
100
AcDbEntity
 67
     1
  8
0
 60
     1
100
AcDbViewport
 10
0.0
 20
0.0
 30
0.0
 40
10.0
 41
10.0
 68
     0
 69
     2
 12
0.0
 22
0.0
 13
0.0
 23
0.0
 14
1.0
 24
1.0
 15
0.0
 25
0.0
 16
0.0
 26
0.0
 36
1.0
 17
0.0
 27
0.0
 37
0.0
 42
0.0
 43
0.0
 44
0.0
 45
10.0
 50
0.0
 51
0.0000000000007958
 72
   100
 90
   163872
  1

281
     0
 71
     0
 74
     0
110
0.0
120
0.0
130
0.0
111
1.0
121
0.0
131
0.0
112
0.0
122
1.0
132
0.0
 79
     0
146
0.0
1001
VD_INVISIBLE_NOT_FOR_READ
1000
VD_INVISIBLE_NOT_FOR_READ
1001
GENIUS_GENSCREG_15
1000
PF
1040
1.0
1000
DF
1040
1.0
1000
MIN
1011
-5.0
1021
-5.0
1031
0.0
1000
MAX
1011
5.0
1021
5.0
1031
0.0
1000
FLAGS
1070
     4
1001
GENIUS_GENOBJ-N-SDF_13
1002
{
1000
OWNER
1000
GEN
1002
}
1001
GENIUS_GENODEF_13
1002
{
1000
HIER
1070
     0
1002
}
1002
{
1000
MANEDIT
1070
     0
1002
}
1002
{
1000
NOSEL
1070
     0
1002
}
1002
{
1000
BEHIND
1070
     0
1002
}
1002
{
1000
OTHER
1070
     0
1002
}
1002
{
1000
REACTOR
1002
}
  0
ENDSEC
  0
SECTION
  2
OBJECTS
  0
DICTIONARY
  5
13
330
0
100
AcDbDictionary
281
     1
  3
ACAD_COLOR
350
FA7
  3
ACAD_GROUP
350
14
  3
ACAD_LAYOUT
350
FCF
  3
ACAD_MATERIAL
350
F7A
  3
ACAD_MLEADERSTYLE
350
FCD
  3
ACAD_MLINESTYLE
350
16
  3
ACAD_PLOTSETTINGS
350
17
  3
ACAD_PLOTSTYLENAME
350
18
  3
ACAD_SCALELIST
350
FAB
  3
ACAD_TABLESTYLE
350
FA8
  3
ACAD_VISUALSTYLE
350
F93
  3
ACDB_RECOMPOSE_DATA
350
F1091F
  3
AcDbVariableDictionary
350
F10916
  3
AcmDictionary
350
F10757
  3
AMG
350
F1070B
  3
AMGSNAPSETTINGS
350
F10798
  3
DWGPROPS
350
F10920
  0
DICTIONARY
  5
F1090C
330
252
100
AcDbDictionary
280
     1
281
     1
  3
ADSK_XREC_LAYER_RECONCILED
360
F1090D
  0
DICTIONARY
  5
F1090E
330
23F
100
AcDbDictionary
280
     1
281
     1
  3
ADSK_XREC_LAYER_RECONCILED
360
F1090F
  0
DICTIONARY
  5
F10910
330
240
100
AcDbDictionary
280
     1
281
     1
  3
ADSK_XREC_LAYER_RECONCILED
360
F10911
  0
DICTIONARY
  5
F10912
330
241
100
AcDbDictionary
280
     1
281
     1
  3
ADSK_XREC_LAYER_RECONCILED
360
F10913
  0
DICTIONARY
  5
F10914
330
57E
100
AcDbDictionary
280
     1
281
     1
  3
ADSK_XREC_LAYER_RECONCILED
360
F10915
  0
DICTIONARY
  5
F10925
330
296
100
AcDbDictionary
280
     1
281
     1
  3
ACAD_XREC_ROUNDTRIP
360
F10926
  0
DICTIONARY
  5
F10927
330
297
100
AcDbDictionary
280
     1
281
     1
  3
ACAD_XREC_ROUNDTRIP
360
F10928
  0
DICTIONARY
  5
F10921
330
294
100
AcDbDictionary
280
     1
281
     1
  3
ACAD_XREC_ROUNDTRIP
360
F10922
  0
DICTIONARY
  5
F10923
330
295
100
AcDbDictionary
280
     1
281
     1
  3
ACAD_XREC_ROUNDTRIP
360
F10924
  0
DICTIONARY
  5
FA7
102
{ACAD_REACTORS
330
13
102
}
330
13
100
AcDbDictionary
281
     1
  0
DICTIONARY
  5
14
330
13
100
AcDbDictionary
281
     1
  0
DICTIONARY
  5
FCF
102
{ACAD_REACTORS
330
13
102
}
330
13
100
AcDbDictionary
281
     1
  3
Layout1
350
FD1
  3
Model
350
FD0
  0
DICTIONARY
  5
F7A
102
{ACAD_REACTORS
330
13
102
}
330
13
100
AcDbDictionary
281
     1
  3
ByBlock
350
F83
  3
ByLayer
350
F7B
  3
Global
350
F8B
  0
DICTIONARY
  5
FCD
102
{ACAD_REACTORS
330
13
102
}
330
13
100
AcDbDictionary
281
     1
  3
Standard
350
FCE
  0
DICTIONARY
  5
16
330
13
100
AcDbDictionary
281
     1
  3
Standard
350
FAA
  0
DICTIONARY
  5
17
102
{ACAD_REACTORS
330
13
102
}
330
13
100
AcDbDictionary
281
     1
  0
ACDBDICTIONARYWDFLT
  5
18
102
{ACAD_REACTORS
330
13
102
}
330
13
100
AcDbDictionary
281
     1
  3
Normal
350
19
100
AcDbDictionaryWithDefault
340
19
  0
DICTIONARY
  5
FAB
102
{ACAD_REACTORS
330
13
102
}
330
13
100
AcDbDictionary
281
     1
  3
A0
350
FAC
  3
A1
350
FAD
  3
A2
350
FAE
  3
A3
350
FAF
  3
A4
350
FB0
  3
A5
350
FB1
  3
A6
350
FB2
  3
A7
350
FB3
  3
A8
350
FB4
  3
A9
350
FB5
  3
B0
350
FB6
  3
B1
350
FB7
  3
B2
350
FB8
  3
B3
350
FB9
  3
B4
350
FBA
  3
B5
350
FBB
  3
B6
350
FBC
  3
B7
350
FBD
  3
B8
350
FBE
  3
B9
350
FBF
  3
C0
350
FC0
  3
C1
350
FC1
  3
C2
350
FC2
  3
C3
350
FC3
  3
C4
350
FC4
  3
C5
350
FC5
  3
C6
350
FC6
  3
C7
350
FC7
  3
C8
350
FC8
  3
C9
350
FC9
  3
D0
350
FCA
  3
D1
350
FCB
  3
D2
350
FCC
  0
DICTIONARY
  5
FA8
102
{ACAD_REACTORS
330
13
102
}
330
13
100
AcDbDictionary
281
     1
  3
Standard
350
FA9
  0
DICTIONARY
  5
F93
102
{ACAD_REACTORS
330
13
102
}
330
13
100
AcDbDictionary
281
     1
  3
2dWireframe
350
F99
  3
3D Hidden
350
F9B
  3
3dWireframe
350
F9A
  3
Basic
350
F98
  3
Brighten
350
F9F
  3
ColorChange
350
FA3
  3
Conceptual
350
F9C
  3
Dim
350
F9E
  3
EdgeColorOff
350
FA6
  3
Facepattern
350
FA2
  3
Flat
350
F94
  3
FlatWithEdges
350
F95
  3
Gouraud
350
F96
  3
GouraudWithEdges
350
F97
  3
Hidden
350
F10703
  3
JitterOff
350
FA4
  3
Linepattern
350
FA1
  3
OverhangOff
350
FA5
  3
Realistic
350
F9D
  3
Shaded
350
F10708
  3
Shaded with edges
350
F10707
  3
Shades of Gray
350
F10704
  3
Sketchy
350
F10705
  3
Thicken
350
FA0
  3
Wireframe
350
F10702
  3
X-Ray
350
F10706
  0
XRECORD
  5
F1091F
102
{ACAD_REACTORS
330
13
102
}
330
13
100
AcDbXrecord
280
     1
 90
        1
330
FA9
  0
DICTIONARY
  5
F10916
102
{ACAD_REACTORS
330
13
102
}
330
13
100
AcDbDictionary
281
     1
  3
CANNOSCALE
350
F10919
  3
CMLEADERSTYLE
350
F10918
  3
CTABLESTYLE
350
F10917
  3
DIMASSOC
350
F1091C
  3
INDEXCTL
350
F1091B
  3
SORTENTS
350
F1091A
  3
XCLIPFRAME
350
F1091D
  0
DICTIONARY
  5
F10757
102
{ACAD_REACTORS
330
13
102
}
330
13
100
AcDbDictionary
281
     1
  3
AcmStdDictionary
350
F10762
  0
DICTIONARY
  5
F1070B
102
{ACAD_REACTORS
330
13
102
}
330
13
100
AcDbDictionary
281
     1
  0
DICTIONARY
  5
F10798
102
{ACAD_REACTORS
330
13
102
}
330
13
100
AcDbDictionary
281
     1
  0
XRECORD
  5
F10920
102
{ACAD_REACTORS
330
13
102
}
330
13
100
AcDbXrecord
280
     1
  1
DWGPROPS COOKIE
  2

  3

  4

  6

  7

  8
steigner
  9

300
=
301
=
302
=
303
=
304
=
305
=
306
=
307
=
308
=
309
=
 40
0.0011965162037037
 41
2456800.628199456
 42
2456800.629391053
  1

 90
        0
  0
XRECORD
  5
F1090D
102
{ACAD_REACTORS
330
F1090C
102
}
330
F1090C
100
AcDbXrecord
280
     1
290
     1
  0
XRECORD
  5
F1090F
102
{ACAD_REACTORS
330
F1090E
102
}
330
F1090E
100
AcDbXrecord
280
     1
290
     1
  0
XRECORD
  5
F10911
102
{ACAD_REACTORS
330
F10910
102
}
330
F10910
100
AcDbXrecord
280
     1
290
     1
  0
XRECORD
  5
F10913
102
{ACAD_REACTORS
330
F10912
102
}
330
F10912
100
AcDbXrecord
280
     1
290
     1
  0
XRECORD
  5
F10915
102
{ACAD_REACTORS
330
F10914
102
}
330
F10914
100
AcDbXrecord
280
     1
290
     1
  0
XRECORD
  5
F10926
102
{ACAD_REACTORS
330
F10925
102
}
330
F10925
100
AcDbXrecord
280
     1
102
SHADEPLOT
 70
     0
  0
XRECORD
  5
F10928
102
{ACAD_REACTORS
330
F10927
102
}
330
F10927
100
AcDbXrecord
280
     1
102
SHADEPLOT
 70
     0
  0
XRECORD
  5
F10922
102
{ACAD_REACTORS
330
F10921
102
}
330
F10921
100
AcDbXrecord
280
     1
102
SHADEPLOT
 70
     0
  0
XRECORD
  5
F10924
102
{ACAD_REACTORS
330
F10923
102
}
330
F10923
100
AcDbXrecord
280
     1
102
SHADEPLOT
 70
     0
  0
LAYOUT
  5
FD1
102
{ACAD_XDICTIONARY
360
F10952
102
}
102
{ACAD_REACTORS
330
FCF
102
}
330
FCF
100
AcDbPlotSettings
  1

  2
Microsoft XPS Document Writer
  4

  6

 40
0.0
 41
0.0
 42
0.0
 43
0.0
 44
0.0
 45
0.0
 46
0.0
 47
0.0
 48
0.0
 49
0.0
140
0.0
141
0.0
142
1.0
143
1.0
 70
   688
 72
     0
 73
     0
 74
     5
  7

 75
    16
147
1.0
148
0.0
149
0.0
100
AcDbLayout
  1
Layout1
 70
     1
 71
     1
 10
0.0
 20
0.0
 11
12.0
 21
9.0
 12
0.0
 22
0.0
 32
0.0
 14
1.000000000000000E+20
 24
1.000000000000000E+20
 34
1.000000000000000E+20
 15
-1.000000000000000E+20
 25
-1.000000000000000E+20
 35
-1.000000000000000E+20
146
0.0
 13
0.0
 23
0.0
 33
0.0
 16
1.0
 26
0.0
 36
0.0
 17
0.0
 27
1.0
 37
0.0
 76
     0
330
25D
  0
LAYOUT
  5
FD0
102
{ACAD_XDICTIONARY
360
F10950
102
}
102
{ACAD_REACTORS
330
FCF
102
}
330
FCF
100
AcDbPlotSettings
  1

  2
Microsoft XPS Document Writer
  4

  6

 40
0.0
 41
0.0
 42
0.0
 43
0.0
 44
0.0
 45
0.0
 46
0.0
 47
0.0
 48
0.0
 49
0.0
140
0.0
141
0.0
142
1.0
143
1.0
 70
  1712
 72
     0
 73
     0
 74
     0
  7

 75
     0
147
1.0
148
0.0
149
0.0
100
AcDbLayout
  1
Model
 70
     1
 71
     0
 10
0.0
 20
0.0
 11
12.0
 21
9.0
 12
0.0
 22
0.0
 32
0.0
 14
0.0
 24
0.0
 34
0.0
 15
0.0
 25
0.0
 35
0.0
146
0.0
 13
0.0
 23
0.0
 33
0.0
 16
1.0
 26
0.0
 36
0.0
 17
0.0
 27
1.0
 37
0.0
 76
     0
330
261
331
26B
  0
MATERIAL
  5
F83
102
{ACAD_XDICTIONARY
360
F84
102
}
102
{ACAD_REACTORS
330
F7A
102
}
330
F7A
100
AcDbMaterial
  1
ByBlock
 72
     0
 43
0.0208333333333333
 43
0.0
 43
0.0
 43
0.0
 43
0.0
 43
0.0208333333333333
 43
0.0
 43
0.0
 43
0.0
 43
0.0
 43
1.0
 43
0.0
 43
0.0
 43
0.0
 43
0.0
 43
1.0
 77
     0
 47
0.0208333333333333
 47
0.0
 47
0.0
 47
0.0
 47
0.0
 47
0.0208333333333333
 47
0.0
 47
0.0
 47
0.0
 47
0.0
 47
1.0
 47
0.0
 47
0.0
 47
0.0
 47
0.0
 47
1.0
171
     0
 49
0.0208333333333333
 49
0.0
 49
0.0
 49
0.0
 49
0.0
 49
0.0208333333333333
 49
0.0
 49
0.0
 49
0.0
 49
0.0
 49
1.0
 49
0.0
 49
0.0
 49
0.0
 49
0.0
 49
1.0
175
     0
142
0.0208333333333333
142
0.0
142
0.0
142
0.0
142
0.0
142
0.0208333333333333
142
0.0
142
0.0
142
0.0
142
0.0
142
1.0
142
0.0
142
0.0
142
0.0
142
0.0
142
1.0
179
     0
144
0.0208333333333333
144
0.0
144
0.0
144
0.0
144
0.0
144
0.0208333333333333
144
0.0
144
0.0
144
0.0
144
0.0
144
1.0
144
0.0
144
0.0
144
0.0
144
0.0
144
1.0
147
0.0208333333333333
147
0.0
147
0.0
147
0.0
147
0.0
147
0.0208333333333333
147
0.0
147
0.0
147
0.0
147
0.0
147
1.0
147
0.0
147
0.0
147
0.0
147
0.0
147
1.0
  0
MATERIAL
  5
F7B
102
{ACAD_XDICTIONARY
360
F7C
102
}
102
{ACAD_REACTORS
330
F7A
102
}
330
F7A
100
AcDbMaterial
  1
ByLayer
 72
     0
 43
0.0208333333333333
 43
0.0
 43
0.0
 43
0.0
 43
0.0
 43
0.0208333333333333
 43
0.0
 43
0.0
 43
0.0
 43
0.0
 43
1.0
 43
0.0
 43
0.0
 43
0.0
 43
0.0
 43
1.0
 77
     0
 47
0.0208333333333333
 47
0.0
 47
0.0
 47
0.0
 47
0.0
 47
0.0208333333333333
 47
0.0
 47
0.0
 47
0.0
 47
0.0
 47
1.0
 47
0.0
 47
0.0
 47
0.0
 47
0.0
 47
1.0
171
     0
 49
0.0208333333333333
 49
0.0
 49
0.0
 49
0.0
 49
0.0
 49
0.0208333333333333
 49
0.0
 49
0.0
 49
0.0
 49
0.0
 49
1.0
 49
0.0
 49
0.0
 49
0.0
 49
0.0
 49
1.0
175
     0
142
0.0208333333333333
142
0.0
142
0.0
142
0.0
142
0.0
142
0.0208333333333333
142
0.0
142
0.0
142
0.0
142
0.0
142
1.0
142
0.0
142
0.0
142
0.0
142
0.0
142
1.0
179
     0
144
0.0208333333333333
144
0.0
144
0.0
144
0.0
144
0.0
144
0.0208333333333333
144
0.0
144
0.0
144
0.0
144
0.0
144
1.0
144
0.0
144
0.0
144
0.0
144
0.0
144
1.0
147
0.0208333333333333
147
0.0
147
0.0
147
0.0
147
0.0
147
0.0208333333333333
147
0.0
147
0.0
147
0.0
147
0.0
147
1.0
147
0.0
147
0.0
147
0.0
147
0.0
147
1.0
  0
MATERIAL
  5
F8B
102
{ACAD_XDICTIONARY
360
F8C
102
}
102
{ACAD_REACTORS
330
F7A
102
}
330
F7A
100
AcDbMaterial
  1
Global
 72
     0
 43
0.0208333333333333
 43
0.0
 43
0.0
 43
0.0
 43
0.0
 43
0.0208333333333333
 43
0.0
 43
0.0
 43
0.0
 43
0.0
 43
1.0
 43
0.0
 43
0.0
 43
0.0
 43
0.0
 43
1.0
 77
     0
 47
0.0208333333333333
 47
0.0
 47
0.0
 47
0.0
 47
0.0
 47
0.0208333333333333
 47
0.0
 47
0.0
 47
0.0
 47
0.0
 47
1.0
 47
0.0
 47
0.0
 47
0.0
 47
0.0
 47
1.0
171
     0
 49
0.0208333333333333
 49
0.0
 49
0.0
 49
0.0
 49
0.0
 49
0.0208333333333333
 49
0.0
 49
0.0
 49
0.0
 49
0.0
 49
1.0
 49
0.0
 49
0.0
 49
0.0
 49
0.0
 49
1.0
175
     0
142
0.0208333333333333
142
0.0
142
0.0
142
0.0
142
0.0
142
0.0208333333333333
142
0.0
142
0.0
142
0.0
142
0.0
142
1.0
142
0.0
142
0.0
142
0.0
142
0.0
142
1.0
179
     0
144
0.0208333333333333
144
0.0
144
0.0
144
0.0
144
0.0
144
0.0208333333333333
144
0.0
144
0.0
144
0.0
144
0.0
144
1.0
144
0.0
144
0.0
144
0.0
144
0.0
144
1.0
147
0.0208333333333333
147
0.0
147
0.0
147
0.0
147
0.0
147
0.0208333333333333
147
0.0
147
0.0
147
0.0
147
0.0
147
1.0
147
0.0
147
0.0
147
0.0
147
0.0
147
1.0
  0
MLEADERSTYLE
  5
FCE
102
{ACAD_REACTORS
330
FCD
102
}
330
FCD
100
AcDbMLeaderStyle
170
     2
171
     1
172
     0
 90
        2
 40
0.0
 41
0.0
173
     1
 91
-1056964608
340
256
 92
       -2
290
     1
 42
0.09
291
     1
 43
0.36
  3
Standard
 44
0.18
300

342
253
174
     1
178
     6
175
     1
176
     0
 93
-1056964608
 45
0.18
292
     0
297
     0
 46
0.18
 94
-1056964608
 47
1.0
 49
1.0
140
1.0
293
     1
141
0.0
294
     1
177
     0
142
1.0
295
     0
296
     0
143
0.125
1001
ACAD_MLEADERVER
1070
     2
  0
MLINESTYLE
  5
FAA
102
{ACAD_REACTORS
330
16
102
}
330
16
100
AcDbMlineStyle
  2
STANDARD
 70
     0
  3

 62
   256
 51
90.0
 52
90.0
 71
     2
 49
0.5
 62
   256
  6
BYLAYER
 49
-0.5
 62
   256
  6
BYLAYER
  0
ACDBPLACEHOLDER
  5
19
102
{ACAD_REACTORS
330
18
102
}
330
18
  0
SCALE
  5
FAC
102
{ACAD_REACTORS
330
FAB
102
}
330
FAB
100
AcDbScale
 70
     0
300
1:1
140
1.0
141
1.0
290
     1
  0
SCALE
  5
FAD
102
{ACAD_REACTORS
330
FAB
102
}
330
FAB
100
AcDbScale
 70
     0
300
1:2
140
1.0
141
2.0
290
     0
  0
SCALE
  5
FAE
102
{ACAD_REACTORS
330
FAB
102
}
330
FAB
100
AcDbScale
 70
     0
300
1:4
140
1.0
141
4.0
290
     0
  0
SCALE
  5
FAF
102
{ACAD_REACTORS
330
FAB
102
}
330
FAB
100
AcDbScale
 70
     0
300
1:5
140
1.0
141
5.0
290
     0
  0
SCALE
  5
FB0
102
{ACAD_REACTORS
330
FAB
102
}
330
FAB
100
AcDbScale
 70
     0
300
1:8
140
1.0
141
8.0
290
     0
  0
SCALE
  5
FB1
102
{ACAD_REACTORS
330
FAB
102
}
330
FAB
100
AcDbScale
 70
     0
300
1:10
140
1.0
141
10.0
290
     0
  0
SCALE
  5
FB2
102
{ACAD_REACTORS
330
FAB
102
}
330
FAB
100
AcDbScale
 70
     0
300
1:16
140
1.0
141
16.0
290
     0
  0
SCALE
  5
FB3
102
{ACAD_REACTORS
330
FAB
102
}
330
FAB
100
AcDbScale
 70
     0
300
1:20
140
1.0
141
20.0
290
     0
  0
SCALE
  5
FB4
102
{ACAD_REACTORS
330
FAB
102
}
330
FAB
100
AcDbScale
 70
     0
300
1:30
140
1.0
141
30.0
290
     0
  0
SCALE
  5
FB5
102
{ACAD_REACTORS
330
FAB
102
}
330
FAB
100
AcDbScale
 70
     0
300
1:40
140
1.0
141
40.0
290
     0
  0
SCALE
  5
FB6
102
{ACAD_REACTORS
330
FAB
102
}
330
FAB
100
AcDbScale
 70
     0
300
1:50
140
1.0
141
50.0
290
     0
  0
SCALE
  5
FB7
102
{ACAD_REACTORS
330
FAB
102
}
330
FAB
100
AcDbScale
 70
     0
300
1:100
140
1.0
141
100.0
290
     0
  0
SCALE
  5
FB8
102
{ACAD_REACTORS
330
FAB
102
}
330
FAB
100
AcDbScale
 70
     0
300
2:1
140
2.0
141
1.0
290
     0
  0
SCALE
  5
FB9
102
{ACAD_REACTORS
330
FAB
102
}
330
FAB
100
AcDbScale
 70
     0
300
4:1
140
4.0
141
1.0
290
     0
  0
SCALE
  5
FBA
102
{ACAD_REACTORS
330
FAB
102
}
330
FAB
100
AcDbScale
 70
     0
300
8:1
140
8.0
141
1.0
290
     0
  0
SCALE
  5
FBB
102
{ACAD_REACTORS
330
FAB
102
}
330
FAB
100
AcDbScale
 70
     0
300
10:1
140
10.0
141
1.0
290
     0
  0
SCALE
  5
FBC
102
{ACAD_REACTORS
330
FAB
102
}
330
FAB
100
AcDbScale
 70
     0
300
100:1
140
100.0
141
1.0
290
     0
  0
SCALE
  5
FBD
102
{ACAD_REACTORS
330
FAB
102
}
330
FAB
100
AcDbScale
 70
     0
300
1/128" = 1'-0"
140
0.0078125
141
12.0
290
     0
  0
SCALE
  5
FBE
102
{ACAD_REACTORS
330
FAB
102
}
330
FAB
100
AcDbScale
 70
     0
300
1/64" = 1'-0"
140
0.015625
141
12.0
290
     0
  0
SCALE
  5
FBF
102
{ACAD_REACTORS
330
FAB
102
}
330
FAB
100
AcDbScale
 70
     0
300
1/32" = 1'-0"
140
0.03125
141
12.0
290
     0
  0
SCALE
  5
FC0
102
{ACAD_REACTORS
330
FAB
102
}
330
FAB
100
AcDbScale
 70
     0
300
1/16" = 1'-0"
140
0.0625
141
12.0
290
     0
  0
SCALE
  5
FC1
102
{ACAD_REACTORS
330
FAB
102
}
330
FAB
100
AcDbScale
 70
     0
300
3/32" = 1'-0"
140
0.09375
141
12.0
290
     0
  0
SCALE
  5
FC2
102
{ACAD_REACTORS
330
FAB
102
}
330
FAB
100
AcDbScale
 70
     0
300
1/8" = 1'-0"
140
0.125
141
12.0
290
     0
  0
SCALE
  5
FC3
102
{ACAD_REACTORS
330
FAB
102
}
330
FAB
100
AcDbScale
 70
     0
300
3/16" = 1'-0"
140
0.1875
141
12.0
290
     0
  0
SCALE
  5
FC4
102
{ACAD_REACTORS
330
FAB
102
}
330
FAB
100
AcDbScale
 70
     0
300
1/4" = 1'-0"
140
0.25
141
12.0
290
     0
  0
SCALE
  5
FC5
102
{ACAD_REACTORS
330
FAB
102
}
330
FAB
100
AcDbScale
 70
     0
300
3/8" = 1'-0"
140
0.375
141
12.0
290
     0
  0
SCALE
  5
FC6
102
{ACAD_REACTORS
330
FAB
102
}
330
FAB
100
AcDbScale
 70
     0
300
1/2" = 1'-0"
140
0.5
141
12.0
290
     0
  0
SCALE
  5
FC7
102
{ACAD_REACTORS
330
FAB
102
}
330
FAB
100
AcDbScale
 70
     0
300
3/4" = 1'-0"
140
0.75
141
12.0
290
     0
  0
SCALE
  5
FC8
102
{ACAD_REACTORS
330
FAB
102
}
330
FAB
100
AcDbScale
 70
     0
300
1" = 1'-0"
140
1.0
141
12.0
290
     0
  0
SCALE
  5
FC9
102
{ACAD_REACTORS
330
FAB
102
}
330
FAB
100
AcDbScale
 70
     0
300
1-1/2" = 1'-0"
140
1.5
141
12.0
290
     0
  0
SCALE
  5
FCA
102
{ACAD_REACTORS
330
FAB
102
}
330
FAB
100
AcDbScale
 70
     0
300
3" = 1'-0"
140
3.0
141
12.0
290
     0
  0
SCALE
  5
FCB
102
{ACAD_REACTORS
330
FAB
102
}
330
FAB
100
AcDbScale
 70
     0
300
6" = 1'-0"
140
6.0
141
12.0
290
     0
  0
SCALE
  5
FCC
102
{ACAD_REACTORS
330
FAB
102
}
330
FAB
100
AcDbScale
 70
     0
300
1'-0" = 1'-0"
140
12.0
141
12.0
290
     0
  0
TABLESTYLE
  5
FA9
102
{ACAD_XDICTIONARY
360
FF8
102
}
102
{ACAD_REACTORS
330
FA8
102
}
330
FA8
100
AcDbTableStyle
  3
Standard
 70
     0
 71
     0
 40
0.06
 41
0.06
280
     0
281
     0
  7
Standard
140
0.18
170
     2
 62
     0
 63
     7
283
     0
274
    -2
284
     1
 64
     0
275
    -2
285
     1
 65
     0
276
    -2
286
     1
 66
     0
277
    -2
287
     1
 67
     0
278
    -2
288
     1
 68
     0
279
    -2
289
     1
 69
     0
  7
Standard
140
0.25
170
     5
 62
     0
 63
     7
283
     0
274
    -2
284
     1
 64
     0
275
    -2
285
     1
 65
     0
276
    -2
286
     1
 66
     0
277
    -2
287
     1
 67
     0
278
    -2
288
     1
 68
     0
279
    -2
289
     1
 69
     0
  7
Standard
140
0.18
170
     5
 62
     0
 63
     7
283
     0
274
    -2
284
     1
 64
     0
275
    -2
285
     1
 65
     0
276
    -2
286
     1
 66
     0
277
    -2
287
     1
 67
     0
278
    -2
288
     1
 68
     0
279
    -2
289
     1
 69
     0
  0
VISUALSTYLE
  5
F99
102
{ACAD_XDICTIONARY
360
F10933
102
}
102
{ACAD_REACTORS
330
F93
102
}
330
F93
100
AcDbVisualStyle
  2

 70
     4
 71
     0
 72
     2
 73
     0
 90
        0
 40
-0.6
 41
-30.0
 62
     5
 63
     7
 74
     1
 91
        4
 64
     7
 65
   257
 75
     1
175
     1
 42
1.0
 92
        0
 66
   257
 43
1.0
 76
     1
 77
     6
 78
     2
 67
     7
 79
     5
170
     0
171
     0
290
     0
174
     0
 93
        1
 44
0.0
173
     0
291
     0
 45
0.0
1001
ACAD
1000
AcDbSavedByObjectVersion
1070
     0
  0
VISUALSTYLE
  5
F9B
102
{ACAD_XDICTIONARY
360
F10937
102
}
102
{ACAD_REACTORS
330
F93
102
}
330
F93
100
AcDbVisualStyle
  2

 70
     6
 71
     1
 72
     2
 73
     2
 90
        0
 40
-0.6
 41
-30.0
 62
     5
 63
     7
 74
     2
 91
        2
 64
     7
 65
   257
 75
     2
175
     1
 42
179.0
 92
        0
 66
   257
 43
1.0
 76
     1
 77
     6
 78
     2
 67
     7
 79
     3
170
     0
171
     0
290
     0
174
     0
 93
        1
 44
0.0
173
     0
291
     0
 45
0.0
1001
ACAD
1000
AcDbSavedByObjectVersion
1070
     0
  0
VISUALSTYLE
  5
F9A
102
{ACAD_XDICTIONARY
360
F10935
102
}
102
{ACAD_REACTORS
330
F93
102
}
330
F93
100
AcDbVisualStyle
  2

 70
     5
 71
     0
 72
     2
 73
     0
 90
        0
 40
-0.6
 41
-30.0
 62
     5
 63
     7
 74
     1
 91
        4
 64
     7
 65
   257
 75
     1
175
     1
 42
1.0
 92
        0
 66
   257
 43
1.0
 76
     1
 77
     6
 78
     2
 67
     7
 79
     5
170
     0
171
     0
290
     0
174
     0
 93
        1
 44
0.0
173
     0
291
     0
 45
0.0
1001
ACAD
1000
AcDbSavedByObjectVersion
1070
     0
  0
VISUALSTYLE
  5
F98
102
{ACAD_XDICTIONARY
360
F10931
102
}
102
{ACAD_REACTORS
330
F93
102
}
330
F93
100
AcDbVisualStyle
  2

 70
     7
 71
     1
 72
     0
 73
     1
 90
        0
 40
-0.6
 41
-30.0
 62
     5
 63
     7
 74
     0
 91
        4
 64
     7
 65
   257
 75
     1
175
     1
 42
1.0
 92
        8
 66
     7
 43
1.0
 76
     1
 77
     6
 78
     2
 67
     7
 79
     5
170
     0
171
     0
290
     0
174
     0
 93
        1
 44
0.0
173
     0
291
     1
 45
0.0
1001
ACAD
1000
AcDbSavedByObjectVersion
1070
     0
  0
VISUALSTYLE
  5
F9F
102
{ACAD_XDICTIONARY
360
F1093F
102
}
102
{ACAD_REACTORS
330
F93
102
}
330
F93
100
AcDbVisualStyle
  2

 70
    12
 71
     2
 72
     2
 73
     0
 90
        0
 40
-0.6
 41
-30.0
 62
     5
 63
     7
 74
     1
 91
        4
 64
     7
 65
   257
 75
     1
175
     1
 42
1.0
 92
        8
 66
     7
 43
1.0
 76
     1
 77
     6
 78
     2
 67
     7
 79
     5
170
     0
171
     0
290
     0
174
     0
 93
        1
 44
50.0
173
     0
291
     1
 45
0.0
1001
ACAD
1000
AcDbSavedByObjectVersion
1070
     0
  0
VISUALSTYLE
  5
FA3
102
{ACAD_XDICTIONARY
360
F10947
102
}
102
{ACAD_REACTORS
330
F93
102
}
330
F93
100
AcDbVisualStyle
  2

 70
    16
 71
     2
 72
     2
 73
     3
 90
        0
 40
-0.6
 41
-30.0
 62
     5
 63
     8
 74
     1
 91
        4
 64
     7
 65
   257
 75
     1
175
     1
 42
1.0
 92
        8
 66
     8
 43
1.0
 76
     1
 77
     6
 78
     2
 67
     7
 79
     5
170
     0
171
     0
290
     0
174
     0
 93
        1
 44
0.0
173
     0
291
     1
 45
0.0
1001
ACAD
1000
AcDbSavedByObjectVersion
1070
     0
  0
VISUALSTYLE
  5
F9C
102
{ACAD_XDICTIONARY
360
F10939
102
}
102
{ACAD_REACTORS
330
F93
102
}
330
F93
100
AcDbVisualStyle
  2

 70
     9
 71
     3
 72
     2
 73
     0
 90
        0
 40
-0.6
 41
-30.0
 62
     5
 63
     7
 74
     2
 91
        2
 64
     7
 65
   257
 75
     1
175
     1
 42
179.0
 92
        8
 66
     7
 43
1.0
 76
     1
 77
     6
 78
     2
 67
     7
 79
     3
170
     0
171
     0
290
     0
174
     0
 93
        1
 44
0.0
173
     0
291
     0
 45
0.0
1001
ACAD
1000
AcDbSavedByObjectVersion
1070
     0
  0
VISUALSTYLE
  5
F9E
102
{ACAD_XDICTIONARY
360
F1093D
102
}
102
{ACAD_REACTORS
330
F93
102
}
330
F93
100
AcDbVisualStyle
  2

 70
    11
 71
     2
 72
     2
 73
     0
 90
        0
 40
-0.6
 41
-30.0
 62
     5
 63
     7
 74
     1
 91
        4
 64
     7
 65
   257
 75
     1
175
     1
 42
1.0
 92
        8
 66
     7
 43
1.0
 76
     1
 77
     6
 78
     2
 67
     7
 79
     5
170
     0
171
     0
290
     0
174
     0
 93
        1
 44
-50.0
173
     0
291
     1
 45
0.0
1001
ACAD
1000
AcDbSavedByObjectVersion
1070
     0
  0
VISUALSTYLE
  5
FA6
102
{ACAD_XDICTIONARY
360
F1094D
102
}
102
{ACAD_REACTORS
330
F93
102
}
330
F93
100
AcDbVisualStyle
  2

 70
    22
 71
     2
 72
     2
 73
     0
 90
        0
 40
-0.6
 41
-30.0
 62
     5
 63
     7
 74
     1
 91
        4
 64
     7
 65
   257
 75
     1
175
     1
 42
1.0
 92
        8
 66
     7
 43
1.0
 76
     1
 77
     6
 78
     2
 67
     7
 79
     5
170
     0
171
     0
290
     0
174
     0
 93
        1
 44
0.0
173
     0
291
     1
 45
0.0
1001
ACAD
1000
AcDbSavedByObjectVersion
1070
     0
  0
VISUALSTYLE
  5
FA2
102
{ACAD_XDICTIONARY
360
F10945
102
}
102
{ACAD_REACTORS
330
F93
102
}
330
F93
100
AcDbVisualStyle
  2

 70
    15
 71
     2
 72
     2
 73
     0
 90
        0
 40
-0.6
 41
-30.0
 62
     5
 63
     7
 74
     1
 91
        4
 64
     7
 65
   257
 75
     1
175
     1
 42
1.0
 92
        8
 66
     7
 43
1.0
 76
     1
 77
     6
 78
     2
 67
     7
 79
     5
170
     0
171
     0
290
     0
174
     0
 93
        1
 44
0.0
173
     0
291
     1
 45
0.0
1001
ACAD
1000
AcDbSavedByObjectVersion
1070
     0
  0
VISUALSTYLE
  5
F94
102
{ACAD_XDICTIONARY
360
F10929
102
}
102
{ACAD_REACTORS
330
F93
102
}
330
F93
100
AcDbVisualStyle
  2

 70
     0
 71
     2
 72
     1
 73
     1
 90
        2
 40
-0.6
 41
30.0
 62
     5
 63
     7
 74
     0
 91
        4
 64
     7
 65
   257
 75
     1
175
     1
 42
1.0
 92
        8
 66
     7
 43
1.0
 76
     1
 77
     6
 78
     2
 67
     7
 79
     5
170
     0
171
     0
290
     0
174
     0
 93
       13
 44
0.0
173
     0
291
     1
 45
0.0
1001
ACAD
1000
AcDbSavedByObjectVersion
1070
     0
  0
VISUALSTYLE
  5
F95
102
{ACAD_XDICTIONARY
360
F1092B
102
}
102
{ACAD_REACTORS
330
F93
102
}
330
F93
100
AcDbVisualStyle
  2

 70
     1
 71
     2
 72
     1
 73
     1
 90
        2
 40
-0.6
 41
30.0
 62
     5
 63
     7
 74
     1
 91
        4
 64
     7
 65
   257
 75
     1
175
     1
 42
1.0
 92
        0
 66
   257
 43
1.0
 76
     1
 77
     6
 78
     2
 67
     7
 79
     5
170
     0
171
     0
290
     0
174
     0
 93
       13
 44
0.0
173
     0
291
     1
 45
0.0
1001
ACAD
1000
AcDbSavedByObjectVersion
1070
     0
  0
VISUALSTYLE
  5
F96
102
{ACAD_XDICTIONARY
360
F1092D
102
}
102
{ACAD_REACTORS
330
F93
102
}
330
F93
100
AcDbVisualStyle
  2

 70
     2
 71
     2
 72
     2
 73
     1
 90
        2
 40
-0.6
 41
30.0
 62
     5
 63
     7
 74
     0
 91
        4
 64
     7
 65
   257
 75
     1
175
     1
 42
1.0
 92
        0
 66
     7
 43
1.0
 76
     1
 77
     6
 78
     2
 67
     7
 79
     5
170
     0
171
     0
290
     0
174
     0
 93
       13
 44
0.0
173
     0
291
     1
 45
0.0
1001
ACAD
1000
AcDbSavedByObjectVersion
1070
     0
  0
VISUALSTYLE
  5
F97
102
{ACAD_XDICTIONARY
360
F1092F
102
}
102
{ACAD_REACTORS
330
F93
102
}
330
F93
100
AcDbVisualStyle
  2

 70
     3
 71
     2
 72
     2
 73
     1
 90
        2
 40
-0.6
 41
30.0
 62
     5
 63
     7
 74
     1
 91
        4
 64
     7
 65
   257
 75
     1
175
     1
 42
1.0
 92
        0
 66
   257
 43
1.0
 76
     1
 77
     6
 78
     2
 67
     7
 79
     5
170
     0
171
     0
290
     0
174
     0
 93
       13
 44
0.0
173
     0
291
     1
 45
0.0
1001
ACAD
1000
AcDbSavedByObjectVersion
1070
     0
  0
VISUALSTYLE
  5
F10703
102
{ACAD_XDICTIONARY
360
F10956
102
}
102
{ACAD_REACTORS
330
F93
102
}
330
F93
100
AcDbVisualStyle
  2
Hidden
 70
     6
 71
     1
 72
     2
 73
     2
 90
        0
 40
-0.6
 41
-30.0
 62
     5
 63
     7
 74
     2
 91
        2
 64
     7
 65
   257
 75
     2
175
     1
 42
40.0
 92
        0
 66
   257
 43
1.0
 76
     1
 77
     6
 78
     2
 67
     7
 79
     3
170
     0
171
     0
290
     0
174
     0
 93
        1
 44
0.0
173
     0
291
     0
 45
0.0
1001
ACAD
1000
AcDbSavedByObjectVersion
1070
     0
  0
VISUALSTYLE
  5
FA4
102
{ACAD_XDICTIONARY
360
F10949
102
}
102
{ACAD_REACTORS
330
F93
102
}
330
F93
100
AcDbVisualStyle
  2

 70
    20
 71
     2
 72
     2
 73
     0
 90
        0
 40
-0.6
 41
-30.0
 62
     5
 63
     7
 74
     1
 91
        4
 64
     7
 65
   257
 75
     1
175
     1
 42
1.0
 92
       10
 66
     7
 43
1.0
 76
     1
 77
     6
 78
     2
 67
     7
 79
     5
170
     0
171
     0
290
     0
174
     0
 93
        1
 44
0.0
173
     0
291
     1
 45
0.0
1001
ACAD
1000
AcDbSavedByObjectVersion
1070
     0
  0
VISUALSTYLE
  5
FA1
102
{ACAD_XDICTIONARY
360
F10943
102
}
102
{ACAD_REACTORS
330
F93
102
}
330
F93
100
AcDbVisualStyle
  2

 70
    14
 71
     2
 72
     2
 73
     0
 90
        0
 40
-0.6
 41
-30.0
 62
     5
 63
     7
 74
     1
 91
        4
 64
     7
 65
   257
 75
     7
175
     7
 42
1.0
 92
        8
 66
     7
 43
1.0
 76
     1
 77
     6
 78
     2
 67
     7
 79
     5
170
     0
171
     0
290
     0
174
     0
 93
        1
 44
0.0
173
     0
291
     1
 45
0.0
1001
ACAD
1000
AcDbSavedByObjectVersion
1070
     0
  0
VISUALSTYLE
  5
FA5
102
{ACAD_XDICTIONARY
360
F1094B
102
}
102
{ACAD_REACTORS
330
F93
102
}
330
F93
100
AcDbVisualStyle
  2

 70
    21
 71
     2
 72
     2
 73
     0
 90
        0
 40
-0.6
 41
-30.0
 62
     5
 63
     7
 74
     1
 91
        4
 64
     7
 65
   257
 75
     1
175
     1
 42
1.0
 92
        9
 66
     7
 43
1.0
 76
     1
 77
     6
 78
     2
 67
     7
 79
     5
170
     0
171
     0
290
     0
174
     0
 93
        1
 44
0.0
173
     0
291
     1
 45
0.0
1001
ACAD
1000
AcDbSavedByObjectVersion
1070
     0
  0
VISUALSTYLE
  5
F9D
102
{ACAD_XDICTIONARY
360
F1093B
102
}
102
{ACAD_REACTORS
330
F93
102
}
330
F93
100
AcDbVisualStyle
  2

 70
     8
 71
     2
 72
     2
 73
     0
 90
        0
 40
-0.6
 41
-30.0
 62
     5
 63
     7
 74
     1
 91
        0
 64
     7
 65
   257
 75
     1
175
     1
 42
1.0
 92
        8
 66
     8
 43
1.0
 76
     1
 77
     6
 78
     2
 67
     7
 79
     5
170
     0
171
     0
290
     0
174
     0
 93
       13
 44
0.0
173
     0
291
     0
 45
0.0
1001
ACAD
1000
AcDbSavedByObjectVersion
1070
     0
  0
VISUALSTYLE
  5
F10708
102
{ACAD_XDICTIONARY
360
F10960
102
}
102
{ACAD_REACTORS
330
F93
102
}
330
F93
100
AcDbVisualStyle
  2
Shaded
 70
    27
 71
     2
 72
     2
 73
     1
 90
        2
 40
-0.6
 41
30.0
 62
     5
 63
     7
 74
     0
 91
        4
 64
     7
 65
   257
 75
     1
175
     1
 42
1.0
 92
        8
 66
   257
 43
1.0
 76
     1
 77
     6
 78
     2
 67
     8
 79
     3
170
     0
171
     0
290
     0
174
     0
 93
        5
 44
0.0
173
     0
291
     0
 45
0.0
1001
ACAD
1000
AcDbSavedByObjectVersion
1070
     0
  0
VISUALSTYLE
  5
F10707
102
{ACAD_XDICTIONARY
360
F1095E
102
}
102
{ACAD_REACTORS
330
F93
102
}
330
F93
100
AcDbVisualStyle
  2
Shaded with edges
 70
    26
 71
     2
 72
     2
 73
     1
 90
        2
 40
-0.6
 41
30.0
 62
     5
 63
     7
 74
     1
 91
       10
 64
     7
 65
   257
 75
     2
175
     1
 42
1.0
 92
        8
 66
   257
 43
1.0
 76
     1
 77
     6
 78
     2
 67
     7
 79
     3
170
     0
171
     0
290
     0
174
     0
 93
        5
 44
0.0
173
     0
291
     0
 45
0.0
1001
ACAD
1000
AcDbSavedByObjectVersion
1070
     0
  0
VISUALSTYLE
  5
F10704
102
{ACAD_XDICTIONARY
360
F10958
102
}
102
{ACAD_REACTORS
330
F93
102
}
330
F93
100
AcDbVisualStyle
  2
Shades of Gray
 70
    23
 71
     2
 72
     2
 73
     3
 90
        0
 40
-0.6
 41
-30.0
 62
     5
 63
     7
 74
     2
 91
        2
 64
     7
 65
     7
 75
     1
175
     1
 42
40.0
 92
        8
 66
     7
 43
1.0
 76
     1
 77
     6
 78
     2
 67
     7
 79
     3
170
     0
171
     0
290
     0
174
     0
 93
        1
 44
0.0
173
     0
291
     0
 45
0.0
1001
ACAD
1000
AcDbSavedByObjectVersion
1070
     0
  0
VISUALSTYLE
  5
F10705
102
{ACAD_XDICTIONARY
360
F1095A
102
}
102
{ACAD_REACTORS
330
F93
102
}
330
F93
100
AcDbVisualStyle
  2
Sketchy
 70
    24
 71
     1
 72
     2
 73
     2
 90
        0
 40
-0.6
 41
-30.0
 62
     5
 63
     7
 74
     2
 91
        2
 64
     7
 65
     7
 75
     1
175
     1
 42
40.0
 92
       11
 66
     7
 43
1.0
 76
     1
 77
     6
 78
     2
 67
     7
 79
     6
170
     0
171
     0
290
     0
174
     0
 93
        1
 44
0.0
173
     0
291
     0
 45
0.0
1001
ACAD
1000
AcDbSavedByObjectVersion
1070
     0
  0
VISUALSTYLE
  5
FA0
102
{ACAD_XDICTIONARY
360
F10941
102
}
102
{ACAD_REACTORS
330
F93
102
}
330
F93
100
AcDbVisualStyle
  2

 70
    13
 71
     2
 72
     2
 73
     0
 90
        0
 40
-0.6
 41
-30.0
 62
     5
 63
     7
 74
     1
 91
        4
 64
     7
 65
   257
 75
     1
175
     1
 42
1.0
 92
       12
 66
     7
 43
1.0
 76
     1
 77
     6
 78
     2
 67
     7
 79
     5
170
     0
171
     0
290
     0
174
     0
 93
        1
 44
0.0
173
     0
291
     1
 45
0.0
1001
ACAD
1000
AcDbSavedByObjectVersion
1070
     0
  0
VISUALSTYLE
  5
F10702
102
{ACAD_XDICTIONARY
360
F10954
102
}
102
{ACAD_REACTORS
330
F93
102
}
330
F93
100
AcDbVisualStyle
  2
Wireframe
 70
     5
 71
     0
 72
     2
 73
     0
 90
        0
 40
-0.6
 41
-30.0
 62
     5
 63
     7
 74
     1
 91
        4
 64
     7
 65
   257
 75
     1
175
     1
 42
1.0
 92
        0
 66
   257
 43
1.0
 76
     1
 77
     6
 78
     2
 67
     7
 79
     3
170
     0
171
     0
290
     0
174
     0
 93
        1
 44
0.0
173
     0
291
     0
 45
0.0
1001
ACAD
1000
AcDbSavedByObjectVersion
1070
     0
  0
VISUALSTYLE
  5
F10706
102
{ACAD_XDICTIONARY
360
F1095C
102
}
102
{ACAD_REACTORS
330
F93
102
}
330
F93
100
AcDbVisualStyle
  2
X-Ray
 70
    25
 71
     2
 72
     2
 73
     1
 90
        1
 40
0.5
 41
-30.0
 62
     5
 63
     7
 74
     1
 91
        0
 64
     7
 65
   257
 75
     1
175
     1
 42
1.0
 92
        8
 66
     7
 43
1.0
 76
     1
 77
     6
 78
     2
 67
     7
 79
     3
170
     0
171
     0
290
     0
174
     0
 93
       13
 44
0.0
173
     0
291
     0
 45
0.0
1001
ACAD
1000
AcDbSavedByObjectVersion
1070
     0
  0
DICTIONARYVAR
  5
F10919
102
{ACAD_REACTORS
330
F10916
102
}
330
F10916
100
DictionaryVariables
280
     0
  1
1:1
  0
DICTIONARYVAR
  5
F10918
102
{ACAD_REACTORS
330
F10916
102
}
330
F10916
100
DictionaryVariables
280
     0
  1
STANDARD
  0
DICTIONARYVAR
  5
F10917
102
{ACAD_REACTORS
330
F10916
102
}
330
F10916
100
DictionaryVariables
280
     0
  1
STANDARD
  0
DICTIONARYVAR
  5
F1091C
102
{ACAD_REACTORS
330
F10916
102
}
330
F10916
100
DictionaryVariables
280
     0
  1
1
  0
DICTIONARYVAR
  5
F1091B
102
{ACAD_REACTORS
330
F10916
102
}
330
F10916
100
DictionaryVariables
280
     0
  1
0
  0
DICTIONARYVAR
  5
F1091A
102
{ACAD_REACTORS
330
F10916
102
}
330
F10916
100
DictionaryVariables
280
     0
  1
127
  0
DICTIONARYVAR
  5
F1091D
102
{ACAD_REACTORS
330
F10916
102
}
330
F10916
100
DictionaryVariables
280
     0
  1
2
  0
DICTIONARY
  5
F10762
102
{ACAD_REACTORS
330
F10757
102
}
330
F10757
100
AcDbDictionary
281
     1
  0
DICTIONARY
  5
F10952
330
FD1
100
AcDbDictionary
280
     1
281
     1
  3
ACAD_XREC_ROUNDTRIP
360
F10953
  0
DICTIONARY
  5
F10950
330
FD0
100
AcDbDictionary
280
     1
281
     1
  3
ACAD_XREC_ROUNDTRIP
360
F10951
  0
DICTIONARY
  5
F84
330
F83
100
AcDbDictionary
280
     1
281
     1
  3
ACAD_XREC_ROUNDTRIP
360
FFF
  3
BUMPTILE
360
F86
  3
DIFFUSETILE
360
F85
  3
OPACITYTILE
360
F89
  3
REFLECTIONTILE
360
F88
  3
REFRACTIONTILE
360
F8A
  3
SPECULARTILE
360
F87
  0
DICTIONARY
  5
F7C
330
F7B
100
AcDbDictionary
280
     1
281
     1
  3
ACAD_XREC_ROUNDTRIP
360
FFE
  3
BUMPTILE
360
F7E
  3
DIFFUSETILE
360
F7D
  3
OPACITYTILE
360
F81
  3
REFLECTIONTILE
360
F80
  3
REFRACTIONTILE
360
F82
  3
SPECULARTILE
360
F7F
  0
DICTIONARY
  5
F8C
330
F8B
100
AcDbDictionary
280
     1
281
     1
  3
ACAD_XREC_ROUNDTRIP
360
1000
  3
BUMPTILE
360
F8E
  3
DIFFUSETILE
360
F8D
  3
OPACITYTILE
360
F91
  3
REFLECTIONTILE
360
F90
  3
REFRACTIONTILE
360
F92
  3
SPECULARTILE
360
F8F
  0
DICTIONARY
  5
FF8
330
FA9
100
AcDbDictionary
280
     1
281
     1
  3
ACAD_ROUNDTRIP_2008_TABLESTYLE_CELLSTYLEMAP
360
F1091E
  3
ACAD_XREC_ROUNDTRIP
360
F1094F
  0
DICTIONARY
  5
F10933
330
F99
100
AcDbDictionary
280
     1
281
     1
  3
ACAD_XREC_ROUNDTRIP
360
F10934
  0
DICTIONARY
  5
F10937
330
F9B
100
AcDbDictionary
280
     1
281
     1
  3
ACAD_XREC_ROUNDTRIP
360
F10938
  0
DICTIONARY
  5
F10935
330
F9A
100
AcDbDictionary
280
     1
281
     1
  3
ACAD_XREC_ROUNDTRIP
360
F10936
  0
DICTIONARY
  5
F10931
330
F98
100
AcDbDictionary
280
     1
281
     1
  3
ACAD_XREC_ROUNDTRIP
360
F10932
  0
DICTIONARY
  5
F1093F
330
F9F
100
AcDbDictionary
280
     1
281
     1
  3
ACAD_XREC_ROUNDTRIP
360
F10940
  0
DICTIONARY
  5
F10947
330
FA3
100
AcDbDictionary
280
     1
281
     1
  3
ACAD_XREC_ROUNDTRIP
360
F10948
  0
DICTIONARY
  5
F10939
330
F9C
100
AcDbDictionary
280
     1
281
     1
  3
ACAD_XREC_ROUNDTRIP
360
F1093A
  0
DICTIONARY
  5
F1093D
330
F9E
100
AcDbDictionary
280
     1
281
     1
  3
ACAD_XREC_ROUNDTRIP
360
F1093E
  0
DICTIONARY
  5
F1094D
330
FA6
100
AcDbDictionary
280
     1
281
     1
  3
ACAD_XREC_ROUNDTRIP
360
F1094E
  0
DICTIONARY
  5
F10945
330
FA2
100
AcDbDictionary
280
     1
281
     1
  3
ACAD_XREC_ROUNDTRIP
360
F10946
  0
DICTIONARY
  5
F10929
330
F94
100
AcDbDictionary
280
     1
281
     1
  3
ACAD_XREC_ROUNDTRIP
360
F1092A
  0
DICTIONARY
  5
F1092B
330
F95
100
AcDbDictionary
280
     1
281
     1
  3
ACAD_XREC_ROUNDTRIP
360
F1092C
  0
DICTIONARY
  5
F1092D
330
F96
100
AcDbDictionary
280
     1
281
     1
  3
ACAD_XREC_ROUNDTRIP
360
F1092E
  0
DICTIONARY
  5
F1092F
330
F97
100
AcDbDictionary
280
     1
281
     1
  3
ACAD_XREC_ROUNDTRIP
360
F10930
  0
DICTIONARY
  5
F10956
330
F10703
100
AcDbDictionary
280
     1
281
     1
  3
ACAD_XREC_ROUNDTRIP
360
F10957
  0
DICTIONARY
  5
F10949
330
FA4
100
AcDbDictionary
280
     1
281
     1
  3
ACAD_XREC_ROUNDTRIP
360
F1094A
  0
DICTIONARY
  5
F10943
330
FA1
100
AcDbDictionary
280
     1
281
     1
  3
ACAD_XREC_ROUNDTRIP
360
F10944
  0
DICTIONARY
  5
F1094B
330
FA5
100
AcDbDictionary
280
     1
281
     1
  3
ACAD_XREC_ROUNDTRIP
360
F1094C
  0
DICTIONARY
  5
F1093B
330
F9D
100
AcDbDictionary
280
     1
281
     1
  3
ACAD_XREC_ROUNDTRIP
360
F1093C
  0
DICTIONARY
  5
F10960
330
F10708
100
AcDbDictionary
280
     1
281
     1
  3
ACAD_XREC_ROUNDTRIP
360
F10961
  0
DICTIONARY
  5
F1095E
330
F10707
100
AcDbDictionary
280
     1
281
     1
  3
ACAD_XREC_ROUNDTRIP
360
F1095F
  0
DICTIONARY
  5
F10958
330
F10704
100
AcDbDictionary
280
     1
281
     1
  3
ACAD_XREC_ROUNDTRIP
360
F10959
  0
DICTIONARY
  5
F1095A
330
F10705
100
AcDbDictionary
280
     1
281
     1
  3
ACAD_XREC_ROUNDTRIP
360
F1095B
  0
DICTIONARY
  5
F10941
330
FA0
100
AcDbDictionary
280
     1
281
     1
  3
ACAD_XREC_ROUNDTRIP
360
F10942
  0
DICTIONARY
  5
F10954
330
F10702
100
AcDbDictionary
280
     1
281
     1
  3
ACAD_XREC_ROUNDTRIP
360
F10955
  0
DICTIONARY
  5
F1095C
330
F10706
100
AcDbDictionary
280
     1
281
     1
  3
ACAD_XREC_ROUNDTRIP
360
F1095D
  0
XRECORD
  5
F10953
102
{ACAD_REACTORS
330
F10952
102
}
330
F10952
100
AcDbXrecord
280
     1
102
SHADEPLOT
 70
     0
102
SHADEPLOTRESLEVEL
 70
     2
102
SHADEPLOTCUSTOMDPI
 70
   300
  0
XRECORD
  5
F10951
102
{ACAD_REACTORS
330
F10950
102
}
330
F10950
100
AcDbXrecord
280
     1
102
SHADEPLOT
 70
     0
102
SHADEPLOTRESLEVEL
 70
     2
102
SHADEPLOTCUSTOMDPI
 70
   300
  0
XRECORD
  5
FFF
102
{ACAD_REACTORS
330
F84
102
}
330
F84
100
AcDbXrecord
280
     1
102
MATERIAL
148
0.0
149
0.0
149
0.0
 93
        0
 94
      127
282
     0
 72
     0
 77
     0
171
     0
175
     0
179
     0
273
     0
  0
XRECORD
  5
F86
102
{ACAD_REACTORS
330
F84
102
}
330
F84
100
AcDbXrecord
280
     1
270
     1
271
     1
  0
XRECORD
  5
F85
102
{ACAD_REACTORS
330
F84
102
}
330
F84
100
AcDbXrecord
280
     1
270
     1
271
     1
  0
XRECORD
  5
F89
102
{ACAD_REACTORS
330
F84
102
}
330
F84
100
AcDbXrecord
280
     1
270
     1
271
     1
  0
XRECORD
  5
F88
102
{ACAD_REACTORS
330
F84
102
}
330
F84
100
AcDbXrecord
280
     1
270
     1
271
     1
  0
XRECORD
  5
F8A
102
{ACAD_REACTORS
330
F84
102
}
330
F84
100
AcDbXrecord
280
     1
270
     1
271
     1
  0
XRECORD
  5
F87
102
{ACAD_REACTORS
330
F84
102
}
330
F84
100
AcDbXrecord
280
     1
270
     1
271
     1
  0
XRECORD
  5
FFE
102
{ACAD_REACTORS
330
F7C
102
}
330
F7C
100
AcDbXrecord
280
     1
102
MATERIAL
148
0.0
149
0.0
149
0.0
 93
        0
 94
      127
282
     0
 72
     0
 77
     0
171
     0
175
     0
179
     0
273
     0
  0
XRECORD
  5
F7E
102
{ACAD_REACTORS
330
F7C
102
}
330
F7C
100
AcDbXrecord
280
     1
270
     1
271
     1
  0
XRECORD
  5
F7D
102
{ACAD_REACTORS
330
F7C
102
}
330
F7C
100
AcDbXrecord
280
     1
270
     1
271
     1
  0
XRECORD
  5
F81
102
{ACAD_REACTORS
330
F7C
102
}
330
F7C
100
AcDbXrecord
280
     1
270
     1
271
     1
  0
XRECORD
  5
F80
102
{ACAD_REACTORS
330
F7C
102
}
330
F7C
100
AcDbXrecord
280
     1
270
     1
271
     1
  0
XRECORD
  5
F82
102
{ACAD_REACTORS
330
F7C
102
}
330
F7C
100
AcDbXrecord
280
     1
270
     1
271
     1
  0
XRECORD
  5
F7F
102
{ACAD_REACTORS
330
F7C
102
}
330
F7C
100
AcDbXrecord
280
     1
270
     1
271
     1
  0
XRECORD
  5
1000
102
{ACAD_REACTORS
330
F8C
102
}
330
F8C
100
AcDbXrecord
280
     1
102
MATERIAL
148
0.0
149
0.0
149
0.0
 93
        0
 94
      127
282
     0
 72
     0
 77
     0
171
     0
175
     0
179
     0
273
     0
  0
XRECORD
  5
F8E
102
{ACAD_REACTORS
330
F8C
102
}
330
F8C
100
AcDbXrecord
280
     1
270
     1
271
     1
  0
XRECORD
  5
F8D
102
{ACAD_REACTORS
330
F8C
102
}
330
F8C
100
AcDbXrecord
280
     1
270
     1
271
     1
  0
XRECORD
  5
F91
102
{ACAD_REACTORS
330
F8C
102
}
330
F8C
100
AcDbXrecord
280
     1
270
     1
271
     1
  0
XRECORD
  5
F90
102
{ACAD_REACTORS
330
F8C
102
}
330
F8C
100
AcDbXrecord
280
     1
270
     1
271
     1
  0
XRECORD
  5
F92
102
{ACAD_REACTORS
330
F8C
102
}
330
F8C
100
AcDbXrecord
280
     1
270
     1
271
     1
  0
XRECORD
  5
F8F
102
{ACAD_REACTORS
330
F8C
102
}
330
F8C
100
AcDbXrecord
280
     1
270
     1
271
     1
  0
CELLSTYLEMAP
  5
F1091E
102
{ACAD_REACTORS
330
FF8
102
}
330
FF8
100
AcDbCellStyleMap
 90
        3
300
CELLSTYLE
  1
TABLEFORMAT_BEGIN
 90
        5
170
     1
 91
        0
 92
    32768
 62
   257
 93
        1
300
CONTENTFORMAT
  1
CONTENTFORMAT_BEGIN
 90
        0
 91
        0
 92
      512
 93
        0
300

 40
0.0
140
1.0
 94
        5
 62
     0
340
253
144
0.25
309
CONTENTFORMAT_END
171
     1
301
MARGIN
  1
CELLMARGIN_BEGIN
 40
0.06
 40
0.06
 40
0.06
 40
0.06
 40
0.18
 40
0.18
309
CELLMARGIN_END
 94
        6
 95
        1
302
GRIDFORMAT
  1
GRIDFORMAT_BEGIN
 90
        0
 91
        1
 62
     0
 92
       -2
340
0
 93
        0
 40
0.045
309
GRIDFORMAT_END
 95
        2
302
GRIDFORMAT
  1
GRIDFORMAT_BEGIN
 90
        0
 91
        1
 62
     0
 92
       -2
340
0
 93
        0
 40
0.045
309
GRIDFORMAT_END
 95
        4
302
GRIDFORMAT
  1
GRIDFORMAT_BEGIN
 90
        0
 91
        1
 62
     0
 92
       -2
340
0
 93
        0
 40
0.045
309
GRIDFORMAT_END
 95
        8
302
GRIDFORMAT
  1
GRIDFORMAT_BEGIN
 90
        0
 91
        1
 62
     0
 92
       -2
340
0
 93
        0
 40
0.045
309
GRIDFORMAT_END
 95
       16
302
GRIDFORMAT
  1
GRIDFORMAT_BEGIN
 90
        0
 91
        1
 62
     0
 92
       -2
340
0
 93
        0
 40
0.045
309
GRIDFORMAT_END
 95
       32
302
GRIDFORMAT
  1
GRIDFORMAT_BEGIN
 90
        0
 91
        1
 62
     0
 92
       -2
340
0
 93
        0
 40
0.045
309
GRIDFORMAT_END
309
TABLEFORMAT_END
  1
CELLSTYLE_BEGIN
 90
        1
 91
        1
300
_TITLE
309
CELLSTYLE_END
300
CELLSTYLE
  1
TABLEFORMAT_BEGIN
 90
        5
170
     1
 91
        0
 92
        0
 62
   257
 93
        1
300
CONTENTFORMAT
  1
CONTENTFORMAT_BEGIN
 90
        0
 91
        0
 92
      512
 93
        0
300

 40
0.0
140
1.0
 94
        5
 62
     0
340
253
144
0.18
309
CONTENTFORMAT_END
171
     1
301
MARGIN
  1
CELLMARGIN_BEGIN
 40
0.06
 40
0.06
 40
0.06
 40
0.06
 40
0.18
 40
0.18
309
CELLMARGIN_END
 94
        6
 95
        1
302
GRIDFORMAT
  1
GRIDFORMAT_BEGIN
 90
        0
 91
        1
 62
     0
 92
       -2
340
0
 93
        0
 40
0.045
309
GRIDFORMAT_END
 95
        2
302
GRIDFORMAT
  1
GRIDFORMAT_BEGIN
 90
        0
 91
        1
 62
     0
 92
       -2
340
0
 93
        0
 40
0.045
309
GRIDFORMAT_END
 95
        4
302
GRIDFORMAT
  1
GRIDFORMAT_BEGIN
 90
        0
 91
        1
 62
     0
 92
       -2
340
0
 93
        0
 40
0.045
309
GRIDFORMAT_END
 95
        8
302
GRIDFORMAT
  1
GRIDFORMAT_BEGIN
 90
        0
 91
        1
 62
     0
 92
       -2
340
0
 93
        0
 40
0.045
309
GRIDFORMAT_END
 95
       16
302
GRIDFORMAT
  1
GRIDFORMAT_BEGIN
 90
        0
 91
        1
 62
     0
 92
       -2
340
0
 93
        0
 40
0.045
309
GRIDFORMAT_END
 95
       32
302
GRIDFORMAT
  1
GRIDFORMAT_BEGIN
 90
        0
 91
        1
 62
     0
 92
       -2
340
0
 93
        0
 40
0.045
309
GRIDFORMAT_END
309
TABLEFORMAT_END
  1
CELLSTYLE_BEGIN
 90
        2
 91
        1
300
_HEADER
309
CELLSTYLE_END
300
CELLSTYLE
  1
TABLEFORMAT_BEGIN
 90
        5
170
     1
 91
        0
 92
        0
 62
   257
 93
        1
300
CONTENTFORMAT
  1
CONTENTFORMAT_BEGIN
 90
        0
 91
        0
 92
      512
 93
        0
300

 40
0.0
140
1.0
 94
        2
 62
     0
340
253
144
0.18
309
CONTENTFORMAT_END
171
     1
301
MARGIN
  1
CELLMARGIN_BEGIN
 40
0.06
 40
0.06
 40
0.06
 40
0.06
 40
0.18
 40
0.18
309
CELLMARGIN_END
 94
        6
 95
        1
302
GRIDFORMAT
  1
GRIDFORMAT_BEGIN
 90
        0
 91
        1
 62
     0
 92
       -2
340
0
 93
        0
 40
0.045
309
GRIDFORMAT_END
 95
        2
302
GRIDFORMAT
  1
GRIDFORMAT_BEGIN
 90
        0
 91
        1
 62
     0
 92
       -2
340
0
 93
        0
 40
0.045
309
GRIDFORMAT_END
 95
        4
302
GRIDFORMAT
  1
GRIDFORMAT_BEGIN
 90
        0
 91
        1
 62
     0
 92
       -2
340
0
 93
        0
 40
0.045
309
GRIDFORMAT_END
 95
        8
302
GRIDFORMAT
  1
GRIDFORMAT_BEGIN
 90
        0
 91
        1
 62
     0
 92
       -2
340
0
 93
        0
 40
0.045
309
GRIDFORMAT_END
 95
       16
302
GRIDFORMAT
  1
GRIDFORMAT_BEGIN
 90
        0
 91
        1
 62
     0
 92
       -2
340
0
 93
        0
 40
0.045
309
GRIDFORMAT_END
 95
       32
302
GRIDFORMAT
  1
GRIDFORMAT_BEGIN
 90
        0
 91
        1
 62
     0
 92
       -2
340
0
 93
        0
 40
0.045
309
GRIDFORMAT_END
309
TABLEFORMAT_END
  1
CELLSTYLE_BEGIN
 90
        3
 91
        2
300
_DATA
309
CELLSTYLE_END
  0
XRECORD
  5
F1094F
102
{ACAD_REACTORS
330
FF8
102
}
330
FF8
100
AcDbXrecord
280
     1
102
ACAD_ROUNDTRIP_PRE2007_TABLESTYLE
 90
      512
 91
        0
  1

 92
      512
 93
        0
  2

 94
      512
 95
        0
  3

  0
XRECORD
  5
F10934
102
{ACAD_REACTORS
330
F10933
102
}
330
F10933
100
AcDbXrecord
280
     1
102
RTVSPropertyOp0
 70
     1
102
RTVSPropertyOp1
 70
     1
102
RTVSPropertyOp2
 70
     1
102
RTVSPropertyOp3
 70
     1
102
RTVSPropertyOp4
 70
     1
102
RTVSPropertyOp5
 70
     1
102
RTVSPropertyOp6
 70
     1
102
RTVSPropertyOp7
 70
     1
102
RTVSPropertyOp8
 70
     1
102
RTVSPropertyOp9
 70
     1
102
RTVSPropertyOp10
 70
     1
102
RTVSPropertyOp11
 70
     1
102
RTVSPropertyOp12
 70
     1
102
RTVSPropertyOp13
 70
     1
102
RTVSPropertyOp14
 70
     1
102
RTVSPropertyOp15
 70
     1
102
RTVSPropertyOp16
 70
     1
102
RTVSPropertyOp17
 70
     1
102
RTVSPropertyOp18
 70
     1
102
RTVSPropertyOp19
 70
     1
102
RTVSPropertyOp20
 70
     1
102
RTVSPropertyOp21
 70
     1
102
RTVSPropertyOp22
 70
     1
102
RTVSPropertyOp23
 70
     1
102
RTVSPropertyOp24
 70
     1
102
RTVSPropertyOp25
 70
     1
102
RTVSPropertyOp26
 70
     1
102
RTVSPropertyOp27
 70
     1
102
RTVSPropertyOp28
 70
     1
102
RTVSPropertyOp29
 70
     1
102
RTVSPropertyOp30
 70
     1
102
RTVSPropertyOp31
 70
     1
102
RTVSPropertyOp32
 70
     1
  0
XRECORD
  5
F10938
102
{ACAD_REACTORS
330
F10937
102
}
330
F10937
100
AcDbXrecord
280
     1
102
RTVSPropertyOp0
 70
     1
102
RTVSPropertyOp1
 70
     1
102
RTVSPropertyOp2
 70
     1
102
RTVSPropertyOp3
 70
     1
102
RTVSPropertyOp4
 70
     1
102
RTVSPropertyOp5
 70
     1
102
RTVSPropertyOp6
 70
     1
102
RTVSPropertyOp7
 70
     1
102
RTVSPropertyOp8
 70
     1
102
RTVSPropertyOp9
 70
     1
102
RTVSPropertyOp10
 70
     1
102
RTVSPropertyOp11
 70
     1
102
RTVSPropertyOp12
 70
     1
102
RTVSPropertyOp13
 70
     1
102
RTVSPropertyOp14
 70
     1
102
RTVSPropertyOp15
 70
     1
102
RTVSPropertyOp16
 70
     1
102
RTVSPropertyOp17
 70
     1
102
RTVSPropertyOp18
 70
     1
102
RTVSPropertyOp19
 70
     1
102
RTVSPropertyOp20
 70
     1
102
RTVSPropertyOp21
 70
     1
102
RTVSPropertyOp22
 70
     1
102
RTVSPropertyOp23
 70
     1
102
RTVSPropertyOp24
 70
     1
102
RTVSPropertyOp25
 70
     1
102
RTVSPropertyOp26
 70
     1
102
RTVSPropertyOp27
 70
     1
102
RTVSPropertyOp28
 70
     1
102
RTVSPropertyOp29
 70
     1
102
RTVSPropertyOp30
 70
     1
102
RTVSPropertyOp31
 70
     1
102
RTVSPropertyOp32
 70
     1
  0
XRECORD
  5
F10936
102
{ACAD_REACTORS
330
F10935
102
}
330
F10935
100
AcDbXrecord
280
     1
102
RTVSPropertyOp0
 70
     1
102
RTVSPropertyOp1
 70
     1
102
RTVSPropertyOp2
 70
     1
102
RTVSPropertyOp3
 70
     1
102
RTVSPropertyOp4
 70
     1
102
RTVSPropertyOp5
 70
     1
102
RTVSPropertyOp6
 70
     1
102
RTVSPropertyOp7
 70
     1
102
RTVSPropertyOp8
 70
     1
102
RTVSPropertyOp9
 70
     1
102
RTVSPropertyOp10
 70
     1
102
RTVSPropertyOp11
 70
     1
102
RTVSPropertyOp12
 70
     1
102
RTVSPropertyOp13
 70
     1
102
RTVSPropertyOp14
 70
     1
102
RTVSPropertyOp15
 70
     1
102
RTVSPropertyOp16
 70
     1
102
RTVSPropertyOp17
 70
     1
102
RTVSPropertyOp18
 70
     1
102
RTVSPropertyOp19
 70
     1
102
RTVSPropertyOp20
 70
     1
102
RTVSPropertyOp21
 70
     1
102
RTVSPropertyOp22
 70
     1
102
RTVSPropertyOp23
 70
     1
102
RTVSPropertyOp24
 70
     1
102
RTVSPropertyOp25
 70
     1
102
RTVSPropertyOp26
 70
     1
102
RTVSPropertyOp27
 70
     1
102
RTVSPropertyOp28
 70
     1
102
RTVSPropertyOp29
 70
     1
102
RTVSPropertyOp30
 70
     1
102
RTVSPropertyOp31
 70
     1
102
RTVSPropertyOp32
 70
     1
  0
XRECORD
  5
F10932
102
{ACAD_REACTORS
330
F10931
102
}
330
F10931
100
AcDbXrecord
280
     1
102
RTVSPropertyOp0
 70
     1
102
RTVSPropertyOp1
 70
     1
102
RTVSPropertyOp2
 70
     1
102
RTVSPropertyOp3
 70
     1
102
RTVSPropertyOp4
 70
     1
102
RTVSPropertyOp5
 70
     1
102
RTVSPropertyOp6
 70
     1
102
RTVSPropertyOp7
 70
     1
102
RTVSPropertyOp8
 70
     1
102
RTVSPropertyOp9
 70
     1
102
RTVSPropertyOp10
 70
     1
102
RTVSPropertyOp11
 70
     1
102
RTVSPropertyOp12
 70
     1
102
RTVSPropertyOp13
 70
     1
102
RTVSPropertyOp14
 70
     1
102
RTVSPropertyOp15
 70
     1
102
RTVSPropertyOp16
 70
     1
102
RTVSPropertyOp17
 70
     1
102
RTVSPropertyOp18
 70
     1
102
RTVSPropertyOp19
 70
     1
102
RTVSPropertyOp20
 70
     1
102
RTVSPropertyOp21
 70
     1
102
RTVSPropertyOp22
 70
     1
102
RTVSPropertyOp23
 70
     1
102
RTVSPropertyOp24
 70
     1
102
RTVSPropertyOp25
 70
     1
102
RTVSPropertyOp26
 70
     1
102
RTVSPropertyOp27
 70
     1
102
RTVSPropertyOp28
 70
     1
102
RTVSPropertyOp29
 70
     1
102
RTVSPropertyOp30
 70
     1
102
RTVSPropertyOp31
 70
     1
102
RTVSPropertyOp32
 70
     1
  0
XRECORD
  5
F10940
102
{ACAD_REACTORS
330
F1093F
102
}
330
F1093F
100
AcDbXrecord
280
     1
102
RTVSPropertyOp0
 70
     1
102
RTVSPropertyOp1
 70
     1
102
RTVSPropertyOp2
 70
     1
102
RTVSPropertyOp3
 70
     1
102
RTVSPropertyOp4
 70
     1
102
RTVSPropertyOp5
 70
     1
102
RTVSPropertyOp6
 70
     1
102
RTVSPropertyOp7
 70
     1
102
RTVSPropertyOp8
 70
     1
102
RTVSPropertyOp9
 70
     1
102
RTVSPropertyOp10
 70
     1
102
RTVSPropertyOp11
 70
     1
102
RTVSPropertyOp12
 70
     1
102
RTVSPropertyOp13
 70
     1
102
RTVSPropertyOp14
 70
     1
102
RTVSPropertyOp15
 70
     1
102
RTVSPropertyOp16
 70
     1
102
RTVSPropertyOp17
 70
     1
102
RTVSPropertyOp18
 70
     1
102
RTVSPropertyOp19
 70
     1
102
RTVSPropertyOp20
 70
     1
102
RTVSPropertyOp21
 70
     1
102
RTVSPropertyOp22
 70
     1
102
RTVSPropertyOp23
 70
     1
102
RTVSPropertyOp24
 70
     1
102
RTVSPropertyOp25
 70
     1
102
RTVSPropertyOp26
 70
     1
102
RTVSPropertyOp27
 70
     1
102
RTVSPropertyOp28
 70
     1
102
RTVSPropertyOp29
 70
     1
102
RTVSPropertyOp30
 70
     1
102
RTVSPropertyOp31
 70
     1
102
RTVSPropertyOp32
 70
     1
  0
XRECORD
  5
F10948
102
{ACAD_REACTORS
330
F10947
102
}
330
F10947
100
AcDbXrecord
280
     1
102
RTVSPropertyOp0
 70
     1
102
RTVSPropertyOp1
 70
     1
102
RTVSPropertyOp2
 70
     1
102
RTVSPropertyOp3
 70
     1
102
RTVSPropertyOp4
 70
     1
102
RTVSPropertyOp5
 70
     1
102
RTVSPropertyOp6
 70
     1
102
RTVSPropertyOp7
 70
     1
102
RTVSPropertyOp8
 70
     1
102
RTVSPropertyOp9
 70
     1
102
RTVSPropertyOp10
 70
     1
102
RTVSPropertyOp11
 70
     1
102
RTVSPropertyOp12
 70
     1
102
RTVSPropertyOp13
 70
     1
102
RTVSPropertyOp14
 70
     1
102
RTVSPropertyOp15
 70
     1
102
RTVSPropertyOp16
 70
     1
102
RTVSPropertyOp17
 70
     1
102
RTVSPropertyOp18
 70
     1
102
RTVSPropertyOp19
 70
     1
102
RTVSPropertyOp20
 70
     1
102
RTVSPropertyOp21
 70
     1
102
RTVSPropertyOp22
 70
     1
102
RTVSPropertyOp23
 70
     1
102
RTVSPropertyOp24
 70
     1
102
RTVSPropertyOp25
 70
     1
102
RTVSPropertyOp26
 70
     1
102
RTVSPropertyOp27
 70
     1
102
RTVSPropertyOp28
 70
     1
102
RTVSPropertyOp29
 70
     1
102
RTVSPropertyOp30
 70
     1
102
RTVSPropertyOp31
 70
     1
102
RTVSPropertyOp32
 70
     1
  0
XRECORD
  5
F1093A
102
{ACAD_REACTORS
330
F10939
102
}
330
F10939
100
AcDbXrecord
280
     1
102
RTVSPropertyOp0
 70
     1
102
RTVSPropertyOp1
 70
     1
102
RTVSPropertyOp2
 70
     1
102
RTVSPropertyOp3
 70
     1
102
RTVSPropertyOp4
 70
     1
102
RTVSPropertyOp5
 70
     1
102
RTVSPropertyOp6
 70
     1
102
RTVSPropertyOp7
 70
     1
102
RTVSPropertyOp8
 70
     1
102
RTVSPropertyOp9
 70
     1
102
RTVSPropertyOp10
 70
     1
102
RTVSPropertyOp11
 70
     1
102
RTVSPropertyOp12
 70
     1
102
RTVSPropertyOp13
 70
     1
102
RTVSPropertyOp14
 70
     1
102
RTVSPropertyOp15
 70
     1
102
RTVSPropertyOp16
 70
     1
102
RTVSPropertyOp17
 70
     1
102
RTVSPropertyOp18
 70
     1
102
RTVSPropertyOp19
 70
     1
102
RTVSPropertyOp20
 70
     1
102
RTVSPropertyOp21
 70
     1
102
RTVSPropertyOp22
 70
     1
102
RTVSPropertyOp23
 70
     1
102
RTVSPropertyOp24
 70
     1
102
RTVSPropertyOp25
 70
     1
102
RTVSPropertyOp26
 70
     1
102
RTVSPropertyOp27
 70
     1
102
RTVSPropertyOp28
 70
     1
102
RTVSPropertyOp29
 70
     1
102
RTVSPropertyOp30
 70
     1
102
RTVSPropertyOp31
 70
     1
102
RTVSPropertyOp32
 70
     1
  0
XRECORD
  5
F1093E
102
{ACAD_REACTORS
330
F1093D
102
}
330
F1093D
100
AcDbXrecord
280
     1
102
RTVSPropertyOp0
 70
     1
102
RTVSPropertyOp1
 70
     1
102
RTVSPropertyOp2
 70
     1
102
RTVSPropertyOp3
 70
     1
102
RTVSPropertyOp4
 70
     1
102
RTVSPropertyOp5
 70
     1
102
RTVSPropertyOp6
 70
     1
102
RTVSPropertyOp7
 70
     1
102
RTVSPropertyOp8
 70
     1
102
RTVSPropertyOp9
 70
     1
102
RTVSPropertyOp10
 70
     1
102
RTVSPropertyOp11
 70
     1
102
RTVSPropertyOp12
 70
     1
102
RTVSPropertyOp13
 70
     1
102
RTVSPropertyOp14
 70
     1
102
RTVSPropertyOp15
 70
     1
102
RTVSPropertyOp16
 70
     1
102
RTVSPropertyOp17
 70
     1
102
RTVSPropertyOp18
 70
     1
102
RTVSPropertyOp19
 70
     1
102
RTVSPropertyOp20
 70
     1
102
RTVSPropertyOp21
 70
     1
102
RTVSPropertyOp22
 70
     1
102
RTVSPropertyOp23
 70
     1
102
RTVSPropertyOp24
 70
     1
102
RTVSPropertyOp25
 70
     1
102
RTVSPropertyOp26
 70
     1
102
RTVSPropertyOp27
 70
     1
102
RTVSPropertyOp28
 70
     1
102
RTVSPropertyOp29
 70
     1
102
RTVSPropertyOp30
 70
     1
102
RTVSPropertyOp31
 70
     1
102
RTVSPropertyOp32
 70
     1
  0
XRECORD
  5
F1094E
102
{ACAD_REACTORS
330
F1094D
102
}
330
F1094D
100
AcDbXrecord
280
     1
102
RTVSPropertyOp0
 70
     0
102
RTVSPropertyOp1
 70
     0
102
RTVSPropertyOp2
 70
     0
102
RTVSPropertyOp3
 70
     0
102
RTVSPropertyOp4
 70
     0
102
RTVSPropertyOp5
 70
     0
102
RTVSPropertyOp6
 70
     0
102
RTVSPropertyOp7
 70
     0
102
RTVSPropertyOp8
 70
     0
102
RTVSPropertyOp9
 70
     0
102
RTVSPropertyOp10
 70
     0
102
RTVSPropertyOp11
 70
     0
102
RTVSPropertyOp12
 70
     0
102
RTVSPropertyOp13
 70
     0
102
RTVSPropertyOp14
 70
     2
102
RTVSPropertyOp15
 70
     0
102
RTVSPropertyOp16
 70
     0
102
RTVSPropertyOp17
 70
     0
102
RTVSPropertyOp18
 70
     0
102
RTVSPropertyOp19
 70
     0
102
RTVSPropertyOp20
 70
     0
102
RTVSPropertyOp21
 70
     0
102
RTVSPropertyOp22
 70
     0
102
RTVSPropertyOp23
 70
     0
102
RTVSPropertyOp24
 70
     0
102
RTVSPropertyOp25
 70
     0
102
RTVSPropertyOp26
 70
     0
102
RTVSPropertyOp27
 70
     0
102
RTVSPropertyOp28
 70
     1
102
RTVSPropertyOp29
 70
     1
102
RTVSPropertyOp30
 70
     1
102
RTVSPropertyOp31
 70
     1
102
RTVSPropertyOp32
 70
     1
  0
XRECORD
  5
F10946
102
{ACAD_REACTORS
330
F10945
102
}
330
F10945
100
AcDbXrecord
280
     1
102
RTVSPropertyOp0
 70
     1
102
RTVSPropertyOp1
 70
     1
102
RTVSPropertyOp2
 70
     1
102
RTVSPropertyOp3
 70
     1
102
RTVSPropertyOp4
 70
     1
102
RTVSPropertyOp5
 70
     1
102
RTVSPropertyOp6
 70
     1
102
RTVSPropertyOp7
 70
     1
102
RTVSPropertyOp8
 70
     1
102
RTVSPropertyOp9
 70
     1
102
RTVSPropertyOp10
 70
     1
102
RTVSPropertyOp11
 70
     1
102
RTVSPropertyOp12
 70
     1
102
RTVSPropertyOp13
 70
     1
102
RTVSPropertyOp14
 70
     1
102
RTVSPropertyOp15
 70
     1
102
RTVSPropertyOp16
 70
     1
102
RTVSPropertyOp17
 70
     1
102
RTVSPropertyOp18
 70
     1
102
RTVSPropertyOp19
 70
     1
102
RTVSPropertyOp20
 70
     1
102
RTVSPropertyOp21
 70
     1
102
RTVSPropertyOp22
 70
     1
102
RTVSPropertyOp23
 70
     1
102
RTVSPropertyOp24
 70
     1
102
RTVSPropertyOp25
 70
     1
102
RTVSPropertyOp26
 70
     1
102
RTVSPropertyOp27
 70
     1
102
RTVSPropertyOp28
 70
     1
102
RTVSPropertyOp29
 70
     1
102
RTVSPropertyOp30
 70
     1
102
RTVSPropertyOp31
 70
     1
102
RTVSPropertyOp32
 70
     1
  0
XRECORD
  5
F1092A
102
{ACAD_REACTORS
330
F10929
102
}
330
F10929
100
AcDbXrecord
280
     1
102
RTVSPropertyOp0
 70
     1
102
RTVSPropertyOp1
 70
     1
102
RTVSPropertyOp2
 70
     1
102
RTVSPropertyOp3
 70
     1
102
RTVSPropertyOp4
 70
     1
102
RTVSPropertyOp5
 70
     1
102
RTVSPropertyOp6
 70
     1
102
RTVSPropertyOp7
 70
     1
102
RTVSPropertyOp8
 70
     1
102
RTVSPropertyOp9
 70
     1
102
RTVSPropertyOp10
 70
     1
102
RTVSPropertyOp11
 70
     1
102
RTVSPropertyOp12
 70
     1
102
RTVSPropertyOp13
 70
     1
102
RTVSPropertyOp14
 70
     1
102
RTVSPropertyOp15
 70
     1
102
RTVSPropertyOp16
 70
     1
102
RTVSPropertyOp17
 70
     1
102
RTVSPropertyOp18
 70
     1
102
RTVSPropertyOp19
 70
     1
102
RTVSPropertyOp20
 70
     1
102
RTVSPropertyOp21
 70
     1
102
RTVSPropertyOp22
 70
     1
102
RTVSPropertyOp23
 70
     1
102
RTVSPropertyOp24
 70
     1
102
RTVSPropertyOp25
 70
     1
102
RTVSPropertyOp26
 70
     1
102
RTVSPropertyOp27
 70
     1
102
RTVSPropertyOp28
 70
     1
102
RTVSPropertyOp29
 70
     1
102
RTVSPropertyOp30
 70
     1
102
RTVSPropertyOp31
 70
     1
102
RTVSPropertyOp32
 70
     1
  0
XRECORD
  5
F1092C
102
{ACAD_REACTORS
330
F1092B
102
}
330
F1092B
100
AcDbXrecord
280
     1
102
RTVSPropertyOp0
 70
     1
102
RTVSPropertyOp1
 70
     1
102
RTVSPropertyOp2
 70
     1
102
RTVSPropertyOp3
 70
     1
102
RTVSPropertyOp4
 70
     1
102
RTVSPropertyOp5
 70
     1
102
RTVSPropertyOp6
 70
     1
102
RTVSPropertyOp7
 70
     1
102
RTVSPropertyOp8
 70
     1
102
RTVSPropertyOp9
 70
     1
102
RTVSPropertyOp10
 70
     1
102
RTVSPropertyOp11
 70
     1
102
RTVSPropertyOp12
 70
     1
102
RTVSPropertyOp13
 70
     1
102
RTVSPropertyOp14
 70
     1
102
RTVSPropertyOp15
 70
     1
102
RTVSPropertyOp16
 70
     1
102
RTVSPropertyOp17
 70
     1
102
RTVSPropertyOp18
 70
     1
102
RTVSPropertyOp19
 70
     1
102
RTVSPropertyOp20
 70
     1
102
RTVSPropertyOp21
 70
     1
102
RTVSPropertyOp22
 70
     1
102
RTVSPropertyOp23
 70
     1
102
RTVSPropertyOp24
 70
     1
102
RTVSPropertyOp25
 70
     1
102
RTVSPropertyOp26
 70
     1
102
RTVSPropertyOp27
 70
     1
102
RTVSPropertyOp28
 70
     1
102
RTVSPropertyOp29
 70
     1
102
RTVSPropertyOp30
 70
     1
102
RTVSPropertyOp31
 70
     1
102
RTVSPropertyOp32
 70
     1
  0
XRECORD
  5
F1092E
102
{ACAD_REACTORS
330
F1092D
102
}
330
F1092D
100
AcDbXrecord
280
     1
102
RTVSPropertyOp0
 70
     1
102
RTVSPropertyOp1
 70
     1
102
RTVSPropertyOp2
 70
     1
102
RTVSPropertyOp3
 70
     1
102
RTVSPropertyOp4
 70
     1
102
RTVSPropertyOp5
 70
     1
102
RTVSPropertyOp6
 70
     1
102
RTVSPropertyOp7
 70
     1
102
RTVSPropertyOp8
 70
     1
102
RTVSPropertyOp9
 70
     1
102
RTVSPropertyOp10
 70
     1
102
RTVSPropertyOp11
 70
     1
102
RTVSPropertyOp12
 70
     1
102
RTVSPropertyOp13
 70
     1
102
RTVSPropertyOp14
 70
     1
102
RTVSPropertyOp15
 70
     1
102
RTVSPropertyOp16
 70
     1
102
RTVSPropertyOp17
 70
     1
102
RTVSPropertyOp18
 70
     1
102
RTVSPropertyOp19
 70
     1
102
RTVSPropertyOp20
 70
     1
102
RTVSPropertyOp21
 70
     1
102
RTVSPropertyOp22
 70
     1
102
RTVSPropertyOp23
 70
     1
102
RTVSPropertyOp24
 70
     1
102
RTVSPropertyOp25
 70
     1
102
RTVSPropertyOp26
 70
     1
102
RTVSPropertyOp27
 70
     1
102
RTVSPropertyOp28
 70
     1
102
RTVSPropertyOp29
 70
     1
102
RTVSPropertyOp30
 70
     1
102
RTVSPropertyOp31
 70
     1
102
RTVSPropertyOp32
 70
     1
  0
XRECORD
  5
F10930
102
{ACAD_REACTORS
330
F1092F
102
}
330
F1092F
100
AcDbXrecord
280
     1
102
RTVSPropertyOp0
 70
     1
102
RTVSPropertyOp1
 70
     1
102
RTVSPropertyOp2
 70
     1
102
RTVSPropertyOp3
 70
     1
102
RTVSPropertyOp4
 70
     1
102
RTVSPropertyOp5
 70
     1
102
RTVSPropertyOp6
 70
     1
102
RTVSPropertyOp7
 70
     1
102
RTVSPropertyOp8
 70
     1
102
RTVSPropertyOp9
 70
     1
102
RTVSPropertyOp10
 70
     1
102
RTVSPropertyOp11
 70
     1
102
RTVSPropertyOp12
 70
     1
102
RTVSPropertyOp13
 70
     1
102
RTVSPropertyOp14
 70
     1
102
RTVSPropertyOp15
 70
     1
102
RTVSPropertyOp16
 70
     1
102
RTVSPropertyOp17
 70
     1
102
RTVSPropertyOp18
 70
     1
102
RTVSPropertyOp19
 70
     1
102
RTVSPropertyOp20
 70
     1
102
RTVSPropertyOp21
 70
     1
102
RTVSPropertyOp22
 70
     1
102
RTVSPropertyOp23
 70
     1
102
RTVSPropertyOp24
 70
     1
102
RTVSPropertyOp25
 70
     1
102
RTVSPropertyOp26
 70
     1
102
RTVSPropertyOp27
 70
     1
102
RTVSPropertyOp28
 70
     1
102
RTVSPropertyOp29
 70
     1
102
RTVSPropertyOp30
 70
     1
102
RTVSPropertyOp31
 70
     1
102
RTVSPropertyOp32
 70
     1
  0
XRECORD
  5
F10957
102
{ACAD_REACTORS
330
F10956
102
}
330
F10956
100
AcDbXrecord
280
     1
102
RTVSPropertyOp0
 70
     1
102
RTVSPropertyOp1
 70
     1
102
RTVSPropertyOp2
 70
     1
102
RTVSPropertyOp3
 70
     1
102
RTVSPropertyOp4
 70
     1
102
RTVSPropertyOp5
 70
     1
102
RTVSPropertyOp6
 70
     1
102
RTVSPropertyOp7
 70
     1
102
RTVSPropertyOp8
 70
     1
102
RTVSPropertyOp9
 70
     1
102
RTVSPropertyOp10
 70
     1
102
RTVSPropertyOp11
 70
     1
102
RTVSPropertyOp12
 70
     1
102
RTVSPropertyOp13
 70
     1
102
RTVSPropertyOp14
 70
     1
102
RTVSPropertyOp15
 70
     1
102
RTVSPropertyOp16
 70
     1
102
RTVSPropertyOp17
 70
     1
102
RTVSPropertyOp18
 70
     1
102
RTVSPropertyOp19
 70
     1
102
RTVSPropertyOp20
 70
     1
102
RTVSPropertyOp21
 70
     1
102
RTVSPropertyOp22
 70
     1
102
RTVSPropertyOp23
 70
     1
102
RTVSPropertyOp24
 70
     1
102
RTVSPropertyOp25
 70
     1
102
RTVSPropertyOp26
 70
     1
102
RTVSPropertyOp27
 70
     1
102
RTVSPropertyOp28
 70
     1
102
RTVSPropertyOp29
 70
     1
102
RTVSPropertyOp30
 70
     1
102
RTVSPropertyOp31
 70
     1
102
RTVSPropertyOp32
 70
     1
  0
XRECORD
  5
F1094A
102
{ACAD_REACTORS
330
F10949
102
}
330
F10949
100
AcDbXrecord
280
     1
102
RTVSPropertyOp0
 70
     0
102
RTVSPropertyOp1
 70
     0
102
RTVSPropertyOp2
 70
     0
102
RTVSPropertyOp3
 70
     0
102
RTVSPropertyOp4
 70
     0
102
RTVSPropertyOp5
 70
     0
102
RTVSPropertyOp6
 70
     0
102
RTVSPropertyOp7
 70
     0
102
RTVSPropertyOp8
 70
     0
102
RTVSPropertyOp9
 70
     0
102
RTVSPropertyOp10
 70
     0
102
RTVSPropertyOp11
 70
     0
102
RTVSPropertyOp12
 70
     0
102
RTVSPropertyOp13
 70
     0
102
RTVSPropertyOp14
 70
     2
102
RTVSPropertyOp15
 70
     0
102
RTVSPropertyOp16
 70
     0
102
RTVSPropertyOp17
 70
     0
102
RTVSPropertyOp18
 70
     0
102
RTVSPropertyOp19
 70
     0
102
RTVSPropertyOp20
 70
     0
102
RTVSPropertyOp21
 70
     0
102
RTVSPropertyOp22
 70
     0
102
RTVSPropertyOp23
 70
     0
102
RTVSPropertyOp24
 70
     0
102
RTVSPropertyOp25
 70
     0
102
RTVSPropertyOp26
 70
     0
102
RTVSPropertyOp27
 70
     0
102
RTVSPropertyOp28
 70
     1
102
RTVSPropertyOp29
 70
     1
102
RTVSPropertyOp30
 70
     1
102
RTVSPropertyOp31
 70
     1
102
RTVSPropertyOp32
 70
     1
  0
XRECORD
  5
F10944
102
{ACAD_REACTORS
330
F10943
102
}
330
F10943
100
AcDbXrecord
280
     1
102
RTVSPropertyOp0
 70
     1
102
RTVSPropertyOp1
 70
     1
102
RTVSPropertyOp2
 70
     1
102
RTVSPropertyOp3
 70
     1
102
RTVSPropertyOp4
 70
     1
102
RTVSPropertyOp5
 70
     1
102
RTVSPropertyOp6
 70
     1
102
RTVSPropertyOp7
 70
     1
102
RTVSPropertyOp8
 70
     1
102
RTVSPropertyOp9
 70
     1
102
RTVSPropertyOp10
 70
     1
102
RTVSPropertyOp11
 70
     1
102
RTVSPropertyOp12
 70
     1
102
RTVSPropertyOp13
 70
     1
102
RTVSPropertyOp14
 70
     1
102
RTVSPropertyOp15
 70
     1
102
RTVSPropertyOp16
 70
     1
102
RTVSPropertyOp17
 70
     1
102
RTVSPropertyOp18
 70
     1
102
RTVSPropertyOp19
 70
     1
102
RTVSPropertyOp20
 70
     1
102
RTVSPropertyOp21
 70
     1
102
RTVSPropertyOp22
 70
     1
102
RTVSPropertyOp23
 70
     1
102
RTVSPropertyOp24
 70
     1
102
RTVSPropertyOp25
 70
     1
102
RTVSPropertyOp26
 70
     1
102
RTVSPropertyOp27
 70
     1
102
RTVSPropertyOp28
 70
     1
102
RTVSPropertyOp29
 70
     1
102
RTVSPropertyOp30
 70
     1
102
RTVSPropertyOp31
 70
     1
102
RTVSPropertyOp32
 70
     1
  0
XRECORD
  5
F1094C
102
{ACAD_REACTORS
330
F1094B
102
}
330
F1094B
100
AcDbXrecord
280
     1
102
RTVSPropertyOp0
 70
     0
102
RTVSPropertyOp1
 70
     0
102
RTVSPropertyOp2
 70
     0
102
RTVSPropertyOp3
 70
     0
102
RTVSPropertyOp4
 70
     0
102
RTVSPropertyOp5
 70
     0
102
RTVSPropertyOp6
 70
     0
102
RTVSPropertyOp7
 70
     0
102
RTVSPropertyOp8
 70
     0
102
RTVSPropertyOp9
 70
     0
102
RTVSPropertyOp10
 70
     0
102
RTVSPropertyOp11
 70
     0
102
RTVSPropertyOp12
 70
     0
102
RTVSPropertyOp13
 70
     0
102
RTVSPropertyOp14
 70
     2
102
RTVSPropertyOp15
 70
     0
102
RTVSPropertyOp16
 70
     0
102
RTVSPropertyOp17
 70
     0
102
RTVSPropertyOp18
 70
     0
102
RTVSPropertyOp19
 70
     0
102
RTVSPropertyOp20
 70
     0
102
RTVSPropertyOp21
 70
     0
102
RTVSPropertyOp22
 70
     0
102
RTVSPropertyOp23
 70
     0
102
RTVSPropertyOp24
 70
     0
102
RTVSPropertyOp25
 70
     0
102
RTVSPropertyOp26
 70
     0
102
RTVSPropertyOp27
 70
     0
102
RTVSPropertyOp28
 70
     1
102
RTVSPropertyOp29
 70
     1
102
RTVSPropertyOp30
 70
     1
102
RTVSPropertyOp31
 70
     1
102
RTVSPropertyOp32
 70
     1
  0
XRECORD
  5
F1093C
102
{ACAD_REACTORS
330
F1093B
102
}
330
F1093B
100
AcDbXrecord
280
     1
102
RTVSPropertyOp0
 70
     1
102
RTVSPropertyOp1
 70
     1
102
RTVSPropertyOp2
 70
     1
102
RTVSPropertyOp3
 70
     1
102
RTVSPropertyOp4
 70
     1
102
RTVSPropertyOp5
 70
     1
102
RTVSPropertyOp6
 70
     1
102
RTVSPropertyOp7
 70
     1
102
RTVSPropertyOp8
 70
     1
102
RTVSPropertyOp9
 70
     1
102
RTVSPropertyOp10
 70
     1
102
RTVSPropertyOp11
 70
     1
102
RTVSPropertyOp12
 70
     1
102
RTVSPropertyOp13
 70
     1
102
RTVSPropertyOp14
 70
     1
102
RTVSPropertyOp15
 70
     1
102
RTVSPropertyOp16
 70
     1
102
RTVSPropertyOp17
 70
     1
102
RTVSPropertyOp18
 70
     1
102
RTVSPropertyOp19
 70
     1
102
RTVSPropertyOp20
 70
     1
102
RTVSPropertyOp21
 70
     1
102
RTVSPropertyOp22
 70
     1
102
RTVSPropertyOp23
 70
     1
102
RTVSPropertyOp24
 70
     1
102
RTVSPropertyOp25
 70
     1
102
RTVSPropertyOp26
 70
     1
102
RTVSPropertyOp27
 70
     1
102
RTVSPropertyOp28
 70
     1
102
RTVSPropertyOp29
 70
     1
102
RTVSPropertyOp30
 70
     1
102
RTVSPropertyOp31
 70
     1
102
RTVSPropertyOp32
 70
     1
  0
XRECORD
  5
F10961
102
{ACAD_REACTORS
330
F10960
102
}
330
F10960
100
AcDbXrecord
280
     1
102
RTVSPropertyOp0
 70
     1
102
RTVSPropertyOp1
 70
     1
102
RTVSPropertyOp2
 70
     1
102
RTVSPropertyOp3
 70
     1
102
RTVSPropertyOp4
 70
     1
102
RTVSPropertyOp5
 70
     1
102
RTVSPropertyOp6
 70
     1
102
RTVSPropertyOp7
 70
     1
102
RTVSPropertyOp8
 70
     1
102
RTVSPropertyOp9
 70
     1
102
RTVSPropertyOp10
 70
     1
102
RTVSPropertyOp11
 70
     1
102
RTVSPropertyOp12
 70
     1
102
RTVSPropertyOp13
 70
     1
102
RTVSPropertyOp14
 70
     1
102
RTVSPropertyOp15
 70
     1
102
RTVSPropertyOp16
 70
     1
102
RTVSPropertyOp17
 70
     1
102
RTVSPropertyOp18
 70
     1
102
RTVSPropertyOp19
 70
     1
102
RTVSPropertyOp20
 70
     1
102
RTVSPropertyOp21
 70
     1
102
RTVSPropertyOp22
 70
     1
102
RTVSPropertyOp23
 70
     1
102
RTVSPropertyOp24
 70
     1
102
RTVSPropertyOp25
 70
     1
102
RTVSPropertyOp26
 70
     1
102
RTVSPropertyOp27
 70
     1
102
RTVSPropertyOp28
 70
     1
102
RTVSPropertyOp29
 70
     1
102
RTVSPropertyOp30
 70
     1
102
RTVSPropertyOp31
 70
     1
102
RTVSPropertyOp32
 70
     1
  0
XRECORD
  5
F1095F
102
{ACAD_REACTORS
330
F1095E
102
}
330
F1095E
100
AcDbXrecord
280
     1
102
RTVSPropertyOp0
 70
     1
102
RTVSPropertyOp1
 70
     1
102
RTVSPropertyOp2
 70
     1
102
RTVSPropertyOp3
 70
     1
102
RTVSPropertyOp4
 70
     1
102
RTVSPropertyOp5
 70
     1
102
RTVSPropertyOp6
 70
     1
102
RTVSPropertyOp7
 70
     1
102
RTVSPropertyOp8
 70
     1
102
RTVSPropertyOp9
 70
     1
102
RTVSPropertyOp10
 70
     1
102
RTVSPropertyOp11
 70
     1
102
RTVSPropertyOp12
 70
     1
102
RTVSPropertyOp13
 70
     1
102
RTVSPropertyOp14
 70
     1
102
RTVSPropertyOp15
 70
     1
102
RTVSPropertyOp16
 70
     1
102
RTVSPropertyOp17
 70
     1
102
RTVSPropertyOp18
 70
     1
102
RTVSPropertyOp19
 70
     1
102
RTVSPropertyOp20
 70
     1
102
RTVSPropertyOp21
 70
     1
102
RTVSPropertyOp22
 70
     1
102
RTVSPropertyOp23
 70
     1
102
RTVSPropertyOp24
 70
     1
102
RTVSPropertyOp25
 70
     1
102
RTVSPropertyOp26
 70
     1
102
RTVSPropertyOp27
 70
     1
102
RTVSPropertyOp28
 70
     1
102
RTVSPropertyOp29
 70
     1
102
RTVSPropertyOp30
 70
     1
102
RTVSPropertyOp31
 70
     1
102
RTVSPropertyOp32
 70
     1
  0
XRECORD
  5
F10959
102
{ACAD_REACTORS
330
F10958
102
}
330
F10958
100
AcDbXrecord
280
     1
102
RTVSPropertyOp0
 70
     1
102
RTVSPropertyOp1
 70
     1
102
RTVSPropertyOp2
 70
     1
102
RTVSPropertyOp3
 70
     1
102
RTVSPropertyOp4
 70
     1
102
RTVSPropertyOp5
 70
     1
102
RTVSPropertyOp6
 70
     1
102
RTVSPropertyOp7
 70
     1
102
RTVSPropertyOp8
 70
     1
102
RTVSPropertyOp9
 70
     1
102
RTVSPropertyOp10
 70
     1
102
RTVSPropertyOp11
 70
     1
102
RTVSPropertyOp12
 70
     1
102
RTVSPropertyOp13
 70
     1
102
RTVSPropertyOp14
 70
     1
102
RTVSPropertyOp15
 70
     1
102
RTVSPropertyOp16
 70
     1
102
RTVSPropertyOp17
 70
     1
102
RTVSPropertyOp18
 70
     1
102
RTVSPropertyOp19
 70
     1
102
RTVSPropertyOp20
 70
     1
102
RTVSPropertyOp21
 70
     1
102
RTVSPropertyOp22
 70
     1
102
RTVSPropertyOp23
 70
     1
102
RTVSPropertyOp24
 70
     1
102
RTVSPropertyOp25
 70
     1
102
RTVSPropertyOp26
 70
     1
102
RTVSPropertyOp27
 70
     1
102
RTVSPropertyOp28
 70
     1
102
RTVSPropertyOp29
 70
     1
102
RTVSPropertyOp30
 70
     1
102
RTVSPropertyOp31
 70
     1
102
RTVSPropertyOp32
 70
     1
  0
XRECORD
  5
F1095B
102
{ACAD_REACTORS
330
F1095A
102
}
330
F1095A
100
AcDbXrecord
280
     1
102
RTVSPropertyOp0
 70
     1
102
RTVSPropertyOp1
 70
     1
102
RTVSPropertyOp2
 70
     1
102
RTVSPropertyOp3
 70
     1
102
RTVSPropertyOp4
 70
     1
102
RTVSPropertyOp5
 70
     1
102
RTVSPropertyOp6
 70
     1
102
RTVSPropertyOp7
 70
     1
102
RTVSPropertyOp8
 70
     1
102
RTVSPropertyOp9
 70
     1
102
RTVSPropertyOp10
 70
     1
102
RTVSPropertyOp11
 70
     1
102
RTVSPropertyOp12
 70
     1
102
RTVSPropertyOp13
 70
     1
102
RTVSPropertyOp14
 70
     1
102
RTVSPropertyOp15
 70
     1
102
RTVSPropertyOp16
 70
     1
102
RTVSPropertyOp17
 70
     1
102
RTVSPropertyOp18
 70
     1
102
RTVSPropertyOp19
 70
     1
102
RTVSPropertyOp20
 70
     1
102
RTVSPropertyOp21
 70
     1
102
RTVSPropertyOp22
 70
     1
102
RTVSPropertyOp23
 70
     1
102
RTVSPropertyOp24
 70
     1
102
RTVSPropertyOp25
 70
     1
102
RTVSPropertyOp26
 70
     1
102
RTVSPropertyOp27
 70
     1
102
RTVSPropertyOp28
 70
     1
102
RTVSPropertyOp29
 70
     1
102
RTVSPropertyOp30
 70
     1
102
RTVSPropertyOp31
 70
     1
102
RTVSPropertyOp32
 70
     1
  0
XRECORD
  5
F10942
102
{ACAD_REACTORS
330
F10941
102
}
330
F10941
100
AcDbXrecord
280
     1
102
RTVSPropertyOp0
 70
     1
102
RTVSPropertyOp1
 70
     1
102
RTVSPropertyOp2
 70
     1
102
RTVSPropertyOp3
 70
     1
102
RTVSPropertyOp4
 70
     1
102
RTVSPropertyOp5
 70
     1
102
RTVSPropertyOp6
 70
     1
102
RTVSPropertyOp7
 70
     1
102
RTVSPropertyOp8
 70
     1
102
RTVSPropertyOp9
 70
     1
102
RTVSPropertyOp10
 70
     1
102
RTVSPropertyOp11
 70
     1
102
RTVSPropertyOp12
 70
     1
102
RTVSPropertyOp13
 70
     1
102
RTVSPropertyOp14
 70
     1
102
RTVSPropertyOp15
 70
     1
102
RTVSPropertyOp16
 70
     1
102
RTVSPropertyOp17
 70
     1
102
RTVSPropertyOp18
 70
     1
102
RTVSPropertyOp19
 70
     1
102
RTVSPropertyOp20
 70
     1
102
RTVSPropertyOp21
 70
     1
102
RTVSPropertyOp22
 70
     1
102
RTVSPropertyOp23
 70
     1
102
RTVSPropertyOp24
 70
     1
102
RTVSPropertyOp25
 70
     1
102
RTVSPropertyOp26
 70
     1
102
RTVSPropertyOp27
 70
     1
102
RTVSPropertyOp28
 70
     1
102
RTVSPropertyOp29
 70
     1
102
RTVSPropertyOp30
 70
     1
102
RTVSPropertyOp31
 70
     1
102
RTVSPropertyOp32
 70
     1
  0
XRECORD
  5
F10955
102
{ACAD_REACTORS
330
F10954
102
}
330
F10954
100
AcDbXrecord
280
     1
102
RTVSPropertyOp0
 70
     1
102
RTVSPropertyOp1
 70
     1
102
RTVSPropertyOp2
 70
     1
102
RTVSPropertyOp3
 70
     1
102
RTVSPropertyOp4
 70
     1
102
RTVSPropertyOp5
 70
     1
102
RTVSPropertyOp6
 70
     1
102
RTVSPropertyOp7
 70
     1
102
RTVSPropertyOp8
 70
     1
102
RTVSPropertyOp9
 70
     1
102
RTVSPropertyOp10
 70
     1
102
RTVSPropertyOp11
 70
     1
102
RTVSPropertyOp12
 70
     1
102
RTVSPropertyOp13
 70
     1
102
RTVSPropertyOp14
 70
     1
102
RTVSPropertyOp15
 70
     1
102
RTVSPropertyOp16
 70
     1
102
RTVSPropertyOp17
 70
     1
102
RTVSPropertyOp18
 70
     1
102
RTVSPropertyOp19
 70
     1
102
RTVSPropertyOp20
 70
     1
102
RTVSPropertyOp21
 70
     1
102
RTVSPropertyOp22
 70
     1
102
RTVSPropertyOp23
 70
     1
102
RTVSPropertyOp24
 70
     1
102
RTVSPropertyOp25
 70
     1
102
RTVSPropertyOp26
 70
     1
102
RTVSPropertyOp27
 70
     1
102
RTVSPropertyOp28
 70
     1
102
RTVSPropertyOp29
 70
     1
102
RTVSPropertyOp30
 70
     1
102
RTVSPropertyOp31
 70
     1
102
RTVSPropertyOp32
 70
     1
  0
XRECORD
  5
F1095D
102
{ACAD_REACTORS
330
F1095C
102
}
330
F1095C
100
AcDbXrecord
280
     1
102
RTVSPropertyOp0
 70
     1
102
RTVSPropertyOp1
 70
     1
102
RTVSPropertyOp2
 70
     1
102
RTVSPropertyOp3
 70
     1
102
RTVSPropertyOp4
 70
     1
102
RTVSPropertyOp5
 70
     1
102
RTVSPropertyOp6
 70
     1
102
RTVSPropertyOp7
 70
     1
102
RTVSPropertyOp8
 70
     1
102
RTVSPropertyOp9
 70
     1
102
RTVSPropertyOp10
 70
     1
102
RTVSPropertyOp11
 70
     1
102
RTVSPropertyOp12
 70
     1
102
RTVSPropertyOp13
 70
     1
102
RTVSPropertyOp14
 70
     1
102
RTVSPropertyOp15
 70
     1
102
RTVSPropertyOp16
 70
     1
102
RTVSPropertyOp17
 70
     1
102
RTVSPropertyOp18
 70
     1
102
RTVSPropertyOp19
 70
     1
102
RTVSPropertyOp20
 70
     1
102
RTVSPropertyOp21
 70
     1
102
RTVSPropertyOp22
 70
     1
102
RTVSPropertyOp23
 70
     1
102
RTVSPropertyOp24
 70
     1
102
RTVSPropertyOp25
 70
     1
102
RTVSPropertyOp26
 70
     1
102
RTVSPropertyOp27
 70
     1
102
RTVSPropertyOp28
 70
     1
102
RTVSPropertyOp29
 70
     1
102
RTVSPropertyOp30
 70
     1
102
RTVSPropertyOp31
 70
     1
102
RTVSPropertyOp32
 70
     1
  0
ENDSEC
  0
EOF
