0
SECTION
2
HEADER
9
$ACADVER
1
AC1015
9
$ACADMAINTVER
70
20
9
$DWGCODEPAGE
3
ANSI_1252
9
$INSBASE
10
0.0
20
0.0
30
0.0
9
$EXTMIN
10
-150.000000000000
20
-105.000000000000
30
0.0
9
$EXTMAX
10
150.000000000000
20
105.000000000000
30
0.0
9
$LIMMIN
10
0.0
20
0.0
9
$LIMMAX
10
12.0
20
9.0
9
$ORTHOMODE
70
0
9
$REGENMODE
70
1
9
$FILLMODE
70
1
9
$QTEXTMODE
70
0
9
$MIRRTEXT
70
1
9
$LTSCALE
40
1.0
9
$ATTMODE
70
1
9
$TEXTSIZE
40
0.2
9
$TRACEWID
40
0.05
9
$TEXTSTYLE
7
Standard
9
$CLAYER
8
0
9
$CELTYPE
6
ByLayer
9
$CECOLOR
62
256
9
$CELTSCALE
40
1.0
9
$DISPSILH
70
0
9
$DIMSCALE
40
1.0
9
$DIMASZ
40
2.5
9
$DIMEXO
40
0.625
9
$DIMDLI
40
0.38
9
$DIMRND
40
0.0
9
$DIMDLE
40
0.0
9
$DIMEXE
40
1.25
9
$DIMTP
40
0.0
9
$DIMTM
40
0.000000001
9
$DIMTXT
40
2.5
9
$DIMCEN
40
0.09
9
$DIMTSZ
40
0.0
9
$DIMTOL
70
1
9
$DIMLIM
70
0
9
$DIMTIH
70
0
9
$DIMTOH
70
0
9
$DIMSE1
70
0
9
$DIMSE2
70
0
9
$DIMTAD
70
1
9
$DIMZIN
70
0
9
$DIMBLK
1
VDDIM_DEFAULT
9
$DIMASO
70
1
9
$DIMSHO
70
1
9
$DIMPOST
1

9
$DIMAPOST
1

9
$DIMALT
70
0
9
$DIMALTD
70
2
9
$DIMALTF
40
25.4
9
$DIMLFAC
40
1.00000000000000
9
$DIMTOFL
70
0
9
$DIMTVP
40
0.0
9
$DIMTIX
70
0
9
$DIMSOXD
70
0
9
$DIMSAH
70
0
9
$DIMBLK1
1

9
$DIMBLK2
1

9
$DIMSTYLE
2
BEM-ISBE
9
$DIMCLRD
70
0
9
$DIMCLRE
70
0
9
$DIMCLRT
70
0
9
$DIMTFAC
40
0.5
9
$DIMGAP
40
0.625
9
$DIMJUST
70
0
9
$DIMSD1
70
0
9
$DIMSD2
70
0
9
$DIMTOLJ
70
1
9
$DIMTZIN
70
0
9
$DIMALTZ
70
0
9
$DIMALTTZ
70
0
9
$DIMUPT
70
0
9
$DIMDEC
70
3
9
$DIMTDEC
70
3
9
$DIMALTU
70
2
9
$DIMALTTD
70
2
9
$DIMTXSTY
7
Standard
9
$DIMAUNIT
70
0
9
$DIMADEC
70
3
9
$DIMALTRND
40
0.0
9
$DIMAZIN
70
0
9
$DIMDSEP
70
46
9
$DIMATFIT
70
3
9
$DIMFRAC
70
0
9
$DIMLDRBLK
1

9
$DIMLUNIT
70
2
9
$DIMLWD
70
-2
9
$DIMLWE
70
-2
9
$DIMTMOVE
70
0
9
$LUNITS
70
2
9
$LUPREC
70
4
9
$SKETCHINC
40
0.1
9
$FILLETRAD
40
0.5
9
$AUNITS
70
0
9
$AUPREC
70
0
9
$MENU
1
.
9
$ELEVATION
40
0.0
9
$PELEVATION
40
0.0
9
$THICKNESS
40
0.0
9
$LIMCHECK
70
0
9
$CHAMFERA
40
0.5
9
$CHAMFERB
40
0.5
9
$CHAMFERC
40
1.0
9
$CHAMFERD
40
0.0
9
$SKPOLY
70
0
9
$TDCREATE
40
0.0
9
$TDUCREATE
40
0.0
9
$TDUPDATE
40
0.0
9
$TDUUPDATE
40
0.0
9
$TDINDWG
40
0.0
9
$TDUSRTIMER
40
0.0
9
$USRTIMER
70
1
9
$ANGBASE
50
0.0
9
$ANGDIR
70
0
9
$PDMODE
70
0
9
$PDSIZE
40
0.0
9
$PLINEWID
40
0.0
9
$SPLFRAME
70
0
9
$SPLINETYPE
70
6
9
$SPLINESEGS
70
8
9
$HANDSEED
5
10AB
9
$SURFTAB1
70
6
9
$SURFTAB2
70
6
9
$SURFTYPE
70
6
9
$SURFU
70
6
9
$SURFV
70
6
9
$UCSBASE
2

9
$UCSNAME
2

9
$UCSORG
10
0.0
20
0.0
30
0.0
9
$UCSXDIR
10
1.0
20
0.0
30
0.0
9
$UCSYDIR
10
0.0
20
1.0
30
0.0
9
$UCSORTHOREF
2

9
$UCSORTHOVIEW
70
0
9
$UCSORGTOP
10
0.0
20
0.0
30
0.0
9
$UCSORGBOTTOM
10
0.0
20
0.0
30
0.0
9
$UCSORGLEFT
10
0.0
20
0.0
30
0.0
9
$UCSORGRIGHT
10
0.0
20
0.0
30
0.0
9
$UCSORGFRONT
10
0.0
20
0.0
30
0.0
9
$UCSORGBACK
10
0.0
20
0.0
30
0.0
9
$PUCSBASE
2

9
$PUCSNAME
2

9
$PUCSORG
10
0.0
20
0.0
30
0.0
9
$PUCSXDIR
10
1.0
20
0.0
30
0.0
9
$PUCSYDIR
10
0.0
20
1.0
30
0.0
9
$PUCSORTHOREF
2

9
$PUCSORTHOVIEW
70
0
9
$PUCSORGTOP
10
0.0
20
0.0
30
0.0
9
$PUCSORGBOTTOM
10
0.0
20
0.0
30
0.0
9
$PUCSORGLEFT
10
0.0
20
0.0
30
0.0
9
$PUCSORGRIGHT
10
0.0
20
0.0
30
0.0
9
$PUCSORGFRONT
10
0.0
20
0.0
30
0.0
9
$PUCSORGBACK
10
0.0
20
0.0
30
0.0
9
$USERI1
70
0
9
$USERI2
70
0
9
$USERI3
70
0
9
$USERI4
70
0
9
$USERI5
70
0
9
$USERR1
40
0.0
9
$USERR2
40
0.0
9
$USERR3
40
0.0
9
$USERR4
40
0.0
9
$USERR5
40
0.0
9
$WORLDVIEW
70
1
9
$SHADEDGE
70
3
9
$SHADEDIF
70
70
9
$TILEMODE
70
1
9
$MAXACTVP
70
64
9
$PINSBASE
10
0.0
20
0.0
30
0.0
9
$PLIMCHECK
70
0
9
$PEXTMIN
10
1.000000000000000E+20
20
1.000000000000000E+20
30
1.000000000000000E+20
9
$PEXTMAX
10
-1.000000000000000E+20
20
-1.000000000000000E+20
30
-1.000000000000000E+20
9
$PLIMMIN
10
0.0
20
0.0
9
$PLIMMAX
10
12.0
20
9.0
9
$UNITMODE
70
0
9
$VISRETAIN
70
1
9
$PLINEGEN
70
0
9
$PSLTSCALE
70
1
9
$TREEDEPTH
70
3020
9
$CMLSTYLE
2
Standard
9
$CMLJUST
70
0
9
$CMLSCALE
40
1.0
9
$PROXYGRAPHICS
70
1
9
$MEASUREMENT
70
0
9
$CELWEIGHT
370
-1
9
$ENDCAPS
280
0
9
$JOINSTYLE
280
0
9
$LWDISPLAY
290
0
9
$INSUNITS
70
4
9
$HYPERLINKBASE
1

9
$STYLESHEET
1

9
$XEDIT
290
1
9
$CEPSNTYPE
380
0
9
$PSTYLEMODE
290
0
9
$FINGERPRINTGUID
2
{FAEB1C30-E019-11D5-929B-00C0DF256EC4}
9
$VERSIONGUID
2
{04C5C4E4-4947-4D90-8812-D401569E61F7}
9
$EXTNAMES
290
1
9
$PSVPSCALE
40
0.0
9
$OLESTARTUP
290
0
0
ENDSEC
0
SECTION
2
TABLES
0
TABLE
2
VPORT
5
24A
330
0
100
AcDbSymbolTable
70
1
0
VPORT
5
26B
330
24A
100
AcDbSymbolTableRecord
100
AcDbViewportTableRecord
2
*Active
70
0
10
0.0
20
0.0
11
1.0
21
1.0
12
0.000000000000000
22
0.000000000000000
13
0.0
23
0.0
14
10.0
24
10.0
15
10.0
25
10.0
16
0.0
26
0.0
36
1.0
17
0.0
27
0.0
37
0.0
40
210.000000000000
41
1.42857142857143
42
1.0
43
0.0
44
0.0
50
0.0
51
0.0000000000007958
71
0
72
100
73
1
74
3
75
0
76
0
77
0
78
1
281
0
65
1
110
0.0
120
0.0
130
0.0
111
1.0
121
0.0
131
0.0
112
0.0
122
1.0
132
0.0
79
0
146
0.0
0
ENDTAB
0
TABLE
2
LTYPE
5
247
330
0
100
AcDbSymbolTable
70
25
0
LTYPE
5
256
330
247
100
AcDbSymbolTableRecord
100
AcDbLinetypeTableRecord
2
ByBlock
70
0
3

72
65
73
0
40
0.0
0
LTYPE
5
257
330
247
100
AcDbSymbolTableRecord
100
AcDbLinetypeTableRecord
2
ByLayer
70
0
3

72
65
73
0
40
0.0
0
LTYPE
5
258
330
247
100
AcDbSymbolTableRecord
100
AcDbLinetypeTableRecord
2
Continuous
70
0
3
Solid line
72
65
73
0
40
0.0
0
LTYPE
5
273
330
247
100
AcDbSymbolTableRecord
100
AcDbLinetypeTableRecord
2
CENTER
70
0
3
Center ____ _ ____ _ ____ _ ____ _ ____ _ ____
72
65
73
4
40
2.0
49
1.25
74
0
49
-0.25
74
0
49
0.25
74
0
49
-0.25
74
0
0
LTYPE
5
274
330
247
100
AcDbSymbolTableRecord
100
AcDbLinetypeTableRecord
2
DASHDOT
70
0
3
Dashdot __ . __ . __ . __ . __ . __ . __ . __
72
65
73
4
40
1.0
49
0.5
74
0
49
-0.25
74
0
49
0.0
74
0
49
-0.25
74
0
0
LTYPE
5
275
330
247
100
AcDbSymbolTableRecord
100
AcDbLinetypeTableRecord
2
DASHED
70
0
3
Dashed __ __ __ __ __ __ __ __ __ __ __ __ __ _
72
65
73
2
40
0.75
49
0.5
74
0
49
-0.25
74
0
0
LTYPE
5
276
330
247
100
AcDbSymbolTableRecord
100
AcDbLinetypeTableRecord
2
HIDDEN
70
0
3
Hidden __ __ __ __ __ __ __ __ __ __ __ __ __ __
72
65
73
2
40
0.375
49
0.25
74
0
49
-0.125
74
0
0
LTYPE
5
277
330
247
100
AcDbSymbolTableRecord
100
AcDbLinetypeTableRecord
2
HIDDEN2
70
0
3
Hidden2 _ _ _ _ _ _ _ _ _ _ _ _ _ _ _ _ _
72
65
73
2
40
0.1875
49
0.125
74
0
49
-0.0625
74
0
0
LTYPE
5
278
330
247
100
AcDbSymbolTableRecord
100
AcDbLinetypeTableRecord
2
BORDER
70
0
3
Border __ __ . __ __ . __ __ . __ __ . __ __ .
72
65
73
6
40
1.75
49
0.5
74
0
49
-0.25
74
0
49
0.5
74
0
49
-0.25
74
0
49
0.0
74
0
49
-0.25
74
0
0
LTYPE
5
279
330
247
100
AcDbSymbolTableRecord
100
AcDbLinetypeTableRecord
2
BORDER2
70
0
3
Border2 __.__.__.__.__.__.__.__.__.__.__.
72
65
73
6
40
0.875
49
0.25
74
0
49
-0.125
74
0
49
0.25
74
0
49
-0.125
74
0
49
0.0
74
0
49
-0.125
74
0
0
LTYPE
5
27A
330
247
100
AcDbSymbolTableRecord
100
AcDbLinetypeTableRecord
2
BORDERX2
70
0
3
Borderx2  ____  ____  .  ____  ____  .  ___
72
65
73
6
40
3.5
49
1.0
74
0
49
-0.5
74
0
49
1.0
74
0
49
-0.5
74
0
49
0.0
74
0
49
-0.5
74
0
0
LTYPE
5
27B
330
247
100
AcDbSymbolTableRecord
100
AcDbLinetypeTableRecord
2
CENTER2
70
0
3
Center2  ___ _ ___ _ ___ _ ___ _ ___ _ ___
72
65
73
4
40
1.125
49
0.75
74
0
49
-0.125
74
0
49
0.125
74
0
49
-0.125
74
0
0
LTYPE
5
27C
330
247
100
AcDbSymbolTableRecord
100
AcDbLinetypeTableRecord
2
CENTERX2
70
0
3
Centerx2  ________  __  ________  __  _____
72
65
73
4
40
4.0
49
2.5
74
0
49
-0.5
74
0
49
0.5
74
0
49
-0.5
74
0
0
LTYPE
5
27D
330
247
100
AcDbSymbolTableRecord
100
AcDbLinetypeTableRecord
2
DASHDOT2
70
0
3
Dashdot2  _._._._._._._._._._._._._._._.
72
65
73
4
40
0.5
49
0.25
74
0
49
-0.125
74
0
49
0.0
74
0
49
-0.125
74
0
0
LTYPE
5
27E
330
247
100
AcDbSymbolTableRecord
100
AcDbLinetypeTableRecord
2
DASHDOTX2
70
0
3
Dashdotx2 ____  .  ____  .  ____  .  ___
72
65
73
4
40
2.0
49
1.0
74
0
49
-0.5
74
0
49
0.0
74
0
49
-0.5
74
0
0
LTYPE
5
27F
330
247
100
AcDbSymbolTableRecord
100
AcDbLinetypeTableRecord
2
DASHED2
70
0
3
Dashed2 _ _ _ _ _ _ _ _ _ _ _ _ _ _ _ _ _
72
65
73
2
40
0.375
49
0.25
74
0
49
-0.125
74
0
0
LTYPE
5
280
330
247
100
AcDbSymbolTableRecord
100
AcDbLinetypeTableRecord
2
DASHEDX2
70
0
3
Dashedx2 ____  ____  ____  ____  ____  ___
72
65
73
2
40
1.5
49
1.0
74
0
49
-0.5
74
0
0
LTYPE
5
281
330
247
100
AcDbSymbolTableRecord
100
AcDbLinetypeTableRecord
2
DIVIDE
70
0
3
Divide ____ . . ____ . . ____ . . ____ . . ____
72
65
73
6
40
1.25
49
0.5
74
0
49
-0.25
74
0
49
0.0
74
0
49
-0.25
74
0
49
0.0
74
0
49
-0.25
74
0
0
LTYPE
5
282
330
247
100
AcDbSymbolTableRecord
100
AcDbLinetypeTableRecord
2
DIVIDE2
70
0
3
Divide2 __..__..__..__..__..__..__..__.._
72
65
73
6
40
0.625
49
0.25
74
0
49
-0.125
74
0
49
0.0
74
0
49
-0.125
74
0
49
0.0
74
0
49
-0.125
74
0
0
LTYPE
5
283
330
247
100
AcDbSymbolTableRecord
100
AcDbLinetypeTableRecord
2
DIVIDEX2
70
0
3
Dividex2 ________  .  .  ________  .  .  _
72
65
73
6
40
2.5
49
1.0
74
0
49
-0.5
74
0
49
0.0
74
0
49
-0.5
74
0
49
0.0
74
0
49
-0.5
74
0
0
LTYPE
5
284
330
247
100
AcDbSymbolTableRecord
100
AcDbLinetypeTableRecord
2
DOT
70
0
3
Dot . . . . . . . . . . . . . . . . . . . . . . . .
72
65
73
2
40
0.25
49
0.0
74
0
49
-0.25
74
0
0
LTYPE
5
285
330
247
100
AcDbSymbolTableRecord
100
AcDbLinetypeTableRecord
2
DOT2
70
0
3
Dot2 ........................................
72
65
73
2
40
0.125
49
0.0
74
0
49
-0.125
74
0
0
LTYPE
5
286
330
247
100
AcDbSymbolTableRecord
100
AcDbLinetypeTableRecord
2
DOTX2
70
0
3
Dotx2 .  .  .  .  .  .  .  .  .  .  .  .  .  .
72
65
73
2
40
0.5
49
0.0
74
0
49
-0.5
74
0
0
LTYPE
5
287
330
247
100
AcDbSymbolTableRecord
100
AcDbLinetypeTableRecord
2
HIDDENX2
70
0
3
Hiddenx2 ____ ____ ____ ____ ____ ____ ____
72
65
73
2
40
0.75
49
0.5
74
0
49
-0.25
74
0
0
LTYPE
5
288
330
247
100
AcDbSymbolTableRecord
100
AcDbLinetypeTableRecord
2
PHANTOM
70
0
3
Phantom ______  __  __  ______  __  __  ______
72
65
73
6
40
2.5
49
1.25
74
0
49
-0.25
74
0
49
0.25
74
0
49
-0.25
74
0
49
0.25
74
0
49
-0.25
74
0
0
LTYPE
5
289
330
247
100
AcDbSymbolTableRecord
100
AcDbLinetypeTableRecord
2
PHANTOM2
70
0
3
Phantom2 ___ _ _ ___ _ _ ___ _ _ ___ _ _
72
65
73
6
40
1.25
49
0.625
74
0
49
-0.125
74
0
49
0.125
74
0
49
-0.125
74
0
49
0.125
74
0
49
-0.125
74
0
0
LTYPE
5
28A
330
247
100
AcDbSymbolTableRecord
100
AcDbLinetypeTableRecord
2
PHANTOMX2
70
0
3
Phantomx2 ____________    ____    ____   _
72
65
73
6
40
5.0
49
2.5
74
0
49
-0.5
74
0
49
0.5
74
0
49
-0.5
74
0
49
0.5
74
0
49
-0.5
74
0
0
ENDTAB
0
TABLE
2
LAYER
5
244
330
0
100
AcDbSymbolTable
70
6
0
LAYER
5
252
330
244
100
AcDbSymbolTableRecord
100
AcDbLayerTableRecord
2
0
70
0
62
7
6
Continuous
370
0
390
251
0
LAYER
5
23F
330
244
100
AcDbSymbolTableRecord
100
AcDbLayerTableRecord
2
Bemassung
70
0
 62
   7
6
Continuous
370
0
390
251
0
LAYER
5
240
330
244
100
AcDbSymbolTableRecord
100
AcDbLayerTableRecord
2
Rahmen
70
0
 62
   7
6
Continuous
370
0
390
251
0
LAYER
5
241
330
244
100
AcDbSymbolTableRecord
100
AcDbLayerTableRecord
2
Geo
70
0
 62
   7
6
Continuous
370
0
390
251
0
LAYER
5
33A
330
244
100
AcDbSymbolTableRecord
100
AcDbLayerTableRecord
2
Defpoints
70
0
62
7
6
Continuous
290
0
370
-3
390
251
0
LAYER
5
57E
330
244
100
AcDbSymbolTableRecord
100
AcDbLayerTableRecord
2
Text
70
0
 62
   7
6
Continuous
370
0
390
251
1001
AcAecLayerStandard
1000

1000

0
ENDTAB
0
TABLE
2
STYLE
5
245
330
0
100
AcDbSymbolTable
70
2
0
STYLE
5
253
330
245
100
AcDbSymbolTableRecord
100
AcDbTextStyleTableRecord
2
Standard
70
0
40
0.0
41
1.0
50
0.0
71
0
42
0.2
3
Arial
4

1001
ACAD
1000
Arial
1071
0
0
STYLE
5
132
330
245
100
AcDbSymbolTableRecord
100
AcDbTextStyleTableRecord
2
Beschriftung
70
0
40
0.0
41
1.0
50
0.0
71
0
42
0.2
3
Arial
4

1001
ACAD
1000
Arial
1071
0
1001
AcadAnnotative
1000
AnnotativeData
1070
1
1070
1
0
ENDTAB
0
TABLE
2
VIEW
5
248
330
0
100
AcDbSymbolTable
70
0
0
ENDTAB
0
TABLE
2
UCS
5
249
330
0
100
AcDbSymbolTable
70
0
0
ENDTAB
0
TABLE
2
APPID
5
24B
330
0
100
AcDbSymbolTable
70
13
0
APPID
5
254
330
24B
100
AcDbSymbolTableRecord
100
AcDbRegAppTableRecord
2
ACAD
70
0
0
APPID
5
26C
330
24B
100
AcDbSymbolTableRecord
100
AcDbRegAppTableRecord
2
VD_INVISIBLE_NOT_FOR_READ
70
0
0
APPID
5
26D
330
24B
100
AcDbSymbolTableRecord
100
AcDbRegAppTableRecord
2
VD_TEMPHATCH
70
0
0
APPID
5
26E
330
24B
100
AcDbSymbolTableRecord
100
AcDbRegAppTableRecord
2
VDEXTRAPARAM
70
0
0
APPID
5
26F
330
24B
100
AcDbSymbolTableRecord
100
AcDbRegAppTableRecord
2
PE_URL
70
0
0
APPID
5
270
330
24B
100
AcDbSymbolTableRecord
100
AcDbRegAppTableRecord
2
VD_UNKNOWN
70
0
0
APPID
5
28F
330
24B
100
AcDbSymbolTableRecord
100
AcDbRegAppTableRecord
2
AcadAnnotative
70
0
0
APPID
5
290
330
24B
100
AcDbSymbolTableRecord
100
AcDbRegAppTableRecord
2
ACAD_DSTYLE_DIMJAG
70
0
0
APPID
5
291
330
24B
100
AcDbSymbolTableRecord
100
AcDbRegAppTableRecord
2
ACAD_DSTYLE_DIMTALN
70
0
0
APPID
5
293
330
24B
100
AcDbSymbolTableRecord
100
AcDbRegAppTableRecord
2
ACAD_PSEXT
70
0
0
APPID
5
42A
330
24B
100
AcDbSymbolTableRecord
100
AcDbRegAppTableRecord
2
ACAD_MLEADERVER
70
0
0
APPID
5
532
330
24B
100
AcDbSymbolTableRecord
100
AcDbRegAppTableRecord
2
ACAD_EXEMPT_FROM_CAD_STANDARDS
70
0
0
APPID
5
57F
330
24B
100
AcDbSymbolTableRecord
100
AcDbRegAppTableRecord
2
AcAecLayerStandard
70
0
0
ENDTAB
0
TABLE
2
DIMSTYLE
5
24C
330
0
100
AcDbSymbolTable
70
3
100
AcDbDimStyleTable
71
2
340
27
340
269
0
DIMSTYLE
105
269
330
24C
100
AcDbSymbolTableRecord
100
AcDbDimStyleTableRecord
2
Standard
70
0
172
1
174
1
288
1
340
253
342
23C
0
DIMSTYLE
105
137
330
24C
100
AcDbSymbolTableRecord
100
AcDbDimStyleTableRecord
2
Beschriftung
70
0
41
2.5
42
0.625
44
1.25
73
0
74
0
77
1
140
2.5
147
0.625
172
1
174
1
271
2
288
1
340
253
342
23C
1001
AcadAnnotative
1000
AnnotativeData
1070
1
1070
1
1001
ACAD_DSTYLE_DIMJAG
1070
388
1040
1.5
1001
ACAD_DSTYLE_DIMTALN
1070
392
1070
0
0
DIMSTYLE
105
27
102
{ACAD_REACTORS
330
F10008
330
F10017
330
F10021
330
F10026
330
F10012
330
F10003
330
F1000D
330
F1001C
102
}
330
24C
100
AcDbSymbolTableRecord
100
AcDbDimStyleTableRecord
2
BEM-ISBE
70
0
41
2.5
42
0.625
44
1.25
48
0.000000001
71
1
73
0
74
0
77
1
140
2.5
144
1.00000000000000
146
0.5
147
0.625
171
 3
172
 1
179
 3
271
 3
272
 3
274
 3
340
253
342
23C
1001
ACAD_DSTYLE_DIMJAG
1070
388
1040
1.5
1001
ACAD_DSTYLE_DIMTALN
1070
392
1070
1
0
ENDTAB
0
TABLE
2
BLOCK_RECORD
5
243
330
0
100
AcDbSymbolTable
70
5
0
BLOCK_RECORD
5
261
330
243
100
AcDbSymbolTableRecord
100
AcDbBlockTableRecord
2
*Model_Space
340
FD0
0
BLOCK_RECORD
5
25D
330
243
100
AcDbSymbolTableRecord
100
AcDbBlockTableRecord
2
*Paper_Space
340
FD1
0
BLOCK_RECORD
5
265
330
243
100
AcDbSymbolTableRecord
100
AcDbBlockTableRecord
2
*Paper_Space0
340
0
0
BLOCK_RECORD
5
23C
330
243
100
AcDbSymbolTableRecord
100
AcDbBlockTableRecord
2
VDDIM_DEFAULT
340
0
102
{BLKREFS
102
}
0
BLOCK_RECORD
5
23E
330
243
100
AcDbSymbolTableRecord
100
AcDbBlockTableRecord
2
VDDIM_NONE
340
0
0
BLOCK_RECORD
5
F10007
330
243
100
AcDbSymbolTableRecord
100
AcDbBlockTableRecord
2
*D4
340
0
0
BLOCK_RECORD
5
F10016
330
243
100
AcDbSymbolTableRecord
100
AcDbBlockTableRecord
2
*D7
340
0
0
BLOCK_RECORD
5
F10020
330
243
100
AcDbSymbolTableRecord
100
AcDbBlockTableRecord
2
*D9
340
0
0
BLOCK_RECORD
5
F10025
330
243
100
AcDbSymbolTableRecord
100
AcDbBlockTableRecord
2
*D10
340
0
0
BLOCK_RECORD
5
F10011
330
243
100
AcDbSymbolTableRecord
100
AcDbBlockTableRecord
2
*D6
340
0
0
BLOCK_RECORD
5
F10002
330
243
100
AcDbSymbolTableRecord
100
AcDbBlockTableRecord
2
*D3
340
0
0
BLOCK_RECORD
5
F1000C
330
243
100
AcDbSymbolTableRecord
100
AcDbBlockTableRecord
2
*D5
340
0
0
BLOCK_RECORD
5
F1001B
330
243
100
AcDbSymbolTableRecord
100
AcDbBlockTableRecord
2
*D8
340
0
0
ENDTAB
0
ENDSEC
0
SECTION
2
BLOCKS
0
BLOCK
5
262
330
261
100
AcDbEntity
8
0
100
AcDbBlockBegin
2
*Model_Space
70
0
10
0.0
20
0.0
30
0.0
3
*Model_Space
1

0
ENDBLK
5
263
330
261
100
AcDbEntity
8
0
100
AcDbBlockEnd
0
BLOCK
5
25E
330
25D
100
AcDbEntity
67
1
8
0
100
AcDbBlockBegin
2
*Paper_Space
70
0
10
0.0
20
0.0
30
0.0
3
*Paper_Space
1

0
ENDBLK
5
25F
330
25D
100
AcDbEntity
67
1
8
0
100
AcDbBlockEnd
0
BLOCK
5
266
330
265
100
AcDbEntity
8
0
100
AcDbBlockBegin
2
*Paper_Space0
70
0
10
0.0
20
0.0
30
0.0
3
*Paper_Space0
1

0
VIEWPORT
5
296
102
{ACAD_XDICTIONARY
360
58E
102
}
330
265
100
AcDbEntity
8
0
60
1
100
AcDbViewport
10
0.0
20
0.0
30
0.0
40
10.0
41
10.0
69
0
12
0.0
22
0.0
13
0.0
23
0.0
14
1.0
24
1.0
15
0.0
25
0.0
16
0.0
26
0.0
36
1.0
17
0.0
27
0.0
37
0.0
42
0.0
43
0.0
44
0.0
45
10.0
50
0.0
51
0.0000000000007958
72
100
90
163872
1

281
0
71
0
74
0
110
0.0
120
0.0
130
0.0
111
1.0
121
0.0
131
0.0
112
0.0
122
1.0
132
0.0
79
0
146
0.0
1001
VD_INVISIBLE_NOT_FOR_READ
1000
VD_INVISIBLE_NOT_FOR_READ
0
VIEWPORT
5
297
102
{ACAD_XDICTIONARY
360
590
102
}
330
265
100
AcDbEntity
8
0
60
1
100
AcDbViewport
10
0.0
20
0.0
30
0.0
40
10.0
41
10.0
69
0
12
0.0
22
0.0
13
0.0
23
0.0
14
1.0
24
1.0
15
0.0
25
0.0
16
0.0
26
0.0
36
1.0
17
0.0
27
0.0
37
0.0
42
0.0
43
0.0
44
0.0
45
10.0
50
0.0
51
0.0000000000007958
72
100
90
163872
1

281
0
71
0
74
0
110
0.0
120
0.0
130
0.0
111
1.0
121
0.0
131
0.0
112
0.0
122
1.0
132
0.0
79
0
146
0.0
1001
VD_INVISIBLE_NOT_FOR_READ
1000
VD_INVISIBLE_NOT_FOR_READ
0
ENDBLK
5
267
330
265
100
AcDbEntity
8
0
100
AcDbBlockEnd
0
BLOCK
5
28B
330
23C
100
AcDbEntity
8
0
100
AcDbBlockBegin
2
VDDIM_DEFAULT
70
0
10
0.0
20
0.0
30
0.0
3
VDDIM_DEFAULT
1

0
LWPOLYLINE
5
23D
330
23C
100
AcDbEntity
8
0
6
Continuous
62
0
100
AcDbPolyline
90
4
70
0
43
0.0
10
0.0
20
0.0
10
-1.0
20
-0.1665
10
-1.0
20
0.1665
10
0.0
20
0.0
1001
VDEXTRAPARAM
1071
1
1071
0
1071
0
1040
1.0
1000

1000

1040
0.0
1040
0.0
0
HATCH
5
292
330
23C
100
AcDbEntity
8
0
6
Continuous
62
0
100
AcDbHatch
10
0.0
20
0.0
30
0.0
210
0.0
220
0.0
230
1.0
2
SOLID
70
1
71
0
91
1
92
2
72
0
73
1
93
3
10
0.0
20
0.0
10
-1.0
20
-0.1665
10
-1.0
20
0.1665
97
0
75
0
76
1
98
1
10
0.0
20
0.0
1001
VDEXTRAPARAM
1071
1
1071
0
1071
0
1040
1.0
1000

1000

1040
0.0
1040
0.0
1001
VD_TEMPHATCH
1000
VD_TEMPHATCH
0
ENDBLK
5
28C
330
23C
100
AcDbEntity
8
0
100
AcDbBlockEnd
0
BLOCK
5
28D
330
23E
100
AcDbEntity
8
0
100
AcDbBlockBegin
2
VDDIM_NONE
70
0
10
0.0
20
0.0
30
0.0
3
VDDIM_NONE
1

0
ENDBLK
5
28E
330
23E
100
AcDbEntity
8
0
100
AcDbBlockEnd
  0
BLOCK
  5
F1002A
330
F10007
100
AcDbEntity
  8
0
100
AcDbBlockBegin
  2
*D4
 70
     1
 10
0.0
 20
0.0
 30
0.0
  3
*D4
  1

  0
LINE
  5
F1002B
330
F10007
100
AcDbEntity
  8
Bemassung
 62
     0
370
    -2
100
AcDbLine
10
-24.2037861915367
20
-22.4799554565702
30
0.000000000000000
11
-24.2037861915367
21
46.5200445434298
31
0.000000000000000
  0
LINE
  5
F1002C
330
F10007
100
AcDbEntity
  8
Bemassung
 62
     0
370
    -2
100
AcDbLine
10
-11.2037861915367
20
-22.4799554565702
30
0.000000000000000
11
-11.2037861915367
21
4.02004454342983
31
0.000000000000000
  0
LINE
  5
F1002D
330
F10007
100
AcDbEntity
  8
Bemassung
 62
     0
370
    -2
100
AcDbLine
10
-24.2037861915367
20
-20.4799554565702
30
0.000000000000000
11
-11.2037861915367
21
-20.4799554565702
31
0.000000000000000
  0
INSERT
  5
F1002E
330
F10007
100
AcDbEntity
  8
Bemassung
 62
     0
370
    -2
100
AcDbBlockReference
  2
VDDIM_DEFAULT
10
-24.2037861915367
20
-20.4799554565702
30
0.000000000000000
 41
2.50000000000000
 42
2.50000000000000
 43
2.50000000000000
 50
180.000000000000
  0
INSERT
  5
F1002F
330
F10007
100
AcDbEntity
  8
Bemassung
 62
     0
370
    -2
100
AcDbBlockReference
  2
VDDIM_DEFAULT
10
-11.2037861915367
20
-20.4799554565702
30
0.000000000000000
 41
2.50000000000000
 42
2.50000000000000
 43
2.50000000000000
  0
MTEXT
  5
F10030
102
{ACAD_XDICTIONARY
360
F1000A
102
}
330
F10007
100
AcDbEntity
  8
Bemassung
 62
     0
100
AcDbMText
10
-18.2396993318485
20
-21.1466221232368
30
0.000000000000000
 40
2.50000000000000
 41
0.0
 71
     8
 72
     1
  1
\A1;13
 11
1.00000000000000
 21
0.000000000000000
 31
0.0
 73
     1
 44
1.0
1001
ACAD
1000
MTEXTBEGIN
1070
73
1070
1
1070
44
1040
1.0
1070
74
1070
0
1000
MTEXTEND
  0
POINT
  5
F10031
330
F10007
100
AcDbEntity
  8
Bemassung
 62
     0
100
AcDbPoint
10
-24.2037861915367
20
-22.4799554565702
30
0.000000000000000
  0
POINT
  5
F10032
330
F10007
100
AcDbEntity
  8
Bemassung
 62
     0
100
AcDbPoint
10
-11.2037861915367
20
-22.4799554565702
30
0.000000000000000
  0
ENDBLK
  5
F10033
330
F10007
100
AcDbEntity
  8
0
100
AcDbBlockEnd
  0
BLOCK
  5
F10034
330
F10016
100
AcDbEntity
  8
0
100
AcDbBlockBegin
  2
*D7
 70
     1
 10
0.0
 20
0.0
 30
0.0
  3
*D7
  1

  0
LINE
  5
F10035
330
F10016
100
AcDbEntity
  8
Bemassung
 62
     0
370
    -2
100
AcDbLine
10
-3.20378619153669
20
4.52004454342983
30
0.000000000000000
11
-3.20378619153669
21
26.5200445434298
31
0.000000000000000
  0
LINE
  5
F10036
330
F10016
100
AcDbEntity
  8
Bemassung
 62
     0
370
    -2
100
AcDbLine
10
32.7962138084633
20
4.02004454342983
30
0.000000000000000
11
32.7962138084633
21
46.5200445434298
31
0.000000000000000
  0
LINE
  5
F10037
330
F10016
100
AcDbEntity
  8
Bemassung
 62
     0
370
    -2
100
AcDbLine
10
-3.20378619153669
20
24.5200445434298
30
0.000000000000000
11
32.7962138084633
21
24.5200445434298
31
0.000000000000000
  0
INSERT
  5
F10038
330
F10016
100
AcDbEntity
  8
Bemassung
 62
     0
370
    -2
100
AcDbBlockReference
  2
VDDIM_DEFAULT
10
-3.20378619153669
20
24.5200445434298
30
0.000000000000000
 41
2.50000000000000
 42
2.50000000000000
 43
2.50000000000000
 50
180.000000000000
  0
INSERT
  5
F10039
330
F10016
100
AcDbEntity
  8
Bemassung
 62
     0
370
    -2
100
AcDbBlockReference
  2
VDDIM_DEFAULT
10
32.7962138084633
20
24.5200445434298
30
0.000000000000000
 41
2.50000000000000
 42
2.50000000000000
 43
2.50000000000000
  0
MTEXT
  5
F1003A
102
{ACAD_XDICTIONARY
360
F10019
102
}
330
F10016
100
AcDbEntity
  8
Bemassung
 62
     0
100
AcDbMText
10
12.9796770601337
20
23.8533778767632
30
0.000000000000000
 40
2.50000000000000
 41
0.0
 71
     8
 72
     1
  1
\A1;36
 11
1.00000000000000
 21
0.000000000000000
 31
0.0
 73
     1
 44
1.0
1001
ACAD
1000
MTEXTBEGIN
1070
73
1070
1
1070
44
1040
1.0
1070
74
1070
0
1000
MTEXTEND
  0
POINT
  5
F1003B
330
F10016
100
AcDbEntity
  8
Bemassung
 62
     0
100
AcDbPoint
10
-3.20378619153669
20
4.52004454342983
30
0.000000000000000
  0
POINT
  5
F1003C
330
F10016
100
AcDbEntity
  8
Bemassung
 62
     0
100
AcDbPoint
10
32.7962138084633
20
4.02004454342983
30
0.000000000000000
  0
ENDBLK
  5
F1003D
330
F10016
100
AcDbEntity
  8
0
100
AcDbBlockEnd
  0
BLOCK
  5
F1003E
330
F10020
100
AcDbEntity
  8
0
100
AcDbBlockBegin
  2
*D9
 70
     1
 10
0.0
 20
0.0
 30
0.0
  3
*D9
  1

  0
LINE
  5
F1003F
330
F10020
100
AcDbEntity
  8
Bemassung
 62
     0
370
    -2
100
AcDbLine
10
32.7962138084633
20
4.02004454342983
30
0.000000000000000
11
32.7962138084633
21
46.5200445434298
31
0.000000000000000
  0
LINE
  5
F10040
330
F10020
100
AcDbEntity
  8
Bemassung
 62
     0
370
    -2
100
AcDbLine
10
-24.2037861915367
20
-22.4799554565702
30
0.000000000000000
11
-24.2037861915367
21
46.5200445434298
31
0.000000000000000
  0
LINE
  5
F10041
330
F10020
100
AcDbEntity
  8
Bemassung
 62
     0
370
    -2
100
AcDbLine
10
32.7962138084633
20
44.5200445434298
30
0.000000000000000
11
-24.2037861915367
21
44.5200445434298
31
0.000000000000000
  0
INSERT
  5
F10042
330
F10020
100
AcDbEntity
  8
Bemassung
 62
     0
370
    -2
100
AcDbBlockReference
  2
VDDIM_DEFAULT
10
32.7962138084633
20
44.5200445434298
30
0.000000000000000
 41
2.50000000000000
 42
2.50000000000000
 43
2.50000000000000
  0
INSERT
  5
F10043
330
F10020
100
AcDbEntity
  8
Bemassung
 62
     0
370
    -2
100
AcDbBlockReference
  2
VDDIM_DEFAULT
10
-24.2037861915367
20
44.5200445434298
30
0.000000000000000
 41
2.50000000000000
 42
2.50000000000000
 43
2.50000000000000
 50
180.000000000000
  0
MTEXT
  5
F10044
102
{ACAD_XDICTIONARY
360
F10023
102
}
330
F10020
100
AcDbEntity
  8
Bemassung
 62
     0
100
AcDbMText
10
4.15172605790651
20
45.1867112100965
30
0.000000000000000
 40
2.50000000000000
 41
0.0
 71
     8
 72
     1
  1
\A1;57
 11
1.00000000000000
 21
0.000000000000000
 31
0.0
 73
     1
 44
1.0
1001
ACAD
1000
MTEXTBEGIN
1070
73
1070
1
1070
44
1040
1.0
1070
74
1070
0
1000
MTEXTEND
  0
POINT
  5
F10045
330
F10020
100
AcDbEntity
  8
Bemassung
 62
     0
100
AcDbPoint
10
32.7962138084633
20
4.02004454342983
30
0.000000000000000
  0
POINT
  5
F10046
330
F10020
100
AcDbEntity
  8
Bemassung
 62
     0
100
AcDbPoint
10
-24.2037861915367
20
-22.4799554565702
30
0.000000000000000
  0
ENDBLK
  5
F10047
330
F10020
100
AcDbEntity
  8
0
100
AcDbBlockEnd
  0
BLOCK
  5
F10048
330
F10025
100
AcDbEntity
  8
0
100
AcDbBlockBegin
  2
*D10
 70
     1
 10
0.0
 20
0.0
 30
0.0
  3
*D10
  1

  0
LINE
  5
F10049
330
F10025
100
AcDbEntity
  8
Bemassung
 62
     0
370
    -2
100
AcDbLine
10
-24.2037861915367
20
1.52004454342983
30
0.000000000000000
11
-24.2037861915367
21
28.4287305122494
31
0.000000000000000
  0
LINE
  5
F1004A
330
F10025
100
AcDbEntity
  8
Bemassung
 62
     0
370
    -2
100
AcDbLine
10
-4.24301667607799
20
3.92004454342983
30
0.000000000000000
11
-4.24301667607799
21
28.4287305122494
31
0.000000000000000
  0
LINE
  5
F1004B
330
F10025
100
AcDbEntity
  8
Bemassung
 62
     0
370
    -2
100
AcDbLine
10
-24.2037861915367
20
26.4287305122494
30
0.000000000000000
11
-4.24301667607799
21
26.4287305122494
31
0.000000000000000
  0
INSERT
  5
F1004C
330
F10025
100
AcDbEntity
  8
Bemassung
 62
     0
370
    -2
100
AcDbBlockReference
  2
VDDIM_DEFAULT
10
-24.2037861915367
20
26.4287305122494
30
0.000000000000000
 41
2.50000000000000
 42
2.50000000000000
 43
2.50000000000000
 50
180.000000000000
  0
INSERT
  5
F1004D
330
F10025
100
AcDbEntity
  8
Bemassung
 62
     0
370
    -2
100
AcDbBlockReference
  2
VDDIM_DEFAULT
10
-4.24301667607799
20
26.4287305122494
30
0.000000000000000
 41
2.50000000000000
 42
2.50000000000000
 43
2.50000000000000
  0
MTEXT
  5
F1004E
102
{ACAD_XDICTIONARY
360
F10028
102
}
330
F10025
100
AcDbEntity
  8
Bemassung
 62
     0
100
AcDbMText
10
-14.2234014338073
20
25.7620638455828
30
0.000000000000000
 40
2.50000000000000
 41
0.0
 71
     8
 72
     1
  1
\A1;19
 11
1.00000000000000
 21
0.000000000000000
 31
0.0
 73
     1
 44
1.0
1001
ACAD
1000
MTEXTBEGIN
1070
73
1070
1
1070
44
1040
1.0
1070
74
1070
0
1000
MTEXTEND
  0
POINT
  5
F1004F
330
F10025
100
AcDbEntity
  8
Bemassung
 62
     0
100
AcDbPoint
10
-24.2037861915367
20
1.52004454342983
30
0.000000000000000
  0
POINT
  5
F10050
330
F10025
100
AcDbEntity
  8
Bemassung
 62
     0
100
AcDbPoint
10
-4.24301667607799
20
3.92004454342983
30
0.000000000000000
  0
ENDBLK
  5
F10051
330
F10025
100
AcDbEntity
  8
0
100
AcDbBlockEnd
  0
BLOCK
  5
F10052
330
F10011
100
AcDbEntity
  8
0
100
AcDbBlockBegin
  2
*D6
 70
     1
 10
0.0
 20
0.0
 30
0.0
  3
*D6
  1

 0
ARC
  5
F10053
330
F10011
100
AcDbEntity
  8
Bemassung
 62
     0
370
   -2
100
AcDbCircle
10
-3.20378619153669
20
4.52004454342983
30
0.000000000000000
 40
25.5399684784654
100
AcDbArc
 50
0.000000000000000
 51
30.0000000000001
  0
LINE
  5
F10054
330
F10011
100
AcDbEntity
  8
Bemassung
 62
     0
370
    -2
100
AcDbLine
10
-3.20378619153669
20
4.52004454342983
30
0.000000000000000
11
24.3361822869287
21
4.52004454342983
31
0.000000000000000
  0
LINE
  5
F10055
330
F10011
100
AcDbEntity
  8
Bemassung
 62
     0
370
    -2
100
AcDbLine
10
-3.20378619153669
20
4.52004454342983
30
0.000000000000000
11
20.6465261302370
21
18.2900287826626
31
0.000000000000000
  0
INSERT
  5
F10056
330
F10011
100
AcDbEntity
  8
Bemassung
 62
     0
370
    -2
100
AcDbBlockReference
  2
VDDIM_DEFAULT
10
22.3361822869287
20
4.52004454342983
30
0.000000000000000
 41
2.50000000000000
 42
2.50000000000000
 43
2.50000000000000
 50
272.805342081057
  0
INSERT
  5
F10057
330
F10011
100
AcDbEntity
  8
Bemassung
 62
     0
370
    -2
100
AcDbBlockReference
  2
VDDIM_DEFAULT
10
18.9144753226681
20
17.2900287826626
30
0.000000000000000
 41
2.50000000000000
 42
2.50000000000000
 43
2.50000000000000
 50
117.194657918943
  0
MTEXT
  5
F10058
102
{ACAD_XDICTIONARY
360
F10014
102
}
330
F10011
100
AcDbEntity
  8
Bemassung
 62
     0
100
AcDbMText
10
21.3073496659244
20
11.6959910913141
30
0.000000000000000
 40
2.50000000000000
 41
0.0
 71
     8
 72
     1
  1
\A1;30°
 11
0.258819045102521
 21
-0.965925826289068
 31
0.0
 73
     1
 44
1.0
1001
ACAD
1000
MTEXTBEGIN
1070
73
1070
1
1070
44
1040
1.0
1070
74
1070
0
1000
MTEXTEND
  0
POINT
  5
F10059
330
F10011
100
AcDbEntity
  8
Bemassung
 62
     0
100
AcDbPoint
10
-3.20378619153669
20
4.52004454342983
30
0.000000000000000
  0
POINT
  5
F1005A
330
F10011
100
AcDbEntity
  8
Bemassung
 62
     0
100
AcDbPoint
10
22.3361822869287
20
4.52004454342983
30
0.000000000000000
  0
POINT
  5
F1005B
330
F10011
100
AcDbEntity
  8
Bemassung
 62
     0
100
AcDbPoint
10
18.9144753226681
20
17.2900287826626
30
0.000000000000000
  0
POINT
  5
F1005C
330
F10011
100
AcDbEntity
  8
Bemassung
 62
     0
100
AcDbPoint
10
21.4659289644218
20
11.1302747969747
30
0.000000000000000
  0
ENDBLK
  5
F1005D
330
F10011
100
AcDbEntity
  8
0
100
AcDbBlockEnd
  0
BLOCK
  5
F1005E
330
F10002
100
AcDbEntity
  8
0
100
AcDbBlockBegin
  2
*D3
 70
     1
 10
0.0
 20
0.0
 30
0.0
  3
*D3
  1

  0
LINE
  5
F1005F
330
F10002
100
AcDbEntity
  8
Bemassung
 62
     0
370
    -2
100
AcDbLine
10
-24.1537861915367
20
-0.979955456570167
30
0.000000000000000
11
-36.2037861915367
21
-0.979955456570167
31
0.000000000000000
  0
LINE
  5
F10060
330
F10002
100
AcDbEntity
  8
Bemassung
 62
     0
370
    -2
100
AcDbLine
10
-24.1537861915367
20
4.02004454342983
30
0.000000000000000
11
-36.2037861915367
21
4.02004454342983
31
0.000000000000000
  0
LINE
  5
F10061
330
F10002
100
AcDbEntity
  8
Bemassung
 62
     0
370
    -2
100
AcDbLine
10
-34.2037861915367
20
-0.979955456570167
30
0.000000000000000
11
-34.2037861915367
21
4.02004454342983
31
0.000000000000000
  0
INSERT
  5
F10062
330
F10002
100
AcDbEntity
  8
Bemassung
 62
     0
370
    -2
100
AcDbBlockReference
  2
VDDIM_DEFAULT
10
-34.2037861915367
20
-0.979955456570167
30
0.000000000000000
 41
2.50000000000000
 42
2.50000000000000
 43
2.50000000000000
 50
90.0000000000000
  0
INSERT
  5
F10063
330
F10002
100
AcDbEntity
  8
Bemassung
 62
     0
370
    -2
100
AcDbBlockReference
  2
VDDIM_DEFAULT
10
-34.2037861915367
20
4.02004454342983
30
0.000000000000000
 41
2.50000000000000
 42
2.50000000000000
 43
2.50000000000000
 50
270.000000000000
  0
MTEXT
  5
F10064
102
{ACAD_XDICTIONARY
360
F10005
102
}
330
F10002
100
AcDbEntity
  8
Bemassung
 62
     0
100
AcDbMText
10
-34.8704528582034
20
1.28619153674834
30
0.000000000000000
 40
2.50000000000000
 41
0.0
 71
     8
 72
     1
  1
\A1;%%c5
 11
6.12323399573677e-017
 21
1.00000000000000
 31
0.0
 73
     1
 44
1.0
1001
ACAD
1000
MTEXTBEGIN
1070
73
1070
1
1070
44
1040
1.0
1070
74
1070
0
1000
MTEXTEND
  0
POINT
  5
F10065
330
F10002
100
AcDbEntity
  8
Bemassung
 62
     0
100
AcDbPoint
10
-24.1537861915367
20
-0.979955456570167
30
0.000000000000000
  0
POINT
  5
F10066
330
F10002
100
AcDbEntity
  8
Bemassung
 62
     0
100
AcDbPoint
10
-24.1537861915367
20
4.02004454342983
30
0.000000000000000
  0
ENDBLK
  5
F10067
330
F10002
100
AcDbEntity
  8
0
100
AcDbBlockEnd
  0
BLOCK
  5
F10068
330
F1000C
100
AcDbEntity
  8
0
100
AcDbBlockBegin
  2
*D5
 70
     1
 10
0.0
 20
0.0
 30
0.0
  3
*D5
  1

  0
LINE
  5
F10069
330
F1000C
100
AcDbEntity
  8
Bemassung
 62
     0
370
    -2
100
AcDbLine
10
-11.2430166760780
20
-0.879955456570167
30
0.000000000000000
11
-4.24301667607799
21
-0.879955456570167
31
0.000000000000000
  0
LINE
  5
F1006A
330
F1000C
100
AcDbEntity
  8
Bemassung
 62
     0
370
    -2
100
AcDbLine
10
-11.2430166760780
20
3.92004454342983
30
0.000000000000000
11
-4.24301667607799
21
3.92004454342983
31
0.000000000000000
  0
LINE
  5
F1006B
330
F1000C
100
AcDbEntity
  8
Bemassung
 62
     0
370
    -2
100
AcDbLine
10
-9.24301667607799
20
-0.879955456570167
30
0.000000000000000
11
-9.24301667607799
21
3.92004454342983
31
0.000000000000000
  0
INSERT
  5
F1006C
330
F1000C
100
AcDbEntity
  8
Bemassung
 62
     0
370
    -2
100
AcDbBlockReference
  2
VDDIM_DEFAULT
10
-9.24301667607799
20
-0.879955456570167
30
0.000000000000000
 41
2.50000000000000
 42
2.50000000000000
 43
2.50000000000000
 50
90.0000000000000
  0
INSERT
  5
F1006D
330
F1000C
100
AcDbEntity
  8
Bemassung
 62
     0
370
    -2
100
AcDbBlockReference
  2
VDDIM_DEFAULT
10
-9.24301667607799
20
3.92004454342983
30
0.000000000000000
 41
2.50000000000000
 42
2.50000000000000
 43
2.50000000000000
 50
270.000000000000
  0
MTEXT
  5
F1006E
102
{ACAD_XDICTIONARY
360
F1000F
102
}
330
F1000C
100
AcDbEntity
  8
Bemassung
 62
     0
100
AcDbMText
10
-9.90968334274466
20
19.1759465478842
30
0.000000000000000
 40
2.50000000000000
 41
0.0
 71
     8
 72
     1
  1
\A1;%%c4.8
 11
6.12323399573677e-017
 21
1.00000000000000
 31
0.0
 73
     1
 44
1.0
1001
ACAD
1000
MTEXTBEGIN
1070
73
1070
1
1070
44
1040
1.0
1070
74
1070
0
1000
MTEXTEND
  0
POINT
  5
F1006F
330
F1000C
100
AcDbEntity
  8
Bemassung
 62
     0
100
AcDbPoint
10
-11.2430166760780
20
-0.879955456570167
30
0.000000000000000
  0
POINT
  5
F10070
330
F1000C
100
AcDbEntity
  8
Bemassung
 62
     0
100
AcDbPoint
10
-11.2430166760780
20
3.92004454342983
30
0.000000000000000
  0
ENDBLK
  5
F10071
330
F1000C
100
AcDbEntity
  8
0
100
AcDbBlockEnd
  0
BLOCK
  5
F10072
330
F1001B
100
AcDbEntity
  8
0
100
AcDbBlockBegin
  2
*D8
 70
     1
 10
0.0
 20
0.0
 30
0.0
  3
*D8
  1

  0
LINE
  5
F10073
330
F1001B
100
AcDbEntity
  8
Bemassung
 62
     0
370
    -2
100
AcDbLine
10
32.2962138084633
20
-1.47995545657017
30
0.000000000000000
11
44.7962138084633
21
-1.47995545657017
31
0.000000000000000
  0
LINE
  5
F10074
330
F1001B
100
AcDbEntity
  8
Bemassung
 62
     0
370
    -2
100
AcDbLine
10
32.2962138084633
20
4.52004454342983
30
0.000000000000000
11
44.7962138084633
21
4.52004454342983
31
0.000000000000000
  0
LINE
  5
F10075
330
F1001B
100
AcDbEntity
  8
Bemassung
 62
     0
370
    -2
100
AcDbLine
10
42.7962138084633
20
-1.47995545657017
30
0.000000000000000
11
42.7962138084633
21
4.52004454342983
31
0.000000000000000
  0
INSERT
  5
F10076
330
F1001B
100
AcDbEntity
  8
Bemassung
 62
     0
370
    -2
100
AcDbBlockReference
  2
VDDIM_DEFAULT
10
42.7962138084633
20
-1.47995545657017
30
0.000000000000000
 41
2.50000000000000
 42
2.50000000000000
 43
2.50000000000000
 50
90.0000000000000
  0
INSERT
  5
F10077
330
F1001B
100
AcDbEntity
  8
Bemassung
 62
     0
370
    -2
100
AcDbBlockReference
  2
VDDIM_DEFAULT
10
42.7962138084633
20
4.52004454342983
30
0.000000000000000
 41
2.50000000000000
 42
2.50000000000000
 43
2.50000000000000
 50
270.000000000000
  0
MTEXT
  5
F10078
330
F1001B
100
AcDbEntity
  8
Bemassung
 62
     0
100
AcDbMText
10
42.1295471417966
20
1.52004454342983
30
0.000000000000000
 40
2.50000000000000
 41
0.0
 71
     8
 72
     1
  1
\A1;%%c6 h6
 11
6.12323399573677e-017
 21
1.00000000000000
 31
0.0
 73
     1
 44
1.0
  0
POINT
  5
F10079
330
F1001B
100
AcDbEntity
  8
Bemassung
 62
     0
100
AcDbPoint
10
32.2962138084633
20
-1.47995545657017
30
0.000000000000000
  0
POINT
  5
F1007A
330
F1001B
100
AcDbEntity
  8
Bemassung
 62
     0
100
AcDbPoint
10
32.2962138084633
20
4.52004454342983
30
0.000000000000000
  0
ENDBLK
  5
F1007B
330
F1001B
100
AcDbEntity
  8
0
100
AcDbBlockEnd
0
ENDSEC
0
SECTION
2
ENTITIES
  0
DIMENSION
  5
F10008
330
261
100
AcDbEntity
  8
Bemassung
100
AcDbDimension
  2
*D4
10
-11.2037861915367
20
-20.4799554565702
30
0.000000000000000
11
-18.2396993318485
21
-21.1466221232368
31
0.000000000000000
 70
32
 1
<>
 71
     8
  3
BEM-ISBE
100
AcDbAlignedDimension
13
-24.2037861915367
23
-22.4799554565702
33
0.000000000000000
14
-11.2037861915367
24
-22.4799554565702
34
0.000000000000000
100
AcDbRotatedDimension
1001
ACAD
1000
DSTYLE
1002
{
1070
284
1070
8
1070
78
1070
8
1070
144
1040
1.00000000000000
1070
147
1040
0.625
1070
 72
1070
 0
1070
 71
1070
 0
1002
}
  0
DIMENSION
  5
F10017
330
261
100
AcDbEntity
  8
Bemassung
100
AcDbDimension
  2
*D7
10
32.7962138084633
20
24.5200445434298
30
0.000000000000000
11
12.9796770601337
21
23.8533778767632
31
0.000000000000000
 70
32
 1
<>
 71
     8
  3
BEM-ISBE
100
AcDbAlignedDimension
13
-3.20378619153669
23
4.52004454342983
33
0.000000000000000
14
32.7962138084633
24
4.02004454342983
34
0.000000000000000
100
AcDbRotatedDimension
1001
ACAD
1000
DSTYLE
1002
{
1070
284
1070
8
1070
78
1070
8
1070
144
1040
1.00000000000000
1070
147
1040
0.625
1070
 72
1070
 0
1070
 71
1070
 0
1002
}
  0
DIMENSION
  5
F10021
330
261
100
AcDbEntity
  8
Bemassung
100
AcDbDimension
  2
*D9
10
-24.2037861915367
20
44.5200445434298
30
0.000000000000000
11
4.15172605790651
21
45.1867112100965
31
0.000000000000000
 70
32
 1
<>
 71
     8
  3
BEM-ISBE
100
AcDbAlignedDimension
13
32.7962138084633
23
4.02004454342983
33
0.000000000000000
14
-24.2037861915367
24
-22.4799554565702
34
0.000000000000000
100
AcDbRotatedDimension
1001
ACAD
1000
DSTYLE
1002
{
1070
284
1070
8
1070
78
1070
8
1070
144
1040
1.00000000000000
1070
147
1040
0.625
1070
 72
1070
 0
1070
 71
1070
 0
1002
}
  0
DIMENSION
  5
F10026
330
261
100
AcDbEntity
  8
Bemassung
100
AcDbDimension
  2
*D10
10
-4.24301667607799
20
26.4287305122494
30
0.000000000000000
11
-14.2234014338073
21
25.7620638455828
31
0.000000000000000
 70
32
 1
<>
 71
     8
  3
BEM-ISBE
100
AcDbAlignedDimension
13
-24.2037861915367
23
1.52004454342983
33
0.000000000000000
14
-4.24301667607799
24
3.92004454342983
34
0.000000000000000
100
AcDbRotatedDimension
1001
ACAD
1000
DSTYLE
1002
{
1070
284
1070
8
1070
78
1070
8
1070
144
1040
1.00000000000000
1070
147
1040
0.625
1070
 72
1070
 0
1070
 71
1070
 0
1002
}
  0
DIMENSION
  5
F10012
330
261
100
AcDbEntity
  8
Bemassung
100
AcDbDimension
  2
*D6
10
-3.20378619153669
20
4.52004454342983
30
0.000000000000000
11
21.3073496659244
21
11.6959910913141
31
0.000000000000000
 70
34
 1
<>
 71
     8
  3
BEM-ISBE
100
AcDb2LineAngularDimension
13
-3.20378619153669
23
4.52004454342983
33
0.000000000000000
14
24.3361822869287
24
4.52004454342983
34
0.000000000000000
15
20.6465261302370
25
18.2900287826626
35
0.000000000000000
16
21.4659289644218
26
11.1302747969747
36
0.000000000000000
1001
ACAD
1000
DSTYLE
1002
{
1070
284
1070
8
1070
79
1070
2
1070
147
1040
0.625
1070
 72
1070
 0
1070
 71
1070
 0
1002
}
  0
DIMENSION
  5
F10003
330
261
100
AcDbEntity
  8
Bemassung
100
AcDbDimension
  2
*D3
10
-34.2037861915367
20
4.02004454342983
30
0.000000000000000
11
-34.8704528582034
21
1.28619153674834
31
0.000000000000000
 70
32
 1
%%c<>
 71
     8
  3
BEM-ISBE
100
AcDbAlignedDimension
13
-24.1537861915367
23
-0.979955456570167
33
0.000000000000000
14
-24.1537861915367
24
4.02004454342983
34
0.000000000000000
50
90.0000000000000
100
AcDbRotatedDimension
1001
ACAD
1000
DSTYLE
1002
{
1070
284
1070
8
1070
78
1070
8
1070
144
1040
1.00000000000000
1070
147
1040
0.625
1070
 72
1070
 0
1070
 71
1070
 0
1002
}
  0
DIMENSION
  5
F1000D
330
261
100
AcDbEntity
  8
Bemassung
100
AcDbDimension
  2
*D5
10
-9.24301667607799
20
3.92004454342983
30
0.000000000000000
11
-9.90968334274466
21
19.1759465478842
31
0.000000000000000
 70
32
 1
%%c<>
 71
     8
  3
BEM-ISBE
100
AcDbAlignedDimension
13
-11.2430166760780
23
-0.879955456570167
33
0.000000000000000
14
-11.2430166760780
24
3.92004454342983
34
0.000000000000000
50
90.0000000000000
100
AcDbRotatedDimension
1001
ACAD
1000
DSTYLE
1002
{
1070
284
1070
8
1070
78
1070
8
1070
144
1040
1.00000000000000
1070
147
1040
0.625
1070
 72
1070
 0
1070
 71
1070
 0
1002
}
  0
DIMENSION
  5
F1001C
330
261
100
AcDbEntity
  8
Bemassung
100
AcDbDimension
  2
*D8
10
42.7962138084633
20
4.52004454342983
30
0.000000000000000
11
42.1295471417966
21
1.52004454342983
31
0.000000000000000
 70
32
 1
%%c<> h6
 71
     8
  3
BEM-ISBE
100
AcDbAlignedDimension
13
32.2962138084633
23
-1.47995545657017
33
0.000000000000000
14
32.2962138084633
24
4.52004454342983
34
0.000000000000000
50
90.0000000000000
100
AcDbRotatedDimension
1001
ACAD
1000
DSTYLE
1002
{
1070
284
1070
8
1070
78
1070
8
1070
144
1040
1.00000000000000
1070
147
1040
0.625
1070
 72
1070
 0
1070
 71
1070
 0
1002
}
  0
LINE
  5
F1007C
330
F1007D
100
AcDbEntity
8
Geo
100
AcDbLine
10
-24.2037861915367
20
1.52004454342983
30
0.000000000000000
11
-24.2037861915367
21
3.97004454342983
31
0.000000000000000
  0
LINE
  5
F1007E
330
F1007F
100
AcDbEntity
8
Geo
100
AcDbLine
10
-24.2037861915367
20
3.97004454342983
30
0.000000000000000
11
-24.1537861915367
21
4.02004454342983
31
0.000000000000000
  0
LINE
  5
F10080
330
F10081
100
AcDbEntity
8
Geo
100
AcDbLine
10
-24.1537861915367
20
4.02004454342983
30
0.000000000000000
11
-11.2037861915367
21
4.02004454342983
31
0.000000000000000
  0
LINE
  5
F10082
330
F10083
100
AcDbEntity
8
Geo
100
AcDbLine
10
-11.2037861915367
20
4.02004454342983
30
0.000000000000000
11
-11.2037861915367
21
3.92004454342983
31
0.000000000000000
  0
LINE
  5
F10084
330
F10085
100
AcDbEntity
8
Geo
100
AcDbLine
10
-11.2037861915367
20
3.92004454342983
30
0.000000000000000
11
-4.24301667607799
21
3.92004454342983
31
0.000000000000000
  0
LINE
  5
F10086
330
F10087
100
AcDbEntity
8
Geo
100
AcDbLine
10
-4.24301667607799
20
3.92004454342983
30
0.000000000000000
11
-3.20378619153669
21
4.52004454342983
31
0.000000000000000
  0
LINE
  5
F10088
330
F10089
100
AcDbEntity
8
Geo
100
AcDbLine
10
-3.20378619153669
20
4.52004454342983
30
0.000000000000000
11
32.2962138084633
21
4.52004454342983
31
0.000000000000000
  0
LINE
  5
F1008A
330
F1008B
100
AcDbEntity
8
Geo
100
AcDbLine
10
32.2962138084633
20
4.52004454342983
30
0.000000000000000
11
32.7962138084633
21
4.02004454342983
31
0.000000000000000
  0
LINE
  5
F1008C
330
F1008D
100
AcDbEntity
8
Geo
100
AcDbLine
10
-22.8037861915367
20
4.01935368273187
30
0.000000000000000
11
-22.7037861915367
21
4.01996962922215
31
0.000000000000000
  0
LINE
  5
F1008E
330
F1008F
100
AcDbEntity
8
Geo
100
AcDbLine
10
-22.7037861915367
20
4.01996962922215
30
0.000000000000000
11
-22.6037861915367
21
4.01814421866273
31
0.000000000000000
  0
LINE
  5
F10090
330
F10091
100
AcDbEntity
8
Geo
100
AcDbLine
10
-22.6037861915367
20
4.01814421866273
30
0.000000000000000
11
-22.5037861915367
21
4.01387923369861
31
0.000000000000000
  0
LINE
  5
F10092
330
F10093
100
AcDbEntity
8
Geo
100
AcDbLine
10
-22.5037861915367
20
4.01387923369861
30
0.000000000000000
11
-22.4037861915367
21
4.00717883939503
31
0.000000000000000
  0
LINE
  5
F10094
330
F10095
100
AcDbEntity
8
Geo
100
AcDbLine
10
-22.4037861915367
20
4.00717883939503
30
0.000000000000000
11
-22.3037861915367
21
3.99804957917004
31
0.000000000000000
  0
LINE
  5
F10096
330
F10097
100
AcDbEntity
8
Geo
100
AcDbLine
10
-22.3037861915367
20
3.99804957917004
30
0.000000000000000
11
-22.2037861915367
21
3.98650036840429
31
0.000000000000000
  0
LINE
  5
F10098
330
F10099
100
AcDbEntity
8
Geo
100
AcDbLine
10
-22.2037861915367
20
3.98650036840429
30
0.000000000000000
11
-22.1037861915367
21
3.97254248573462
31
0.000000000000000
  0
LINE
  5
F1009A
330
F1009B
100
AcDbEntity
8
Geo
100
AcDbLine
10
-22.1037861915367
20
3.97254248573462
30
0.000000000000000
11
-22.0037861915367
21
3.95618956203959
31
0.000000000000000
  0
LINE
  5
F1009C
330
F1009D
100
AcDbEntity
8
Geo
100
AcDbLine
10
-22.0037861915367
20
3.95618956203959
30
0.000000000000000
11
-21.9037861915367
21
3.93745756712796
31
0.000000000000000
  0
LINE
  5
F1009E
330
F1009F
100
AcDbEntity
8
Geo
100
AcDbLine
10
-21.9037861915367
20
3.93745756712796
30
0.000000000000000
11
-21.8037861915367
21
3.91636479414302
31
0.000000000000000
  0
LINE
  5
F100A0
330
F100A1
100
AcDbEntity
8
Geo
100
AcDbLine
10
-21.8037861915367
20
3.91636479414302
30
0.000000000000000
11
-21.7037861915367
21
3.89293184169805
31
0.000000000000000
  0
LINE
  5
F100A2
330
F100A3
100
AcDbEntity
8
Geo
100
AcDbLine
10
-21.7037861915367
20
3.89293184169805
30
0.000000000000000
11
-21.6037861915367
21
3.86718159376022
31
0.000000000000000
  0
LINE
  5
F100A4
330
F100A5
100
AcDbEntity
8
Geo
100
AcDbLine
10
-21.6037861915367
20
3.86718159376022
30
0.000000000000000
11
-21.5037861915367
21
3.83913919730283
31
0.000000000000000
  0
LINE
  5
F100A6
330
F100A7
100
AcDbEntity
8
Geo
100
AcDbLine
10
-21.5037861915367
20
3.83913919730283
30
0.000000000000000
11
-21.4037861915367
21
3.80883203774741
31
0.000000000000000
  0
LINE
  5
F100A8
330
F100A9
100
AcDbEntity
8
Geo
100
AcDbLine
10
-21.4037861915367
20
3.80883203774741
30
0.000000000000000
11
-21.3037861915367
21
3.77628971221991
31
0.000000000000000
  0
LINE
  5
F100AA
330
F100AB
100
AcDbEntity
8
Geo
100
AcDbLine
10
-21.3037861915367
20
3.77628971221991
30
0.000000000000000
11
-21.2037861915367
21
3.74154400064698
31
0.000000000000000
  0
LINE
  5
F100AC
330
F100AD
100
AcDbEntity
8
Geo
100
AcDbLine
10
-21.2037861915367
20
3.74154400064698
30
0.000000000000000
11
-21.1037861915367
21
3.70462883472055
31
0.000000000000000
  0
LINE
  5
F100AE
330
F100AF
100
AcDbEntity
8
Geo
100
AcDbLine
10
-21.1037861915367
20
3.70462883472055
30
0.000000000000000
11
-21.0037861915367
21
3.66558026476114
31
0.000000000000000
  0
LINE
  5
F100B0
330
F100B1
100
AcDbEntity
8
Geo
100
AcDbLine
10
-21.0037861915367
20
3.66558026476114
30
0.000000000000000
11
-20.9037861915367
21
3.62443642451206
31
0.000000000000000
  0
LINE
  5
F100B2
330
F100B3
100
AcDbEntity
8
Geo
100
AcDbLine
10
-20.9037861915367
20
3.62443642451206
30
0.000000000000000
11
-20.8037861915367
21
3.58123749389911
31
0.000000000000000
  0
LINE
  5
F100B4
330
F100B5
100
AcDbEntity
8
Geo
100
AcDbLine
10
-20.8037861915367
20
3.58123749389911
30
0.000000000000000
11
-20.7037861915367
21
3.53602565979197
31
0.000000000000000
  0
LINE
  5
F100B6
330
F100B7
100
AcDbEntity
8
Geo
100
AcDbLine
10
-20.7037861915367
20
3.53602565979197
30
0.000000000000000
11
-20.6037861915367
21
3.48884507480567
31
0.000000000000000
  0
LINE
  5
F100B8
330
F100B9
100
AcDbEntity
8
Geo
100
AcDbLine
10
-20.6037861915367
20
3.48884507480567
30
0.000000000000000
11
-20.5037861915367
21
3.43974181418239
31
0.000000000000000
  0
LINE
  5
F100BA
330
F100BB
100
AcDbEntity
8
Geo
100
AcDbLine
10
-20.5037861915367
20
3.43974181418239
30
0.000000000000000
11
-20.4037861915367
21
3.38876383079567
31
0.000000000000000
  0
LINE
  5
F100BC
330
F100BD
100
AcDbEntity
8
Geo
100
AcDbLine
10
-20.4037861915367
20
3.38876383079567
30
0.000000000000000
11
-20.3037861915367
21
3.33596090832096
31
0.000000000000000
  0
LINE
  5
F100BE
330
F100BF
100
AcDbEntity
8
Geo
100
AcDbLine
10
-20.3037861915367
20
3.33596090832096
30
0.000000000000000
11
-20.2037861915367
21
3.28138461261828
31
0.000000000000000
  0
LINE
  5
F100C0
330
F100C1
100
AcDbEntity
8
Geo
100
AcDbLine
10
-20.2037861915367
20
3.28138461261828
30
0.000000000000000
11
-20.1037861915367
21
3.22508824137442
31
0.000000000000000
  0
LINE
  5
F100C2
330
F100C3
100
AcDbEntity
8
Geo
100
AcDbLine
10
-20.1037861915367
20
3.22508824137442
30
0.000000000000000
11
-20.0037861915367
21
3.16712677205396
31
0.000000000000000
  0
LINE
  5
F100C4
330
F100C5
100
AcDbEntity
8
Geo
100
AcDbLine
10
-20.0037861915367
20
3.16712677205396
30
0.000000000000000
11
-19.9037861915367
21
3.10755680820975
31
0.000000000000000
  0
LINE
  5
F100C6
330
F100C7
100
AcDbEntity
8
Geo
100
AcDbLine
10
-19.9037861915367
20
3.10755680820975
30
0.000000000000000
11
-19.8037861915367
21
3.04643652420550
31
0.000000000000000
  0
LINE
  5
F100C8
330
F100C9
100
AcDbEntity
8
Geo
100
AcDbLine
10
-19.8037861915367
20
3.04643652420550
30
0.000000000000000
11
-19.7037861915367
21
2.98382560840429
31
0.000000000000000
  0
LINE
  5
F100CA
330
F100CB
100
AcDbEntity
8
Geo
100
AcDbLine
10
-19.7037861915367
20
2.98382560840429
30
0.000000000000000
11
-19.6037861915367
21
2.91978520487864
31
0.000000000000000
  0
LINE
  5
F100CC
330
F100CD
100
AcDbEntity
8
Geo
100
AcDbLine
10
-19.6037861915367
20
2.91978520487864
30
0.000000000000000
11
-19.5037861915367
21
2.85437785369884
31
0.000000000000000
  0
LINE
  5
F100CE
330
F100CF
100
AcDbEntity
8
Geo
100
AcDbLine
10
-19.5037861915367
20
2.85437785369884
30
0.000000000000000
11
-19.4037861915367
21
2.78766742985811
31
0.000000000000000
  0
LINE
  5
F100D0
330
F100D1
100
AcDbEntity
8
Geo
100
AcDbLine
10
-19.4037861915367
20
2.78766742985811
30
0.000000000000000
11
-19.3037861915367
21
2.71971908089405
31
0.000000000000000
  0
LINE
  5
F100D2
330
F100D3
100
AcDbEntity
8
Geo
100
AcDbLine
10
-19.3037861915367
20
2.71971908089405
30
0.000000000000000
11
-19.2037861915367
21
2.65059916326738
31
0.000000000000000
  0
LINE
  5
F100D4
330
F100D5
100
AcDbEntity
8
Geo
100
AcDbLine
10
-19.2037861915367
20
2.65059916326738
30
0.000000000000000
11
-19.1037861915367
21
2.58037517756008
31
0.000000000000000
  0
LINE
  5
F100D6
330
F100D7
100
AcDbEntity
8
Geo
100
AcDbLine
10
-19.1037861915367
20
2.58037517756008
30
0.000000000000000
11
-19.0037861915367
21
2.50911570255618
31
0.000000000000000
  0
LINE
  5
F100D8
330
F100D9
100
AcDbEntity
8
Geo
100
AcDbLine
10
-19.0037861915367
20
2.50911570255618
30
0.000000000000000
11
-18.9037861915367
21
2.43689032826965
31
0.000000000000000
  0
LINE
  5
F100DA
330
F100DB
100
AcDbEntity
8
Geo
100
AcDbLine
10
-18.9037861915367
20
2.43689032826965
30
0.000000000000000
11
-18.8037861915367
21
2.36376958798474
31
0.000000000000000
  0
LINE
  5
F100DC
330
F100DD
100
AcDbEntity
8
Geo
100
AcDbLine
10
-18.8037861915367
20
2.36376958798474
30
0.000000000000000
11
-18.7037861915367
21
2.28982488937515
31
0.000000000000000
  0
LINE
  5
F100DE
330
F100DF
100
AcDbEntity
8
Geo
100
AcDbLine
10
-18.7037861915367
20
2.28982488937515
30
0.000000000000000
11
-18.6037861915367
21
2.21512844476926
31
0.000000000000000
  0
LINE
  5
F100E0
330
F100E1
100
AcDbEntity
8
Geo
100
AcDbLine
10
-18.6037861915367
20
2.21512844476926
30
0.000000000000000
11
-18.5037861915367
21
2.13975320062961
31
0.000000000000000
  0
LINE
  5
F100E2
330
F100E3
100
AcDbEntity
8
Geo
100
AcDbLine
10
-18.5037861915367
20
2.13975320062961
30
0.000000000000000
11
-18.4037861915367
21
2.06377276631542
31
0.000000000000000
  0
LINE
  5
F100E4
330
F100E5
100
AcDbEntity
8
Geo
100
AcDbLine
10
-18.4037861915367
20
2.06377276631542
30
0.000000000000000
11
-18.3037861915367
21
1.98726134219773
31
0.000000000000000
  0
LINE
  5
F100E6
330
F100E7
100
AcDbEntity
8
Geo
100
AcDbLine
10
-18.3037861915367
20
1.98726134219773
30
0.000000000000000
11
-18.2037861915367
21
1.91029364719742
31
0.000000000000000
  0
LINE
  5
F100E8
330
F100E9
100
AcDbEntity
8
Geo
100
AcDbLine
10
-18.2037861915367
20
1.91029364719742
30
0.000000000000000
11
-18.1037861915367
21
1.83294484581674
31
0.000000000000000
  0
LINE
  5
F100EA
330
F100EB
100
AcDbEntity
8
Geo
100
AcDbLine
10
-18.1037861915367
20
1.83294484581674
30
0.000000000000000
11
-18.0037861915367
21
1.75529047473582
31
0.000000000000000
  0
LINE
  5
F100EC
330
F100ED
100
AcDbEntity
8
Geo
100
AcDbLine
10
-18.0037861915367
20
1.75529047473582
30
0.000000000000000
11
-17.9037861915367
21
1.67740636904562
31
0.000000000000000
  0
LINE
  5
F100EE
330
F100EF
100
AcDbEntity
8
Geo
100
AcDbLine
10
-17.9037861915367
20
1.67740636904562
30
0.000000000000000
11
-17.8037861915367
21
1.59936858818952
31
0.000000000000000
  0
LINE
  5
F100F0
330
F100F1
100
AcDbEntity
8
Geo
100
AcDbLine
10
-17.8037861915367
20
1.59936858818952
30
0.000000000000000
11
-17.7037861915367
21
1.52125334168575
31
0.000000000000000
  0
LINE
  5
F100F2
330
F100F3
100
AcDbEntity
8
Geo
100
AcDbLine
10
-17.7037861915367
20
1.52125334168575
30
0.000000000000000
11
-17.6037861915367
21
1.44313691470335
31
0.000000000000000
  0
LINE
  5
F100F4
330
F100F5
100
AcDbEntity
8
Geo
100
AcDbLine
10
-17.6037861915367
20
1.44313691470335
30
0.000000000000000
11
-17.5037861915367
21
1.36509559356417
31
0.000000000000000
  0
LINE
  5
F100F6
330
F100F7
100
AcDbEntity
8
Geo
100
AcDbLine
10
-17.5037861915367
20
1.36509559356417
30
0.000000000000000
11
-17.4037861915367
21
1.28720559124381
31
0.000000000000000
  0
LINE
  5
F100F8
330
F100F9
100
AcDbEntity
8
Geo
100
AcDbLine
10
-17.4037861915367
20
1.28720559124381
30
0.000000000000000
11
-17.3037861915367
21
1.20954297294410
31
0.000000000000000
  0
LINE
  5
F100FA
330
F100FB
100
AcDbEntity
8
Geo
100
AcDbLine
10
-17.3037861915367
20
1.20954297294410
30
0.000000000000000
11
-17.2037861915367
21
1.13218358181003
31
0.000000000000000
  0
LINE
  5
F100FC
330
F100FD
100
AcDbEntity
8
Geo
100
AcDbLine
10
-17.2037861915367
20
1.13218358181003
30
0.000000000000000
11
-17.1037861915367
21
1.05520296486336
31
0.000000000000000
  0
LINE
  5
F100FE
330
F100FF
100
AcDbEntity
8
Geo
100
AcDbLine
10
-17.1037861915367
20
1.05520296486336
30
0.000000000000000
11
-17.0037861915367
21
0.978676299225586
31
0.000000000000000
  0
LINE
  5
F10100
330
F10101
100
AcDbEntity
8
Geo
100
AcDbLine
10
-17.0037861915367
20
0.978676299225586
30
0.000000000000000
11
-16.9037861915367
21
0.902678318702010
31
0.000000000000000
  0
LINE
  5
F10102
330
F10103
100
AcDbEntity
8
Geo
100
AcDbLine
10
-16.9037861915367
20
0.902678318702010
30
0.000000000000000
11
-16.8037861915367
21
0.827283240798815
31
0.000000000000000
  0
LINE
  5
F10104
330
F10105
100
AcDbEntity
8
Geo
100
AcDbLine
10
-16.8037861915367
20
0.827283240798815
30
0.000000000000000
11
-16.7037861915367
21
0.752564694244319
31
0.000000000000000
  0
LINE
  5
F10106
330
F10107
100
AcDbEntity
8
Geo
100
AcDbLine
10
-16.7037861915367
20
0.752564694244319
30
0.000000000000000
11
-16.6037861915367
21
0.678595647085207
31
0.000000000000000
  0
LINE
  5
F10108
330
F10109
100
AcDbEntity
8
Geo
100
AcDbLine
10
-16.6037861915367
20
0.678595647085207
30
0.000000000000000
11
-16.5037861915367
21
0.605448335427982
31
0.000000000000000
  0
LINE
  5
F1010A
330
F1010B
100
AcDbEntity
8
Geo
100
AcDbLine
10
-16.5037861915367
20
0.605448335427982
30
0.000000000000000
11
-16.4037861915367
21
0.533194192895190
31
0.000000000000000
  0
LINE
  5
F1010C
330
F1010D
100
AcDbEntity
8
Geo
100
AcDbLine
10
-16.4037861915367
20
0.533194192895190
30
0.000000000000000
11
-16.3037861915367
21
0.461903780865353
31
0.000000000000000
  0
LINE
  5
F1010E
330
F1010F
100
AcDbEntity
8
Geo
100
AcDbLine
10
-16.3037861915367
20
0.461903780865353
30
0.000000000000000
11
-16.2037861915367
21
0.391646719564673
31
0.000000000000000
  0
LINE
  5
F10110
330
F10111
100
AcDbEntity
8
Geo
100
AcDbLine
10
-16.2037861915367
20
0.391646719564673
30
0.000000000000000
11
-16.1037861915367
21
0.322491620077903
31
0.000000000000000
  0
LINE
  5
F10112
330
F10113
100
AcDbEntity
8
Geo
100
AcDbLine
10
-16.1037861915367
20
0.322491620077903
30
0.000000000000000
11
-16.0037861915367
21
0.254506017344623
31
0.000000000000000
  0
LINE
  5
F10114
330
F10115
100
AcDbEntity
8
Geo
100
AcDbLine
10
-16.0037861915367
20
0.254506017344623
30
0.000000000000000
11
-15.9037861915367
21
0.187756304206543
31
0.000000000000000
  0
LINE
  5
F10116
330
F10117
100
AcDbEntity
8
Geo
100
AcDbLine
10
-15.9037861915367
20
0.187756304206543
30
0.000000000000000
11
-15.8037861915367
21
0.122307666570103
31
0.000000000000000
  0
LINE
  5
F10118
330
F10119
100
AcDbEntity
8
Geo
100
AcDbLine
10
-15.8037861915367
20
0.122307666570103
30
0.000000000000000
11
-15.7037861915367
21
0.0582240197477231
31
0.000000000000000
  0
LINE
  5
F1011A
330
F1011B
100
AcDbEntity
8
Geo
100
AcDbLine
10
-15.7037861915367
20
0.0582240197477231
30
0.000000000000000
11
-15.6037861915367
21
-0.00443205396009683
31
0.000000000000000
  0
LINE
  5
F1011C
330
F1011D
100
AcDbEntity
8
Geo
100
AcDbLine
10
-15.6037861915367
20
-0.00443205396009683
30
0.000000000000000
11
-15.5037861915367
21
-0.0655993663809169
31
0.000000000000000
  0
LINE
  5
F1011E
330
F1011F
100
AcDbEntity
8
Geo
100
AcDbLine
10
-15.5037861915367
20
-0.0655993663809169
30
0.000000000000000
11
-15.4037861915367
21
-0.125218183225007
31
0.000000000000000
  0
LINE
  5
F10120
330
F10121
100
AcDbEntity
8
Geo
100
AcDbLine
10
-15.4037861915367
20
-0.125218183225007
30
0.000000000000000
11
-15.3037861915367
21
-0.183230282420167
31
0.000000000000000
  0
LINE
  5
F10122
330
F10123
100
AcDbEntity
8
Geo
100
AcDbLine
10
-15.3037861915367
20
-0.183230282420167
30
0.000000000000000
11
-15.2037861915367
21
-0.239579010969827
31
0.000000000000000
  0
LINE
  5
F10124
330
F10125
100
AcDbEntity
8
Geo
100
AcDbLine
10
-15.2037861915367
20
-0.239579010969827
30
0.000000000000000
11
-15.1037861915367
21
-0.294209340278747
31
0.000000000000000
  0
LINE
  5
F10126
330
F10127
100
AcDbEntity
8
Geo
100
AcDbLine
10
-15.1037861915367
20
-0.294209340278747
30
0.000000000000000
11
-15.0037861915367
21
-0.347067919892397
31
0.000000000000000
  0
LINE
  5
F10128
330
F10129
100
AcDbEntity
8
Geo
100
AcDbLine
10
-15.0037861915367
20
-0.347067919892397
30
0.000000000000000
11
-14.9037861915367
21
-0.398103129597567
31
0.000000000000000
  0
LINE
  5
F1012A
330
F1012B
100
AcDbEntity
8
Geo
100
AcDbLine
10
-14.9037861915367
20
-0.398103129597567
30
0.000000000000000
11
-14.8037861915367
21
-0.447265129833167
31
0.000000000000000
  0
LINE
  5
F1012C
330
F1012D
100
AcDbEntity
8
Geo
100
AcDbLine
10
-14.8037861915367
20
-0.447265129833167
30
0.000000000000000
11
-14.7037861915367
21
-0.494505910362207
31
0.000000000000000
  0
LINE
  5
F1012E
330
F1012F
100
AcDbEntity
8
Geo
100
AcDbLine
10
-14.7037861915367
20
-0.494505910362207
30
0.000000000000000
11
-14.6037861915367
21
-0.539779337157217
31
0.000000000000000
  0
LINE
  5
F10130
330
F10131
100
AcDbEntity
8
Geo
100
AcDbLine
10
-14.6037861915367
20
-0.539779337157217
30
0.000000000000000
11
-14.5037861915367
21
-0.583041197453457
31
0.000000000000000
  0
LINE
  5
F10132
330
F10133
100
AcDbEntity
8
Geo
100
AcDbLine
10
-14.5037861915367
20
-0.583041197453457
30
0.000000000000000
11
-14.4037861915367
21
-0.624249242925887
31
0.000000000000000
  0
LINE
  5
F10134
330
F10135
100
AcDbEntity
8
Geo
100
AcDbLine
10
-14.4037861915367
20
-0.624249242925887
30
0.000000000000000
11
-14.3037861915367
21
-0.663363230947677
31
0.000000000000000
  0
LINE
  5
F10136
330
F10137
100
AcDbEntity
8
Geo
100
AcDbLine
10
-14.3037861915367
20
-0.663363230947677
30
0.000000000000000
11
-14.2037861915367
21
-0.700344963890057
31
0.000000000000000
  0
LINE
  5
F10138
330
F10139
100
AcDbEntity
8
Geo
100
AcDbLine
10
-14.2037861915367
20
-0.700344963890057
30
0.000000000000000
11
-14.1037861915367
21
-0.735158326425017
31
0.000000000000000
  0
LINE
  5
F1013A
330
F1013B
100
AcDbEntity
8
Geo
100
AcDbLine
10
-14.1037861915367
20
-0.735158326425017
30
0.000000000000000
11
-14.0037861915367
21
-0.767769320794597
31
0.000000000000000
  0
LINE
  5
F1013C
330
F1013D
100
AcDbEntity
8
Geo
100
AcDbLine
10
-14.0037861915367
20
-0.767769320794597
30
0.000000000000000
11
-13.9037861915367
21
-0.798146100012067
31
0.000000000000000
  0
LINE
  5
F1013E
330
F1013F
100
AcDbEntity
8
Geo
100
AcDbLine
10
-13.9037861915367
20
-0.798146100012067
30
0.000000000000000
11
-13.8037861915367
21
-0.826258998962847
31
0.000000000000000
  0
LINE
  5
F10140
330
F10141
100
AcDbEntity
8
Geo
100
AcDbLine
10
-13.8037861915367
20
-0.826258998962847
30
0.000000000000000
11
-13.7037861915367
21
-0.852080563374647
31
0.000000000000000
  0
LINE
  5
F10142
330
F10143
100
AcDbEntity
8
Geo
100
AcDbLine
10
-13.7037861915367
20
-0.852080563374647
30
0.000000000000000
11
-13.6037861915367
21
-0.875585576628507
31
0.000000000000000
  0
LINE
  5
F10144
330
F10145
100
AcDbEntity
8
Geo
100
AcDbLine
10
-13.6037861915367
20
-0.875585576628507
30
0.000000000000000
11
-13.5037861915367
21
-0.896751084384657
31
0.000000000000000
  0
LINE
  5
F10146
330
F10147
100
AcDbEntity
8
Geo
100
AcDbLine
10
-13.5037861915367
20
-0.896751084384657
30
0.000000000000000
11
-13.4037861915367
21
-0.915556416999097
31
0.000000000000000
  0
LINE
  5
F10148
330
F10149
100
AcDbEntity
8
Geo
100
AcDbLine
10
-13.4037861915367
20
-0.915556416999097
30
0.000000000000000
11
-13.3037861915367
21
-0.931983209708957
31
0.000000000000000
  0
LINE
  5
F1014A
330
F1014B
100
AcDbEntity
8
Geo
100
AcDbLine
10
-13.3037861915367
20
-0.931983209708957
30
0.000000000000000
11
-13.2037861915367
21
-0.946015420567077
31
0.000000000000000
  0
LINE
  5
F1014C
330
F1014D
100
AcDbEntity
8
Geo
100
AcDbLine
10
-13.2037861915367
20
-0.946015420567077
30
0.000000000000000
11
-13.1037861915367
21
-0.957639346108047
31
0.000000000000000
  0
LINE
  5
F1014E
330
F1014F
100
AcDbEntity
8
Geo
100
AcDbLine
10
-13.1037861915367
20
-0.957639346108047
30
0.000000000000000
11
-13.0037861915367
21
-0.966843634730687
31
0.000000000000000
  0
LINE
  5
F10150
330
F10151
100
AcDbEntity
8
Geo
100
AcDbLine
10
-13.0037861915367
20
-0.966843634730687
30
0.000000000000000
11
-12.9037861915367
21
-0.973619297783677
31
0.000000000000000
  0
LINE
  5
F10152
330
F10153
100
AcDbEntity
8
Geo
100
AcDbLine
10
-12.9037861915367
20
-0.973619297783677
30
0.000000000000000
11
-12.8037861915367
21
-0.977959718343637
31
0.000000000000000
  0
LINE
  5
F10154
330
F10155
100
AcDbEntity
8
Geo
100
AcDbLine
10
-12.8037861915367
20
-0.977959718343637
30
0.000000000000000
11
-12.7037861915367
21
-0.979860657677007
31
0.000000000000000
  0
LINE
  5
F10156
330
F10157
100
AcDbEntity
8
Geo
100
AcDbLine
10
-24.2037861915367
20
3.25245615733687
30
0.000000000000000
11
-24.2037861915367
21
3.25245615733687
31
0.000000000000000
  0
LINE
  5
F10158
330
F10159
100
AcDbEntity
8
Geo
100
AcDbLine
10
-24.2037861915367
20
3.25245615733687
30
0.000000000000000
11
-24.2037861915367
21
3.28781149639620
31
0.000000000000000
  0
LINE
  5
F1015A
330
F1015B
100
AcDbEntity
8
Geo
100
AcDbLine
10
-24.2037861915367
20
3.28781149639620
30
0.000000000000000
11
-24.1037861915367
21
3.23171207613201
31
0.000000000000000
  0
LINE
  5
F1015C
330
F1015D
100
AcDbEntity
8
Geo
100
AcDbLine
10
-24.1037861915367
20
3.23171207613201
30
0.000000000000000
11
-24.0037861915367
21
3.17394108913910
31
0.000000000000000
  0
LINE
  5
F1015E
330
F1015F
100
AcDbEntity
8
Geo
100
AcDbLine
10
-24.0037861915367
20
3.17394108913910
30
0.000000000000000
11
-23.9037861915367
21
3.11455495295061
31
0.000000000000000
  0
LINE
  5
F10160
330
F10161
100
AcDbEntity
8
Geo
100
AcDbLine
10
-23.9037861915367
20
3.11455495295061
30
0.000000000000000
11
-23.8037861915367
21
3.05361166240929
31
0.000000000000000
  0
LINE
  5
F10162
330
F10163
100
AcDbEntity
8
Geo
100
AcDbLine
10
-23.8037861915367
20
3.05361166240929
30
0.000000000000000
11
-23.7037861915367
21
2.99117073303135
31
0.000000000000000
  0
LINE
  5
F10164
330
F10165
100
AcDbEntity
8
Geo
100
AcDbLine
10
-23.7037861915367
20
2.99117073303135
30
0.000000000000000
11
-23.6037861915367
21
2.92729314288531
31
0.000000000000000
  0
LINE
  5
F10166
330
F10167
100
AcDbEntity
8
Geo
100
AcDbLine
10
-23.6037861915367
20
2.92729314288531
30
0.000000000000000
11
-23.5037861915367
21
2.86204127304245
31
0.000000000000000
  0
LINE
  5
F10168
330
F10169
100
AcDbEntity
8
Geo
100
AcDbLine
10
-23.5037861915367
20
2.86204127304245
30
0.000000000000000
11
-23.4037861915367
21
2.79547884665726
31
0.000000000000000
  0
LINE
  5
F1016A
330
F1016B
100
AcDbEntity
8
Geo
100
AcDbLine
10
-23.4037861915367
20
2.79547884665726
30
0.000000000000000
11
-23.3037861915367
21
2.72767086673717
31
0.000000000000000
  0
LINE
  5
F1016C
330
F1016D
100
AcDbEntity
8
Geo
100
AcDbLine
10
-23.3037861915367
20
2.72767086673717
30
0.000000000000000
11
-23.2037861915367
21
2.65868355266240
31
0.000000000000000
  0
LINE
  5
F1016E
330
F1016F
100
AcDbEntity
8
Geo
100
AcDbLine
10
-23.2037861915367
20
2.65868355266240
30
0.000000000000000
11
-23.1037861915367
21
2.58858427551800
31
0.000000000000000
  0
LINE
  5
F10170
330
F10171
100
AcDbEntity
8
Geo
100
AcDbLine
10
-23.1037861915367
20
2.58858427551800
30
0.000000000000000
11
-23.0037861915367
21
2.51744149230111
31
0.000000000000000
  0
LINE
  5
F10172
330
F10173
100
AcDbEntity
8
Geo
100
AcDbLine
10
-23.0037861915367
20
2.51744149230111
30
0.000000000000000
11
-22.9037861915367
21
2.44532467906775
31
0.000000000000000
  0
LINE
  5
F10174
330
F10175
100
AcDbEntity
8
Geo
100
AcDbLine
10
-22.9037861915367
20
2.44532467906775
30
0.000000000000000
11
-22.8037861915367
21
2.37230426308448
31
0.000000000000000
  0
LINE
  5
F10176
330
F10177
100
AcDbEntity
8
Geo
100
AcDbLine
10
-22.8037861915367
20
2.37230426308448
30
0.000000000000000
11
-22.7037861915367
21
2.29845155405108
31
0.000000000000000
  0
LINE
  5
F10178
330
F10179
100
AcDbEntity
8
Geo
100
AcDbLine
10
-22.7037861915367
20
2.29845155405108
30
0.000000000000000
11
-22.6037861915367
21
2.22383867446149
31
0.000000000000000
  0
LINE
  5
F1017A
330
F1017B
100
AcDbEntity
8
Geo
100
AcDbLine
10
-22.6037861915367
20
2.22383867446149
30
0.000000000000000
11
-22.5037861915367
21
2.14853848917098
31
0.000000000000000
  0
LINE
  5
F1017C
330
F1017D
100
AcDbEntity
8
Geo
100
AcDbLine
10
-22.5037861915367
20
2.14853848917098
30
0.000000000000000
11
-22.4037861915367
21
2.07262453423839
31
0.000000000000000
  0
LINE
  5
F1017E
330
F1017F
100
AcDbEntity
8
Geo
100
AcDbLine
10
-22.4037861915367
20
2.07262453423839
30
0.000000000000000
11
-22.3037861915367
21
1.99617094511286
31
0.000000000000000
  0
LINE
  5
F10180
330
F10181
100
AcDbEntity
8
Geo
100
AcDbLine
10
-22.3037861915367
20
1.99617094511286
30
0.000000000000000
11
-22.2037861915367
21
1.91925238423522
31
0.000000000000000
  0
LINE
  5
F10182
330
F10183
100
AcDbEntity
8
Geo
100
AcDbLine
10
-22.2037861915367
20
1.91925238423522
30
0.000000000000000
11
-22.1037861915367
21
1.84194396812473
31
0.000000000000000
  0
LINE
  5
F10184
330
F10185
100
AcDbEntity
8
Geo
100
AcDbLine
10
-22.1037861915367
20
1.84194396812473
30
0.000000000000000
11
-22.0037861915367
21
1.76432119402237
31
0.000000000000000
  0
LINE
  5
F10186
330
F10187
100
AcDbEntity
8
Geo
100
AcDbLine
10
-22.0037861915367
20
1.76432119402237
30
0.000000000000000
11
-21.9037861915367
21
1.68645986616238
31
0.000000000000000
  0
LINE
  5
F10188
330
F10189
100
AcDbEntity
8
Geo
100
AcDbLine
10
-21.9037861915367
20
1.68645986616238
30
0.000000000000000
11
-21.8037861915367
21
1.60843602174394
31
0.000000000000000
  0
LINE
  5
F1018A
330
F1018B
100
AcDbEntity
8
Geo
100
AcDbLine
10
-21.8037861915367
20
1.60843602174394
30
0.000000000000000
11
-21.7037861915367
21
1.53032585667536
31
0.000000000000000
  0
LINE
  5
F1018C
330
F1018D
100
AcDbEntity
8
Geo
100
AcDbLine
10
-21.7037861915367
20
1.53032585667536
30
0.000000000000000
11
-21.6037861915367
21
1.45220565116329
31
0.000000000000000
  0
LINE
  5
F1018E
330
F1018F
100
AcDbEntity
8
Geo
100
AcDbLine
10
-21.6037861915367
20
1.45220565116329
30
0.000000000000000
11
-21.5037861915367
21
1.37415169521957
31
0.000000000000000
  0
LINE
  5
F10190
330
F10191
100
AcDbEntity
8
Geo
100
AcDbLine
10
-21.5037861915367
20
1.37415169521957
30
0.000000000000000
11
-21.4037861915367
21
1.29624021415861
31
0.000000000000000
  0
LINE
  5
F10192
330
F10193
100
AcDbEntity
8
Geo
100
AcDbLine
10
-21.4037861915367
20
1.29624021415861
30
0.000000000000000
11
-21.3037861915367
21
1.21854729415778
31
0.000000000000000
  0
LINE
  5
F10194
330
F10195
100
AcDbEntity
8
Geo
100
AcDbLine
10
-21.3037861915367
20
1.21854729415778
30
0.000000000000000
11
-21.2037861915367
21
1.14114880795386
31
0.000000000000000
  0
LINE
  5
F10196
330
F10197
100
AcDbEntity
8
Geo
100
AcDbLine
10
-21.2037861915367
20
1.14114880795386
30
0.000000000000000
11
-21.1037861915367
21
1.06412034074777
31
0.000000000000000
  0
LINE
  5
F10198
330
F10199
100
AcDbEntity
8
Geo
100
AcDbLine
10
-21.1037861915367
20
1.06412034074777
30
0.000000000000000
11
-21.0037861915367
21
0.987537116390219
31
0.000000000000000
  0
LINE
  5
F1019A
330
F1019B
100
AcDbEntity
8
Geo
100
AcDbLine
10
-21.0037861915367
20
0.987537116390219
30
0.000000000000000
11
-20.9037861915367
21
0.911473923920189
31
0.000000000000000
  0
LINE
  5
F1019C
330
F1019D
100
AcDbEntity
8
Geo
100
AcDbLine
10
-20.9037861915367
20
0.911473923920189
30
0.000000000000000
11
-20.8037861915367
21
0.836005044528028
31
0.000000000000000
  0
LINE
  5
F1019E
330
F1019F
100
AcDbEntity
8
Geo
100
AcDbLine
10
-20.8037861915367
20
0.836005044528028
30
0.000000000000000
11
-20.7037861915367
21
0.761204179014525
31
0.000000000000000
  0
LINE
  5
F101A0
330
F101A1
100
AcDbEntity
8
Geo
100
AcDbLine
10
-20.7037861915367
20
0.761204179014525
30
0.000000000000000
11
-20.6037861915367
21
0.687144375816764
31
0.000000000000000
  0
LINE
  5
F101A2
330
F101A3
100
AcDbEntity
8
Geo
100
AcDbLine
10
-20.6037861915367
20
0.687144375816764
30
0.000000000000000
11
-20.5037861915367
21
0.613897959671060
31
0.000000000000000
  0
LINE
  5
F101A4
330
F101A5
100
AcDbEntity
8
Geo
100
AcDbLine
10
-20.5037861915367
20
0.613897959671060
30
0.000000000000000
11
-20.4037861915367
21
0.541536460982639
31
0.000000000000000
  0
LINE
  5
F101A6
330
F101A7
100
AcDbEntity
8
Geo
100
AcDbLine
10
-20.4037861915367
20
0.541536460982639
30
0.000000000000000
11
-20.3037861915367
21
0.470130545971043
31
0.000000000000000
  0
LINE
  5
F101A8
330
F101A9
100
AcDbEntity
8
Geo
100
AcDbLine
10
-20.3037861915367
20
0.470130545971043
30
0.000000000000000
11
-20.2037861915367
21
0.399749947659473
31
0.000000000000000
  0
LINE
  5
F101AA
330
F101AB
100
AcDbEntity
8
Geo
100
AcDbLine
10
-20.2037861915367
20
0.399749947659473
30
0.000000000000000
11
-20.1037861915367
21
0.330463397775453
31
0.000000000000000
  0
LINE
  5
F101AC
330
F101AD
100
AcDbEntity
8
Geo
100
AcDbLine
10
-20.1037861915367
20
0.330463397775453
30
0.000000000000000
11
-20.0037861915367
21
0.262338559629373
31
0.000000000000000
  0
LINE
  5
F101AE
330
F101AF
100
AcDbEntity
8
Geo
100
AcDbLine
10
-20.0037861915367
20
0.262338559629373
30
0.000000000000000
11
-19.9037861915367
21
0.195441962036363
31
0.000000000000000
  0
LINE
  5
F101B0
330
F101B1
100
AcDbEntity
8
Geo
100
AcDbLine
10
-19.9037861915367
20
0.195441962036363
30
0.000000000000000
11
-19.8037861915367
21
0.129838934346113
31
0.000000000000000
  0
LINE
  5
F101B2
330
F101B3
100
AcDbEntity
8
Geo
100
AcDbLine
10
-19.8037861915367
20
0.129838934346113
30
0.000000000000000
11
-19.7037861915367
21
0.0655935426440530
31
0.000000000000000
  0
LINE
  5
F101B4
330
F101B5
100
AcDbEntity
8
Geo
100
AcDbLine
10
-19.7037861915367
20
0.0655935426440530
30
0.000000000000000
11
-19.6037861915367
21
0.00276852718622300
31
0.000000000000000
  0
LINE
  5
F101B6
330
F101B7
100
AcDbEntity
8
Geo
100
AcDbLine
10
-19.6037861915367
20
0.00276852718622300
30
0.000000000000000
11
-19.5037861915367
21
-0.0585747588711369
31
0.000000000000000
  0
LINE
  5
F101B8
330
F101B9
100
AcDbEntity
8
Geo
100
AcDbLine
10
-19.5037861915367
20
-0.0585747588711369
30
0.000000000000000
11
-19.4037861915367
21
-0.118376409387357
31
0.000000000000000
  0
LINE
  5
F101BA
330
F101BB
100
AcDbEntity
8
Geo
100
AcDbLine
10
-19.4037861915367
20
-0.118376409387357
30
0.000000000000000
11
-19.3037861915367
21
-0.176578023739987
31
0.000000000000000
  0
LINE
  5
F101BC
330
F101BD
100
AcDbEntity
8
Geo
100
AcDbLine
10
-19.3037861915367
20
-0.176578023739987
30
0.000000000000000
11
-19.2037861915367
21
-0.233122763857227
31
0.000000000000000
  0
LINE
  5
F101BE
330
F101BF
100
AcDbEntity
8
Geo
100
AcDbLine
10
-19.2037861915367
20
-0.233122763857227
30
0.000000000000000
11
-19.1037861915367
21
-0.287955409724427
31
0.000000000000000
  0
LINE
  5
F101C0
330
F101C1
100
AcDbEntity
8
Geo
100
AcDbLine
10
-19.1037861915367
20
-0.287955409724427
30
0.000000000000000
11
-19.0037861915367
21
-0.341022413310347
31
0.000000000000000
  0
LINE
  5
F101C2
330
F101C3
100
AcDbEntity
8
Geo
100
AcDbLine
10
-19.0037861915367
20
-0.341022413310347
30
0.000000000000000
11
-18.9037861915367
21
-0.392271950860747
31
0.000000000000000
  0
LINE
  5
F101C4
330
F101C5
100
AcDbEntity
8
Geo
100
AcDbLine
10
-18.9037861915367
20
-0.392271950860747
30
0.000000000000000
11
-18.8037861915367
21
-0.441653973507947
31
0.000000000000000
  0
LINE
  5
F101C6
330
F101C7
100
AcDbEntity
8
Geo
100
AcDbLine
10
-18.8037861915367
20
-0.441653973507947
30
0.000000000000000
11
-18.7037861915367
21
-0.489120256147207
31
0.000000000000000
  0
LINE
  5
F101C8
330
F101C9
100
AcDbEntity
8
Geo
100
AcDbLine
10
-18.7037861915367
20
-0.489120256147207
30
0.000000000000000
11
-18.6037861915367
21
-0.534624444531987
31
0.000000000000000
  0
LINE
  5
F101CA
330
F101CB
100
AcDbEntity
8
Geo
100
AcDbLine
10
-18.6037861915367
20
-0.534624444531987
30
0.000000000000000
11
-18.5037861915367
21
-0.578122100542247
31
0.000000000000000
  0
LINE
  5
F101CC
330
F101CD
100
AcDbEntity
8
Geo
100
AcDbLine
10
-18.5037861915367
20
-0.578122100542247
30
0.000000000000000
11
-18.4037861915367
21
-0.619570745581407
31
0.000000000000000
  0
LINE
  5
F101CE
330
F101CF
100
AcDbEntity
8
Geo
100
AcDbLine
10
-18.4037861915367
20
-0.619570745581407
30
0.000000000000000
11
-18.3037861915367
21
-0.658929902059827
31
0.000000000000000
  0
LINE
  5
F101D0
330
F101D1
100
AcDbEntity
8
Geo
100
AcDbLine
10
-18.3037861915367
20
-0.658929902059827
30
0.000000000000000
11
-18.2037861915367
21
-0.696161132924057
31
0.000000000000000
  0
LINE
  5
F101D2
330
F101D3
100
AcDbEntity
8
Geo
100
AcDbLine
10
-18.2037861915367
20
-0.696161132924057
30
0.000000000000000
11
-18.1037861915367
21
-0.731228079193407
31
0.000000000000000
  0
LINE
  5
F101D4
330
F101D5
100
AcDbEntity
8
Geo
100
AcDbLine
10
-18.1037861915367
20
-0.731228079193407
30
0.000000000000000
11
-18.0037861915367
21
-0.764096495467097
31
0.000000000000000
  0
LINE
  5
F101D6
330
F101D7
100
AcDbEntity
8
Geo
100
AcDbLine
10
-18.0037861915367
20
-0.764096495467097
30
0.000000000000000
11
-17.9037861915367
21
-0.794734283367357
31
0.000000000000000
  0
LINE
  5
F101D8
330
F101D9
100
AcDbEntity
8
Geo
100
AcDbLine
10
-17.9037861915367
20
-0.794734283367357
30
0.000000000000000
11
-17.8037861915367
21
-0.823111522885817
31
0.000000000000000
  0
LINE
  5
F101DA
330
F101DB
100
AcDbEntity
8
Geo
100
AcDbLine
10
-17.8037861915367
20
-0.823111522885817
30
0.000000000000000
11
-17.7037861915367
21
-0.849200501602567
31
0.000000000000000
  0
LINE
  5
F101DC
330
F101DD
100
AcDbEntity
8
Geo
100
AcDbLine
10
-17.7037861915367
20
-0.849200501602567
30
0.000000000000000
11
-17.6037861915367
21
-0.872975741749307
31
0.000000000000000
  0
LINE
  5
F101DE
330
F101DF
100
AcDbEntity
8
Geo
100
AcDbLine
10
-17.6037861915367
20
-0.872975741749307
30
0.000000000000000
11
-17.5037861915367
21
-0.894414025090227
31
0.000000000000000
  0
LINE
  5
F101E0
330
F101E1
100
AcDbEntity
8
Geo
100
AcDbLine
10
-17.5037861915367
20
-0.894414025090227
30
0.000000000000000
11
-17.4037861915367
21
-0.913494415596287
31
0.000000000000000
  0
LINE
  5
F101E2
330
F101E3
100
AcDbEntity
8
Geo
100
AcDbLine
10
-17.4037861915367
20
-0.913494415596287
30
0.000000000000000
11
-17.3037861915367
21
-0.930198279890787
31
0.000000000000000
  0
LINE
  5
F101E4
330
F101E5
100
AcDbEntity
8
Geo
100
AcDbLine
10
-17.3037861915367
20
-0.930198279890787
30
0.000000000000000
11
-17.2037861915367
21
-0.944509305446167
31
0.000000000000000
  0
LINE
  5
F101E6
330
F101E7
100
AcDbEntity
8
Geo
100
AcDbLine
10
-17.2037861915367
20
-0.944509305446167
30
0.000000000000000
11
-17.1037861915367
21
-0.956413516514377
31
0.000000000000000
  0
LINE
  5
F101E8
330
F101E9
100
AcDbEntity
8
Geo
100
AcDbLine
10
-17.1037861915367
20
-0.956413516514377
30
0.000000000000000
11
-17.0037861915367
21
-0.965899287775227
31
0.000000000000000
  0
LINE
  5
F101EA
330
F101EB
100
AcDbEntity
8
Geo
100
AcDbLine
10
-17.0037861915367
20
-0.965899287775227
30
0.000000000000000
11
-16.9037861915367
21
-0.972957355689297
31
0.000000000000000
  0
LINE
  5
F101EC
330
F101ED
100
AcDbEntity
8
Geo
100
AcDbLine
10
-16.9037861915367
20
-0.972957355689297
30
0.000000000000000
11
-16.8037861915367
21
-0.977580827544507
31
0.000000000000000
  0
LINE
  5
F101EE
330
F101EF
100
AcDbEntity
8
Geo
100
AcDbLine
10
-16.8037861915367
20
-0.977580827544507
30
0.000000000000000
11
-16.7037861915367
21
-0.979765188187317
31
0.000000000000000
  0
LINE
  5
F101F0
330
F101F1
100
AcDbEntity
8
Geo
100
AcDbLine
10
-24.2037861915367
20
2.60997762482765
30
0.000000000000000
11
-24.2037861915367
21
2.60997762482765
31
0.000000000000000
  0
LINE
  5
F101F2
330
F101F3
100
AcDbEntity
8
Geo
100
AcDbLine
10
-24.2037861915367
20
2.60997762482765
30
0.000000000000000
11
-24.2037861915367
21
2.63222115710107
31
0.000000000000000
  0
LINE
  5
F101F4
330
F101F5
100
AcDbEntity
8
Geo
100
AcDbLine
10
-24.2037861915367
20
2.63222115710107
30
0.000000000000000
11
-24.1037861915367
21
2.56171794867377
31
0.000000000000000
  0
LINE
  5
F101F6
330
F101F7
100
AcDbEntity
8
Geo
100
AcDbLine
10
-24.1037861915367
20
2.56171794867377
30
0.000000000000000
11
-24.0037861915367
21
2.49019747107876
31
0.000000000000000
  0
LINE
  5
F101F8
330
F101F9
100
AcDbEntity
8
Geo
100
AcDbLine
10
-24.0037861915367
20
2.49019747107876
30
0.000000000000000
11
-23.9037861915367
21
2.41772956921785
31
0.000000000000000
  0
LINE
  5
F101FA
330
F101FB
100
AcDbEntity
8
Geo
100
AcDbLine
10
-23.9037861915367
20
2.41772956921785
30
0.000000000000000
11
-23.8037861915367
21
2.34438501322096
31
0.000000000000000
  0
LINE
  5
F101FC
330
F101FD
100
AcDbEntity
8
Geo
100
AcDbLine
10
-23.8037861915367
20
2.34438501322096
30
0.000000000000000
11
-23.7037861915367
21
2.27023542933394
31
0.000000000000000
  0
LINE
  5
F101FE
330
F101FF
100
AcDbEntity
8
Geo
100
AcDbLine
10
-23.7037861915367
20
2.27023542933394
30
0.000000000000000
11
-23.6037861915367
21
2.19535322997043
31
0.000000000000000
  0
LINE
  5
F10200
330
F10201
100
AcDbEntity
8
Geo
100
AcDbLine
10
-23.6037861915367
20
2.19535322997043
30
0.000000000000000
11
-23.5037861915367
21
2.11981154299589
31
0.000000000000000
  0
LINE
  5
F10202
330
F10203
100
AcDbEntity
8
Geo
100
AcDbLine
10
-23.5037861915367
20
2.11981154299589
30
0.000000000000000
11
-23.4037861915367
21
2.04368414031294
31
0.000000000000000
  0
LINE
  5
F10204
330
F10205
100
AcDbEntity
8
Geo
100
AcDbLine
10
-23.4037861915367
20
2.04368414031294
30
0.000000000000000
11
-23.3037861915367
21
1.96704536581786
31
0.000000000000000
  0
LINE
  5
F10206
330
F10207
100
AcDbEntity
8
Geo
100
AcDbLine
10
-23.3037861915367
20
1.96704536581786
30
0.000000000000000
11
-23.2037861915367
21
1.88997006279831
31
0.000000000000000
  0
LINE
  5
F10208
330
F10209
100
AcDbEntity
8
Geo
100
AcDbLine
10
-23.2037861915367
20
1.88997006279831
30
0.000000000000000
11
-23.1037861915367
21
1.81253350084356
31
0.000000000000000
  0
LINE
  5
F1020A
330
F1020B
100
AcDbEntity
8
Geo
100
AcDbLine
10
-23.1037861915367
20
1.81253350084356
30
0.000000000000000
11
-23.0037861915367
21
1.73481130233826
31
0.000000000000000
  0
LINE
  5
F1020C
330
F1020D
100
AcDbEntity
8
Geo
100
AcDbLine
10
-23.0037861915367
20
1.73481130233826
30
0.000000000000000
11
-22.9037861915367
21
1.65687936861174
31
0.000000000000000
  0
LINE
  5
F1020E
330
F1020F
100
AcDbEntity
8
Geo
100
AcDbLine
10
-22.9037861915367
20
1.65687936861174
30
0.000000000000000
11
-22.8037861915367
21
1.57881380581490
31
0.000000000000000
  0
LINE
  5
F10210
330
F10211
100
AcDbEntity
8
Geo
100
AcDbLine
10
-22.8037861915367
20
1.57881380581490
30
0.000000000000000
11
-22.7037861915367
21
1.50069085059704
31
0.000000000000000
  0
LINE
  5
F10212
330
F10213
100
AcDbEntity
8
Geo
100
AcDbLine
10
-22.7037861915367
20
1.50069085059704
30
0.000000000000000
11
-22.6037861915367
21
1.42258679565531
31
0.000000000000000
  0
LINE
  5
F10214
330
F10215
100
AcDbEntity
8
Geo
100
AcDbLine
10
-22.6037861915367
20
1.42258679565531
30
0.000000000000000
11
-22.5037861915367
21
1.34457791522938
31
0.000000000000000
  0
LINE
  5
F10216
330
F10217
100
AcDbEntity
8
Geo
100
AcDbLine
10
-22.5037861915367
20
1.34457791522938
30
0.000000000000000
11
-22.4037861915367
21
1.26674039061415
31
0.000000000000000
  0
LINE
  5
F10218
330
F10219
100
AcDbEntity
8
Geo
100
AcDbLine
10
-22.4037861915367
20
1.26674039061415
30
0.000000000000000
11
-22.3037861915367
21
1.18915023576320
31
0.000000000000000
  0
LINE
  5
F1021A
330
F1021B
100
AcDbEntity
8
Geo
100
AcDbLine
10
-22.3037861915367
20
1.18915023576320
30
0.000000000000000
11
-22.2037861915367
21
1.11188322305571
31
0.000000000000000
  0
LINE
  5
F1021C
330
F1021D
100
AcDbEntity
8
Geo
100
AcDbLine
10
-22.2037861915367
20
1.11188322305571
30
0.000000000000000
11
-22.1037861915367
21
1.03501480929927
31
0.000000000000000
  0
LINE
  5
F1021E
330
F1021F
100
AcDbEntity
8
Geo
100
AcDbLine
10
-22.1037861915367
20
1.03501480929927
30
0.000000000000000
11
-22.0037861915367
21
0.958620062040872
31
0.000000000000000
  0
LINE
  5
F10220
330
F10221
100
AcDbEntity
8
Geo
100
AcDbLine
10
-22.0037861915367
20
0.958620062040872
30
0.000000000000000
11
-21.9037861915367
21
0.882773586258004
31
0.000000000000000
  0
LINE
  5
F10222
330
F10223
100
AcDbEntity
8
Geo
100
AcDbLine
10
-21.9037861915367
20
0.882773586258004
30
0.000000000000000
11
-21.8037861915367
21
0.807549451501554
31
0.000000000000000
  0
LINE
  5
F10224
330
F10225
100
AcDbEntity
8
Geo
100
AcDbLine
10
-21.8037861915367
20
0.807549451501554
30
0.000000000000000
11
-21.7037861915367
21
0.733021119561531
31
0.000000000000000
  0
LINE
  5
F10226
330
F10227
100
AcDbEntity
8
Geo
100
AcDbLine
10
-21.7037861915367
20
0.733021119561531
30
0.000000000000000
11
-21.6037861915367
21
0.659261372726340
31
0.000000000000000
  0
LINE
  5
F10228
330
F10229
100
AcDbEntity
8
Geo
100
AcDbLine
10
-21.6037861915367
20
0.659261372726340
30
0.000000000000000
11
-21.5037861915367
21
0.586342242705631
31
0.000000000000000
  0
LINE
  5
F1022A
330
F1022B
100
AcDbEntity
8
Geo
100
AcDbLine
10
-21.5037861915367
20
0.586342242705631
30
0.000000000000000
11
-21.4037861915367
21
0.514334940286133
31
0.000000000000000
  0
LINE
  5
F1022C
330
F1022D
100
AcDbEntity
8
Geo
100
AcDbLine
10
-21.4037861915367
20
0.514334940286133
30
0.000000000000000
11
-21.3037861915367
21
0.443309785789203
31
0.000000000000000
  0
LINE
  5
F1022E
330
F1022F
100
AcDbEntity
8
Geo
100
AcDbLine
10
-21.3037861915367
20
0.443309785789203
30
0.000000000000000
11
-21.2037861915367
21
0.373336140397943
31
0.000000000000000
  0
LINE
  5
F10230
330
F10231
100
AcDbEntity
8
Geo
100
AcDbLine
10
-21.2037861915367
20
0.373336140397943
30
0.000000000000000
11
-21.1037861915367
21
0.304482338421043
31
0.000000000000000
  0
LINE
  5
F10232
330
F10233
100
AcDbEntity
8
Geo
100
AcDbLine
10
-21.1037861915367
20
0.304482338421043
30
0.000000000000000
11
-21.0037861915367
21
0.236815620559343
31
0.000000000000000
  0
LINE
  5
F10234
330
F10235
100
AcDbEntity
8
Geo
100
AcDbLine
10
-21.0037861915367
20
0.236815620559343
30
0.000000000000000
11
-20.9037861915367
21
0.170402068240483
31
0.000000000000000
  0
LINE
  5
F10236
330
F10237
100
AcDbEntity
8
Geo
100
AcDbLine
10
-20.9037861915367
20
0.170402068240483
30
0.000000000000000
11
-20.8037861915367
21
0.105306539085653
31
0.000000000000000
  0
LINE
  5
F10238
330
F10239
100
AcDbEntity
8
Geo
100
AcDbLine
10
-20.8037861915367
20
0.105306539085653
30
0.000000000000000
11
-20.7037861915367
21
0.0415926035713632
31
0.000000000000000
  0
LINE
  5
F1023A
330
F1023B
100
AcDbEntity
8
Geo
100
AcDbLine
10
-20.7037861915367
20
0.0415926035713632
30
0.000000000000000
11
-20.6037861915367
21
-0.0206775170516269
31
0.000000000000000
  0
LINE
  5
F1023C
330
F1023D
100
AcDbEntity
8
Geo
100
AcDbLine
10
-20.6037861915367
20
-0.0206775170516269
30
0.000000000000000
11
-20.5037861915367
21
-0.0814430115218669
31
0.000000000000000
  0
LINE
  5
F1023E
330
F1023F
100
AcDbEntity
8
Geo
100
AcDbLine
10
-20.5037861915367
20
-0.0814430115218669
30
0.000000000000000
11
-20.4037861915367
21
-0.140644537953827
31
0.000000000000000
  0
LINE
  5
F10240
330
F10241
100
AcDbEntity
8
Geo
100
AcDbLine
10
-20.4037861915367
20
-0.140644537953827
30
0.000000000000000
11
-20.3037861915367
21
-0.198224281789487
31
0.000000000000000
  0
LINE
  5
F10242
330
F10243
100
AcDbEntity
8
Geo
100
AcDbLine
10
-20.3037861915367
20
-0.198224281789487
30
0.000000000000000
11
-20.2037861915367
21
-0.254126012258447
31
0.000000000000000
  0
LINE
  5
F10244
330
F10245
100
AcDbEntity
8
Geo
100
AcDbLine
10
-20.2037861915367
20
-0.254126012258447
30
0.000000000000000
11
-20.1037861915367
21
-0.308295137291297
31
0.000000000000000
  0
LINE
  5
F10246
330
F10247
100
AcDbEntity
8
Geo
100
AcDbLine
10
-20.1037861915367
20
-0.308295137291297
30
0.000000000000000
11
-20.0037861915367
21
-0.360678756832747
31
0.000000000000000
  0
LINE
  5
F10248
330
F10249
100
AcDbEntity
8
Geo
100
AcDbLine
10
-20.0037861915367
20
-0.360678756832747
30
0.000000000000000
11
-19.9037861915367
21
-0.411225714502327
31
0.000000000000000
  0
LINE
  5
F1024A
330
F1024B
100
AcDbEntity
8
Geo
100
AcDbLine
10
-19.9037861915367
20
-0.411225714502327
30
0.000000000000000
11
-19.8037861915367
21
-0.459886647552257
31
0.000000000000000
  0
LINE
  5
F1024C
330
F1024D
100
AcDbEntity
8
Geo
100
AcDbLine
10
-19.8037861915367
20
-0.459886647552257
30
0.000000000000000
11
-19.7037861915367
21
-0.506614035073767
31
0.000000000000000
  0
LINE
  5
F1024E
330
F1024F
100
AcDbEntity
8
Geo
100
AcDbLine
10
-19.7037861915367
20
-0.506614035073767
30
0.000000000000000
11
-19.6037861915367
21
-0.551362244404667
31
0.000000000000000
  0
LINE
  5
F10250
330
F10251
100
AcDbEntity
8
Geo
100
AcDbLine
10
-19.6037861915367
20
-0.551362244404667
30
0.000000000000000
11
-19.5037861915367
21
-0.594087575692947
31
0.000000000000000
  0
LINE
  5
F10252
330
F10253
100
AcDbEntity
8
Geo
100
AcDbLine
10
-19.5037861915367
20
-0.594087575692947
30
0.000000000000000
11
-19.4037861915367
21
-0.634748304572787
31
0.000000000000000
  0
LINE
  5
F10254
330
F10255
100
AcDbEntity
8
Geo
100
AcDbLine
10
-19.4037861915367
20
-0.634748304572787
30
0.000000000000000
11
-19.3037861915367
21
-0.673304722911497
31
0.000000000000000
  0
LINE
  5
F10256
330
F10257
100
AcDbEntity
8
Geo
100
AcDbLine
10
-19.3037861915367
20
-0.673304722911497
30
0.000000000000000
11
-19.2037861915367
21
-0.709719177587257
31
0.000000000000000
  0
LINE
  5
F10258
330
F10259
100
AcDbEntity
8
Geo
100
AcDbLine
10
-19.2037861915367
20
-0.709719177587257
30
0.000000000000000
11
-19.1037861915367
21
-0.743956107260217
31
0.000000000000000
  0
LINE
  5
F1025A
330
F1025B
100
AcDbEntity
8
Geo
100
AcDbLine
10
-19.1037861915367
20
-0.743956107260217
30
0.000000000000000
11
-19.0037861915367
21
-0.775982077100617
31
0.000000000000000
  0
LINE
  5
F1025C
330
F1025D
100
AcDbEntity
8
Geo
100
AcDbLine
10
-19.0037861915367
20
-0.775982077100617
30
0.000000000000000
11
-18.9037861915367
21
-0.805765811440377
31
0.000000000000000
  0
LINE
  5
F1025E
330
F1025F
100
AcDbEntity
8
Geo
100
AcDbLine
10
-18.9037861915367
20
-0.805765811440377
30
0.000000000000000
11
-18.8037861915367
21
-0.833278224315987
31
0.000000000000000
  0
LINE
  5
F10260
330
F10261
100
AcDbEntity
8
Geo
100
AcDbLine
10
-18.8037861915367
20
-0.833278224315987
30
0.000000000000000
11
-18.7037861915367
21
-0.858492447873077
31
0.000000000000000
  0
LINE
  5
F10262
330
F10263
100
AcDbEntity
8
Geo
100
AcDbLine
10
-18.7037861915367
20
-0.858492447873077
30
0.000000000000000
11
-18.6037861915367
21
-0.881383858604837
31
0.000000000000000
  0
LINE
  5
F10264
330
F10265
100
AcDbEntity
8
Geo
100
AcDbLine
10
-18.6037861915367
20
-0.881383858604837
30
0.000000000000000
11
-18.5037861915367
21
-0.901930101398567
31
0.000000000000000
  0
LINE
  5
F10266
330
F10267
100
AcDbEntity
8
Geo
100
AcDbLine
10
-18.5037861915367
20
-0.901930101398567
30
0.000000000000000
11
-18.4037861915367
21
-0.920111111367147
31
0.000000000000000
  0
LINE
  5
F10268
330
F10269
100
AcDbEntity
8
Geo
100
AcDbLine
10
-18.4037861915367
20
-0.920111111367147
30
0.000000000000000
11
-18.3037861915367
21
-0.935909133443797
31
0.000000000000000
  0
LINE
  5
F1026A
330
F1026B
100
AcDbEntity
8
Geo
100
AcDbLine
10
-18.3037861915367
20
-0.935909133443797
30
0.000000000000000
11
-18.2037861915367
21
-0.949308739721167
31
0.000000000000000
  0
LINE
  5
F1026C
330
F1026D
100
AcDbEntity
8
Geo
100
AcDbLine
10
-18.2037861915367
20
-0.949308739721167
30
0.000000000000000
11
-18.1037861915367
21
-0.960296844517837
31
0.000000000000000
  0
LINE
  5
F1026E
330
F1026F
100
AcDbEntity
8
Geo
100
AcDbLine
10
-18.1037861915367
20
-0.960296844517837
30
0.000000000000000
11
-18.0037861915367
21
-0.968862717157427
31
0.000000000000000
  0
LINE
  5
F10270
330
F10271
100
AcDbEntity
8
Geo
100
AcDbLine
10
-18.0037861915367
20
-0.968862717157427
30
0.000000000000000
11
-17.9037861915367
21
-0.974997992447837
31
0.000000000000000
  0
LINE
  5
F10272
330
F10273
100
AcDbEntity
8
Geo
100
AcDbLine
10
-17.9037861915367
20
-0.974997992447837
30
0.000000000000000
11
-17.8037861915367
21
-0.978696678850487
31
0.000000000000000
  0
LINE
  5
F10274
330
F10275
100
AcDbEntity
8
Geo
100
AcDbLine
10
-17.8037861915367
20
-0.978696678850487
30
0.000000000000000
11
-17.7037861915367
21
-0.979955164331507
31
0.000000000000000
  0
LINE
  5
F10276
330
F10277
100
AcDbEntity
8
Geo
100
AcDbLine
10
-5.60378619153669
20
3.92003609672432
30
0.000000000000000
11
-5.50378619153669
21
3.92004150537434
31
0.000000000000000
  0
LINE
  5
F10278
330
F10279
100
AcDbEntity
8
Geo
100
AcDbLine
10
-5.50378619153669
20
3.92004150537434
30
0.000000000000000
11
-5.40378619153669
21
3.92001096254266
31
0.000000000000000
  0
LINE
  5
F1027A
330
F1027B
100
AcDbEntity
8
Geo
100
AcDbLine
10
-5.40378619153669
20
3.92001096254266
30
0.000000000000000
11
-5.30378619153669
21
3.91995899259111
31
0.000000000000000
  0
LINE
  5
F1027C
330
F1027D
100
AcDbEntity
8
Geo
100
AcDbLine
10
-5.30378619153669
20
3.91995899259111
30
0.000000000000000
11
-5.20378619153669
21
3.91989797836289
31
0.000000000000000
  0
LINE
  5
F1027E
330
F1027F
100
AcDbEntity
8
Geo
100
AcDbLine
10
-24.2037861915367
20
-0.212367070477217
30
0.000000000000000
11
-24.2037861915367
21
-0.212367070477217
31
0.000000000000000
  0
LINE
  5
F10280
330
F10281
100
AcDbEntity
8
Geo
100
AcDbLine
10
-24.2037861915367
20
-0.212367070477217
30
0.000000000000000
11
-24.2037861915367
21
-0.247722409536547
31
0.000000000000000
  0
LINE
  5
F10282
330
F10283
100
AcDbEntity
8
Geo
100
AcDbLine
10
-24.2037861915367
20
-0.247722409536547
30
0.000000000000000
11
-24.1037861915367
21
-0.302095477944277
31
0.000000000000000
  0
LINE
  5
F10284
330
F10285
100
AcDbEntity
8
Geo
100
AcDbLine
10
-24.1037861915367
20
-0.302095477944277
30
0.000000000000000
11
-24.0037861915367
21
-0.354689095274867
31
0.000000000000000
  0
LINE
  5
F10286
330
F10287
100
AcDbEntity
8
Geo
100
AcDbLine
10
-24.0037861915367
20
-0.354689095274867
30
0.000000000000000
11
-23.9037861915367
21
-0.405451900069837
31
0.000000000000000
  0
LINE
  5
F10288
330
F10289
100
AcDbEntity
8
Geo
100
AcDbLine
10
-23.9037861915367
20
-0.405451900069837
30
0.000000000000000
11
-23.8037861915367
21
-0.454334318791157
31
0.000000000000000
  0
LINE
  5
F1028A
330
F1028B
100
AcDbEntity
8
Geo
100
AcDbLine
10
-23.8037861915367
20
-0.454334318791157
30
0.000000000000000
11
-23.7037861915367
21
-0.501288614233327
31
0.000000000000000
  0
LINE
  5
F1028C
330
F1028D
100
AcDbEntity
8
Geo
100
AcDbLine
10
-23.7037861915367
20
-0.501288614233327
30
0.000000000000000
11
-23.6037861915367
21
-0.546268932142207
31
0.000000000000000
  0
LINE
  5
F1028E
330
F1028F
100
AcDbEntity
8
Geo
100
AcDbLine
10
-23.6037861915367
20
-0.546268932142207
30
0.000000000000000
11
-23.5037861915367
21
-0.589231345995037
31
0.000000000000000
  0
LINE
  5
F10290
330
F10291
100
AcDbEntity
8
Geo
100
AcDbLine
10
-23.5037861915367
20
-0.589231345995037
30
0.000000000000000
11
-23.4037861915367
21
-0.630133899897787
31
0.000000000000000
  0
LINE
  5
F10292
330
F10293
100
AcDbEntity
8
Geo
100
AcDbLine
10
-23.4037861915367
20
-0.630133899897787
30
0.000000000000000
11
-23.3037861915367
21
-0.668936649558177
31
0.000000000000000
  0
LINE
  5
F10294
330
F10295
100
AcDbEntity
8
Geo
100
AcDbLine
10
-23.3037861915367
20
-0.668936649558177
30
0.000000000000000
11
-23.2037861915367
21
-0.705601701294127
31
0.000000000000000
  0
LINE
  5
F10296
330
F10297
100
AcDbEntity
8
Geo
100
AcDbLine
10
-23.2037861915367
20
-0.705601701294127
30
0.000000000000000
11
-23.1037861915367
21
-0.740093249039677
31
0.000000000000000
  0
LINE
  5
F10298
330
F10299
100
AcDbEntity
8
Geo
100
AcDbLine
10
-23.1037861915367
20
-0.740093249039677
30
0.000000000000000
11
-23.0037861915367
21
-0.772377609312167
31
0.000000000000000
  0
LINE
  5
F1029A
330
F1029B
100
AcDbEntity
8
Geo
100
AcDbLine
10
-23.0037861915367
20
-0.772377609312167
30
0.000000000000000
11
-22.9037861915367
21
-0.802423254106637
31
0.000000000000000
  0
LINE
  5
F1029C
330
F1029D
100
AcDbEntity
8
Geo
100
AcDbLine
10
-22.9037861915367
20
-0.802423254106637
30
0.000000000000000
11
-22.8037861915367
21
-0.830200841685137
31
0.000000000000000
  0
LINE
  5
F1029E
330
F1029F
100
AcDbEntity
8
Geo
100
AcDbLine
10
-22.8037861915367
20
-0.830200841685137
30
0.000000000000000
11
-22.7037861915367
21
-0.855683245231087
31
0.000000000000000
  0
LINE
  5
F102A0
330
F102A1
100
AcDbEntity
8
Geo
100
AcDbLine
10
-22.7037861915367
20
-0.855683245231087
30
0.000000000000000
11
-22.6037861915367
21
-0.878845579340567
31
0.000000000000000
  0
LINE
  5
F102A2
330
F102A3
100
AcDbEntity
8
Geo
100
AcDbLine
10
-22.6037861915367
20
-0.878845579340567
30
0.000000000000000
11
-22.5037861915367
21
-0.899665224324707
31
0.000000000000000
  0
LINE
  5
F102A4
330
F102A5
100
AcDbEntity
8
Geo
100
AcDbLine
10
-22.5037861915367
20
-0.899665224324707
30
0.000000000000000
11
-22.4037861915367
21
-0.918121848299417
31
0.000000000000000
  0
LINE
  5
F102A6
330
F102A7
100
AcDbEntity
8
Geo
100
AcDbLine
10
-22.4037861915367
20
-0.918121848299417
30
0.000000000000000
11
-22.3037861915367
21
-0.934197427040967
31
0.000000000000000
  0
LINE
  5
F102A8
330
F102A9
100
AcDbEntity
8
Geo
100
AcDbLine
10
-22.3037861915367
20
-0.934197427040967
30
0.000000000000000
11
-22.2037861915367
21
-0.947876261587927
31
0.000000000000000
  0
LINE
  5
F102AA
330
F102AB
100
AcDbEntity
8
Geo
100
AcDbLine
10
-22.2037861915367
20
-0.947876261587927
30
0.000000000000000
11
-22.1037861915367
21
-0.959144993572347
31
0.000000000000000
  0
LINE
  5
F102AC
330
F102AD
100
AcDbEntity
8
Geo
100
AcDbLine
10
-22.1037861915367
20
-0.959144993572347
30
0.000000000000000
11
-22.0037861915367
21
-0.967992618265167
31
0.000000000000000
  0
LINE
  5
F102AE
330
F102AF
100
AcDbEntity
8
Geo
100
AcDbLine
10
-22.0037861915367
20
-0.967992618265167
30
0.000000000000000
11
-21.9037861915367
21
-0.974410495323087
31
0.000000000000000
  0
LINE
  5
F102B0
330
F102B1
100
AcDbEntity
8
Geo
100
AcDbLine
10
-21.9037861915367
20
-0.974410495323087
30
0.000000000000000
11
-21.8037861915367
21
-0.978392357226547
31
0.000000000000000
  0
LINE
  5
F102B2
330
F102B3
100
AcDbEntity
8
Geo
100
AcDbLine
10
-21.8037861915367
20
-0.978392357226547
30
0.000000000000000
11
-21.7037861915367
21
-0.979934315400367
31
0.000000000000000
  0
LINE
  5
F102B4
330
F102B5
100
AcDbEntity
8
Geo
100
AcDbLine
10
-11.7037861915367
20
4.01951603206257
30
0.000000000000000
11
-11.6037861915367
21
4.01990173331981
31
0.000000000000000
  0
LINE
  5
F102B6
330
F102B7
100
AcDbEntity
8
Geo
100
AcDbLine
10
-11.6037861915367
20
4.01990173331981
30
0.000000000000000
11
-11.5037861915367
21
4.01784614383259
31
0.000000000000000
  0
LINE
  5
F102B8
330
F102B9
100
AcDbEntity
8
Geo
100
AcDbLine
10
-11.5037861915367
20
4.01784614383259
30
0.000000000000000
11
-11.4037861915367
21
4.01335127103222
31
0.000000000000000
  0
LINE
  5
F102BA
330
F102BB
100
AcDbEntity
8
Geo
100
AcDbLine
10
-11.4037861915367
20
4.01335127103222
30
0.000000000000000
11
-11.3037861915367
21
4.00642150448601
31
0.000000000000000
  0
LINE
  5
F102BC
330
F102BD
100
AcDbEntity
8
Geo
100
AcDbLine
10
-11.3037861915367
20
4.00642150448601
30
0.000000000000000
11
-11.2037861915367
21
3.99706361161050
31
0.000000000000000
  0
LINE
  5
F102BE
330
F102BF
100
AcDbEntity
8
Geo
100
AcDbLine
10
-11.2037861915367
20
3.99706361161050
30
0.000000000000000
11
-11.2037861915367
21
3.99706361161049
31
0.000000000000000
  0
LINE
  5
F102C0
330
F102C1
100
AcDbEntity
8
Geo
100
AcDbLine
10
-11.2037861915367
20
3.99706361161049
30
0.000000000000000
11
-11.2037861915367
21
3.89798284888327
31
0.000000000000000
  0
LINE
  5
F102C2
330
F102C3
100
AcDbEntity
8
Geo
100
AcDbLine
10
-11.2037861915367
20
3.89798284888327
30
0.000000000000000
11
-11.2037861915367
21
3.99706361161049
31
0.000000000000000
  0
LINE
  5
F102C4
330
F102C5
100
AcDbEntity
8
Geo
100
AcDbLine
10
-11.2037861915367
20
3.99706361161049
30
0.000000000000000
11
-11.2037861915367
21
3.99706361161049
31
0.000000000000000
  0
LINE
  5
F102C6
330
F102C7
100
AcDbEntity
8
Geo
100
AcDbLine
10
-11.2037861915367
20
3.99706361161049
30
0.000000000000000
11
-11.1037861915367
21
3.89921991672536
31
0.000000000000000
  0
LINE
  5
F102C8
330
F102C9
100
AcDbEntity
8
Geo
100
AcDbLine
10
-11.1037861915367
20
3.89921991672536
30
0.000000000000000
11
-11.0037861915367
21
3.90040288095775
31
0.000000000000000
  0
LINE
  5
F102CA
330
F102CB
100
AcDbEntity
8
Geo
100
AcDbLine
10
-11.0037861915367
20
3.90040288095775
30
0.000000000000000
11
-10.9037861915367
21
3.90153337027177
31
0.000000000000000
  0
LINE
  5
F102CC
330
F102CD
100
AcDbEntity
8
Geo
100
AcDbLine
10
-10.9037861915367
20
3.90153337027177
30
0.000000000000000
11
-10.8037861915367
21
3.90261298920836
31
0.000000000000000
  0
LINE
  5
F102CE
330
F102CF
100
AcDbEntity
8
Geo
100
AcDbLine
10
-10.8037861915367
20
3.90261298920836
30
0.000000000000000
11
-10.7037861915367
21
3.90364331802023
31
0.000000000000000
  0
LINE
  5
F102D0
330
F102D1
100
AcDbEntity
8
Geo
100
AcDbLine
10
-10.7037861915367
20
3.90364331802023
30
0.000000000000000
11
-10.6037861915367
21
3.90462591254052
31
0.000000000000000
  0
LINE
  5
F102D2
330
F102D3
100
AcDbEntity
8
Geo
100
AcDbLine
10
-10.6037861915367
20
3.90462591254052
30
0.000000000000000
11
-10.5037861915367
21
3.90556230405744
31
0.000000000000000
  0
LINE
  5
F102D4
330
F102D5
100
AcDbEntity
8
Geo
100
AcDbLine
10
-10.5037861915367
20
3.90556230405744
30
0.000000000000000
11
-10.4037861915367
21
3.90645399919509
31
0.000000000000000
  0
LINE
  5
F102D6
330
F102D7
100
AcDbEntity
8
Geo
100
AcDbLine
10
-10.4037861915367
20
3.90645399919509
30
0.000000000000000
11
-10.3037861915367
21
3.90730247979985
31
0.000000000000000
  0
LINE
  5
F102D8
330
F102D9
100
AcDbEntity
8
Geo
100
AcDbLine
10
-10.3037861915367
20
3.90730247979985
30
0.000000000000000
11
-10.2037861915367
21
3.90810920283252
31
0.000000000000000
  0
LINE
  5
F102DA
330
F102DB
100
AcDbEntity
8
Geo
100
AcDbLine
10
-10.2037861915367
20
3.90810920283252
30
0.000000000000000
11
-10.1037861915367
21
3.90887560026581
31
0.000000000000000
  0
LINE
  5
F102DC
330
F102DD
100
AcDbEntity
8
Geo
100
AcDbLine
10
-10.1037861915367
20
3.90887560026581
30
0.000000000000000
11
-10.0037861915367
21
3.90960307898701
31
0.000000000000000
  0
LINE
  5
F102DE
330
F102DF
100
AcDbEntity
8
Geo
100
AcDbLine
10
-10.0037861915367
20
3.90960307898701
30
0.000000000000000
11
-9.90378619153669
21
3.91029302070572
31
0.000000000000000
  0
LINE
  5
F102E0
330
F102E1
100
AcDbEntity
8
Geo
100
AcDbLine
10
-9.90378619153669
20
3.91029302070572
30
0.000000000000000
11
-9.80378619153669
21
3.91094678186654
31
0.000000000000000
  0
LINE
  5
F102E2
330
F102E3
100
AcDbEntity
8
Geo
100
AcDbLine
10
-9.80378619153669
20
3.91094678186654
30
0.000000000000000
11
-9.70378619153669
21
3.91156569356624
31
0.000000000000000
  0
LINE
  5
F102E4
330
F102E5
100
AcDbEntity
8
Geo
100
AcDbLine
10
-9.70378619153669
20
3.91156569356624
30
0.000000000000000
11
-9.60378619153669
21
3.91215106147568
31
0.000000000000000
  0
LINE
  5
F102E6
330
F102E7
100
AcDbEntity
8
Geo
100
AcDbLine
10
-9.60378619153669
20
3.91215106147568
30
0.000000000000000
11
-9.50378619153669
21
3.91270416576590
31
0.000000000000000
  0
LINE
  5
F102E8
330
F102E9
100
AcDbEntity
8
Geo
100
AcDbLine
10
-9.50378619153669
20
3.91270416576590
30
0.000000000000000
11
-9.40378619153669
21
3.91322626103846
31
0.000000000000000
  0
LINE
  5
F102EA
330
F102EB
100
AcDbEntity
8
Geo
100
AcDbLine
10
-9.40378619153669
20
3.91322626103846
30
0.000000000000000
11
-9.30378619153669
21
3.91371857625982
31
0.000000000000000
  0
LINE
  5
F102EC
330
F102ED
100
AcDbEntity
8
Geo
100
AcDbLine
10
-9.30378619153669
20
3.91371857625982
30
0.000000000000000
11
-9.20378619153669
21
3.91418231469954
31
0.000000000000000
  0
LINE
  5
F102EE
330
F102EF
100
AcDbEntity
8
Geo
100
AcDbLine
10
-9.20378619153669
20
3.91418231469954
30
0.000000000000000
11
-9.10378619153669
21
3.91461865387219
31
0.000000000000000
  0
LINE
  5
F102F0
330
F102F1
100
AcDbEntity
8
Geo
100
AcDbLine
10
-9.10378619153669
20
3.91461865387219
30
0.000000000000000
11
-9.00378619153669
21
3.91502874548285
31
0.000000000000000
  0
LINE
  5
F102F2
330
F102F3
100
AcDbEntity
8
Geo
100
AcDbLine
10
-9.00378619153669
20
3.91502874548285
30
0.000000000000000
11
-8.90378619153669
21
3.91541371537592
31
0.000000000000000
  0
LINE
  5
F102F4
330
F102F5
100
AcDbEntity
8
Geo
100
AcDbLine
10
-8.90378619153669
20
3.91541371537592
30
0.000000000000000
11
-8.80378619153669
21
3.91577466348728
31
0.000000000000000
  0
LINE
  5
F102F6
330
F102F7
100
AcDbEntity
8
Geo
100
AcDbLine
10
-8.80378619153669
20
3.91577466348728
30
0.000000000000000
11
-8.70378619153669
21
3.91611266379954
31
0.000000000000000
  0
LINE
  5
F102F8
330
F102F9
100
AcDbEntity
8
Geo
100
AcDbLine
10
-8.70378619153669
20
3.91611266379954
30
0.000000000000000
11
-8.60378619153669
21
3.91642876430017
31
0.000000000000000
  0
LINE
  5
F102FA
330
F102FB
100
AcDbEntity
8
Geo
100
AcDbLine
10
-8.60378619153669
20
3.91642876430017
30
0.000000000000000
11
-8.50378619153669
21
3.91672398694261
31
0.000000000000000
  0
LINE
  5
F102FC
330
F102FD
100
AcDbEntity
8
Geo
100
AcDbLine
10
-8.50378619153669
20
3.91672398694261
30
0.000000000000000
11
-8.40378619153669
21
3.91699932760994
31
0.000000000000000
  0
LINE
  5
F102FE
330
F102FF
100
AcDbEntity
8
Geo
100
AcDbLine
10
-8.40378619153669
20
3.91699932760994
30
0.000000000000000
11
-8.30378619153669
21
3.91725575608120
31
0.000000000000000
  0
LINE
  5
F10300
330
F10301
100
AcDbEntity
8
Geo
100
AcDbLine
10
-8.30378619153669
20
3.91725575608120
30
0.000000000000000
11
-8.20378619153669
21
3.91749421600012
31
0.000000000000000
  0
LINE
  5
F10302
330
F10303
100
AcDbEntity
8
Geo
100
AcDbLine
10
-8.20378619153669
20
3.91749421600012
30
0.000000000000000
11
-8.10378619153669
21
3.91771562484618
31
0.000000000000000
  0
LINE
  5
F10304
330
F10305
100
AcDbEntity
8
Geo
100
AcDbLine
10
-8.10378619153669
20
3.91771562484618
30
0.000000000000000
11
-8.00378619153669
21
3.91792087390786
31
0.000000000000000
  0
LINE
  5
F10306
330
F10307
100
AcDbEntity
8
Geo
100
AcDbLine
10
-8.00378619153669
20
3.91792087390786
30
0.000000000000000
11
-7.90378619153669
21
3.91811082825794
31
0.000000000000000
  0
LINE
  5
F10308
330
F10309
100
AcDbEntity
8
Geo
100
AcDbLine
10
-7.90378619153669
20
3.91811082825794
30
0.000000000000000
11
-7.80378619153669
21
3.91828632673081
31
0.000000000000000
  0
LINE
  5
F1030A
330
F1030B
100
AcDbEntity
8
Geo
100
AcDbLine
10
-7.80378619153669
20
3.91828632673081
30
0.000000000000000
11
-7.70378619153669
21
3.91844818190160
31
0.000000000000000
  0
LINE
  5
F1030C
330
F1030D
100
AcDbEntity
8
Geo
100
AcDbLine
10
-7.70378619153669
20
3.91844818190160
30
0.000000000000000
11
-7.60378619153669
21
3.91859718006709
31
0.000000000000000
  0
LINE
  5
F1030E
330
F1030F
100
AcDbEntity
8
Geo
100
AcDbLine
10
-7.60378619153669
20
3.91859718006709
30
0.000000000000000
11
-7.50378619153669
21
3.91873408122819
31
0.000000000000000
  0
LINE
  5
F10310
330
F10311
100
AcDbEntity
8
Geo
100
AcDbLine
10
-7.50378619153669
20
3.91873408122819
30
0.000000000000000
11
-7.40378619153669
21
3.91885961907403
31
0.000000000000000
  0
LINE
  5
F10312
330
F10313
100
AcDbEntity
8
Geo
100
AcDbLine
10
-7.40378619153669
20
3.91885961907403
30
0.000000000000000
11
-7.30378619153669
21
3.91897450096748
31
0.000000000000000
  0
LINE
  5
F10314
330
F10315
100
AcDbEntity
8
Geo
100
AcDbLine
10
-7.30378619153669
20
3.91897450096748
30
0.000000000000000
11
-7.20378619153669
21
3.91907940793199
31
0.000000000000000
  0
LINE
  5
F10316
330
F10317
100
AcDbEntity
8
Geo
100
AcDbLine
10
-7.20378619153669
20
3.91907940793199
30
0.000000000000000
11
-7.10378619153669
21
3.91917499463970
31
0.000000000000000
  0
LINE
  5
F10318
330
F10319
100
AcDbEntity
8
Geo
100
AcDbLine
10
-7.10378619153669
20
3.91917499463970
30
0.000000000000000
11
-7.00378619153669
21
3.91926188940075
31
0.000000000000000
  0
LINE
  5
F1031A
330
F1031B
100
AcDbEntity
8
Geo
100
AcDbLine
10
-7.00378619153669
20
3.91926188940075
30
0.000000000000000
11
-6.90378619153669
21
3.91934069415361
31
0.000000000000000
  0
LINE
  5
F1031C
330
F1031D
100
AcDbEntity
8
Geo
100
AcDbLine
10
-6.90378619153669
20
3.91934069415361
30
0.000000000000000
11
-6.80378619153669
21
3.91941198445647
31
0.000000000000000
  0
LINE
  5
F1031E
330
F1031F
100
AcDbEntity
8
Geo
100
AcDbLine
10
-6.80378619153669
20
3.91941198445647
30
0.000000000000000
11
-6.70378619153669
21
3.91947630947957
31
0.000000000000000
  0
LINE
  5
F10320
330
F10321
100
AcDbEntity
8
Geo
100
AcDbLine
10
-6.70378619153669
20
3.91947630947957
30
0.000000000000000
11
-6.60378619153669
21
3.91953419199832
31
0.000000000000000
  0
LINE
  5
F10322
330
F10323
100
AcDbEntity
8
Geo
100
AcDbLine
10
-6.60378619153669
20
3.91953419199832
30
0.000000000000000
11
-6.50378619153669
21
3.91958612838724
31
0.000000000000000
  0
LINE
  5
F10324
330
F10325
100
AcDbEntity
8
Geo
100
AcDbLine
10
-6.50378619153669
20
3.91958612838724
30
0.000000000000000
11
-6.40378619153669
21
3.91963258861465
31
0.000000000000000
  0
LINE
  5
F10326
330
F10327
100
AcDbEntity
8
Geo
100
AcDbLine
10
-6.40378619153669
20
3.91963258861465
30
0.000000000000000
11
-6.30378619153669
21
3.91967401623795
31
0.000000000000000
  0
LINE
  5
F10328
330
F10329
100
AcDbEntity
8
Geo
100
AcDbLine
10
-6.30378619153669
20
3.91967401623795
30
0.000000000000000
11
-6.20378619153669
21
3.91971082839953
31
0.000000000000000
  0
LINE
  5
F1032A
330
F1032B
100
AcDbEntity
8
Geo
100
AcDbLine
10
-6.20378619153669
20
3.91971082839953
30
0.000000000000000
11
-6.10378619153669
21
3.91974341582321
31
0.000000000000000
  0
LINE
  5
F1032C
330
F1032D
100
AcDbEntity
8
Geo
100
AcDbLine
10
-6.10378619153669
20
3.91974341582321
30
0.000000000000000
11
-6.00378619153669
21
3.91977214281113
31
0.000000000000000
  0
LINE
  5
F1032E
330
F1032F
100
AcDbEntity
8
Geo
100
AcDbLine
10
-6.00378619153669
20
3.91977214281113
30
0.000000000000000
11
-5.90378619153669
21
3.91979734724116
31
0.000000000000000
  0
LINE
  5
F10330
330
F10331
100
AcDbEntity
8
Geo
100
AcDbLine
10
-5.90378619153669
20
3.91979734724116
30
0.000000000000000
11
-5.80378619153669
21
3.91981934056456
31
0.000000000000000
  0
LINE
  5
F10332
330
F10333
100
AcDbEntity
8
Geo
100
AcDbLine
10
-5.80378619153669
20
3.91981934056456
30
0.000000000000000
11
-5.70378619153669
21
3.91983840780412
31
0.000000000000000
  0
LINE
  5
F10334
330
F10335
100
AcDbEntity
8
Geo
100
AcDbLine
10
-5.70378619153669
20
3.91983840780412
30
0.000000000000000
11
-5.60378619153669
21
3.91985480755248
31
0.000000000000000
  0
LINE
  5
F10336
330
F10337
100
AcDbEntity
8
Geo
100
AcDbLine
10
-5.60378619153669
20
3.91985480755248
30
0.000000000000000
11
-5.50378619153669
21
3.91986877197082
31
0.000000000000000
  0
LINE
  5
F10338
330
F10339
100
AcDbEntity
8
Geo
100
AcDbLine
10
-5.50378619153669
20
3.91986877197082
30
0.000000000000000
11
-5.40378619153669
21
3.91988050678770
31
0.000000000000000
  0
LINE
  5
F1033A
330
F1033B
100
AcDbEntity
8
Geo
100
AcDbLine
10
-5.40378619153669
20
3.91988050678770
30
0.000000000000000
11
-5.30378619153669
21
3.91989019129815
31
0.000000000000000
  0
LINE
  5
F1033C
330
F1033D
100
AcDbEntity
8
Geo
100
AcDbLine
10
-5.30378619153669
20
3.91989019129815
30
0.000000000000000
11
-5.20378619153669
21
3.91989797836289
31
0.000000000000000
  0
LINE
  5
F1033E
330
F1033F
100
AcDbEntity
8
Geo
100
AcDbLine
10
-24.2037861915367
20
-0.674162802760277
30
0.000000000000000
11
-24.2037861915367
21
-0.674162802760277
31
0.000000000000000
  0
LINE
  5
F10340
330
F10341
100
AcDbEntity
8
Geo
100
AcDbLine
10
-24.2037861915367
20
-0.674162802760277
30
0.000000000000000
11
-24.2037861915367
21
-0.718942544519257
31
0.000000000000000
  0
LINE
  5
F10342
330
F10343
100
AcDbEntity
8
Geo
100
AcDbLine
10
-24.2037861915367
20
-0.718942544519257
30
0.000000000000000
11
-24.1037861915367
21
-0.752600725152017
31
0.000000000000000
  0
LINE
  5
F10344
330
F10345
100
AcDbEntity
8
Geo
100
AcDbLine
10
-24.1037861915367
20
-0.752600725152017
30
0.000000000000000
11
-24.0037861915367
21
-0.784039503859717
31
0.000000000000000
  0
LINE
  5
F10346
330
F10347
100
AcDbEntity
8
Geo
100
AcDbLine
10
-24.0037861915367
20
-0.784039503859717
30
0.000000000000000
11
-23.9037861915367
21
-0.813228178408727
31
0.000000000000000
  0
LINE
  5
F10348
330
F10349
100
AcDbEntity
8
Geo
100
AcDbLine
10
-23.9037861915367
20
-0.813228178408727
30
0.000000000000000
11
-23.8037861915367
21
-0.840138243954337
31
0.000000000000000
  0
LINE
  5
F1034A
330
F1034B
100
AcDbEntity
8
Geo
100
AcDbLine
10
-23.8037861915367
20
-0.840138243954337
30
0.000000000000000
11
-23.7037861915367
21
-0.864743420877767
31
0.000000000000000
  0
LINE
  5
F1034C
330
F1034D
100
AcDbEntity
8
Geo
100
AcDbLine
10
-23.7037861915367
20
-0.864743420877767
30
0.000000000000000
11
-23.6037861915367
21
-0.887019680450117
31
0.000000000000000
  0
LINE
  5
F1034E
330
F1034F
100
AcDbEntity
8
Geo
100
AcDbLine
10
-23.6037861915367
20
-0.887019680450117
30
0.000000000000000
11
-23.5037861915367
21
-0.906945268298167
31
0.000000000000000
  0
LINE
  5
F10350
330
F10351
100
AcDbEntity
8
Geo
100
AcDbLine
10
-23.5037861915367
20
-0.906945268298167
30
0.000000000000000
11
-23.4037861915367
21
-0.924500725649077
31
0.000000000000000
  0
LINE
  5
F10352
330
F10353
100
AcDbEntity
8
Geo
100
AcDbLine
10
-23.4037861915367
20
-0.924500725649077
30
0.000000000000000
11
-23.3037861915367
21
-0.939668908333277
31
0.000000000000000
  0
LINE
  5
F10354
330
F10355
100
AcDbEntity
8
Geo
100
AcDbLine
10
-23.3037861915367
20
-0.939668908333277
30
0.000000000000000
11
-23.2037861915367
21
-0.952435003527017
31
0.000000000000000
  0
LINE
  5
F10356
330
F10357
100
AcDbEntity
8
Geo
100
AcDbLine
10
-23.2037861915367
20
-0.952435003527017
30
0.000000000000000
11
-23.1037861915367
21
-0.962786544218097
31
0.000000000000000
  0
LINE
  5
F10358
330
F10359
100
AcDbEntity
8
Geo
100
AcDbLine
10
-23.1037861915367
20
-0.962786544218097
30
0.000000000000000
11
-23.0037861915367
21
-0.970713421380867
31
0.000000000000000
  0
LINE
  5
F1035A
330
F1035B
100
AcDbEntity
8
Geo
100
AcDbLine
10
-23.0037861915367
20
-0.970713421380867
30
0.000000000000000
11
-22.9037861915367
21
-0.976207893848387
31
0.000000000000000
  0
LINE
  5
F1035C
330
F1035D
100
AcDbEntity
8
Geo
100
AcDbLine
10
-22.9037861915367
20
-0.976207893848387
30
0.000000000000000
11
-22.8037861915367
21
-0.979264595872207
31
0.000000000000000
  0
LINE
  5
F1035E
330
F1035F
100
AcDbEntity
8
Geo
100
AcDbLine
10
-12.7037861915367
20
4.01994974453667
30
0.000000000000000
11
-12.6037861915367
21
4.01940934623918
31
0.000000000000000
  0
LINE
  5
F10360
330
F10361
100
AcDbEntity
8
Geo
100
AcDbLine
10
-12.6037861915367
20
4.01940934623918
30
0.000000000000000
11
-12.5037861915367
21
4.01642813804872
31
0.000000000000000
  0
LINE
  5
F10362
330
F10363
100
AcDbEntity
8
Geo
100
AcDbLine
10
-12.5037861915367
20
4.01642813804872
30
0.000000000000000
11
-12.4037861915367
21
4.01100903132997
31
0.000000000000000
  0
LINE
  5
F10364
330
F10365
100
AcDbEntity
8
Geo
100
AcDbLine
10
-12.4037861915367
20
4.01100903132997
30
0.000000000000000
11
-12.3037861915367
21
4.00315731823127
31
0.000000000000000
  0
LINE
  5
F10366
330
F10367
100
AcDbEntity
8
Geo
100
AcDbLine
10
-12.3037861915367
20
4.00315731823127
30
0.000000000000000
11
-12.2037861915367
21
3.99288066651646
31
0.000000000000000
  0
LINE
  5
F10368
330
F10369
100
AcDbEntity
8
Geo
100
AcDbLine
10
-12.2037861915367
20
3.99288066651646
30
0.000000000000000
11
-12.1037861915367
21
3.98018911207670
31
0.000000000000000
  0
LINE
  5
F1036A
330
F1036B
100
AcDbEntity
8
Geo
100
AcDbLine
10
-12.1037861915367
20
3.98018911207670
30
0.000000000000000
11
-12.0037861915367
21
3.96509504912975
31
0.000000000000000
  0
LINE
  5
F1036C
330
F1036D
100
AcDbEntity
8
Geo
100
AcDbLine
10
-12.0037861915367
20
3.96509504912975
30
0.000000000000000
11
-11.9037861915367
21
3.94761321811612
31
0.000000000000000
  0
LINE
  5
F1036E
330
F1036F
100
AcDbEntity
8
Geo
100
AcDbLine
10
-11.9037861915367
20
3.94761321811612
30
0.000000000000000
11
-11.8037861915367
21
3.92776069130395
31
0.000000000000000
  0
LINE
  5
F10370
330
F10371
100
AcDbEntity
8
Geo
100
AcDbLine
10
-11.8037861915367
20
3.92776069130395
30
0.000000000000000
11
-11.7037861915367
21
3.90555685611670
31
0.000000000000000
  0
LINE
  5
F10372
330
F10373
100
AcDbEntity
8
Geo
100
AcDbLine
10
-11.7037861915367
20
3.90555685611670
30
0.000000000000000
11
-11.6037861915367
21
3.88102339619997
31
0.000000000000000
  0
LINE
  5
F10374
330
F10375
100
AcDbEntity
8
Geo
100
AcDbLine
10
-11.6037861915367
20
3.88102339619997
30
0.000000000000000
11
-11.5037861915367
21
3.85418427024582
31
0.000000000000000
  0
LINE
  5
F10376
330
F10377
100
AcDbEntity
8
Geo
100
AcDbLine
10
-11.5037861915367
20
3.85418427024582
30
0.000000000000000
11
-11.4037861915367
21
3.82506568859541
31
0.000000000000000
  0
LINE
  5
F10378
330
F10379
100
AcDbEntity
8
Geo
100
AcDbLine
10
-11.4037861915367
20
3.82506568859541
30
0.000000000000000
11
-11.3037861915367
21
3.79369608764269
31
0.000000000000000
  0
LINE
  5
F1037A
330
F1037B
100
AcDbEntity
8
Geo
100
AcDbLine
10
-11.3037861915367
20
3.79369608764269
30
0.000000000000000
11
-11.2037861915367
21
3.76010610206422
31
0.000000000000000
  0
LINE
  5
F1037C
330
F1037D
100
AcDbEntity
8
Geo
100
AcDbLine
10
-11.2037861915367
20
3.76010610206422
30
0.000000000000000
11
-11.2037861915367
21
3.76010610206421
31
0.000000000000000
  0
LINE
  5
F1037E
330
F1037F
100
AcDbEntity
8
Geo
100
AcDbLine
10
-11.2037861915367
20
3.76010610206421
30
0.000000000000000
11
-11.2037861915367
21
3.67050363971884
31
0.000000000000000
  0
LINE
  5
F10380
330
F10381
100
AcDbEntity
8
Geo
100
AcDbLine
10
-11.2037861915367
20
3.67050363971884
30
0.000000000000000
11
-11.2037861915367
21
3.76010610206421
31
0.000000000000000
  0
LINE
  5
F10382
330
F10383
100
AcDbEntity
8
Geo
100
AcDbLine
10
-11.2037861915367
20
3.76010610206421
30
0.000000000000000
11
-11.2037861915367
21
3.76010610206421
31
0.000000000000000
  0
LINE
  5
F10384
330
F10385
100
AcDbEntity
8
Geo
100
AcDbLine
10
-11.2037861915367
20
3.76010610206421
30
0.000000000000000
11
-11.1037861915367
21
3.63214330033688
31
0.000000000000000
  0
LINE
  5
F10386
330
F10387
100
AcDbEntity
8
Geo
100
AcDbLine
10
-11.1037861915367
20
3.63214330033688
30
0.000000000000000
11
-11.0037861915367
21
3.59188858839914
31
0.000000000000000
  0
LINE
  5
F10388
330
F10389
100
AcDbEntity
8
Geo
100
AcDbLine
10
-11.0037861915367
20
3.59188858839914
30
0.000000000000000
11
-10.9037861915367
21
3.54990386465233
31
0.000000000000000
  0
LINE
  5
F1038A
330
F1038B
100
AcDbEntity
8
Geo
100
AcDbLine
10
-10.9037861915367
20
3.54990386465233
30
0.000000000000000
11
-10.8037861915367
21
3.50634983225803
31
0.000000000000000
  0
LINE
  5
F1038C
330
F1038D
100
AcDbEntity
8
Geo
100
AcDbLine
10
-10.8037861915367
20
3.50634983225803
30
0.000000000000000
11
-10.7037861915367
21
3.46138324179986
31
0.000000000000000
  0
LINE
  5
F1038E
330
F1038F
100
AcDbEntity
8
Geo
100
AcDbLine
10
-10.7037861915367
20
3.46138324179986
30
0.000000000000000
11
-10.6037861915367
21
3.41515663374491
31
0.000000000000000
  0
LINE
  5
F10390
330
F10391
100
AcDbEntity
8
Geo
100
AcDbLine
10
-10.6037861915367
20
3.41515663374491
30
0.000000000000000
11
-10.5037861915367
21
3.36781811671372
31
0.000000000000000
  0
LINE
  5
F10392
330
F10393
100
AcDbEntity
8
Geo
100
AcDbLine
10
-10.5037861915367
20
3.36781811671372
30
0.000000000000000
11
-10.4037861915367
21
3.31951117986201
31
0.000000000000000
  0
LINE
  5
F10394
330
F10395
100
AcDbEntity
8
Geo
100
AcDbLine
10
-10.4037861915367
20
3.31951117986201
30
0.000000000000000
11
-10.3037861915367
21
3.27037453764090
31
0.000000000000000
  0
LINE
  5
F10396
330
F10397
100
AcDbEntity
8
Geo
100
AcDbLine
10
-10.3037861915367
20
3.27037453764090
30
0.000000000000000
11
-10.2037861915367
21
3.22054200517889
31
0.000000000000000
  0
LINE
  5
F10398
330
F10399
100
AcDbEntity
8
Geo
100
AcDbLine
10
-10.2037861915367
20
3.22054200517889
30
0.000000000000000
11
-10.1037861915367
21
3.17014240251738
31
0.000000000000000
  0
LINE
  5
F1039A
330
F1039B
100
AcDbEntity
8
Geo
100
AcDbLine
10
-10.1037861915367
20
3.17014240251738
30
0.000000000000000
11
-10.0037861915367
21
3.11929948593143
31
0.000000000000000
  0
LINE
  5
F1039C
330
F1039D
100
AcDbEntity
8
Geo
100
AcDbLine
10
-10.0037861915367
20
3.11929948593143
30
0.000000000000000
11
-9.90378619153669
21
3.06813190457683
31
0.000000000000000
  0
LINE
  5
F1039E
330
F1039F
100
AcDbEntity
8
Geo
100
AcDbLine
10
-9.90378619153669
20
3.06813190457683
30
0.000000000000000
11
-9.80378619153669
21
3.01675318072333
31
0.000000000000000
  0
LINE
  5
F103A0
330
F103A1
100
AcDbEntity
8
Geo
100
AcDbLine
10
-9.80378619153669
20
3.01675318072333
30
0.000000000000000
11
-9.70378619153669
21
2.96527171186052
31
0.000000000000000
  0
LINE
  5
F103A2
330
F103A3
100
AcDbEntity
8
Geo
100
AcDbLine
10
-9.70378619153669
20
2.96527171186052
30
0.000000000000000
11
-9.60378619153669
21
2.91379079299627
31
0.000000000000000
  0
LINE
  5
F103A4
330
F103A5
100
AcDbEntity
8
Geo
100
AcDbLine
10
-9.60378619153669
20
2.91379079299627
30
0.000000000000000
11
-9.50378619153669
21
2.86240865750780
31
0.000000000000000
  0
LINE
  5
F103A6
330
F103A7
100
AcDbEntity
8
Geo
100
AcDbLine
10
-9.50378619153669
20
2.86240865750780
30
0.000000000000000
11
-9.40378619153669
21
2.81121853495038
31
0.000000000000000
  0
LINE
  5
F103A8
330
F103A9
100
AcDbEntity
8
Geo
100
AcDbLine
10
-9.40378619153669
20
2.81121853495038
30
0.000000000000000
11
-9.30378619153669
21
2.76030872427856
31
0.000000000000000
  0
LINE
  5
F103AA
330
F103AB
100
AcDbEntity
8
Geo
100
AcDbLine
10
-9.30378619153669
20
2.76030872427856
30
0.000000000000000
11
-9.20378619153669
21
2.70976268098828
31
0.000000000000000
  0
LINE
  5
F103AC
330
F103AD
100
AcDbEntity
8
Geo
100
AcDbLine
10
-9.20378619153669
20
2.70976268098828
30
0.000000000000000
11
-9.10378619153669
21
2.65965911674486
31
0.000000000000000
  0
LINE
  5
F103AE
330
F103AF
100
AcDbEntity
8
Geo
100
AcDbLine
10
-9.10378619153669
20
2.65965911674486
30
0.000000000000000
11
-9.00378619153669
21
2.61007211012090
31
0.000000000000000
  0
LINE
  5
F103B0
330
F103B1
100
AcDbEntity
8
Geo
100
AcDbLine
10
-9.00378619153669
20
2.61007211012090
30
0.000000000000000
11
-8.90378619153669
21
2.56107122712925
31
0.000000000000000
  0
LINE
  5
F103B2
330
F103B3
100
AcDbEntity
8
Geo
100
AcDbLine
10
-8.90378619153669
20
2.56107122712925
30
0.000000000000000
11
-8.80378619153669
21
2.51272165029827
31
0.000000000000000
  0
LINE
  5
F103B4
330
F103B5
100
AcDbEntity
8
Geo
100
AcDbLine
10
-8.80378619153669
20
2.51272165029827
30
0.000000000000000
11
-8.70378619153669
21
2.46508431509962
31
0.000000000000000
  0
LINE
  5
F103B6
330
F103B7
100
AcDbEntity
8
Geo
100
AcDbLine
10
-8.70378619153669
20
2.46508431509962
30
0.000000000000000
11
-8.60378619153669
21
2.41821605260249
31
0.000000000000000
  0
LINE
  5
F103B8
330
F103B9
100
AcDbEntity
8
Geo
100
AcDbLine
10
-8.60378619153669
20
2.41821605260249
30
0.000000000000000
11
-8.50378619153669
21
2.37216973729097
31
0.000000000000000
  0
LINE
  5
F103BA
330
F103BB
100
AcDbEntity
8
Geo
100
AcDbLine
10
-8.50378619153669
20
2.37216973729097
30
0.000000000000000
11
-8.40378619153669
21
2.32699443904458
31
0.000000000000000
  0
LINE
  5
F103BC
330
F103BD
100
AcDbEntity
8
Geo
100
AcDbLine
10
-8.40378619153669
20
2.32699443904458
30
0.000000000000000
11
-8.30378619153669
21
2.28273557834361
31
0.000000000000000
  0
LINE
  5
F103BE
330
F103BF
100
AcDbEntity
8
Geo
100
AcDbLine
10
-8.30378619153669
20
2.28273557834361
30
0.000000000000000
11
-8.20378619153669
21
2.23943508382199
31
0.000000000000000
  0
LINE
  5
F103C0
330
F103C1
100
AcDbEntity
8
Geo
100
AcDbLine
10
-8.20378619153669
20
2.23943508382199
30
0.000000000000000
11
-8.10378619153669
21
2.19713155135003
31
0.000000000000000
  0
LINE
  5
F103C2
330
F103C3
100
AcDbEntity
8
Geo
100
AcDbLine
10
-8.10378619153669
20
2.19713155135003
30
0.000000000000000
11
-8.00378619153669
21
2.15586040388699
31
0.000000000000000
  0
LINE
  5
F103C4
330
F103C5
100
AcDbEntity
8
Geo
100
AcDbLine
10
-8.00378619153669
20
2.15586040388699
30
0.000000000000000
11
-7.90378619153669
21
2.11565405140006
31
0.000000000000000
  0
LINE
  5
F103C6
330
F103C7
100
AcDbEntity
8
Geo
100
AcDbLine
10
-7.90378619153669
20
2.11565405140006
30
0.000000000000000
11
-7.80378619153669
21
2.07654205020000
31
0.000000000000000
  0
LINE
  5
F103C8
330
F103C9
100
AcDbEntity
8
Geo
100
AcDbLine
10
-7.80378619153669
20
2.07654205020000
30
0.000000000000000
11
-7.70378619153669
21
2.03855126109628
31
0.000000000000000
  0
LINE
  5
F103CA
330
F103CB
100
AcDbEntity
8
Geo
100
AcDbLine
10
-7.70378619153669
20
2.03855126109628
30
0.000000000000000
11
-7.60378619153669
21
2.00170600582398
31
0.000000000000000
  0
LINE
  5
F103CC
330
F103CD
100
AcDbEntity
8
Geo
100
AcDbLine
10
-7.60378619153669
20
2.00170600582398
30
0.000000000000000
11
-7.50378619153669
21
1.96602822124274
31
0.000000000000000
  0
LINE
  5
F103CE
330
F103CF
100
AcDbEntity
8
Geo
100
AcDbLine
10
-7.50378619153669
20
1.96602822124274
30
0.000000000000000
11
-7.40378619153669
21
1.93153761085284
31
0.000000000000000
  0
LINE
  5
F103D0
330
F103D1
100
AcDbEntity
8
Geo
100
AcDbLine
10
-7.40378619153669
20
1.93153761085284
30
0.000000000000000
11
-7.30378619153669
21
1.89825179321677
31
0.000000000000000
  0
LINE
  5
F103D2
330
F103D3
100
AcDbEntity
8
Geo
100
AcDbLine
10
-7.30378619153669
20
1.89825179321677
30
0.000000000000000
11
-7.20378619153669
21
1.86618644691452
31
0.000000000000000
  0
LINE
  5
F103D4
330
F103D5
100
AcDbEntity
8
Geo
100
AcDbLine
10
-7.20378619153669
20
1.86618644691452
30
0.000000000000000
11
-7.10378619153669
21
1.83535545169938
31
0.000000000000000
  0
LINE
  5
F103D6
330
F103D7
100
AcDbEntity
8
Geo
100
AcDbLine
10
-7.10378619153669
20
1.83535545169938
30
0.000000000000000
11
-7.00378619153669
21
1.80577102555595
31
0.000000000000000
  0
LINE
  5
F103D8
330
F103D9
100
AcDbEntity
8
Geo
100
AcDbLine
10
-7.00378619153669
20
1.80577102555595
30
0.000000000000000
11
-6.90378619153669
21
1.77744385739572
31
0.000000000000000
  0
LINE
  5
F103DA
330
F103DB
100
AcDbEntity
8
Geo
100
AcDbLine
10
-6.90378619153669
20
1.77744385739572
30
0.000000000000000
11
-6.80378619153669
21
1.75038323515590
31
0.000000000000000
  0
LINE
  5
F103DC
330
F103DD
100
AcDbEntity
8
Geo
100
AcDbLine
10
-6.80378619153669
20
1.75038323515590
30
0.000000000000000
11
-6.70378619153669
21
1.72459716909589
31
0.000000000000000
  0
LINE
  5
F103DE
330
F103DF
100
AcDbEntity
8
Geo
100
AcDbLine
10
-6.70378619153669
20
1.72459716909589
30
0.000000000000000
11
-6.60378619153669
21
1.70009251011174
31
0.000000000000000
  0
LINE
  5
F103E0
330
F103E1
100
AcDbEntity
8
Geo
100
AcDbLine
10
-6.60378619153669
20
1.70009251011174
30
0.000000000000000
11
-6.50378619153669
21
1.67687506291295
31
0.000000000000000
  0
LINE
  5
F103E2
330
F103E3
100
AcDbEntity
8
Geo
100
AcDbLine
10
-6.50378619153669
20
1.67687506291295
30
0.000000000000000
11
-6.40378619153669
21
1.65494969392787
31
0.000000000000000
  0
LINE
  5
F103E4
330
F103E5
100
AcDbEntity
8
Geo
100
AcDbLine
10
-6.40378619153669
20
1.65494969392787
30
0.000000000000000
11
-6.30378619153669
21
1.63432043382341
31
0.000000000000000
  0
LINE
  5
F103E6
330
F103E7
100
AcDbEntity
8
Geo
100
AcDbLine
10
-6.30378619153669
20
1.63432043382341
30
0.000000000000000
11
-6.20378619153669
21
1.61499057454279
31
0.000000000000000
  0
LINE
  5
F103E8
330
F103E9
100
AcDbEntity
8
Geo
100
AcDbLine
10
-6.20378619153669
20
1.61499057454279
30
0.000000000000000
11
-6.10378619153669
21
1.59696276078095
31
0.000000000000000
  0
LINE
  5
F103EA
330
F103EB
100
AcDbEntity
8
Geo
100
AcDbLine
10
-6.10378619153669
20
1.59696276078095
30
0.000000000000000
11
-6.00378619153669
21
1.58023907583104
31
0.000000000000000
  0
LINE
  5
F103EC
330
F103ED
100
AcDbEntity
8
Geo
100
AcDbLine
10
-6.00378619153669
20
1.58023907583104
30
0.000000000000000
11
-5.90378619153669
21
1.56482112174813
31
0.000000000000000
  0
LINE
  5
F103EE
330
F103EF
100
AcDbEntity
8
Geo
100
AcDbLine
10
-5.90378619153669
20
1.56482112174813
30
0.000000000000000
11
-5.80378619153669
21
1.55071009378697
31
0.000000000000000
  0
LINE
  5
F103F0
330
F103F1
100
AcDbEntity
8
Geo
100
AcDbLine
10
-5.80378619153669
20
1.55071009378697
30
0.000000000000000
11
-5.70378619153669
21
1.53790684907975
31
0.000000000000000
  0
LINE
  5
F103F2
330
F103F3
100
AcDbEntity
8
Geo
100
AcDbLine
10
-5.70378619153669
20
1.53790684907975
30
0.000000000000000
11
-5.60378619153669
21
1.52641196952808
31
0.000000000000000
  0
LINE
  5
F103F4
330
F103F5
100
AcDbEntity
8
Geo
100
AcDbLine
10
-5.60378619153669
20
1.52641196952808
30
0.000000000000000
11
-5.50378619153669
21
1.51622581888968
31
0.000000000000000
  0
LINE
  5
F103F6
330
F103F7
100
AcDbEntity
8
Geo
100
AcDbLine
10
-5.50378619153669
20
1.51622581888968
30
0.000000000000000
11
-5.40378619153669
21
1.50734859404606
31
0.000000000000000
  0
LINE
  5
F103F8
330
F103F9
100
AcDbEntity
8
Geo
100
AcDbLine
10
-5.40378619153669
20
1.50734859404606
30
0.000000000000000
11
-5.30378619153669
21
1.49978037044154
31
0.000000000000000
  0
LINE
  5
F103FA
330
F103FB
100
AcDbEntity
8
Geo
100
AcDbLine
10
-5.30378619153669
20
1.49978037044154
30
0.000000000000000
11
-5.20378619153669
21
1.49352114168772
31
0.000000000000000
  0
LINE
  5
F103FC
330
F103FD
100
AcDbEntity
8
Geo
100
AcDbLine
10
-16.7037861915367
20
4.01985427504698
30
0.000000000000000
11
-16.6037861915367
21
4.01959739129175
31
0.000000000000000
  0
LINE
  5
F103FE
330
F103FF
100
AcDbEntity
8
Geo
100
AcDbLine
10
-16.6037861915367
20
4.01959739129175
30
0.000000000000000
11
-16.5037861915367
21
4.01689951400400
31
0.000000000000000
  0
LINE
  5
F10400
330
F10401
100
AcDbEntity
8
Geo
100
AcDbLine
10
-16.5037861915367
20
4.01689951400400
30
0.000000000000000
11
-16.4037861915367
21
4.01176327785537
31
0.000000000000000
  0
LINE
  5
F10402
330
F10403
100
AcDbEntity
8
Geo
100
AcDbLine
10
-16.4037861915367
20
4.01176327785537
30
0.000000000000000
11
-16.3037861915367
21
4.00419369875070
31
0.000000000000000
  0
LINE
  5
F10404
330
F10405
100
AcDbEntity
8
Geo
100
AcDbLine
10
-16.3037861915367
20
4.00419369875070
30
0.000000000000000
11
-16.2037861915367
21
3.99419816892962
31
0.000000000000000
  0
LINE
  5
F10406
330
F10407
100
AcDbEntity
8
Geo
100
AcDbLine
10
-16.2037861915367
20
3.99419816892962
30
0.000000000000000
11
-16.1037861915367
21
3.98178644974751
31
0.000000000000000
  0
LINE
  5
F10408
330
F10409
100
AcDbEntity
8
Geo
100
AcDbLine
10
-16.1037861915367
20
3.98178644974751
30
0.000000000000000
11
-16.0037861915367
21
3.96697066214285
31
0.000000000000000
  0
LINE
  5
F1040A
330
F1040B
100
AcDbEntity
8
Geo
100
AcDbLine
10
-16.0037861915367
20
3.96697066214285
30
0.000000000000000
11
-15.9037861915367
21
3.94976527480019
31
0.000000000000000
  0
LINE
  5
F1040C
330
F1040D
100
AcDbEntity
8
Geo
100
AcDbLine
10
-15.9037861915367
20
3.94976527480019
30
0.000000000000000
11
-15.8037861915367
21
3.93018709002051
31
0.000000000000000
  0
LINE
  5
F1040E
330
F1040F
100
AcDbEntity
8
Geo
100
AcDbLine
10
-15.8037861915367
20
3.93018709002051
30
0.000000000000000
11
-15.7037861915367
21
3.90825522731251
31
0.000000000000000
  0
LINE
  5
F10410
330
F10411
100
AcDbEntity
8
Geo
100
AcDbLine
10
-15.7037861915367
20
3.90825522731251
30
0.000000000000000
11
-15.6037861915367
21
3.88399110472104
31
0.000000000000000
  0
LINE
  5
F10412
330
F10413
100
AcDbEntity
8
Geo
100
AcDbLine
10
-15.6037861915367
20
3.88399110472104
30
0.000000000000000
11
-15.5037861915367
21
3.85741841791086
31
0.000000000000000
  0
LINE
  5
F10414
330
F10415
100
AcDbEntity
8
Geo
100
AcDbLine
10
-15.5037861915367
20
3.85741841791086
30
0.000000000000000
11
-15.4037861915367
21
3.82856311702610
31
0.000000000000000
  0
LINE
  5
F10416
330
F10417
100
AcDbEntity
8
Geo
100
AcDbLine
10
-15.4037861915367
20
3.82856311702610
30
0.000000000000000
11
-15.3037861915367
21
3.79745338134805
31
0.000000000000000
  0
LINE
  5
F10418
330
F10419
100
AcDbEntity
8
Geo
100
AcDbLine
10
-15.3037861915367
20
3.79745338134805
30
0.000000000000000
11
-15.2037861915367
21
3.76411959177612
31
0.000000000000000
  0
LINE
  5
F1041A
330
F1041B
100
AcDbEntity
8
Geo
100
AcDbLine
10
-15.2037861915367
20
3.76411959177612
30
0.000000000000000
11
-15.1037861915367
21
3.72859430115863
31
0.000000000000000
  0
LINE
  5
F1041C
330
F1041D
100
AcDbEntity
8
Geo
100
AcDbLine
10
-15.1037861915367
20
3.72859430115863
30
0.000000000000000
11
-15.0037861915367
21
3.69091220250266
31
0.000000000000000
  0
LINE
  5
F1041E
330
F1041F
100
AcDbEntity
8
Geo
100
AcDbLine
10
-15.0037861915367
20
3.69091220250266
30
0.000000000000000
11
-14.9037861915367
21
3.65111009509380
31
0.000000000000000
  0
LINE
  5
F10420
330
F10421
100
AcDbEntity
8
Geo
100
AcDbLine
10
-14.9037861915367
20
3.65111009509380
30
0.000000000000000
11
-14.8037861915367
21
3.60922684855902
31
0.000000000000000
  0
LINE
  5
F10422
330
F10423
100
AcDbEntity
8
Geo
100
AcDbLine
10
-14.8037861915367
20
3.60922684855902
30
0.000000000000000
11
-14.7037861915367
21
3.56530336490765
31
0.000000000000000
  0
LINE
  5
F10424
330
F10425
100
AcDbEntity
8
Geo
100
AcDbLine
10
-14.7037861915367
20
3.56530336490765
30
0.000000000000000
11
-14.6037861915367
21
3.51938253858763
31
0.000000000000000
  0
LINE
  5
F10426
330
F10427
100
AcDbEntity
8
Geo
100
AcDbLine
10
-14.6037861915367
20
3.51938253858763
30
0.000000000000000
11
-14.5037861915367
21
3.47150921459601
31
0.000000000000000
  0
LINE
  5
F10428
330
F10429
100
AcDbEntity
8
Geo
100
AcDbLine
10
-14.5037861915367
20
3.47150921459601
30
0.000000000000000
11
-14.4037861915367
21
3.42173014468453
31
0.000000000000000
  0
LINE
  5
F1042A
330
F1042B
100
AcDbEntity
8
Geo
100
AcDbLine
10
-14.4037861915367
20
3.42173014468453
30
0.000000000000000
11
-14.3037861915367
21
3.37009394170322
31
0.000000000000000
  0
LINE
  5
F1042C
330
F1042D
100
AcDbEntity
8
Geo
100
AcDbLine
10
-14.3037861915367
20
3.37009394170322
30
0.000000000000000
11
-14.2037861915367
21
3.31665103212641
31
0.000000000000000
  0
LINE
  5
F1042E
330
F1042F
100
AcDbEntity
8
Geo
100
AcDbLine
10
-14.2037861915367
20
3.31665103212641
30
0.000000000000000
11
-14.1037861915367
21
3.26145360680766
31
0.000000000000000
  0
LINE
  5
F10430
330
F10431
100
AcDbEntity
8
Geo
100
AcDbLine
10
-14.1037861915367
20
3.26145360680766
30
0.000000000000000
11
-14.0037861915367
21
3.20455557001160
31
0.000000000000000
  0
LINE
  5
F10432
330
F10433
100
AcDbEntity
8
Geo
100
AcDbLine
10
-14.0037861915367
20
3.20455557001160
30
0.000000000000000
11
-13.9037861915367
21
3.14601248677259
31
0.000000000000000
  0
LINE
  5
F10434
330
F10435
100
AcDbEntity
8
Geo
100
AcDbLine
10
-13.9037861915367
20
3.14601248677259
30
0.000000000000000
11
-13.8037861915367
21
3.08588152863140
31
0.000000000000000
  0
LINE
  5
F10436
330
F10437
100
AcDbEntity
8
Geo
100
AcDbLine
10
-13.8037861915367
20
3.08588152863140
30
0.000000000000000
11
-13.7037861915367
21
3.02422141780311
31
0.000000000000000
  0
LINE
  5
F10438
330
F10439
100
AcDbEntity
8
Geo
100
AcDbLine
10
-13.7037861915367
20
3.02422141780311
30
0.000000000000000
11
-13.6037861915367
21
2.96109236983062
31
0.000000000000000
  0
LINE
  5
F1043A
330
F1043B
100
AcDbEntity
8
Geo
100
AcDbLine
10
-13.6037861915367
20
2.96109236983062
30
0.000000000000000
11
-13.5037861915367
21
2.89655603477983
31
0.000000000000000
  0
LINE
  5
F1043C
330
F1043D
100
AcDbEntity
8
Geo
100
AcDbLine
10
-13.5037861915367
20
2.89655603477983
30
0.000000000000000
11
-13.4037861915367
21
2.83067543703393
31
0.000000000000000
  0
LINE
  5
F1043E
330
F1043F
100
AcDbEntity
8
Geo
100
AcDbLine
10
-13.4037861915367
20
2.83067543703393
30
0.000000000000000
11
-13.3037861915367
21
2.76351491374554
31
0.000000000000000
  0
LINE
  5
F10440
330
F10441
100
AcDbEntity
8
Geo
100
AcDbLine
10
-13.3037861915367
20
2.76351491374554
30
0.000000000000000
11
-13.2037861915367
21
2.69514005200680
31
0.000000000000000
  0
LINE
  5
F10442
330
F10443
100
AcDbEntity
8
Geo
100
AcDbLine
10
-13.2037861915367
20
2.69514005200680
30
0.000000000000000
11
-13.1037861915367
21
2.62561762479890
31
0.000000000000000
  0
LINE
  5
F10444
330
F10445
100
AcDbEntity
8
Geo
100
AcDbLine
10
-13.1037861915367
20
2.62561762479890
30
0.000000000000000
11
-13.0037861915367
21
2.55501552578343
31
0.000000000000000
  0
LINE
  5
F10446
330
F10447
100
AcDbEntity
8
Geo
100
AcDbLine
10
-13.0037861915367
20
2.55501552578343
30
0.000000000000000
11
-12.9037861915367
21
2.48340270299934
31
0.000000000000000
  0
LINE
  5
F10448
330
F10449
100
AcDbEntity
8
Geo
100
AcDbLine
10
-12.9037861915367
20
2.48340270299934
30
0.000000000000000
11
-12.8037861915367
21
2.41084909153018
31
0.000000000000000
  0
LINE
  5
F1044A
330
F1044B
100
AcDbEntity
8
Geo
100
AcDbLine
10
-12.8037861915367
20
2.41084909153018
30
0.000000000000000
11
-12.7037861915367
21
2.33742554520746
31
0.000000000000000
  0
LINE
  5
F1044C
330
F1044D
100
AcDbEntity
8
Geo
100
AcDbLine
10
-12.7037861915367
20
2.33742554520746
30
0.000000000000000
11
-12.6037861915367
21
2.26320376741680
31
0.000000000000000
  0
LINE
  5
F1044E
330
F1044F
100
AcDbEntity
8
Geo
100
AcDbLine
10
-12.6037861915367
20
2.26320376741680
30
0.000000000000000
11
-12.5037861915367
21
2.18825624107437
31
0.000000000000000
  0
LINE
  5
F10450
330
F10451
100
AcDbEntity
8
Geo
100
AcDbLine
10
-12.5037861915367
20
2.18825624107437
30
0.000000000000000
11
-12.4037861915367
21
2.11265615784214
31
0.000000000000000
  0
LINE
  5
F10452
330
F10453
100
AcDbEntity
8
Geo
100
AcDbLine
10
-12.4037861915367
20
2.11265615784214
30
0.000000000000000
11
-12.3037861915367
21
2.03647734665090
31
0.000000000000000
  0
LINE
  5
F10454
330
F10455
100
AcDbEntity
8
Geo
100
AcDbLine
10
-12.3037861915367
20
2.03647734665090
30
0.000000000000000
11
-12.2037861915367
21
1.95979420160102
31
0.000000000000000
  0
LINE
  5
F10456
330
F10457
100
AcDbEntity
8
Geo
100
AcDbLine
10
-12.2037861915367
20
1.95979420160102
30
0.000000000000000
11
-12.1037861915367
21
1.88268160931122
31
0.000000000000000
  0
LINE
  5
F10458
330
F10459
100
AcDbEntity
8
Geo
100
AcDbLine
10
-12.1037861915367
20
1.88268160931122
30
0.000000000000000
11
-12.0037861915367
21
1.80521487578643
31
0.000000000000000
  0
LINE
  5
F1045A
330
F1045B
100
AcDbEntity
8
Geo
100
AcDbLine
10
-12.0037861915367
20
1.80521487578643
30
0.000000000000000
11
-11.9037861915367
21
1.72746965287601
31
0.000000000000000
  0
LINE
  5
F1045C
330
F1045D
100
AcDbEntity
8
Geo
100
AcDbLine
10
-11.9037861915367
20
1.72746965287601
30
0.000000000000000
11
-11.8037861915367
21
1.64952186439429
31
0.000000000000000
  0
LINE
  5
F1045E
330
F1045F
100
AcDbEntity
8
Geo
100
AcDbLine
10
-11.8037861915367
20
1.64952186439429
30
0.000000000000000
11
-11.7037861915367
21
1.57144763197546
31
0.000000000000000
  0
LINE
  5
F10460
330
F10461
100
AcDbEntity
8
Geo
100
AcDbLine
10
-11.7037861915367
20
1.57144763197546
30
0.000000000000000
11
-11.6037861915367
21
1.49332320073535
31
0.000000000000000
  0
LINE
  5
F10462
330
F10463
100
AcDbEntity
8
Geo
100
AcDbLine
10
-11.6037861915367
20
1.49332320073535
30
0.000000000000000
11
-11.5037861915367
21
1.41522486481254
31
0.000000000000000
  0
LINE
  5
F10464
330
F10465
100
AcDbEntity
8
Geo
100
AcDbLine
10
-11.5037861915367
20
1.41522486481254
30
0.000000000000000
11
-11.4037861915367
21
1.33722889286168
31
0.000000000000000
  0
LINE
  5
F10466
330
F10467
100
AcDbEntity
8
Geo
100
AcDbLine
10
-11.4037861915367
20
1.33722889286168
30
0.000000000000000
11
-11.3037861915367
21
1.25941145357160
31
0.000000000000000
  0
LINE
  5
F10468
330
F10469
100
AcDbEntity
8
Geo
100
AcDbLine
10
-11.3037861915367
20
1.25941145357160
30
0.000000000000000
11
-11.2037861915367
21
1.18184854128112
31
0.000000000000000
  0
LINE
  5
F1046A
330
F1046B
100
AcDbEntity
8
Geo
100
AcDbLine
10
-11.2037861915367
20
1.18184854128112
30
0.000000000000000
11
-11.2037861915367
21
1.18184854128110
31
0.000000000000000
  0
LINE
  5
F1046C
330
F1046D
100
AcDbEntity
8
Geo
100
AcDbLine
10
-11.2037861915367
20
1.18184854128110
30
0.000000000000000
11
-11.2037861915367
21
1.19537638136705
31
0.000000000000000
  0
LINE
  5
F1046E
330
F1046F
100
AcDbEntity
8
Geo
100
AcDbLine
10
-11.2037861915367
20
1.19537638136705
30
0.000000000000000
11
-11.2037861915367
21
1.18184854128110
31
0.000000000000000
  0
LINE
  5
F10470
330
F10471
100
AcDbEntity
8
Geo
100
AcDbLine
10
-11.2037861915367
20
1.18184854128110
30
0.000000000000000
11
-11.2037861915367
21
1.18184854128110
31
0.000000000000000
  0
LINE
  5
F10472
330
F10473
100
AcDbEntity
8
Geo
100
AcDbLine
10
-11.2037861915367
20
1.18184854128110
30
0.000000000000000
11
-11.1037861915367
21
1.20456943648150
31
0.000000000000000
  0
LINE
  5
F10474
330
F10475
100
AcDbEntity
8
Geo
100
AcDbLine
10
-11.1037861915367
20
1.20456943648150
30
0.000000000000000
11
-11.0037861915367
21
1.21362296298664
31
0.000000000000000
  0
LINE
  5
F10476
330
F10477
100
AcDbEntity
8
Geo
100
AcDbLine
10
-11.0037861915367
20
1.21362296298664
30
0.000000000000000
11
-10.9037861915367
21
1.22253661475066
31
0.000000000000000
  0
LINE
  5
F10478
330
F10479
100
AcDbEntity
8
Geo
100
AcDbLine
10
-10.9037861915367
20
1.22253661475066
30
0.000000000000000
11
-10.8037861915367
21
1.23131006128320
31
0.000000000000000
  0
LINE
  5
F1047A
330
F1047B
100
AcDbEntity
8
Geo
100
AcDbLine
10
-10.8037861915367
20
1.23131006128320
30
0.000000000000000
11
-10.7037861915367
21
1.23994298725580
31
0.000000000000000
  0
LINE
  5
F1047C
330
F1047D
100
AcDbEntity
8
Geo
100
AcDbLine
10
-10.7037861915367
20
1.23994298725580
30
0.000000000000000
11
-10.6037861915367
21
1.24843509202913
31
0.000000000000000
  0
LINE
  5
F1047E
330
F1047F
100
AcDbEntity
8
Geo
100
AcDbLine
10
-10.6037861915367
20
1.24843509202913
30
0.000000000000000
11
-10.5037861915367
21
1.25678608918724
31
0.000000000000000
  0
LINE
  5
F10480
330
F10481
100
AcDbEntity
8
Geo
100
AcDbLine
10
-10.5037861915367
20
1.25678608918724
30
0.000000000000000
11
-10.4037861915367
21
1.26499570607872
31
0.000000000000000
  0
LINE
  5
F10482
330
F10483
100
AcDbEntity
8
Geo
100
AcDbLine
10
-10.4037861915367
20
1.26499570607872
30
0.000000000000000
11
-10.3037861915367
21
1.27306368336501
31
0.000000000000000
  0
LINE
  5
F10484
330
F10485
100
AcDbEntity
8
Geo
100
AcDbLine
10
-10.3037861915367
20
1.27306368336501
30
0.000000000000000
11
-10.2037861915367
21
1.28098977457573
31
0.000000000000000
  0
LINE
  5
F10486
330
F10487
100
AcDbEntity
8
Geo
100
AcDbLine
10
-10.2037861915367
20
1.28098977457573
30
0.000000000000000
11
-10.1037861915367
21
1.28877374567130
31
0.000000000000000
  0
LINE
  5
F10488
330
F10489
100
AcDbEntity
8
Geo
100
AcDbLine
10
-10.1037861915367
20
1.28877374567130
30
0.000000000000000
11
-10.0037861915367
21
1.29641537461271
31
0.000000000000000
  0
LINE
  5
F1048A
330
F1048B
100
AcDbEntity
8
Geo
100
AcDbLine
10
-10.0037861915367
20
1.29641537461271
30
0.000000000000000
11
-9.90378619153669
21
1.30391445093862
31
0.000000000000000
  0
LINE
  5
F1048C
330
F1048D
100
AcDbEntity
8
Geo
100
AcDbLine
10
-9.90378619153669
20
1.30391445093862
30
0.000000000000000
11
-9.80378619153669
21
1.31127077534978
31
0.000000000000000
  0
LINE
  5
F1048E
330
F1048F
100
AcDbEntity
8
Geo
100
AcDbLine
10
-9.80378619153669
20
1.31127077534978
30
0.000000000000000
11
-9.70378619153669
21
1.31848415930088
31
0.000000000000000
  0
LINE
  5
F10490
330
F10491
100
AcDbEntity
8
Geo
100
AcDbLine
10
-9.70378619153669
20
1.31848415930088
30
0.000000000000000
11
-9.60378619153669
21
1.32555442459974
31
0.000000000000000
  0
LINE
  5
F10492
330
F10493
100
AcDbEntity
8
Geo
100
AcDbLine
10
-9.60378619153669
20
1.32555442459974
30
0.000000000000000
11
-9.50378619153669
21
1.33248140301407
31
0.000000000000000
  0
LINE
  5
F10494
330
F10495
100
AcDbEntity
8
Geo
100
AcDbLine
10
-9.50378619153669
20
1.33248140301407
30
0.000000000000000
11
-9.40378619153669
21
1.33926493588568
31
0.000000000000000
  0
LINE
  5
F10496
330
F10497
100
AcDbEntity
8
Geo
100
AcDbLine
10
-9.40378619153669
20
1.33926493588568
30
0.000000000000000
11
-9.30378619153669
21
1.34590487375225
31
0.000000000000000
  0
LINE
  5
F10498
330
F10499
100
AcDbEntity
8
Geo
100
AcDbLine
10
-9.30378619153669
20
1.34590487375225
30
0.000000000000000
11
-9.20378619153669
21
1.35240107597670
31
0.000000000000000
  0
LINE
  5
F1049A
330
F1049B
100
AcDbEntity
8
Geo
100
AcDbLine
10
-9.20378619153669
20
1.35240107597670
30
0.000000000000000
11
-9.10378619153669
21
1.35875341038417
31
0.000000000000000
  0
LINE
  5
F1049C
330
F1049D
100
AcDbEntity
8
Geo
100
AcDbLine
10
-9.10378619153669
20
1.35875341038417
30
0.000000000000000
11
-9.00378619153669
21
1.36496175290664
31
0.000000000000000
  0
LINE
  5
F1049E
330
F1049F
100
AcDbEntity
8
Geo
100
AcDbLine
10
-9.00378619153669
20
1.36496175290664
30
0.000000000000000
11
-8.90378619153669
21
1.37102598723524
31
0.000000000000000
  0
LINE
  5
F104A0
330
F104A1
100
AcDbEntity
8
Geo
100
AcDbLine
10
-8.90378619153669
20
1.37102598723524
30
0.000000000000000
11
-8.80378619153669
21
1.37694600448025
31
0.000000000000000
  0
LINE
  5
F104A2
330
F104A3
100
AcDbEntity
8
Geo
100
AcDbLine
10
-8.80378619153669
20
1.37694600448025
30
0.000000000000000
11
-8.70378619153669
21
1.38272170283885
31
0.000000000000000
  0
LINE
  5
F104A4
330
F104A5
100
AcDbEntity
8
Geo
100
AcDbLine
10
-8.70378619153669
20
1.38272170283885
30
0.000000000000000
11
-8.60378619153669
21
1.38835298727061
31
0.000000000000000
  0
LINE
  5
F104A6
330
F104A7
100
AcDbEntity
8
Geo
100
AcDbLine
10
-8.60378619153669
20
1.38835298727061
30
0.000000000000000
11
-8.50378619153669
21
1.39383976918076
31
0.000000000000000
  0
LINE
  5
F104A8
330
F104A9
100
AcDbEntity
8
Geo
100
AcDbLine
10
-8.50378619153669
20
1.39383976918076
30
0.000000000000000
11
-8.40378619153669
21
1.39918196611128
31
0.000000000000000
  0
LINE
  5
F104AA
330
F104AB
100
AcDbEntity
8
Geo
100
AcDbLine
10
-8.40378619153669
20
1.39918196611128
30
0.000000000000000
11
-8.30378619153669
21
1.40437950143976
31
0.000000000000000
  0
LINE
  5
F104AC
330
F104AD
100
AcDbEntity
8
Geo
100
AcDbLine
10
-8.30378619153669
20
1.40437950143976
30
0.000000000000000
11
-8.20378619153669
21
1.40943230408615
31
0.000000000000000
  0
LINE
  5
F104AE
330
F104AF
100
AcDbEntity
8
Geo
100
AcDbLine
10
-8.20378619153669
20
1.40943230408615
30
0.000000000000000
11
-8.10378619153669
21
1.41434030822732
31
0.000000000000000
  0
LINE
  5
F104B0
330
F104B1
100
AcDbEntity
8
Geo
100
AcDbLine
10
-8.10378619153669
20
1.41434030822732
30
0.000000000000000
11
-8.00378619153669
21
1.41910345301950
31
0.000000000000000
  0
LINE
  5
F104B2
330
F104B3
100
AcDbEntity
8
Geo
100
AcDbLine
10
-8.00378619153669
20
1.41910345301950
30
0.000000000000000
11
-7.90378619153669
21
1.42372168232864
31
0.000000000000000
  0
LINE
  5
F104B4
330
F104B5
100
AcDbEntity
8
Geo
100
AcDbLine
10
-7.90378619153669
20
1.42372168232864
30
0.000000000000000
11
-7.80378619153669
21
1.42819494446856
31
0.000000000000000
  0
LINE
  5
F104B6
330
F104B7
100
AcDbEntity
8
Geo
100
AcDbLine
10
-7.80378619153669
20
1.42819494446856
30
0.000000000000000
11
-7.70378619153669
21
1.43252319194718
31
0.000000000000000
  0
LINE
  5
F104B8
330
F104B9
100
AcDbEntity
8
Geo
100
AcDbLine
10
-7.70378619153669
20
1.43252319194718
30
0.000000000000000
11
-7.60378619153669
21
1.43670638122046
31
0.000000000000000
  0
LINE
  5
F104BA
330
F104BB
100
AcDbEntity
8
Geo
100
AcDbLine
10
-7.60378619153669
20
1.43670638122046
30
0.000000000000000
11
-7.50378619153669
21
1.44074447245444
31
0.000000000000000
  0
LINE
  5
F104BC
330
F104BD
100
AcDbEntity
8
Geo
100
AcDbLine
10
-7.50378619153669
20
1.44074447245444
30
0.000000000000000
11
-7.40378619153669
21
1.44463742929514
31
0.000000000000000
  0
LINE
  5
F104BE
330
F104BF
100
AcDbEntity
8
Geo
100
AcDbLine
10
-7.40378619153669
20
1.44463742929514
30
0.000000000000000
11
-7.30378619153669
21
1.44838521864641
31
0.000000000000000
  0
LINE
  5
F104C0
330
F104C1
100
AcDbEntity
8
Geo
100
AcDbLine
10
-7.30378619153669
20
1.44838521864641
30
0.000000000000000
11
-7.20378619153669
21
1.45198781045573
31
0.000000000000000
  0
LINE
  5
F104C2
330
F104C3
100
AcDbEntity
8
Geo
100
AcDbLine
10
-7.20378619153669
20
1.45198781045573
30
0.000000000000000
11
-7.10378619153669
21
1.45544517750800
31
0.000000000000000
  0
LINE
  5
F104C4
330
F104C5
100
AcDbEntity
8
Geo
100
AcDbLine
10
-7.10378619153669
20
1.45544517750800
30
0.000000000000000
11
-7.00378619153669
21
1.45875729522728
31
0.000000000000000
  0
LINE
  5
F104C6
330
F104C7
100
AcDbEntity
8
Geo
100
AcDbLine
10
-7.00378619153669
20
1.45875729522728
30
0.000000000000000
11
-6.90378619153669
21
1.46192414148647
31
0.000000000000000
  0
LINE
  5
F104C8
330
F104C9
100
AcDbEntity
8
Geo
100
AcDbLine
10
-6.90378619153669
20
1.46192414148647
30
0.000000000000000
11
-6.80378619153669
21
1.46494569642504
31
0.000000000000000
  0
LINE
  5
F104CA
330
F104CB
100
AcDbEntity
8
Geo
100
AcDbLine
10
-6.80378619153669
20
1.46494569642504
30
0.000000000000000
11
-6.70378619153669
21
1.46782194227465
31
0.000000000000000
  0
LINE
  5
F104CC
330
F104CD
100
AcDbEntity
8
Geo
100
AcDbLine
10
-6.70378619153669
20
1.46782194227465
30
0.000000000000000
11
-6.60378619153669
21
1.47055286319286
31
0.000000000000000
  0
LINE
  5
F104CE
330
F104CF
100
AcDbEntity
8
Geo
100
AcDbLine
10
-6.60378619153669
20
1.47055286319286
30
0.000000000000000
11
-6.50378619153669
21
1.47313844510471
31
0.000000000000000
  0
LINE
  5
F104D0
330
F104D1
100
AcDbEntity
8
Geo
100
AcDbLine
10
-6.50378619153669
20
1.47313844510471
30
0.000000000000000
11
-6.40378619153669
21
1.47557867555242
31
0.000000000000000
  0
LINE
  5
F104D2
330
F104D3
100
AcDbEntity
8
Geo
100
AcDbLine
10
-6.40378619153669
20
1.47557867555242
30
0.000000000000000
11
-6.30378619153669
21
1.47787354355297
31
0.000000000000000
  0
LINE
  5
F104D4
330
F104D5
100
AcDbEntity
8
Geo
100
AcDbLine
10
-6.30378619153669
20
1.47787354355297
30
0.000000000000000
11
-6.20378619153669
21
1.48002303946376
31
0.000000000000000
  0
LINE
  5
F104D6
330
F104D7
100
AcDbEntity
8
Geo
100
AcDbLine
10
-6.20378619153669
20
1.48002303946376
30
0.000000000000000
11
-6.10378619153669
21
1.48202715485622
31
0.000000000000000
  0
LINE
  5
F104D8
330
F104D9
100
AcDbEntity
8
Geo
100
AcDbLine
10
-6.10378619153669
20
1.48202715485622
30
0.000000000000000
11
-6.00378619153669
21
1.48388588239744
31
0.000000000000000
  0
LINE
  5
F104DA
330
F104DB
100
AcDbEntity
8
Geo
100
AcDbLine
10
-6.00378619153669
20
1.48388588239744
30
0.000000000000000
11
-5.90378619153669
21
1.48559921573982
31
0.000000000000000
  0
LINE
  5
F104DC
330
F104DD
100
AcDbEntity
8
Geo
100
AcDbLine
10
-5.90378619153669
20
1.48559921573982
30
0.000000000000000
11
-5.80378619153669
21
1.48716714941866
31
0.000000000000000
  0
LINE
  5
F104DE
330
F104DF
100
AcDbEntity
8
Geo
100
AcDbLine
10
-5.80378619153669
20
1.48716714941866
30
0.000000000000000
11
-5.70378619153669
21
1.48858967875787
31
0.000000000000000
  0
LINE
  5
F104E0
330
F104E1
100
AcDbEntity
8
Geo
100
AcDbLine
10
-5.70378619153669
20
1.48858967875787
30
0.000000000000000
11
-5.60378619153669
21
1.48986679978355
31
0.000000000000000
  0
LINE
  5
F104E2
330
F104E3
100
AcDbEntity
8
Geo
100
AcDbLine
10
-5.60378619153669
20
1.48986679978355
30
0.000000000000000
11
-5.50378619153669
21
1.49099850914569
31
0.000000000000000
  0
LINE
  5
F104E4
330
F104E5
100
AcDbEntity
8
Geo
100
AcDbLine
10
-5.50378619153669
20
1.49099850914569
30
0.000000000000000
11
-5.40378619153669
21
1.49198480404781
31
0.000000000000000
  0
LINE
  5
F104E6
330
F104E7
100
AcDbEntity
8
Geo
100
AcDbLine
10
-5.40378619153669
20
1.49198480404781
30
0.000000000000000
11
-5.30378619153669
21
1.49282568218462
31
0.000000000000000
  0
LINE
  5
F104E8
330
F104E9
100
AcDbEntity
8
Geo
100
AcDbLine
10
-5.30378619153669
20
1.49282568218462
30
0.000000000000000
11
-5.20378619153669
21
1.49352114168772
31
0.000000000000000
  0
LINE
  5
F104EA
330
F104EB
100
AcDbEntity
8
Geo
100
AcDbLine
10
-17.7037861915367
20
4.02004425119117
30
0.000000000000000
11
-17.6037861915367
21
4.01886130674876
31
0.000000000000000
  0
LINE
  5
F104EC
330
F104ED
100
AcDbEntity
8
Geo
100
AcDbLine
10
-17.6037861915367
20
4.01886130674876
30
0.000000000000000
11
-17.5037861915367
21
4.01523808761343
31
0.000000000000000
  0
LINE
  5
F104EE
330
F104EF
100
AcDbEntity
8
Geo
100
AcDbLine
10
-17.5037861915367
20
4.01523808761343
30
0.000000000000000
11
-17.4037861915367
21
4.00917813211986
31
0.000000000000000
  0
LINE
  5
F104F0
330
F104F1
100
AcDbEntity
8
Geo
100
AcDbLine
10
-17.4037861915367
20
4.00917813211986
30
0.000000000000000
11
-17.3037861915367
21
4.00068735825140
31
0.000000000000000
  0
LINE
  5
F104F2
330
F104F3
100
AcDbEntity
8
Geo
100
AcDbLine
10
-17.3037861915367
20
4.00068735825140
30
0.000000000000000
11
-17.2037861915367
21
3.98977405786078
31
0.000000000000000
  0
LINE
  5
F104F4
330
F104F5
100
AcDbEntity
8
Geo
100
AcDbLine
10
-17.2037861915367
20
3.98977405786078
30
0.000000000000000
11
-17.1037861915367
21
3.97644888857251
31
0.000000000000000
  0
LINE
  5
F104F6
330
F104F7
100
AcDbEntity
8
Geo
100
AcDbLine
10
-17.1037861915367
20
3.97644888857251
30
0.000000000000000
11
-17.0037861915367
21
3.96072486337491
31
0.000000000000000
  0
LINE
  5
F104F8
330
F104F9
100
AcDbEntity
8
Geo
100
AcDbLine
10
-17.0037861915367
20
3.96072486337491
30
0.000000000000000
11
-16.9037861915367
21
3.94261733791203
31
0.000000000000000
  0
LINE
  5
F104FA
330
F104FB
100
AcDbEntity
8
Geo
100
AcDbLine
10
-16.9037861915367
20
3.94261733791203
30
0.000000000000000
11
-16.8037861915367
21
3.92214399548775
31
0.000000000000000
  0
LINE
  5
F104FC
330
F104FD
100
AcDbEntity
8
Geo
100
AcDbLine
10
-16.8037861915367
20
3.92214399548775
30
0.000000000000000
11
-16.7037861915367
21
3.89932482979673
31
0.000000000000000
  0
LINE
  5
F104FE
330
F104FF
100
AcDbEntity
8
Geo
100
AcDbLine
10
-16.7037861915367
20
3.89932482979673
30
0.000000000000000
11
-16.6037861915367
21
3.87418212539916
31
0.000000000000000
  0
LINE
  5
F10500
330
F10501
100
AcDbEntity
8
Geo
100
AcDbLine
10
-16.6037861915367
20
3.87418212539916
30
0.000000000000000
11
-16.5037861915367
21
3.84674043595825
31
0.000000000000000
  0
LINE
  5
F10502
330
F10503
100
AcDbEntity
8
Geo
100
AcDbLine
10
-16.5037861915367
20
3.84674043595825
30
0.000000000000000
11
-16.4037861915367
21
3.81702656026184
31
0.000000000000000
  0
LINE
  5
F10504
330
F10505
100
AcDbEntity
8
Geo
100
AcDbLine
10
-16.4037861915367
20
3.81702656026184
30
0.000000000000000
11
-16.3037861915367
21
3.78506951605143
31
0.000000000000000
  0
LINE
  5
F10506
330
F10507
100
AcDbEntity
8
Geo
100
AcDbLine
10
-16.3037861915367
20
3.78506951605143
30
0.000000000000000
11
-16.2037861915367
21
3.75090051168425
31
0.000000000000000
  0
LINE
  5
F10508
330
F10509
100
AcDbEntity
8
Geo
100
AcDbLine
10
-16.2037861915367
20
3.75090051168425
30
0.000000000000000
11
-16.1037861915367
21
3.71455291565611
31
0.000000000000000
  0
LINE
  5
F1050A
330
F1050B
100
AcDbEntity
8
Geo
100
AcDbLine
10
-16.1037861915367
20
3.71455291565611
30
0.000000000000000
11
-16.0037861915367
21
3.67606222401459
31
0.000000000000000
  0
LINE
  5
F1050C
330
F1050D
100
AcDbEntity
8
Geo
100
AcDbLine
10
-16.0037861915367
20
3.67606222401459
30
0.000000000000000
11
-15.9037861915367
21
3.63546602569461
31
0.000000000000000
  0
LINE
  5
F1050E
330
F1050F
100
AcDbEntity
8
Geo
100
AcDbLine
10
-15.9037861915367
20
3.63546602569461
30
0.000000000000000
11
-15.8037861915367
21
3.59280396581015
31
0.000000000000000
  0
LINE
  5
F10510
330
F10511
100
AcDbEntity
8
Geo
100
AcDbLine
10
-15.8037861915367
20
3.59280396581015
30
0.000000000000000
11
-15.7037861915367
21
3.54811770693793
31
0.000000000000000
  0
LINE
  5
F10512
330
F10513
100
AcDbEntity
8
Geo
100
AcDbLine
10
-15.7037861915367
20
3.54811770693793
30
0.000000000000000
11
-15.6037861915367
21
3.50145088843088
31
0.000000000000000
  0
LINE
  5
F10514
330
F10515
100
AcDbEntity
8
Geo
100
AcDbLine
10
-15.6037861915367
20
3.50145088843088
30
0.000000000000000
11
-15.5037861915367
21
3.45284908380117
31
0.000000000000000
  0
LINE
  5
F10516
330
F10517
100
AcDbEntity
8
Geo
100
AcDbLine
10
-15.5037861915367
20
3.45284908380117
30
0.000000000000000
11
-15.4037861915367
21
3.40235975621442
31
0.000000000000000
  0
LINE
  5
F10518
330
F10519
100
AcDbEntity
8
Geo
100
AcDbLine
10
-15.4037861915367
20
3.40235975621442
30
0.000000000000000
11
-15.3037861915367
21
3.35003221213846
31
0.000000000000000
  0
LINE
  5
F1051A
330
F1051B
100
AcDbEntity
8
Geo
100
AcDbLine
10
-15.3037861915367
20
3.35003221213846
30
0.000000000000000
11
-15.2037861915367
21
3.29591755319205
31
0.000000000000000
  0
LINE
  5
F1051C
330
F1051D
100
AcDbEntity
8
Geo
100
AcDbLine
10
-15.2037861915367
20
3.29591755319205
30
0.000000000000000
11
-15.1037861915367
21
3.24006862624040
31
0.000000000000000
  0
LINE
  5
F1051E
330
F1051F
100
AcDbEntity
8
Geo
100
AcDbLine
10
-15.1037861915367
20
3.24006862624040
30
0.000000000000000
11
-15.0037861915367
21
3.18253997178649
31
0.000000000000000
  0
LINE
  5
F10520
330
F10521
100
AcDbEntity
8
Geo
100
AcDbLine
10
-15.0037861915367
20
3.18253997178649
30
0.000000000000000
11
-14.9037861915367
21
3.12338777070825
31
0.000000000000000
  0
LINE
  5
F10522
330
F10523
100
AcDbEntity
8
Geo
100
AcDbLine
10
-14.9037861915367
20
3.12338777070825
30
0.000000000000000
11
-14.8037861915367
21
3.06266978939394
31
0.000000000000000
  0
LINE
  5
F10524
330
F10525
100
AcDbEntity
8
Geo
100
AcDbLine
10
-14.8037861915367
20
3.06266978939394
30
0.000000000000000
11
-14.7037861915367
21
3.00044532332907
31
0.000000000000000
  0
LINE
  5
F10526
330
F10527
100
AcDbEntity
8
Geo
100
AcDbLine
10
-14.7037861915367
20
3.00044532332907
30
0.000000000000000
11
-14.6037861915367
21
2.93677513919012
31
0.000000000000000
  0
LINE
  5
F10528
330
F10529
100
AcDbEntity
8
Geo
100
AcDbLine
10
-14.6037861915367
20
2.93677513919012
30
0.000000000000000
11
-14.5037861915367
21
2.87172141550148
31
0.000000000000000
  0
LINE
  5
F1052A
330
F1052B
100
AcDbEntity
8
Geo
100
AcDbLine
10
-14.5037861915367
20
2.87172141550148
30
0.000000000000000
11
-14.4037861915367
21
2.80534768191361
31
0.000000000000000
  0
LINE
  5
F1052C
330
F1052D
100
AcDbEntity
8
Geo
100
AcDbLine
10
-14.4037861915367
20
2.80534768191361
30
0.000000000000000
11
-14.3037861915367
21
2.73771875716183
31
0.000000000000000
  0
LINE
  5
F1052E
330
F1052F
100
AcDbEntity
8
Geo
100
AcDbLine
10
-14.3037861915367
20
2.73771875716183
30
0.000000000000000
11
-14.2037861915367
21
2.66890068576609
31
0.000000000000000
  0
LINE
  5
F10530
330
F10531
100
AcDbEntity
8
Geo
100
AcDbLine
10
-14.2037861915367
20
2.66890068576609
30
0.000000000000000
11
-14.1037861915367
21
2.59896067353375
31
0.000000000000000
  0
LINE
  5
F10532
330
F10533
100
AcDbEntity
8
Geo
100
AcDbLine
10
-14.1037861915367
20
2.59896067353375
30
0.000000000000000
11
-14.0037861915367
21
2.52796702192829
31
0.000000000000000
  0
LINE
  5
F10534
330
F10535
100
AcDbEntity
8
Geo
100
AcDbLine
10
-14.0037861915367
20
2.52796702192829
30
0.000000000000000
11
-13.9037861915367
21
2.45598906136797
31
0.000000000000000
  0
LINE
  5
F10536
330
F10537
100
AcDbEntity
8
Geo
100
AcDbLine
10
-13.9037861915367
20
2.45598906136797
30
0.000000000000000
11
-13.8037861915367
21
2.38309708351969
31
0.000000000000000
  0
LINE
  5
F10538
330
F10539
100
AcDbEntity
8
Geo
100
AcDbLine
10
-13.8037861915367
20
2.38309708351969
30
0.000000000000000
11
-13.7037861915367
21
2.30936227265415
31
0.000000000000000
  0
LINE
  5
F1053A
330
F1053B
100
AcDbEntity
8
Geo
100
AcDbLine
10
-13.7037861915367
20
2.30936227265415
30
0.000000000000000
11
-13.6037861915367
21
2.23485663612920
31
0.000000000000000
  0
LINE
  5
F1053C
330
F1053D
100
AcDbEntity
8
Geo
100
AcDbLine
10
-13.6037861915367
20
2.23485663612920
30
0.000000000000000
11
-13.5037861915367
21
2.15965293406956
31
0.000000000000000
  0
LINE
  5
F1053E
330
F1053F
100
AcDbEntity
8
Geo
100
AcDbLine
10
-13.5037861915367
20
2.15965293406956
30
0.000000000000000
11
-13.4037861915367
21
2.08382460831124
31
0.000000000000000
  0
LINE
  5
F10540
330
F10541
100
AcDbEntity
8
Geo
100
AcDbLine
10
-13.4037861915367
20
2.08382460831124
30
0.000000000000000
11
-13.3037861915367
21
2.00744571068030
31
0.000000000000000
  0
LINE
  5
F10542
330
F10543
100
AcDbEntity
8
Geo
100
AcDbLine
10
-13.3037861915367
20
2.00744571068030
30
0.000000000000000
11
-13.2037861915367
21
1.93059083067594
31
0.000000000000000
  0
LINE
  5
F10544
330
F10545
100
AcDbEntity
8
Geo
100
AcDbLine
10
-13.2037861915367
20
1.93059083067594
30
0.000000000000000
11
-13.1037861915367
21
1.85333502262846
31
0.000000000000000
  0
LINE
  5
F10546
330
F10547
100
AcDbEntity
8
Geo
100
AcDbLine
10
-13.1037861915367
20
1.85333502262846
30
0.000000000000000
11
-13.0037861915367
21
1.77575373240330
31
0.000000000000000
  0
LINE
  5
F10548
330
F10549
100
AcDbEntity
8
Geo
100
AcDbLine
10
-13.0037861915367
20
1.77575373240330
30
0.000000000000000
11
-12.9037861915367
21
1.69792272372268
31
0.000000000000000
  0
LINE
  5
F1054A
330
F1054B
100
AcDbEntity
8
Geo
100
AcDbLine
10
-12.9037861915367
20
1.69792272372268
30
0.000000000000000
11
-12.8037861915367
21
1.61991800417691
31
0.000000000000000
  0
LINE
  5
F1054C
330
F1054D
100
AcDbEntity
8
Geo
100
AcDbLine
10
-12.8037861915367
20
1.61991800417691
30
0.000000000000000
11
-12.7037861915367
21
1.54181575099750
31
0.000000000000000
  0
LINE
  5
F1054E
330
F1054F
100
AcDbEntity
8
Geo
100
AcDbLine
10
-12.7037861915367
20
1.54181575099750
30
0.000000000000000
11
-12.6037861915367
21
1.46369223666455
31
0.000000000000000
  0
LINE
  5
F10550
330
F10551
100
AcDbEntity
8
Geo
100
AcDbLine
10
-12.6037861915367
20
1.46369223666455
30
0.000000000000000
11
-12.5037861915367
21
1.38562375442122
31
0.000000000000000
  0
LINE
  5
F10552
330
F10553
100
AcDbEntity
8
Geo
100
AcDbLine
10
-12.5037861915367
20
1.38562375442122
30
0.000000000000000
11
-12.4037861915367
21
1.30768654376789
31
0.000000000000000
  0
LINE
  5
F10554
330
F10555
100
AcDbEntity
8
Geo
100
AcDbLine
10
-12.4037861915367
20
1.30768654376789
30
0.000000000000000
11
-12.3037861915367
21
1.22995671600875
31
0.000000000000000
  0
LINE
  5
F10556
330
F10557
100
AcDbEntity
8
Geo
100
AcDbLine
10
-12.3037861915367
20
1.22995671600875
30
0.000000000000000
11
-12.2037861915367
21
1.15251017992364
31
0.000000000000000
  0
LINE
  5
F10558
330
F10559
100
AcDbEntity
8
Geo
100
AcDbLine
10
-12.2037861915367
20
1.15251017992364
30
0.000000000000000
11
-12.1037861915367
21
1.07542256763766
31
0.000000000000000
  0
LINE
  5
F1055A
330
F1055B
100
AcDbEntity
8
Geo
100
AcDbLine
10
-12.1037861915367
20
1.07542256763766
30
0.000000000000000
11
-12.0037861915367
21
0.998769160760962
31
0.000000000000000
  0
LINE
  5
F1055C
330
F1055D
100
AcDbEntity
8
Geo
100
AcDbLine
10
-12.0037861915367
20
0.998769160760962
30
0.000000000000000
11
-11.9037861915367
21
0.922624816870810
31
0.000000000000000
  0
LINE
  5
F1055E
330
F1055F
100
AcDbEntity
8
Geo
100
AcDbLine
10
-11.9037861915367
20
0.922624816870810
30
0.000000000000000
11
-11.8037861915367
21
0.847063896407765
31
0.000000000000000
  0
LINE
  5
F10560
330
F10561
100
AcDbEntity
8
Geo
100
AcDbLine
10
-11.8037861915367
20
0.847063896407765
30
0.000000000000000
11
-11.7037861915367
21
0.772160190057361
31
0.000000000000000
  0
LINE
  5
F10562
330
F10563
100
AcDbEntity
8
Geo
100
AcDbLine
10
-11.7037861915367
20
0.772160190057361
30
0.000000000000000
11
-11.6037861915367
21
0.697986846688163
31
0.000000000000000
  0
LINE
  5
F10564
330
F10565
100
AcDbEntity
8
Geo
100
AcDbLine
10
-11.6037861915367
20
0.697986846688163
30
0.000000000000000
11
-11.5037861915367
21
0.624616301916653
31
0.000000000000000
  0
LINE
  5
F10566
330
F10567
100
AcDbEntity
8
Geo
100
AcDbLine
10
-11.5037861915367
20
0.624616301916653
30
0.000000000000000
11
-11.4037861915367
21
0.552120207368607
31
0.000000000000000
  0
LINE
  5
F10568
330
F10569
100
AcDbEntity
8
Geo
100
AcDbLine
10
-11.4037861915367
20
0.552120207368607
30
0.000000000000000
11
-11.3037861915367
21
0.480569360706133
31
0.000000000000000
  0
LINE
  5
F1056A
330
F1056B
100
AcDbEntity
8
Geo
100
AcDbLine
10
-11.3037861915367
20
0.480569360706133
30
0.000000000000000
11
-11.2037861915367
21
0.410033636488613
31
0.000000000000000
  0
LINE
  5
F1056C
330
F1056D
100
AcDbEntity
8
Geo
100
AcDbLine
10
-11.2037861915367
20
0.410033636488613
30
0.000000000000000
11
-11.2037861915367
21
0.410033636488593
31
0.000000000000000
  0
LINE
  5
F1056E
330
F1056F
100
AcDbEntity
8
Geo
100
AcDbLine
10
-11.2037861915367
20
0.410033636488593
30
0.000000000000000
11
-11.2037861915367
21
0.454434072766243
31
0.000000000000000
  0
LINE
  5
F10570
330
F10571
100
AcDbEntity
8
Geo
100
AcDbLine
10
-11.2037861915367
20
0.454434072766243
30
0.000000000000000
11
-11.2037861915367
21
0.410033636488593
31
0.000000000000000
  0
LINE
  5
F10572
330
F10573
100
AcDbEntity
8
Geo
100
AcDbLine
10
-11.2037861915367
20
0.410033636488593
30
0.000000000000000
11
-11.2037861915367
21
0.410033636488593
31
0.000000000000000
  0
LINE
  5
F10574
330
F10575
100
AcDbEntity
8
Geo
100
AcDbLine
10
-11.2037861915367
20
0.410033636488593
30
0.000000000000000
11
-11.1037861915367
21
0.380290692341043
31
0.000000000000000
  0
LINE
  5
F10576
330
F10577
100
AcDbEntity
8
Geo
100
AcDbLine
10
-11.1037861915367
20
0.380290692341043
30
0.000000000000000
11
-11.0037861915367
21
0.308655979291453
31
0.000000000000000
  0
LINE
  5
F10578
330
F10579
100
AcDbEntity
8
Geo
100
AcDbLine
10
-11.0037861915367
20
0.308655979291453
30
0.000000000000000
11
-10.9037861915367
21
0.239548102182863
31
0.000000000000000
  0
LINE
  5
F1057A
330
F1057B
100
AcDbEntity
8
Geo
100
AcDbLine
10
-10.9037861915367
20
0.239548102182863
30
0.000000000000000
11
-10.8037861915367
21
0.172976876394083
31
0.000000000000000
  0
LINE
  5
F1057C
330
F1057D
100
AcDbEntity
8
Geo
100
AcDbLine
10
-10.8037861915367
20
0.172976876394083
30
0.000000000000000
11
-10.7037861915367
21
0.108944242880303
31
0.000000000000000
  0
LINE
  5
F1057E
330
F1057F
100
AcDbEntity
8
Geo
100
AcDbLine
10
-10.7037861915367
20
0.108944242880303
30
0.000000000000000
11
-10.6037861915367
21
0.0474447454053930
31
0.000000000000000
  0
LINE
  5
F10580
330
F10581
100
AcDbEntity
8
Geo
100
AcDbLine
10
-10.6037861915367
20
0.0474447454053930
30
0.000000000000000
11
-10.5037861915367
21
-0.0115339958144669
31
0.000000000000000
  0
LINE
  5
F10582
330
F10583
100
AcDbEntity
8
Geo
100
AcDbLine
10
-10.5037861915367
20
-0.0115339958144669
30
0.000000000000000
11
-10.4037861915367
21
-0.0680108159224369
31
0.000000000000000
  0
LINE
  5
F10584
330
F10585
100
AcDbEntity
8
Geo
100
AcDbLine
10
-10.4037861915367
20
-0.0680108159224369
30
0.000000000000000
11
-10.3037861915367
21
-0.122010544368707
31
0.000000000000000
  0
LINE
  5
F10586
330
F10587
100
AcDbEntity
8
Geo
100
AcDbLine
10
-10.3037861915367
20
-0.122010544368707
30
0.000000000000000
11
-10.2037861915367
21
-0.173563552495847
31
0.000000000000000
  0
LINE
  5
F10588
330
F10589
100
AcDbEntity
8
Geo
100
AcDbLine
10
-10.2037861915367
20
-0.173563552495847
30
0.000000000000000
11
-10.1037861915367
21
-0.222705311091657
31
0.000000000000000
  0
LINE
  5
F1058A
330
F1058B
100
AcDbEntity
8
Geo
100
AcDbLine
10
-10.1037861915367
20
-0.222705311091657
30
0.000000000000000
11
-10.0037861915367
21
-0.269475959074737
31
0.000000000000000
  0
LINE
  5
F1058C
330
F1058D
100
AcDbEntity
8
Geo
100
AcDbLine
10
-10.0037861915367
20
-0.269475959074737
30
0.000000000000000
11
-9.90378619153669
21
-0.313919884321407
31
0.000000000000000
  0
LINE
  5
F1058E
330
F1058F
100
AcDbEntity
8
Geo
100
AcDbLine
10
-9.90378619153669
20
-0.313919884321407
30
0.000000000000000
11
-9.80378619153669
21
-0.356085317494257
31
0.000000000000000
  0
LINE
  5
F10590
330
F10591
100
AcDbEntity
8
Geo
100
AcDbLine
10
-9.80378619153669
20
-0.356085317494257
30
0.000000000000000
11
-9.70378619153669
21
-0.396023939592067
31
0.000000000000000
  0
LINE
  5
F10592
330
F10593
100
AcDbEntity
8
Geo
100
AcDbLine
10
-9.70378619153669
20
-0.396023939592067
30
0.000000000000000
11
-9.60378619153669
21
-0.433790503809187
31
0.000000000000000
  0
LINE
  5
F10594
330
F10595
100
AcDbEntity
8
Geo
100
AcDbLine
10
-9.60378619153669
20
-0.433790503809187
30
0.000000000000000
11
-9.50378619153669
21
-0.469442472168837
31
0.000000000000000
  0
LINE
  5
F10596
330
F10597
100
AcDbEntity
8
Geo
100
AcDbLine
10
-9.50378619153669
20
-0.469442472168837
30
0.000000000000000
11
-9.40378619153669
21
-0.503039667279377
31
0.000000000000000
  0
LINE
  5
F10598
330
F10599
100
AcDbEntity
8
Geo
100
AcDbLine
10
-9.40378619153669
20
-0.503039667279377
30
0.000000000000000
11
-9.30378619153669
21
-0.534643939455997
31
0.000000000000000
  0
LINE
  5
F1059A
330
F1059B
100
AcDbEntity
8
Geo
100
AcDbLine
10
-9.30378619153669
20
-0.534643939455997
30
0.000000000000000
11
-9.20378619153669
21
-0.564318849350917
31
0.000000000000000
  0
LINE
  5
F1059C
330
F1059D
100
AcDbEntity
8
Geo
100
AcDbLine
10
-9.20378619153669
20
-0.564318849350917
30
0.000000000000000
11
-9.10378619153669
21
-0.592129366144847
31
0.000000000000000
  0
LINE
  5
F1059E
330
F1059F
100
AcDbEntity
8
Geo
100
AcDbLine
10
-9.10378619153669
20
-0.592129366144847
30
0.000000000000000
11
-9.00378619153669
21
-0.618141581268757
31
0.000000000000000
  0
LINE
  5
F105A0
330
F105A1
100
AcDbEntity
8
Geo
100
AcDbLine
10
-9.00378619153669
20
-0.618141581268757
30
0.000000000000000
11
-8.90378619153669
21
-0.642422437549487
31
0.000000000000000
  0
LINE
  5
F105A2
330
F105A3
100
AcDbEntity
8
Geo
100
AcDbLine
10
-8.90378619153669
20
-0.642422437549487
30
0.000000000000000
11
-8.80378619153669
21
-0.665039473604597
31
0.000000000000000
  0
LINE
  5
F105A4
330
F105A5
100
AcDbEntity
8
Geo
100
AcDbLine
10
-8.80378619153669
20
-0.665039473604597
30
0.000000000000000
11
-8.70378619153669
21
-0.686060583249837
31
0.000000000000000
  0
LINE
  5
F105A6
330
F105A7
100
AcDbEntity
8
Geo
100
AcDbLine
10
-8.70378619153669
20
-0.686060583249837
30
0.000000000000000
11
-8.60378619153669
21
-0.705553789628167
31
0.000000000000000
  0
LINE
  5
F105A8
330
F105A9
100
AcDbEntity
8
Geo
100
AcDbLine
10
-8.60378619153669
20
-0.705553789628167
30
0.000000000000000
11
-8.50378619153669
21
-0.723587033720727
31
0.000000000000000
  0
LINE
  5
F105AA
330
F105AB
100
AcDbEntity
8
Geo
100
AcDbLine
10
-8.50378619153669
20
-0.723587033720727
30
0.000000000000000
11
-8.40378619153669
21
-0.740227976857787
31
0.000000000000000
  0
LINE
  5
F105AC
330
F105AD
100
AcDbEntity
8
Geo
100
AcDbLine
10
-8.40378619153669
20
-0.740227976857787
30
0.000000000000000
11
-8.30378619153669
21
-0.755543816810697
31
0.000000000000000
  0
LINE
  5
F105AE
330
F105AF
100
AcDbEntity
8
Geo
100
AcDbLine
10
-8.30378619153669
20
-0.755543816810697
30
0.000000000000000
11
-8.20378619153669
21
-0.769601117015097
31
0.000000000000000
  0
LINE
  5
F105B0
330
F105B1
100
AcDbEntity
8
Geo
100
AcDbLine
10
-8.20378619153669
20
-0.769601117015097
30
0.000000000000000
11
-8.10378619153669
21
-0.782465648448957
31
0.000000000000000
  0
LINE
  5
F105B2
330
F105B3
100
AcDbEntity
8
Geo
100
AcDbLine
10
-8.10378619153669
20
-0.782465648448957
30
0.000000000000000
11
-8.00378619153669
21
-0.794202243667677
31
0.000000000000000
  0
LINE
  5
F105B4
330
F105B5
100
AcDbEntity
8
Geo
100
AcDbLine
10
-8.00378619153669
20
-0.794202243667677
30
0.000000000000000
11
-7.90378619153669
21
-0.804874662481517
31
0.000000000000000
  0
LINE
  5
F105B6
330
F105B7
100
AcDbEntity
8
Geo
100
AcDbLine
10
-7.90378619153669
20
-0.804874662481517
30
0.000000000000000
11
-7.80378619153669
21
-0.814545468747597
31
0.000000000000000
  0
LINE
  5
F105B8
330
F105B9
100
AcDbEntity
8
Geo
100
AcDbLine
10
-7.80378619153669
20
-0.814545468747597
30
0.000000000000000
11
-7.70378619153669
21
-0.823275917739487
31
0.000000000000000
  0
LINE
  5
F105BA
330
F105BB
100
AcDbEntity
8
Geo
100
AcDbLine
10
-7.70378619153669
20
-0.823275917739487
30
0.000000000000000
11
-7.60378619153669
21
-0.831125853552137
31
0.000000000000000
  0
LINE
  5
F105BC
330
F105BD
100
AcDbEntity
8
Geo
100
AcDbLine
10
-7.60378619153669
20
-0.831125853552137
30
0.000000000000000
11
-7.50378619153669
21
-0.838153615997077
31
0.000000000000000
  0
LINE
  5
F105BE
330
F105BF
100
AcDbEntity
8
Geo
100
AcDbLine
10
-7.50378619153669
20
-0.838153615997077
30
0.000000000000000
11
-7.40378619153669
21
-0.844415956443827
31
0.000000000000000
  0
LINE
  5
F105C0
330
F105C1
100
AcDbEntity
8
Geo
100
AcDbLine
10
-7.40378619153669
20
-0.844415956443827
30
0.000000000000000
11
-7.30378619153669
21
-0.849967962066417
31
0.000000000000000
  0
LINE
  5
F105C2
330
F105C3
100
AcDbEntity
8
Geo
100
AcDbLine
10
-7.30378619153669
20
-0.849967962066417
30
0.000000000000000
11
-7.20378619153669
21
-0.854862987959967
31
0.000000000000000
  0
LINE
  5
F105C4
330
F105C5
100
AcDbEntity
8
Geo
100
AcDbLine
10
-7.20378619153669
20
-0.854862987959967
30
0.000000000000000
11
-7.10378619153669
21
-0.859152596600017
31
0.000000000000000
  0
LINE
  5
F105C6
330
F105C7
100
AcDbEntity
8
Geo
100
AcDbLine
10
-7.10378619153669
20
-0.859152596600017
30
0.000000000000000
11
-7.00378619153669
21
-0.862886504127327
31
0.000000000000000
  0
LINE
  5
F105C8
330
F105C9
100
AcDbEntity
8
Geo
100
AcDbLine
10
-7.00378619153669
20
-0.862886504127327
30
0.000000000000000
11
-6.90378619153669
21
-0.866112532952587
31
0.000000000000000
  0
LINE
  5
F105CA
330
F105CB
100
AcDbEntity
8
Geo
100
AcDbLine
10
-6.90378619153669
20
-0.866112532952587
30
0.000000000000000
11
-6.80378619153669
21
-0.868876570189017
31
0.000000000000000
  0
LINE
  5
F105CC
330
F105CD
100
AcDbEntity
8
Geo
100
AcDbLine
10
-6.80378619153669
20
-0.868876570189017
30
0.000000000000000
11
-6.70378619153669
21
-0.871222531435107
31
0.000000000000000
  0
LINE
  5
F105CE
330
F105CF
100
AcDbEntity
8
Geo
100
AcDbLine
10
-6.70378619153669
20
-0.871222531435107
30
0.000000000000000
11
-6.60378619153669
21
-0.873192329446257
31
0.000000000000000
  0
LINE
  5
F105D0
330
F105D1
100
AcDbEntity
8
Geo
100
AcDbLine
10
-6.60378619153669
20
-0.873192329446257
30
0.000000000000000
11
-6.50378619153669
21
-0.874825847250767
31
0.000000000000000
  0
LINE
  5
F105D2
330
F105D3
100
AcDbEntity
8
Geo
100
AcDbLine
10
-6.50378619153669
20
-0.874825847250767
30
0.000000000000000
11
-6.40378619153669
21
-0.876160915283817
31
0.000000000000000
  0
LINE
  5
F105D4
330
F105D5
100
AcDbEntity
8
Geo
100
AcDbLine
10
-6.40378619153669
20
-0.876160915283817
30
0.000000000000000
11
-6.30378619153669
21
-0.877233292131737
31
0.000000000000000
  0
LINE
  5
F105D6
330
F105D7
100
AcDbEntity
8
Geo
100
AcDbLine
10
-6.30378619153669
20
-0.877233292131737
30
0.000000000000000
11
-6.20378619153669
21
-0.878076648498527
31
0.000000000000000
  0
LINE
  5
F105D8
330
F105D9
100
AcDbEntity
8
Geo
100
AcDbLine
10
-6.20378619153669
20
-0.878076648498527
30
0.000000000000000
11
-6.10378619153669
21
-0.878722554026597
31
0.000000000000000
  0
LINE
  5
F105DA
330
F105DB
100
AcDbEntity
8
Geo
100
AcDbLine
10
-6.10378619153669
20
-0.878722554026597
30
0.000000000000000
11
-6.00378619153669
21
-0.879200466624167
31
0.000000000000000
  0
LINE
  5
F105DC
330
F105DD
100
AcDbEntity
8
Geo
100
AcDbLine
10
-6.00378619153669
20
-0.879200466624167
30
0.000000000000000
11
-5.90378619153669
21
-0.879537723972997
31
0.000000000000000
  0
LINE
  5
F105DE
330
F105DF
100
AcDbEntity
8
Geo
100
AcDbLine
10
-5.90378619153669
20
-0.879537723972997
30
0.000000000000000
11
-5.80378619153669
21
-0.879759536911167
31
0.000000000000000
  0
LINE
  5
F105E0
330
F105E1
100
AcDbEntity
8
Geo
100
AcDbLine
10
-5.80378619153669
20
-0.879759536911167
30
0.000000000000000
11
-5.70378619153669
21
-0.879888984407317
31
0.000000000000000
  0
LINE
  5
F105E2
330
F105E3
100
AcDbEntity
8
Geo
100
AcDbLine
10
-5.70378619153669
20
-0.879888984407317
30
0.000000000000000
11
-5.60378619153669
21
-0.879947009864657
31
0.000000000000000
  0
LINE
  5
F105E4
330
F105E5
100
AcDbEntity
8
Geo
100
AcDbLine
10
-21.7037861915367
20
4.02002340226003
30
0.000000000000000
11
-21.6037861915367
21
4.01912395087091
31
0.000000000000000
  0
LINE
  5
F105E6
330
F105E7
100
AcDbEntity
8
Geo
100
AcDbLine
10
-21.6037861915367
20
4.01912395087091
30
0.000000000000000
11
-21.5037861915367
21
4.01578396829796
31
0.000000000000000
  0
LINE
  5
F105E8
330
F105E9
100
AcDbEntity
8
Geo
100
AcDbLine
10
-21.5037861915367
20
4.01578396829796
30
0.000000000000000
11
-21.4037861915367
21
4.01000671627492
31
0.000000000000000
  0
LINE
  5
F105EA
330
F105EB
100
AcDbEntity
8
Geo
100
AcDbLine
10
-21.4037861915367
20
4.01000671627492
30
0.000000000000000
11
-21.3037861915367
21
4.00179783670485
31
0.000000000000000
  0
LINE
  5
F105EC
330
F105ED
100
AcDbEntity
8
Geo
100
AcDbLine
10
-21.3037861915367
20
4.00179783670485
30
0.000000000000000
11
-21.2037861915367
21
3.99116534615035
31
0.000000000000000
  0
LINE
  5
F105EE
330
F105EF
100
AcDbEntity
8
Geo
100
AcDbLine
10
-21.2037861915367
20
3.99116534615035
30
0.000000000000000
11
-21.1037861915367
21
3.97811962800490
31
0.000000000000000
  0
LINE
  5
F105F0
330
F105F1
100
AcDbEntity
8
Geo
100
AcDbLine
10
-21.1037861915367
20
3.97811962800490
30
0.000000000000000
11
-21.0037861915367
21
3.96267342235263
31
0.000000000000000
  0
LINE
  5
F105F2
330
F105F3
100
AcDbEntity
8
Geo
100
AcDbLine
10
-21.0037861915367
20
3.96267342235263
30
0.000000000000000
11
-20.9037861915367
21
3.94484181352679
31
0.000000000000000
  0
LINE
  5
F105F4
330
F105F5
100
AcDbEntity
8
Geo
100
AcDbLine
10
-20.9037861915367
20
3.94484181352679
30
0.000000000000000
11
-20.8037861915367
21
3.92464221537875
31
0.000000000000000
  0
LINE
  5
F105F6
330
F105F7
100
AcDbEntity
8
Geo
100
AcDbLine
10
-20.8037861915367
20
3.92464221537875
30
0.000000000000000
11
-20.7037861915367
21
3.90209435427217
31
0.000000000000000
  0
LINE
  5
F105F8
330
F105F9
100
AcDbEntity
8
Geo
100
AcDbLine
10
-20.7037861915367
20
3.90209435427217
30
0.000000000000000
11
-20.6037861915367
21
3.87722024981875
31
0.000000000000000
  0
LINE
  5
F105FA
330
F105FB
100
AcDbEntity
8
Geo
100
AcDbLine
10
-20.6037861915367
20
3.87722024981875
30
0.000000000000000
11
-20.5037861915367
21
3.85004419337450
31
0.000000000000000
  0
LINE
  5
F105FC
330
F105FD
100
AcDbEntity
8
Geo
100
AcDbLine
10
-20.5037861915367
20
3.85004419337450
30
0.000000000000000
11
-20.4037861915367
21
3.82059272431749
31
0.000000000000000
  0
LINE
  5
F105FE
330
F105FF
100
AcDbEntity
8
Geo
100
AcDbLine
10
-20.4037861915367
20
3.82059272431749
30
0.000000000000000
11
-20.3037861915367
21
3.78889460413021
31
0.000000000000000
  0
LINE
  5
F10600
330
F10601
100
AcDbEntity
8
Geo
100
AcDbLine
10
-20.3037861915367
20
3.78889460413021
30
0.000000000000000
11
-20.2037861915367
21
3.75498078831193
31
0.000000000000000
  0
LINE
  5
F10602
330
F10603
100
AcDbEntity
8
Geo
100
AcDbLine
10
-20.2037861915367
20
3.75498078831193
30
0.000000000000000
11
-20.1037861915367
21
3.71888439614845
31
0.000000000000000
  0
LINE
  5
F10604
330
F10605
100
AcDbEntity
8
Geo
100
AcDbLine
10
-20.1037861915367
20
3.71888439614845
30
0.000000000000000
11
-20.0037861915367
21
3.68064067836864
31
0.000000000000000
  0
LINE
  5
F10606
330
F10607
100
AcDbEntity
8
Geo
100
AcDbLine
10
-20.0037861915367
20
3.68064067836864
30
0.000000000000000
11
-19.9037861915367
21
3.64028698271968
31
0.000000000000000
  0
LINE
  5
F10608
330
F10609
100
AcDbEntity
8
Geo
100
AcDbLine
10
-19.9037861915367
20
3.64028698271968
30
0.000000000000000
11
-19.8037861915367
21
3.59786271749419
31
0.000000000000000
  0
LINE
  5
F1060A
330
F1060B
100
AcDbEntity
8
Geo
100
AcDbLine
10
-19.8037861915367
20
3.59786271749419
30
0.000000000000000
11
-19.7037861915367
21
3.55340931304527
31
0.000000000000000
  0
LINE
  5
F1060C
330
F1060D
100
AcDbEntity
8
Geo
100
AcDbLine
10
-19.7037861915367
20
3.55340931304527
30
0.000000000000000
11
-19.6037861915367
21
3.50697018132671
31
0.000000000000000
  0
LINE
  5
F1060E
330
F1060F
100
AcDbEntity
8
Geo
100
AcDbLine
10
-19.6037861915367
20
3.50697018132671
30
0.000000000000000
11
-19.5037861915367
21
3.45859067349813
31
0.000000000000000
  0
LINE
  5
F10610
330
F10611
100
AcDbEntity
8
Geo
100
AcDbLine
10
-19.5037861915367
20
3.45859067349813
30
0.000000000000000
11
-19.4037861915367
21
3.40831803563630
31
0.000000000000000
  0
LINE
  5
F10612
330
F10613
100
AcDbEntity
8
Geo
100
AcDbLine
10
-19.4037861915367
20
3.40831803563630
30
0.000000000000000
11
-19.3037861915367
21
3.35620136259591
31
0.000000000000000
  0
LINE
  5
F10614
330
F10615
100
AcDbEntity
8
Geo
100
AcDbLine
10
-19.3037861915367
20
3.35620136259591
30
0.000000000000000
11
-19.2037861915367
21
3.30229155006495
31
0.000000000000000
  0
LINE
  5
F10616
330
F10617
100
AcDbEntity
8
Geo
100
AcDbLine
10
-19.2037861915367
20
3.30229155006495
30
0.000000000000000
11
-19.1037861915367
21
3.24664124486135
31
0.000000000000000
  0
LINE
  5
F10618
330
F10619
100
AcDbEntity
8
Geo
100
AcDbLine
10
-19.1037861915367
20
3.24664124486135
30
0.000000000000000
11
-19.0037861915367
21
3.18930479351962
31
0.000000000000000
  0
LINE
  5
F1061A
330
F1061B
100
AcDbEntity
8
Geo
100
AcDbLine
10
-19.0037861915367
20
3.18930479351962
30
0.000000000000000
11
-18.9037861915367
21
3.13033818921752
31
0.000000000000000
  0
LINE
  5
F1061C
330
F1061D
100
AcDbEntity
8
Geo
100
AcDbLine
10
-18.9037861915367
20
3.13033818921752
30
0.000000000000000
11
-18.8037861915367
21
3.06979901709465
31
0.000000000000000
  0
LINE
  5
F1061E
330
F1061F
100
AcDbEntity
8
Geo
100
AcDbLine
10
-18.8037861915367
20
3.06979901709465
30
0.000000000000000
11
-18.7037861915367
21
3.00774639801648
31
0.000000000000000
  0
LINE
  5
F10620
330
F10621
100
AcDbEntity
8
Geo
100
AcDbLine
10
-18.7037861915367
20
3.00774639801648
30
0.000000000000000
11
-18.6037861915367
21
2.94424093083851
31
0.000000000000000
  0
LINE
  5
F10622
330
F10623
100
AcDbEntity
8
Geo
100
AcDbLine
10
-18.6037861915367
20
2.94424093083851
30
0.000000000000000
11
-18.5037861915367
21
2.87934463322713
31
0.000000000000000
  0
LINE
  5
F10624
330
F10625
100
AcDbEntity
8
Geo
100
AcDbLine
10
-18.5037861915367
20
2.87934463322713
30
0.000000000000000
11
-18.4037861915367
21
2.81312088109492
31
0.000000000000000
  0
LINE
  5
F10626
330
F10627
100
AcDbEntity
8
Geo
100
AcDbLine
10
-18.4037861915367
20
2.81312088109492
30
0.000000000000000
11
-18.3037861915367
21
2.74563434670948
31
0.000000000000000
  0
LINE
  5
F10628
330
F10629
100
AcDbEntity
8
Geo
100
AcDbLine
10
-18.3037861915367
20
2.74563434670948
30
0.000000000000000
11
-18.2037861915367
21
2.67695093553629
31
0.000000000000000
  0
LINE
  5
F1062A
330
F1062B
100
AcDbEntity
8
Geo
100
AcDbLine
10
-18.2037861915367
20
2.67695093553629
30
0.000000000000000
11
-18.1037861915367
21
2.60713772187732
31
0.000000000000000
  0
LINE
  5
F1062C
330
F1062D
100
AcDbEntity
8
Geo
100
AcDbLine
10
-18.1037861915367
20
2.60713772187732
30
0.000000000000000
11
-18.0037861915367
21
2.53626288336809
31
0.000000000000000
  0
LINE
  5
F1062E
330
F1062F
100
AcDbEntity
8
Geo
100
AcDbLine
10
-18.0037861915367
20
2.53626288336809
30
0.000000000000000
11
-17.9037861915367
21
2.46439563439730
31
0.000000000000000
  0
LINE
  5
F10630
330
F10631
100
AcDbEntity
8
Geo
100
AcDbLine
10
-17.9037861915367
20
2.46439563439730
30
0.000000000000000
11
-17.8037861915367
21
2.39160615851402
31
0.000000000000000
  0
LINE
  5
F10632
330
F10633
100
AcDbEntity
8
Geo
100
AcDbLine
10
-17.8037861915367
20
2.39160615851402
30
0.000000000000000
11
-17.7037861915367
21
2.31796553988838
31
0.000000000000000
  0
LINE
  5
F10634
330
F10635
100
AcDbEntity
8
Geo
100
AcDbLine
10
-17.7037861915367
20
2.31796553988838
30
0.000000000000000
11
-17.6037861915367
21
2.24354569389273
31
0.000000000000000
  0
LINE
  5
F10636
330
F10637
100
AcDbEntity
8
Geo
100
AcDbLine
10
-17.6037861915367
20
2.24354569389273
30
0.000000000000000
11
-17.5037861915367
21
2.16841929687115
31
0.000000000000000
  0
LINE
  5
F10638
330
F10639
100
AcDbEntity
8
Geo
100
AcDbLine
10
-17.5037861915367
20
2.16841929687115
30
0.000000000000000
11
-17.4037861915367
21
2.09265971516568
31
0.000000000000000
  0
LINE
  5
F1063A
330
F1063B
100
AcDbEntity
8
Geo
100
AcDbLine
10
-17.4037861915367
20
2.09265971516568
30
0.000000000000000
11
-17.3037861915367
21
2.01634093346890
31
0.000000000000000
  0
LINE
  5
F1063C
330
F1063D
100
AcDbEntity
8
Geo
100
AcDbLine
10
-17.3037861915367
20
2.01634093346890
30
0.000000000000000
11
-17.2037861915367
21
1.93953748257245
31
0.000000000000000
  0
LINE
  5
F1063E
330
F1063F
100
AcDbEntity
8
Geo
100
AcDbLine
10
-17.2037861915367
20
1.93953748257245
30
0.000000000000000
11
-17.1037861915367
21
1.86232436658239
31
0.000000000000000
  0
LINE
  5
F10640
330
F10641
100
AcDbEntity
8
Geo
100
AcDbLine
10
-17.1037861915367
20
1.86232436658239
30
0.000000000000000
11
-17.0037861915367
21
1.78477698967228
31
0.000000000000000
  0
LINE
  5
F10642
330
F10643
100
AcDbEntity
8
Geo
100
AcDbLine
10
-17.0037861915367
20
1.78477698967228
30
0.000000000000000
11
-16.9037861915367
21
1.70697108244558
31
0.000000000000000
  0
LINE
  5
F10644
330
F10645
100
AcDbEntity
8
Geo
100
AcDbLine
10
-16.9037861915367
20
1.70697108244558
30
0.000000000000000
11
-16.8037861915367
21
1.62898262797920
31
0.000000000000000
  0
LINE
  5
F10646
330
F10647
100
AcDbEntity
8
Geo
100
AcDbLine
10
-16.8037861915367
20
1.62898262797920
30
0.000000000000000
11
-16.7037861915367
21
1.55088778762061
31
0.000000000000000
  0
LINE
  5
F10648
330
F10649
100
AcDbEntity
8
Geo
100
AcDbLine
10
-16.7037861915367
20
1.55088778762061
30
0.000000000000000
11
-16.6037861915367
21
1.47276282661079
31
0.000000000000000
  0
LINE
  5
F1064A
330
F1064B
100
AcDbEntity
8
Geo
100
AcDbLine
10
-16.6037861915367
20
1.47276282661079
30
0.000000000000000
11
-16.5037861915367
21
1.39468403960567
31
0.000000000000000
  0
LINE
  5
F1064C
330
F1064D
100
AcDbEntity
8
Geo
100
AcDbLine
10
-16.5037861915367
20
1.39468403960567
30
0.000000000000000
11
-16.4037861915367
21
1.31672767616896
31
0.000000000000000
  0
LINE
  5
F1064E
330
F1064F
100
AcDbEntity
8
Geo
100
AcDbLine
10
-16.4037861915367
20
1.31672767616896
30
0.000000000000000
11
-16.3037861915367
21
1.23896986630893
31
0.000000000000000
  0
LINE
  5
F10650
330
F10651
100
AcDbEntity
8
Geo
100
AcDbLine
10
-16.3037861915367
20
1.23896986630893
30
0.000000000000000
11
-16.2037861915367
21
1.16148654613196
31
0.000000000000000
  0
LINE
  5
F10652
330
F10653
100
AcDbEntity
8
Geo
100
AcDbLine
10
-16.2037861915367
20
1.16148654613196
30
0.000000000000000
11
-16.1037861915367
21
1.08435338368548
31
0.000000000000000
  0
LINE
  5
F10654
330
F10655
100
AcDbEntity
8
Geo
100
AcDbLine
10
-16.1037861915367
20
1.08435338368548
30
0.000000000000000
11
-16.0037861915367
21
1.00764570506265
31
0.000000000000000
  0
LINE
  5
F10656
330
F10657
100
AcDbEntity
8
Geo
100
AcDbLine
10
-16.0037861915367
20
1.00764570506265
30
0.000000000000000
11
-15.9037861915367
21
0.931438420840991
31
0.000000000000000
  0
LINE
  5
F10658
330
F10659
100
AcDbEntity
8
Geo
100
AcDbLine
10
-15.9037861915367
20
0.931438420840991
30
0.000000000000000
11
-15.8037861915367
21
0.855805952926851
31
0.000000000000000
  0
LINE
  5
F1065A
330
F1065B
100
AcDbEntity
8
Geo
100
AcDbLine
10
-15.8037861915367
20
0.855805952926851
30
0.000000000000000
11
-15.7037861915367
21
0.780822161877003
31
0.000000000000000
  0
LINE
  5
F1065C
330
F1065D
100
AcDbEntity
8
Geo
100
AcDbLine
10
-15.7037861915367
20
0.780822161877003
30
0.000000000000000
11
-15.6037861915367
21
0.706560274768494
31
0.000000000000000
  0
LINE
  5
F1065E
330
F1065F
100
AcDbEntity
8
Geo
100
AcDbLine
10
-15.6037861915367
20
0.706560274768494
30
0.000000000000000
11
-15.5037861915367
21
0.633092813687149
31
0.000000000000000
  0
LINE
  5
F10660
330
F10661
100
AcDbEntity
8
Geo
100
AcDbLine
10
-15.5037861915367
20
0.633092813687149
30
0.000000000000000
11
-15.4037861915367
21
0.560491524904508
31
0.000000000000000
  0
LINE
  5
F10662
330
F10663
100
AcDbEntity
8
Geo
100
AcDbLine
10
-15.4037861915367
20
0.560491524904508
30
0.000000000000000
11
-15.3037861915367
21
0.488827308812423
31
0.000000000000000
  0
LINE
  5
F10664
330
F10665
100
AcDbEntity
8
Geo
100
AcDbLine
10
-15.3037861915367
20
0.488827308812423
30
0.000000000000000
11
-15.2037861915367
21
0.418170150683723
31
0.000000000000000
  0
LINE
  5
F10666
330
F10667
100
AcDbEntity
8
Geo
100
AcDbLine
10
-15.2037861915367
20
0.418170150683723
30
0.000000000000000
11
-15.1037861915367
21
0.348589052326533
31
0.000000000000000
  0
LINE
  5
F10668
330
F10669
100
AcDbEntity
8
Geo
100
AcDbLine
10
-15.1037861915367
20
0.348589052326533
30
0.000000000000000
11
-15.0037861915367
21
0.280151964699043
31
0.000000000000000
  0
LINE
  5
F1066A
330
F1066B
100
AcDbEntity
8
Geo
100
AcDbLine
10
-15.0037861915367
20
0.280151964699043
30
0.000000000000000
11
-14.9037861915367
21
0.212925721550523
31
0.000000000000000
  0
LINE
  5
F1066C
330
F1066D
100
AcDbEntity
8
Geo
100
AcDbLine
10
-14.9037861915367
20
0.212925721550523
30
0.000000000000000
11
-14.8037861915367
21
0.146975974153293
31
0.000000000000000
  0
LINE
  5
F1066E
330
F1066F
100
AcDbEntity
8
Geo
100
AcDbLine
10
-14.8037861915367
20
0.146975974153293
30
0.000000000000000
11
-14.7037861915367
21
0.0823671271896032
31
0.000000000000000
  0
LINE
  5
F10670
330
F10671
100
AcDbEntity
8
Geo
100
AcDbLine
10
-14.7037861915367
20
0.0823671271896032
30
0.000000000000000
11
-14.6037861915367
21
0.0191622758557231
31
0.000000000000000
  0
LINE
  5
F10672
330
F10673
100
AcDbEntity
8
Geo
100
AcDbLine
10
-14.6037861915367
20
0.0191622758557231
30
0.000000000000000
11
-14.5037861915367
21
-0.0425768557549768
31
0.000000000000000
  0
LINE
  5
F10674
330
F10675
100
AcDbEntity
8
Geo
100
AcDbLine
10
-14.5037861915367
20
-0.0425768557549768
30
0.000000000000000
11
-14.4037861915367
21
-0.102789974930117
31
0.000000000000000
  0
LINE
  5
F10676
330
F10677
100
AcDbEntity
8
Geo
100
AcDbLine
10
-14.4037861915367
20
-0.102789974930117
30
0.000000000000000
11
-14.3037861915367
21
-0.161418279218437
31
0.000000000000000
  0
LINE
  5
F10678
330
F10679
100
AcDbEntity
8
Geo
100
AcDbLine
10
-14.3037861915367
20
-0.161418279218437
30
0.000000000000000
11
-14.2037861915367
21
-0.218404513854657
31
0.000000000000000
  0
LINE
  5
F1067A
330
F1067B
100
AcDbEntity
8
Geo
100
AcDbLine
10
-14.2037861915367
20
-0.218404513854657
30
0.000000000000000
11
-14.1037861915367
21
-0.273693027672907
31
0.000000000000000
  0
LINE
  5
F1067C
330
F1067D
100
AcDbEntity
8
Geo
100
AcDbLine
10
-14.1037861915367
20
-0.273693027672907
30
0.000000000000000
11
-14.0037861915367
21
-0.327229827454047
31
0.000000000000000
  0
LINE
  5
F1067E
330
F1067F
100
AcDbEntity
8
Geo
100
AcDbLine
10
-14.0037861915367
20
-0.327229827454047
30
0.000000000000000
11
-13.9037861915367
21
-0.378962630653967
31
0.000000000000000
  0
LINE
  5
F10680
330
F10681
100
AcDbEntity
8
Geo
100
AcDbLine
10
-13.9037861915367
20
-0.378962630653967
30
0.000000000000000
11
-13.8037861915367
21
-0.428840916461247
31
0.000000000000000
  0
LINE
  5
F10682
330
F10683
100
AcDbEntity
8
Geo
100
AcDbLine
10
-13.8037861915367
20
-0.428840916461247
30
0.000000000000000
11
-13.7037861915367
21
-0.476815975134407
31
0.000000000000000
  0
LINE
  5
F10684
330
F10685
100
AcDbEntity
8
Geo
100
AcDbLine
10
-13.7037861915367
20
-0.476815975134407
30
0.000000000000000
11
-13.6037861915367
21
-0.522840955570437
31
0.000000000000000
  0
LINE
  5
F10686
330
F10687
100
AcDbEntity
8
Geo
100
AcDbLine
10
-13.6037861915367
20
-0.522840955570437
30
0.000000000000000
11
-13.5037861915367
21
-0.566870911058297
31
0.000000000000000
  0
LINE
  5
F10688
330
F10689
100
AcDbEntity
8
Geo
100
AcDbLine
10
-13.5037861915367
20
-0.566870911058297
30
0.000000000000000
11
-13.4037861915367
21
-0.608862843172627
31
0.000000000000000
  0
LINE
  5
F1068A
330
F1068B
100
AcDbEntity
8
Geo
100
AcDbLine
10
-13.4037861915367
20
-0.608862843172627
30
0.000000000000000
11
-13.3037861915367
21
-0.648775743764787
31
0.000000000000000
  0
LINE
  5
F1068C
330
F1068D
100
AcDbEntity
8
Geo
100
AcDbLine
10
-13.3037861915367
20
-0.648775743764787
30
0.000000000000000
11
-13.2037861915367
21
-0.686570635010277
31
0.000000000000000
  0
LINE
  5
F1068E
330
F1068F
100
AcDbEntity
8
Geo
100
AcDbLine
10
-13.2037861915367
20
-0.686570635010277
30
0.000000000000000
11
-13.1037861915367
21
-0.722210607473407
31
0.000000000000000
  0
LINE
  5
F10690
330
F10691
100
AcDbEntity
8
Geo
100
AcDbLine
10
-13.1037861915367
20
-0.722210607473407
30
0.000000000000000
11
-13.0037861915367
21
-0.755660856152027
31
0.000000000000000
  0
LINE
  5
F10692
330
F10693
100
AcDbEntity
8
Geo
100
AcDbLine
10
-13.0037861915367
20
-0.755660856152027
30
0.000000000000000
11
-12.9037861915367
21
-0.786888714467077
31
0.000000000000000
  0
LINE
  5
F10694
330
F10695
100
AcDbEntity
8
Geo
100
AcDbLine
10
-12.9037861915367
20
-0.786888714467077
30
0.000000000000000
11
-12.8037861915367
21
-0.815863686163907
31
0.000000000000000
  0
LINE
  5
F10696
330
F10697
100
AcDbEntity
8
Geo
100
AcDbLine
10
-12.8037861915367
20
-0.815863686163907
30
0.000000000000000
11
-12.7037861915367
21
-0.842557475094027
31
0.000000000000000
  0
LINE
  5
F10698
330
F10699
100
AcDbEntity
8
Geo
100
AcDbLine
10
-12.7037861915367
20
-0.842557475094027
30
0.000000000000000
11
-12.6037861915367
21
-0.866944012848367
31
0.000000000000000
  0
LINE
  5
F1069A
330
F1069B
100
AcDbEntity
8
Geo
100
AcDbLine
10
-12.6037861915367
20
-0.866944012848367
30
0.000000000000000
11
-12.5037861915367
21
-0.888999484214957
31
0.000000000000000
  0
LINE
  5
F1069C
330
F1069D
100
AcDbEntity
8
Geo
100
AcDbLine
10
-12.5037861915367
20
-0.888999484214957
30
0.000000000000000
11
-12.4037861915367
21
-0.908702350436147
31
0.000000000000000
  0
LINE
  5
F1069E
330
F1069F
100
AcDbEntity
8
Geo
100
AcDbLine
10
-12.4037861915367
20
-0.908702350436147
30
0.000000000000000
11
-12.3037861915367
21
-0.926033370242837
31
0.000000000000000
  0
LINE
  5
F106A0
330
F106A1
100
AcDbEntity
8
Geo
100
AcDbLine
10
-12.3037861915367
20
-0.926033370242837
30
0.000000000000000
11
-12.2037861915367
21
-0.940975618644897
31
0.000000000000000
  0
LINE
  5
F106A2
330
F106A3
100
AcDbEntity
8
Geo
100
AcDbLine
10
-12.2037861915367
20
-0.940975618644897
30
0.000000000000000
11
-12.1037861915367
21
-0.953514503459677
31
0.000000000000000
  0
LINE
  5
F106A4
330
F106A5
100
AcDbEntity
8
Geo
100
AcDbLine
10
-12.1037861915367
20
-0.953514503459677
30
0.000000000000000
11
-12.0037861915367
21
-0.963637779562307
31
0.000000000000000
  0
LINE
  5
F106A6
330
F106A7
100
AcDbEntity
8
Geo
100
AcDbLine
10
-12.0037861915367
20
-0.963637779562307
30
0.000000000000000
11
-11.9037861915367
21
-0.971335560843947
31
0.000000000000000
  0
LINE
  5
F106A8
330
F106A9
100
AcDbEntity
8
Geo
100
AcDbLine
10
-11.9037861915367
20
-0.971335560843947
30
0.000000000000000
11
-11.8037861915367
21
-0.976600329866297
31
0.000000000000000
  0
LINE
  5
F106AA
330
F106AB
100
AcDbEntity
8
Geo
100
AcDbLine
10
-11.8037861915367
20
-0.976600329866297
30
0.000000000000000
11
-11.7037861915367
21
-0.979426945202907
31
0.000000000000000
  0
LINE
  5
F106AC
330
F106AD
100
AcDbEntity
8
Geo
100
AcDbLine
10
-24.2037861915367
20
2.98486648953580
30
0.000000000000000
11
-24.1037861915367
21
2.95282066707222
31
0.000000000000000
  0
LINE
  5
F106AE
330
F106AF
100
AcDbEntity
8
Geo
100
AcDbLine
10
-24.2037861915367
20
-0.399735373018557
30
0.000000000000000
11
-24.1037861915367
21
-0.484662432960117
31
0.000000000000000
  0
LINE
  5
F106B0
330
F106B1
100
AcDbEntity
8
Geo
100
AcDbLine
10
-24.1037861915367
20
2.95282066707222
30
0.000000000000000
11
-24.0037861915367
21
2.88948131001361
31
0.000000000000000
  0
LINE
  5
F106B2
330
F106B3
100
AcDbEntity
8
Geo
100
AcDbLine
10
-24.1037861915367
20
-0.484662432960117
30
0.000000000000000
11
-24.0037861915367
21
-0.528452570064547
31
0.000000000000000
  0
LINE
  5
F106B4
330
F106B5
100
AcDbEntity
8
Geo
100
AcDbLine
10
-24.0037861915367
20
2.88948131001361
30
0.000000000000000
11
-23.9037861915367
21
2.82480459923859
31
0.000000000000000
  0
LINE
  5
F106B6
330
F106B7
100
AcDbEntity
8
Geo
100
AcDbLine
10
-24.0037861915367
20
-0.528452570064547
30
0.000000000000000
11
-23.9037861915367
21
-0.570242202074757
31
0.000000000000000
  0
LINE
  5
F106B8
330
F106B9
100
AcDbEntity
8
Geo
100
AcDbLine
10
-23.9037861915367
20
2.82480459923859
30
0.000000000000000
11
-23.8037861915367
21
2.75885369621738
31
0.000000000000000
  0
LINE
  5
F106BA
330
F106BB
100
AcDbEntity
8
Geo
100
AcDbLine
10
-23.9037861915367
20
-0.570242202074757
30
0.000000000000000
11
-23.8037861915367
21
-0.609990518402727
31
0.000000000000000
  0
LINE
  5
F106BC
330
F106BD
100
AcDbEntity
8
Geo
100
AcDbLine
10
-23.8037861915367
20
2.75885369621738
30
0.000000000000000
11
-23.7037861915367
21
2.69169300676072
31
0.000000000000000
  0
LINE
  5
F106BE
330
F106BF
100
AcDbEntity
8
Geo
100
AcDbLine
10
-23.8037861915367
20
-0.609990518402727
30
0.000000000000000
11
-23.7037861915367
21
-0.647658701952387
31
0.000000000000000
  0
LINE
  5
F106C0
330
F106C1
100
AcDbEntity
8
Geo
100
AcDbLine
10
-23.7037861915367
20
2.69169300676072
30
0.000000000000000
11
-23.6037861915367
21
2.62338811812308
31
0.000000000000000
  0
LINE
  5
F106C2
330
F106C3
100
AcDbEntity
8
Geo
100
AcDbLine
10
-23.7037861915367
20
-0.647658701952387
30
0.000000000000000
11
-23.6037861915367
21
-0.683209967027227
31
0.000000000000000
  0
LINE
  5
F106C4
330
F106C5
100
AcDbEntity
8
Geo
100
AcDbLine
10
-23.6037861915367
20
2.62338811812308
30
0.000000000000000
11
-23.5037861915367
21
2.55400573495184
31
0.000000000000000
  0
LINE
  5
F106C6
330
F106C7
100
AcDbEntity
8
Geo
100
AcDbLine
10
-23.6037861915367
20
-0.683209967027227
30
0.000000000000000
11
-23.5037861915367
21
-0.716609595254247
31
0.000000000000000
  0
LINE
  5
F106C8
330
F106C9
100
AcDbEntity
8
Geo
100
AcDbLine
10
-23.5037861915367
20
2.55400573495184
30
0.000000000000000
11
-23.4037861915367
21
2.48361361414552
31
0.000000000000000
  0
LINE
  5
F106CA
330
F106CB
100
AcDbEntity
8
Geo
100
AcDbLine
10
-23.5037861915367
20
-0.716609595254247
30
0.000000000000000
11
-23.4037861915367
21
-0.747824969488917
31
0.000000000000000
  0
LINE
  5
F106CC
330
F106CD
100
AcDbEntity
8
Geo
100
AcDbLine
10
-23.4037861915367
20
2.48361361414552
30
0.000000000000000
11
-23.3037861915367
21
2.41228049868418
31
0.000000000000000
  0
LINE
  5
F106CE
330
F106CF
100
AcDbEntity
8
Geo
100
AcDbLine
10
-23.4037861915367
20
-0.747824969488917
30
0.000000000000000
11
-23.3037861915367
21
-0.776825605668197
31
0.000000000000000
  0
LINE
  5
F106D0
330
F106D1
100
AcDbEntity
8
Geo
100
AcDbLine
10
-23.3037861915367
20
2.41228049868418
30
0.000000000000000
11
-23.2037861915367
21
2.34007605049702
31
0.000000000000000
  0
LINE
  5
F106D2
330
F106D3
100
AcDbEntity
8
Geo
100
AcDbLine
10
-23.3037861915367
20
-0.776825605668197
30
0.000000000000000
11
-23.2037861915367
21
-0.803583182580367
31
0.000000000000000
  0
LINE
  5
F106D4
330
F106D5
100
AcDbEntity
8
Geo
100
AcDbLine
10
-23.2037861915367
20
2.34007605049702
30
0.000000000000000
11
-23.1037861915367
21
2.26707078243245
31
0.000000000000000
  0
LINE
  5
F106D6
330
F106D7
100
AcDbEntity
8
Geo
100
AcDbLine
10
-23.2037861915367
20
-0.803583182580367
30
0.000000000000000
11
-23.1037861915367
21
-0.828071569522817
31
0.000000000000000
  0
LINE
  5
F106D8
330
F106D9
100
AcDbEntity
8
Geo
100
AcDbLine
10
-23.1037861915367
20
2.26707078243245
30
0.000000000000000
11
-23.0037861915367
21
2.19333598939720
31
0.000000000000000
  0
LINE
  5
F106DA
330
F106DB
100
AcDbEntity
8
Geo
100
AcDbLine
10
-23.1037861915367
20
-0.828071569522817
30
0.000000000000000
11
-23.0037861915367
21
-0.850266851820467
31
0.000000000000000
  0
LINE
  5
F106DC
330
F106DD
100
AcDbEntity
8
Geo
100
AcDbLine
10
-23.0037861915367
20
2.19333598939720
30
0.000000000000000
11
-22.9037861915367
21
2.11894367873175
31
0.000000000000000
  0
LINE
  5
F106DE
330
F106DF
100
AcDbEntity
8
Geo
100
AcDbLine
10
-23.0037861915367
20
-0.850266851820467
30
0.000000000000000
11
-22.9037861915367
21
-0.870147354180247
31
0.000000000000000
  0
LINE
  5
F106E0
330
F106E1
100
AcDbEntity
8
Geo
100
AcDbLine
10
-22.9037861915367
20
2.11894367873175
30
0.000000000000000
11
-22.8037861915367
21
2.04396649988990
31
0.000000000000000
  0
LINE
  5
F106E2
330
F106E3
100
AcDbEntity
8
Geo
100
AcDbLine
10
-22.9037861915367
20
-0.870147354180247
30
0.000000000000000
11
-22.8037861915367
21
-0.887693661858547
31
0.000000000000000
  0
LINE
  5
F106E4
330
F106E5
100
AcDbEntity
8
Geo
100
AcDbLine
10
-22.8037861915367
20
2.04396649988990
30
0.000000000000000
11
-22.7037861915367
21
1.96847767349144
31
0.000000000000000
  0
LINE
  5
F106E6
330
F106E7
100
AcDbEntity
8
Geo
100
AcDbLine
10
-22.8037861915367
20
-0.887693661858547
30
0.000000000000000
11
-22.7037861915367
21
-0.902888639621117
31
0.000000000000000
  0
LINE
  5
F106E8
330
F106E9
100
AcDbEntity
8
Geo
100
AcDbLine
10
-22.7037861915367
20
1.96847767349144
30
0.000000000000000
11
-22.6037861915367
21
1.89255091981682
31
0.000000000000000
  0
LINE
  5
F106EA
330
F106EB
100
AcDbEntity
8
Geo
100
AcDbLine
10
-22.7037861915367
20
-0.902888639621117
30
0.000000000000000
11
-22.6037861915367
21
-0.915717448476867
31
0.000000000000000
  0
LINE
  5
F106EC
330
F106ED
100
AcDbEntity
8
Geo
100
AcDbLine
10
-22.6037861915367
20
1.89255091981682
30
0.000000000000000
11
-22.5037861915367
21
1.81626038681409
31
0.000000000000000
  0
LINE
  5
F106EE
330
F106EF
100
AcDbEntity
8
Geo
100
AcDbLine
10
-22.6037861915367
20
-0.915717448476867
30
0.000000000000000
11
-22.5037861915367
21
-0.926167560169197
31
0.000000000000000
  0
LINE
  5
F106F0
330
F106F1
100
AcDbEntity
8
Geo
100
AcDbLine
10
-22.5037861915367
20
1.81626038681409
30
0.000000000000000
11
-22.4037861915367
21
1.73968057768801
31
0.000000000000000
  0
LINE
  5
F106F2
330
F106F3
100
AcDbEntity
8
Geo
100
AcDbLine
10
-22.5037861915367
20
-0.926167560169197
30
0.000000000000000
11
-22.4037861915367
21
-0.934228769410767
31
0.000000000000000
  0
LINE
  5
F106F4
330
F106F5
100
AcDbEntity
8
Geo
100
AcDbLine
10
-22.4037861915367
20
1.73968057768801
30
0.000000000000000
11
-22.3037861915367
21
1.66288627814234
31
0.000000000000000
  0
LINE
  5
F106F6
330
F106F7
100
AcDbEntity
8
Geo
100
AcDbLine
10
-22.4037861915367
20
-0.934228769410767
30
0.000000000000000
11
-22.3037861915367
21
-0.939893203849667
31
0.000000000000000
  0
LINE
  5
F106F8
330
F106F9
100
AcDbEntity
8
Geo
100
AcDbLine
10
-22.3037861915367
20
1.66288627814234
30
0.000000000000000
11
-22.2037861915367
21
1.58595248334618
31
0.000000000000000
  0
LINE
  5
F106FA
330
F106FB
100
AcDbEntity
8
Geo
100
AcDbLine
10
-22.3037861915367
20
-0.939893203849667
30
0.000000000000000
11
-22.2037861915367
21
-0.943155331757357
31
0.000000000000000
  0
LINE
  5
F106FC
330
F106FD
100
AcDbEntity
8
Geo
100
AcDbLine
10
-22.2037861915367
20
1.58595248334618
30
0.000000000000000
11
-22.1037861915367
21
1.50895432469582
31
0.000000000000000
  0
LINE
  5
F106FE
330
F106FF
100
AcDbEntity
8
Geo
100
AcDbLine
10
-22.1037861915367
20
1.50895432469582
30
0.000000000000000
11
-22.0037861915367
21
1.43196699644347
31
0.000000000000000
  0
LINE
  5
F10700
330
F10701
100
AcDbEntity
8
Geo
100
AcDbLine
10
-22.1037861915367
20
3.98410105429046
30
0.000000000000000
11
-22.0037861915367
21
3.98255136116315
31
0.000000000000000
  0
LINE
  5
F10702
330
F10703
100
AcDbEntity
8
Geo
100
AcDbLine
10
-22.0037861915367
20
1.43196699644347
30
0.000000000000000
11
-21.9037861915367
21
1.35506568226470
31
0.000000000000000
  0
LINE
  5
F10704
330
F10705
100
AcDbEntity
8
Geo
100
AcDbLine
10
-22.0037861915367
20
3.98255136116315
30
0.000000000000000
11
-21.9037861915367
21
3.97859685262215
31
0.000000000000000
  0
LINE
  5
F10706
330
F10707
100
AcDbEntity
8
Geo
100
AcDbLine
10
-21.9037861915367
20
1.35506568226470
30
0.000000000000000
11
-21.8037861915367
21
1.27832548183612
31
0.000000000000000
  0
LINE
  5
F10708
330
F10709
100
AcDbEntity
8
Geo
100
AcDbLine
10
-21.9037861915367
20
3.97859685262215
30
0.000000000000000
11
-21.8037861915367
21
3.97224139053010
31
0.000000000000000
  0
LINE
  5
F1070A
330
F1070B
100
AcDbEntity
8
Geo
100
AcDbLine
10
-21.8037861915367
20
1.27832548183612
30
0.000000000000000
11
-21.7037861915367
21
1.20182133749514
31
0.000000000000000
  0
LINE
  5
F1070C
330
F1070D
100
AcDbEntity
8
Geo
100
AcDbLine
10
-21.8037861915367
20
3.97224139053010
30
0.000000000000000
11
-21.7037861915367
21
3.96349118145386
31
0.000000000000000
  0
LINE
  5
F1070E
330
F1070F
100
AcDbEntity
8
Geo
100
AcDbLine
10
-21.7037861915367
20
1.20182133749514
30
0.000000000000000
11
-21.6037861915367
21
1.12562796105341
31
0.000000000000000
  0
LINE
  5
F10710
330
F10711
100
AcDbEntity
8
Geo
100
AcDbLine
10
-21.7037861915367
20
3.96349118145386
30
0.000000000000000
11
-21.6037861915367
21
3.95235477060331
31
0.000000000000000
  0
LINE
  5
F10712
330
F10713
100
AcDbEntity
8
Geo
100
AcDbLine
10
-21.6037861915367
20
1.12562796105341
30
0.000000000000000
11
-21.5037861915367
21
1.04981976083531
31
0.000000000000000
  0
LINE
  5
F10714
330
F10715
100
AcDbEntity
8
Geo
100
AcDbLine
10
-21.6037861915367
20
3.95235477060331
30
0.000000000000000
11
-21.5037861915367
21
3.93884303348644
31
0.000000000000000
  0
LINE
  5
F10716
330
F10717
100
AcDbEntity
8
Geo
100
AcDbLine
10
-21.5037861915367
20
1.04981976083531
30
0.000000000000000
11
-21.4037861915367
21
0.974470769012869
31
0.000000000000000
  0
LINE
  5
F10718
330
F10719
100
AcDbEntity
8
Geo
100
AcDbLine
10
-21.5037861915367
20
3.93884303348644
30
0.000000000000000
11
-21.4037861915367
21
3.92296916528850
31
0.000000000000000
  0
LINE
  5
F1071A
330
F1071B
100
AcDbEntity
8
Geo
100
AcDbLine
10
-21.4037861915367
20
0.974470769012869
30
0.000000000000000
11
-21.3037861915367
21
0.899654569308033
31
0.000000000000000
  0
LINE
  5
F1071C
330
F1071D
100
AcDbEntity
8
Geo
100
AcDbLine
10
-21.4037861915367
20
3.92296916528850
30
0.000000000000000
11
-21.3037861915367
21
3.90474866798604
31
0.000000000000000
  0
LINE
  5
F1071E
330
F1071F
100
AcDbEntity
8
Geo
100
AcDbLine
10
-21.3037861915367
20
0.899654569308033
30
0.000000000000000
11
-21.2037861915367
21
0.825444225132825
31
0.000000000000000
  0
LINE
  5
F10720
330
F10721
100
AcDbEntity
8
Geo
100
AcDbLine
10
-21.3037861915367
20
3.90474866798604
30
0.000000000000000
11
-21.2037861915367
21
3.88419933520805
31
0.000000000000000
  0
LINE
  5
F10722
330
F10723
100
AcDbEntity
8
Geo
100
AcDbLine
10
-21.2037861915367
20
0.825444225132825
30
0.000000000000000
11
-21.1037861915367
21
0.751912208237676
31
0.000000000000000
  0
LINE
  5
F10724
330
F10725
100
AcDbEntity
8
Geo
100
AcDbLine
10
-21.2037861915367
20
3.88419933520805
30
0.000000000000000
11
-21.1037861915367
21
3.86134123485928
31
0.000000000000000
  0
LINE
  5
F10726
330
F10727
100
AcDbEntity
8
Geo
100
AcDbLine
10
-21.1037861915367
20
0.751912208237676
30
0.000000000000000
11
-21.0037861915367
21
0.679130327937531
31
0.000000000000000
  0
LINE
  5
F10728
330
F10729
100
AcDbEntity
8
Geo
100
AcDbLine
10
-21.1037861915367
20
3.86134123485928
30
0.000000000000000
11
-21.0037861915367
21
3.83619668952240
31
0.000000000000000
  0
LINE
  5
F1072A
330
F1072B
100
AcDbEntity
8
Geo
100
AcDbLine
10
-21.0037861915367
20
0.679130327937531
30
0.000000000000000
11
-20.9037861915367
21
0.607169660984878
31
0.000000000000000
  0
LINE
  5
F1072C
330
F1072D
100
AcDbEntity
8
Geo
100
AcDbLine
10
-21.0037861915367
20
3.83619668952240
30
0.000000000000000
11
-20.9037861915367
21
3.80879025465844
31
0.000000000000000
  0
LINE
  5
F1072E
330
F1072F
100
AcDbEntity
8
Geo
100
AcDbLine
10
-20.9037861915367
20
0.607169660984878
30
0.000000000000000
11
-20.8037861915367
21
0.536100482158174
31
0.000000000000000
  0
LINE
  5
F10730
330
F10731
100
AcDbEntity
8
Geo
100
AcDbLine
10
-20.9037861915367
20
3.80879025465844
30
0.000000000000000
11
-20.8037861915367
21
3.77914869462660
31
0.000000000000000
  0
LINE
  5
F10732
330
F10733
100
AcDbEntity
8
Geo
100
AcDbLine
10
-20.8037861915367
20
0.536100482158174
30
0.000000000000000
11
-20.7037861915367
21
0.465992195633463
31
0.000000000000000
  0
LINE
  5
F10734
330
F10735
100
AcDbEntity
8
Geo
100
AcDbLine
10
-20.8037861915367
20
3.77914869462660
30
0.000000000000000
11
-20.7037861915367
21
3.74730095654692
31
0.000000000000000
  0
LINE
  5
F10736
330
F10737
100
AcDbEntity
8
Geo
100
AcDbLine
10
-20.7037861915367
20
0.465992195633463
30
0.000000000000000
11
-20.6037861915367
21
0.396913267206183
31
0.000000000000000
  0
LINE
  5
F10738
330
F10739
100
AcDbEntity
8
Geo
100
AcDbLine
10
-20.7037861915367
20
3.74730095654692
30
0.000000000000000
11
-20.6037861915367
21
3.71327814203133
31
0.000000000000000
  0
LINE
  5
F1073A
330
F1073B
100
AcDbEntity
8
Geo
100
AcDbLine
10
-20.6037861915367
20
0.396913267206183
30
0.000000000000000
11
-20.5037861915367
21
0.328931157429403
31
0.000000000000000
  0
LINE
  5
F1073C
330
F1073D
100
AcDbEntity
8
Geo
100
AcDbLine
10
-20.6037861915367
20
3.71327814203133
30
0.000000000000000
11
-20.5037861915367
21
3.67711347681069
31
0.000000000000000
  0
LINE
  5
F1073E
330
F1073F
100
AcDbEntity
8
Geo
100
AcDbLine
10
-20.5037861915367
20
0.328931157429403
30
0.000000000000000
11
-20.4037861915367
21
0.262112255733713
31
0.000000000000000
  0
LINE
  5
F10740
330
F10741
100
AcDbEntity
8
Geo
100
AcDbLine
10
-20.5037861915367
20
3.67711347681069
30
0.000000000000000
11
-20.4037861915367
21
3.63884227828746
31
0.000000000000000
  0
LINE
  5
F10742
330
F10743
100
AcDbEntity
8
Geo
100
AcDbLine
10
-20.4037861915367
20
0.262112255733713
30
0.000000000000000
11
-20.3037861915367
21
0.196521815593143
31
0.000000000000000
  0
LINE
  5
F10744
330
F10745
100
AcDbEntity
8
Geo
100
AcDbLine
10
-20.4037861915367
20
3.63884227828746
30
0.000000000000000
11
-20.3037861915367
21
3.59850192104573
31
0.000000000000000
  0
LINE
  5
F10746
330
F10747
100
AcDbEntity
8
Geo
100
AcDbLine
10
-20.3037861915367
20
0.196521815593143
30
0.000000000000000
11
-20.2037861915367
21
0.132223890800503
31
0.000000000000000
  0
LINE
  5
F10748
330
F10749
100
AcDbEntity
8
Geo
100
AcDbLine
10
-20.3037861915367
20
3.59850192104573
30
0.000000000000000
11
-20.2037861915367
21
3.55613180035222
31
0.000000000000000
  0
LINE
  5
F1074A
330
F1074B
100
AcDbEntity
8
Geo
100
AcDbLine
10
-20.2037861915367
20
0.132223890800503
30
0.000000000000000
11
-20.1037861915367
21
0.0692812729141632
31
0.000000000000000
  0
LINE
  5
F1074C
330
F1074D
100
AcDbEntity
8
Geo
100
AcDbLine
10
-20.2037861915367
20
3.55613180035222
30
0.000000000000000
11
-20.1037861915367
21
3.51177329368397
31
0.000000000000000
  0
LINE
  5
F1074E
330
F1074F
100
AcDbEntity
8
Geo
100
AcDbLine
10
-20.1037861915367
20
0.0692812729141632
30
0.000000000000000
11
-20.0037861915367
21
0.00775542993761302
31
0.000000000000000
  0
LINE
  5
F10750
330
F10751
100
AcDbEntity
8
Geo
100
AcDbLine
10
-20.1037861915367
20
3.51177329368397
30
0.000000000000000
11
-20.0037861915367
21
3.46546972032026
31
0.000000000000000
  0
LINE
  5
F10752
330
F10753
100
AcDbEntity
8
Geo
100
AcDbLine
10
-20.0037861915367
20
0.00775542993761302
30
0.000000000000000
11
-19.9037861915367
21
-0.0522935537084670
31
0.000000000000000
  0
LINE
  5
F10754
330
F10755
100
AcDbEntity
8
Geo
100
AcDbLine
10
-20.0037861915367
20
3.46546972032026
30
0.000000000000000
11
-19.9037861915367
21
3.41726629903821
31
0.000000000000000
  0
LINE
  5
F10756
330
F10757
100
AcDbEntity
8
Geo
100
AcDbLine
10
-19.9037861915367
20
-0.0522935537084670
30
0.000000000000000
11
-19.8037861915367
21
-0.110807035863027
31
0.000000000000000
  0
LINE
  5
F10758
330
F10759
100
AcDbEntity
8
Geo
100
AcDbLine
10
-19.9037861915367
20
3.41726629903821
30
0.000000000000000
11
-19.8037861915367
21
3.36721010395336
31
0.000000000000000
  0
LINE
  5
F1075A
330
F1075B
100
AcDbEntity
8
Geo
100
AcDbLine
10
-19.8037861915367
20
-0.110807035863027
30
0.000000000000000
11
-19.7037861915367
21
-0.167727873892867
31
0.000000000000000
  0
LINE
  5
F1075C
330
F1075D
100
AcDbEntity
8
Geo
100
AcDbLine
10
-19.8037861915367
20
3.36721010395336
30
0.000000000000000
11
-19.7037861915367
21
3.31535001854846
31
0.000000000000000
  0
LINE
  5
F1075E
330
F1075F
100
AcDbEntity
8
Geo
100
AcDbLine
10
-19.7037861915367
20
-0.167727873892867
30
0.000000000000000
11
-19.6037861915367
21
-0.223000480496597
31
0.000000000000000
  0
LINE
  5
F10760
330
F10761
100
AcDbEntity
8
Geo
100
AcDbLine
10
-19.7037861915367
20
3.31535001854846
30
0.000000000000000
11
-19.6037861915367
21
3.26173668793515
31
0.000000000000000
  0
LINE
  5
F10762
330
F10763
100
AcDbEntity
8
Geo
100
AcDbLine
10
-19.6037861915367
20
-0.223000480496597
30
0.000000000000000
11
-19.5037861915367
21
-0.276570877989627
31
0.000000000000000
  0
LINE
  5
F10764
330
F10765
100
AcDbEntity
8
Geo
100
AcDbLine
10
-19.6037861915367
20
3.26173668793515
30
0.000000000000000
11
-19.5037861915367
21
3.20642246939542
31
0.000000000000000
  0
LINE
  5
F10766
330
F10767
100
AcDbEntity
8
Geo
100
AcDbLine
10
-19.5037861915367
20
-0.276570877989627
30
0.000000000000000
11
-19.4037861915367
21
-0.328386751017267
31
0.000000000000000
  0
LINE
  5
F10768
330
F10769
100
AcDbEntity
8
Geo
100
AcDbLine
10
-19.5037861915367
20
3.20642246939542
30
0.000000000000000
11
-19.4037861915367
21
3.14946138125091
31
0.000000000000000
  0
LINE
  5
F1076A
330
F1076B
100
AcDbEntity
8
Geo
100
AcDbLine
10
-19.4037861915367
20
-0.328386751017267
30
0.000000000000000
11
-19.3037861915367
21
-0.378397497644437
31
0.000000000000000
  0
LINE
  5
F1076C
330
F1076D
100
AcDbEntity
8
Geo
100
AcDbLine
10
-19.4037861915367
20
3.14946138125091
30
0.000000000000000
11
-19.3037861915367
21
3.09090905011015
31
0.000000000000000
  0
LINE
  5
F1076E
330
F1076F
100
AcDbEntity
8
Geo
100
AcDbLine
10
-19.3037861915367
20
-0.378397497644437
30
0.000000000000000
11
-19.2037861915367
21
-0.426554278772087
31
0.000000000000000
  0
LINE
  5
F10770
330
F10771
100
AcDbEntity
8
Geo
100
AcDbLine
10
-19.3037861915367
20
3.09090905011015
30
0.000000000000000
11
-19.2037861915367
21
3.03082265654516
31
0.000000000000000
  0
LINE
  5
F10772
330
F10773
100
AcDbEntity
8
Geo
100
AcDbLine
10
-19.2037861915367
20
-0.426554278772087
30
0.000000000000000
11
-19.1037861915367
21
-0.472810065832147
31
0.000000000000000
  0
LINE
  5
F10774
330
F10775
100
AcDbEntity
8
Geo
100
AcDbLine
10
-19.2037861915367
20
3.03082265654516
30
0.000000000000000
11
-19.1037861915367
21
2.96926087925051
31
0.000000000000000
  0
LINE
  5
F10776
330
F10777
100
AcDbEntity
8
Geo
100
AcDbLine
10
-19.1037861915367
20
-0.472810065832147
30
0.000000000000000
11
-19.0037861915367
21
-0.517119686714277
31
0.000000000000000
  0
LINE
  5
F10778
330
F10779
100
AcDbEntity
8
Geo
100
AcDbLine
10
-19.1037861915367
20
2.96926087925051
30
0.000000000000000
11
-19.0037861915367
21
2.90628383773929
31
0.000000000000000
  0
LINE
  5
F1077A
330
F1077B
100
AcDbEntity
8
Geo
100
AcDbLine
10
-19.0037861915367
20
-0.517119686714277
30
0.000000000000000
11
-18.9037861915367
21
-0.559439869879687
31
0.000000000000000
  0
LINE
  5
F1077C
330
F1077D
100
AcDbEntity
8
Geo
100
AcDbLine
10
-19.0037861915367
20
2.90628383773929
30
0.000000000000000
11
-18.9037861915367
21
2.84195303363216
31
0.000000000000000
  0
LINE
  5
F1077E
330
F1077F
100
AcDbEntity
8
Geo
100
AcDbLine
10
-18.9037861915367
20
-0.559439869879687
30
0.000000000000000
11
-18.8037861915367
21
-0.599729286618917
31
0.000000000000000
  0
LINE
  5
F10780
330
F10781
100
AcDbEntity
8
Geo
100
AcDbLine
10
-18.9037861915367
20
2.84195303363216
30
0.000000000000000
11
-18.8037861915367
21
2.77633129059653
31
0.000000000000000
  0
LINE
  5
F10782
330
F10783
100
AcDbEntity
8
Geo
100
AcDbLine
10
-18.8037861915367
20
-0.599729286618917
30
0.000000000000000
11
-18.7037861915367
21
-0.637948591412337
31
0.000000000000000
  0
LINE
  5
F10784
330
F10785
100
AcDbEntity
8
Geo
100
AcDbLine
10
-18.8037861915367
20
2.77633129059653
30
0.000000000000000
11
-18.7037861915367
21
2.70948269299470
31
0.000000000000000
  0
LINE
  5
F10786
330
F10787
100
AcDbEntity
8
Geo
100
AcDbLine
10
-18.7037861915367
20
-0.637948591412337
30
0.000000000000000
11
-18.6037861915367
21
-0.674060460353817
31
0.000000000000000
  0
LINE
  5
F10788
330
F10789
100
AcDbEntity
8
Geo
100
AcDbLine
10
-18.7037861915367
20
2.70948269299470
30
0.000000000000000
11
-18.6037861915367
21
2.64147252330092
31
0.000000000000000
  0
LINE
  5
F1078A
330
F1078B
100
AcDbEntity
8
Geo
100
AcDbLine
10
-18.6037861915367
20
-0.674060460353817
30
0.000000000000000
11
-18.5037861915367
21
-0.708029627600277
31
0.000000000000000
  0
LINE
  5
F1078C
330
F1078D
100
AcDbEntity
8
Geo
100
AcDbLine
10
-18.6037861915367
20
2.64147252330092
30
0.000000000000000
11
-18.5037861915367
21
2.57236719834832
31
0.000000000000000
  0
LINE
  5
F1078E
330
F1078F
100
AcDbEntity
8
Geo
100
AcDbLine
10
-18.5037861915367
20
-0.708029627600277
30
0.000000000000000
11
-18.4037861915367
21
-0.739822919811287
31
0.000000000000000
  0
LINE
  5
F10790
330
F10791
100
AcDbEntity
8
Geo
100
AcDbLine
10
-18.5037861915367
20
2.57236719834832
30
0.000000000000000
11
-18.4037861915367
21
2.50223420446806
31
0.000000000000000
  0
LINE
  5
F10792
330
F10793
100
AcDbEntity
8
Geo
100
AcDbLine
10
-18.4037861915367
20
-0.739822919811287
30
0.000000000000000
11
-18.3037861915367
21
-0.769409288545217
31
0.000000000000000
  0
LINE
  5
F10794
330
F10795
100
AcDbEntity
8
Geo
100
AcDbLine
10
-18.4037861915367
20
2.50223420446806
30
0.000000000000000
11
-18.3037861915367
21
2.43114203158410
31
0.000000000000000
  0
LINE
  5
F10796
330
F10797
100
AcDbEntity
8
Geo
100
AcDbLine
10
-18.3037861915367
20
-0.769409288545217
30
0.000000000000000
11
-18.2037861915367
21
-0.796759840580307
31
0.000000000000000
  0
LINE
  5
F10798
330
F10799
100
AcDbEntity
8
Geo
100
AcDbLine
10
-18.3037861915367
20
2.43114203158410
30
0.000000000000000
11
-18.2037861915367
21
2.35916010632783
31
0.000000000000000
  0
LINE
  5
F1079A
330
F1079B
100
AcDbEntity
8
Geo
100
AcDbLine
10
-18.2037861915367
20
-0.796759840580307
30
0.000000000000000
11
-18.1037861915367
21
-0.821847866130987
31
0.000000000000000
  0
LINE
  5
F1079C
330
F1079D
100
AcDbEntity
8
Geo
100
AcDbLine
10
-18.2037861915367
20
2.35916010632783
30
0.000000000000000
11
-18.1037861915367
21
2.28635872423799
31
0.000000000000000
  0
LINE
  5
F1079E
330
F1079F
100
AcDbEntity
8
Geo
100
AcDbLine
10
-18.1037861915367
20
-0.821847866130987
30
0.000000000000000
11
-18.0037861915367
21
-0.844648864931857
31
0.000000000000000
  0
LINE
  5
F107A0
330
F107A1
100
AcDbEntity
8
Geo
100
AcDbLine
10
-18.1037861915367
20
2.28635872423799
30
0.000000000000000
11
-18.0037861915367
21
2.21280898111195
31
0.000000000000000
  0
LINE
  5
F107A2
330
F107A3
100
AcDbEntity
8
Geo
100
AcDbLine
10
-18.0037861915367
20
-0.844648864931857
30
0.000000000000000
11
-17.9037861915367
21
-0.865140570164017
31
0.000000000000000
  0
LINE
  5
F107A4
330
F107A5
100
AcDbEntity
8
Geo
100
AcDbLine
10
-18.0037861915367
20
2.21280898111195
30
0.000000000000000
11
-17.9037861915367
21
2.13858270357561
31
0.000000000000000
  0
LINE
  5
F107A6
330
F107A7
100
AcDbEntity
8
Geo
100
AcDbLine
10
-17.9037861915367
20
-0.865140570164017
30
0.000000000000000
11
-17.8037861915367
21
-0.883302970200197
31
0.000000000000000
  0
LINE
  5
F107A8
330
F107A9
100
AcDbEntity
8
Geo
100
AcDbLine
10
-17.9037861915367
20
2.13858270357561
30
0.000000000000000
11
-17.8037861915367
21
2.06375237893948
31
0.000000000000000
  0
LINE
  5
F107AA
330
F107AB
100
AcDbEntity
8
Geo
100
AcDbLine
10
-17.8037861915367
20
-0.883302970200197
30
0.000000000000000
11
-17.7037861915367
21
-0.899118328147547
31
0.000000000000000
  0
LINE
  5
F107AC
330
F107AD
100
AcDbEntity
8
Geo
100
AcDbLine
10
-17.8037861915367
20
2.06375237893948
30
0.000000000000000
11
-17.7037861915367
21
1.98839108440960
31
0.000000000000000
  0
LINE
  5
F107AE
330
F107AF
100
AcDbEntity
8
Geo
100
AcDbLine
10
-17.7037861915367
20
-0.899118328147547
30
0.000000000000000
11
-17.6037861915367
21
-0.912571199169007
31
0.000000000000000
  0
LINE
  5
F107B0
330
F107B1
100
AcDbEntity
8
Geo
100
AcDbLine
10
-17.7037861915367
20
1.98839108440960
30
0.000000000000000
11
-17.6037861915367
21
1.91257241572237
31
0.000000000000000
  0
LINE
  5
F107B2
330
F107B3
100
AcDbEntity
8
Geo
100
AcDbLine
10
-17.6037861915367
20
-0.912571199169007
30
0.000000000000000
11
-17.5037861915367
21
-0.923648445566297
31
0.000000000000000
  0
LINE
  5
F107B4
330
F107B5
100
AcDbEntity
8
Geo
100
AcDbLine
10
-17.6037861915367
20
1.91257241572237
30
0.000000000000000
11
-17.5037861915367
21
1.83637041527306
31
0.000000000000000
  0
LINE
  5
F107B6
330
F107B7
100
AcDbEntity
8
Geo
100
AcDbLine
10
-17.5037861915367
20
-0.923648445566297
30
0.000000000000000
11
-17.4037861915367
21
-0.932339249609817
31
0.000000000000000
  0
LINE
  5
F107B8
330
F107B9
100
AcDbEntity
8
Geo
100
AcDbLine
10
-17.5037861915367
20
1.83637041527306
30
0.000000000000000
11
-17.4037861915367
21
1.75985949980801
31
0.000000000000000
  0
LINE
  5
F107BA
330
F107BB
100
AcDbEntity
8
Geo
100
AcDbLine
10
-17.4037861915367
20
-0.932339249609817
30
0.000000000000000
11
-17.3037861915367
21
-0.938635124102967
31
0.000000000000000
  0
LINE
  5
F107BC
330
F107BD
100
AcDbEntity
8
Geo
100
AcDbLine
10
-17.4037861915367
20
1.75985949980801
30
0.000000000000000
11
-17.3037861915367
21
1.68311438775135
31
0.000000000000000
  0
LINE
  5
F107BE
330
F107BF
100
AcDbEntity
8
Geo
100
AcDbLine
10
-17.3037861915367
20
-0.938635124102967
30
0.000000000000000
11
-17.2037861915367
21
-0.942529920670457
31
0.000000000000000
  0
LINE
  5
F107C0
330
F107C1
100
AcDbEntity
8
Geo
100
AcDbLine
10
-17.3037861915367
20
1.68311438775135
30
0.000000000000000
11
-17.2037861915367
21
1.60621002623705
31
0.000000000000000
  0
LINE
  5
F107C2
330
F107C3
100
AcDbEntity
8
Geo
100
AcDbLine
10
-17.2037861915367
20
-0.942529920670457
30
0.000000000000000
11
-17.1037861915367
21
-0.944019835762697
31
0.000000000000000
  0
LINE
  5
F107C4
330
F107C5
100
AcDbEntity
8
Geo
100
AcDbLine
10
-17.2037861915367
20
1.60621002623705
30
0.000000000000000
11
-17.1037861915367
21
1.52922151791769
31
0.000000000000000
  0
LINE
  5
F107C6
330
F107C7
100
AcDbEntity
8
Geo
100
AcDbLine
10
-17.1037861915367
20
1.52922151791769
30
0.000000000000000
11
-17.0037861915367
21
1.45222404762123
31
0.000000000000000
  0
LINE
  5
F107C8
330
F107C9
100
AcDbEntity
8
Geo
100
AcDbLine
10
-17.0037861915367
20
3.98319250122987
30
0.000000000000000
11
-16.9037861915367
21
3.97987063830419
31
0.000000000000000
  0
LINE
  5
F107CA
330
F107CB
100
AcDbEntity
8
Geo
100
AcDbLine
10
-17.0037861915367
20
1.45222404762123
30
0.000000000000000
11
-16.9037861915367
21
1.37529280892767
31
0.000000000000000
  0
LINE
  5
F107CC
330
F107CD
100
AcDbEntity
8
Geo
100
AcDbLine
10
-16.9037861915367
20
3.97987063830419
30
0.000000000000000
11
-16.8037861915367
21
3.97414657788392
31
0.000000000000000
  0
LINE
  5
F107CE
330
F107CF
100
AcDbEntity
8
Geo
100
AcDbLine
10
-16.9037861915367
20
1.37529280892767
30
0.000000000000000
11
-16.8037861915367
21
1.29850293073706
31
0.000000000000000
  0
LINE
  5
F107D0
330
F107D1
100
AcDbEntity
8
Geo
100
AcDbLine
10
-16.8037861915367
20
3.97414657788392
30
0.000000000000000
11
-16.7037861915367
21
3.96602590992668
31
0.000000000000000
  0
LINE
  5
F107D2
330
F107D3
100
AcDbEntity
8
Geo
100
AcDbLine
10
-16.8037861915367
20
1.29850293073706
30
0.000000000000000
11
-16.7037861915367
21
1.22192940390075
31
0.000000000000000
  0
LINE
  5
F107D4
330
F107D5
100
AcDbEntity
8
Geo
100
AcDbLine
10
-16.7037861915367
20
3.96602590992668
30
0.000000000000000
11
-16.6037861915367
21
3.95551656485008
31
0.000000000000000
  0
LINE
  5
F107D6
330
F107D7
100
AcDbEntity
8
Geo
100
AcDbLine
10
-16.7037861915367
20
1.22192940390075
30
0.000000000000000
11
-16.6037861915367
21
1.14564700798738
31
0.000000000000000
  0
LINE
  5
F107D8
330
F107D9
100
AcDbEntity
8
Geo
100
AcDbLine
10
-16.6037861915367
20
3.95551656485008
30
0.000000000000000
11
-16.5037861915367
21
3.94262880578715
31
0.000000000000000
  0
LINE
  5
F107DA
330
F107DB
100
AcDbEntity
8
Geo
100
AcDbLine
10
-16.6037861915367
20
1.14564700798738
30
0.000000000000000
11
-16.5037861915367
21
1.06973023825526
31
0.000000000000000
  0
LINE
  5
F107DC
330
F107DD
100
AcDbEntity
8
Geo
100
AcDbLine
10
-16.5037861915367
20
3.94262880578715
30
0.000000000000000
11
-16.4037861915367
21
3.92737521856361
31
0.000000000000000
  0
LINE
  5
F107DE
330
F107DF
100
AcDbEntity
8
Geo
100
AcDbLine
10
-16.5037861915367
20
1.06973023825526
30
0.000000000000000
11
-16.4037861915367
21
0.994253232902394
31
0.000000000000000
  0
LINE
  5
F107E0
330
F107E1
100
AcDbEntity
8
Geo
100
AcDbLine
10
-16.4037861915367
20
3.92737521856361
30
0.000000000000000
11
-16.3037861915367
21
3.90977069940692
31
0.000000000000000
  0
LINE
  5
F107E2
330
F107E3
100
AcDbEntity
8
Geo
100
AcDbLine
10
-16.4037861915367
20
0.994253232902394
30
0.000000000000000
11
-16.3037861915367
21
0.919289700665148
31
0.000000000000000
  0
LINE
  5
F107E4
330
F107E5
100
AcDbEntity
8
Geo
100
AcDbLine
10
-16.3037861915367
20
3.90977069940692
30
0.000000000000000
11
-16.2037861915367
21
3.88983244039901
31
0.000000000000000
  0
LINE
  5
F107E6
330
F107E7
100
AcDbEntity
8
Geo
100
AcDbLine
10
-16.3037861915367
20
0.919289700665148
30
0.000000000000000
11
-16.2037861915367
21
0.844912848836390
31
0.000000000000000
  0
LINE
  5
F107E8
330
F107E9
100
AcDbEntity
8
Geo
100
AcDbLine
10
-16.2037861915367
20
3.88983244039901
30
0.000000000000000
11
-16.1037861915367
21
3.86757991268705
31
0.000000000000000
  0
LINE
  5
F107EA
330
F107EB
100
AcDbEntity
8
Geo
100
AcDbLine
10
-16.2037861915367
20
0.844912848836390
30
0.000000000000000
11
-16.1037861915367
21
0.771195311773279
31
0.000000000000000
  0
LINE
  5
F107EC
330
F107ED
100
AcDbEntity
8
Geo
100
AcDbLine
10
-16.1037861915367
20
3.86757991268705
30
0.000000000000000
11
-16.0037861915367
21
3.84303484746837
31
0.000000000000000
  0
LINE
  5
F107EE
330
F107EF
100
AcDbEntity
8
Geo
100
AcDbLine
10
-16.1037861915367
20
0.771195311773279
30
0.000000000000000
11
-16.0037861915367
21
0.698209079964573
31
0.000000000000000
  0
LINE
  5
F107F0
330
F107F1
100
AcDbEntity
8
Geo
100
AcDbLine
10
-16.0037861915367
20
3.84303484746837
30
0.000000000000000
11
-15.9037861915367
21
3.81622121476847
31
0.000000000000000
  0
LINE
  5
F107F2
330
F107F3
100
AcDbEntity
8
Geo
100
AcDbLine
10
-16.0037861915367
20
0.698209079964573
30
0.000000000000000
11
-15.9037861915367
21
0.626025429726741
31
0.000000000000000
  0
LINE
  5
F107F4
330
F107F5
100
AcDbEntity
8
Geo
100
AcDbLine
10
-15.9037861915367
20
3.81622121476847
30
0.000000000000000
11
-15.8037861915367
21
3.78716520003248
31
0.000000000000000
  0
LINE
  5
F107F6
330
F107F7
100
AcDbEntity
8
Geo
100
AcDbLine
10
-15.9037861915367
20
0.626025429726741
30
0.000000000000000
11
-15.8037861915367
21
0.554714853597492
31
0.000000000000000
  0
LINE
  5
F107F8
330
F107F9
100
AcDbEntity
8
Geo
100
AcDbLine
10
-15.8037861915367
20
3.78716520003248
30
0.000000000000000
11
-15.7037861915367
21
3.75589517855327
31
0.000000000000000
  0
LINE
  5
F107FA
330
F107FB
100
AcDbEntity
8
Geo
100
AcDbLine
10
-15.8037861915367
20
0.554714853597492
30
0.000000000000000
11
-15.7037861915367
21
0.484346991494733
31
0.000000000000000
  0
LINE
  5
F107FC
330
F107FD
100
AcDbEntity
8
Geo
100
AcDbLine
10
-15.7037861915367
20
3.75589517855327
30
0.000000000000000
11
-15.6037861915367
21
3.72244168776086
31
0.000000000000000
  0
LINE
  5
F107FE
330
F107FF
100
AcDbEntity
8
Geo
100
AcDbLine
10
-15.7037861915367
20
0.484346991494733
30
0.000000000000000
11
-15.6037861915367
21
0.414990562708173
31
0.000000000000000
  0
LINE
  5
F10800
330
F10801
100
AcDbEntity
8
Geo
100
AcDbLine
10
-15.6037861915367
20
3.72244168776086
30
0.000000000000000
11
-15.5037861915367
21
3.68683739740045
31
0.000000000000000
  0
LINE
  5
F10802
330
F10803
100
AcDbEntity
8
Geo
100
AcDbLine
10
-15.6037861915367
20
0.414990562708173
30
0.000000000000000
11
-15.5037861915367
21
0.346713298789983
31
0.000000000000000
  0
LINE
  5
F10804
330
F10805
100
AcDbEntity
8
Geo
100
AcDbLine
10
-15.5037861915367
20
3.68683739740045
30
0.000000000000000
11
-15.4037861915367
21
3.64911707762807
31
0.000000000000000
  0
LINE
  5
F10806
330
F10807
100
AcDbEntity
8
Geo
100
AcDbLine
10
-15.5037861915367
20
0.346713298789983
30
0.000000000000000
11
-15.4037861915367
21
0.279581877410033
31
0.000000000000000
  0
LINE
  5
F10808
330
F10809
100
AcDbEntity
8
Geo
100
AcDbLine
10
-15.4037861915367
20
3.64911707762807
30
0.000000000000000
11
-15.3037861915367
21
3.60931756505498
31
0.000000000000000
  0
LINE
  5
F1080A
330
F1080B
100
AcDbEntity
8
Geo
100
AcDbLine
10
-15.4037861915367
20
0.279581877410033
30
0.000000000000000
11
-15.3037861915367
21
0.213661857240383
31
0.000000000000000
  0
LINE
  5
F1080C
330
F1080D
100
AcDbEntity
8
Geo
100
AcDbLine
10
-15.3037861915367
20
3.60931756505498
30
0.000000000000000
11
-15.2037861915367
21
3.56747772677410
31
0.000000000000000
  0
LINE
  5
F1080E
330
F1080F
100
AcDbEntity
8
Geo
100
AcDbLine
10
-15.3037861915367
20
0.213661857240383
30
0.000000000000000
11
-15.2037861915367
21
0.149017613932463
31
0.000000000000000
  0
LINE
  5
F10810
330
F10811
100
AcDbEntity
8
Geo
100
AcDbLine
10
-15.2037861915367
20
3.56747772677410
30
0.000000000000000
11
-15.1037861915367
21
3.52363842240348
31
0.000000000000000
  0
LINE
  5
F10812
330
F10813
100
AcDbEntity
8
Geo
100
AcDbLine
10
-15.2037861915367
20
0.149017613932463
30
0.000000000000000
11
-15.1037861915367
21
0.0857122772496630
31
0.000000000000000
  0
LINE
  5
F10814
330
F10815
100
AcDbEntity
8
Geo
100
AcDbLine
10
-15.1037861915367
20
3.52363842240348
30
0.000000000000000
11
-15.0037861915367
21
3.47784246418393
31
0.000000000000000
  0
LINE
  5
F10816
330
F10817
100
AcDbEntity
8
Geo
100
AcDbLine
10
-15.1037861915367
20
0.0857122772496630
30
0.000000000000000
11
-15.0037861915367
21
0.0238076694165030
31
0.000000000000000
  0
LINE
  5
F10818
330
F10819
100
AcDbEntity
8
Geo
100
AcDbLine
10
-15.0037861915367
20
3.47784246418393
30
0.000000000000000
11
-14.9037861915367
21
3.43013457516978
31
0.000000000000000
  0
LINE
  5
F1081A
330
F1081B
100
AcDbEntity
8
Geo
100
AcDbLine
10
-15.0037861915367
20
0.0238076694165030
30
0.000000000000000
11
-14.9037861915367
21
-0.0366357552551368
31
0.000000000000000
  0
LINE
  5
F1081C
330
F1081D
100
AcDbEntity
8
Geo
100
AcDbLine
10
-14.9037861915367
20
3.43013457516978
30
0.000000000000000
11
-14.8037861915367
21
3.38056134555361
31
0.000000000000000
  0
LINE
  5
F1081E
330
F1081F
100
AcDbEntity
8
Geo
100
AcDbLine
10
-14.9037861915367
20
-0.0366357552551368
30
0.000000000000000
11
-14.8037861915367
21
-0.0955589694041070
31
0.000000000000000
  0
LINE
  5
F10820
330
F10821
100
AcDbEntity
8
Geo
100
AcDbLine
10
-14.8037861915367
20
3.38056134555361
30
0.000000000000000
11
-14.7037861915367
21
3.32917118716755
31
0.000000000000000
  0
LINE
  5
F10822
330
F10823
100
AcDbEntity
8
Geo
100
AcDbLine
10
-14.8037861915367
20
-0.0955589694041070
30
0.000000000000000
11
-14.7037861915367
21
-0.152904430264397
31
0.000000000000000
  0
LINE
  5
F10824
330
F10825
100
AcDbEntity
8
Geo
100
AcDbLine
10
-14.7037861915367
20
3.32917118716755
30
0.000000000000000
11
-14.6037861915367
21
3.27601428620564
31
0.000000000000000
  0
LINE
  5
F10826
330
F10827
100
AcDbEntity
8
Geo
100
AcDbLine
10
-14.7037861915367
20
-0.152904430264397
30
0.000000000000000
11
-14.6037861915367
21
-0.208616135859807
31
0.000000000000000
  0
LINE
  5
F10828
330
F10829
100
AcDbEntity
8
Geo
100
AcDbLine
10
-14.6037861915367
20
3.27601428620564
30
0.000000000000000
11
-14.5037861915367
21
3.22114255421342
31
0.000000000000000
  0
LINE
  5
F1082A
330
F1082B
100
AcDbEntity
8
Geo
100
AcDbLine
10
-14.6037861915367
20
-0.208616135859807
30
0.000000000000000
11
-14.5037861915367
21
-0.262639679693927
31
0.000000000000000
  0
LINE
  5
F1082C
330
F1082D
100
AcDbEntity
8
Geo
100
AcDbLine
10
-14.5037861915367
20
3.22114255421342
30
0.000000000000000
11
-14.4037861915367
21
3.16460957739253
31
0.000000000000000
  0
LINE
  5
F1082E
330
F1082F
100
AcDbEntity
8
Geo
100
AcDbLine
10
-14.5037861915367
20
-0.262639679693927
30
0.000000000000000
11
-14.4037861915367
21
-0.314922303881997
31
0.000000000000000
  0
LINE
  5
F10830
330
F10831
100
AcDbEntity
8
Geo
100
AcDbLine
10
-14.4037861915367
20
3.16460957739253
30
0.000000000000000
11
-14.3037861915367
21
3.10647056426992
31
0.000000000000000
  0
LINE
  5
F10832
330
F10833
100
AcDbEntity
8
Geo
100
AcDbLine
10
-14.4037861915367
20
-0.314922303881997
30
0.000000000000000
11
-14.3037861915367
21
-0.365412950672777
31
0.000000000000000
  0
LINE
  5
F10834
330
F10835
100
AcDbEntity
8
Geo
100
AcDbLine
10
-14.3037861915367
20
3.10647056426992
30
0.000000000000000
11
-14.2037861915367
21
3.04678229178278
31
0.000000000000000
  0
LINE
  5
F10836
330
F10837
100
AcDbEntity
8
Geo
100
AcDbLine
10
-14.3037861915367
20
-0.365412950672777
30
0.000000000000000
11
-14.2037861915367
21
-0.414062312310147
31
0.000000000000000
  0
LINE
  5
F10838
330
F10839
100
AcDbEntity
8
Geo
100
AcDbLine
10
-14.2037861915367
20
3.04678229178278
30
0.000000000000000
11
-14.1037861915367
21
2.98560304983172
31
0.000000000000000
  0
LINE
  5
F1083A
330
F1083B
100
AcDbEntity
8
Geo
100
AcDbLine
10
-14.2037861915367
20
-0.414062312310147
30
0.000000000000000
11
-14.1037861915367
21
-0.460822879185647
31
0.000000000000000
  0
LINE
  5
F1083C
330
F1083D
100
AcDbEntity
8
Geo
100
AcDbLine
10
-14.1037861915367
20
2.98560304983172
30
0.000000000000000
11
-14.0037861915367
21
2.92299258435654
31
0.000000000000000
  0
LINE
  5
F1083E
330
F1083F
100
AcDbEntity
8
Geo
100
AcDbLine
10
-14.1037861915367
20
-0.460822879185647
30
0.000000000000000
11
-14.0037861915367
21
-0.505648986235047
31
0.000000000000000
  0
LINE
  5
F10840
330
F10841
100
AcDbEntity
8
Geo
100
AcDbLine
10
-14.0037861915367
20
2.92299258435654
30
0.000000000000000
11
-13.9037861915367
21
2.85901203898995
31
0.000000000000000
  0
LINE
  5
F10842
330
F10843
100
AcDbEntity
8
Geo
100
AcDbLine
10
-14.0037861915367
20
-0.505648986235047
30
0.000000000000000
11
-13.9037861915367
21
-0.548496857533587
31
0.000000000000000
  0
LINE
  5
F10844
330
F10845
100
AcDbEntity
8
Geo
100
AcDbLine
10
-13.9037861915367
20
2.85901203898995
30
0.000000000000000
11
-13.8037861915367
21
2.79372389534644
31
0.000000000000000
  0
LINE
  5
F10846
330
F10847
100
AcDbEntity
8
Geo
100
AcDbLine
10
-13.9037861915367
20
-0.548496857533587
30
0.000000000000000
11
-13.8037861915367
21
-0.589324649046327
31
0.000000000000000
  0
LINE
  5
F10848
330
F10849
100
AcDbEntity
8
Geo
100
AcDbLine
10
-13.8037861915367
20
2.79372389534644
30
0.000000000000000
11
-13.7037861915367
21
2.72719191200449
31
0.000000000000000
  0
LINE
  5
F1084A
330
F1084B
100
AcDbEntity
8
Geo
100
AcDbLine
10
-13.8037861915367
20
-0.589324649046327
30
0.000000000000000
11
-13.7037861915367
21
-0.628092489491837
31
0.000000000000000
  0
LINE
  5
F1084C
330
F1084D
100
AcDbEntity
8
Geo
100
AcDbLine
10
-13.7037861915367
20
2.72719191200449
30
0.000000000000000
11
-13.6037861915367
21
2.65948106224168
31
0.000000000000000
  0
LINE
  5
F1084E
330
F1084F
100
AcDbEntity
8
Geo
100
AcDbLine
10
-13.7037861915367
20
-0.628092489491837
30
0.000000000000000
11
-13.6037861915367
21
-0.664762519279407
31
0.000000000000000
  0
LINE
  5
F10850
330
F10851
100
AcDbEntity
8
Geo
100
AcDbLine
10
-13.6037861915367
20
2.65948106224168
30
0.000000000000000
11
-13.5037861915367
21
2.59065747058364
31
0.000000000000000
  0
LINE
  5
F10852
330
F10853
100
AcDbEntity
8
Geo
100
AcDbLine
10
-13.6037861915367
20
-0.664762519279407
30
0.000000000000000
11
-13.5037861915367
21
-0.699298927481647
31
0.000000000000000
  0
LINE
  5
F10854
330
F10855
100
AcDbEntity
8
Geo
100
AcDbLine
10
-13.5037861915367
20
2.59065747058364
30
0.000000000000000
11
-13.4037861915367
21
2.52078834822868
31
0.000000000000000
  0
LINE
  5
F10856
330
F10857
100
AcDbEntity
8
Geo
100
AcDbLine
10
-13.5037861915367
20
-0.699298927481647
30
0.000000000000000
11
-13.4037861915367
21
-0.731667986806427
31
0.000000000000000
  0
LINE
  5
F10858
330
F10859
100
AcDbEntity
8
Geo
100
AcDbLine
10
-13.4037861915367
20
2.52078834822868
30
0.000000000000000
11
-13.3037861915367
21
2.44994192741120
31
0.000000000000000
  0
LINE
  5
F1085A
330
F1085B
100
AcDbEntity
8
Geo
100
AcDbLine
10
-13.4037861915367
20
-0.731667986806427
30
0.000000000000000
11
-13.3037861915367
21
-0.761838086534037
31
0.000000000000000
  0
LINE
  5
F1085C
330
F1085D
100
AcDbEntity
8
Geo
100
AcDbLine
10
-13.3037861915367
20
2.44994192741120
30
0.000000000000000
11
-13.2037861915367
21
2.37818739476797
31
0.000000000000000
  0
LINE
  5
F1085E
330
F1085F
100
AcDbEntity
8
Geo
100
AcDbLine
10
-13.3037861915367
20
-0.761838086534037
30
0.000000000000000
11
-13.2037861915367
21
-0.789779763387347
31
0.000000000000000
  0
LINE
  5
F10860
330
F10861
100
AcDbEntity
8
Geo
100
AcDbLine
10
-13.2037861915367
20
2.37818739476797
30
0.000000000000000
11
-13.1037861915367
21
2.30559482377245
31
0.000000000000000
  0
LINE
  5
F10862
330
F10863
100
AcDbEntity
8
Geo
100
AcDbLine
10
-13.2037861915367
20
-0.789779763387347
30
0.000000000000000
11
-13.1037861915367
21
-0.815465730304767
31
0.000000000000000
  0
LINE
  5
F10864
330
F10865
100
AcDbEntity
8
Geo
100
AcDbLine
10
-13.1037861915367
20
2.30559482377245
30
0.000000000000000
11
-13.0037861915367
21
2.23223510630293
31
0.000000000000000
  0
LINE
  5
F10866
330
F10867
100
AcDbEntity
8
Geo
100
AcDbLine
10
-13.1037861915367
20
-0.815465730304767
30
0.000000000000000
11
-13.0037861915367
21
-0.838870903088067
31
0.000000000000000
  0
LINE
  5
F10868
330
F10869
100
AcDbEntity
8
Geo
100
AcDbLine
10
-13.0037861915367
20
2.23223510630293
30
0.000000000000000
11
-12.9037861915367
21
2.15817988341156
31
0.000000000000000
  0
LINE
  5
F1086A
330
F1086B
100
AcDbEntity
8
Geo
100
AcDbLine
10
-13.0037861915367
20
-0.838870903088067
30
0.000000000000000
11
-12.9037861915367
21
-0.859972424898887
31
0.000000000000000
  0
LINE
  5
F1086C
330
F1086D
100
AcDbEntity
8
Geo
100
AcDbLine
10
-12.9037861915367
20
2.15817988341156
30
0.000000000000000
11
-12.8037861915367
21
2.08350147536165
31
0.000000000000000
  0
LINE
  5
F1086E
330
F1086F
100
AcDbEntity
8
Geo
100
AcDbLine
10
-12.9037861915367
20
-0.859972424898887
30
0.000000000000000
11
-12.8037861915367
21
-0.878749688580117
31
0.000000000000000
  0
LINE
  5
F10870
330
F10871
100
AcDbEntity
8
Geo
100
AcDbLine
10
-12.8037861915367
20
2.08350147536165
30
0.000000000000000
11
-12.7037861915367
21
2.00827281100175
31
0.000000000000000
  0
LINE
  5
F10872
330
F10873
100
AcDbEntity
8
Geo
100
AcDbLine
10
-12.8037861915367
20
-0.878749688580117
30
0.000000000000000
11
-12.7037861915367
21
-0.895184356780237
31
0.000000000000000
  0
LINE
  5
F10874
330
F10875
100
AcDbEntity
8
Geo
100
AcDbLine
10
-12.7037861915367
20
2.00827281100175
30
0.000000000000000
11
-12.6037861915367
21
1.93256735654534
31
0.000000000000000
  0
LINE
  5
F10876
330
F10877
100
AcDbEntity
8
Geo
100
AcDbLine
10
-12.7037861915367
20
-0.895184356780237
30
0.000000000000000
11
-12.6037861915367
21
-0.909260379861087
31
0.000000000000000
  0
LINE
  5
F10878
330
F10879
100
AcDbEntity
8
Geo
100
AcDbLine
10
-12.6037861915367
20
1.93256735654534
30
0.000000000000000
11
-12.5037861915367
21
1.85645904382583
31
0.000000000000000
  0
LINE
  5
F1087A
330
F1087B
100
AcDbEntity
8
Geo
100
AcDbLine
10
-12.6037861915367
20
-0.909260379861087
30
0.000000000000000
11
-12.5037861915367
21
-0.920964011571467
31
0.000000000000000
  0
LINE
  5
F1087C
330
F1087D
100
AcDbEntity
8
Geo
100
AcDbLine
10
-12.5037861915367
20
1.85645904382583
30
0.000000000000000
11
-12.4037861915367
21
1.78002219809674
31
0.000000000000000
  0
LINE
  5
F1087E
330
F1087F
100
AcDbEntity
8
Geo
100
AcDbLine
10
-12.5037861915367
20
-0.920964011571467
30
0.000000000000000
11
-12.4037861915367
21
-0.930283822471387
31
0.000000000000000
  0
LINE
  5
F10880
330
F10881
100
AcDbEntity
8
Geo
100
AcDbLine
10
-12.4037861915367
20
1.78002219809674
30
0.000000000000000
11
-12.3037861915367
21
1.70333146544776
31
0.000000000000000
  0
LINE
  5
F10882
330
F10883
100
AcDbEntity
8
Geo
100
AcDbLine
10
-12.4037861915367
20
-0.930283822471387
30
0.000000000000000
11
-12.3037861915367
21
-0.937210711093687
31
0.000000000000000
  0
LINE
  5
F10884
330
F10885
100
AcDbEntity
8
Geo
100
AcDbLine
10
-12.3037861915367
20
1.70333146544776
30
0.000000000000000
11
-12.2037861915367
21
1.62646173990746
31
0.000000000000000
  0
LINE
  5
F10886
330
F10887
100
AcDbEntity
8
Geo
100
AcDbLine
10
-12.3037861915367
20
-0.937210711093687
30
0.000000000000000
11
-12.2037861915367
21
-0.941737912832307
31
0.000000000000000
  0
LINE
  5
F10888
330
F10889
100
AcDbEntity
8
Geo
100
AcDbLine
10
-12.2037861915367
20
1.62646173990746
30
0.000000000000000
11
-12.1037861915367
21
1.54948809030388
31
0.000000000000000
  0
LINE
  5
F1088A
330
F1088B
100
AcDbEntity
8
Geo
100
AcDbLine
10
-12.2037861915367
20
-0.941737912832307
30
0.000000000000000
11
-12.1037861915367
21
-0.943861006548437
31
0.000000000000000
  0
LINE
  5
F1088C
330
F1088D
100
AcDbEntity
8
Geo
100
AcDbLine
10
-12.1037861915367
20
1.54948809030388
30
0.000000000000000
11
-12.0037861915367
21
1.47248568695437
31
0.000000000000000
  0
LINE
  5
F1088E
330
F1088F
100
AcDbEntity
8
Geo
100
AcDbLine
10
-12.0037861915367
20
3.98366700574766
30
0.000000000000000
11
-11.9037861915367
21
3.98097801316617
31
0.000000000000000
  0
LINE
  5
F10890
330
F10891
100
AcDbEntity
8
Geo
100
AcDbLine
10
-12.0037861915367
20
1.47248568695437
30
0.000000000000000
11
-11.9037861915367
21
1.39552972825643
31
0.000000000000000
  0
LINE
  5
F10892
330
F10893
100
AcDbEntity
8
Geo
100
AcDbLine
10
-11.9037861915367
20
3.98097801316617
30
0.000000000000000
11
-11.8037861915367
21
3.97588574165872
31
0.000000000000000
  0
LINE
  5
F10894
330
F10895
100
AcDbEntity
8
Geo
100
AcDbLine
10
-11.9037861915367
20
1.39552972825643
30
0.000000000000000
11
-11.8037861915367
21
1.31869536725097
31
0.000000000000000
  0
LINE
  5
F10896
330
F10897
100
AcDbEntity
8
Geo
100
AcDbLine
10
-11.8037861915367
20
3.97588574165872
30
0.000000000000000
11
-11.7037861915367
21
3.96839516419550
31
0.000000000000000
  0
LINE
  5
F10898
330
F10899
100
AcDbEntity
8
Geo
100
AcDbLine
10
-11.8037861915367
20
1.31869536725097
30
0.000000000000000
11
-11.7037861915367
21
1.24205763823001
31
0.000000000000000
  0
LINE
  5
F1089A
330
F1089B
100
AcDbEntity
8
Geo
100
AcDbLine
10
-11.7037861915367
20
3.96839516419550
30
0.000000000000000
11
-11.6037861915367
21
3.95851359586535
31
0.000000000000000
  0
LINE
  5
F1089C
330
F1089D
100
AcDbEntity
8
Geo
100
AcDbLine
10
-11.7037861915367
20
1.24205763823001
30
0.000000000000000
11
-11.6037861915367
21
1.16569138346025
31
0.000000000000000
  0
LINE
  5
F1089E
330
F1089F
100
AcDbEntity
8
Geo
100
AcDbLine
10
-11.6037861915367
20
3.95851359586535
30
0.000000000000000
11
-11.5037861915367
21
3.94625068673204
31
0.000000000000000
  0
LINE
  5
F108A0
330
F108A1
100
AcDbEntity
8
Geo
100
AcDbLine
10
-11.6037861915367
20
1.16569138346025
30
0.000000000000000
11
-11.5037861915367
21
1.08967118009422
31
0.000000000000000
  0
LINE
  5
F108A2
330
F108A3
100
AcDbEntity
8
Geo
100
AcDbLine
10
-11.5037861915367
20
3.94625068673204
30
0.000000000000000
11
-11.4037861915367
21
3.93161841241031
31
0.000000000000000
  0
LINE
  5
F108A4
330
F108A5
100
AcDbEntity
8
Geo
100
AcDbLine
10
-11.5037861915367
20
1.08967118009422
30
0.000000000000000
11
-11.4037861915367
21
1.01407126734033
31
0.000000000000000
  0
LINE
  5
F108A6
330
F108A7
100
AcDbEntity
8
Geo
100
AcDbLine
10
-11.4037861915367
20
3.93161841241031
30
0.000000000000000
11
-11.3037861915367
21
3.91463106237076
31
0.000000000000000
  0
LINE
  5
F108A8
330
F108A9
100
AcDbEntity
8
Geo
100
AcDbLine
10
-11.4037861915367
20
1.01407126734033
30
0.000000000000000
11
-11.3037861915367
21
0.938965473962874
31
0.000000000000000
  0
LINE
  5
F108AA
330
F108AB
100
AcDbEntity
8
Geo
100
AcDbLine
10
-11.3037861915367
20
3.91463106237076
30
0.000000000000000
11
-11.2037861915367
21
3.89530522598522
31
0.000000000000000
  0
LINE
  5
F108AC
330
F108AD
100
AcDbEntity
8
Geo
100
AcDbLine
10
-11.3037861915367
20
0.938965473962874
30
0.000000000000000
11
-11.2037861915367
21
0.864427146182982
31
0.000000000000000
  0
LINE
  5
F108AE
330
F108AF
100
AcDbEntity
8
Geo
100
AcDbLine
10
-11.2037861915367
20
3.89530522598522
30
0.000000000000000
11
-11.2037861915367
21
3.99706361161050
31
0.000000000000000
  0
LINE
  5
F108B0
330
F108B1
100
AcDbEntity
8
Geo
100
AcDbLine
10
-11.2037861915367
20
3.89530522598522
30
0.000000000000000
11
-11.2037861915367
21
3.76010610206422
31
0.000000000000000
  0
LINE
  5
F108B2
330
F108B3
100
AcDbEntity
8
Geo
100
AcDbLine
10
-11.2037861915367
20
0.864427146182982
30
0.000000000000000
11
-11.2037861915367
21
1.18184854128112
31
0.000000000000000
  0
LINE
  5
F108B4
330
F108B5
100
AcDbEntity
8
Geo
100
AcDbLine
10
-11.2037861915367
20
0.864427146182982
30
0.000000000000000
11
-11.2037861915367
21
0.410033636488613
31
0.000000000000000
  0
LINE
  5
F108B6
330
F108B7
100
AcDbEntity
8
Geo
100
AcDbLine
10
-24.2037861915367
20
1.52004454342983
30
0.000000000000000
11
-24.2037861915367
21
1.52004454342983
31
0.000000000000000
  0
LINE
  5
F108B8
330
F108B9
100
AcDbEntity
8
Geo
100
AcDbLine
10
-24.2037861915367
20
1.52004454342983
30
0.000000000000000
11
-24.2037861915367
21
1.52004454342983
31
0.000000000000000
  0
LINE
  5
F108BA
330
F108BB
100
AcDbEntity
8
Geo
100
AcDbLine
10
32.7962138084633
20
4.02004454342983
30
0.000000000000000
11
32.7962138084633
21
1.52004454342983
31
0.000000000000000
  0
LINE
  5
F108BC
330
F108BD
100
AcDbEntity
8
Geo
100
AcDbLine
10
-24.2037861915367
20
1.52004454342983
30
0.000000000000000
11
-24.2037861915367
21
-0.929955456570167
31
0.000000000000000
  0
LINE
  5
F108BE
330
F108BF
100
AcDbEntity
8
Geo
100
AcDbLine
10
-24.2037861915367
20
-0.929955456570167
30
0.000000000000000
11
-24.1537861915367
21
-0.979955456570167
31
0.000000000000000
  0
LINE
  5
F108C0
330
F108C1
100
AcDbEntity
8
Geo
100
AcDbLine
10
-24.1537861915367
20
-0.979955456570167
30
0.000000000000000
11
-11.2037861915367
21
-0.979955456570167
31
0.000000000000000
  0
LINE
  5
F108C2
330
F108C3
100
AcDbEntity
8
Geo
100
AcDbLine
10
-11.2037861915367
20
-0.979955456570167
30
0.000000000000000
11
-11.2037861915367
21
-0.879955456570167
31
0.000000000000000
  0
LINE
  5
F108C4
330
F108C5
100
AcDbEntity
8
Geo
100
AcDbLine
10
-11.2037861915367
20
-0.879955456570167
30
0.000000000000000
11
-4.24301667607799
21
-0.879955456570167
31
0.000000000000000
  0
LINE
  5
F108C6
330
F108C7
100
AcDbEntity
8
Geo
100
AcDbLine
10
-4.24301667607799
20
-0.879955456570167
30
0.000000000000000
11
-3.20378619153669
21
-1.47995545657017
31
0.000000000000000
  0
LINE
  5
F108C8
330
F108C9
100
AcDbEntity
8
Geo
100
AcDbLine
10
-3.20378619153669
20
-1.47995545657017
30
0.000000000000000
11
32.2962138084633
21
-1.47995545657017
31
0.000000000000000
  0
LINE
  5
F108CA
330
F108CB
100
AcDbEntity
8
Geo
100
AcDbLine
10
32.2962138084633
20
-1.47995545657017
30
0.000000000000000
11
32.7962138084633
21
-0.979955456570167
31
0.000000000000000
  0
LINE
  5
F108CC
330
F108CD
100
AcDbEntity
8
Geo
100
AcDbLine
10
-24.2037861915367
20
3.97004454342983
30
0.000000000000000
11
-24.2037861915367
21
-0.929955456570167
31
0.000000000000000
  0
LINE
  5
F108CE
330
F108CF
100
AcDbEntity
8
Geo
100
AcDbLine
10
-24.1537861915367
20
4.02004454342983
30
0.000000000000000
11
-24.1537861915367
21
-0.979955456570167
31
0.000000000000000
  0
LINE
  5
F108D0
330
F108D1
100
AcDbEntity
8
Geo
100
AcDbLine
10
-11.2037861915367
20
4.02004454342983
30
0.000000000000000
11
-11.2037861915367
21
-0.979955456570167
31
0.000000000000000
  0
LINE
  5
F108D2
330
F108D3
100
AcDbEntity
8
Geo
100
AcDbLine
10
-11.2037861915367
20
3.92004454342983
30
0.000000000000000
11
-11.2037861915367
21
-0.879955456570167
31
0.000000000000000
  0
LINE
  5
F108D4
330
F108D5
100
AcDbEntity
8
Geo
100
AcDbLine
10
-4.24301667607799
20
3.92004454342983
30
0.000000000000000
11
-4.24301667607799
21
-0.879955456570167
31
0.000000000000000
  0
LINE
  5
F108D6
330
F108D7
100
AcDbEntity
8
Geo
100
AcDbLine
10
-3.20378619153669
20
4.52004454342983
30
0.000000000000000
11
-3.20378619153669
21
-1.47995545657017
31
0.000000000000000
  0
LINE
  5
F108D8
330
F108D9
100
AcDbEntity
8
Geo
100
AcDbLine
10
32.2962138084633
20
4.52004454342983
30
0.000000000000000
11
32.2962138084633
21
-1.47995545657017
31
0.000000000000000
  0
LINE
  5
F108DA
330
F108DB
100
AcDbEntity
8
Geo
100
AcDbLine
10
32.7962138084633
20
4.02004454342983
30
0.000000000000000
11
32.7962138084633
21
-0.979955456570167
31
0.000000000000000
  0
LWPOLYLINE
  5
F108DC
330
F108DD
100
AcDbEntity
8
Rahmen
100
AcDbPolyline
90
   4
70
   1
43
   0.0
 10
-224.732739420935
 20
104.064587973274
 10
-224.732739420935
 20
104.064587973274
 10
-224.732739420935
 20
104.064587973274
 10
-224.732739420935
 20
104.064587973274
  0
TEXT
  5
F108DE
330
F108DF
 100
AcDbEntity
8
Text
100
AcDbText
10
-224.732739420935
20
104.564587973274
30
0.000000000000000
40
1.00000000000000
1
 -       
100
AcDbText
  0
LWPOLYLINE
  5
F108E0
330
F108E1
100
AcDbEntity
8
Rahmen
100
AcDbPolyline
90
   4
70
   1
43
   0.0
 10
-134.699331848552
 20
99.8552338530067
 10
143.351893095768
 20
99.8552338530067
 10
143.351893095768
 20
-100.089086859688
 10
-134.699331848552
 20
-100.089086859688
  0
TEXT
  5
F108E2
330
F108E3
 100
AcDbEntity
8
Text
100
AcDbText
10
-133.530066815145
20
-99.5890868596882
30
0.000000000000000
40
1.00000000000000
1
ISBESketcher
100
AcDbText
  0
LWPOLYLINE
  5
F108E4
330
F108E5
100
AcDbEntity
8
Rahmen
100
AcDbPolyline
90
   4
70
   1
43
   0.0
 10
103.363028953229
 20
-97.0489977728285
 10
143.351893095768
 20
-97.0489977728285
 10
143.351893095768
 20
-100.089086859688
 10
103.363028953229
 20
-100.089086859688
  0
TEXT
  5
F108E6
330
F108E7
 100
AcDbEntity
8
Text
100
AcDbText
10
104.298440979956
20
-98.0489977728285
30
0.000000000000000
40
0.750000000000000
1
Ers. durch:
100
AcDbText
  0
TEXT
  5
F108E8
330
F108E9
 100
AcDbEntity
8
Text
100
AcDbText
10
131.425389755011
20
-99.4521158129176
30
0.000000000000000
40
0.750000000000000
1

100
AcDbText
  0
LWPOLYLINE
  5
F108EA
330
F108EB
100
AcDbEntity
8
Rahmen
100
AcDbPolyline
90
   4
70
   1
43
   0.0
 10
63.3741648106905
 20
-97.0489977728285
 10
103.363028953229
 20
-97.0489977728285
 10
103.363028953229
 20
-100.089086859688
 10
63.3741648106905
 20
-100.089086859688
  0
TEXT
  5
F108EC
330
F108ED
 100
AcDbEntity
8
Text
100
AcDbText
10
64.3095768374165
20
-98.0489977728285
30
0.000000000000000
40
0.750000000000000
1
Ers. für:
100
AcDbText
  0
TEXT
  5
F108EE
330
F108EF
 100
AcDbEntity
8
Text
100
AcDbText
10
91.2026726057907
20
-99.4521158129176
30
0.000000000000000
40
0.750000000000000
1

100
AcDbText
  0
LWPOLYLINE
  5
F108F0
330
F108F1
100
AcDbEntity
8
Rahmen
100
AcDbPolyline
90
   4
70
   1
43
   0.0
 10
130.022271714922
 20
-94.0089086859688
 10
143.351893095768
 20
-94.0089086859688
 10
143.351893095768
 20
-97.0489977728285
 10
130.022271714922
 20
-97.0489977728285
  0
TEXT
  5
F108F2
330
F108F3
 100
AcDbEntity
8
Text
100
AcDbText
10
130.957683741648
20
-95.0089086859688
30
0.000000000000000
40
0.750000000000000
1
Blätter
100
AcDbText
  0
TEXT
  5
F108F4
330
F108F5
 100
AcDbEntity
8
Text
100
AcDbText
10
141.247216035635
20
-96.4120267260579
30
0.000000000000000
40
0.750000000000000
1

100
AcDbText
  0
LWPOLYLINE
  5
F108F6
330
F108F7
100
AcDbEntity
8
Rahmen
100
AcDbPolyline
90
   4
70
   1
43
   0.0
 10
130.022271714922
 20
-91.2026726057906
 10
143.351893095768
 20
-91.2026726057906
 10
143.351893095768
 20
-94.0089086859688
 10
130.022271714922
 20
-94.0089086859688
  0
TEXT
  5
F108F8
330
F108F9
 100
AcDbEntity
8
Text
100
AcDbText
10
130.957683741648
20
-92.2026726057906
30
0.000000000000000
40
0.750000000000000
1
Blatt
100
AcDbText
  0
TEXT
  5
F108FA
330
F108FB
 100
AcDbEntity
8
Text
100
AcDbText
10
141.247216035635
20
-93.6057906458797
30
0.000000000000000
40
0.750000000000000
1

100
AcDbText
  0
LWPOLYLINE
  5
F108FC
330
F108FD
100
AcDbEntity
8
Rahmen
100
AcDbPolyline
90
   4
70
   1
43
   0.0
 10
63.3741648106905
 20
-91.2026726057906
 10
130.022271714922
 20
-91.2026726057906
 10
130.022271714922
 20
-97.0489977728285
 10
63.3741648106905
 20
-97.0489977728285
  0
TEXT
  5
F108FE
330
F108FF
 100
AcDbEntity
8
Text
100
AcDbText
10
64.3095768374165
20
-92.2026726057906
30
0.000000000000000
40
0.750000000000000
1
Datum:
100
AcDbText
  0
TEXT
  5
F10900
330
F10901
 100
AcDbEntity
8
Text
100
AcDbText
10
90.2672605790646
20
-95.0089086859688
30
0.000000000000000
40
0.750000000000000
1
09.08.2013
100
AcDbText
  0
LWPOLYLINE
  5
F10902
330
F10903
100
AcDbEntity
8
Rahmen
100
AcDbPolyline
90
   4
70
   1
43
   0.0
 10
63.3741648106905
 20
-85.1224944320713
 10
143.351893095768
 20
-85.1224944320713
 10
143.351893095768
 20
-91.2026726057906
 10
63.3741648106905
 20
-91.2026726057906
  0
TEXT
  5
F10904
330
F10905
 100
AcDbEntity
8
Text
100
AcDbText
10
-224.732739420935
20
102.064587973274
30
0.000000000000000
40
1.50000000000000
1

100
AcDbText
  0
TEXT
  5
F10906
330
F10907
 100
AcDbEntity
8
Text
100
AcDbText
10
94.4766146993319
20
-88.9235337787676
30
0.000000000000000
40
2.50000000000000
1
7535-050
100
AcDbText
  0
LWPOLYLINE
  5
F10908
330
F10909
100
AcDbEntity
8
Rahmen
100
AcDbPolyline
90
   4
70
   1
43
   0.0
 10
103.363028953229
 20
-79.0423162583519
 10
143.351893095768
 20
-79.0423162583519
 10
143.351893095768
 20
-85.1224944320713
 10
103.363028953229
 20
-85.1224944320713
  0
TEXT
  5
F1090A
330
F1090B
 100
AcDbEntity
8
Text
100
AcDbText
10
104.298440979956
20
-80.0423162583519
30
0.000000000000000
40
0.750000000000000
1
Zu bearb. Material:
100
AcDbText
  0
TEXT
  5
F1090C
330
F1090D
 100
AcDbEntity
8
Text
100
AcDbText
10
123.240534521158
20
-84.4855233853007
30
0.000000000000000
40
0.750000000000000
1

100
AcDbText
  0
LWPOLYLINE
  5
F1090E
330
F1090F
100
AcDbEntity
8
Rahmen
100
AcDbPolyline
90
   4
70
   1
43
   0.0
 10
63.3741648106905
 20
-79.0423162583519
 10
103.363028953229
 20
-79.0423162583519
 10
103.363028953229
 20
-85.1224944320713
 10
63.3741648106905
 20
-85.1224944320713
  0
TEXT
  5
F10910
330
F10911
 100
AcDbEntity
8
Text
100
AcDbText
10
64.3095768374165
20
-80.0423162583519
30
0.000000000000000
40
0.750000000000000
1
Werkstoff:
100
AcDbText
  0
TEXT
  5
F10912
330
F10913
 100
AcDbEntity
8
Text
100
AcDbText
10
83.2516703786192
20
-84.4855233853007
30
0.000000000000000
40
0.750000000000000
1

100
AcDbText
  0
LWPOLYLINE
  5
F10914
330
F10915
100
AcDbEntity
8
Rahmen
100
AcDbPolyline
90
   4
70
   1
43
   0.0
 10
103.363028953229
 20
-76.0022271714922
 10
143.351893095768
 20
-76.0022271714922
 10
143.351893095768
 20
-79.0423162583519
 10
103.363028953229
 20
-79.0423162583519
  0
TEXT
  5
F10916
330
F10917
 100
AcDbEntity
8
Text
100
AcDbText
10
-224.732739420935
20
102.064587973274
30
0.000000000000000
40
1.50000000000000
1

100
AcDbText
  0
TEXT
  5
F10918
330
F10919
 100
AcDbEntity
8
Text
100
AcDbText
10
123.240534521158
20
-78.4053452115813
30
0.000000000000000
40
0.750000000000000
1

100
AcDbText
  0
LWPOLYLINE
  5
F1091A
330
F1091B
100
AcDbEntity
8
Rahmen
100
AcDbPolyline
90
   4
70
   1
43
   0.0
 10
63.3741648106905
 20
-76.0022271714922
 10
103.363028953229
 20
-76.0022271714922
 10
103.363028953229
 20
-79.0423162583519
 10
63.3741648106905
 20
-79.0423162583519
  0
TEXT
  5
F1091C
330
F1091D
 100
AcDbEntity
8
Text
100
AcDbText
10
64.3095768374165
20
-77.0022271714922
30
0.000000000000000
40
0.750000000000000
1
Maßstab:
100
AcDbText
  0
TEXT
  5
F1091E
330
F1091F
 100
AcDbEntity
8
Text
100
AcDbText
10
88.6302895322940
20
-77.0022271714922
30
0.000000000000000
40
0.750000000000000
1
1 : 1
100
AcDbText
0
VIEWPORT
5
294
102
{ACAD_XDICTIONARY
360
58A
102
}
330
25D
100
AcDbEntity
67
1
8
0
60
1
100
AcDbViewport
10
0.0
20
0.0
30
0.0
40
10.0
41
10.0
68
-1
69
1
12
0.0
22
0.0
13
0.0
23
0.0
14
1.0
24
1.0
15
0.0
25
0.0
16
0.0
26
0.0
36
1.0
17
0.0
27
0.0
37
0.0
42
0.0
43
0.0
44
0.0
45
10.0
50
0.0
51
0.0000000000007958
72
100
90
32800
1

281
0
71
0
74
0
110
0.0
120
0.0
130
0.0
111
1.0
121
0.0
131
0.0
112
0.0
122
1.0
132
0.0
79
0
146
0.0
1001
VD_INVISIBLE_NOT_FOR_READ
1000
VD_INVISIBLE_NOT_FOR_READ
0
VIEWPORT
5
295
102
{ACAD_XDICTIONARY
360
58C
102
}
330
25D
100
AcDbEntity
67
1
8
0
60
1
100
AcDbViewport
10
0.0
20
0.0
30
0.0
40
10.0
41
10.0
68
0
69
2
12
0.0
22
0.0
13
0.0
23
0.0
14
1.0
24
1.0
15
0.0
25
0.0
16
0.0
26
0.0
36
1.0
17
0.0
27
0.0
37
0.0
42
0.0
43
0.0
44
0.0
45
10.0
50
0.0
51
0.0000000000007958
72
100
90
163872
1

281
0
71
0
74
0
110
0.0
120
0.0
130
0.0
111
1.0
121
0.0
131
0.0
112
0.0
122
1.0
132
0.0
79
0
146
0.0
1001
VD_INVISIBLE_NOT_FOR_READ
1000
VD_INVISIBLE_NOT_FOR_READ
0
ENDSEC
0
SECTION
2
OBJECTS
0
DICTIONARY
5
13
330
0
100
AcDbDictionary
281
1
3
ACAD_COLOR
350
FA7
3
ACAD_GROUP
350
14
3
ACAD_LAYOUT
350
FCF
3
ACAD_MATERIAL
350
F7A
3
ACAD_MLEADERSTYLE
350
FCD
3
ACAD_MLINESTYLE
350
16
3
ACAD_PLOTSETTINGS
350
17
3
ACAD_PLOTSTYLENAME
350
18
3
ACAD_SCALELIST
350
FAB
3
ACAD_TABLESTYLE
350
FA8
3
ACAD_VISUALSTYLE
350
F93
3
ACDB_RECOMPOSE_DATA
350
107E
3
AcDbVariableDictionary
350
FF0
3
DWGPROPS
350
107F
0
DICTIONARY
5
F1000A
330
F10009
100
AcDbDictionary
280
1
281
1
3
ACAD_MTEXT_2008_RT
360
F1000B
0
DICTIONARY
5
F10019
330
F10018
100
AcDbDictionary
280
1
281
1
3
ACAD_MTEXT_2008_RT
360
F1001A
0
DICTIONARY
5
F10023
330
F10022
100
AcDbDictionary
280
1
281
1
3
ACAD_MTEXT_2008_RT
360
F10024
0
DICTIONARY
5
F10028
330
F10027
100
AcDbDictionary
280
1
281
1
3
ACAD_MTEXT_2008_RT
360
F10029
0
DICTIONARY
5
F10014
330
F10013
100
AcDbDictionary
280
1
281
1
3
ACAD_MTEXT_2008_RT
360
F10015
0
DICTIONARY
5
F10005
330
F10004
100
AcDbDictionary
280
1
281
1
3
ACAD_MTEXT_2008_RT
360
F10006
0
DICTIONARY
5
F1000F
330
F1000E
100
AcDbDictionary
280
1
281
1
3
ACAD_MTEXT_2008_RT
360
F10010
0
DICTIONARY
5
F1001E
330
F1001D
100
AcDbDictionary
280
1
281
1
3
ACAD_MTEXT_2008_RT
360
F1001F
0
DICTIONARY
5
FA7
102
{ACAD_REACTORS
330
13
102
}
330
13
100
AcDbDictionary
281
1
0
DICTIONARY
5
14
330
13
100
AcDbDictionary
281
1
0
DICTIONARY
5
FCF
102
{ACAD_REACTORS
330
13
102
}
330
13
100
AcDbDictionary
281
1
3
Layout1
350
FD1
3
Model
350
FD0
0
DICTIONARY
5
F7A
102
{ACAD_REACTORS
330
13
102
}
330
13
100
AcDbDictionary
281
1
3
ByBlock
350
F83
3
ByLayer
350
F7B
3
Global
350
F8B
0
DICTIONARY
5
FCD
102
{ACAD_REACTORS
330
13
102
}
330
13
100
AcDbDictionary
281
1
3
Standard
350
FCE
0
DICTIONARY
5
16
330
13
100
AcDbDictionary
281
1
3
Standard
350
FAA
0
DICTIONARY
5
17
102
{ACAD_REACTORS
330
13
102
}
330
13
100
AcDbDictionary
281
1
0
ACDBDICTIONARYWDFLT
5
18
102
{ACAD_REACTORS
330
13
102
}
330
13
100
AcDbDictionary
281
1
3
Normal
350
19
100
AcDbDictionaryWithDefault
340
19
0
DICTIONARY
5
FAB
102
{ACAD_REACTORS
330
13
102
}
330
13
100
AcDbDictionary
281
1
3
A0
350
FAC
3
A1
350
FAD
3
A2
350
FAE
3
A3
350
FAF
3
A4
350
FB0
3
A5
350
FB1
3
A6
350
FB2
3
A7
350
FB3
3
A8
350
FB4
3
A9
350
FB5
3
B0
350
FB6
3
B1
350
FB7
3
B2
350
FB8
3
B3
350
FB9
3
B4
350
FBA
3
B5
350
FBB
3
B6
350
FBC
3
B7
350
FBD
3
B8
350
FBE
3
B9
350
FBF
3
C0
350
FC0
3
C1
350
FC1
3
C2
350
FC2
3
C3
350
FC3
3
C4
350
FC4
3
C5
350
FC5
3
C6
350
FC6
3
C7
350
FC7
3
C8
350
FC8
3
C9
350
FC9
3
D0
350
FCA
3
D1
350
FCB
3
D2
350
FCC
0
DICTIONARY
5
FA8
102
{ACAD_REACTORS
330
13
102
}
330
13
100
AcDbDictionary
281
1
3
Standard
350
FA9
0
DICTIONARY
5
F93
102
{ACAD_REACTORS
330
13
102
}
330
13
100
AcDbDictionary
281
1
3
2dWireframe
350
F99
3
3D Hidden
350
F9B
3
3dWireframe
350
F9A
3
Basic
350
F98
3
Brighten
350
F9F
3
ColorChange
350
FA3
3
Conceptual
350
F9C
3
Dim
350
F9E
3
EdgeColorOff
350
FA6
3
Facepattern
350
FA2
3
Flat
350
F94
3
FlatWithEdges
350
F95
3
Gouraud
350
F96
3
GouraudWithEdges
350
F97
3
JitterOff
350
FA4
3
Linepattern
350
FA1
3
OverhangOff
350
FA5
3
Realistic
350
F9D
3
Thicken
350
FA0
0
XRECORD
5
107E
102
{ACAD_REACTORS
330
13
102
}
330
13
100
AcDbXrecord
280
1
90
1
330
FA9
330
F10009
330
F10018
330
F10022
330
F10027
330
F10013
330
F10004
330
F1000E
330
F1001D
0
XRECORD
5
F1000B
102
{ACAD_REACTORS
330
F1000A
102
}
330
F1000A
100
AcDbXrecord
280
1
40
48458.0
1
\A1;13
0
XRECORD
5
F1001A
102
{ACAD_REACTORS
330
F10019
102
}
330
F10019
100
AcDbXrecord
280
1
40
48458.0
1
\A1;36
0
XRECORD
5
F10024
102
{ACAD_REACTORS
330
F10023
102
}
330
F10023
100
AcDbXrecord
280
1
40
48458.0
1
\A1;57
0
XRECORD
5
F10029
102
{ACAD_REACTORS
330
F10028
102
}
330
F10028
100
AcDbXrecord
280
1
40
48458.0
1
\A1;19
0
XRECORD
5
F10015
102
{ACAD_REACTORS
330
F10014
102
}
330
F10014
100
AcDbXrecord
280
1
40
48458.0
1
\A1;30°
0
XRECORD
5
F10006
102
{ACAD_REACTORS
330
F10005
102
}
330
F10005
100
AcDbXrecord
280
1
40
48458.0
1
\A1;5
0
XRECORD
5
F10010
102
{ACAD_REACTORS
330
F1000F
102
}
330
F1000F
100
AcDbXrecord
280
1
40
48458.0
1
\A1;4.8
0
LAYOUT
5
FD1
102
{ACAD_XDICTIONARY
360
10A9
102
}
102
{ACAD_REACTORS
330
FCF
102
}
330
FCF
100
AcDbPlotSettings
1

2
Microsoft XPS Document Writer
4

6

40
0.0
41
0.0
42
0.0
43
0.0
44
0.0
45
0.0
46
0.0
47
0.0
48
0.0
49
0.0
140
0.0
141
0.0
142
1.0
143
1.0
70
688
72
0
73
0
74
5
7

75
16
147
1.0
148
0.0
149
0.0
100
AcDbLayout
1
Layout1
70
1
71
1
10
0.0
20
0.0
11
12.0
21
9.0
12
0.0
22
0.0
32
0.0
14
1.000000000000000E+20
24
1.000000000000000E+20
34
1.000000000000000E+20
15
-1.000000000000000E+20
25
-1.000000000000000E+20
35
-1.000000000000000E+20
146
0.0
13
0.0
23
0.0
33
0.0
16
1.0
26
0.0
36
0.0
17
0.0
27
1.0
37
0.0
76
0
330
25D
0
LAYOUT
5
FD0
102
{ACAD_XDICTIONARY
360
10A7
102
}
102
{ACAD_REACTORS
330
FCF
102
}
330
FCF
100
AcDbPlotSettings
1

2
Microsoft XPS Document Writer
4

6

40
0.0
41
0.0
42
0.0
43
0.0
44
0.0
45
0.0
46
0.0
47
0.0
48
0.0
49
0.0
140
0.0
141
0.0
142
1.0
143
1.0
70
1712
72
0
73
0
74
0
7

75
0
147
1.0
148
0.0
149
0.0
100
AcDbLayout
1
Model
70
1
71
0
10
0.0
20
0.0
11
12.0
21
9.0
12
0.0
22
0.0
32
0.0
14
0.0
24
0.0
34
0.0
15
0.0
25
0.0
35
0.0
146
0.0
13
0.0
23
0.0
33
0.0
16
1.0
26
0.0
36
0.0
17
0.0
27
1.0
37
0.0
76
0
330
261
331
26B
0
MATERIAL
5
F83
102
{ACAD_XDICTIONARY
360
F84
102
}
102
{ACAD_REACTORS
330
F7A
102
}
330
F7A
100
AcDbMaterial
1
ByBlock
72
0
43
0.0208333333333333
43
0.0
43
0.0
43
0.0
43
0.0
43
0.0208333333333333
43
0.0
43
0.0
43
0.0
43
0.0
43
1.0
43
0.0
43
0.0
43
0.0
43
0.0
43
1.0
77
0
47
0.0208333333333333
47
0.0
47
0.0
47
0.0
47
0.0
47
0.0208333333333333
47
0.0
47
0.0
47
0.0
47
0.0
47
1.0
47
0.0
47
0.0
47
0.0
47
0.0
47
1.0
171
0
49
0.0208333333333333
49
0.0
49
0.0
49
0.0
49
0.0
49
0.0208333333333333
49
0.0
49
0.0
49
0.0
49
0.0
49
1.0
49
0.0
49
0.0
49
0.0
49
0.0
49
1.0
175
0
142
0.0208333333333333
142
0.0
142
0.0
142
0.0
142
0.0
142
0.0208333333333333
142
0.0
142
0.0
142
0.0
142
0.0
142
1.0
142
0.0
142
0.0
142
0.0
142
0.0
142
1.0
179
0
144
0.0208333333333333
144
0.0
144
0.0
144
0.0
144
0.0
144
0.0208333333333333
144
0.0
144
0.0
144
0.0
144
0.0
144
1.0
144
0.0
144
0.0
144
0.0
144
0.0
144
1.0
147
0.0208333333333333
147
0.0
147
0.0
147
0.0
147
0.0
147
0.0208333333333333
147
0.0
147
0.0
147
0.0
147
0.0
147
1.0
147
0.0
147
0.0
147
0.0
147
0.0
147
1.0
0
MATERIAL
5
F7B
102
{ACAD_XDICTIONARY
360
F7C
102
}
102
{ACAD_REACTORS
330
F7A
102
}
330
F7A
100
AcDbMaterial
1
ByLayer
72
0
43
0.0208333333333333
43
0.0
43
0.0
43
0.0
43
0.0
43
0.0208333333333333
43
0.0
43
0.0
43
0.0
43
0.0
43
1.0
43
0.0
43
0.0
43
0.0
43
0.0
43
1.0
77
0
47
0.0208333333333333
47
0.0
47
0.0
47
0.0
47
0.0
47
0.0208333333333333
47
0.0
47
0.0
47
0.0
47
0.0
47
1.0
47
0.0
47
0.0
47
0.0
47
0.0
47
1.0
171
0
49
0.0208333333333333
49
0.0
49
0.0
49
0.0
49
0.0
49
0.0208333333333333
49
0.0
49
0.0
49
0.0
49
0.0
49
1.0
49
0.0
49
0.0
49
0.0
49
0.0
49
1.0
175
0
142
0.0208333333333333
142
0.0
142
0.0
142
0.0
142
0.0
142
0.0208333333333333
142
0.0
142
0.0
142
0.0
142
0.0
142
1.0
142
0.0
142
0.0
142
0.0
142
0.0
142
1.0
179
0
144
0.0208333333333333
144
0.0
144
0.0
144
0.0
144
0.0
144
0.0208333333333333
144
0.0
144
0.0
144
0.0
144
0.0
144
1.0
144
0.0
144
0.0
144
0.0
144
0.0
144
1.0
147
0.0208333333333333
147
0.0
147
0.0
147
0.0
147
0.0
147
0.0208333333333333
147
0.0
147
0.0
147
0.0
147
0.0
147
1.0
147
0.0
147
0.0
147
0.0
147
0.0
147
1.0
0
MATERIAL
5
F8B
102
{ACAD_XDICTIONARY
360
F8C
102
}
102
{ACAD_REACTORS
330
F7A
102
}
330
F7A
100
AcDbMaterial
1
Global
72
0
43
0.0208333333333333
43
0.0
43
0.0
43
0.0
43
0.0
43
0.0208333333333333
43
0.0
43
0.0
43
0.0
43
0.0
43
1.0
43
0.0
43
0.0
43
0.0
43
0.0
43
1.0
77
0
47
0.0208333333333333
47
0.0
47
0.0
47
0.0
47
0.0
47
0.0208333333333333
47
0.0
47
0.0
47
0.0
47
0.0
47
1.0
47
0.0
47
0.0
47
0.0
47
0.0
47
1.0
171
0
49
0.0208333333333333
49
0.0
49
0.0
49
0.0
49
0.0
49
0.0208333333333333
49
0.0
49
0.0
49
0.0
49
0.0
49
1.0
49
0.0
49
0.0
49
0.0
49
0.0
49
1.0
175
0
142
0.0208333333333333
142
0.0
142
0.0
142
0.0
142
0.0
142
0.0208333333333333
142
0.0
142
0.0
142
0.0
142
0.0
142
1.0
142
0.0
142
0.0
142
0.0
142
0.0
142
1.0
179
0
144
0.0208333333333333
144
0.0
144
0.0
144
0.0
144
0.0
144
0.0208333333333333
144
0.0
144
0.0
144
0.0
144
0.0
144
1.0
144
0.0
144
0.0
144
0.0
144
0.0
144
1.0
147
0.0208333333333333
147
0.0
147
0.0
147
0.0
147
0.0
147
0.0208333333333333
147
0.0
147
0.0
147
0.0
147
0.0
147
1.0
147
0.0
147
0.0
147
0.0
147
0.0
147
1.0
0
MLEADERSTYLE
5
FCE
102
{ACAD_REACTORS
330
FCD
102
}
330
FCD
100
AcDbMLeaderStyle
170
2
171
1
172
0
90
2
40
0.0
41
0.0
173
1
91
-1056964608
340
256
92
-2
290
1
42
0.09
291
1
43
0.36
3
Standard
44
0.18
300

342
253
174
1
178
6
175
1
176
0
93
-1056964608
45
0.18
292
0
297
0
46
0.18
94
-1056964608
47
1.0
49
1.0
140
1.0
293
1
141
0.0
294
1
177
0
142
1.0
295
0
296
0
143
0.125
1001
ACAD_MLEADERVER
1070
2
0
MLINESTYLE
5
FAA
102
{ACAD_REACTORS
330
16
102
}
330
16
100
AcDbMlineStyle
2
STANDARD
70
0
3

62
256
51
90.0
52
90.0
71
2
49
0.5
62
256
6
BYLAYER
49
-0.5
62
256
6
BYLAYER
0
ACDBPLACEHOLDER
5
19
102
{ACAD_REACTORS
330
18
102
}
330
18
0
SCALE
5
FAC
102
{ACAD_REACTORS
330
FAB
102
}
330
FAB
100
AcDbScale
70
0
300
1:1
140
1.0
141
1.0
290
1
0
SCALE
5
FAD
102
{ACAD_REACTORS
330
FAB
102
}
330
FAB
100
AcDbScale
70
0
300
1:2
140
1.0
141
2.0
290
0
0
SCALE
5
FAE
102
{ACAD_REACTORS
330
FAB
102
}
330
FAB
100
AcDbScale
70
0
300
1:4
140
1.0
141
4.0
290
0
0
SCALE
5
FAF
102
{ACAD_REACTORS
330
FAB
102
}
330
FAB
100
AcDbScale
70
0
300
1:5
140
1.0
141
5.0
290
0
0
SCALE
5
FB0
102
{ACAD_REACTORS
330
FAB
102
}
330
FAB
100
AcDbScale
70
0
300
1:8
140
1.0
141
8.0
290
0
0
SCALE
5
FB1
102
{ACAD_REACTORS
330
FAB
102
}
330
FAB
100
AcDbScale
70
0
300
1:10
140
1.0
141
10.0
290
0
0
SCALE
5
FB2
102
{ACAD_REACTORS
330
FAB
102
}
330
FAB
100
AcDbScale
70
0
300
1:16
140
1.0
141
16.0
290
0
0
SCALE
5
FB3
102
{ACAD_REACTORS
330
FAB
102
}
330
FAB
100
AcDbScale
70
0
300
1:20
140
1.0
141
20.0
290
0
0
SCALE
5
FB4
102
{ACAD_REACTORS
330
FAB
102
}
330
FAB
100
AcDbScale
70
0
300
1:30
140
1.0
141
30.0
290
0
0
SCALE
5
FB5
102
{ACAD_REACTORS
330
FAB
102
}
330
FAB
100
AcDbScale
70
0
300
1:40
140
1.0
141
40.0
290
0
0
SCALE
5
FB6
102
{ACAD_REACTORS
330
FAB
102
}
330
FAB
100
AcDbScale
70
0
300
1:50
140
1.0
141
50.0
290
0
0
SCALE
5
FB7
102
{ACAD_REACTORS
330
FAB
102
}
330
FAB
100
AcDbScale
70
0
300
1:100
140
1.0
141
100.0
290
0
0
SCALE
5
FB8
102
{ACAD_REACTORS
330
FAB
102
}
330
FAB
100
AcDbScale
70
0
300
2:1
140
2.0
141
1.0
290
0
0
SCALE
5
FB9
102
{ACAD_REACTORS
330
FAB
102
}
330
FAB
100
AcDbScale
70
0
300
4:1
140
4.0
141
1.0
290
0
0
SCALE
5
FBA
102
{ACAD_REACTORS
330
FAB
102
}
330
FAB
100
AcDbScale
70
0
300
8:1
140
8.0
141
1.0
290
0
0
SCALE
5
FBB
102
{ACAD_REACTORS
330
FAB
102
}
330
FAB
100
AcDbScale
70
0
300
10:1
140
10.0
141
1.0
290
0
0
SCALE
5
FBC
102
{ACAD_REACTORS
330
FAB
102
}
330
FAB
100
AcDbScale
70
0
300
100:1
140
100.0
141
1.0
290
0
0
SCALE
5
FBD
102
{ACAD_REACTORS
330
FAB
102
}
330
FAB
100
AcDbScale
70
0
300
1/128" = 1'-0"
140
0.0078125
141
12.0
290
0
0
SCALE
5
FBE
102
{ACAD_REACTORS
330
FAB
102
}
330
FAB
100
AcDbScale
70
0
300
1/64" = 1'-0"
140
0.015625
141
12.0
290
0
0
SCALE
5
FBF
102
{ACAD_REACTORS
330
FAB
102
}
330
FAB
100
AcDbScale
70
0
300
1/32" = 1'-0"
140
0.03125
141
12.0
290
0
0
SCALE
5
FC0
102
{ACAD_REACTORS
330
FAB
102
}
330
FAB
100
AcDbScale
70
0
300
1/16" = 1'-0"
140
0.0625
141
12.0
290
0
0
SCALE
5
FC1
102
{ACAD_REACTORS
330
FAB
102
}
330
FAB
100
AcDbScale
70
0
300
3/32" = 1'-0"
140
0.09375
141
12.0
290
0
0
SCALE
5
FC2
102
{ACAD_REACTORS
330
FAB
102
}
330
FAB
100
AcDbScale
70
0
300
1/8" = 1'-0"
140
0.125
141
12.0
290
0
0
SCALE
5
FC3
102
{ACAD_REACTORS
330
FAB
102
}
330
FAB
100
AcDbScale
70
0
300
3/16" = 1'-0"
140
0.1875
141
12.0
290
0
0
SCALE
5
FC4
102
{ACAD_REACTORS
330
FAB
102
}
330
FAB
100
AcDbScale
70
0
300
1/4" = 1'-0"
140
0.25
141
12.0
290
0
0
SCALE
5
FC5
102
{ACAD_REACTORS
330
FAB
102
}
330
FAB
100
AcDbScale
70
0
300
3/8" = 1'-0"
140
0.375
141
12.0
290
0
0
SCALE
5
FC6
102
{ACAD_REACTORS
330
FAB
102
}
330
FAB
100
AcDbScale
70
0
300
1/2" = 1'-0"
140
0.5
141
12.0
290
0
0
SCALE
5
FC7
102
{ACAD_REACTORS
330
FAB
102
}
330
FAB
100
AcDbScale
70
0
300
3/4" = 1'-0"
140
0.75
141
12.0
290
0
0
SCALE
5
FC8
102
{ACAD_REACTORS
330
FAB
102
}
330
FAB
100
AcDbScale
70
0
300
1" = 1'-0"
140
1.0
141
12.0
290
0
0
SCALE
5
FC9
102
{ACAD_REACTORS
330
FAB
102
}
330
FAB
100
AcDbScale
70
0
300
1-1/2" = 1'-0"
140
1.5
141
12.0
290
0
0
SCALE
5
FCA
102
{ACAD_REACTORS
330
FAB
102
}
330
FAB
100
AcDbScale
70
0
300
3" = 1'-0"
140
3.0
141
12.0
290
0
0
SCALE
5
FCB
102
{ACAD_REACTORS
330
FAB
102
}
330
FAB
100
AcDbScale
70
0
300
6" = 1'-0"
140
6.0
141
12.0
290
0
0
SCALE
5
FCC
102
{ACAD_REACTORS
330
FAB
102
}
330
FAB
100
AcDbScale
70
0
300
1'-0" = 1'-0"
140
12.0
141
12.0
290
0
0
TABLESTYLE
5
FA9
102
{ACAD_XDICTIONARY
360
FF8
102
}
102
{ACAD_REACTORS
330
FA8
102
}
330
FA8
100
AcDbTableStyle
3
Standard
70
0
71
0
40
0.06
41
0.06
280
0
281
0
7
Standard
140
0.18
170
2
62
0
63
7
283
0
274
-2
284
1
64
0
275
-2
285
1
65
0
276
-2
286
1
66
0
277
-2
287
1
67
0
278
-2
288
1
68
0
279
-2
289
1
69
0
7
Standard
140
0.25
170
5
62
0
63
7
283
0
274
-2
284
1
64
0
275
-2
285
1
65
0
276
-2
286
1
66
0
277
-2
287
1
67
0
278
-2
288
1
68
0
279
-2
289
1
69
0
7
Standard
140
0.18
170
5
62
0
63
7
283
0
274
-2
284
1
64
0
275
-2
285
1
65
0
276
-2
286
1
66
0
277
-2
287
1
67
0
278
-2
288
1
68
0
279
-2
289
1
69
0
0
VISUALSTYLE
5
F99
102
{ACAD_XDICTIONARY
360
108A
102
}
102
{ACAD_REACTORS
330
F93
102
}
330
F93
100
AcDbVisualStyle
2

70
4
71
0
72
2
73
0
90
0
40
-0.6
41
-30.0
62
5
63
7
74
1
91
4
64
7
65
257
75
1
175
1
42
1.0
92
0
66
257
43
1.0
76
1
77
6
78
2
67
7
79
5
170
0
171
0
290
0
174
0
93
1
44
0.0
173
0
291
0
45
0.0
1001
ACAD
1000
AcDbSavedByObjectVersion
1070
0
0
VISUALSTYLE
5
F9B
102
{ACAD_XDICTIONARY
360
108E
102
}
102
{ACAD_REACTORS
330
F93
102
}
330
F93
100
AcDbVisualStyle
2

70
6
71
1
72
2
73
2
90
0
40
-0.6
41
-30.0
62
5
63
7
74
2
91
2
64
7
65
257
75
2
175
1
42
179.0
92
0
66
257
43
1.0
76
1
77
6
78
2
67
7
79
3
170
0
171
0
290
0
174
0
93
1
44
0.0
173
0
291
0
45
0.0
1001
ACAD
1000
AcDbSavedByObjectVersion
1070
0
0
VISUALSTYLE
5
F9A
102
{ACAD_XDICTIONARY
360
108C
102
}
102
{ACAD_REACTORS
330
F93
102
}
330
F93
100
AcDbVisualStyle
2

70
5
71
0
72
2
73
0
90
0
40
-0.6
41
-30.0
62
5
63
7
74
1
91
4
64
7
65
257
75
1
175
1
42
1.0
92
0
66
257
43
1.0
76
1
77
6
78
2
67
7
79
5
170
0
171
0
290
0
174
0
93
1
44
0.0
173
0
291
0
45
0.0
1001
ACAD
1000
AcDbSavedByObjectVersion
1070
0
0
VISUALSTYLE
5
F98
102
{ACAD_XDICTIONARY
360
1088
102
}
102
{ACAD_REACTORS
330
F93
102
}
330
F93
100
AcDbVisualStyle
2

70
7
71
1
72
0
73
1
90
0
40
-0.6
41
-30.0
62
5
63
7
74
0
91
4
64
7
65
257
75
1
175
1
42
1.0
92
8
66
7
43
1.0
76
1
77
6
78
2
67
7
79
5
170
0
171
0
290
0
174
0
93
1
44
0.0
173
0
291
1
45
0.0
1001
ACAD
1000
AcDbSavedByObjectVersion
1070
0
0
VISUALSTYLE
5
F9F
102
{ACAD_XDICTIONARY
360
1096
102
}
102
{ACAD_REACTORS
330
F93
102
}
330
F93
100
AcDbVisualStyle
2

70
12
71
2
72
2
73
0
90
0
40
-0.6
41
-30.0
62
5
63
7
74
1
91
4
64
7
65
257
75
1
175
1
42
1.0
92
8
66
7
43
1.0
76
1
77
6
78
2
67
7
79
5
170
0
171
0
290
0
174
0
93
1
44
50.0
173
0
291
1
45
0.0
1001
ACAD
1000
AcDbSavedByObjectVersion
1070
0
0
VISUALSTYLE
5
FA3
102
{ACAD_XDICTIONARY
360
109E
102
}
102
{ACAD_REACTORS
330
F93
102
}
330
F93
100
AcDbVisualStyle
2

70
16
71
2
72
2
73
3
90
0
40
-0.6
41
-30.0
62
5
63
8
74
1
91
4
64
7
65
257
75
1
175
1
42
1.0
92
8
66
8
43
1.0
76
1
77
6
78
2
67
7
79
5
170
0
171
0
290
0
174
0
93
1
44
0.0
173
0
291
1
45
0.0
1001
ACAD
1000
AcDbSavedByObjectVersion
1070
0
0
VISUALSTYLE
5
F9C
102
{ACAD_XDICTIONARY
360
1090
102
}
102
{ACAD_REACTORS
330
F93
102
}
330
F93
100
AcDbVisualStyle
2

70
9
71
3
72
2
73
0
90
0
40
-0.6
41
-30.0
62
5
63
7
74
2
91
2
64
7
65
257
75
1
175
1
42
179.0
92
8
66
7
43
1.0
76
1
77
6
78
2
67
7
79
3
170
0
171
0
290
0
174
0
93
1
44
0.0
173
0
291
0
45
0.0
1001
ACAD
1000
AcDbSavedByObjectVersion
1070
0
0
VISUALSTYLE
5
F9E
102
{ACAD_XDICTIONARY
360
1094
102
}
102
{ACAD_REACTORS
330
F93
102
}
330
F93
100
AcDbVisualStyle
2

70
11
71
2
72
2
73
0
90
0
40
-0.6
41
-30.0
62
5
63
7
74
1
91
4
64
7
65
257
75
1
175
1
42
1.0
92
8
66
7
43
1.0
76
1
77
6
78
2
67
7
79
5
170
0
171
0
290
0
174
0
93
1
44
-50.0
173
0
291
1
45
0.0
1001
ACAD
1000
AcDbSavedByObjectVersion
1070
0
0
VISUALSTYLE
5
FA6
102
{ACAD_XDICTIONARY
360
10A4
102
}
102
{ACAD_REACTORS
330
F93
102
}
330
F93
100
AcDbVisualStyle
2

70
22
71
2
72
2
73
0
90
0
40
-0.6
41
-30.0
62
5
63
7
74
1
91
4
64
7
65
257
75
1
175
1
42
1.0
92
8
66
7
43
1.0
76
1
77
6
78
2
67
7
79
5
170
0
171
0
290
0
174
0
93
1
44
0.0
173
0
291
1
45
0.0
1001
ACAD
1000
AcDbSavedByObjectVersion
1070
0
0
VISUALSTYLE
5
FA2
102
{ACAD_XDICTIONARY
360
109C
102
}
102
{ACAD_REACTORS
330
F93
102
}
330
F93
100
AcDbVisualStyle
2

70
15
71
2
72
2
73
0
90
0
40
-0.6
41
-30.0
62
5
63
7
74
1
91
4
64
7
65
257
75
1
175
1
42
1.0
92
8
66
7
43
1.0
76
1
77
6
78
2
67
7
79
5
170
0
171
0
290
0
174
0
93
1
44
0.0
173
0
291
1
45
0.0
1001
ACAD
1000
AcDbSavedByObjectVersion
1070
0
0
VISUALSTYLE
5
F94
102
{ACAD_XDICTIONARY
360
1080
102
}
102
{ACAD_REACTORS
330
F93
102
}
330
F93
100
AcDbVisualStyle
2

70
0
71
2
72
1
73
1
90
2
40
-0.6
41
30.0
62
5
63
7
74
0
91
4
64
7
65
257
75
1
175
1
42
1.0
92
8
66
7
43
1.0
76
1
77
6
78
2
67
7
79
5
170
0
171
0
290
0
174
0
93
13
44
0.0
173
0
291
1
45
0.0
1001
ACAD
1000
AcDbSavedByObjectVersion
1070
0
0
VISUALSTYLE
5
F95
102
{ACAD_XDICTIONARY
360
1082
102
}
102
{ACAD_REACTORS
330
F93
102
}
330
F93
100
AcDbVisualStyle
2

70
1
71
2
72
1
73
1
90
2
40
-0.6
41
30.0
62
5
63
7
74
1
91
4
64
7
65
257
75
1
175
1
42
1.0
92
0
66
257
43
1.0
76
1
77
6
78
2
67
7
79
5
170
0
171
0
290
0
174
0
93
13
44
0.0
173
0
291
1
45
0.0
1001
ACAD
1000
AcDbSavedByObjectVersion
1070
0
0
VISUALSTYLE
5
F96
102
{ACAD_XDICTIONARY
360
1084
102
}
102
{ACAD_REACTORS
330
F93
102
}
330
F93
100
AcDbVisualStyle
2

70
2
71
2
72
2
73
1
90
2
40
-0.6
41
30.0
62
5
63
7
74
0
91
4
64
7
65
257
75
1
175
1
42
1.0
92
0
66
7
43
1.0
76
1
77
6
78
2
67
7
79
5
170
0
171
0
290
0
174
0
93
13
44
0.0
173
0
291
1
45
0.0
1001
ACAD
1000
AcDbSavedByObjectVersion
1070
0
0
VISUALSTYLE
5
F97
102
{ACAD_XDICTIONARY
360
1086
102
}
102
{ACAD_REACTORS
330
F93
102
}
330
F93
100
AcDbVisualStyle
2

70
3
71
2
72
2
73
1
90
2
40
-0.6
41
30.0
62
5
63
7
74
1
91
4
64
7
65
257
75
1
175
1
42
1.0
92
0
66
257
43
1.0
76
1
77
6
78
2
67
7
79
5
170
0
171
0
290
0
174
0
93
13
44
0.0
173
0
291
1
45
0.0
1001
ACAD
1000
AcDbSavedByObjectVersion
1070
0
0
VISUALSTYLE
5
FA4
102
{ACAD_XDICTIONARY
360
10A0
102
}
102
{ACAD_REACTORS
330
F93
102
}
330
F93
100
AcDbVisualStyle
2

70
20
71
2
72
2
73
0
90
0
40
-0.6
41
-30.0
62
5
63
7
74
1
91
4
64
7
65
257
75
1
175
1
42
1.0
92
10
66
7
43
1.0
76
1
77
6
78
2
67
7
79
5
170
0
171
0
290
0
174
0
93
1
44
0.0
173
0
291
1
45
0.0
1001
ACAD
1000
AcDbSavedByObjectVersion
1070
0
0
VISUALSTYLE
5
FA1
102
{ACAD_XDICTIONARY
360
109A
102
}
102
{ACAD_REACTORS
330
F93
102
}
330
F93
100
AcDbVisualStyle
2

70
14
71
2
72
2
73
0
90
0
40
-0.6
41
-30.0
62
5
63
7
74
1
91
4
64
7
65
257
75
7
175
7
42
1.0
92
8
66
7
43
1.0
76
1
77
6
78
2
67
7
79
5
170
0
171
0
290
0
174
0
93
1
44
0.0
173
0
291
1
45
0.0
1001
ACAD
1000
AcDbSavedByObjectVersion
1070
0
0
VISUALSTYLE
5
FA5
102
{ACAD_XDICTIONARY
360
10A2
102
}
102
{ACAD_REACTORS
330
F93
102
}
330
F93
100
AcDbVisualStyle
2

70
21
71
2
72
2
73
0
90
0
40
-0.6
41
-30.0
62
5
63
7
74
1
91
4
64
7
65
257
75
1
175
1
42
1.0
92
9
66
7
43
1.0
76
1
77
6
78
2
67
7
79
5
170
0
171
0
290
0
174
0
93
1
44
0.0
173
0
291
1
45
0.0
1001
ACAD
1000
AcDbSavedByObjectVersion
1070
0
0
VISUALSTYLE
5
F9D
102
{ACAD_XDICTIONARY
360
1092
102
}
102
{ACAD_REACTORS
330
F93
102
}
330
F93
100
AcDbVisualStyle
2

70
8
71
2
72
2
73
0
90
0
40
-0.6
41
-30.0
62
5
63
7
74
1
91
0
64
7
65
257
75
1
175
1
42
1.0
92
8
66
8
43
1.0
76
1
77
6
78
2
67
7
79
5
170
0
171
0
290
0
174
0
93
13
44
0.0
173
0
291
0
45
0.0
1001
ACAD
1000
AcDbSavedByObjectVersion
1070
0
0
VISUALSTYLE
5
FA0
102
{ACAD_XDICTIONARY
360
1098
102
}
102
{ACAD_REACTORS
330
F93
102
}
330
F93
100
AcDbVisualStyle
2

70
13
71
2
72
2
73
0
90
0
40
-0.6
41
-30.0
62
5
63
7
74
1
91
4
64
7
65
257
75
1
175
1
42
1.0
92
12
66
7
43
1.0
76
1
77
6
78
2
67
7
79
5
170
0
171
0
290
0
174
0
93
1
44
0.0
173
0
291
1
45
0.0
1001
ACAD
1000
AcDbSavedByObjectVersion
1070
0
0
DICTIONARYVAR
5
FF3
102
{ACAD_REACTORS
330
FF0
102
}
330
FF0
100
DictionaryVariables
280
0
1
1:1
0
DICTIONARYVAR
5
FF2
102
{ACAD_REACTORS
330
FF0
102
}
330
FF0
100
DictionaryVariables
280
0
1
STANDARD
0
DICTIONARYVAR
5
FF1
102
{ACAD_REACTORS
330
FF0
102
}
330
FF0
100
DictionaryVariables
280
0
1
STANDARD
0
DICTIONARYVAR
5
FF6
102
{ACAD_REACTORS
330
FF0
102
}
330
FF0
100
DictionaryVariables
280
0
1
1
0
DICTIONARYVAR
5
FF5
102
{ACAD_REACTORS
330
FF0
102
}
330
FF0
100
DictionaryVariables
280
0
1
0
0
DICTIONARYVAR
5
FF4
102
{ACAD_REACTORS
330
FF0
102
}
330
FF0
100
DictionaryVariables
280
0
1
127
0
DICTIONARYVAR
5
1078
102
{ACAD_REACTORS
330
FF0
102
}
330
FF0
100
DictionaryVariables
280
0
1
2
0
DICTIONARY
5
10A9
330
FD1
100
AcDbDictionary
280
1
281
1
3
ACAD_XREC_ROUNDTRIP
360
10AA
0
DICTIONARY
5
10A7
330
FD0
100
AcDbDictionary
280
1
281
1
3
ACAD_XREC_ROUNDTRIP
360
10A8
0
DICTIONARY
5
F84
330
F83
100
AcDbDictionary
280
1
281
1
3
ACAD_XREC_ROUNDTRIP
360
FFF
3
BUMPTILE
360
F86
3
DIFFUSETILE
360
F85
3
OPACITYTILE
360
F89
3
REFLECTIONTILE
360
F88
3
REFRACTIONTILE
360
F8A
3
SPECULARTILE
360
F87
0
DICTIONARY
5
F7C
330
F7B
100
AcDbDictionary
280
1
281
1
3
ACAD_XREC_ROUNDTRIP
360
FFE
3
BUMPTILE
360
F7E
3
DIFFUSETILE
360
F7D
3
OPACITYTILE
360
F81
3
REFLECTIONTILE
360
F80
3
REFRACTIONTILE
360
F82
3
SPECULARTILE
360
F7F
0
DICTIONARY
5
F8C
330
F8B
100
AcDbDictionary
280
1
281
1
3
ACAD_XREC_ROUNDTRIP
360
1000
3
BUMPTILE
360
F8E
3
DIFFUSETILE
360
F8D
3
OPACITYTILE
360
F91
3
REFLECTIONTILE
360
F90
3
REFRACTIONTILE
360
F92
3
SPECULARTILE
360
F8F
0
DICTIONARY
5
FF8
330
FA9
100
AcDbDictionary
280
1
281
1
3
ACAD_ROUNDTRIP_2008_TABLESTYLE_CELLSTYLEMAP
360
1079
3
ACAD_XREC_ROUNDTRIP
360
10A6
0
DICTIONARY
5
108A
330
F99
100
AcDbDictionary
280
1
281
1
3
ACAD_XREC_ROUNDTRIP
360
108B
0
DICTIONARY
5
108E
330
F9B
100
AcDbDictionary
280
1
281
1
3
ACAD_XREC_ROUNDTRIP
360
108F
0
DICTIONARY
5
108C
330
F9A
100
AcDbDictionary
280
1
281
1
3
ACAD_XREC_ROUNDTRIP
360
108D
0
DICTIONARY
5
1088
330
F98
100
AcDbDictionary
280
1
281
1
3
ACAD_XREC_ROUNDTRIP
360
1089
0
DICTIONARY
5
1096
330
F9F
100
AcDbDictionary
280
1
281
1
3
ACAD_XREC_ROUNDTRIP
360
1097
0
DICTIONARY
5
109E
330
FA3
100
AcDbDictionary
280
1
281
1
3
ACAD_XREC_ROUNDTRIP
360
109F
0
DICTIONARY
5
1090
330
F9C
100
AcDbDictionary
280
1
281
1
3
ACAD_XREC_ROUNDTRIP
360
1091
0
DICTIONARY
5
1094
330
F9E
100
AcDbDictionary
280
1
281
1
3
ACAD_XREC_ROUNDTRIP
360
1095
0
DICTIONARY
5
10A4
330
FA6
100
AcDbDictionary
280
1
281
1
3
ACAD_XREC_ROUNDTRIP
360
10A5
0
DICTIONARY
5
109C
330
FA2
100
AcDbDictionary
280
1
281
1
3
ACAD_XREC_ROUNDTRIP
360
109D
0
DICTIONARY
5
1080
330
F94
100
AcDbDictionary
280
1
281
1
3
ACAD_XREC_ROUNDTRIP
360
1081
0
DICTIONARY
5
1082
330
F95
100
AcDbDictionary
280
1
281
1
3
ACAD_XREC_ROUNDTRIP
360
1083
0
DICTIONARY
5
1084
330
F96
100
AcDbDictionary
280
1
281
1
3
ACAD_XREC_ROUNDTRIP
360
1085
0
DICTIONARY
5
1086
330
F97
100
AcDbDictionary
280
1
281
1
3
ACAD_XREC_ROUNDTRIP
360
1087
0
DICTIONARY
5
10A0
330
FA4
100
AcDbDictionary
280
1
281
1
3
ACAD_XREC_ROUNDTRIP
360
10A1
0
DICTIONARY
5
109A
330
FA1
100
AcDbDictionary
280
1
281
1
3
ACAD_XREC_ROUNDTRIP
360
109B
0
DICTIONARY
5
10A2
330
FA5
100
AcDbDictionary
280
1
281
1
3
ACAD_XREC_ROUNDTRIP
360
10A3
0
DICTIONARY
5
1092
330
F9D
100
AcDbDictionary
280
1
281
1
3
ACAD_XREC_ROUNDTRIP
360
1093
0
DICTIONARY
5
1098
330
FA0
100
AcDbDictionary
280
1
281
1
3
ACAD_XREC_ROUNDTRIP
360
1099
0
XRECORD
5
10AA
102
{ACAD_REACTORS
330
10A9
102
}
330
10A9
100
AcDbXrecord
280
1
102
SHADEPLOT
70
0
102
SHADEPLOTRESLEVEL
70
2
102
SHADEPLOTCUSTOMDPI
70
300
0
XRECORD
5
10A8
102
{ACAD_REACTORS
330
10A7
102
}
330
10A7
100
AcDbXrecord
280
1
102
SHADEPLOT
70
0
102
SHADEPLOTRESLEVEL
70
2
102
SHADEPLOTCUSTOMDPI
70
300
0
XRECORD
5
FFF
102
{ACAD_REACTORS
330
F84
102
}
330
F84
100
AcDbXrecord
280
1
102
MATERIAL
148
0.0
149
0.0
149
0.0
93
0
94
127
282
0
72
0
77
0
171
0
175
0
179
0
273
0
0
XRECORD
5
F86
102
{ACAD_REACTORS
330
F84
102
}
330
F84
100
AcDbXrecord
280
1
270
1
271
1
0
XRECORD
5
F85
102
{ACAD_REACTORS
330
F84
102
}
330
F84
100
AcDbXrecord
280
1
270
1
271
1
0
XRECORD
5
F89
102
{ACAD_REACTORS
330
F84
102
}
330
F84
100
AcDbXrecord
280
1
270
1
271
1
0
XRECORD
5
F88
102
{ACAD_REACTORS
330
F84
102
}
330
F84
100
AcDbXrecord
280
1
270
1
271
1
0
XRECORD
5
F8A
102
{ACAD_REACTORS
330
F84
102
}
330
F84
100
AcDbXrecord
280
1
270
1
271
1
0
XRECORD
5
F87
102
{ACAD_REACTORS
330
F84
102
}
330
F84
100
AcDbXrecord
280
1
270
1
271
1
0
XRECORD
5
FFE
102
{ACAD_REACTORS
330
F7C
102
}
330
F7C
100
AcDbXrecord
280
1
102
MATERIAL
148
0.0
149
0.0
149
0.0
93
0
94
127
282
0
72
0
77
0
171
0
175
0
179
0
273
0
0
XRECORD
5
F7E
102
{ACAD_REACTORS
330
F7C
102
}
330
F7C
100
AcDbXrecord
280
1
270
1
271
1
0
XRECORD
5
F7D
102
{ACAD_REACTORS
330
F7C
102
}
330
F7C
100
AcDbXrecord
280
1
270
1
271
1
0
XRECORD
5
F81
102
{ACAD_REACTORS
330
F7C
102
}
330
F7C
100
AcDbXrecord
280
1
270
1
271
1
0
XRECORD
5
F80
102
{ACAD_REACTORS
330
F7C
102
}
330
F7C
100
AcDbXrecord
280
1
270
1
271
1
0
XRECORD
5
F82
102
{ACAD_REACTORS
330
F7C
102
}
330
F7C
100
AcDbXrecord
280
1
270
1
271
1
0
XRECORD
5
F7F
102
{ACAD_REACTORS
330
F7C
102
}
330
F7C
100
AcDbXrecord
280
1
270
1
271
1
0
XRECORD
5
1000
102
{ACAD_REACTORS
330
F8C
102
}
330
F8C
100
AcDbXrecord
280
1
102
MATERIAL
148
0.0
149
0.0
149
0.0
93
0
94
127
282
0
72
0
77
0
171
0
175
0
179
0
273
0
0
XRECORD
5
F8E
102
{ACAD_REACTORS
330
F8C
102
}
330
F8C
100
AcDbXrecord
280
1
270
1
271
1
0
XRECORD
5
F8D
102
{ACAD_REACTORS
330
F8C
102
}
330
F8C
100
AcDbXrecord
280
1
270
1
271
1
0
XRECORD
5
F91
102
{ACAD_REACTORS
330
F8C
102
}
330
F8C
100
AcDbXrecord
280
1
270
1
271
1
0
XRECORD
5
F90
102
{ACAD_REACTORS
330
F8C
102
}
330
F8C
100
AcDbXrecord
280
1
270
1
271
1
0
XRECORD
5
F92
102
{ACAD_REACTORS
330
F8C
102
}
330
F8C
100
AcDbXrecord
280
1
270
1
271
1
0
XRECORD
5
F8F
102
{ACAD_REACTORS
330
F8C
102
}
330
F8C
100
AcDbXrecord
280
1
270
1
271
1
0
CELLSTYLEMAP
5
1079
102
{ACAD_REACTORS
330
FF8
102
}
330
FF8
100
AcDbCellStyleMap
90
3
300
CELLSTYLE
1
TABLEFORMAT_BEGIN
90
5
170
1
91
0
92
32768
62
257
93
1
300
CONTENTFORMAT
1
CONTENTFORMAT_BEGIN
90
0
91
0
92
512
93
0
300

40
0.0
140
1.0
94
5
62
0
340
253
144
0.25
309
CONTENTFORMAT_END
171
1
301
MARGIN
1
CELLMARGIN_BEGIN
40
0.06
40
0.06
40
0.06
40
0.06
40
0.18
40
0.18
309
CELLMARGIN_END
94
6
95
1
302
GRIDFORMAT
1
GRIDFORMAT_BEGIN
90
0
91
1
62
0
92
-2
340
0
93
0
40
0.045
309
GRIDFORMAT_END
95
2
302
GRIDFORMAT
1
GRIDFORMAT_BEGIN
90
0
91
1
62
0
92
-2
340
0
93
0
40
0.045
309
GRIDFORMAT_END
95
4
302
GRIDFORMAT
1
GRIDFORMAT_BEGIN
90
0
91
1
62
0
92
-2
340
0
93
0
40
0.045
309
GRIDFORMAT_END
95
8
302
GRIDFORMAT
1
GRIDFORMAT_BEGIN
90
0
91
1
62
0
92
-2
340
0
93
0
40
0.045
309
GRIDFORMAT_END
95
16
302
GRIDFORMAT
1
GRIDFORMAT_BEGIN
90
0
91
1
62
0
92
-2
340
0
93
0
40
0.045
309
GRIDFORMAT_END
95
32
302
GRIDFORMAT
1
GRIDFORMAT_BEGIN
90
0
91
1
62
0
92
-2
340
0
93
0
40
0.045
309
GRIDFORMAT_END
309
TABLEFORMAT_END
1
CELLSTYLE_BEGIN
90
1
91
1
300
_TITLE
309
CELLSTYLE_END
300
CELLSTYLE
1
TABLEFORMAT_BEGIN
90
5
170
1
91
0
92
0
62
257
93
1
300
CONTENTFORMAT
1
CONTENTFORMAT_BEGIN
90
0
91
0
92
512
93
0
300

40
0.0
140
1.0
94
5
62
0
340
253
144
0.18
309
CONTENTFORMAT_END
171
1
301
MARGIN
1
CELLMARGIN_BEGIN
40
0.06
40
0.06
40
0.06
40
0.06
40
0.18
40
0.18
309
CELLMARGIN_END
94
6
95
1
302
GRIDFORMAT
1
GRIDFORMAT_BEGIN
90
0
91
1
62
0
92
-2
340
0
93
0
40
0.045
309
GRIDFORMAT_END
95
2
302
GRIDFORMAT
1
GRIDFORMAT_BEGIN
90
0
91
1
62
0
92
-2
340
0
93
0
40
0.045
309
GRIDFORMAT_END
95
4
302
GRIDFORMAT
1
GRIDFORMAT_BEGIN
90
0
91
1
62
0
92
-2
340
0
93
0
40
0.045
309
GRIDFORMAT_END
95
8
302
GRIDFORMAT
1
GRIDFORMAT_BEGIN
90
0
91
1
62
0
92
-2
340
0
93
0
40
0.045
309
GRIDFORMAT_END
95
16
302
GRIDFORMAT
1
GRIDFORMAT_BEGIN
90
0
91
1
62
0
92
-2
340
0
93
0
40
0.045
309
GRIDFORMAT_END
95
32
302
GRIDFORMAT
1
GRIDFORMAT_BEGIN
90
0
91
1
62
0
92
-2
340
0
93
0
40
0.045
309
GRIDFORMAT_END
309
TABLEFORMAT_END
1
CELLSTYLE_BEGIN
90
2
91
1
300
_HEADER
309
CELLSTYLE_END
300
CELLSTYLE
1
TABLEFORMAT_BEGIN
90
5
170
1
91
0
92
0
62
257
93
1
300
CONTENTFORMAT
1
CONTENTFORMAT_BEGIN
90
0
91
0
92
512
93
0
300

40
0.0
140
1.0
94
2
62
0
340
253
144
0.18
309
CONTENTFORMAT_END
171
1
301
MARGIN
1
CELLMARGIN_BEGIN
40
0.06
40
0.06
40
0.06
40
0.06
40
0.18
40
0.18
309
CELLMARGIN_END
94
6
95
1
302
GRIDFORMAT
1
GRIDFORMAT_BEGIN
90
0
91
1
62
0
92
-2
340
0
93
0
40
0.045
309
GRIDFORMAT_END
95
2
302
GRIDFORMAT
1
GRIDFORMAT_BEGIN
90
0
91
1
62
0
92
-2
340
0
93
0
40
0.045
309
GRIDFORMAT_END
95
4
302
GRIDFORMAT
1
GRIDFORMAT_BEGIN
90
0
91
1
62
0
92
-2
340
0
93
0
40
0.045
309
GRIDFORMAT_END
95
8
302
GRIDFORMAT
1
GRIDFORMAT_BEGIN
90
0
91
1
62
0
92
-2
340
0
93
0
40
0.045
309
GRIDFORMAT_END
95
16
302
GRIDFORMAT
1
GRIDFORMAT_BEGIN
90
0
91
1
62
0
92
-2
340
0
93
0
40
0.045
309
GRIDFORMAT_END
95
32
302
GRIDFORMAT
1
GRIDFORMAT_BEGIN
90
0
91
1
62
0
92
-2
340
0
93
0
40
0.045
309
GRIDFORMAT_END
309
TABLEFORMAT_END
1
CELLSTYLE_BEGIN
90
3
91
2
300
_DATA
309
CELLSTYLE_END
0
XRECORD
5
10A6
102
{ACAD_REACTORS
330
FF8
102
}
330
FF8
100
AcDbXrecord
280
1
102
ACAD_ROUNDTRIP_PRE2007_TABLESTYLE
90
512
91
0
1

92
512
93
0
2

94
512
95
0
3

0
XRECORD
5
108B
102
{ACAD_REACTORS
330
108A
102
}
330
108A
100
AcDbXrecord
280
1
102
RTVSPropertyOp0
70
1
102
RTVSPropertyOp1
70
1
102
RTVSPropertyOp2
70
1
102
RTVSPropertyOp3
70
1
102
RTVSPropertyOp4
70
1
102
RTVSPropertyOp5
70
1
102
RTVSPropertyOp6
70
1
102
RTVSPropertyOp7
70
1
102
RTVSPropertyOp8
70
1
102
RTVSPropertyOp9
70
1
102
RTVSPropertyOp10
70
1
102
RTVSPropertyOp11
70
1
102
RTVSPropertyOp12
70
1
102
RTVSPropertyOp13
70
1
102
RTVSPropertyOp14
70
1
102
RTVSPropertyOp15
70
1
102
RTVSPropertyOp16
70
1
102
RTVSPropertyOp17
70
1
102
RTVSPropertyOp18
70
1
102
RTVSPropertyOp19
70
1
102
RTVSPropertyOp20
70
1
102
RTVSPropertyOp21
70
1
102
RTVSPropertyOp22
70
1
102
RTVSPropertyOp23
70
1
102
RTVSPropertyOp24
70
1
102
RTVSPropertyOp25
70
1
102
RTVSPropertyOp26
70
1
102
RTVSPropertyOp27
70
1
0
XRECORD
5
108F
102
{ACAD_REACTORS
330
108E
102
}
330
108E
100
AcDbXrecord
280
1
102
RTVSPropertyOp0
70
1
102
RTVSPropertyOp1
70
1
102
RTVSPropertyOp2
70
1
102
RTVSPropertyOp3
70
1
102
RTVSPropertyOp4
70
1
102
RTVSPropertyOp5
70
1
102
RTVSPropertyOp6
70
1
102
RTVSPropertyOp7
70
1
102
RTVSPropertyOp8
70
1
102
RTVSPropertyOp9
70
1
102
RTVSPropertyOp10
70
1
102
RTVSPropertyOp11
70
1
102
RTVSPropertyOp12
70
1
102
RTVSPropertyOp13
70
1
102
RTVSPropertyOp14
70
1
102
RTVSPropertyOp15
70
1
102
RTVSPropertyOp16
70
1
102
RTVSPropertyOp17
70
1
102
RTVSPropertyOp18
70
1
102
RTVSPropertyOp19
70
1
102
RTVSPropertyOp20
70
1
102
RTVSPropertyOp21
70
1
102
RTVSPropertyOp22
70
1
102
RTVSPropertyOp23
70
1
102
RTVSPropertyOp24
70
1
102
RTVSPropertyOp25
70
1
102
RTVSPropertyOp26
70
1
102
RTVSPropertyOp27
70
1
0
XRECORD
5
108D
102
{ACAD_REACTORS
330
108C
102
}
330
108C
100
AcDbXrecord
280
1
102
RTVSPropertyOp0
70
1
102
RTVSPropertyOp1
70
1
102
RTVSPropertyOp2
70
1
102
RTVSPropertyOp3
70
1
102
RTVSPropertyOp4
70
1
102
RTVSPropertyOp5
70
1
102
RTVSPropertyOp6
70
1
102
RTVSPropertyOp7
70
1
102
RTVSPropertyOp8
70
1
102
RTVSPropertyOp9
70
1
102
RTVSPropertyOp10
70
1
102
RTVSPropertyOp11
70
1
102
RTVSPropertyOp12
70
1
102
RTVSPropertyOp13
70
1
102
RTVSPropertyOp14
70
1
102
RTVSPropertyOp15
70
1
102
RTVSPropertyOp16
70
1
102
RTVSPropertyOp17
70
1
102
RTVSPropertyOp18
70
1
102
RTVSPropertyOp19
70
1
102
RTVSPropertyOp20
70
1
102
RTVSPropertyOp21
70
1
102
RTVSPropertyOp22
70
1
102
RTVSPropertyOp23
70
1
102
RTVSPropertyOp24
70
1
102
RTVSPropertyOp25
70
1
102
RTVSPropertyOp26
70
1
102
RTVSPropertyOp27
70
1
0
XRECORD
5
1089
102
{ACAD_REACTORS
330
1088
102
}
330
1088
100
AcDbXrecord
280
1
102
RTVSPropertyOp0
70
1
102
RTVSPropertyOp1
70
1
102
RTVSPropertyOp2
70
1
102
RTVSPropertyOp3
70
1
102
RTVSPropertyOp4
70
1
102
RTVSPropertyOp5
70
1
102
RTVSPropertyOp6
70
1
102
RTVSPropertyOp7
70
1
102
RTVSPropertyOp8
70
1
102
RTVSPropertyOp9
70
1
102
RTVSPropertyOp10
70
1
102
RTVSPropertyOp11
70
1
102
RTVSPropertyOp12
70
1
102
RTVSPropertyOp13
70
1
102
RTVSPropertyOp14
70
1
102
RTVSPropertyOp15
70
1
102
RTVSPropertyOp16
70
1
102
RTVSPropertyOp17
70
1
102
RTVSPropertyOp18
70
1
102
RTVSPropertyOp19
70
1
102
RTVSPropertyOp20
70
1
102
RTVSPropertyOp21
70
1
102
RTVSPropertyOp22
70
1
102
RTVSPropertyOp23
70
1
102
RTVSPropertyOp24
70
1
102
RTVSPropertyOp25
70
1
102
RTVSPropertyOp26
70
1
102
RTVSPropertyOp27
70
1
0
XRECORD
5
1097
102
{ACAD_REACTORS
330
1096
102
}
330
1096
100
AcDbXrecord
280
1
102
RTVSPropertyOp0
70
1
102
RTVSPropertyOp1
70
1
102
RTVSPropertyOp2
70
1
102
RTVSPropertyOp3
70
1
102
RTVSPropertyOp4
70
1
102
RTVSPropertyOp5
70
1
102
RTVSPropertyOp6
70
1
102
RTVSPropertyOp7
70
1
102
RTVSPropertyOp8
70
1
102
RTVSPropertyOp9
70
1
102
RTVSPropertyOp10
70
1
102
RTVSPropertyOp11
70
1
102
RTVSPropertyOp12
70
1
102
RTVSPropertyOp13
70
1
102
RTVSPropertyOp14
70
1
102
RTVSPropertyOp15
70
1
102
RTVSPropertyOp16
70
1
102
RTVSPropertyOp17
70
1
102
RTVSPropertyOp18
70
1
102
RTVSPropertyOp19
70
1
102
RTVSPropertyOp20
70
1
102
RTVSPropertyOp21
70
1
102
RTVSPropertyOp22
70
1
102
RTVSPropertyOp23
70
1
102
RTVSPropertyOp24
70
1
102
RTVSPropertyOp25
70
1
102
RTVSPropertyOp26
70
1
102
RTVSPropertyOp27
70
1
0
XRECORD
5
109F
102
{ACAD_REACTORS
330
109E
102
}
330
109E
100
AcDbXrecord
280
1
102
RTVSPropertyOp0
70
1
102
RTVSPropertyOp1
70
1
102
RTVSPropertyOp2
70
1
102
RTVSPropertyOp3
70
1
102
RTVSPropertyOp4
70
1
102
RTVSPropertyOp5
70
1
102
RTVSPropertyOp6
70
1
102
RTVSPropertyOp7
70
1
102
RTVSPropertyOp8
70
1
102
RTVSPropertyOp9
70
1
102
RTVSPropertyOp10
70
1
102
RTVSPropertyOp11
70
1
102
RTVSPropertyOp12
70
1
102
RTVSPropertyOp13
70
1
102
RTVSPropertyOp14
70
1
102
RTVSPropertyOp15
70
1
102
RTVSPropertyOp16
70
1
102
RTVSPropertyOp17
70
1
102
RTVSPropertyOp18
70
1
102
RTVSPropertyOp19
70
1
102
RTVSPropertyOp20
70
1
102
RTVSPropertyOp21
70
1
102
RTVSPropertyOp22
70
1
102
RTVSPropertyOp23
70
1
102
RTVSPropertyOp24
70
1
102
RTVSPropertyOp25
70
1
102
RTVSPropertyOp26
70
1
102
RTVSPropertyOp27
70
1
0
XRECORD
5
1091
102
{ACAD_REACTORS
330
1090
102
}
330
1090
100
AcDbXrecord
280
1
102
RTVSPropertyOp0
70
1
102
RTVSPropertyOp1
70
1
102
RTVSPropertyOp2
70
1
102
RTVSPropertyOp3
70
1
102
RTVSPropertyOp4
70
1
102
RTVSPropertyOp5
70
1
102
RTVSPropertyOp6
70
1
102
RTVSPropertyOp7
70
1
102
RTVSPropertyOp8
70
1
102
RTVSPropertyOp9
70
1
102
RTVSPropertyOp10
70
1
102
RTVSPropertyOp11
70
1
102
RTVSPropertyOp12
70
1
102
RTVSPropertyOp13
70
1
102
RTVSPropertyOp14
70
1
102
RTVSPropertyOp15
70
1
102
RTVSPropertyOp16
70
1
102
RTVSPropertyOp17
70
1
102
RTVSPropertyOp18
70
1
102
RTVSPropertyOp19
70
1
102
RTVSPropertyOp20
70
1
102
RTVSPropertyOp21
70
1
102
RTVSPropertyOp22
70
1
102
RTVSPropertyOp23
70
1
102
RTVSPropertyOp24
70
1
102
RTVSPropertyOp25
70
1
102
RTVSPropertyOp26
70
1
102
RTVSPropertyOp27
70
1
0
XRECORD
5
1095
102
{ACAD_REACTORS
330
1094
102
}
330
1094
100
AcDbXrecord
280
1
102
RTVSPropertyOp0
70
1
102
RTVSPropertyOp1
70
1
102
RTVSPropertyOp2
70
1
102
RTVSPropertyOp3
70
1
102
RTVSPropertyOp4
70
1
102
RTVSPropertyOp5
70
1
102
RTVSPropertyOp6
70
1
102
RTVSPropertyOp7
70
1
102
RTVSPropertyOp8
70
1
102
RTVSPropertyOp9
70
1
102
RTVSPropertyOp10
70
1
102
RTVSPropertyOp11
70
1
102
RTVSPropertyOp12
70
1
102
RTVSPropertyOp13
70
1
102
RTVSPropertyOp14
70
1
102
RTVSPropertyOp15
70
1
102
RTVSPropertyOp16
70
1
102
RTVSPropertyOp17
70
1
102
RTVSPropertyOp18
70
1
102
RTVSPropertyOp19
70
1
102
RTVSPropertyOp20
70
1
102
RTVSPropertyOp21
70
1
102
RTVSPropertyOp22
70
1
102
RTVSPropertyOp23
70
1
102
RTVSPropertyOp24
70
1
102
RTVSPropertyOp25
70
1
102
RTVSPropertyOp26
70
1
102
RTVSPropertyOp27
70
1
0
XRECORD
5
10A5
102
{ACAD_REACTORS
330
10A4
102
}
330
10A4
100
AcDbXrecord
280
1
102
RTVSPropertyOp0
70
0
102
RTVSPropertyOp1
70
0
102
RTVSPropertyOp2
70
0
102
RTVSPropertyOp3
70
0
102
RTVSPropertyOp4
70
0
102
RTVSPropertyOp5
70
0
102
RTVSPropertyOp6
70
0
102
RTVSPropertyOp7
70
0
102
RTVSPropertyOp8
70
0
102
RTVSPropertyOp9
70
0
102
RTVSPropertyOp10
70
0
102
RTVSPropertyOp11
70
0
102
RTVSPropertyOp12
70
0
102
RTVSPropertyOp13
70
0
102
RTVSPropertyOp14
70
2
102
RTVSPropertyOp15
70
0
102
RTVSPropertyOp16
70
0
102
RTVSPropertyOp17
70
0
102
RTVSPropertyOp18
70
0
102
RTVSPropertyOp19
70
0
102
RTVSPropertyOp20
70
0
102
RTVSPropertyOp21
70
0
102
RTVSPropertyOp22
70
0
102
RTVSPropertyOp23
70
0
102
RTVSPropertyOp24
70
0
102
RTVSPropertyOp25
70
0
102
RTVSPropertyOp26
70
0
102
RTVSPropertyOp27
70
0
0
XRECORD
5
109D
102
{ACAD_REACTORS
330
109C
102
}
330
109C
100
AcDbXrecord
280
1
102
RTVSPropertyOp0
70
1
102
RTVSPropertyOp1
70
1
102
RTVSPropertyOp2
70
1
102
RTVSPropertyOp3
70
1
102
RTVSPropertyOp4
70
1
102
RTVSPropertyOp5
70
1
102
RTVSPropertyOp6
70
1
102
RTVSPropertyOp7
70
1
102
RTVSPropertyOp8
70
1
102
RTVSPropertyOp9
70
1
102
RTVSPropertyOp10
70
1
102
RTVSPropertyOp11
70
1
102
RTVSPropertyOp12
70
1
102
RTVSPropertyOp13
70
1
102
RTVSPropertyOp14
70
1
102
RTVSPropertyOp15
70
1
102
RTVSPropertyOp16
70
1
102
RTVSPropertyOp17
70
1
102
RTVSPropertyOp18
70
1
102
RTVSPropertyOp19
70
1
102
RTVSPropertyOp20
70
1
102
RTVSPropertyOp21
70
1
102
RTVSPropertyOp22
70
1
102
RTVSPropertyOp23
70
1
102
RTVSPropertyOp24
70
1
102
RTVSPropertyOp25
70
1
102
RTVSPropertyOp26
70
1
102
RTVSPropertyOp27
70
1
0
XRECORD
5
1081
102
{ACAD_REACTORS
330
1080
102
}
330
1080
100
AcDbXrecord
280
1
102
RTVSPropertyOp0
70
1
102
RTVSPropertyOp1
70
1
102
RTVSPropertyOp2
70
1
102
RTVSPropertyOp3
70
1
102
RTVSPropertyOp4
70
1
102
RTVSPropertyOp5
70
1
102
RTVSPropertyOp6
70
1
102
RTVSPropertyOp7
70
1
102
RTVSPropertyOp8
70
1
102
RTVSPropertyOp9
70
1
102
RTVSPropertyOp10
70
1
102
RTVSPropertyOp11
70
1
102
RTVSPropertyOp12
70
1
102
RTVSPropertyOp13
70
1
102
RTVSPropertyOp14
70
1
102
RTVSPropertyOp15
70
1
102
RTVSPropertyOp16
70
1
102
RTVSPropertyOp17
70
1
102
RTVSPropertyOp18
70
1
102
RTVSPropertyOp19
70
1
102
RTVSPropertyOp20
70
1
102
RTVSPropertyOp21
70
1
102
RTVSPropertyOp22
70
1
102
RTVSPropertyOp23
70
1
102
RTVSPropertyOp24
70
1
102
RTVSPropertyOp25
70
1
102
RTVSPropertyOp26
70
1
102
RTVSPropertyOp27
70
1
0
XRECORD
5
1083
102
{ACAD_REACTORS
330
1082
102
}
330
1082
100
AcDbXrecord
280
1
102
RTVSPropertyOp0
70
1
102
RTVSPropertyOp1
70
1
102
RTVSPropertyOp2
70
1
102
RTVSPropertyOp3
70
1
102
RTVSPropertyOp4
70
1
102
RTVSPropertyOp5
70
1
102
RTVSPropertyOp6
70
1
102
RTVSPropertyOp7
70
1
102
RTVSPropertyOp8
70
1
102
RTVSPropertyOp9
70
1
102
RTVSPropertyOp10
70
1
102
RTVSPropertyOp11
70
1
102
RTVSPropertyOp12
70
1
102
RTVSPropertyOp13
70
1
102
RTVSPropertyOp14
70
1
102
RTVSPropertyOp15
70
1
102
RTVSPropertyOp16
70
1
102
RTVSPropertyOp17
70
1
102
RTVSPropertyOp18
70
1
102
RTVSPropertyOp19
70
1
102
RTVSPropertyOp20
70
1
102
RTVSPropertyOp21
70
1
102
RTVSPropertyOp22
70
1
102
RTVSPropertyOp23
70
1
102
RTVSPropertyOp24
70
1
102
RTVSPropertyOp25
70
1
102
RTVSPropertyOp26
70
1
102
RTVSPropertyOp27
70
1
0
XRECORD
5
1085
102
{ACAD_REACTORS
330
1084
102
}
330
1084
100
AcDbXrecord
280
1
102
RTVSPropertyOp0
70
1
102
RTVSPropertyOp1
70
1
102
RTVSPropertyOp2
70
1
102
RTVSPropertyOp3
70
1
102
RTVSPropertyOp4
70
1
102
RTVSPropertyOp5
70
1
102
RTVSPropertyOp6
70
1
102
RTVSPropertyOp7
70
1
102
RTVSPropertyOp8
70
1
102
RTVSPropertyOp9
70
1
102
RTVSPropertyOp10
70
1
102
RTVSPropertyOp11
70
1
102
RTVSPropertyOp12
70
1
102
RTVSPropertyOp13
70
1
102
RTVSPropertyOp14
70
1
102
RTVSPropertyOp15
70
1
102
RTVSPropertyOp16
70
1
102
RTVSPropertyOp17
70
1
102
RTVSPropertyOp18
70
1
102
RTVSPropertyOp19
70
1
102
RTVSPropertyOp20
70
1
102
RTVSPropertyOp21
70
1
102
RTVSPropertyOp22
70
1
102
RTVSPropertyOp23
70
1
102
RTVSPropertyOp24
70
1
102
RTVSPropertyOp25
70
1
102
RTVSPropertyOp26
70
1
102
RTVSPropertyOp27
70
1
0
XRECORD
5
1087
102
{ACAD_REACTORS
330
1086
102
}
330
1086
100
AcDbXrecord
280
1
102
RTVSPropertyOp0
70
1
102
RTVSPropertyOp1
70
1
102
RTVSPropertyOp2
70
1
102
RTVSPropertyOp3
70
1
102
RTVSPropertyOp4
70
1
102
RTVSPropertyOp5
70
1
102
RTVSPropertyOp6
70
1
102
RTVSPropertyOp7
70
1
102
RTVSPropertyOp8
70
1
102
RTVSPropertyOp9
70
1
102
RTVSPropertyOp10
70
1
102
RTVSPropertyOp11
70
1
102
RTVSPropertyOp12
70
1
102
RTVSPropertyOp13
70
1
102
RTVSPropertyOp14
70
1
102
RTVSPropertyOp15
70
1
102
RTVSPropertyOp16
70
1
102
RTVSPropertyOp17
70
1
102
RTVSPropertyOp18
70
1
102
RTVSPropertyOp19
70
1
102
RTVSPropertyOp20
70
1
102
RTVSPropertyOp21
70
1
102
RTVSPropertyOp22
70
1
102
RTVSPropertyOp23
70
1
102
RTVSPropertyOp24
70
1
102
RTVSPropertyOp25
70
1
102
RTVSPropertyOp26
70
1
102
RTVSPropertyOp27
70
1
0
XRECORD
5
10A1
102
{ACAD_REACTORS
330
10A0
102
}
330
10A0
100
AcDbXrecord
280
1
102
RTVSPropertyOp0
70
0
102
RTVSPropertyOp1
70
0
102
RTVSPropertyOp2
70
0
102
RTVSPropertyOp3
70
0
102
RTVSPropertyOp4
70
0
102
RTVSPropertyOp5
70
0
102
RTVSPropertyOp6
70
0
102
RTVSPropertyOp7
70
0
102
RTVSPropertyOp8
70
0
102
RTVSPropertyOp9
70
0
102
RTVSPropertyOp10
70
0
102
RTVSPropertyOp11
70
0
102
RTVSPropertyOp12
70
0
102
RTVSPropertyOp13
70
0
102
RTVSPropertyOp14
70
2
102
RTVSPropertyOp15
70
0
102
RTVSPropertyOp16
70
0
102
RTVSPropertyOp17
70
0
102
RTVSPropertyOp18
70
0
102
RTVSPropertyOp19
70
0
102
RTVSPropertyOp20
70
0
102
RTVSPropertyOp21
70
0
102
RTVSPropertyOp22
70
0
102
RTVSPropertyOp23
70
0
102
RTVSPropertyOp24
70
0
102
RTVSPropertyOp25
70
0
102
RTVSPropertyOp26
70
0
102
RTVSPropertyOp27
70
0
0
XRECORD
5
109B
102
{ACAD_REACTORS
330
109A
102
}
330
109A
100
AcDbXrecord
280
1
102
RTVSPropertyOp0
70
1
102
RTVSPropertyOp1
70
1
102
RTVSPropertyOp2
70
1
102
RTVSPropertyOp3
70
1
102
RTVSPropertyOp4
70
1
102
RTVSPropertyOp5
70
1
102
RTVSPropertyOp6
70
1
102
RTVSPropertyOp7
70
1
102
RTVSPropertyOp8
70
1
102
RTVSPropertyOp9
70
1
102
RTVSPropertyOp10
70
1
102
RTVSPropertyOp11
70
1
102
RTVSPropertyOp12
70
1
102
RTVSPropertyOp13
70
1
102
RTVSPropertyOp14
70
1
102
RTVSPropertyOp15
70
1
102
RTVSPropertyOp16
70
1
102
RTVSPropertyOp17
70
1
102
RTVSPropertyOp18
70
1
102
RTVSPropertyOp19
70
1
102
RTVSPropertyOp20
70
1
102
RTVSPropertyOp21
70
1
102
RTVSPropertyOp22
70
1
102
RTVSPropertyOp23
70
1
102
RTVSPropertyOp24
70
1
102
RTVSPropertyOp25
70
1
102
RTVSPropertyOp26
70
1
102
RTVSPropertyOp27
70
1
0
XRECORD
5
10A3
102
{ACAD_REACTORS
330
10A2
102
}
330
10A2
100
AcDbXrecord
280
1
102
RTVSPropertyOp0
70
0
102
RTVSPropertyOp1
70
0
102
RTVSPropertyOp2
70
0
102
RTVSPropertyOp3
70
0
102
RTVSPropertyOp4
70
0
102
RTVSPropertyOp5
70
0
102
RTVSPropertyOp6
70
0
102
RTVSPropertyOp7
70
0
102
RTVSPropertyOp8
70
0
102
RTVSPropertyOp9
70
0
102
RTVSPropertyOp10
70
0
102
RTVSPropertyOp11
70
0
102
RTVSPropertyOp12
70
0
102
RTVSPropertyOp13
70
0
102
RTVSPropertyOp14
70
2
102
RTVSPropertyOp15
70
0
102
RTVSPropertyOp16
70
0
102
RTVSPropertyOp17
70
0
102
RTVSPropertyOp18
70
0
102
RTVSPropertyOp19
70
0
102
RTVSPropertyOp20
70
0
102
RTVSPropertyOp21
70
0
102
RTVSPropertyOp22
70
0
102
RTVSPropertyOp23
70
0
102
RTVSPropertyOp24
70
0
102
RTVSPropertyOp25
70
0
102
RTVSPropertyOp26
70
0
102
RTVSPropertyOp27
70
0
0
XRECORD
5
1093
102
{ACAD_REACTORS
330
1092
102
}
330
1092
100
AcDbXrecord
280
1
102
RTVSPropertyOp0
70
1
102
RTVSPropertyOp1
70
1
102
RTVSPropertyOp2
70
1
102
RTVSPropertyOp3
70
1
102
RTVSPropertyOp4
70
1
102
RTVSPropertyOp5
70
1
102
RTVSPropertyOp6
70
1
102
RTVSPropertyOp7
70
1
102
RTVSPropertyOp8
70
1
102
RTVSPropertyOp9
70
1
102
RTVSPropertyOp10
70
1
102
RTVSPropertyOp11
70
1
102
RTVSPropertyOp12
70
1
102
RTVSPropertyOp13
70
1
102
RTVSPropertyOp14
70
1
102
RTVSPropertyOp15
70
1
102
RTVSPropertyOp16
70
1
102
RTVSPropertyOp17
70
1
102
RTVSPropertyOp18
70
1
102
RTVSPropertyOp19
70
1
102
RTVSPropertyOp20
70
1
102
RTVSPropertyOp21
70
1
102
RTVSPropertyOp22
70
1
102
RTVSPropertyOp23
70
1
102
RTVSPropertyOp24
70
1
102
RTVSPropertyOp25
70
1
102
RTVSPropertyOp26
70
1
102
RTVSPropertyOp27
70
1
0
XRECORD
5
1099
102
{ACAD_REACTORS
330
1098
102
}
330
1098
100
AcDbXrecord
280
1
102
RTVSPropertyOp0
70
1
102
RTVSPropertyOp1
70
1
102
RTVSPropertyOp2
70
1
102
RTVSPropertyOp3
70
1
102
RTVSPropertyOp4
70
1
102
RTVSPropertyOp5
70
1
102
RTVSPropertyOp6
70
1
102
RTVSPropertyOp7
70
1
102
RTVSPropertyOp8
70
1
102
RTVSPropertyOp9
70
1
102
RTVSPropertyOp10
70
1
102
RTVSPropertyOp11
70
1
102
RTVSPropertyOp12
70
1
102
RTVSPropertyOp13
70
1
102
RTVSPropertyOp14
70
1
102
RTVSPropertyOp15
70
1
102
RTVSPropertyOp16
70
1
102
RTVSPropertyOp17
70
1
102
RTVSPropertyOp18
70
1
102
RTVSPropertyOp19
70
1
102
RTVSPropertyOp20
70
1
102
RTVSPropertyOp21
70
1
102
RTVSPropertyOp22
70
1
102
RTVSPropertyOp23
70
1
102
RTVSPropertyOp24
70
1
102
RTVSPropertyOp25
70
1
102
RTVSPropertyOp26
70
1
102
RTVSPropertyOp27
70
1
0
ENDSEC
0
EOF
