  0
SECTION
  2
HEADER
  9
$ACADVER
  1
AC1015
  9
$ACADMAINTVER
 70
    20
  9
$DWGCODEPAGE
  3
ANSI_1252
  9
$INSBASE
 10
0.0
 20
0.0
 30
0.0
  9
$EXTMIN
 10
-208.09585492228
 20
-100.103626943005
 30
0.0
  9
$EXTMAX
 10
143.354922279793
 20
106.7646657571623
 30
0.0
  9
$LIMMIN
 10
0.0
 20
0.0
  9
$LIMMAX
 10
12.0
 20
9.0
  9
$ORTHOMODE
 70
     0
  9
$REGENMODE
 70
     1
  9
$FILLMODE
 70
     1
  9
$QTEXTMODE
 70
     0
  9
$MIRRTEXT
 70
     1
  9
$LTSCALE
 40
1.0
  9
$ATTMODE
 70
     1
  9
$TEXTSIZE
 40
0.2
  9
$TRACEWID
 40
0.05
  9
$TEXTSTYLE
  7
Standard
  9
$CLAYER
  8
0
  9
$CELTYPE
  6
ByLayer
  9
$CECOLOR
 62
   256
  9
$CELTSCALE
 40
1.0
  9
$DISPSILH
 70
     0
  9
$DIMSCALE
 40
1.0
  9
$DIMASZ
 40
2.5
  9
$DIMEXO
 40
0.625
  9
$DIMDLI
 40
0.38
  9
$DIMRND
 40
0.0
  9
$DIMDLE
 40
0.0
  9
$DIMEXE
 40
1.25
  9
$DIMTP
 40
0.0
  9
$DIMTM
 40
0.000000001
  9
$DIMTXT
 40
2.5
  9
$DIMCEN
 40
0.09
  9
$DIMTSZ
 40
0.0
  9
$DIMTOL
 70
     1
  9
$DIMLIM
 70
     0
  9
$DIMTIH
 70
     0
  9
$DIMTOH
 70
     0
  9
$DIMSE1
 70
     0
  9
$DIMSE2
 70
     0
  9
$DIMTAD
 70
     1
  9
$DIMZIN
 70
     0
  9
$DIMBLK
  1
VDDIM_DEFAULT
  9
$DIMASO
 70
     1
  9
$DIMSHO
 70
     1
  9
$DIMPOST
  1

  9
$DIMAPOST
  1

  9
$DIMALT
 70
     0
  9
$DIMALTD
 70
     2
  9
$DIMALTF
 40
25.4
  9
$DIMLFAC
 40
1.0
  9
$DIMTOFL
 70
     0
  9
$DIMTVP
 40
0.0
  9
$DIMTIX
 70
     0
  9
$DIMSOXD
 70
     0
  9
$DIMSAH
 70
     0
  9
$DIMBLK1
  1

  9
$DIMBLK2
  1

  9
$DIMSTYLE
  2
BEM-ISBE
  9
$DIMCLRD
 70
     0
  9
$DIMCLRE
 70
     0
  9
$DIMCLRT
 70
     0
  9
$DIMTFAC
 40
0.5
  9
$DIMGAP
 40
0.625
  9
$DIMJUST
 70
     0
  9
$DIMSD1
 70
     0
  9
$DIMSD2
 70
     0
  9
$DIMTOLJ
 70
     1
  9
$DIMTZIN
 70
     0
  9
$DIMALTZ
 70
     0
  9
$DIMALTTZ
 70
     0
  9
$DIMUPT
 70
     0
  9
$DIMDEC
 70
     3
  9
$DIMTDEC
 70
     3
  9
$DIMALTU
 70
     2
  9
$DIMALTTD
 70
     2
  9
$DIMTXSTY
  7
Standard
  9
$DIMAUNIT
 70
     0
  9
$DIMADEC
 70
     3
  9
$DIMALTRND
 40
0.0
  9
$DIMAZIN
 70
     0
  9
$DIMDSEP
 70
    46
  9
$DIMATFIT
 70
     3
  9
$DIMFRAC
 70
     0
  9
$DIMLDRBLK
  1

  9
$DIMLUNIT
 70
     2
  9
$DIMLWD
 70
    -2
  9
$DIMLWE
 70
    -2
  9
$DIMTMOVE
 70
     0
  9
$LUNITS
 70
     2
  9
$LUPREC
 70
     4
  9
$SKETCHINC
 40
0.1
  9
$FILLETRAD
 40
0.0
  9
$AUNITS
 70
     0
  9
$AUPREC
 70
     0
  9
$MENU
  1
.
  9
$ELEVATION
 40
0.0
  9
$PELEVATION
 40
0.0
  9
$THICKNESS
 40
0.0
  9
$LIMCHECK
 70
     0
  9
$CHAMFERA
 40
0.5
  9
$CHAMFERB
 40
0.5
  9
$CHAMFERC
 40
1.0
  9
$CHAMFERD
 40
0.0
  9
$SKPOLY
 70
     0
  9
$TDCREATE
 40
2457073.584947754
  9
$TDUCREATE
 40
2457073.543281088
  9
$TDUPDATE
 40
2457073.586413299
  9
$TDUUPDATE
 40
2457073.544746632
  9
$TDINDWG
 40
0.0014676620
  9
$TDUSRTIMER
 40
0.0014676157
  9
$USRTIMER
 70
     1
  9
$ANGBASE
 50
0.0
  9
$ANGDIR
 70
     0
  9
$PDMODE
 70
     0
  9
$PDSIZE
 40
0.0
  9
$PLINEWID
 40
0.0
  9
$SPLFRAME
 70
     0
  9
$SPLINETYPE
 70
     6
  9
$SPLINESEGS
 70
     8
  9
$HANDSEED
  5
F10A90
  9
$SURFTAB1
 70
     6
  9
$SURFTAB2
 70
     6
  9
$SURFTYPE
 70
     6
  9
$SURFU
 70
     6
  9
$SURFV
 70
     6
  9
$UCSBASE
  2

  9
$UCSNAME
  2

  9
$UCSORG
 10
-8.654746284293224
 20
-5.248716391633884
 30
0.0
  9
$UCSXDIR
 10
1.0
 20
0.0
 30
0.0
  9
$UCSYDIR
 10
0.0
 20
1.0
 30
0.0
  9
$UCSORTHOREF
  2

  9
$UCSORTHOVIEW
 70
     0
  9
$UCSORGTOP
 10
0.0
 20
0.0
 30
0.0
  9
$UCSORGBOTTOM
 10
0.0
 20
0.0
 30
0.0
  9
$UCSORGLEFT
 10
0.0
 20
0.0
 30
0.0
  9
$UCSORGRIGHT
 10
0.0
 20
0.0
 30
0.0
  9
$UCSORGFRONT
 10
0.0
 20
0.0
 30
0.0
  9
$UCSORGBACK
 10
0.0
 20
0.0
 30
0.0
  9
$PUCSBASE
  2

  9
$PUCSNAME
  2

  9
$PUCSORG
 10
0.0
 20
0.0
 30
0.0
  9
$PUCSXDIR
 10
1.0
 20
0.0
 30
0.0
  9
$PUCSYDIR
 10
0.0
 20
1.0
 30
0.0
  9
$PUCSORTHOREF
  2

  9
$PUCSORTHOVIEW
 70
     0
  9
$PUCSORGTOP
 10
0.0
 20
0.0
 30
0.0
  9
$PUCSORGBOTTOM
 10
0.0
 20
0.0
 30
0.0
  9
$PUCSORGLEFT
 10
0.0
 20
0.0
 30
0.0
  9
$PUCSORGRIGHT
 10
0.0
 20
0.0
 30
0.0
  9
$PUCSORGFRONT
 10
0.0
 20
0.0
 30
0.0
  9
$PUCSORGBACK
 10
0.0
 20
0.0
 30
0.0
  9
$USERI1
 70
     0
  9
$USERI2
 70
     0
  9
$USERI3
 70
     0
  9
$USERI4
 70
     0
  9
$USERI5
 70
     0
  9
$USERR1
 40
0.0
  9
$USERR2
 40
0.0
  9
$USERR3
 40
0.0
  9
$USERR4
 40
0.0
  9
$USERR5
 40
0.0
  9
$WORLDVIEW
 70
     1
  9
$SHADEDGE
 70
     3
  9
$SHADEDIF
 70
    70
  9
$TILEMODE
 70
     1
  9
$MAXACTVP
 70
    64
  9
$PINSBASE
 10
0.0
 20
0.0
 30
0.0
  9
$PLIMCHECK
 70
     0
  9
$PEXTMIN
 10
1.000000000000000E+20
 20
1.000000000000000E+20
 30
1.000000000000000E+20
  9
$PEXTMAX
 10
-1.000000000000000E+20
 20
-1.000000000000000E+20
 30
-1.000000000000000E+20
  9
$PLIMMIN
 10
0.0
 20
0.0
  9
$PLIMMAX
 10
12.0
 20
9.0
  9
$UNITMODE
 70
     0
  9
$VISRETAIN
 70
     1
  9
$PLINEGEN
 70
     0
  9
$PSLTSCALE
 70
     1
  9
$TREEDEPTH
 70
  3020
  9
$CMLSTYLE
  2
Standard
  9
$CMLJUST
 70
     0
  9
$CMLSCALE
 40
1.0
  9
$PROXYGRAPHICS
 70
     1
  9
$MEASUREMENT
 70
     0
  9
$CELWEIGHT
370
    -1
  9
$ENDCAPS
280
     0
  9
$JOINSTYLE
280
     0
  9
$LWDISPLAY
290
     0
  9
$INSUNITS
 70
     4
  9
$HYPERLINKBASE
  1

  9
$STYLESHEET
  1

  9
$XEDIT
290
     1
  9
$CEPSNTYPE
380
     0
  9
$PSTYLEMODE
290
     0
  9
$FINGERPRINTGUID
  2
{FAEB1C30-E019-11D5-929B-00C0DF256EC4}
  9
$VERSIONGUID
  2
{B6EEC4A6-C1D2-4010-B6F3-F6BA2E104433}
  9
$EXTNAMES
290
     1
  9
$PSVPSCALE
 40
0.0
  9
$OLESTARTUP
290
     0
  0
ENDSEC
  0
SECTION
  2
CLASSES
  0
CLASS
  1
ACDBDICTIONARYWDFLT
  2
AcDbDictionaryWithDefault
  3
ObjectDBX Classes
 90
        0
280
     0
281
     0
  0
CLASS
  1
MATERIAL
  2
AcDbMaterial
  3
ObjectDBX Classes
 90
     1153
280
     0
281
     0
  0
CLASS
  1
MLEADERSTYLE
  2
AcDbMLeaderStyle
  3
ACDB_MLEADERSTYLE_CLASS
 90
     4095
280
     0
281
     0
  0
CLASS
  1
SCALE
  2
AcDbScale
  3
ObjectDBX Classes
 90
     1153
280
     0
281
     0
  0
CLASS
  1
TABLESTYLE
  2
AcDbTableStyle
  3
ObjectDBX Classes
 90
     4095
280
     0
281
     0
  0
CLASS
  1
VISUALSTYLE
  2
AcDbVisualStyle
  3
ObjectDBX Classes
 90
     4095
280
     0
281
     0
  0
CLASS
  1
DICTIONARYVAR
  2
AcDbDictionaryVar
  3
ObjectDBX Classes
 90
        0
280
     0
281
     0
  0
CLASS
  1
CELLSTYLEMAP
  2
AcDbCellStyleMap
  3
ObjectDBX Classes
 90
     1152
280
     0
281
     0
  0
CLASS
  1
AMGSETTINGSOBJ
  2
AmgSettingsObj
  3
"AcadM|Product Description: AutoCAD Mechanical|Company: Autodesk, Inc."
 90
     1024
280
     0
281
     0
  0
CLASS
  1
ACME_DOCUMENT
  2
AcMeDbDoc
  3
AcMeServices
 90
     1024
280
     0
281
     0
  0
CLASS
  1
ACMESCOPE
  2
AcMeScope
  3
AcMeServices
 90
     1024
280
     0
281
     0
  0
CLASS
  1
ACMECOMMANDHISTORY
  2
AcMeCommandHistory
  3
AcMeServices
 90
     1024
280
     0
281
     0
  0
CLASS
  1
ACIMSYSVARMAN
  2
AcImSysVarManager
  3
AcMeServices
 90
     1024
280
     0
281
     0
  0
CLASS
  1
ACIMINTSYSVAR
  2
AcImIntSysVar
  3
AcMeServices
 90
     1024
280
     0
281
     0
  0
CLASS
  1
ACMESTATEMGR
  2
AcMeStateMgr
  3
AcMeServices
 90
     1024
280
     0
281
     0
  0
CLASS
  1
ACDBENTITYCACHE
  2
AcMeEntityCache
  3
AcMeServices
 90
     1024
280
     0
281
     0
  0
CLASS
  1
ACGREFMASTER
  2
AcGrefMaster
  3
AcAttribServices
 90
     1024
280
     0
281
     0
  0
CLASS
  1
AM_DRAWING_MGR
  2
AcDmDwgMgr
  3
AcMechDwgViewMgmt
 90
     1024
280
     0
281
     0
  0
CLASS
  1
AM_DWG_DOCUMENT
  2
AcDmDwgDocument
  3
AcMechDwgViewMgmt
 90
     1024
280
     0
281
     0
  0
CLASS
  1
AM_DWG_SHEET
  2
AcDmSheet
  3
AcMechDwgViewMgmt
 90
     1024
280
     0
281
     0
  0
CLASS
  1
AM_VIEWDIMPARMAP
  2
AcDmViewDimParMap
  3
AcMechDwgViewMgmt
 90
     1024
280
     0
281
     0
  0
CLASS
  1
AMDTINTERNALREACTOR
  2
AmdtInternalReactor
  3
AcMeServices
 90
     1024
280
     0
281
     0
  0
CLASS
  1
ACIMREALSYSVAR
  2
AcImRealSysVar
  3
AcMeServices
 90
     1024
280
     0
281
     0
  0
CLASS
  1
AM_DWGMGR_NAME
  2
AcDmDwgMgrName
  3
AcMechDwgViewMgmt
 90
     1024
280
     0
281
     0
  0
CLASS
  1
ACME_DATABASE
  2
AcMeDbDatabase
  3
AcMeServices
 90
     1024
280
     0
281
     0
  0
CLASS
  1
ACRFINSADJUSTERMGR
  2
AcRfInsAdjusterMgr
  3
AcMeServices
 90
     1024
280
     0
281
     0
  0
CLASS
  1
ACGREFACADMASTER
  2
AcGrefacadMaster
  3
AcGrefServices
 90
     1024
280
     0
281
     0
  0
CLASS
  1
AMDTMENUSTATEMGR
  2
AmdtMenuStateMgr
  3
McadcomServices
 90
     1024
280
     0
281
     0
  0
CLASS
  1
AMDTMCOMMENUSTATE
  2
AmdtMcomMenuState
  3
McadcomServices
 90
     1024
280
     0
281
     0
  0
CLASS
  1
AMIMASTER
  2
AmiMaster
  3
AmiServices
 90
     1024
280
     0
281
     0
  0
CLASS
  1
MAPIAMMOUDLE
  2
MApiAmModule
  3
MApiAmServices
 90
     1024
280
     0
281
     0
  0
CLASS
  1
ACIMSTRSYSVAR
  2
AcImStrSysVar
  3
AcMeServices
 90
     1024
280
     0
281
     0
  0
CLASS
  1
AMDTDMMENUSTATE
  2
AmdtDmMenuState
  3
AcMechDwgViewMgmt
 90
     1024
280
     0
281
     0
  0
CLASS
  1
AMDTAMMENUSTATE
  2
AmdtAmMenuState
  3
DesignerAssemblies
 90
     1024
280
     0
281
     0
  0
CLASS
  1
ACAMPROJECT
  2
AcAmProject
  3
DesignerAssemblies
 90
     1024
280
     0
281
     0
  0
CLASS
  1
ACAMGRCOMPDEF
  2
AcAmGrCompDef
  3
DesignerAssemblies
 90
     1024
280
     0
281
     0
  0
CLASS
  1
ACAMCOMPDEF
  2
AcAmCompDef
  3
DesignerAssemblies
 90
     1024
280
     0
281
     0
  0
CLASS
  1
ACAMCOMPDEFMGR
  2
AcAmCompDefMgr
  3
DesignerAssemblies
 90
     1024
280
     0
281
     0
  0
CLASS
  1
AMCONTEXTMGR
  2
AcAmContextMgr
  3
DesignerAssemblies
 90
     1024
280
     0
281
     0
  0
CLASS
  1
ACAMCONTEXTMODELER
  2
AcAmContextModeler
  3
DesignerAssemblies
 90
     1024
280
     0
281
     0
  0
CLASS
  1
ACMDATADICTIONARY
  2
AcmDataDictionary
  3
"AcmSymBB|Product Description: AutoCAD Mechanical|Company: Autodesk, Inc."
 90
     1024
280
     0
281
     0
  0
CLASS
  1
ACAMGRCOMPDEFSET
  2
AcAmGrCompDefSet
  3
DesignerAssemblies
 90
     1024
280
     0
281
     0
  0
CLASS
  1
AMDTBROWSERDBTAB
  2
AmdtBrowserDbTab
  3
McadcomServices
 90
     1024
280
     0
281
     0
  0
CLASS
  1
CBROWSERAPPOBJECT
  2
CBrowserAppObject
  3
McadcomServices
 90
     1024
280
     0
281
     0
  0
CLASS
  1
DM_PLACEHOLDER
  2
AcDmSelsetPlaceholder
  3
AcMechDwgViewMgmt
 90
     1024
280
     0
281
     0
  0
CLASS
  1
EXACXREFPANELOBJECT
  2
ExAcXREFPanelObject
  3
EXAC_ESW
 90
     1025
280
     0
281
     0
  0
CLASS
  1
NPOCOLLECTION
  2
AcDbImpNonPersistentObjectsCollection
  3
ObjectDBX Classes
 90
     1153
280
     0
281
     0
  0
CLASS
  1
ACMSTANDARDANSI
  2
AcmStandardANSI
  3
"Amdt_StdImp|Product Description: AutoCAD Mechanical|Company: Autodesk, Inc."
 90
     1024
280
     0
281
     0
  0
CLASS
  1
ACMSURFSTANDARDANSI
  2
AcmSurfTextStdANSI
  3
"Amdt_StdImp|Product Description: AutoCAD Mechanical|Company: Autodesk, Inc."
 90
     1024
280
     0
281
     0
  0
CLASS
  1
ACMFCFSTANDARDANSI
  2
AcmFCFStdANSI
  3
"Amdt_StdImp|Product Description: AutoCAD Mechanical|Company: Autodesk, Inc."
 90
     1024
280
     0
281
     0
  0
CLASS
  1
ACMWELDSTANDARDANSI
  2
AcmWeldingStdANSI
  3
"Amdt_StdImp|Product Description: AutoCAD Mechanical|Company: Autodesk, Inc."
 90
     1024
280
     0
281
     0
  0
CLASS
  1
ACMIDSTANDARDANSI
  2
AcmIdStdANSI
  3
"Amdt_StdImp|Product Description: AutoCAD Mechanical|Company: Autodesk, Inc."
 90
     1024
280
     0
281
     0
  0
CLASS
  1
ACMDATUMSTANDARDANSI
  2
AcmDatumStdANSI
  3
"Amdt_StdImp|Product Description: AutoCAD Mechanical|Company: Autodesk, Inc."
 90
     1024
280
     0
281
     0
  0
CLASS
  1
ACMBOMSTANDARDANSI
  2
AcmBOMStdANSI
  3
"Amdt_StdImp|Product Description: AutoCAD Mechanical|Company: Autodesk, Inc."
 90
     1024
280
     0
281
     0
  0
CLASS
  1
ACMDETAILSTANDARDANSI
  2
AmdtDetailSymStdANSI
  3
"Amdt_StdImp|Product Description: AutoCAD Mechanical|Company: Autodesk, Inc."
 90
     1024
280
     0
281
     0
  0
CLASS
  1
ACMSECTIONSTANDARDANSI
  2
AmdtSectionSymStdANSI
  3
"Amdt_StdImp|Product Description: AutoCAD Mechanical|Company: Autodesk, Inc."
 90
     1024
280
     0
281
     0
  0
CLASS
  1
ACMCENTERLINESTANDARDANSI
  2
AmdtCenterLineStdANSI
  3
"Amdt_StdImp|Product Description: AutoCAD Mechanical|Company: Autodesk, Inc."
 90
     1024
280
     0
281
     0
  0
CLASS
  1
ACMTHREADLINESTANDARDANSI
  2
AmdtThreadLineStdANSI
  3
"Amdt_StdImp|Product Description: AutoCAD Mechanical|Company: Autodesk, Inc."
 90
     1024
280
     0
281
     0
  0
CLASS
  1
ACMNOTESTANDARDANSI
  2
AmdtNoteStdANSI
  3
"Amdt_StdImp|Product Description: AutoCAD Mechanical|Company: Autodesk, Inc."
 90
     1024
280
     0
281
     0
  0
CLASS
  1
ACMTAPERSTANDARDANSI
  2
AcmTaperStdANSI
  3
"Amdt_StdImp|Product Description: AutoCAD Mechanical|Company: Autodesk, Inc."
 90
     1024
280
     0
281
     0
  0
CLASS
  1
ACMANOOTATIONVIEWSTANDARDANSI
  2
AmdtAnViewStdANSI
  3
"Amdt_StdImp|Product Description: AutoCAD Mechanical|Company: Autodesk, Inc."
 90
     1024
280
     0
281
     0
  0
CLASS
  1
ACAMGLAYSTD
  2
AcAmgLayStd
  3
"AmgLay|Product Description: AutoCAD Mechanical|Company: Autodesk, Inc."
 90
     1024
280
     0
281
     0
  0
CLASS
  1
ACAMGDIMSTD
  2
AcAmgDimStd
  3
"AmgDim|Product Description: AutoCAD Mechanical|Company: Autodesk, Inc."
 90
     1024
280
     0
281
     0
  0
CLASS
  1
AMGOBJPROPCFG
  2
AmgObjPropCfg
  3
"AmgLay|Product Description: AutoCAD Mechanical|Company: Autodesk, Inc."
 90
     1025
280
     0
281
     0
  0
CLASS
  1
ACAMGHOLECHARTSTDANSI
  2
AcAmgHoleChartStdANSI
  3
AmgDim|Product Description: AutoCAD Mechanical|Company: Autodesk, Inc.
 90
     1024
280
     0
281
     0
  0
CLASS
  1
ACAMGTITLESTD
  2
AcAmgTitleStd
  3
"AmgTitle|Product Description: AutoCAD Mechanical|Company: Autodesk, Inc."
 90
     4095
280
     0
281
     0
  0
CLASS
  1
AMDTNOTETEMPLATEDB
  2
AmdtNoteTemplateDB
  3
AcmSymBB|Product Description: AutoCAD Mechanical|Company: Autodesk, Inc.
 90
     1024
280
     0
281
     0
  0
CLASS
  1
ACAMGFILTERDAT
  2
AcAmgFilterDat
  3
"AcadM|Product Description: AutoCAD Mechanical|Company: Autodesk, Inc."
 90
     1024
280
     0
281
     0
  0
CLASS
  1
ACDBPLACEHOLDER
  2
AcDbPlaceHolder
  3
ObjectDBX Classes
 90
        0
280
     0
281
     0
  0
CLASS
  1
LAYOUT
  2
AcDbLayout
  3
ObjectDBX Classes
 90
        0
280
     0
281
     0
  0
ENDSEC
  0
SECTION
  2
TABLES
  0
TABLE
  2
VPORT
  5
24A
330
0
100
AcDbSymbolTable
 70
     1
  0
VPORT
  5
26B
330
24A
100
AcDbSymbolTableRecord
100
AcDbViewportTableRecord
  2
*Active
 70
     0
 10
0.0
 20
0.0
 11
1.0
 21
1.0
 12
5.66396475079631
 22
-6.23592854825415
 13
0.0
 23
0.0
 14
10.0
 24
10.0
 15
10.0
 25
10.0
 16
0.0
 26
0.0
 36
1.0
 17
0.0
 27
0.0
 37
0.0
 40
198.335088741351
 41
1.670673076923076
 42
1.0
 43
0.0
 44
0.0
 50
0.0
 51
0.0000000000007958
 71
     0
 72
   100
 73
     1
 74
     3
 75
     0
 76
     0
 77
     0
 78
     1
281
     0
 65
     0
110
0.0
120
0.0
130
0.0
111
1.0
121
0.0
131
0.0
112
0.0
122
1.0
132
0.0
 79
     0
146
0.0
  0
ENDTAB
  0
TABLE
  2
LTYPE
  5
247
330
0
100
AcDbSymbolTable
 70
    35
  0
LTYPE
  5
256
330
247
100
AcDbSymbolTableRecord
100
AcDbLinetypeTableRecord
  2
ByBlock
 70
     0
  3

 72
    65
 73
     0
 40
0.0
  0
LTYPE
  5
257
330
247
100
AcDbSymbolTableRecord
100
AcDbLinetypeTableRecord
  2
ByLayer
 70
     0
  3

 72
    65
 73
     0
 40
0.0
  0
LTYPE
  5
258
330
247
100
AcDbSymbolTableRecord
100
AcDbLinetypeTableRecord
  2
Continuous
 70
     0
  3
Solid line
 72
    65
 73
     0
 40
0.0
  0
LTYPE
  5
273
330
247
100
AcDbSymbolTableRecord
100
AcDbLinetypeTableRecord
  2
CENTER
 70
     0
  3
Center ____ _ ____ _ ____ _ ____ _ ____ _ ____
 72
    65
 73
     4
 40
2.0
 49
1.25
 74
     0
 49
-0.25
 74
     0
 49
0.25
 74
     0
 49
-0.25
 74
     0
  0
LTYPE
  5
274
330
247
100
AcDbSymbolTableRecord
100
AcDbLinetypeTableRecord
  2
DASHDOT
 70
     0
  3
Dashdot __ . __ . __ . __ . __ . __ . __ . __
 72
    65
 73
     4
 40
1.0
 49
0.5
 74
     0
 49
-0.25
 74
     0
 49
0.0
 74
     0
 49
-0.25
 74
     0
  0
LTYPE
  5
275
330
247
100
AcDbSymbolTableRecord
100
AcDbLinetypeTableRecord
  2
DASHED
 70
     0
  3
Dashed __ __ __ __ __ __ __ __ __ __ __ __ __ _
 72
    65
 73
     2
 40
0.75
 49
0.5
 74
     0
 49
-0.25
 74
     0
  0
LTYPE
  5
276
330
247
100
AcDbSymbolTableRecord
100
AcDbLinetypeTableRecord
  2
HIDDEN
 70
     0
  3
Hidden __ __ __ __ __ __ __ __ __ __ __ __ __ __
 72
    65
 73
     2
 40
0.375
 49
0.25
 74
     0
 49
-0.125
 74
     0
  0
LTYPE
  5
277
330
247
100
AcDbSymbolTableRecord
100
AcDbLinetypeTableRecord
  2
HIDDEN2
 70
     0
  3
Hidden2 _ _ _ _ _ _ _ _ _ _ _ _ _ _ _ _ _
 72
    65
 73
     2
 40
0.1875
 49
0.125
 74
     0
 49
-0.0625
 74
     0
  0
LTYPE
  5
278
330
247
100
AcDbSymbolTableRecord
100
AcDbLinetypeTableRecord
  2
BORDER
 70
     0
  3
Border __ __ . __ __ . __ __ . __ __ . __ __ .
 72
    65
 73
     6
 40
1.75
 49
0.5
 74
     0
 49
-0.25
 74
     0
 49
0.5
 74
     0
 49
-0.25
 74
     0
 49
0.0
 74
     0
 49
-0.25
 74
     0
  0
LTYPE
  5
279
330
247
100
AcDbSymbolTableRecord
100
AcDbLinetypeTableRecord
  2
BORDER2
 70
     0
  3
Border2 __.__.__.__.__.__.__.__.__.__.__.
 72
    65
 73
     6
 40
0.875
 49
0.25
 74
     0
 49
-0.125
 74
     0
 49
0.25
 74
     0
 49
-0.125
 74
     0
 49
0.0
 74
     0
 49
-0.125
 74
     0
  0
LTYPE
  5
27A
330
247
100
AcDbSymbolTableRecord
100
AcDbLinetypeTableRecord
  2
BORDERX2
 70
     0
  3
Borderx2  ____  ____  .  ____  ____  .  ___
 72
    65
 73
     6
 40
3.5
 49
1.0
 74
     0
 49
-0.5
 74
     0
 49
1.0
 74
     0
 49
-0.5
 74
     0
 49
0.0
 74
     0
 49
-0.5
 74
     0
  0
LTYPE
  5
27B
330
247
100
AcDbSymbolTableRecord
100
AcDbLinetypeTableRecord
  2
CENTER2
 70
     0
  3
Center2  ___ _ ___ _ ___ _ ___ _ ___ _ ___
 72
    65
 73
     4
 40
1.125
 49
0.75
 74
     0
 49
-0.125
 74
     0
 49
0.125
 74
     0
 49
-0.125
 74
     0
  0
LTYPE
  5
27C
330
247
100
AcDbSymbolTableRecord
100
AcDbLinetypeTableRecord
  2
CENTERX2
 70
     0
  3
Centerx2  ________  __  ________  __  _____
 72
    65
 73
     4
 40
4.0
 49
2.5
 74
     0
 49
-0.5
 74
     0
 49
0.5
 74
     0
 49
-0.5
 74
     0
  0
LTYPE
  5
27D
330
247
100
AcDbSymbolTableRecord
100
AcDbLinetypeTableRecord
  2
DASHDOT2
 70
     0
  3
Dashdot2  _._._._._._._._._._._._._._._.
 72
    65
 73
     4
 40
0.5
 49
0.25
 74
     0
 49
-0.125
 74
     0
 49
0.0
 74
     0
 49
-0.125
 74
     0
  0
LTYPE
  5
27E
330
247
100
AcDbSymbolTableRecord
100
AcDbLinetypeTableRecord
  2
DASHDOTX2
 70
     0
  3
Dashdotx2 ____  .  ____  .  ____  .  ___
 72
    65
 73
     4
 40
2.0
 49
1.0
 74
     0
 49
-0.5
 74
     0
 49
0.0
 74
     0
 49
-0.5
 74
     0
  0
LTYPE
  5
27F
330
247
100
AcDbSymbolTableRecord
100
AcDbLinetypeTableRecord
  2
DASHED2
 70
     0
  3
Dashed2 _ _ _ _ _ _ _ _ _ _ _ _ _ _ _ _ _
 72
    65
 73
     2
 40
0.375
 49
0.25
 74
     0
 49
-0.125
 74
     0
  0
LTYPE
  5
280
330
247
100
AcDbSymbolTableRecord
100
AcDbLinetypeTableRecord
  2
DASHEDX2
 70
     0
  3
Dashedx2 ____  ____  ____  ____  ____  ___
 72
    65
 73
     2
 40
1.5
 49
1.0
 74
     0
 49
-0.5
 74
     0
  0
LTYPE
  5
281
330
247
100
AcDbSymbolTableRecord
100
AcDbLinetypeTableRecord
  2
DIVIDE
 70
     0
  3
Divide ____ . . ____ . . ____ . . ____ . . ____
 72
    65
 73
     6
 40
1.25
 49
0.5
 74
     0
 49
-0.25
 74
     0
 49
0.0
 74
     0
 49
-0.25
 74
     0
 49
0.0
 74
     0
 49
-0.25
 74
     0
  0
LTYPE
  5
282
330
247
100
AcDbSymbolTableRecord
100
AcDbLinetypeTableRecord
  2
DIVIDE2
 70
     0
  3
Divide2 __..__..__..__..__..__..__..__.._
 72
    65
 73
     6
 40
0.625
 49
0.25
 74
     0
 49
-0.125
 74
     0
 49
0.0
 74
     0
 49
-0.125
 74
     0
 49
0.0
 74
     0
 49
-0.125
 74
     0
  0
LTYPE
  5
283
330
247
100
AcDbSymbolTableRecord
100
AcDbLinetypeTableRecord
  2
DIVIDEX2
 70
     0
  3
Dividex2 ________  .  .  ________  .  .  _
 72
    65
 73
     6
 40
2.5
 49
1.0
 74
     0
 49
-0.5
 74
     0
 49
0.0
 74
     0
 49
-0.5
 74
     0
 49
0.0
 74
     0
 49
-0.5
 74
     0
  0
LTYPE
  5
284
330
247
100
AcDbSymbolTableRecord
100
AcDbLinetypeTableRecord
  2
DOT
 70
     0
  3
Dot . . . . . . . . . . . . . . . . . . . . . . . .
 72
    65
 73
     2
 40
0.25
 49
0.0
 74
     0
 49
-0.25
 74
     0
  0
LTYPE
  5
285
330
247
100
AcDbSymbolTableRecord
100
AcDbLinetypeTableRecord
  2
DOT2
 70
     0
  3
Dot2 ........................................
 72
    65
 73
     2
 40
0.125
 49
0.0
 74
     0
 49
-0.125
 74
     0
  0
LTYPE
  5
286
330
247
100
AcDbSymbolTableRecord
100
AcDbLinetypeTableRecord
  2
DOTX2
 70
     0
  3
Dotx2 .  .  .  .  .  .  .  .  .  .  .  .  .  .
 72
    65
 73
     2
 40
0.5
 49
0.0
 74
     0
 49
-0.5
 74
     0
  0
LTYPE
  5
287
330
247
100
AcDbSymbolTableRecord
100
AcDbLinetypeTableRecord
  2
HIDDENX2
 70
     0
  3
Hiddenx2 ____ ____ ____ ____ ____ ____ ____
 72
    65
 73
     2
 40
0.75
 49
0.5
 74
     0
 49
-0.25
 74
     0
  0
LTYPE
  5
288
330
247
100
AcDbSymbolTableRecord
100
AcDbLinetypeTableRecord
  2
PHANTOM
 70
     0
  3
Phantom ______  __  __  ______  __  __  ______
 72
    65
 73
     6
 40
2.5
 49
1.25
 74
     0
 49
-0.25
 74
     0
 49
0.25
 74
     0
 49
-0.25
 74
     0
 49
0.25
 74
     0
 49
-0.25
 74
     0
  0
LTYPE
  5
289
330
247
100
AcDbSymbolTableRecord
100
AcDbLinetypeTableRecord
  2
PHANTOM2
 70
     0
  3
Phantom2 ___ _ _ ___ _ _ ___ _ _ ___ _ _
 72
    65
 73
     6
 40
1.25
 49
0.625
 74
     0
 49
-0.125
 74
     0
 49
0.125
 74
     0
 49
-0.125
 74
     0
 49
0.125
 74
     0
 49
-0.125
 74
     0
  0
LTYPE
  5
28A
330
247
100
AcDbSymbolTableRecord
100
AcDbLinetypeTableRecord
  2
PHANTOMX2
 70
     0
  3
Phantomx2 ____________    ____    ____   _
 72
    65
 73
     6
 40
5.0
 49
2.5
 74
     0
 49
-0.5
 74
     0
 49
0.5
 74
     0
 49
-0.5
 74
     0
 49
0.5
 74
     0
 49
-0.5
 74
     0
  0
LTYPE
  5
F1090D
330
247
100
AcDbSymbolTableRecord
100
AcDbLinetypeTableRecord
  2
AM_ISO02W050
 70
     0
  3
__ __ __ __ __ __ __ __ __ __ __ __ __ __ __
 72
    65
 73
     2
 40
7.5
 49
6.0
 74
     0
 49
-1.5
 74
     0
  0
LTYPE
  5
F1090E
330
247
100
AcDbSymbolTableRecord
100
AcDbLinetypeTableRecord
  2
AM_ISO08W050
 70
     0
  3
____ . ____ . ____ . ____ . ____ . ____ . ____
 72
    65
 73
     4
 40
18.0
 49
12.0
 74
     0
 49
-1.5
 74
     0
 49
3.0
 74
     0
 49
-1.5
 74
     0
  0
LTYPE
  5
F1090F
330
247
100
AcDbSymbolTableRecord
100
AcDbLinetypeTableRecord
  2
AM_ISO09W050
 70
     0
  3
_____ . . _____ . . _____ . . ____ .. ____
 72
    65
 73
     6
 40
22.5
 49
12.0
 74
     0
 49
-1.5
 74
     0
 49
3.0
 74
     0
 49
-1.5
 74
     0
 49
3.0
 74
     0
 49
-1.5
 74
     0
  0
LTYPE
  5
F10910
330
247
100
AcDbSymbolTableRecord
100
AcDbLinetypeTableRecord
  2
Amconstr
 70
     0
  3
_______________________
 72
    65
 73
     2
 40
9999.0
 49
9999.0
 74
     0
 49
0.0
 74
     0
  0
LTYPE
  5
F10911
330
247
100
AcDbSymbolTableRecord
100
AcDbLinetypeTableRecord
  2
AM_ISO08W050x2
 70
     0
  3
__ . __ . __ . __ . __ . __
 72
    65
 73
     4
 40
9.0
 49
6.0
 74
     0
 49
-0.75
 74
     0
 49
1.5
 74
     0
 49
-0.75
 74
     0
  0
LTYPE
  5
F10912
330
247
100
AcDbSymbolTableRecord
100
AcDbLinetypeTableRecord
  2
AM_ISO02W050x2
 70
     0
  3
 _ _ _ _ _ _ _ _ _ _ _ _
 72
    65
 73
     2
 40
3.75
 49
3.0
 74
     0
 49
-0.75
 74
     0
  0
LTYPE
  5
F10915
330
247
100
AcDbSymbolTableRecord
100
AcDbLinetypeTableRecord
  2
Amzigzag
 70
     0
  3
/\/-/\/-/\/-/\/-/\/-/\/
 72
    65
 73
     2
 40
11.0001
 49
0.0001
 74
     4
 75
   136
340
F10914
 46
0.04
 50
0.0
 44
0.0
 45
0.0
 49
-11.0
 74
     0
  0
LTYPE
  5
F10916
330
247
100
AcDbSymbolTableRecord
100
AcDbLinetypeTableRecord
  2
Amzigzag2
 70
     0
  3
/\/-/\/-/\/-/\/-/\/-/\/
 72
    65
 73
     2
 40
0.4401
 49
0.0001
 74
     4
 75
   136
340
F10914
 46
0.0016
 50
0.0
 44
0.0
 45
0.0
 49
-0.4400000000000001
 74
     0
  0
LTYPE
  5
F10924
330
247
100
AcDbSymbolTableRecord
100
AcDbLinetypeTableRecord
  2
ACANSTGB
 70
     0
  3
__ . . __ . .
 72
    65
 73
     6
 40
0.35433070866
 49
0.15748031496
 74
     0
 49
-0.03937007874
 74
     0
 49
0.03937007874
 74
     0
 49
-0.03937007874
 74
     0
 49
0.03937007874
 74
     0
 49
-0.03937007874
 74
     0
  0
LTYPE
  5
F10925
330
247
100
AcDbSymbolTableRecord
100
AcDbLinetypeTableRecord
  2
ACANSTGL
 70
     0
  3
_ _ _ _ _
 72
    65
 73
     2
 40
0.11811023622
 49
0.07874015748
 74
     0
 49
-0.03937007874
 74
     0
  0
ENDTAB
  0
TABLE
  2
LAYER
  5
244
330
0
100
AcDbSymbolTable
 70
     6
  0
LAYER
  5
252
102
{ACAD_XDICTIONARY
360
F10A36
102
}
330
244
100
AcDbSymbolTableRecord
100
AcDbLayerTableRecord
  2
0
 70
     0
 62
     7
  6
Continuous
370
     0
390
19
  0
LAYER
  5
23F
102
{ACAD_XDICTIONARY
360
F10A38
102
}
330
244
100
AcDbSymbolTableRecord
100
AcDbLayerTableRecord
  2
Bemassung
 70
     0
 62
     7
  6
Continuous
370
     0
390
19
  0
LAYER
  5
240
102
{ACAD_XDICTIONARY
360
F10A3A
102
}
330
244
100
AcDbSymbolTableRecord
100
AcDbLayerTableRecord
  2
Rahmen
 70
     0
 62
     7
  6
Continuous
370
     0
390
19
  0
LAYER
  5
241
102
{ACAD_XDICTIONARY
360
F10A3C
102
}
330
244
100
AcDbSymbolTableRecord
100
AcDbLayerTableRecord
  2
Geo
 70
     0
 62
     7
  6
Continuous
370
     0
390
19
  0
LAYER
  5
33A
330
244
100
AcDbSymbolTableRecord
100
AcDbLayerTableRecord
  2
Defpoints
 70
     0
 62
     7
  6
Continuous
290
     0
370
    -3
390
19
  0
LAYER
  5
57E
102
{ACAD_XDICTIONARY
360
F10A3E
102
}
330
244
100
AcDbSymbolTableRecord
100
AcDbLayerTableRecord
  2
Text
 70
     0
 62
     7
  6
Continuous
370
     0
390
19
1001
AcAecLayerStandard
1000

1000

  0
ENDTAB
  0
TABLE
  2
STYLE
  5
245
330
0
100
AcDbSymbolTable
 70
     5
  0
STYLE
  5
253
330
245
100
AcDbSymbolTableRecord
100
AcDbTextStyleTableRecord
  2
Standard
 70
     0
 40
0.0
 41
1.0
 50
0.0
 71
     0
 42
0.2
  3
Arial
  4

1001
ACAD
1000
Arial
1071
        0
  0
STYLE
  5
132
330
245
100
AcDbSymbolTableRecord
100
AcDbTextStyleTableRecord
  2
Beschriftung
 70
     0
 40
0.0
 41
1.0
 50
0.0
 71
     0
 42
0.2
  3
Arial
  4

1001
ACAD
1000
Arial
1071
        0
1001
AcadAnnotative
1000
AnnotativeData
1070
     1
1070
     1
  0
STYLE
  5
F10914
330
245
100
AcDbSymbolTableRecord
100
AcDbTextStyleTableRecord
  2

 70
     1
 40
0.0
 41
1.0
 50
0.0
 71
     0
 42
0.2
  3
genltshp.shx
  4

  0
STYLE
  5
F10922
330
245
100
AcDbSymbolTableRecord
100
AcDbTextStyleTableRecord
  2
ACANSTS
 70
     0
 40
1.0
 41
1.0
 50
0.0
 71
     0
 42
0.2
  3
romans.shx
  4

  0
STYLE
  5
F10923
330
245
100
AcDbSymbolTableRecord
100
AcDbTextStyleTableRecord
  2
ACANSGDT
 70
     0
 40
0.0
 41
1.0
 50
0.0
 71
     0
 42
0.2
  3
amgdt.shx
  4

  0
ENDTAB
  0
TABLE
  2
VIEW
  5
248
330
0
100
AcDbSymbolTable
 70
     0
  0
ENDTAB
  0
TABLE
  2
UCS
  5
249
330
0
100
AcDbSymbolTable
 70
     0
  0
ENDTAB
  0
TABLE
  2
APPID
  5
24B
330
0
100
AcDbSymbolTable
 70
    28
  0
APPID
  5
254
330
24B
100
AcDbSymbolTableRecord
100
AcDbRegAppTableRecord
  2
ACAD
 70
     0
  0
APPID
  5
26C
330
24B
100
AcDbSymbolTableRecord
100
AcDbRegAppTableRecord
  2
VD_INVISIBLE_NOT_FOR_READ
 70
     0
  0
APPID
  5
26D
330
24B
100
AcDbSymbolTableRecord
100
AcDbRegAppTableRecord
  2
VD_TEMPHATCH
 70
     0
  0
APPID
  5
26E
330
24B
100
AcDbSymbolTableRecord
100
AcDbRegAppTableRecord
  2
VDEXTRAPARAM
 70
     0
  0
APPID
  5
26F
330
24B
100
AcDbSymbolTableRecord
100
AcDbRegAppTableRecord
  2
PE_URL
 70
     0
  0
APPID
  5
270
330
24B
100
AcDbSymbolTableRecord
100
AcDbRegAppTableRecord
  2
VD_UNKNOWN
 70
     0
  0
APPID
  5
28F
330
24B
100
AcDbSymbolTableRecord
100
AcDbRegAppTableRecord
  2
AcadAnnotative
 70
     0
  0
APPID
  5
290
330
24B
100
AcDbSymbolTableRecord
100
AcDbRegAppTableRecord
  2
ACAD_DSTYLE_DIMJAG
 70
     0
  0
APPID
  5
291
330
24B
100
AcDbSymbolTableRecord
100
AcDbRegAppTableRecord
  2
ACAD_DSTYLE_DIMTALN
 70
     0
  0
APPID
  5
293
330
24B
100
AcDbSymbolTableRecord
100
AcDbRegAppTableRecord
  2
ACAD_PSEXT
 70
     0
  0
APPID
  5
42A
330
24B
100
AcDbSymbolTableRecord
100
AcDbRegAppTableRecord
  2
ACAD_MLEADERVER
 70
     0
  0
APPID
  5
532
330
24B
100
AcDbSymbolTableRecord
100
AcDbRegAppTableRecord
  2
ACAD_EXEMPT_FROM_CAD_STANDARDS
 70
     0
  0
APPID
  5
57F
330
24B
100
AcDbSymbolTableRecord
100
AcDbRegAppTableRecord
  2
AcAecLayerStandard
 70
     0
  0
APPID
  5
F108A7
330
24B
100
AcDbSymbolTableRecord
100
AcDbRegAppTableRecord
  2
MCAD_NO_VIS
 70
     0
  0
APPID
  5
F108A8
330
24B
100
AcDbSymbolTableRecord
100
AcDbRegAppTableRecord
  2
ACAD_TEMP_GRAPHIC
 70
     0
  0
APPID
  5
F108D1
330
24B
100
AcDbSymbolTableRecord
100
AcDbRegAppTableRecord
  2
AD_DRAW
 70
     0
  0
APPID
  5
F108D4
330
24B
100
AcDbSymbolTableRecord
100
AcDbRegAppTableRecord
  2
ACATTRIBSERVICES
 70
     0
  0
APPID
  5
F108ED
330
24B
100
AcDbSymbolTableRecord
100
AcDbRegAppTableRecord
  2
DESIGNERASSEMBLIES
 70
     0
  0
APPID
  5
F108F2
330
24B
100
AcDbSymbolTableRecord
100
AcDbRegAppTableRecord
  2
ACADM_DIM_EDIT
 70
     0
  0
APPID
  5
F108F3
330
24B
100
AcDbSymbolTableRecord
100
AcDbRegAppTableRecord
  2
AMDT_DM_ADJ
 70
     0
  0
APPID
  5
F1090B
330
24B
100
AcDbSymbolTableRecord
100
AcDbRegAppTableRecord
  2
ACAD_DSTYLE_DIMBREAK
 70
     0
  0
APPID
  5
F1092C
330
24B
100
AcDbSymbolTableRecord
100
AcDbRegAppTableRecord
  2
GENIUS_GENSCREG_15
 70
     0
  0
APPID
  5
F1092D
330
24B
100
AcDbSymbolTableRecord
100
AcDbRegAppTableRecord
  2
GENIUS_GENOBJ-N-SDF_13
 70
     0
  0
APPID
  5
F1092E
330
24B
100
AcDbSymbolTableRecord
100
AcDbRegAppTableRecord
  2
GENIUS_GENODEF_13
 70
     0
  0
APPID
  5
F10A8C
330
24B
100
AcDbSymbolTableRecord
100
AcDbRegAppTableRecord
  2
ACAD_DSTYLE_DIMARC_LENGTH_SYMBOL
 70
     0
  0
APPID
  5
F10A8D
330
24B
100
AcDbSymbolTableRecord
100
AcDbRegAppTableRecord
  2
ACAD_DSTYLE_DIM_LINETYPE
 70
     0
  0
APPID
  5
F10A8E
330
24B
100
AcDbSymbolTableRecord
100
AcDbRegAppTableRecord
  2
ACAD_DSTYLE_DIM_EXT1_LINETYPE
 70
     0
  0
APPID
  5
F10A8F
330
24B
100
AcDbSymbolTableRecord
100
AcDbRegAppTableRecord
  2
ACAD_DSTYLE_DIM_EXT2_LINETYPE
 70
     0
  0
ENDTAB
  0
TABLE
  2
DIMSTYLE
  5
24C
330
0
100
AcDbSymbolTable
 70
     9
100
AcDbDimStyleTable
 71
     2
340
27
340
269
  0
DIMSTYLE
105
269
330
24C
100
AcDbSymbolTableRecord
100
AcDbDimStyleTableRecord
  2
Standard
 70
     0
172
     1
174
     1
288
     1
340
253
342
23C
  0
DIMSTYLE
105
137
330
24C
100
AcDbSymbolTableRecord
100
AcDbDimStyleTableRecord
  2
Beschriftung
 70
     0
 41
2.5
 42
0.625
 44
1.25
 73
     0
 74
     0
 77
     1
140
2.5
147
0.625
172
     1
174
     1
271
     2
288
     1
340
253
342
23C
1001
AcadAnnotative
1000
AnnotativeData
1070
     1
1070
     1
1001
ACAD_DSTYLE_DIMJAG
1070
   388
1040
1.5
1001
ACAD_DSTYLE_DIMTALN
1070
   392
1070
     0
  0
DIMSTYLE
105
27
102
{ACAD_REACTORS
330
F10008
330
F10017
330
F10003
330
F1000D
330
F1001C
330
F10012
330
F10021
330
F10026
102
}
330
24C
100
AcDbSymbolTableRecord
100
AcDbDimStyleTableRecord
  2
BEM-ISBE
 70
     0
 41
2.5
 42
0.625
 44
1.25
 48
0.000000001
 71
     1
 73
     0
 74
     0
 77
     1
140
2.5
146
0.5
147
0.625
171
     3
172
     1
179
     3
271
     3
272
     3
274
     3
340
253
342
23C
1001
ACAD_DSTYLE_DIMJAG
1070
   388
1040
1.5
1001
ACAD_DSTYLE_DIMTALN
1070
   392
1070
     1
  0
DIMSTYLE
105
F1090A
102
{ACAD_REACTORS
330
F108FA
102
}
330
24C
100
AcDbSymbolTableRecord
100
AcDbDimStyleTableRecord
  2
AM_ANSI
 70
     0
  4
mm
 41
0.12
 42
0.05
 43
0.5
 44
0.1
 47
0.1
 48
0.1
 78
     7
 79
     2
140
0.12
141
0.0
146
0.71
147
0.06
176
   256
177
   256
178
     2
274
     4
284
     7
340
253
371
    -1
372
    -1
1001
ACAD_DSTYLE_DIMJAG
1070
   388
1040
1.5
1001
ACAD_DSTYLE_DIMBREAK
1070
   391
1040
0.125
1001
ACAD_DSTYLE_DIMARC_LENGTH_SYMBOL
1070
   379
1070
     1
1001
ACAD_DSTYLE_DIM_LINETYPE
1070
   380
1005
256
1001
ACAD_DSTYLE_DIM_EXT1_LINETYPE
1070
   381
1005
256
1001
ACAD_DSTYLE_DIM_EXT2_LINETYPE
1070
   382
1005
256
  0
DIMSTYLE
105
F10917
330
24C
100
AcDbSymbolTableRecord
100
AcDbDimStyleTableRecord
  2
AM_ANSI$3
 70
     0
  4
mm
 41
0.12
 42
0.05
 43
0.5
 44
0.1
 47
0.1
 48
0.1
 78
     7
 79
     2
140
0.12
141
0.0
146
0.71
147
0.06
176
   256
177
   256
178
     2
274
     4
284
     7
288
     1
289
     0
340
253
371
    -1
372
    -1
1001
ACAD_DSTYLE_DIMBREAK
1070
   391
1040
0.125
1001
ACAD_DSTYLE_DIMJAG
1070
   388
1040
1.5
1001
ACAD_DSTYLE_DIMARC_LENGTH_SYMBOL
1070
   379
1070
     1
1001
ACAD_DSTYLE_DIM_LINETYPE
1070
   380
1005
256
1001
ACAD_DSTYLE_DIM_EXT1_LINETYPE
1070
   381
1005
256
1001
ACAD_DSTYLE_DIM_EXT2_LINETYPE
1070
   382
1005
256
  0
DIMSTYLE
105
F10918
330
24C
100
AcDbSymbolTableRecord
100
AcDbDimStyleTableRecord
  2
AM_ANSI$4
 70
     0
  4
mm
 41
0.12
 42
0.05
 43
0.5
 44
0.1
 47
0.1
 48
0.1
 78
     7
 79
     2
140
0.12
141
0.0
146
0.71
147
0.06
176
   256
177
   256
178
     2
274
     4
284
     7
288
     1
289
     0
340
253
371
    -1
372
    -1
1001
ACAD_DSTYLE_DIMBREAK
1070
   391
1040
0.125
1001
ACAD_DSTYLE_DIMJAG
1070
   388
1040
1.5
1001
ACAD_DSTYLE_DIMARC_LENGTH_SYMBOL
1070
   379
1070
     1
1001
ACAD_DSTYLE_DIM_LINETYPE
1070
   380
1005
256
1001
ACAD_DSTYLE_DIM_EXT1_LINETYPE
1070
   381
1005
256
1001
ACAD_DSTYLE_DIM_EXT2_LINETYPE
1070
   382
1005
256
  0
DIMSTYLE
105
F10919
330
24C
100
AcDbSymbolTableRecord
100
AcDbDimStyleTableRecord
  2
AM_ANSI$7
 70
     0
  4
mm
 41
0.12
 42
0.05
 43
0.5
 44
0.1
 47
0.1
 48
0.1
 78
     7
 79
     2
140
0.12
141
0.0
146
0.71
147
0.06
176
   256
177
   256
178
     2
274
     4
284
     7
340
253
371
    -1
372
    -1
1001
ACAD_DSTYLE_DIMBREAK
1070
   391
1040
0.125
1001
ACAD_DSTYLE_DIMJAG
1070
   388
1040
1.5
1001
ACAD_DSTYLE_DIMARC_LENGTH_SYMBOL
1070
   379
1070
     1
1001
ACAD_DSTYLE_DIM_LINETYPE
1070
   380
1005
256
1001
ACAD_DSTYLE_DIM_EXT1_LINETYPE
1070
   381
1005
256
1001
ACAD_DSTYLE_DIM_EXT2_LINETYPE
1070
   382
1005
256
  0
DIMSTYLE
105
F1091A
330
24C
100
AcDbSymbolTableRecord
100
AcDbDimStyleTableRecord
  2
AM_ANSI$SF
 70
     0
  4
mm
 41
0.12
 42
0.05
 43
0.5
 44
0.1
 47
0.1
 48
0.1
 75
     1
 76
     1
 78
     7
 79
     2
140
0.12
141
0.0
146
0.71
147
0.06
176
   256
177
   256
178
     2
274
     4
284
     7
340
253
371
    -1
372
    -1
1001
ACAD_DSTYLE_DIMBREAK
1070
   391
1040
0.125
1001
ACAD_DSTYLE_DIMJAG
1070
   388
1040
1.5
1001
ACAD_DSTYLE_DIMARC_LENGTH_SYMBOL
1070
   379
1070
     1
1001
ACAD_DSTYLE_DIM_LINETYPE
1070
   380
1005
256
1001
ACAD_DSTYLE_DIM_EXT1_LINETYPE
1070
   381
1005
256
1001
ACAD_DSTYLE_DIM_EXT2_LINETYPE
1070
   382
1005
256
  0
DIMSTYLE
105
F1091F
330
24C
100
AcDbSymbolTableRecord
100
AcDbDimStyleTableRecord
  2
AM_ANSI$SH
 70
     0
  4
mm
 41
0.12
 42
0.05
 43
0.5
 44
0.1
 47
0.1
 48
0.1
 75
     1
 76
     1
 78
     7
 79
     2
140
0.12
141
0.0
146
0.71
147
0.06
173
     1
176
   256
177
   256
178
     2
274
     4
284
     7
340
253
343
F1091B
371
    -1
372
    -1
1001
ACAD_DSTYLE_DIMBREAK
1070
   391
1040
0.125
1001
ACAD_DSTYLE_DIMJAG
1070
   388
1040
1.5
1001
ACAD_DSTYLE_DIMARC_LENGTH_SYMBOL
1070
   379
1070
     1
1001
ACAD_DSTYLE_DIM_LINETYPE
1070
   380
1005
256
1001
ACAD_DSTYLE_DIM_EXT1_LINETYPE
1070
   381
1005
256
1001
ACAD_DSTYLE_DIM_EXT2_LINETYPE
1070
   382
1005
256
  0
ENDTAB
  0
TABLE
  2
BLOCK_RECORD
  5
243
330
0
100
AcDbSymbolTable
 70
    13
  0
BLOCK_RECORD
  5
261
330
243
100
AcDbSymbolTableRecord
100
AcDbBlockTableRecord
  2
*Model_Space
340
FD0
  0
BLOCK_RECORD
  5
25D
330
243
100
AcDbSymbolTableRecord
100
AcDbBlockTableRecord
  2
*Paper_Space
340
FD1
  0
BLOCK_RECORD
  5
265
330
243
100
AcDbSymbolTableRecord
100
AcDbBlockTableRecord
  2
*Paper_Space0
340
0
  0
BLOCK_RECORD
  5
23C
330
243
100
AcDbSymbolTableRecord
100
AcDbBlockTableRecord
  2
VDDIM_DEFAULT
340
0
102
{BLKREFS
331
F109F0
331
F109F1
331
F109F9
331
F10A01
331
F10A02
331
F10A0A
331
F10A0B
331
F10A15
331
F10A16
331
F10A1E
331
F10A1F
331
F10A27
331
F10A28
331
F10A30
331
F10A31
102
}
  0
BLOCK_RECORD
  5
23E
330
243
100
AcDbSymbolTableRecord
100
AcDbBlockTableRecord
  2
VDDIM_NONE
340
0
  0
BLOCK_RECORD
  5
F10011
330
243
100
AcDbSymbolTableRecord
100
AcDbBlockTableRecord
  2
*D3
340
0
  0
BLOCK_RECORD
  5
F1001B
330
243
100
AcDbSymbolTableRecord
100
AcDbBlockTableRecord
  2
*D4
340
0
  0
BLOCK_RECORD
  5
F10020
330
243
100
AcDbSymbolTableRecord
100
AcDbBlockTableRecord
  2
*D5
340
0
  0
BLOCK_RECORD
  5
F10025
330
243
100
AcDbSymbolTableRecord
100
AcDbBlockTableRecord
  2
*D6
340
0
  0
BLOCK_RECORD
  5
F10007
330
243
100
AcDbSymbolTableRecord
100
AcDbBlockTableRecord
  2
*D7
340
0
  0
BLOCK_RECORD
  5
F10002
330
243
100
AcDbSymbolTableRecord
100
AcDbBlockTableRecord
  2
*D8
340
0
  0
BLOCK_RECORD
  5
F1000C
330
243
100
AcDbSymbolTableRecord
100
AcDbBlockTableRecord
  2
*D9
340
0
  0
BLOCK_RECORD
  5
F10016
330
243
100
AcDbSymbolTableRecord
100
AcDbBlockTableRecord
  2
*D10
340
0
  0
BLOCK_RECORD
  5
F1091B
330
243
100
AcDbSymbolTableRecord
100
AcDbBlockTableRecord
  2
GENAXEH
340
0
  0
ENDTAB
  0
ENDSEC
  0
SECTION
  2
BLOCKS
  0
BLOCK
  5
262
330
261
100
AcDbEntity
  8
0
100
AcDbBlockBegin
  2
*Model_Space
 70
     0
 10
0.0
 20
0.0
 30
0.0
  3
*Model_Space
  1

  0
ENDBLK
  5
263
330
261
100
AcDbEntity
  8
0
100
AcDbBlockEnd
  0
BLOCK
  5
25E
330
25D
100
AcDbEntity
 67
     1
  8
0
100
AcDbBlockBegin
  2
*Paper_Space
 70
     0
 10
0.0
 20
0.0
 30
0.0
  3
*Paper_Space
  1

  0
ENDBLK
  5
25F
330
25D
100
AcDbEntity
 67
     1
  8
0
100
AcDbBlockEnd
  0
BLOCK
  5
266
330
265
100
AcDbEntity
  8
0
100
AcDbBlockBegin
  2
*Paper_Space0
 70
     0
 10
0.0
 20
0.0
 30
0.0
  3
*Paper_Space0
  1

  0
VIEWPORT
  5
296
102
{ACAD_XDICTIONARY
360
F10A4F
102
}
330
265
100
AcDbEntity
  8
0
 60
     1
100
AcDbViewport
 10
0.0
 20
0.0
 30
0.0
 40
10.0
 41
10.0
 69
     0
 12
0.0
 22
0.0
 13
0.0
 23
0.0
 14
1.0
 24
1.0
 15
0.0
 25
0.0
 16
0.0
 26
0.0
 36
1.0
 17
0.0
 27
0.0
 37
0.0
 42
0.0
 43
0.0
 44
0.0
 45
10.0
 50
0.0
 51
0.0000000000007958
 72
   100
 90
   163872
  1

281
     0
 71
     0
 74
     0
110
0.0
120
0.0
130
0.0
111
1.0
121
0.0
131
0.0
112
0.0
122
1.0
132
0.0
 79
     0
146
0.0
1001
VD_INVISIBLE_NOT_FOR_READ
1000
VD_INVISIBLE_NOT_FOR_READ
  0
VIEWPORT
  5
297
102
{ACAD_XDICTIONARY
360
F10A51
102
}
330
265
100
AcDbEntity
  8
0
 60
     1
100
AcDbViewport
 10
0.0
 20
0.0
 30
0.0
 40
10.0
 41
10.0
 69
     0
 12
0.0
 22
0.0
 13
0.0
 23
0.0
 14
1.0
 24
1.0
 15
0.0
 25
0.0
 16
0.0
 26
0.0
 36
1.0
 17
0.0
 27
0.0
 37
0.0
 42
0.0
 43
0.0
 44
0.0
 45
10.0
 50
0.0
 51
0.0000000000007958
 72
   100
 90
   163872
  1

281
     0
 71
     0
 74
     0
110
0.0
120
0.0
130
0.0
111
1.0
121
0.0
131
0.0
112
0.0
122
1.0
132
0.0
 79
     0
146
0.0
1001
VD_INVISIBLE_NOT_FOR_READ
1000
VD_INVISIBLE_NOT_FOR_READ
  0
ENDBLK
  5
267
330
265
100
AcDbEntity
  8
0
100
AcDbBlockEnd
  0
BLOCK
  5
28B
330
23C
100
AcDbEntity
  8
0
100
AcDbBlockBegin
  2
VDDIM_DEFAULT
 70
     0
 10
0.0
 20
0.0
 30
0.0
  3
VDDIM_DEFAULT
  1

  0
LWPOLYLINE
  5
23D
330
23C
100
AcDbEntity
  8
0
  6
Continuous
 62
     0
100
AcDbPolyline
 90
        4
 70
     0
 43
0.0
 10
0.0
 20
0.0
 10
-1.0
 20
-0.1665
 10
-1.0
 20
0.1665
 10
0.0
 20
0.0
1001
VDEXTRAPARAM
1071
        1
1071
        0
1071
        0
1040
1.0
1000

1000

1040
0.0
1040
0.0
  0
HATCH
  5
292
330
23C
100
AcDbEntity
  8
0
  6
Continuous
 62
     0
100
AcDbHatch
 10
0.0
 20
0.0
 30
0.0
210
0.0
220
0.0
230
1.0
  2
SOLID
 70
     1
 71
     0
 91
        1
 92
        2
 72
     0
 73
     1
 93
        3
 10
0.0
 20
0.0
 10
-1.0
 20
-0.1665
 10
-1.0
 20
0.1665
 97
        0
 75
     0
 76
     1
 98
        1
 10
0.0
 20
0.0
1001
VDEXTRAPARAM
1071
        1
1071
        0
1071
        0
1040
1.0
1000

1000

1040
0.0
1040
0.0
1001
VD_TEMPHATCH
1000
VD_TEMPHATCH
  0
ENDBLK
  5
28C
330
23C
100
AcDbEntity
  8
0
100
AcDbBlockEnd
  0
BLOCK
  5
28D
330
23E
100
AcDbEntity
  8
0
100
AcDbBlockBegin
  2
VDDIM_NONE
 70
     0
 10
0.0
 20
0.0
 30
0.0
  3
VDDIM_NONE
  1

  0
ENDBLK
  5
28E
330
23E
100
AcDbEntity
  8
0
100
AcDbBlockEnd
  0
BLOCK
  5
F1002A
330
F10011
100
AcDbEntity
  8
0
100
AcDbBlockBegin
  2
*D3
 70
     1
 10
0.0
 20
0.0
 30
0.0
  3
*D3
  1

  0
LINE
  5
F10A07
330
F10011
100
AcDbEntity
  8
Bemassung
 62
     0
370
    -2
100
AcDbLine
 10
-8.654746284293224
 20
-1.998716391633889
 30
0.0
 11
-8.654746284293224
 21
8.876283608366108
 31
0.0
  0
LINE
  5
F10A08
330
F10011
100
AcDbEntity
  8
Bemassung
 62
     0
370
    -2
100
AcDbLine
 10
27.34525371570678
 20
-2.248716391633889
 30
0.0
 11
27.34525371570678
 21
8.876283608366108
 31
0.0
  0
LINE
  5
F10A09
330
F10011
100
AcDbEntity
  8
Bemassung
 62
     0
370
    -2
100
AcDbLine
 10
-6.154746284293224
 20
7.626283608366108
 30
0.0
 11
24.84525371570678
 21
7.626283608366108
 31
0.0
  0
INSERT
  5
F10A0A
330
F10011
100
AcDbEntity
  8
Bemassung
 62
     0
370
    -2
100
AcDbBlockReference
  2
VDDIM_DEFAULT
 10
-8.654746284293224
 20
7.626283608366108
 30
0.0
 41
2.5
 42
2.5
 43
2.5
 50
180.0
  0
INSERT
  5
F10A0B
330
F10011
100
AcDbEntity
  8
Bemassung
 62
     0
370
    -2
100
AcDbBlockReference
  2
VDDIM_DEFAULT
 10
27.34525371570678
 20
7.626283608366108
 30
0.0
 41
2.5
 42
2.5
 43
2.5
  0
MTEXT
  5
F10A0C
330
F10011
100
AcDbEntity
  8
Bemassung
 62
     0
100
AcDbMText
 10
9.345253715706776
 20
8.251283608366108
 30
0.0
 40
2.5
 41
0.0
 71
     8
 72
     1
  1
\A1;36
 73
     1
 44
1.0
1001
ACAD
1000
MTEXTBEGIN
1070
    73
1070
     1
1070
    44
1040
1.0
1070
    74
1070
     0
1000
MTEXTEND
  0
POINT
  5
F10A0D
330
F10011
100
AcDbEntity
  8
Defpoints
 62
     0
100
AcDbPoint
 10
-8.654746284293224
 20
-2.623716391633889
 30
0.0
  0
POINT
  5
F10A0E
330
F10011
100
AcDbEntity
  8
Defpoints
 62
     0
100
AcDbPoint
 10
27.34525371570678
 20
-2.873716391633889
 30
0.0
  0
POINT
  5
F10A0F
330
F10011
100
AcDbEntity
  8
Defpoints
 62
     0
100
AcDbPoint
 10
27.34525371570678
 20
7.626283608366108
 30
0.0
  0
ENDBLK
  5
F10033
330
F10011
100
AcDbEntity
  8
0
100
AcDbBlockEnd
  0
BLOCK
  5
F10034
330
F1001B
100
AcDbEntity
  8
0
100
AcDbBlockBegin
  2
*D4
 70
     1
 10
0.0
 20
0.0
 30
0.0
  3
*D4
  1

  0
LINE
  5
F10A1B
330
F1001B
100
AcDbEntity
  8
Bemassung
 62
     0
370
    -2
100
AcDbLine
 10
-16.65474628429322
 20
-7.498716391633879
 30
0.0
 11
-16.65474628429322
 21
4.90336229473138
 31
0.0
  0
LINE
  5
F10A1C
330
F1001B
100
AcDbEntity
  8
Bemassung
 62
     0
370
    -2
100
AcDbLine
 10
-29.65474628429321
 20
-4.748716391633889
 30
0.0
 11
-29.65474628429321
 21
4.90336229473138
 31
0.0
  0
LINE
  5
F10A1D
330
F1001B
100
AcDbEntity
  8
Bemassung
 62
     0
370
    -2
100
AcDbLine
 10
-19.15474628429322
 20
3.65336229473138
 30
0.0
 11
-27.15474628429321
 21
3.65336229473138
 31
0.0
  0
INSERT
  5
F10A1E
330
F1001B
100
AcDbEntity
  8
Bemassung
 62
     0
370
    -2
100
AcDbBlockReference
  2
VDDIM_DEFAULT
 10
-16.65474628429322
 20
3.65336229473138
 30
0.0
 41
2.5
 42
2.5
 43
2.5
  0
INSERT
  5
F10A1F
330
F1001B
100
AcDbEntity
  8
Bemassung
 62
     0
370
    -2
100
AcDbBlockReference
  2
VDDIM_DEFAULT
 10
-29.65474628429321
 20
3.65336229473138
 30
0.0
 41
2.5
 42
2.5
 43
2.5
 50
180.0
  0
MTEXT
  5
F10A20
330
F1001B
100
AcDbEntity
  8
Bemassung
 62
     0
100
AcDbMText
 10
-22.31705185198501
 20
4.27836229473138
 30
0.0
 40
2.5
 41
0.0
 71
     8
 72
     1
  1
\A1;13
 73
     1
 44
1.0
1001
ACAD
1000
MTEXTBEGIN
1070
    73
1070
     1
1070
    44
1040
1.0
1070
    74
1070
     0
1000
MTEXTEND
  0
POINT
  5
F10A21
330
F1001B
100
AcDbEntity
  8
Defpoints
 62
     0
100
AcDbPoint
 10
-16.65474628429322
 20
-8.123716391633879
 30
0.0
  0
POINT
  5
F10A22
330
F1001B
100
AcDbEntity
  8
Defpoints
 62
     0
100
AcDbPoint
 10
-29.65474628429321
 20
-5.373716391633889
 30
0.0
  0
POINT
  5
F10A23
330
F1001B
100
AcDbEntity
  8
Defpoints
 62
     0
100
AcDbPoint
 10
-29.65474628429321
 20
3.65336229473138
 30
0.0
  0
ENDBLK
  5
F1003D
330
F1001B
100
AcDbEntity
  8
0
100
AcDbBlockEnd
  0
BLOCK
  5
F1003E
330
F10020
100
AcDbEntity
  8
0
100
AcDbBlockBegin
  2
*D5
 70
     1
 10
0.0
 20
0.0
 30
0.0
  3
*D5
  1

  0
LINE
  5
F10A24
330
F10020
100
AcDbEntity
  8
Bemassung
 62
     0
370
    -2
100
AcDbLine
 10
27.34525371570678
 20
-2.248716391633889
 30
0.0
 11
27.34525371570678
 21
28.87628360836611
 31
0.0
  0
LINE
  5
F10A25
330
F10020
100
AcDbEntity
  8
Bemassung
 62
     0
370
    -2
100
AcDbLine
 10
-29.65474628429321
 20
-4.748716391633889
 30
0.0
 11
-29.65474628429321
 21
28.87628360836611
 31
0.0
  0
LINE
  5
F10A26
330
F10020
100
AcDbEntity
  8
Bemassung
 62
     0
370
    -2
100
AcDbLine
 10
24.84525371570678
 20
27.62628360836611
 30
0.0
 11
-27.15474628429321
 21
27.62628360836611
 31
0.0
  0
INSERT
  5
F10A27
330
F10020
100
AcDbEntity
  8
Bemassung
 62
     0
370
    -2
100
AcDbBlockReference
  2
VDDIM_DEFAULT
 10
27.34525371570678
 20
27.62628360836611
 30
0.0
 41
2.5
 42
2.5
 43
2.5
  0
INSERT
  5
F10A28
330
F10020
100
AcDbEntity
  8
Bemassung
 62
     0
370
    -2
100
AcDbBlockReference
  2
VDDIM_DEFAULT
 10
-29.65474628429321
 20
27.62628360836611
 30
0.0
 41
2.5
 42
2.5
 43
2.5
 50
180.0
  0
MTEXT
  5
F10A29
330
F10020
100
AcDbEntity
  8
Bemassung
 62
     0
100
AcDbMText
 10
-1.154746284293212
 20
28.25128360836611
 30
0.0
 40
2.5
 41
0.0
 71
     8
 72
     1
  1
\A1;57
 73
     1
 44
1.0
1001
ACAD
1000
MTEXTBEGIN
1070
    73
1070
     1
1070
    44
1040
1.0
1070
    74
1070
     0
1000
MTEXTEND
  0
POINT
  5
F10A2A
330
F10020
100
AcDbEntity
  8
Defpoints
 62
     0
100
AcDbPoint
 10
27.34525371570678
 20
-2.873716391633889
 30
0.0
  0
POINT
  5
F10A2B
330
F10020
100
AcDbEntity
  8
Defpoints
 62
     0
100
AcDbPoint
 10
-29.65474628429321
 20
-5.373716391633889
 30
0.0
  0
POINT
  5
F10A2C
330
F10020
100
AcDbEntity
  8
Defpoints
 62
     0
100
AcDbPoint
 10
-29.65474628429321
 20
27.62628360836611
 30
0.0
  0
ENDBLK
  5
F10047
330
F10020
100
AcDbEntity
  8
0
100
AcDbBlockEnd
  0
BLOCK
  5
F10048
330
F10025
100
AcDbEntity
  8
0
100
AcDbBlockBegin
  2
*D6
 70
     1
 10
0.0
 20
0.0
 30
0.0
  3
*D6
  1

  0
LINE
  5
F10A2D
330
F10025
100
AcDbEntity
  8
Bemassung
 62
     0
370
    -2
100
AcDbLine
 10
-29.65474628429321
 20
-4.748716391633889
 30
0.0
 11
-29.65474628429321
 21
13.8135082779696
 31
0.0
  0
LINE
  5
F10A2E
330
F10025
100
AcDbEntity
  8
Bemassung
 62
     0
370
    -2
100
AcDbLine
 10
-9.654746284293224
 20
-1.998716391633889
 30
0.0
 11
-9.654746284293223
 21
13.8135082779696
 31
0.0
  0
LINE
  5
F10A2F
330
F10025
100
AcDbEntity
  8
Bemassung
 62
     0
370
    -2
100
AcDbLine
 10
-27.15474628429321
 20
12.56350827796961
 30
0.0
 11
-12.15474628429322
 21
12.56350827796961
 31
0.0
  0
INSERT
  5
F10A30
330
F10025
100
AcDbEntity
  8
Bemassung
 62
     0
370
    -2
100
AcDbBlockReference
  2
VDDIM_DEFAULT
 10
-29.65474628429321
 20
12.56350827796961
 30
0.0
 41
2.5
 42
2.5
 43
2.5
 50
180.0
  0
INSERT
  5
F10A31
330
F10025
100
AcDbEntity
  8
Bemassung
 62
     0
370
    -2
100
AcDbBlockReference
  2
VDDIM_DEFAULT
 10
-9.654746284293223
 20
12.56350827796961
 30
0.0
 41
2.5
 42
2.5
 43
2.5
  0
MTEXT
  5
F10A32
330
F10025
100
AcDbEntity
  8
Bemassung
 62
     0
100
AcDbMText
 10
-19.65474628429322
 20
13.18850827796961
 30
0.0
 40
2.5
 41
0.0
 71
     8
 72
     1
  1
\A1;20
 73
     1
 44
1.0
1001
ACAD
1000
MTEXTBEGIN
1070
    73
1070
     1
1070
    44
1040
1.0
1070
    74
1070
     0
1000
MTEXTEND
  0
POINT
  5
F10A33
330
F10025
100
AcDbEntity
  8
Defpoints
 62
     0
100
AcDbPoint
 10
-29.65474628429321
 20
-5.373716391633889
 30
0.0
  0
POINT
  5
F10A34
330
F10025
100
AcDbEntity
  8
Defpoints
 62
     0
100
AcDbPoint
 10
-9.654746284293224
 20
-2.623716391633889
 30
0.0
  0
POINT
  5
F10A35
330
F10025
100
AcDbEntity
  8
Defpoints
 62
     0
100
AcDbPoint
 10
-9.654746284293223
 20
12.56350827796961
 30
0.0
  0
ENDBLK
  5
F10051
330
F10025
100
AcDbEntity
  8
0
100
AcDbBlockEnd
  0
BLOCK
  5
F10052
330
F10007
100
AcDbEntity
  8
0
100
AcDbBlockBegin
  2
*D7
 70
     1
 10
0.0
 20
0.0
 30
0.0
  3
*D7
  1

  0
LINE
  5
F109F6
330
F10007
100
AcDbEntity
  8
Bemassung
 62
     0
370
    -2
100
AcDbLine
 10
-38.85117713162819
 20
6.822714455701269
 30
0.0
 11
-31.27606662785286
 21
-0.7523960480741981
 31
0.0
  0
MTEXT
  5
F109F7
330
F10007
100
AcDbEntity
  8
Bemassung
 62
     0
100
AcDbMText
 10
-35.50556361798211
 20
4.360984418538317
 30
0.0
 40
2.5
 41
0.0
 71
     8
 72
     1
  1
\A1;R0.5
 11
0.7071067811865408
 21
-0.7071067811865545
 31
0.0
 73
     1
 44
1.0
1001
ACAD
1000
MTEXTBEGIN
1070
    73
1070
     1
1070
    44
1040
1.0
1070
    74
1070
     0
1000
MTEXTEND
  0
LINE
  5
F109F8
330
F10007
100
AcDbEntity
  8
Bemassung
 62
     0
370
    -2
100
AcDbLine
 10
-29.15474628429321
 20
-2.873716391633896
 30
0.0
 11
-29.50829967488651
 21
-2.520163001040584
 31
0.0
  0
INSERT
  5
F109F9
330
F10007
100
AcDbEntity
  8
Bemassung
 62
     0
370
    -2
100
AcDbBlockReference
  2
VDDIM_DEFAULT
 10
-29.50829967488651
 20
-2.520163001040584
 30
0.0
 41
2.5
 42
2.5
 43
2.5
 50
314.9999999999995
  0
POINT
  5
F109FA
330
F10007
100
AcDbEntity
  8
Defpoints
 62
     0
100
AcDbPoint
 10
-29.50829967488651
 20
-2.520163001040584
 30
0.0
  0
POINT
  5
F109FB
330
F10007
100
AcDbEntity
  8
Defpoints
 62
     0
100
AcDbPoint
 10
-29.15474628429321
 20
-2.873716391633896
 30
0.0
  0
ENDBLK
  5
F10058
330
F10007
100
AcDbEntity
  8
0
100
AcDbBlockEnd
  0
BLOCK
  5
F10059
330
F10002
100
AcDbEntity
  8
0
100
AcDbBlockBegin
  2
*D8
 70
     1
 10
0.0
 20
0.0
 30
0.0
  3
*D8
  1

  0
LINE
  5
F109EB
330
F10002
100
AcDbEntity
  8
Bemassung
 62
     0
370
    -2
100
AcDbLine
 10
-29.77974628429321
 20
-8.37371639163388
 30
0.0
 11
-40.90474628429321
 21
-8.373716391633879
 31
0.0
  0
LINE
  5
F109EC
330
F10002
100
AcDbEntity
  8
Bemassung
 62
     0
370
    -2
100
AcDbLine
 10
-29.77974628429321
 20
-2.373716391633889
 30
0.0
 11
-40.90474628429321
 21
-2.373716391633886
 31
0.0
  0
LINE
  5
F109ED
330
F10002
100
AcDbEntity
  8
Bemassung
 62
     0
370
    -2
100
AcDbLine
 10
-39.65474628429321
 20
-10.87371639163388
 30
0.0
 11
-39.65474628429321
 21
-13.37371639163388
 31
0.0
  0
LINE
  5
F109EE
330
F10002
100
AcDbEntity
  8
Bemassung
 62
     0
370
    -2
100
AcDbLine
 10
-39.65474628429321
 20
0.1262836083661129
 30
0.0
 11
-39.65474628429321
 21
2.626283608366112
 31
0.0
  0
LINE
  5
F109EF
330
F10002
100
AcDbEntity
  8
Bemassung
 62
     0
370
    -2
100
AcDbLine
 10
-39.65474628429321
 20
-8.373716391633879
 30
0.0
 11
-39.65474628429321
 21
-2.373716391633887
 31
0.0
  0
INSERT
  5
F109F0
330
F10002
100
AcDbEntity
  8
Bemassung
 62
     0
370
    -2
100
AcDbBlockReference
  2
VDDIM_DEFAULT
 10
-39.65474628429321
 20
-8.373716391633879
 30
0.0
 41
2.5
 42
2.5
 43
2.5
 50
90.0
  0
INSERT
  5
F109F1
330
F10002
100
AcDbEntity
  8
Bemassung
 62
     0
370
    -2
100
AcDbBlockReference
  2
VDDIM_DEFAULT
 10
-39.65474628429321
 20
-2.373716391633887
 30
0.0
 41
2.5
 42
2.5
 43
2.5
 50
270.0
  0
MTEXT
  5
F109F2
330
F10002
100
AcDbEntity
  8
Bemassung
 62
     0
100
AcDbMText
 10
-40.27974628429321
 20
-5.373716391633888
 30
0.0
 40
2.5
 41
0.0
 71
     8
 72
     1
  1
\A1;%%c6
 11
0.0000000000000001
 21
1.0
 31
0.0
 73
     1
 44
1.0
1001
ACAD
1000
MTEXTBEGIN
1070
    73
1070
     1
1070
    44
1040
1.0
1070
    74
1070
     0
1000
MTEXTEND
  0
POINT
  5
F109F3
330
F10002
100
AcDbEntity
  8
Defpoints
 62
     0
100
AcDbPoint
 10
-29.15474628429321
 20
-8.37371639163388
 30
0.0
  0
POINT
  5
F109F4
330
F10002
100
AcDbEntity
  8
Defpoints
 62
     0
100
AcDbPoint
 10
-29.15474628429321
 20
-2.373716391633889
 30
0.0
  0
POINT
  5
F109F5
330
F10002
100
AcDbEntity
  8
Defpoints
 62
     0
100
AcDbPoint
 10
-39.65474628429321
 20
-2.373716391633887
 30
0.0
  0
ENDBLK
  5
F10062
330
F10002
100
AcDbEntity
  8
0
100
AcDbBlockEnd
  0
BLOCK
  5
F10063
330
F1000C
100
AcDbEntity
  8
0
100
AcDbBlockBegin
  2
*D9
 70
     1
 10
0.0
 20
0.0
 30
0.0
  3
*D9
  1

  0
LINE
  5
F109FC
330
F1000C
100
AcDbEntity
  8
Bemassung
 62
     0
370
    -2
100
AcDbLine
 10
-12.09729400822861
 20
-8.123716391633877
 30
0.0
 11
-13.28376058928546
 21
-8.123716391633877
 31
0.0
  0
LINE
  5
F109FD
330
F1000C
100
AcDbEntity
  8
Bemassung
 62
     0
370
    -2
100
AcDbLine
 10
-12.09729400822861
 20
-2.623716391633889
 30
0.0
 11
-13.28376058928545
 21
-2.623716391633889
 31
0.0
  0
LINE
  5
F109FE
330
F1000C
100
AcDbEntity
  8
Bemassung
 62
     0
370
    -2
100
AcDbLine
 10
-12.03376058928545
 20
-0.1237163916338897
 30
0.0
 11
-12.03376058928545
 21
2.37628360836611
 31
0.0
  0
LINE
  5
F109FF
330
F1000C
100
AcDbEntity
  8
Bemassung
 62
     0
370
    -2
100
AcDbLine
 10
-12.03376058928546
 20
-10.62371639163387
 30
0.0
 11
-12.03376058928546
 21
-21.66396195780032
 31
0.0
  0
LINE
  5
F10A00
330
F1000C
100
AcDbEntity
  8
Bemassung
 62
     0
370
    -2
100
AcDbLine
 10
-12.03376058928545
 20
-2.623716391633889
 30
0.0
 11
-12.03376058928546
 21
-8.123716391633877
 31
0.0
  0
INSERT
  5
F10A01
330
F1000C
100
AcDbEntity
  8
Bemassung
 62
     0
370
    -2
100
AcDbBlockReference
  2
VDDIM_DEFAULT
 10
-12.03376058928545
 20
-2.623716391633889
 30
0.0
 41
2.5
 42
2.5
 43
2.5
 50
270.0
  0
INSERT
  5
F10A02
330
F1000C
100
AcDbEntity
  8
Bemassung
 62
     0
370
    -2
100
AcDbBlockReference
  2
VDDIM_DEFAULT
 10
-12.03376058928546
 20
-8.123716391633877
 30
0.0
 41
2.5
 42
2.5
 43
2.5
 50
90.0
  0
MTEXT
  5
F10A03
330
F1000C
100
AcDbEntity
  8
Bemassung
 62
     0
100
AcDbMText
 10
-12.65876058928546
 20
-17.39383917471711
 30
0.0
 40
2.5
 41
0.0
 71
     8
 72
     1
  1
\A1;%%c5.5
 11
0.0000000000000001
 21
1.0
 31
0.0
 73
     1
 44
1.0
1001
ACAD
1000
MTEXTBEGIN
1070
    73
1070
     1
1070
    44
1040
1.0
1070
    74
1070
     0
1000
MTEXTEND
  0
POINT
  5
F10A04
330
F1000C
100
AcDbEntity
  8
Defpoints
 62
     0
100
AcDbPoint
 10
-11.47229400822861
 20
-8.123716391633879
 30
0.0
  0
POINT
  5
F10A05
330
F1000C
100
AcDbEntity
  8
Defpoints
 62
     0
100
AcDbPoint
 10
-11.47229400822861
 20
-2.623716391633889
 30
0.0
  0
POINT
  5
F10A06
330
F1000C
100
AcDbEntity
  8
Defpoints
 62
     0
100
AcDbPoint
 10
-12.03376058928545
 20
-2.623716391633889
 30
0.0
  0
ENDBLK
  5
F1006C
330
F1000C
100
AcDbEntity
  8
0
100
AcDbBlockEnd
  0
BLOCK
  5
F1006D
330
F10016
100
AcDbEntity
  8
0
100
AcDbBlockBegin
  2
*D10
 70
     1
 10
0.0
 20
0.0
 30
0.0
  3
*D10
  1

  0
LINE
  5
F10A10
330
F10016
100
AcDbEntity
  8
Bemassung
 62
     0
370
    -2
100
AcDbLine
 10
27.47025371570678
 20
-8.37371639163388
 30
0.0
 11
38.59525371570678
 21
-8.373716391633884
 31
0.0
  0
LINE
  5
F10A11
330
F10016
100
AcDbEntity
  8
Bemassung
 62
     0
370
    -2
100
AcDbLine
 10
27.47025371570678
 20
-2.37371639163389
 30
0.0
 11
38.59525371570678
 21
-2.373716391633893
 31
0.0
  0
LINE
  5
F10A12
330
F10016
100
AcDbEntity
  8
Bemassung
 62
     0
370
    -2
100
AcDbLine
 10
37.34525371570678
 20
-10.87371639163388
 30
0.0
 11
37.34525371570678
 21
-13.37371639163388
 31
0.0
  0
LINE
  5
F10A13
330
F10016
100
AcDbEntity
  8
Bemassung
 62
     0
370
    -2
100
AcDbLine
 10
37.34525371570678
 20
0.1262836083661073
 30
0.0
 11
37.34525371570678
 21
13.08842549104005
 31
0.0
  0
LINE
  5
F10A14
330
F10016
100
AcDbEntity
  8
Bemassung
 62
     0
370
    -2
100
AcDbLine
 10
37.34525371570678
 20
-8.373716391633884
 30
0.0
 11
37.34525371570678
 21
-2.373716391633892
 31
0.0
  0
INSERT
  5
F10A15
330
F10016
100
AcDbEntity
  8
Bemassung
 62
     0
370
    -2
100
AcDbBlockReference
  2
VDDIM_DEFAULT
 10
37.34525371570678
 20
-8.373716391633884
 30
0.0
 41
2.5
 42
2.5
 43
2.5
 50
90.0
  0
INSERT
  5
F10A16
330
F10016
100
AcDbEntity
  8
Bemassung
 62
     0
370
    -2
100
AcDbBlockReference
  2
VDDIM_DEFAULT
 10
37.34525371570678
 20
-2.373716391633892
 30
0.0
 41
2.5
 42
2.5
 43
2.5
 50
270.0
  0
MTEXT
  5
F10A17
330
F10016
100
AcDbEntity
  8
Bemassung
 62
     0
100
AcDbMText
 10
36.72025371570678
 20
7.857354549703085
 30
0.0
 40
2.5
 41
0.0
 71
     8
 72
     1
  1
\A1;%%c6 h6
 11
0.0000000000000001
 21
1.0
 31
0.0
 73
     1
 44
1.0
1001
ACAD
1000
MTEXTBEGIN
1070
    73
1070
     1
1070
    44
1040
1.0
1070
    74
1070
     0
1000
MTEXTEND
  0
POINT
  5
F10A18
330
F10016
100
AcDbEntity
  8
Defpoints
 62
     0
100
AcDbPoint
 10
26.84525371570678
 20
-8.37371639163388
 30
0.0
  0
POINT
  5
F10A19
330
F10016
100
AcDbEntity
  8
Defpoints
 62
     0
100
AcDbPoint
 10
26.84525371570678
 20
-2.373716391633889
 30
0.0
  0
POINT
  5
F10A1A
330
F10016
100
AcDbEntity
  8
Defpoints
 62
     0
100
AcDbPoint
 10
37.34525371570678
 20
-2.373716391633892
 30
0.0
  0
ENDBLK
  5
F10076
330
F10016
100
AcDbEntity
  8
0
100
AcDbBlockEnd
  0
BLOCK
  5
F1091D
330
F1091B
100
AcDbEntity
  8
0
100
AcDbBlockBegin
  2
GENAXEH
 70
     0
 10
0.0
 20
0.0
 30
0.0
  3
GENAXEH
  1

  0
LINE
  5
F1091C
330
F1091B
100
AcDbEntity
  8
0
100
AcDbLine
 10
-1.0
 20
0.0
 30
0.0
 11
1.0
 21
0.0
 31
0.0
  0
ENDBLK
  5
F1091E
330
F1091B
100
AcDbEntity
  8
0
100
AcDbBlockEnd
  0
ENDSEC
  0
SECTION
  2
ENTITIES
  0
DIMENSION
  5
F10012
330
261
100
AcDbEntity
  8
Bemassung
100
AcDbDimension
  2
*D3
 10
27.34525371570678
 20
7.626283608366108
 30
0.0
 11
9.345253715706776
 21
9.528568737970473
 31
0.0
 70
    32
  1
<>
 71
     8
 42
36.0
  3
BEM-ISBE
100
AcDbAlignedDimension
 13
-8.654746284293224
 23
-2.623716391633889
 33
0.0
 14
27.34525371570678
 24
-2.873716391633889
 34
0.0
100
AcDbRotatedDimension
1001
ACAD
1000
DSTYLE
1002
{
1070
   147
1040
0.625
1070
    72
1070
     0
1070
    71
1070
     0
1070
   284
1070
     8
1070
    78
1070
     8
1070
   144
1040
1.0
1070
    47
1040
2.0
1070
    48
1040
0.0
1002
}
  0
DIMENSION
  5
F1001C
330
261
100
AcDbEntity
  8
Bemassung
100
AcDbDimension
  2
*D4
 10
-29.65474628429321
 20
3.65336229473138
 30
0.0
 11
-22.31705185198501
 21
3.65336229473138
 31
0.0
 70
   160
  1
<>
 71
     8
 42
12.99999999999998
  3
BEM-ISBE
100
AcDbAlignedDimension
 13
-16.65474628429322
 23
-8.123716391633879
 33
0.0
 14
-29.65474628429321
 24
-5.373716391633889
 34
0.0
100
AcDbRotatedDimension
1001
ACAD
1000
DSTYLE
1002
{
1070
   147
1040
0.625
1070
    72
1070
     0
1070
    71
1070
     0
1070
   284
1070
     8
1070
    78
1070
     8
1070
   144
1040
1.0
1070
    47
1040
1.5
1070
    48
1040
0.0
1002
}
  0
DIMENSION
  5
F10021
330
261
100
AcDbEntity
  8
Bemassung
100
AcDbDimension
  2
*D5
 10
-29.65474628429321
 20
27.62628360836611
 30
0.0
 11
-1.154746284293212
 21
29.52260011586952
 31
0.0
 70
    32
  1
<>
 71
     8
 42
56.99999999999999
  3
BEM-ISBE
100
AcDbAlignedDimension
 13
27.34525371570678
 23
-2.873716391633889
 33
0.0
 14
-29.65474628429321
 24
-5.373716391633889
 34
0.0
100
AcDbRotatedDimension
1001
ACAD
1000
DSTYLE
1002
{
1070
   147
1040
0.625
1070
    72
1070
     0
1070
    71
1070
     0
1070
   284
1070
     8
1070
    78
1070
     8
1070
   144
1040
1.0
1070
    47
1040
2.0
1070
    48
1040
0.0
1002
}
  0
DIMENSION
  5
F10026
330
261
100
AcDbEntity
  8
Bemassung
100
AcDbDimension
  2
*D6
 10
-9.654746284293223
 20
12.56350827796961
 30
0.0
 11
-19.65474628429322
 21
14.46494074727383
 31
0.0
 70
    32
  1
<>
 71
     8
 42
19.99999999999998
  3
BEM-ISBE
100
AcDbAlignedDimension
 13
-29.65474628429321
 23
-5.373716391633889
 33
0.0
 14
-9.654746284293224
 24
-2.623716391633889
 34
0.0
100
AcDbRotatedDimension
1001
ACAD
1000
DSTYLE
1002
{
1070
   147
1040
0.625
1070
    72
1070
     0
1070
    71
1070
     0
1070
   284
1070
     8
1070
    78
1070
     8
1070
   144
1040
1.0
1070
    47
1040
0.5
1070
    48
1040
0.0
1002
}
  0
DIMENSION
  5
F10008
330
261
100
AcDbEntity
  8
Bemassung
100
AcDbDimension
  2
*D7
 10
-29.15474628429321
 20
-2.873716391633896
 30
0.0
 11
-34.60298956321039
 21
5.263558473310018
 31
0.0
 70
    36
  1
<>
 71
     8
 42
0.5000000000000498
  3
BEM-ISBE
100
AcDbRadialDimension
 15
-29.50829967488651
 25
-2.520163001040584
 35
0.0
 40
0.0
1001
ACAD
1000
DSTYLE
1002
{
1070
   284
1070
     8
1070
    78
1070
     8
1070
   144
1040
1.0
1070
   147
1040
0.625
1070
    72
1070
     0
1070
    71
1070
     0
1002
}
  0
DIMENSION
  5
F10003
330
261
100
AcDbEntity
  8
Bemassung
100
AcDbDimension
  2
*D8
 10
-39.65474628429321
 20
-2.373716391633887
 30
0.0
 11
-41.62609689820863
 21
-5.373716391633888
 31
0.0
 70
    32
  1
%%c<>
 71
     8
 42
5.999999999999991
  3
BEM-ISBE
100
AcDbAlignedDimension
 13
-29.15474628429321
 23
-8.37371639163388
 33
0.0
 14
-29.15474628429321
 24
-2.373716391633889
 34
0.0
 50
90.0
100
AcDbRotatedDimension
1001
ACAD
1000
DSTYLE
1002
{
1070
   147
1040
0.625
1070
    72
1070
     0
1070
    71
1070
     0
1070
   284
1070
     8
1070
    78
1070
     8
1070
   144
1040
1.0
1070
    47
1040
0.0
1070
    48
1040
-0.048
1002
}
  0
DIMENSION
  5
F1000D
330
261
100
AcDbEntity
  8
Bemassung
100
AcDbDimension
  2
*D9
 10
-12.03376058928545
 20
-2.623716391633889
 30
0.0
 11
-12.03376058928546
 21
-17.39383917471711
 31
0.0
 70
   160
  1
%%c<>
 71
     8
 42
5.499999999999988
  3
BEM-ISBE
100
AcDbAlignedDimension
 13
-11.47229400822861
 23
-8.123716391633879
 33
0.0
 14
-11.47229400822861
 24
-2.623716391633889
 34
0.0
 50
90.0
100
AcDbRotatedDimension
1001
ACAD
1000
DSTYLE
1002
{
1070
   147
1040
0.625
1070
    72
1070
     0
1070
    71
1070
     0
1070
   284
1070
     8
1070
    78
1070
     8
1070
   144
1040
1.0
1070
    47
1040
0.1
1070
    48
1040
-0.1
1002
}
  0
DIMENSION
  5
F10017
330
261
100
AcDbEntity
  8
Bemassung
100
AcDbDimension
  2
*D10
 10
37.34525371570678
 20
-2.373716391633892
 30
0.0
 11
35.37390310179136
 21
7.857354549703085
 31
0.0
 70
    32
  1
%%c<> h6
 71
     8
 42
5.999999999999991
  3
BEM-ISBE
100
AcDbAlignedDimension
 13
26.84525371570678
 23
-8.37371639163388
 33
0.0
 14
26.84525371570678
 24
-2.373716391633889
 34
0.0
 50
90.0
100
AcDbRotatedDimension
1001
ACAD
1000
DSTYLE
1002
{
1070
   284
1070
     8
1070
    78
1070
     8
1070
   144
1040
1.0
1070
   147
1040
0.625
1070
    72
1070
     0
1070
    71
1070
     0
1002
}
  0
LINE
  5
F10077
330
261
100
AcDbEntity
  8
Geo
100
AcDbLine
 10
-29.65474628429321
 20
-5.373716391633889
 30
0.0
 11
-29.65474628429321
 21
-2.873716391633889
 31
0.0
  0
ARC
  5
F10079
330
261
100
AcDbEntity
  8
Geo
100
AcDbCircle
 10
-29.15474628429321
 20
-2.873716391633889
 30
0.0
 40
0.5
100
AcDbArc
 50
90.0
 51
180.0
  0
LINE
  5
F1007B
330
261
100
AcDbEntity
  8
Geo
100
AcDbLine
 10
-29.15474628429321
 20
-2.373716391633889
 30
0.0
 11
-16.65474628429322
 21
-2.373716391633889
 31
0.0
  0
LINE
  5
F1007D
330
261
100
AcDbEntity
  8
Geo
100
AcDbLine
 10
-16.65474628429322
 20
-2.373716391633889
 30
0.0
 11
-16.65474628429322
 21
-2.623716391633889
 31
0.0
  0
LINE
  5
F1007F
330
261
100
AcDbEntity
  8
Geo
100
AcDbLine
 10
-16.65474628429322
 20
-2.623716391633889
 30
0.0
 11
-9.654746284293224
 21
-2.623716391633889
 31
0.0
  0
LINE
  5
F10081
330
261
100
AcDbEntity
  8
Geo
100
AcDbLine
 10
-8.654746284293224
 20
-2.623716391633889
 30
0.0
 11
-8.654746284293224
 21
-2.373716391633889
 31
0.0
  0
LINE
  5
F10083
330
261
100
AcDbEntity
  8
Geo
100
AcDbLine
 10
-9.654746284293224
 20
-2.373716391633889
 30
0.0
 11
6.345253715706775
 21
-2.373716391633889
 31
0.0
  0
LINE
  5
F10085
330
261
100
AcDbEntity
  8
Geo
100
AcDbLine
 10
6.345253715706775
 20
-2.373716391633889
 30
0.0
 11
7.245253715706773
 21
-3.27371639163389
 31
0.0
  0
LINE
  5
F10087
330
261
100
AcDbEntity
  8
Geo
100
AcDbLine
 10
7.245253715706773
 20
-3.27371639163389
 30
0.0
 11
11.44525371570678
 21
-3.27371639163389
 31
0.0
  0
LINE
  5
F10089
330
261
100
AcDbEntity
  8
Geo
100
AcDbLine
 10
11.44525371570678
 20
-3.27371639163389
 30
0.0
 11
12.34525371570678
 21
-2.373716391633889
 31
0.0
  0
LINE
  5
F1008B
330
261
100
AcDbEntity
  8
Geo
100
AcDbLine
 10
12.34525371570678
 20
-2.373716391633889
 30
0.0
 11
26.84525371570678
 21
-2.373716391633889
 31
0.0
  0
LINE
  5
F1008D
330
261
100
AcDbEntity
  8
Geo
100
AcDbLine
 10
26.84525371570678
 20
-2.373716391633889
 30
0.0
 11
27.34525371570678
 21
-2.873716391633889
 31
0.0
  0
LINE
  5
F1008F
330
261
100
AcDbEntity
  8
Geo
100
AcDbLine
 10
-24.85474628429321
 20
-2.374160377085489
 30
0.0
 11
-24.75474628429322
 21
-2.373833563485289
 31
0.0
  0
LINE
  5
F10091
330
261
100
AcDbEntity
  8
Geo
100
AcDbLine
 10
-24.75474628429322
 20
-2.373833563485289
 30
0.0
 11
-24.65474628429321
 21
-2.375541246190891
 31
0.0
  0
LINE
  5
F10093
330
261
100
AcDbEntity
  8
Geo
100
AcDbLine
 10
-24.65474628429321
 20
-2.375541246190891
 30
0.0
 11
-24.55474628429322
 21
-2.379282267065692
 31
0.0
  0
LINE
  5
F10095
330
261
100
AcDbEntity
  8
Geo
100
AcDbLine
 10
-24.55474628429322
 20
-2.379282267065692
 30
0.0
 11
-24.45474628429322
 21
-2.38505408897959
 31
0.0
  0
LINE
  5
F10097
330
261
100
AcDbEntity
  8
Geo
100
AcDbLine
 10
-24.45474628429322
 20
-2.38505408897959
 30
0.0
 11
-24.35474628429322
 21
-2.392852797529489
 31
0.0
  0
LINE
  5
F10099
330
261
100
AcDbEntity
  8
Geo
100
AcDbLine
 10
-24.35474628429322
 20
-2.392852797529489
 30
0.0
 11
-24.25474628429322
 21
-2.40267310369429
 31
0.0
  0
LINE
  5
F1009B
330
261
100
AcDbEntity
  8
Geo
100
AcDbLine
 10
-24.25474628429322
 20
-2.40267310369429
 30
0.0
 11
-24.15474628429321
 21
-2.414508347421588
 31
0.0
  0
LINE
  5
F1009D
330
261
100
AcDbEntity
  8
Geo
100
AcDbLine
 10
-24.15474628429321
 20
-2.414508347421588
 30
0.0
 11
-24.05474628429322
 21
-2.428350502144889
 31
0.0
  0
LINE
  5
F1009F
330
261
100
AcDbEntity
  8
Geo
100
AcDbLine
 10
-24.05474628429322
 20
-2.428350502144889
 30
0.0
 11
-23.95474628429322
 21
-2.444190180226389
 31
0.0
  0
LINE
  5
F100A1
330
261
100
AcDbEntity
  8
Geo
100
AcDbLine
 10
-23.95474628429322
 20
-2.444190180226389
 30
0.0
 11
-23.85474628429321
 21
-2.46201663932449
 31
0.0
  0
LINE
  5
F100A3
330
261
100
AcDbEntity
  8
Geo
100
AcDbLine
 10
-23.85474628429321
 20
-2.46201663932449
 30
0.0
 11
-23.75474628429322
 21
-2.48181778967859
 31
0.0
  0
LINE
  5
F100A5
330
261
100
AcDbEntity
  8
Geo
100
AcDbLine
 10
-23.75474628429322
 20
-2.48181778967859
 30
0.0
 11
-23.65474628429321
 21
-2.503580202308389
 31
0.0
  0
LINE
  5
F100A7
330
261
100
AcDbEntity
  8
Geo
100
AcDbLine
 10
-23.65474628429321
 20
-2.503580202308389
 30
0.0
 11
-23.55474628429321
 21
-2.527289118121389
 31
0.0
  0
LINE
  5
F100A9
330
261
100
AcDbEntity
  8
Geo
100
AcDbLine
 10
-23.55474628429321
 20
-2.527289118121389
 30
0.0
 11
-23.45474628429322
 21
-2.552928457922488
 31
0.0
  0
LINE
  5
F100AB
330
261
100
AcDbEntity
  8
Geo
100
AcDbLine
 10
-23.45474628429322
 20
-2.552928457922488
 30
0.0
 11
-23.35474628429321
 21
-2.580480833318389
 31
0.0
  0
LINE
  5
F100AD
330
261
100
AcDbEntity
  8
Geo
100
AcDbLine
 10
-23.35474628429321
 20
-2.580480833318389
 30
0.0
 11
-23.25474628429322
 21
-2.60992755851069
 31
0.0
  0
LINE
  5
F100AF
330
261
100
AcDbEntity
  8
Geo
100
AcDbLine
 10
-23.25474628429322
 20
-2.60992755851069
 30
0.0
 11
-23.15474628429321
 21
-2.641248662968191
 31
0.0
  0
LINE
  5
F100B1
330
261
100
AcDbEntity
  8
Geo
100
AcDbLine
 10
-23.15474628429321
 20
-2.641248662968191
 30
0.0
 11
-23.05474628429322
 21
-2.674422904970791
 31
0.0
  0
LINE
  5
F100B3
330
261
100
AcDbEntity
  8
Geo
100
AcDbLine
 10
-23.05474628429322
 20
-2.674422904970791
 30
0.0
 11
-22.95474628429322
 21
-2.709427786015488
 31
0.0
  0
LINE
  5
F100B5
330
261
100
AcDbEntity
  8
Geo
100
AcDbLine
 10
-22.95474628429322
 20
-2.709427786015488
 30
0.0
 11
-22.85474628429321
 21
-2.74623956607459
 31
0.0
  0
LINE
  5
F100B7
330
261
100
AcDbEntity
  8
Geo
100
AcDbLine
 10
-22.85474628429321
 20
-2.74623956607459
 30
0.0
 11
-22.75474628429322
 21
-2.78483327969629
 31
0.0
  0
LINE
  5
F100B9
330
261
100
AcDbEntity
  8
Geo
100
AcDbLine
 10
-22.75474628429322
 20
-2.78483327969629
 30
0.0
 11
-22.65474628429321
 21
-2.82518275293569
 31
0.0
  0
LINE
  5
F100BB
330
261
100
AcDbEntity
  8
Geo
100
AcDbLine
 10
-22.65474628429321
 20
-2.82518275293569
 30
0.0
 11
-22.55474628429322
 21
-2.86726062110589
 31
0.0
  0
LINE
  5
F100BD
330
261
100
AcDbEntity
  8
Geo
100
AcDbLine
 10
-22.55474628429322
 20
-2.86726062110589
 30
0.0
 11
-22.45474628429322
 21
-2.911038347336489
 31
0.0
  0
LINE
  5
F100BF
330
261
100
AcDbEntity
  8
Geo
100
AcDbLine
 10
-22.45474628429322
 20
-2.911038347336489
 30
0.0
 11
-22.35474628429321
 21
-2.956486241927191
 31
0.0
  0
LINE
  5
F100C1
330
261
100
AcDbEntity
  8
Geo
100
AcDbLine
 10
-22.35474628429321
 20
-2.956486241927191
 30
0.0
 11
-22.25474628429322
 21
-3.003573482482988
 31
0.0
  0
LINE
  5
F100C3
330
261
100
AcDbEntity
  8
Geo
100
AcDbLine
 10
-22.25474628429322
 20
-3.003573482482988
 30
0.0
 11
-22.15474628429321
 21
-3.05226813481749
 31
0.0
  0
LINE
  5
F100C5
330
261
100
AcDbEntity
  8
Geo
100
AcDbLine
 10
-22.15474628429321
 20
-3.05226813481749
 30
0.0
 11
-22.05474628429322
 21
-3.10253717461089
 31
0.0
  0
LINE
  5
F100C7
330
261
100
AcDbEntity
  8
Geo
100
AcDbLine
 10
-22.05474628429322
 20
-3.10253717461089
 30
0.0
 11
-21.95474628429322
 21
-3.154346509806289
 31
0.0
  0
LINE
  5
F100C9
330
261
100
AcDbEntity
  8
Geo
100
AcDbLine
 10
-21.95474628429322
 20
-3.154346509806289
 30
0.0
 11
-21.85474628429322
 21
-3.20766100373099
 31
0.0
  0
LINE
  5
F100CB
330
261
100
AcDbEntity
  8
Geo
100
AcDbLine
 10
-21.85474628429322
 20
-3.20766100373099
 30
0.0
 11
-21.75474628429322
 21
-3.262444498925891
 31
0.0
  0
LINE
  5
F100CD
330
261
100
AcDbEntity
  8
Geo
100
AcDbLine
 10
-21.75474628429322
 20
-3.262444498925891
 30
0.0
 11
-21.65474628429321
 21
-3.318659841666988
 31
0.0
  0
LINE
  5
F100CF
330
261
100
AcDbEntity
  8
Geo
100
AcDbLine
 10
-21.65474628429321
 20
-3.318659841666988
 30
0.0
 11
-21.55474628429322
 21
-3.37626890716279
 31
0.0
  0
LINE
  5
F100D1
330
261
100
AcDbEntity
  8
Geo
100
AcDbLine
 10
-21.55474628429322
 20
-3.37626890716279
 30
0.0
 11
-21.45474628429322
 21
-3.43523262541049
 31
0.0
  0
LINE
  5
F100D3
330
261
100
AcDbEntity
  8
Geo
100
AcDbLine
 10
-21.45474628429322
 20
-3.43523262541049
 30
0.0
 11
-21.35474628429321
 21
-3.495511007692389
 31
0.0
  0
LINE
  5
F100D5
330
261
100
AcDbEntity
  8
Geo
100
AcDbLine
 10
-21.35474628429321
 20
-3.495511007692389
 30
0.0
 11
-21.25474628429322
 21
-3.557063173696489
 31
0.0
  0
LINE
  5
F100D7
330
261
100
AcDbEntity
  8
Geo
100
AcDbLine
 10
-21.25474628429322
 20
-3.557063173696489
 30
0.0
 11
-21.15474628429321
 21
-3.61984737924109
 31
0.0
  0
LINE
  5
F100D9
330
261
100
AcDbEntity
  8
Geo
100
AcDbLine
 10
-21.15474628429321
 20
-3.61984737924109
 30
0.0
 11
-21.05474628429321
 21
-3.683821044584888
 31
0.0
  0
LINE
  5
F100DB
330
261
100
AcDbEntity
  8
Geo
100
AcDbLine
 10
-21.05474628429321
 20
-3.683821044584888
 30
0.0
 11
-20.95474628429322
 21
-3.748940783304888
 31
0.0
  0
LINE
  5
F100DD
330
261
100
AcDbEntity
  8
Geo
100
AcDbLine
 10
-20.95474628429322
 20
-3.748940783304888
 30
0.0
 11
-20.85474628429321
 21
-3.815162431720089
 31
0.0
  0
LINE
  5
F100DF
330
261
100
AcDbEntity
  8
Geo
100
AcDbLine
 10
-20.85474628429321
 20
-3.815162431720089
 30
0.0
 11
-20.75474628429322
 21
-3.88244107884339
 31
0.0
  0
LINE
  5
F100E1
330
261
100
AcDbEntity
  8
Geo
100
AcDbLine
 10
-20.75474628429322
 20
-3.88244107884339
 30
0.0
 11
-20.65474628429321
 21
-3.950731096839689
 31
0.0
  0
LINE
  5
F100E3
330
261
100
AcDbEntity
  8
Geo
100
AcDbLine
 10
-20.65474628429321
 20
-3.950731096839689
 30
0.0
 11
-20.55474628429322
 21
-4.019986171970291
 31
0.0
  0
LINE
  5
F100E5
330
261
100
AcDbEntity
  8
Geo
100
AcDbLine
 10
-20.55474628429322
 20
-4.019986171970291
 30
0.0
 11
-20.45474628429322
 21
-4.09015933600269
 31
0.0
  0
LINE
  5
F100E7
330
261
100
AcDbEntity
  8
Geo
100
AcDbLine
 10
-20.45474628429322
 20
-4.09015933600269
 30
0.0
 11
-20.35474628429321
 21
-4.161202998063689
 31
0.0
  0
LINE
  5
F100E9
330
261
100
AcDbEntity
  8
Geo
100
AcDbLine
 10
-20.35474628429321
 20
-4.161202998063689
 30
0.0
 11
-20.25474628429322
 21
-4.23306897691539
 31
0.0
  0
LINE
  5
F100EB
330
261
100
AcDbEntity
  8
Geo
100
AcDbLine
 10
-20.25474628429322
 20
-4.23306897691539
 30
0.0
 11
-20.15474628429321
 21
-4.305708533631488
 31
0.0
  0
LINE
  5
F100ED
330
261
100
AcDbEntity
  8
Geo
100
AcDbLine
 10
-20.15474628429321
 20
-4.305708533631488
 30
0.0
 11
-20.05474628429322
 21
-4.37907240465129
 31
0.0
  0
LINE
  5
F100EF
330
261
100
AcDbEntity
  8
Geo
100
AcDbLine
 10
-20.05474628429322
 20
-4.37907240465129
 30
0.0
 11
-19.95474628429322
 21
-4.453110835189891
 31
0.0
  0
LINE
  5
F100F1
330
261
100
AcDbEntity
  8
Geo
100
AcDbLine
 10
-19.95474628429322
 20
-4.453110835189891
 30
0.0
 11
-19.85474628429321
 21
-4.527773612981588
 31
0.0
  0
LINE
  5
F100F3
330
261
100
AcDbEntity
  8
Geo
100
AcDbLine
 10
-19.85474628429321
 20
-4.527773612981588
 30
0.0
 11
-19.75474628429322
 21
-4.603010102333691
 31
0.0
  0
LINE
  5
F100F5
330
261
100
AcDbEntity
  8
Geo
100
AcDbLine
 10
-19.75474628429322
 20
-4.603010102333691
 30
0.0
 11
-19.65474628429321
 21
-4.678769278466692
 31
0.0
  0
LINE
  5
F100F7
330
261
100
AcDbEntity
  8
Geo
100
AcDbLine
 10
-19.65474628429321
 20
-4.678769278466692
 30
0.0
 11
-19.55474628429321
 21
-4.75499976211919
 31
0.0
  0
LINE
  5
F100F9
330
261
100
AcDbEntity
  8
Geo
100
AcDbLine
 10
-19.55474628429321
 20
-4.75499976211919
 30
0.0
 11
-19.45474628429322
 21
-4.831649854392789
 31
0.0
  0
LINE
  5
F100FB
330
261
100
AcDbEntity
  8
Geo
100
AcDbLine
 10
-19.45474628429322
 20
-4.831649854392789
 30
0.0
 11
-19.35474628429321
 21
-4.908667571813991
 31
0.0
  0
LINE
  5
F100FD
330
261
100
AcDbEntity
  8
Geo
100
AcDbLine
 10
-19.35474628429321
 20
-4.908667571813991
 30
0.0
 11
-19.25474628429322
 21
-4.98600068158889
 31
0.0
  0
LINE
  5
F100FF
330
261
100
AcDbEntity
  8
Geo
100
AcDbLine
 10
-19.25474628429322
 20
-4.98600068158889
 30
0.0
 11
-19.15474628429321
 21
-5.063596737026989
 31
0.0
  0
LINE
  5
F10101
330
261
100
AcDbEntity
  8
Geo
100
AcDbLine
 10
-19.15474628429321
 20
-5.063596737026989
 30
0.0
 11
-19.05474628429321
 21
-5.141403113110191
 31
0.0
  0
LINE
  5
F10103
330
261
100
AcDbEntity
  8
Geo
100
AcDbLine
 10
-19.05474628429321
 20
-5.141403113110191
 30
0.0
 11
-18.95474628429322
 21
-5.219367042182691
 31
0.0
  0
LINE
  5
F10105
330
261
100
AcDbEntity
  8
Geo
100
AcDbLine
 10
-18.95474628429322
 20
-5.219367042182691
 30
0.0
 11
-18.85474628429323
 21
-5.297435649737291
 31
0.0
  0
LINE
  5
F10107
330
261
100
AcDbEntity
  8
Geo
100
AcDbLine
 10
-18.85474628429323
 20
-5.297435649737291
 30
0.0
 11
-18.75474628429322
 21
-5.375555990275088
 31
0.0
  0
LINE
  5
F10109
330
261
100
AcDbEntity
  8
Geo
100
AcDbLine
 10
-18.75474628429322
 20
-5.375555990275088
 30
0.0
 11
-18.65474628429322
 21
-5.453675083211889
 31
0.0
  0
LINE
  5
F1010B
330
261
100
AcDbEntity
  8
Geo
100
AcDbLine
 10
-18.65474628429322
 20
-5.453675083211889
 30
0.0
 11
-18.55474628429323
 21
-5.531739948809789
 31
0.0
  0
LINE
  5
F1010D
330
261
100
AcDbEntity
  8
Geo
100
AcDbLine
 10
-18.55474628429323
 20
-5.531739948809789
 30
0.0
 11
-18.45474628429322
 21
-5.609697644107589
 31
0.0
  0
LINE
  5
F1010F
330
261
100
AcDbEntity
  8
Geo
100
AcDbLine
 10
-18.45474628429322
 20
-5.609697644107589
 30
0.0
 11
-18.35474628429323
 21
-5.687495298825689
 31
0.0
  0
LINE
  5
F10111
330
261
100
AcDbEntity
  8
Geo
100
AcDbLine
 10
-18.35474628429323
 20
-5.687495298825689
 30
0.0
 11
-18.25474628429322
 21
-5.76508015122329
 31
0.0
  0
LINE
  5
F10113
330
261
100
AcDbEntity
  8
Geo
100
AcDbLine
 10
-18.25474628429322
 20
-5.76508015122329
 30
0.0
 11
-18.15474628429322
 21
-5.84239958387989
 31
0.0
  0
LINE
  5
F10115
330
261
100
AcDbEntity
  8
Geo
100
AcDbLine
 10
-18.15474628429322
 20
-5.84239958387989
 30
0.0
 11
-18.05474628429323
 21
-5.91940115938069
 31
0.0
  0
LINE
  5
F10117
330
261
100
AcDbEntity
  8
Geo
100
AcDbLine
 10
-18.05474628429323
 20
-5.91940115938069
 30
0.0
 11
-17.95474628429322
 21
-5.99603265587929
 31
0.0
  0
LINE
  5
F10119
330
261
100
AcDbEntity
  8
Geo
100
AcDbLine
 10
-17.95474628429322
 20
-5.99603265587929
 30
0.0
 11
-17.85474628429323
 21
-6.072242102513488
 31
0.0
  0
LINE
  5
F1011B
330
261
100
AcDbEntity
  8
Geo
100
AcDbLine
 10
-17.85474628429323
 20
-6.072242102513488
 30
0.0
 11
-17.75474628429322
 21
-6.147977814652168
 31
0.0
  0
LINE
  5
F1011D
330
261
100
AcDbEntity
  8
Geo
100
AcDbLine
 10
-17.75474628429322
 20
-6.147977814652168
 30
0.0
 11
-17.65474628429322
 21
-6.223188428946979
 31
0.0
  0
LINE
  5
F1011F
330
261
100
AcDbEntity
  8
Geo
100
AcDbLine
 10
-17.65474628429322
 20
-6.223188428946979
 30
0.0
 11
-17.55474628429323
 21
-6.297822938166758
 31
0.0
  0
LINE
  5
F10121
330
261
100
AcDbEntity
  8
Geo
100
AcDbLine
 10
-17.55474628429323
 20
-6.297822938166758
 30
0.0
 11
-17.45474628429322
 21
-6.371830725790131
 31
0.0
  0
LINE
  5
F10123
330
261
100
AcDbEntity
  8
Geo
100
AcDbLine
 10
-17.45474628429322
 20
-6.371830725790131
 30
0.0
 11
-17.35474628429322
 21
-6.445161600333248
 31
0.0
  0
LINE
  5
F10125
330
261
100
AcDbEntity
  8
Geo
100
AcDbLine
 10
-17.35474628429322
 20
-6.445161600333248
 30
0.0
 11
-17.25474628429322
 21
-6.517765829389229
 31
0.0
  0
LINE
  5
F10127
330
261
100
AcDbEntity
  8
Geo
100
AcDbLine
 10
-17.25474628429322
 20
-6.517765829389229
 30
0.0
 11
-17.15474628429322
 21
-6.589594173356319
 31
0.0
  0
LINE
  5
F10129
330
261
100
AcDbEntity
  8
Geo
100
AcDbLine
 10
-17.15474628429322
 20
-6.589594173356319
 30
0.0
 11
-17.05474628429323
 21
-6.66059791883177
 31
0.0
  0
LINE
  5
F1012B
330
261
100
AcDbEntity
  8
Geo
100
AcDbLine
 10
-17.05474628429323
 20
-6.66059791883177
 30
0.0
 11
-16.95474628429322
 21
-6.730728911648819
 31
0.0
  0
LINE
  5
F1012D
330
261
100
AcDbEntity
  8
Geo
100
AcDbLine
 10
-16.95474628429322
 20
-6.730728911648819
 30
0.0
 11
-16.85474628429323
 21
-6.799939589534568
 31
0.0
  0
LINE
  5
F1012F
330
261
100
AcDbEntity
  8
Geo
100
AcDbLine
 10
-16.85474628429323
 20
-6.799939589534568
 30
0.0
 11
-16.75474628429322
 21
-6.86818301436625
 31
0.0
  0
LINE
  5
F10131
330
261
100
AcDbEntity
  8
Geo
100
AcDbLine
 10
-16.75474628429322
 20
-6.86818301436625
 30
0.0
 11
-16.65474628429322
 21
-6.93541290400431
 31
0.0
  0
LINE
  5
F10133
330
261
100
AcDbEntity
  8
Geo
100
AcDbLine
 10
-16.65474628429322
 20
-6.93541290400431
 30
0.0
 11
-16.55474628429323
 21
-6.875010945468529
 31
0.0
  0
LINE
  5
F10135
330
261
100
AcDbEntity
  8
Geo
100
AcDbLine
 10
-16.55474628429323
 20
-6.875010945468529
 30
0.0
 11
-16.45474628429322
 21
-6.944652557021679
 31
0.0
  0
LINE
  5
F10137
330
261
100
AcDbEntity
  8
Geo
100
AcDbLine
 10
-16.45474628429322
 20
-6.944652557021679
 30
0.0
 11
-16.35474628429323
 21
-7.01405342168803
 31
0.0
  0
LINE
  5
F10139
330
261
100
AcDbEntity
  8
Geo
100
AcDbLine
 10
-16.35474628429323
 20
-7.01405342168803
 30
0.0
 11
-16.25474628429322
 21
-7.0830634442116
 31
0.0
  0
LINE
  5
F1013B
330
261
100
AcDbEntity
  8
Geo
100
AcDbLine
 10
-16.25474628429322
 20
-7.0830634442116
 30
0.0
 11
-16.15474628429322
 21
-7.151525387896549
 31
0.0
  0
LINE
  5
F1013D
330
261
100
AcDbEntity
  8
Geo
100
AcDbLine
 10
-16.15474628429322
 20
-7.151525387896549
 30
0.0
 11
-16.05474628429323
 21
-7.21927492036562
 31
0.0
  0
LINE
  5
F1013F
330
261
100
AcDbEntity
  8
Geo
100
AcDbLine
 10
-16.05474628429323
 20
-7.21927492036562
 30
0.0
 11
-15.95474628429322
 21
-7.286140694691649
 31
0.0
  0
LINE
  5
F10141
330
261
100
AcDbEntity
  8
Geo
100
AcDbLine
 10
-15.95474628429322
 20
-7.286140694691649
 30
0.0
 11
-15.85474628429323
 21
-7.351944468414309
 31
0.0
  0
LINE
  5
F10143
330
261
100
AcDbEntity
  8
Geo
100
AcDbLine
 10
-15.85474628429323
 20
-7.351944468414309
 30
0.0
 11
-15.75474628429322
 21
-7.41650126296523
 31
0.0
  0
LINE
  5
F10145
330
261
100
AcDbEntity
  8
Geo
100
AcDbLine
 10
-15.75474628429322
 20
-7.41650126296523
 30
0.0
 11
-15.65474628429322
 21
-7.47961956602192
 31
0.0
  0
LINE
  5
F10147
330
261
100
AcDbEntity
  8
Geo
100
AcDbLine
 10
-15.65474628429322
 20
-7.47961956602192
 30
0.0
 11
-15.55474628429323
 21
-7.541101579290751
 31
0.0
  0
LINE
  5
F10149
330
261
100
AcDbEntity
  8
Geo
100
AcDbLine
 10
-15.55474628429323
 20
-7.541101579290751
 30
0.0
 11
-15.45474628429322
 21
-7.600743514180789
 31
0.0
  0
LINE
  5
F1014B
330
261
100
AcDbEntity
  8
Geo
100
AcDbLine
 10
-15.45474628429322
 20
-7.600743514180789
 30
0.0
 11
-15.35474628429323
 21
-7.658335937772239
 31
0.0
  0
LINE
  5
F1014D
330
261
100
AcDbEntity
  8
Geo
100
AcDbLine
 10
-15.35474628429323
 20
-7.658335937772239
 30
0.0
 11
-15.25474628429322
 21
-7.713664171403319
 31
0.0
  0
LINE
  5
F1014F
330
261
100
AcDbEntity
  8
Geo
100
AcDbLine
 10
-15.25474628429322
 20
-7.713664171403319
 30
0.0
 11
-15.15474628429322
 21
-7.76650874409637
 31
0.0
  0
LINE
  5
F10151
330
261
100
AcDbEntity
  8
Geo
100
AcDbLine
 10
-15.15474628429322
 20
-7.76650874409637
 30
0.0
 11
-15.05474628429323
 21
-7.816645902915908
 31
0.0
  0
LINE
  5
F10153
330
261
100
AcDbEntity
  8
Geo
100
AcDbLine
 10
-15.05474628429323
 20
-7.816645902915908
 30
0.0
 11
-14.95474628429322
 21
-7.863848182197049
 31
0.0
  0
LINE
  5
F10155
330
261
100
AcDbEntity
  8
Geo
100
AcDbLine
 10
-14.95474628429322
 20
-7.863848182197049
 30
0.0
 11
-14.85474628429322
 21
-7.907885033399919
 31
0.0
  0
LINE
  5
F10157
330
261
100
AcDbEntity
  8
Geo
100
AcDbLine
 10
-14.85474628429322
 20
-7.907885033399919
 30
0.0
 11
-14.75474628429322
 21
-7.948523517133589
 31
0.0
  0
LINE
  5
F10159
330
261
100
AcDbEntity
  8
Geo
100
AcDbLine
 10
-14.75474628429322
 20
-7.948523517133589
 30
0.0
 11
-14.65474628429322
 21
-7.98552905864941
 31
0.0
  0
LINE
  5
F1015B
330
261
100
AcDbEntity
  8
Geo
100
AcDbLine
 10
-14.65474628429322
 20
-7.98552905864941
 30
0.0
 11
-14.55474628429323
 21
-8.01866626782837
 31
0.0
  0
LINE
  5
F1015D
330
261
100
AcDbEntity
  8
Geo
100
AcDbLine
 10
-14.55474628429323
 20
-8.01866626782837
 30
0.0
 11
-14.45474628429322
 21
-8.0476998243769
 31
0.0
  0
LINE
  5
F1015F
330
261
100
AcDbEntity
  8
Geo
100
AcDbLine
 10
-14.45474628429322
 20
-8.0476998243769
 30
0.0
 11
-14.35474628429323
 21
-8.07239542860179
 31
0.0
  0
LINE
  5
F10161
330
261
100
AcDbEntity
  8
Geo
100
AcDbLine
 10
-14.35474628429323
 20
-8.07239542860179
 30
0.0
 11
-14.25474628429322
 21
-8.092520817754738
 31
0.0
  0
LINE
  5
F10163
330
261
100
AcDbEntity
  8
Geo
100
AcDbLine
 10
-14.25474628429322
 20
-8.092520817754738
 30
0.0
 11
-14.15474628429322
 21
-8.10784684752066
 31
0.0
  0
LINE
  5
F10165
330
261
100
AcDbEntity
  8
Geo
100
AcDbLine
 10
-14.15474628429322
 20
-8.10784684752066
 30
0.0
 11
-14.05474628429323
 21
-8.118148637770879
 31
0.0
  0
LINE
  5
F10167
330
261
100
AcDbEntity
  8
Geo
100
AcDbLine
 10
-14.05474628429323
 20
-8.118148637770879
 30
0.0
 11
-13.95474628429322
 21
-8.12320678121185
 31
0.0
  0
LINE
  5
F10169
330
261
100
AcDbEntity
  8
Geo
100
AcDbLine
 10
-13.95474628429322
 20
-8.12320678121185
 30
0.0
 11
-13.85474628429323
 21
-8.123716391633879
 31
0.0
  0
LINE
  5
F1016B
330
261
100
AcDbEntity
  8
Geo
100
AcDbLine
 10
-29.65474628429321
 20
-2.873716391633889
 30
0.0
 11
-29.55474628429321
 21
-2.57466586032689
 31
0.0
  0
LINE
  5
F1016D
330
261
100
AcDbEntity
  8
Geo
100
AcDbLine
 10
-29.55474628429321
 20
-2.57466586032689
 30
0.0
 11
-29.45474628429322
 21
-2.477649237871588
 31
0.0
  0
LINE
  5
F1016F
330
261
100
AcDbEntity
  8
Geo
100
AcDbLine
 10
-29.45474628429322
 20
-2.477649237871588
 30
0.0
 11
-29.35474628429322
 21
-2.424482939460789
 31
0.0
  0
LINE
  5
F10171
330
261
100
AcDbEntity
  8
Geo
100
AcDbLine
 10
-29.35474628429322
 20
-2.424482939460789
 30
0.0
 11
-29.25474628429322
 21
-2.40002649207169
 31
0.0
  0
LINE
  5
F10173
330
261
100
AcDbEntity
  8
Geo
100
AcDbLine
 10
-29.25474628429322
 20
-2.40002649207169
 30
0.0
 11
-29.15474628429321
 21
-2.39911410932089
 31
0.0
  0
LINE
  5
F10175
330
261
100
AcDbEntity
  8
Geo
100
AcDbLine
 10
-29.15474628429321
 20
-2.39911410932089
 30
0.0
 11
-29.05474628429322
 21
-2.410266366670789
 31
0.0
  0
LINE
  5
F10177
330
261
100
AcDbEntity
  8
Geo
100
AcDbLine
 10
-29.05474628429322
 20
-2.410266366670789
 30
0.0
 11
-28.95474628429322
 21
-2.423428411893789
 31
0.0
  0
LINE
  5
F10179
330
261
100
AcDbEntity
  8
Geo
100
AcDbLine
 10
-28.95474628429322
 20
-2.423428411893789
 30
0.0
 11
-28.85474628429321
 21
-2.438591318596788
 31
0.0
  0
LINE
  5
F1017B
330
261
100
AcDbEntity
  8
Geo
100
AcDbLine
 10
-28.85474628429321
 20
-2.438591318596788
 30
0.0
 11
-28.75474628429322
 21
-2.455744803419191
 31
0.0
  0
LINE
  5
F1017D
330
261
100
AcDbEntity
  8
Geo
100
AcDbLine
 10
-28.75474628429322
 20
-2.455744803419191
 30
0.0
 11
-28.65474628429321
 21
-2.47487723300599
 31
0.0
  0
LINE
  5
F1017F
330
261
100
AcDbEntity
  8
Geo
100
AcDbLine
 10
-28.65474628429321
 20
-2.47487723300599
 30
0.0
 11
-28.55474628429322
 21
-2.495975631898087
 31
0.0
  0
LINE
  5
F10181
330
261
100
AcDbEntity
  8
Geo
100
AcDbLine
 10
-28.55474628429322
 20
-2.495975631898087
 30
0.0
 11
-28.45474628429322
 21
-2.519025691331588
 31
0.0
  0
LINE
  5
F10183
330
261
100
AcDbEntity
  8
Geo
100
AcDbLine
 10
-28.45474628429322
 20
-2.519025691331588
 30
0.0
 11
-28.35474628429322
 21
-2.544011778942488
 31
0.0
  0
LINE
  5
F10185
330
261
100
AcDbEntity
  8
Geo
100
AcDbLine
 10
-28.35474628429322
 20
-2.544011778942488
 30
0.0
 11
-28.25474628429322
 21
-2.57091694936779
 31
0.0
  0
LINE
  5
F10187
330
261
100
AcDbEntity
  8
Geo
100
AcDbLine
 10
-28.25474628429322
 20
-2.57091694936779
 30
0.0
 11
-28.15474628429321
 21
-2.599722955738389
 31
0.0
  0
LINE
  5
F10189
330
261
100
AcDbEntity
  8
Geo
100
AcDbLine
 10
-28.15474628429321
 20
-2.599722955738389
 30
0.0
 11
-28.05474628429322
 21
-2.63041026205339
 31
0.0
  0
LINE
  5
F1018B
330
261
100
AcDbEntity
  8
Geo
100
AcDbLine
 10
-28.05474628429322
 20
-2.63041026205339
 30
0.0
 11
-27.95474628429322
 21
-2.66295805642939
 31
0.0
  0
LINE
  5
F1018D
330
261
100
AcDbEntity
  8
Geo
100
AcDbLine
 10
-27.95474628429322
 20
-2.66295805642939
 30
0.0
 11
-27.85474628429322
 21
-2.697344265215191
 31
0.0
  0
LINE
  5
F1018F
330
261
100
AcDbEntity
  8
Geo
100
AcDbLine
 10
-27.85474628429322
 20
-2.697344265215191
 30
0.0
 11
-27.75474628429322
 21
-2.733545567961689
 31
0.0
  0
LINE
  5
F10191
330
261
100
AcDbEntity
  8
Geo
100
AcDbLine
 10
-27.75474628429322
 20
-2.733545567961689
 30
0.0
 11
-27.65474628429321
 21
-2.771537413237791
 31
0.0
  0
LINE
  5
F10193
330
261
100
AcDbEntity
  8
Geo
100
AcDbLine
 10
-27.65474628429321
 20
-2.771537413237791
 30
0.0
 11
-27.55474628429322
 21
-2.81129403528079
 31
0.0
  0
LINE
  5
F10195
330
261
100
AcDbEntity
  8
Geo
100
AcDbLine
 10
-27.55474628429322
 20
-2.81129403528079
 30
0.0
 11
-27.45474628429322
 21
-2.852788471470692
 31
0.0
  0
LINE
  5
F10197
330
261
100
AcDbEntity
  8
Geo
100
AcDbLine
 10
-27.45474628429322
 20
-2.852788471470692
 30
0.0
 11
-27.35474628429321
 21
-2.895992580616089
 31
0.0
  0
LINE
  5
F10199
330
261
100
AcDbEntity
  8
Geo
100
AcDbLine
 10
-27.35474628429321
 20
-2.895992580616089
 30
0.0
 11
-27.25474628429322
 21
-2.940877062038989
 31
0.0
  0
LINE
  5
F1019B
330
261
100
AcDbEntity
  8
Geo
100
AcDbLine
 10
-27.25474628429322
 20
-2.940877062038989
 30
0.0
 11
-27.15474628429321
 21
-2.987411475446691
 31
0.0
  0
LINE
  5
F1019D
330
261
100
AcDbEntity
  8
Geo
100
AcDbLine
 10
-27.15474628429321
 20
-2.987411475446691
 30
0.0
 11
-27.05474628429322
 21
-3.035564261575791
 31
0.0
  0
LINE
  5
F1019F
330
261
100
AcDbEntity
  8
Geo
100
AcDbLine
 10
-27.05474628429322
 20
-3.035564261575791
 30
0.0
 11
-26.95474628429322
 21
-3.08530276359569
 31
0.0
  0
LINE
  5
F101A1
330
261
100
AcDbEntity
  8
Geo
100
AcDbLine
 10
-26.95474628429322
 20
-3.08530276359569
 30
0.0
 11
-26.85474628429322
 21
-3.13659324925589
 31
0.0
  0
LINE
  5
F101A3
330
261
100
AcDbEntity
  8
Geo
100
AcDbLine
 10
-26.85474628429322
 20
-3.13659324925589
 30
0.0
 11
-26.75474628429322
 21
-3.189400933763488
 31
0.0
  0
LINE
  5
F101A5
330
261
100
AcDbEntity
  8
Geo
100
AcDbLine
 10
-26.75474628429322
 20
-3.189400933763488
 30
0.0
 11
-26.65474628429321
 21
-3.24369000337319
 31
0.0
  0
LINE
  5
F101A7
330
261
100
AcDbEntity
  8
Geo
100
AcDbLine
 10
-26.65474628429321
 20
-3.24369000337319
 30
0.0
 11
-26.55474628429322
 21
-3.299423639676389
 31
0.0
  0
LINE
  5
F101A9
330
261
100
AcDbEntity
  8
Geo
100
AcDbLine
 10
-26.55474628429322
 20
-3.299423639676389
 30
0.0
 11
-26.45474628429322
 21
-3.356564044571289
 31
0.0
  0
LINE
  5
F101AB
330
261
100
AcDbEntity
  8
Geo
100
AcDbLine
 10
-26.45474628429322
 20
-3.356564044571289
 30
0.0
 11
-26.35474628429321
 21
-3.415072465896589
 31
0.0
  0
LINE
  5
F101AD
330
261
100
AcDbEntity
  8
Geo
100
AcDbLine
 10
-26.35474628429321
 20
-3.415072465896589
 30
0.0
 11
-26.25474628429322
 21
-3.47490922371349
 31
0.0
  0
LINE
  5
F101AF
330
261
100
AcDbEntity
  8
Geo
100
AcDbLine
 10
-26.25474628429322
 20
-3.47490922371349
 30
0.0
 11
-26.15474628429321
 21
-3.536033737216291
 31
0.0
  0
LINE
  5
F101B1
330
261
100
AcDbEntity
  8
Geo
100
AcDbLine
 10
-26.15474628429321
 20
-3.536033737216291
 30
0.0
 11
-26.05474628429322
 21
-3.598404552253388
 31
0.0
  0
LINE
  5
F101B3
330
261
100
AcDbEntity
  8
Geo
100
AcDbLine
 10
-26.05474628429322
 20
-3.598404552253388
 30
0.0
 11
-25.95474628429322
 21
-3.661979369441789
 31
0.0
  0
LINE
  5
F101B5
330
261
100
AcDbEntity
  8
Geo
100
AcDbLine
 10
-25.95474628429322
 20
-3.661979369441789
 30
0.0
 11
-25.85474628429321
 21
-3.726715072854089
 31
0.0
  0
LINE
  5
F101B7
330
261
100
AcDbEntity
  8
Geo
100
AcDbLine
 10
-25.85474628429321
 20
-3.726715072854089
 30
0.0
 11
-25.75474628429322
 21
-3.79256775925889
 31
0.0
  0
LINE
  5
F101B9
330
261
100
AcDbEntity
  8
Geo
100
AcDbLine
 10
-25.75474628429322
 20
-3.79256775925889
 30
0.0
 11
-25.65474628429321
 21
-3.859492767896089
 31
0.0
  0
LINE
  5
F101BB
330
261
100
AcDbEntity
  8
Geo
100
AcDbLine
 10
-25.65474628429321
 20
-3.859492767896089
 30
0.0
 11
-25.55474628429322
 21
-3.927444710765589
 31
0.0
  0
LINE
  5
F101BD
330
261
100
AcDbEntity
  8
Geo
100
AcDbLine
 10
-25.55474628429322
 20
-3.927444710765589
 30
0.0
 11
-25.45474628429322
 21
-3.996377503408291
 31
0.0
  0
LINE
  5
F101BF
330
261
100
AcDbEntity
  8
Geo
100
AcDbLine
 10
-25.45474628429322
 20
-3.996377503408291
 30
0.0
 11
-25.35474628429322
 21
-4.06624439616119
 31
0.0
  0
LINE
  5
F101C1
330
261
100
AcDbEntity
  8
Geo
100
AcDbLine
 10
-25.35474628429322
 20
-4.06624439616119
 30
0.0
 11
-25.25474628429322
 21
-4.136998005861588
 31
0.0
  0
LINE
  5
F101C3
330
261
100
AcDbEntity
  8
Geo
100
AcDbLine
 10
-25.25474628429322
 20
-4.136998005861588
 30
0.0
 11
-25.15474628429321
 21
-4.208590347983088
 31
0.0
  0
LINE
  5
F101C5
330
261
100
AcDbEntity
  8
Geo
100
AcDbLine
 10
-25.15474628429321
 20
-4.208590347983088
 30
0.0
 11
-25.05474628429322
 21
-4.280972869177388
 31
0.0
  0
LINE
  5
F101C7
330
261
100
AcDbEntity
  8
Geo
100
AcDbLine
 10
-25.05474628429322
 20
-4.280972869177388
 30
0.0
 11
-24.95474628429322
 21
-4.354096480203191
 31
0.0
  0
LINE
  5
F101C9
330
261
100
AcDbEntity
  8
Geo
100
AcDbLine
 10
-24.95474628429322
 20
-4.354096480203191
 30
0.0
 11
-24.85474628429321
 21
-4.427911589217989
 31
0.0
  0
LINE
  5
F101CB
330
261
100
AcDbEntity
  8
Geo
100
AcDbLine
 10
-24.85474628429321
 20
-4.427911589217989
 30
0.0
 11
-24.75474628429322
 21
-4.50236813541119
 31
0.0
  0
LINE
  5
F101CD
330
261
100
AcDbEntity
  8
Geo
100
AcDbLine
 10
-24.75474628429322
 20
-4.50236813541119
 30
0.0
 11
-24.65474628429321
 21
-4.57741562295439
 31
0.0
  0
LINE
  5
F101CF
330
261
100
AcDbEntity
  8
Geo
100
AcDbLine
 10
-24.65474628429321
 20
-4.57741562295439
 30
0.0
 11
-24.55474628429322
 21
-4.65300315524759
 31
0.0
  0
LINE
  5
F101D1
330
261
100
AcDbEntity
  8
Geo
100
AcDbLine
 10
-24.55474628429322
 20
-4.65300315524759
 30
0.0
 11
-24.45474628429322
 21
-4.729079469437088
 31
0.0
  0
LINE
  5
F101D3
330
261
100
AcDbEntity
  8
Geo
100
AcDbLine
 10
-24.45474628429322
 20
-4.729079469437088
 30
0.0
 11
-24.35474628429322
 21
-4.805592971180791
 31
0.0
  0
LINE
  5
F101D5
330
261
100
AcDbEntity
  8
Geo
100
AcDbLine
 10
-24.35474628429322
 20
-4.805592971180791
 30
0.0
 11
-24.25474628429322
 21
-4.88249176963979
 31
0.0
  0
LINE
  5
F101D7
330
261
100
AcDbEntity
  8
Geo
100
AcDbLine
 10
-24.25474628429322
 20
-4.88249176963979
 30
0.0
 11
-24.15474628429321
 21
-4.959723712670189
 31
0.0
  0
LINE
  5
F101D9
330
261
100
AcDbEntity
  8
Geo
100
AcDbLine
 10
-24.15474628429321
 20
-4.959723712670189
 30
0.0
 11
-24.05474628429322
 21
-5.037236422191888
 31
0.0
  0
LINE
  5
F101DB
330
261
100
AcDbEntity
  8
Geo
100
AcDbLine
 10
-24.05474628429322
 20
-5.037236422191888
 30
0.0
 11
-23.95474628429322
 21
-5.11497732971129
 31
0.0
  0
LINE
  5
F101DD
330
261
100
AcDbEntity
  8
Geo
100
AcDbLine
 10
-23.95474628429322
 20
-5.11497732971129
 30
0.0
 11
-23.85474628429321
 21
-5.192893711972789
 31
0.0
  0
LINE
  5
F101DF
330
261
100
AcDbEntity
  8
Geo
100
AcDbLine
 10
-23.85474628429321
 20
-5.192893711972789
 30
0.0
 11
-23.75474628429322
 21
-5.27093272671529
 31
0.0
  0
LINE
  5
F101E1
330
261
100
AcDbEntity
  8
Geo
100
AcDbLine
 10
-23.75474628429322
 20
-5.27093272671529
 30
0.0
 11
-23.65474628429321
 21
-5.34904144850919
 31
0.0
  0
LINE
  5
F101E3
330
261
100
AcDbEntity
  8
Geo
100
AcDbLine
 10
-23.65474628429321
 20
-5.34904144850919
 30
0.0
 11
-23.55474628429321
 21
-5.42716690465029
 31
0.0
  0
LINE
  5
F101E5
330
261
100
AcDbEntity
  8
Geo
100
AcDbLine
 10
-23.55474628429321
 20
-5.42716690465029
 30
0.0
 11
-23.45474628429322
 21
-5.505256111085088
 31
0.0
  0
LINE
  5
F101E7
330
261
100
AcDbEntity
  8
Geo
100
AcDbLine
 10
-23.45474628429322
 20
-5.505256111085088
 30
0.0
 11
-23.35474628429321
 21
-5.583256108344489
 31
0.0
  0
LINE
  5
F101E9
330
261
100
AcDbEntity
  8
Geo
100
AcDbLine
 10
-23.35474628429321
 20
-5.583256108344489
 30
0.0
 11
-23.25474628429322
 21
-5.66111399746039
 31
0.0
  0
LINE
  5
F101EB
330
261
100
AcDbEntity
  8
Geo
100
AcDbLine
 10
-23.25474628429322
 20
-5.66111399746039
 30
0.0
 11
-23.15474628429321
 21
-5.73877697584119
 31
0.0
  0
LINE
  5
F101ED
330
261
100
AcDbEntity
  8
Geo
100
AcDbLine
 10
-23.15474628429321
 20
-5.73877697584119
 30
0.0
 11
-23.05474628429322
 21
-5.816192373082088
 31
0.0
  0
LINE
  5
F101EF
330
261
100
AcDbEntity
  8
Geo
100
AcDbLine
 10
-23.05474628429322
 20
-5.816192373082088
 30
0.0
 11
-22.95474628429322
 21
-5.893307686686089
 31
0.0
  0
LINE
  5
F101F1
330
261
100
AcDbEntity
  8
Geo
100
AcDbLine
 10
-22.95474628429322
 20
-5.893307686686089
 30
0.0
 11
-22.85474628429321
 21
-5.970070617670089
 31
0.0
  0
LINE
  5
F101F3
330
261
100
AcDbEntity
  8
Geo
100
AcDbLine
 10
-22.85474628429321
 20
-5.970070617670089
 30
0.0
 11
-22.75474628429322
 21
-6.046429106034389
 31
0.0
  0
LINE
  5
F101F5
330
261
100
AcDbEntity
  8
Geo
100
AcDbLine
 10
-22.75474628429322
 20
-6.046429106034389
 30
0.0
 11
-22.65474628429321
 21
-6.122331366068989
 31
0.0
  0
LINE
  5
F101F7
330
261
100
AcDbEntity
  8
Geo
100
AcDbLine
 10
-22.65474628429321
 20
-6.122331366068989
 30
0.0
 11
-22.55474628429322
 21
-6.197725921473908
 31
0.0
  0
LINE
  5
F101F9
330
261
100
AcDbEntity
  8
Geo
100
AcDbLine
 10
-22.55474628429322
 20
-6.197725921473908
 30
0.0
 11
-22.45474628429322
 21
-6.272561640270771
 31
0.0
  0
LINE
  5
F101FB
330
261
100
AcDbEntity
  8
Geo
100
AcDbLine
 10
-22.45474628429322
 20
-6.272561640270771
 30
0.0
 11
-22.35474628429321
 21
-6.346787769479428
 31
0.0
  0
LINE
  5
F101FD
330
261
100
AcDbEntity
  8
Geo
100
AcDbLine
 10
-22.35474628429321
 20
-6.346787769479428
 30
0.0
 11
-22.25474628429322
 21
-6.420353969538549
 31
0.0
  0
LINE
  5
F101FF
330
261
100
AcDbEntity
  8
Geo
100
AcDbLine
 10
-22.25474628429322
 20
-6.420353969538549
 30
0.0
 11
-22.15474628429321
 21
-6.49321034844538
 31
0.0
  0
LINE
  5
F10201
330
261
100
AcDbEntity
  8
Geo
100
AcDbLine
 10
-22.15474628429321
 20
-6.49321034844538
 30
0.0
 11
-22.05474628429322
 21
-6.56530749559219
 31
0.0
  0
LINE
  5
F10203
330
261
100
AcDbEntity
  8
Geo
100
AcDbLine
 10
-22.05474628429322
 20
-6.56530749559219
 30
0.0
 11
-21.95474628429322
 21
-6.636596515276041
 31
0.0
  0
LINE
  5
F10205
330
261
100
AcDbEntity
  8
Geo
100
AcDbLine
 10
-21.95474628429322
 20
-6.636596515276041
 30
0.0
 11
-21.85474628429322
 21
-6.70702905985957
 31
0.0
  0
LINE
  5
F10207
330
261
100
AcDbEntity
  8
Geo
100
AcDbLine
 10
-21.85474628429322
 20
-6.70702905985957
 30
0.0
 11
-21.75474628429322
 21
-6.776557362559859
 31
0.0
  0
LINE
  5
F10209
330
261
100
AcDbEntity
  8
Geo
100
AcDbLine
 10
-21.75474628429322
 20
-6.776557362559859
 30
0.0
 11
-21.65474628429321
 21
-6.84513426984356
 31
0.0
  0
LINE
  5
F1020B
330
261
100
AcDbEntity
  8
Geo
100
AcDbLine
 10
-21.65474628429321
 20
-6.84513426984356
 30
0.0
 11
-21.55474628429322
 21
-6.912713273406021
 31
0.0
  0
LINE
  5
F1020D
330
261
100
AcDbEntity
  8
Geo
100
AcDbLine
 10
-21.55474628429322
 20
-6.912713273406021
 30
0.0
 11
-21.45474628429322
 21
-6.979248541712799
 31
0.0
  0
LINE
  5
F1020F
330
261
100
AcDbEntity
  8
Geo
100
AcDbLine
 10
-21.45474628429322
 20
-6.979248541712799
 30
0.0
 11
-21.35474628429321
 21
-7.044694951082309
 31
0.0
  0
LINE
  5
F10211
330
261
100
AcDbEntity
  8
Geo
100
AcDbLine
 10
-21.35474628429321
 20
-7.044694951082309
 30
0.0
 11
-21.25474628429322
 21
-7.10900811628829
 31
0.0
  0
LINE
  5
F10213
330
261
100
AcDbEntity
  8
Geo
100
AcDbLine
 10
-21.25474628429322
 20
-7.10900811628829
 30
0.0
 11
-21.15474628429321
 21
-7.172144420661499
 31
0.0
  0
LINE
  5
F10215
330
261
100
AcDbEntity
  8
Geo
100
AcDbLine
 10
-21.15474628429321
 20
-7.172144420661499
 30
0.0
 11
-21.05474628429321
 21
-7.234061045670239
 31
0.0
  0
LINE
  5
F10217
330
261
100
AcDbEntity
  8
Geo
100
AcDbLine
 10
-21.05474628429321
 20
-7.234061045670239
 30
0.0
 11
-20.95474628429322
 21
-7.294715999959489
 31
0.0
  0
LINE
  5
F10219
330
261
100
AcDbEntity
  8
Geo
100
AcDbLine
 10
-20.95474628429322
 20
-7.294715999959489
 30
0.0
 11
-20.85474628429321
 21
-7.35406814782913
 31
0.0
  0
LINE
  5
F1021B
330
261
100
AcDbEntity
  8
Geo
100
AcDbLine
 10
-20.85474628429321
 20
-7.35406814782913
 30
0.0
 11
-20.75474628429322
 21
-7.412077237131819
 31
0.0
  0
LINE
  5
F1021D
330
261
100
AcDbEntity
  8
Geo
100
AcDbLine
 10
-20.75474628429322
 20
-7.412077237131819
 30
0.0
 11
-20.65474628429321
 21
-7.46870392657169
 31
0.0
  0
LINE
  5
F1021F
330
261
100
AcDbEntity
  8
Geo
100
AcDbLine
 10
-20.65474628429321
 20
-7.46870392657169
 30
0.0
 11
-20.55474628429322
 21
-7.523909812385319
 31
0.0
  0
LINE
  5
F10221
330
261
100
AcDbEntity
  8
Geo
100
AcDbLine
 10
-20.55474628429322
 20
-7.523909812385319
 30
0.0
 11
-20.45474628429322
 21
-7.577657454386809
 31
0.0
  0
LINE
  5
F10223
330
261
100
AcDbEntity
  8
Geo
100
AcDbLine
 10
-20.45474628429322
 20
-7.577657454386809
 30
0.0
 11
-20.35474628429321
 21
-7.629910401359429
 31
0.0
  0
LINE
  5
F10225
330
261
100
AcDbEntity
  8
Geo
100
AcDbLine
 10
-20.35474628429321
 20
-7.629910401359429
 30
0.0
 11
-20.25474628429322
 21
-7.68063321577657
 31
0.0
  0
LINE
  5
F10227
330
261
100
AcDbEntity
  8
Geo
100
AcDbLine
 10
-20.25474628429322
 20
-7.68063321577657
 30
0.0
 11
-20.15474628429321
 21
-7.72979149783514
 31
0.0
  0
LINE
  5
F10229
330
261
100
AcDbEntity
  8
Geo
100
AcDbLine
 10
-20.15474628429321
 20
-7.72979149783514
 30
0.0
 11
-20.05474628429322
 21
-7.77735190878529
 31
0.0
  0
LINE
  5
F1022B
330
261
100
AcDbEntity
  8
Geo
100
AcDbLine
 10
-20.05474628429322
 20
-7.77735190878529
 30
0.0
 11
-19.95474628429322
 21
-7.823282193540409
 31
0.0
  0
LINE
  5
F1022D
330
261
100
AcDbEntity
  8
Geo
100
AcDbLine
 10
-19.95474628429322
 20
-7.823282193540409
 30
0.0
 11
-19.85474628429321
 21
-7.867551202552329
 31
0.0
  0
LINE
  5
F1022F
330
261
100
AcDbEntity
  8
Geo
100
AcDbLine
 10
-19.85474628429321
 20
-7.867551202552329
 30
0.0
 11
-19.75474628429322
 21
-7.91012891293669
 31
0.0
  0
LINE
  5
F10231
330
261
100
AcDbEntity
  8
Geo
100
AcDbLine
 10
-19.75474628429322
 20
-7.91012891293669
 30
0.0
 11
-19.65474628429321
 21
-7.950986448834159
 31
0.0
  0
LINE
  5
F10233
330
261
100
AcDbEntity
  8
Geo
100
AcDbLine
 10
-19.65474628429321
 20
-7.950986448834159
 30
0.0
 11
-19.55474628429321
 21
-7.99009610099389
 31
0.0
  0
LINE
  5
F10235
330
261
100
AcDbEntity
  8
Geo
100
AcDbLine
 10
-19.55474628429321
 20
-7.99009610099389
 30
0.0
 11
-19.45474628429322
 21
-8.02743134556565
 31
0.0
  0
LINE
  5
F10237
330
261
100
AcDbEntity
  8
Geo
100
AcDbLine
 10
-19.45474628429322
 20
-8.02743134556565
 30
0.0
 11
-19.35474628429321
 21
-8.062966862088099
 31
0.0
  0
LINE
  5
F10239
330
261
100
AcDbEntity
  8
Geo
100
AcDbLine
 10
-19.35474628429321
 20
-8.062966862088099
 30
0.0
 11
-19.25474628429322
 21
-8.096678550660939
 31
0.0
  0
LINE
  5
F1023B
330
261
100
AcDbEntity
  8
Geo
100
AcDbLine
 10
-19.25474628429322
 20
-8.096678550660939
 30
0.0
 11
-19.15474628429321
 21
-8.12854354828924
 31
0.0
  0
LINE
  5
F1023D
330
261
100
AcDbEntity
  8
Geo
100
AcDbLine
 10
-19.15474628429321
 20
-8.12854354828924
 30
0.0
 11
-19.05474628429321
 21
-8.158540244388969
 31
0.0
  0
LINE
  5
F1023F
330
261
100
AcDbEntity
  8
Geo
100
AcDbLine
 10
-19.05474628429321
 20
-8.158540244388969
 30
0.0
 11
-18.95474628429322
 21
-8.186648295443088
 31
0.0
  0
LINE
  5
F10241
330
261
100
AcDbEntity
  8
Geo
100
AcDbLine
 10
-18.95474628429322
 20
-8.186648295443088
 30
0.0
 11
-18.85474628429323
 21
-8.2128486387984
 31
0.0
  0
LINE
  5
F10243
330
261
100
AcDbEntity
  8
Geo
100
AcDbLine
 10
-18.85474628429323
 20
-8.2128486387984
 30
0.0
 11
-18.75474628429322
 21
-8.23712350559364
 31
0.0
  0
LINE
  5
F10245
330
261
100
AcDbEntity
  8
Geo
100
AcDbLine
 10
-18.75474628429322
 20
-8.23712350559364
 30
0.0
 11
-18.65474628429322
 21
-8.259456432810189
 31
0.0
  0
LINE
  5
F10247
330
261
100
AcDbEntity
  8
Geo
100
AcDbLine
 10
-18.65474628429322
 20
-8.259456432810189
 30
0.0
 11
-18.55474628429323
 21
-8.279832274437199
 31
0.0
  0
LINE
  5
F10249
330
261
100
AcDbEntity
  8
Geo
100
AcDbLine
 10
-18.55474628429323
 20
-8.279832274437199
 30
0.0
 11
-18.45474628429322
 21
-8.298237211743419
 31
0.0
  0
LINE
  5
F1024B
330
261
100
AcDbEntity
  8
Geo
100
AcDbLine
 10
-18.45474628429322
 20
-8.298237211743419
 30
0.0
 11
-18.35474628429323
 21
-8.314658762649028
 31
0.0
  0
LINE
  5
F1024D
330
261
100
AcDbEntity
  8
Geo
100
AcDbLine
 10
-18.35474628429323
 20
-8.314658762649028
 30
0.0
 11
-18.25474628429322
 21
-8.329085790190831
 31
0.0
  0
LINE
  5
F1024F
330
261
100
AcDbEntity
  8
Geo
100
AcDbLine
 10
-18.25474628429322
 20
-8.329085790190831
 30
0.0
 11
-18.15474628429322
 21
-8.34150851007525
 31
0.0
  0
LINE
  5
F10251
330
261
100
AcDbEntity
  8
Geo
100
AcDbLine
 10
-18.15474628429322
 20
-8.34150851007525
 30
0.0
 11
-18.05474628429323
 21
-8.351918497314009
 31
0.0
  0
LINE
  5
F10253
330
261
100
AcDbEntity
  8
Geo
100
AcDbLine
 10
-18.05474628429323
 20
-8.351918497314009
 30
0.0
 11
-17.95474628429322
 21
-8.360308691937831
 31
0.0
  0
LINE
  5
F10255
330
261
100
AcDbEntity
  8
Geo
100
AcDbLine
 10
-17.95474628429322
 20
-8.360308691937831
 30
0.0
 11
-17.85474628429323
 21
-8.36667340378448
 31
0.0
  0
LINE
  5
F10257
330
261
100
AcDbEntity
  8
Geo
100
AcDbLine
 10
-17.85474628429323
 20
-8.36667340378448
 30
0.0
 11
-17.75474628429322
 21
-8.3710083163578
 31
0.0
  0
LINE
  5
F10259
330
261
100
AcDbEntity
  8
Geo
100
AcDbLine
 10
-17.75474628429322
 20
-8.3710083163578
 30
0.0
 11
-17.65474628429322
 21
-8.37331048975507
 31
0.0
  0
LINE
  5
F1025B
330
261
100
AcDbEntity
  8
Geo
100
AcDbLine
 10
-29.65474628429321
 20
-2.98800155417499
 30
0.0
 11
-29.55474628429321
 21
-2.72441481186969
 31
0.0
  0
LINE
  5
F1025D
330
261
100
AcDbEntity
  8
Geo
100
AcDbLine
 10
-29.55474628429321
 20
-2.72441481186969
 30
0.0
 11
-29.45474628429322
 21
-2.65516752047119
 31
0.0
  0
LINE
  5
F1025F
330
261
100
AcDbEntity
  8
Geo
100
AcDbLine
 10
-29.45474628429322
 20
-2.65516752047119
 30
0.0
 11
-29.35474628429322
 21
-2.628316113059488
 31
0.0
  0
LINE
  5
F10261
330
261
100
AcDbEntity
  8
Geo
100
AcDbLine
 10
-29.35474628429322
 20
-2.628316113059488
 30
0.0
 11
-29.25474628429322
 21
-2.628892140544587
 31
0.0
  0
LINE
  5
F10263
330
261
100
AcDbEntity
  8
Geo
100
AcDbLine
 10
-29.25474628429322
 20
-2.628892140544587
 30
0.0
 11
-29.15474628429321
 21
-2.65152685922219
 31
0.0
  0
LINE
  5
F10265
330
261
100
AcDbEntity
  8
Geo
100
AcDbLine
 10
-29.15474628429321
 20
-2.65152685922219
 30
0.0
 11
-29.05474628429322
 21
-2.685281758973488
 31
0.0
  0
LINE
  5
F10267
330
261
100
AcDbEntity
  8
Geo
100
AcDbLine
 10
-29.05474628429322
 20
-2.685281758973488
 30
0.0
 11
-28.95474628429322
 21
-2.720859933379889
 31
0.0
  0
LINE
  5
F10269
330
261
100
AcDbEntity
  8
Geo
100
AcDbLine
 10
-28.95474628429322
 20
-2.720859933379889
 30
0.0
 11
-28.85474628429321
 21
-2.75823725361069
 31
0.0
  0
LINE
  5
F1026B
330
261
100
AcDbEntity
  8
Geo
100
AcDbLine
 10
-28.85474628429321
 20
-2.75823725361069
 30
0.0
 11
-28.75474628429322
 21
-2.79738837066929
 31
0.0
  0
LINE
  5
F1026D
330
261
100
AcDbEntity
  8
Geo
100
AcDbLine
 10
-28.75474628429322
 20
-2.79738837066929
 30
0.0
 11
-28.65474628429321
 21
-2.83828673258429
 31
0.0
  0
LINE
  5
F1026F
330
261
100
AcDbEntity
  8
Geo
100
AcDbLine
 10
-28.65474628429321
 20
-2.83828673258429
 30
0.0
 11
-28.55474628429322
 21
-2.880904602416888
 31
0.0
  0
LINE
  5
F10271
330
261
100
AcDbEntity
  8
Geo
100
AcDbLine
 10
-28.55474628429322
 20
-2.880904602416888
 30
0.0
 11
-28.45474628429322
 21
-2.925213077072088
 31
0.0
  0
LINE
  5
F10273
330
261
100
AcDbEntity
  8
Geo
100
AcDbLine
 10
-28.45474628429322
 20
-2.925213077072088
 30
0.0
 11
-28.35474628429322
 21
-2.971182106899989
 31
0.0
  0
LINE
  5
F10275
330
261
100
AcDbEntity
  8
Geo
100
AcDbLine
 10
-28.35474628429322
 20
-2.971182106899989
 30
0.0
 11
-28.25474628429322
 21
-3.018780516076089
 31
0.0
  0
LINE
  5
F10277
330
261
100
AcDbEntity
  8
Geo
100
AcDbLine
 10
-28.25474628429322
 20
-3.018780516076089
 30
0.0
 11
-28.15474628429321
 21
-3.067976023743588
 31
0.0
  0
LINE
  5
F10279
330
261
100
AcDbEntity
  8
Geo
100
AcDbLine
 10
-28.15474628429321
 20
-3.067976023743588
 30
0.0
 11
-28.05474628429322
 21
-3.118735265906488
 31
0.0
  0
LINE
  5
F1027B
330
261
100
AcDbEntity
  8
Geo
100
AcDbLine
 10
-28.05474628429322
 20
-3.118735265906488
 30
0.0
 11
-27.95474628429322
 21
-3.17102381805679
 31
0.0
  0
LINE
  5
F1027D
330
261
100
AcDbEntity
  8
Geo
100
AcDbLine
 10
-27.95474628429322
 20
-3.17102381805679
 30
0.0
 11
-27.85474628429322
 21
-3.22480621852069
 31
0.0
  0
LINE
  5
F1027F
330
261
100
AcDbEntity
  8
Geo
100
AcDbLine
 10
-27.85474628429322
 20
-3.22480621852069
 30
0.0
 11
-27.75474628429322
 21
-3.280045992508489
 31
0.0
  0
LINE
  5
F10281
330
261
100
AcDbEntity
  8
Geo
100
AcDbLine
 10
-27.75474628429322
 20
-3.280045992508489
 30
0.0
 11
-27.65474628429321
 21
-3.336705676851691
 31
0.0
  0
LINE
  5
F10283
330
261
100
AcDbEntity
  8
Geo
100
AcDbLine
 10
-27.65474628429321
 20
-3.336705676851691
 30
0.0
 11
-27.55474628429322
 21
-3.394746845409988
 31
0.0
  0
LINE
  5
F10285
330
261
100
AcDbEntity
  8
Geo
100
AcDbLine
 10
-27.55474628429322
 20
-3.394746845409988
 30
0.0
 11
-27.45474628429322
 21
-3.454130135131489
 31
0.0
  0
LINE
  5
F10287
330
261
100
AcDbEntity
  8
Geo
100
AcDbLine
 10
-27.45474628429322
 20
-3.454130135131489
 30
0.0
 11
-27.35474628429321
 21
-3.514815272748888
 31
0.0
  0
LINE
  5
F10289
330
261
100
AcDbEntity
  8
Geo
100
AcDbLine
 10
-27.35474628429321
 20
-3.514815272748888
 30
0.0
 11
-27.25474628429322
 21
-3.576761102091889
 31
0.0
  0
LINE
  5
F1028B
330
261
100
AcDbEntity
  8
Geo
100
AcDbLine
 10
-27.25474628429322
 20
-3.576761102091889
 30
0.0
 11
-27.15474628429321
 21
-3.639925611999389
 31
0.0
  0
LINE
  5
F1028D
330
261
100
AcDbEntity
  8
Geo
100
AcDbLine
 10
-27.15474628429321
 20
-3.639925611999389
 30
0.0
 11
-27.05474628429322
 21
-3.70426596481079
 31
0.0
  0
LINE
  5
F1028F
330
261
100
AcDbEntity
  8
Geo
100
AcDbLine
 10
-27.05474628429322
 20
-3.70426596481079
 30
0.0
 11
-26.95474628429322
 21
-3.769738525418588
 31
0.0
  0
LINE
  5
F10291
330
261
100
AcDbEntity
  8
Geo
100
AcDbLine
 10
-26.95474628429322
 20
-3.769738525418588
 30
0.0
 11
-26.85474628429322
 21
-3.83629889086079
 31
0.0
  0
LINE
  5
F10293
330
261
100
AcDbEntity
  8
Geo
100
AcDbLine
 10
-26.85474628429322
 20
-3.83629889086079
 30
0.0
 11
-26.75474628429322
 21
-3.90390192043529
 31
0.0
  0
LINE
  5
F10295
330
261
100
AcDbEntity
  8
Geo
100
AcDbLine
 10
-26.75474628429322
 20
-3.90390192043529
 30
0.0
 11
-26.65474628429321
 21
-3.97250176631339
 31
0.0
  0
LINE
  5
F10297
330
261
100
AcDbEntity
  8
Geo
100
AcDbLine
 10
-26.65474628429321
 20
-3.97250176631339
 30
0.0
 11
-26.55474628429322
 21
-4.042051904633588
 31
0.0
  0
LINE
  5
F10299
330
261
100
AcDbEntity
  8
Geo
100
AcDbLine
 10
-26.55474628429322
 20
-4.042051904633588
 30
0.0
 11
-26.45474628429322
 21
-4.112505167053789
 31
0.0
  0
LINE
  5
F1029B
330
261
100
AcDbEntity
  8
Geo
100
AcDbLine
 10
-26.45474628429322
 20
-4.112505167053789
 30
0.0
 11
-26.35474628429321
 21
-4.18381377274049
 31
0.0
  0
LINE
  5
F1029D
330
261
100
AcDbEntity
  8
Geo
100
AcDbLine
 10
-26.35474628429321
 20
-4.18381377274049
 30
0.0
 11
-26.25474628429322
 21
-4.25592936077319
 31
0.0
  0
LINE
  5
F1029F
330
261
100
AcDbEntity
  8
Geo
100
AcDbLine
 10
-26.25474628429322
 20
-4.25592936077319
 30
0.0
 11
-26.15474628429321
 21
-4.328803022942587
 31
0.0
  0
LINE
  5
F102A1
330
261
100
AcDbEntity
  8
Geo
100
AcDbLine
 10
-26.15474628429321
 20
-4.328803022942587
 30
0.0
 11
-26.05474628429322
 21
-4.40238533691939
 31
0.0
  0
LINE
  5
F102A3
330
261
100
AcDbEntity
  8
Geo
100
AcDbLine
 10
-26.05474628429322
 20
-4.40238533691939
 30
0.0
 11
-25.95474628429322
 21
-4.476626399772792
 31
0.0
  0
LINE
  5
F102A5
330
261
100
AcDbEntity
  8
Geo
100
AcDbLine
 10
-25.95474628429322
 20
-4.476626399772792
 30
0.0
 11
-25.85474628429321
 21
-4.551475861813289
 31
0.0
  0
LINE
  5
F102A7
330
261
100
AcDbEntity
  8
Geo
100
AcDbLine
 10
-25.85474628429321
 20
-4.551475861813289
 30
0.0
 11
-25.75474628429322
 21
-4.626882960740388
 31
0.0
  0
LINE
  5
F102A9
330
261
100
AcDbEntity
  8
Geo
100
AcDbLine
 10
-25.75474628429322
 20
-4.626882960740388
 30
0.0
 11
-25.65474628429321
 21
-4.702796556068692
 31
0.0
  0
LINE
  5
F102AB
330
261
100
AcDbEntity
  8
Geo
100
AcDbLine
 10
-25.65474628429321
 20
-4.702796556068692
 30
0.0
 11
-25.55474628429322
 21
-4.779165163810789
 31
0.0
  0
LINE
  5
F102AD
330
261
100
AcDbEntity
  8
Geo
100
AcDbLine
 10
-25.55474628429322
 20
-4.779165163810789
 30
0.0
 11
-25.45474628429322
 21
-4.855936991393789
 31
0.0
  0
LINE
  5
F102AF
330
261
100
AcDbEntity
  8
Geo
100
AcDbLine
 10
-25.45474628429322
 20
-4.855936991393789
 30
0.0
 11
-25.35474628429322
 21
-4.933059972784189
 31
0.0
  0
LINE
  5
F102B1
330
261
100
AcDbEntity
  8
Geo
100
AcDbLine
 10
-25.35474628429322
 20
-4.933059972784189
 30
0.0
 11
-25.25474628429322
 21
-5.01048180379899
 31
0.0
  0
LINE
  5
F102B3
330
261
100
AcDbEntity
  8
Geo
100
AcDbLine
 10
-25.25474628429322
 20
-5.01048180379899
 30
0.0
 11
-25.15474628429321
 21
-5.088149977577691
 31
0.0
  0
LINE
  5
F102B5
330
261
100
AcDbEntity
  8
Geo
100
AcDbLine
 10
-25.15474628429321
 20
-5.088149977577691
 30
0.0
 11
-25.05474628429322
 21
-5.166011820191988
 31
0.0
  0
LINE
  5
F102B7
330
261
100
AcDbEntity
  8
Geo
100
AcDbLine
 10
-25.05474628429322
 20
-5.166011820191988
 30
0.0
 11
-24.95474628429322
 21
-5.24401452636909
 31
0.0
  0
LINE
  5
F102B9
330
261
100
AcDbEntity
  8
Geo
100
AcDbLine
 10
-24.95474628429322
 20
-5.24401452636909
 30
0.0
 11
-24.85474628429321
 21
-5.322105195303789
 31
0.0
  0
LINE
  5
F102BB
330
261
100
AcDbEntity
  8
Geo
100
AcDbLine
 10
-24.85474628429321
 20
-5.322105195303789
 30
0.0
 11
-24.75474628429322
 21
-5.400230866534888
 31
0.0
  0
LINE
  5
F102BD
330
261
100
AcDbEntity
  8
Geo
100
AcDbLine
 10
-24.75474628429322
 20
-5.400230866534888
 30
0.0
 11
-24.65474628429321
 21
-5.47833855586329
 31
0.0
  0
LINE
  5
F102BF
330
261
100
AcDbEntity
  8
Geo
100
AcDbLine
 10
-24.65474628429321
 20
-5.47833855586329
 30
0.0
 11
-24.55474628429322
 21
-5.556375291284989
 31
0.0
  0
LINE
  5
F102C1
330
261
100
AcDbEntity
  8
Geo
100
AcDbLine
 10
-24.55474628429322
 20
-5.556375291284989
 30
0.0
 11
-24.45474628429322
 21
-5.634288148916089
 31
0.0
  0
LINE
  5
F102C3
330
261
100
AcDbEntity
  8
Geo
100
AcDbLine
 10
-24.45474628429322
 20
-5.634288148916089
 30
0.0
 11
-24.35474628429322
 21
-5.71202428888589
 31
0.0
  0
LINE
  5
F102C5
330
261
100
AcDbEntity
  8
Geo
100
AcDbLine
 10
-24.35474628429322
 20
-5.71202428888589
 30
0.0
 11
-24.25474628429322
 21
-5.789530991171989
 31
0.0
  0
LINE
  5
F102C7
330
261
100
AcDbEntity
  8
Geo
100
AcDbLine
 10
-24.25474628429322
 20
-5.789530991171989
 30
0.0
 11
-24.15474628429321
 21
-5.866755691355088
 31
0.0
  0
LINE
  5
F102C9
330
261
100
AcDbEntity
  8
Geo
100
AcDbLine
 10
-24.15474628429321
 20
-5.866755691355088
 30
0.0
 11
-24.05474628429322
 21
-5.94364601626709
 31
0.0
  0
LINE
  5
F102CB
330
261
100
AcDbEntity
  8
Geo
100
AcDbLine
 10
-24.05474628429322
 20
-5.94364601626709
 30
0.0
 11
-23.95474628429322
 21
-6.020149819510589
 31
0.0
  0
LINE
  5
F102CD
330
261
100
AcDbEntity
  8
Geo
100
AcDbLine
 10
-23.95474628429322
 20
-6.020149819510589
 30
0.0
 11
-23.85474628429321
 21
-6.096215216824189
 31
0.0
  0
LINE
  5
F102CF
330
261
100
AcDbEntity
  8
Geo
100
AcDbLine
 10
-23.85474628429321
 20
-6.096215216824189
 30
0.0
 11
-23.75474628429322
 21
-6.171790621269691
 31
0.0
  0
LINE
  5
F102D1
330
261
100
AcDbEntity
  8
Geo
100
AcDbLine
 10
-23.75474628429322
 20
-6.171790621269691
 30
0.0
 11
-23.65474628429321
 21
-6.246824778218249
 31
0.0
  0
LINE
  5
F102D3
330
261
100
AcDbEntity
  8
Geo
100
AcDbLine
 10
-23.65474628429321
 20
-6.246824778218249
 30
0.0
 11
-23.55474628429321
 21
-6.32126680011058
 31
0.0
  0
LINE
  5
F102D5
330
261
100
AcDbEntity
  8
Geo
100
AcDbLine
 10
-23.55474628429321
 20
-6.32126680011058
 30
0.0
 11
-23.45474628429322
 21
-6.395066200968678
 31
0.0
  0
LINE
  5
F102D7
330
261
100
AcDbEntity
  8
Geo
100
AcDbLine
 10
-23.45474628429322
 20
-6.395066200968678
 30
0.0
 11
-23.35474628429321
 21
-6.468172930634908
 31
0.0
  0
LINE
  5
F102D9
330
261
100
AcDbEntity
  8
Geo
100
AcDbLine
 10
-23.35474628429321
 20
-6.468172930634908
 30
0.0
 11
-23.25474628429322
 21
-6.54053740871565
 31
0.0
  0
LINE
  5
F102DB
330
261
100
AcDbEntity
  8
Geo
100
AcDbLine
 10
-23.25474628429322
 20
-6.54053740871565
 30
0.0
 11
-23.15474628429321
 21
-6.612110558206319
 31
0.0
  0
LINE
  5
F102DD
330
261
100
AcDbEntity
  8
Geo
100
AcDbLine
 10
-23.15474628429321
 20
-6.612110558206319
 30
0.0
 11
-23.05474628429322
 21
-6.682843838774969
 31
0.0
  0
LINE
  5
F102DF
330
261
100
AcDbEntity
  8
Geo
100
AcDbLine
 10
-23.05474628429322
 20
-6.682843838774969
 30
0.0
 11
-22.95474628429322
 21
-6.752689279682009
 31
0.0
  0
LINE
  5
F102E1
330
261
100
AcDbEntity
  8
Geo
100
AcDbLine
 10
-22.95474628429322
 20
-6.752689279682009
 30
0.0
 11
-22.85474628429321
 21
-6.821599512313499
 31
0.0
  0
LINE
  5
F102E3
330
261
100
AcDbEntity
  8
Geo
100
AcDbLine
 10
-22.85474628429321
 20
-6.821599512313499
 30
0.0
 11
-22.75474628429322
 21
-6.88952780230622
 31
0.0
  0
LINE
  5
F102E5
330
261
100
AcDbEntity
  8
Geo
100
AcDbLine
 10
-22.75474628429322
 20
-6.88952780230622
 30
0.0
 11
-22.65474628429321
 21
-6.956428081242508
 31
0.0
  0
LINE
  5
F102E7
330
261
100
AcDbEntity
  8
Geo
100
AcDbLine
 10
-22.65474628429321
 20
-6.956428081242508
 30
0.0
 11
-22.55474628429322
 21
-7.02225497789351
 31
0.0
  0
LINE
  5
F102E9
330
261
100
AcDbEntity
  8
Geo
100
AcDbLine
 10
-22.55474628429322
 20
-7.02225497789351
 30
0.0
 11
-22.45474628429322
 21
-7.08696384898956
 31
0.0
  0
LINE
  5
F102EB
330
261
100
AcDbEntity
  8
Geo
100
AcDbLine
 10
-22.45474628429322
 20
-7.08696384898956
 30
0.0
 11
-22.35474628429321
 21
-7.1505108094969
 31
0.0
  0
LINE
  5
F102ED
330
261
100
AcDbEntity
  8
Geo
100
AcDbLine
 10
-22.35474628429321
 20
-7.1505108094969
 30
0.0
 11
-22.25474628429322
 21
-7.21285276238013
 31
0.0
  0
LINE
  5
F102EF
330
261
100
AcDbEntity
  8
Geo
100
AcDbLine
 10
-22.25474628429322
 20
-7.21285276238013
 30
0.0
 11
-22.15474628429321
 21
-7.273947427830309
 31
0.0
  0
LINE
  5
F102F1
330
261
100
AcDbEntity
  8
Geo
100
AcDbLine
 10
-22.15474628429321
 20
-7.273947427830309
 30
0.0
 11
-22.05474628429322
 21
-7.33375337193876
 31
0.0
  0
LINE
  5
F102F3
330
261
100
AcDbEntity
  8
Geo
100
AcDbLine
 10
-22.05474628429322
 20
-7.33375337193876
 30
0.0
 11
-21.95474628429322
 21
-7.392230034797199
 31
0.0
  0
LINE
  5
F102F5
330
261
100
AcDbEntity
  8
Geo
100
AcDbLine
 10
-21.95474628429322
 20
-7.392230034797199
 30
0.0
 11
-21.85474628429322
 21
-7.449337758005158
 31
0.0
  0
LINE
  5
F102F7
330
261
100
AcDbEntity
  8
Geo
100
AcDbLine
 10
-21.85474628429322
 20
-7.449337758005158
 30
0.0
 11
-21.75474628429322
 21
-7.505037811565978
 31
0.0
  0
LINE
  5
F102F9
330
261
100
AcDbEntity
  8
Geo
100
AcDbLine
 10
-21.75474628429322
 20
-7.505037811565978
 30
0.0
 11
-21.65474628429321
 21
-7.559292420153198
 31
0.0
  0
LINE
  5
F102FB
330
261
100
AcDbEntity
  8
Geo
100
AcDbLine
 10
-21.65474628429321
 20
-7.559292420153198
 30
0.0
 11
-21.55474628429322
 21
-7.612064788729449
 31
0.0
  0
LINE
  5
F102FD
330
261
100
AcDbEntity
  8
Geo
100
AcDbLine
 10
-21.55474628429322
 20
-7.612064788729449
 30
0.0
 11
-21.45474628429322
 21
-7.663319127500569
 31
0.0
  0
LINE
  5
F102FF
330
261
100
AcDbEntity
  8
Geo
100
AcDbLine
 10
-21.45474628429322
 20
-7.663319127500569
 30
0.0
 11
-21.35474628429321
 21
-7.71302067618796
 31
0.0
  0
LINE
  5
F10301
330
261
100
AcDbEntity
  8
Geo
100
AcDbLine
 10
-21.35474628429321
 20
-7.71302067618796
 30
0.0
 11
-21.25474628429322
 21
-7.76113572760272
 31
0.0
  0
LINE
  5
F10303
330
261
100
AcDbEntity
  8
Geo
100
AcDbLine
 10
-21.25474628429322
 20
-7.76113572760272
 30
0.0
 11
-21.15474628429321
 21
-7.807631650505559
 31
0.0
  0
LINE
  5
F10305
330
261
100
AcDbEntity
  8
Geo
100
AcDbLine
 10
-21.15474628429321
 20
-7.807631650505559
 30
0.0
 11
-21.05474628429321
 21
-7.85247691173709
 31
0.0
  0
LINE
  5
F10307
330
261
100
AcDbEntity
  8
Geo
100
AcDbLine
 10
-21.05474628429321
 20
-7.85247691173709
 30
0.0
 11
-20.95474628429322
 21
-7.895641097603339
 31
0.0
  0
LINE
  5
F10309
330
261
100
AcDbEntity
  8
Geo
100
AcDbLine
 10
-20.95474628429322
 20
-7.895641097603339
 30
0.0
 11
-20.85474628429321
 21
-7.93709493450205
 31
0.0
  0
LINE
  5
F1030B
330
261
100
AcDbEntity
  8
Geo
100
AcDbLine
 10
-20.85474628429321
 20
-7.93709493450205
 30
0.0
 11
-20.75474628429322
 21
-7.976810308775849
 31
0.0
  0
LINE
  5
F1030D
330
261
100
AcDbEntity
  8
Geo
100
AcDbLine
 10
-20.75474628429322
 20
-7.976810308775849
 30
0.0
 11
-20.65474628429321
 21
-8.014760285778658
 31
0.0
  0
LINE
  5
F1030F
330
261
100
AcDbEntity
  8
Geo
100
AcDbLine
 10
-20.65474628429321
 20
-8.014760285778658
 30
0.0
 11
-20.55474628429322
 21
-8.05091912814257
 31
0.0
  0
LINE
  5
F10311
330
261
100
AcDbEntity
  8
Geo
100
AcDbLine
 10
-20.55474628429322
 20
-8.05091912814257
 30
0.0
 11
-20.45474628429322
 21
-8.08526231323273
 31
0.0
  0
LINE
  5
F10313
330
261
100
AcDbEntity
  8
Geo
100
AcDbLine
 10
-20.45474628429322
 20
-8.08526231323273
 30
0.0
 11
-20.35474628429321
 21
-8.117766549778369
 31
0.0
  0
LINE
  5
F10315
330
261
100
AcDbEntity
  8
Geo
100
AcDbLine
 10
-20.35474628429321
 20
-8.117766549778369
 30
0.0
 11
-20.25474628429322
 21
-8.14840979366879
 31
0.0
  0
LINE
  5
F10317
330
261
100
AcDbEntity
  8
Geo
100
AcDbLine
 10
-20.25474628429322
 20
-8.14840979366879
 30
0.0
 11
-20.15474628429321
 21
-8.177171262903469
 31
0.0
  0
LINE
  5
F10319
330
261
100
AcDbEntity
  8
Geo
100
AcDbLine
 10
-20.15474628429321
 20
-8.177171262903469
 30
0.0
 11
-20.05474628429322
 21
-8.20403145168626
 31
0.0
  0
LINE
  5
F1031B
330
261
100
AcDbEntity
  8
Geo
100
AcDbLine
 10
-20.05474628429322
 20
-8.20403145168626
 30
0.0
 11
-19.95474628429322
 21
-8.228972143654068
 31
0.0
  0
LINE
  5
F1031D
330
261
100
AcDbEntity
  8
Geo
100
AcDbLine
 10
-19.95474628429322
 20
-8.228972143654068
 30
0.0
 11
-19.85474628429321
 21
-8.251976424231029
 31
0.0
  0
LINE
  5
F1031F
330
261
100
AcDbEntity
  8
Geo
100
AcDbLine
 10
-19.85474628429321
 20
-8.251976424231029
 30
0.0
 11
-19.75474628429322
 21
-8.27302869209984
 31
0.0
  0
LINE
  5
F10321
330
261
100
AcDbEntity
  8
Geo
100
AcDbLine
 10
-19.75474628429322
 20
-8.27302869209984
 30
0.0
 11
-19.65474628429321
 21
-8.292114669782471
 31
0.0
  0
LINE
  5
F10323
330
261
100
AcDbEntity
  8
Geo
100
AcDbLine
 10
-19.65474628429321
 20
-8.292114669782471
 30
0.0
 11
-19.55474628429321
 21
-8.30922141332299
 31
0.0
  0
LINE
  5
F10325
330
261
100
AcDbEntity
  8
Geo
100
AcDbLine
 10
-19.55474628429321
 20
-8.30922141332299
 30
0.0
 11
-19.45474628429322
 21
-8.324337321066099
 31
0.0
  0
LINE
  5
F10327
330
261
100
AcDbEntity
  8
Geo
100
AcDbLine
 10
-19.45474628429322
 20
-8.324337321066099
 30
0.0
 11
-19.35474628429321
 21
-8.33745214152524
 31
0.0
  0
LINE
  5
F10329
330
261
100
AcDbEntity
  8
Geo
100
AcDbLine
 10
-19.35474628429321
 20
-8.33745214152524
 30
0.0
 11
-19.25474628429322
 21
-8.348556980335111
 31
0.0
  0
LINE
  5
F1032B
330
261
100
AcDbEntity
  8
Geo
100
AcDbLine
 10
-19.25474628429322
 20
-8.348556980335111
 30
0.0
 11
-19.15474628429321
 21
-8.35764430628371
 31
0.0
  0
LINE
  5
F1032D
330
261
100
AcDbEntity
  8
Geo
100
AcDbLine
 10
-19.15474628429321
 20
-8.35764430628371
 30
0.0
 11
-19.05474628429321
 21
-8.36470795641997
 31
0.0
  0
LINE
  5
F1032F
330
261
100
AcDbEntity
  8
Geo
100
AcDbLine
 10
-19.05474628429321
 20
-8.36470795641997
 30
0.0
 11
-18.95474628429322
 21
-8.369743140233431
 31
0.0
  0
LINE
  5
F10331
330
261
100
AcDbEntity
  8
Geo
100
AcDbLine
 10
-18.95474628429322
 20
-8.369743140233431
 30
0.0
 11
-18.85474628429323
 21
-8.37274644290307
 31
0.0
  0
LINE
  5
F10333
330
261
100
AcDbEntity
  8
Geo
100
AcDbLine
 10
-29.65474628429321
 20
-5.373716391633889
 30
0.0
 11
-29.55474628429321
 21
-5.446628140963291
 31
0.0
  0
LINE
  5
F10335
330
261
100
AcDbEntity
  8
Geo
100
AcDbLine
 10
-29.55474628429321
 20
-5.446628140963291
 30
0.0
 11
-29.45474628429322
 21
-5.52469665822239
 31
0.0
  0
LINE
  5
F10337
330
261
100
AcDbEntity
  8
Geo
100
AcDbLine
 10
-29.45474628429322
 20
-5.52469665822239
 30
0.0
 11
-29.35474628429322
 21
-5.60460574188869
 31
0.0
  0
LINE
  5
F10339
330
261
100
AcDbEntity
  8
Geo
100
AcDbLine
 10
-29.35474628429322
 20
-5.60460574188869
 30
0.0
 11
-29.25474628429322
 21
-5.684615288423289
 31
0.0
  0
LINE
  5
F1033B
330
261
100
AcDbEntity
  8
Geo
100
AcDbLine
 10
-29.25474628429322
 20
-5.684615288423289
 30
0.0
 11
-29.15474628429321
 21
-5.763256199687191
 31
0.0
  0
LINE
  5
F1033D
330
261
100
AcDbEntity
  8
Geo
100
AcDbLine
 10
-29.15474628429321
 20
-5.763256199687191
 30
0.0
 11
-29.05474628429322
 21
-5.84058248544089
 31
0.0
  0
LINE
  5
F1033F
330
261
100
AcDbEntity
  8
Geo
100
AcDbLine
 10
-29.05474628429322
 20
-5.84058248544089
 30
0.0
 11
-28.95474628429322
 21
-5.91759214638019
 31
0.0
  0
LINE
  5
F10341
330
261
100
AcDbEntity
  8
Geo
100
AcDbLine
 10
-28.95474628429322
 20
-5.91759214638019
 30
0.0
 11
-28.85474628429321
 21
-5.99423295517529
 31
0.0
  0
LINE
  5
F10343
330
261
100
AcDbEntity
  8
Geo
100
AcDbLine
 10
-28.85474628429321
 20
-5.99423295517529
 30
0.0
 11
-28.75474628429322
 21
-6.070452934648489
 31
0.0
  0
LINE
  5
F10345
330
261
100
AcDbEntity
  8
Geo
100
AcDbLine
 10
-28.75474628429322
 20
-6.070452934648489
 30
0.0
 11
-28.65474628429321
 21
-6.1462003930254
 31
0.0
  0
LINE
  5
F10347
330
261
100
AcDbEntity
  8
Geo
100
AcDbLine
 10
-28.65474628429321
 20
-6.1462003930254
 30
0.0
 11
-28.55474628429322
 21
-6.221423958991399
 31
0.0
  0
LINE
  5
F10349
330
261
100
AcDbEntity
  8
Geo
100
AcDbLine
 10
-28.55474628429322
 20
-6.221423958991399
 30
0.0
 11
-28.45474628429322
 21
-6.296072616531649
 31
0.0
  0
LINE
  5
F1034B
330
261
100
AcDbEntity
  8
Geo
100
AcDbLine
 10
-28.45474628429322
 20
-6.296072616531649
 30
0.0
 11
-28.35474628429322
 21
-6.370095739529478
 31
0.0
  0
LINE
  5
F1034D
330
261
100
AcDbEntity
  8
Geo
100
AcDbLine
 10
-28.35474628429322
 20
-6.370095739529478
 30
0.0
 11
-28.25474628429322
 21
-6.443443126100719
 31
0.0
  0
LINE
  5
F1034F
330
261
100
AcDbEntity
  8
Geo
100
AcDbLine
 10
-28.25474628429322
 20
-6.443443126100719
 30
0.0
 11
-28.15474628429321
 21
-6.51606503264019
 31
0.0
  0
LINE
  5
F10351
330
261
100
AcDbEntity
  8
Geo
100
AcDbLine
 10
-28.15474628429321
 20
-6.51606503264019
 30
0.0
 11
-28.05474628429322
 21
-6.58791220755738
 31
0.0
  0
LINE
  5
F10353
330
261
100
AcDbEntity
  8
Geo
100
AcDbLine
 10
-28.05474628429322
 20
-6.58791220755738
 30
0.0
 11
-27.95474628429322
 21
-6.65893592467853
 31
0.0
  0
LINE
  5
F10355
330
261
100
AcDbEntity
  8
Geo
100
AcDbLine
 10
-27.95474628429322
 20
-6.65893592467853
 30
0.0
 11
-27.85474628429322
 21
-6.729088016292308
 31
0.0
  0
LINE
  5
F10357
330
261
100
AcDbEntity
  8
Geo
100
AcDbLine
 10
-27.85474628429322
 20
-6.729088016292308
 30
0.0
 11
-27.75474628429322
 21
-6.798320905816771
 31
0.0
  0
LINE
  5
F10359
330
261
100
AcDbEntity
  8
Geo
100
AcDbLine
 10
-27.75474628429322
 20
-6.798320905816771
 30
0.0
 11
-27.65474628429321
 21
-6.86658764006537
 31
0.0
  0
LINE
  5
F1035B
330
261
100
AcDbEntity
  8
Geo
100
AcDbLine
 10
-27.65474628429321
 20
-6.86658764006537
 30
0.0
 11
-27.55474628429322
 21
-6.933841921090309
 31
0.0
  0
LINE
  5
F1035D
330
261
100
AcDbEntity
  8
Geo
100
AcDbLine
 10
-27.55474628429322
 20
-6.933841921090309
 30
0.0
 11
-27.45474628429322
 21
-7.000038137581361
 31
0.0
  0
LINE
  5
F1035F
330
261
100
AcDbEntity
  8
Geo
100
AcDbLine
 10
-27.45474628429322
 20
-7.000038137581361
 30
0.0
 11
-27.35474628429321
 21
-7.06513139579912
 31
0.0
  0
LINE
  5
F10361
330
261
100
AcDbEntity
  8
Geo
100
AcDbLine
 10
-27.35474628429321
 20
-7.06513139579912
 30
0.0
 11
-27.25474628429322
 21
-7.129077550021589
 31
0.0
  0
LINE
  5
F10363
330
261
100
AcDbEntity
  8
Geo
100
AcDbLine
 10
-27.25474628429322
 20
-7.129077550021589
 30
0.0
 11
-27.15474628429321
 21
-7.191833232483439
 31
0.0
  0
LINE
  5
F10365
330
261
100
AcDbEntity
  8
Geo
100
AcDbLine
 10
-27.15474628429321
 20
-7.191833232483439
 30
0.0
 11
-27.05474628429322
 21
-7.253355882787639
 31
0.0
  0
LINE
  5
F10367
330
261
100
AcDbEntity
  8
Geo
100
AcDbLine
 10
-27.05474628429322
 20
-7.253355882787639
 30
0.0
 11
-26.95474628429322
 21
-7.313603776769658
 31
0.0
  0
LINE
  5
F10369
330
261
100
AcDbEntity
  8
Geo
100
AcDbLine
 10
-26.95474628429322
 20
-7.313603776769658
 30
0.0
 11
-26.85474628429322
 21
-7.37253605479438
 31
0.0
  0
LINE
  5
F1036B
330
261
100
AcDbEntity
  8
Geo
100
AcDbLine
 10
-26.85474628429322
 20
-7.37253605479438
 30
0.0
 11
-26.75474628429322
 21
-7.43011274946679
 31
0.0
  0
LINE
  5
F1036D
330
261
100
AcDbEntity
  8
Geo
100
AcDbLine
 10
-26.75474628429322
 20
-7.43011274946679
 30
0.0
 11
-26.65474628429321
 21
-7.48629481273759
 31
0.0
  0
LINE
  5
F1036F
330
261
100
AcDbEntity
  8
Geo
100
AcDbLine
 10
-26.65474628429321
 20
-7.48629481273759
 30
0.0
 11
-26.55474628429322
 21
-7.541044142385219
 31
0.0
  0
LINE
  5
F10371
330
261
100
AcDbEntity
  8
Geo
100
AcDbLine
 10
-26.55474628429322
 20
-7.541044142385219
 30
0.0
 11
-26.45474628429322
 21
-7.594323607856479
 31
0.0
  0
LINE
  5
F10373
330
261
100
AcDbEntity
  8
Geo
100
AcDbLine
 10
-26.45474628429322
 20
-7.594323607856479
 30
0.0
 11
-26.35474628429321
 21
-7.646097075448189
 31
0.0
  0
LINE
  5
F10375
330
261
100
AcDbEntity
  8
Geo
100
AcDbLine
 10
-26.35474628429321
 20
-7.646097075448189
 30
0.0
 11
-26.25474628429322
 21
-7.69632943281279
 31
0.0
  0
LINE
  5
F10377
330
261
100
AcDbEntity
  8
Geo
100
AcDbLine
 10
-26.25474628429322
 20
-7.69632943281279
 30
0.0
 11
-26.15474628429321
 21
-7.744986612771199
 31
0.0
  0
LINE
  5
F10379
330
261
100
AcDbEntity
  8
Geo
100
AcDbLine
 10
-26.15474628429321
 20
-7.744986612771199
 30
0.0
 11
-26.05474628429322
 21
-7.792035616416949
 31
0.0
  0
LINE
  5
F1037B
330
261
100
AcDbEntity
  8
Geo
100
AcDbLine
 10
-26.05474628429322
 20
-7.792035616416949
 30
0.0
 11
-25.95474628429322
 21
-7.83744453549575
 31
0.0
  0
LINE
  5
F1037D
330
261
100
AcDbEntity
  8
Geo
100
AcDbLine
 10
-25.95474628429322
 20
-7.83744453549575
 30
0.0
 11
-25.85474628429321
 21
-7.881182574045419
 31
0.0
  0
LINE
  5
F1037F
330
261
100
AcDbEntity
  8
Geo
100
AcDbLine
 10
-25.85474628429321
 20
-7.881182574045419
 30
0.0
 11
-25.75474628429322
 21
-7.92322006928147
 31
0.0
  0
LINE
  5
F10381
330
261
100
AcDbEntity
  8
Geo
100
AcDbLine
 10
-25.75474628429322
 20
-7.92322006928147
 30
0.0
 11
-25.65474628429321
 21
-7.96352851171413
 31
0.0
  0
LINE
  5
F10383
330
261
100
AcDbEntity
  8
Geo
100
AcDbLine
 10
-25.65474628429321
 20
-7.96352851171413
 30
0.0
 11
-25.55474628429322
 21
-8.0020805644833
 31
0.0
  0
LINE
  5
F10385
330
261
100
AcDbEntity
  8
Geo
100
AcDbLine
 10
-25.55474628429322
 20
-8.0020805644833
 30
0.0
 11
-25.45474628429322
 21
-8.03885008189815
 31
0.0
  0
LINE
  5
F10387
330
261
100
AcDbEntity
  8
Geo
100
AcDbLine
 10
-25.45474628429322
 20
-8.03885008189815
 30
0.0
 11
-25.35474628429322
 21
-8.073812127168929
 31
0.0
  0
LINE
  5
F10389
330
261
100
AcDbEntity
  8
Geo
100
AcDbLine
 10
-25.35474628429322
 20
-8.073812127168929
 30
0.0
 11
-25.25474628429322
 21
-8.106942989318909
 31
0.0
  0
LINE
  5
F1038B
330
261
100
AcDbEntity
  8
Geo
100
AcDbLine
 10
-25.25474628429322
 20
-8.106942989318909
 30
0.0
 11
-25.15474628429321
 21
-8.13822019926496
 31
0.0
  0
LINE
  5
F1038D
330
261
100
AcDbEntity
  8
Geo
100
AcDbLine
 10
-25.15474628429321
 20
-8.13822019926496
 30
0.0
 11
-25.05474628429322
 21
-8.167622545055898
 31
0.0
  0
LINE
  5
F1038F
330
261
100
AcDbEntity
  8
Geo
100
AcDbLine
 10
-25.05474628429322
 20
-8.167622545055898
 30
0.0
 11
-24.95474628429322
 21
-8.19513008625827
 31
0.0
  0
LINE
  5
F10391
330
261
100
AcDbEntity
  8
Geo
100
AcDbLine
 10
-24.95474628429322
 20
-8.19513008625827
 30
0.0
 11
-24.85474628429321
 21
-8.220724167479799
 31
0.0
  0
LINE
  5
F10393
330
261
100
AcDbEntity
  8
Geo
100
AcDbLine
 10
-24.85474628429321
 20
-8.220724167479799
 30
0.0
 11
-24.75474628429322
 21
-8.244387431021308
 31
0.0
  0
LINE
  5
F10395
330
261
100
AcDbEntity
  8
Geo
100
AcDbLine
 10
-24.75474628429322
 20
-8.244387431021308
 30
0.0
 11
-24.65474628429321
 21
-8.266103828648569
 31
0.0
  0
LINE
  5
F10397
330
261
100
AcDbEntity
  8
Geo
100
AcDbLine
 10
-24.65474628429321
 20
-8.266103828648569
 30
0.0
 11
-24.55474628429322
 21
-8.28585863247612
 31
0.0
  0
LINE
  5
F10399
330
261
100
AcDbEntity
  8
Geo
100
AcDbLine
 10
-24.55474628429322
 20
-8.28585863247612
 30
0.0
 11
-24.45474628429322
 21
-8.30363844495554
 31
0.0
  0
LINE
  5
F1039B
330
261
100
AcDbEntity
  8
Geo
100
AcDbLine
 10
-24.45474628429322
 20
-8.30363844495554
 30
0.0
 11
-24.35474628429322
 21
-8.319431207961599
 31
0.0
  0
LINE
  5
F1039D
330
261
100
AcDbEntity
  8
Geo
100
AcDbLine
 10
-24.35474628429322
 20
-8.319431207961599
 30
0.0
 11
-24.25474628429322
 21
-8.333226210969979
 31
0.0
  0
LINE
  5
F1039F
330
261
100
AcDbEntity
  8
Geo
100
AcDbLine
 10
-24.25474628429322
 20
-8.333226210969979
 30
0.0
 11
-24.15474628429321
 21
-8.345014098321058
 31
0.0
  0
LINE
  5
F103A1
330
261
100
AcDbEntity
  8
Geo
100
AcDbLine
 10
-24.15474628429321
 20
-8.345014098321058
 30
0.0
 11
-24.05474628429322
 21
-8.35478687556483
 31
0.0
  0
LINE
  5
F103A3
330
261
100
AcDbEntity
  8
Geo
100
AcDbLine
 10
-24.05474628429322
 20
-8.35478687556483
 30
0.0
 11
-23.95474628429322
 21
-8.3625379148827
 31
0.0
  0
LINE
  5
F103A5
330
261
100
AcDbEntity
  8
Geo
100
AcDbLine
 10
-23.95474628429322
 20
-8.3625379148827
 30
0.0
 11
-23.85474628429321
 21
-8.368261959582408
 31
0.0
  0
LINE
  5
F103A7
330
261
100
AcDbEntity
  8
Geo
100
AcDbLine
 10
-23.85474628429321
 20
-8.368261959582408
 30
0.0
 11
-23.75474628429322
 21
-8.371955127663069
 31
0.0
  0
LINE
  5
F103A9
330
261
100
AcDbEntity
  8
Geo
100
AcDbLine
 10
-23.75474628429322
 20
-8.371955127663069
 30
0.0
 11
-23.65474628429321
 21
-8.373614914447909
 31
0.0
  0
LINE
  5
F103AB
330
261
100
AcDbEntity
  8
Geo
100
AcDbLine
 10
-29.65474628429321
 20
-6.120954448967889
 30
0.0
 11
-29.55474628429321
 21
-6.27991788107138
 31
0.0
  0
LINE
  5
F103AD
330
261
100
AcDbEntity
  8
Geo
100
AcDbLine
 10
-29.55474628429321
 20
-6.27991788107138
 30
0.0
 11
-29.45474628429322
 21
-6.383415374053809
 31
0.0
  0
LINE
  5
F103AF
330
261
100
AcDbEntity
  8
Geo
100
AcDbLine
 10
-29.45474628429322
 20
-6.383415374053809
 30
0.0
 11
-29.35474628429322
 21
-6.47556264129011
 31
0.0
  0
LINE
  5
F103B1
330
261
100
AcDbEntity
  8
Geo
100
AcDbLine
 10
-29.35474628429322
 20
-6.47556264129011
 30
0.0
 11
-29.25474628429322
 21
-6.55922454150698
 31
0.0
  0
LINE
  5
F103B3
330
261
100
AcDbEntity
  8
Geo
100
AcDbLine
 10
-29.25474628429322
 20
-6.55922454150698
 30
0.0
 11
-29.15474628429321
 21
-6.634543163886169
 31
0.0
  0
LINE
  5
F103B5
330
261
100
AcDbEntity
  8
Geo
100
AcDbLine
 10
-29.15474628429321
 20
-6.634543163886169
 30
0.0
 11
-29.05474628429322
 21
-6.705001194338541
 31
0.0
  0
LINE
  5
F103B7
330
261
100
AcDbEntity
  8
Geo
100
AcDbLine
 10
-29.05474628429322
 20
-6.705001194338541
 30
0.0
 11
-28.95474628429322
 21
-6.774556358189679
 31
0.0
  0
LINE
  5
F103B9
330
261
100
AcDbEntity
  8
Geo
100
AcDbLine
 10
-28.95474628429322
 20
-6.774556358189679
 30
0.0
 11
-28.85474628429321
 21
-6.843161483689248
 31
0.0
  0
LINE
  5
F103BB
330
261
100
AcDbEntity
  8
Geo
100
AcDbLine
 10
-28.85474628429321
 20
-6.843161483689248
 30
0.0
 11
-28.75474628429322
 21
-6.910770043395199
 31
0.0
  0
LINE
  5
F103BD
330
261
100
AcDbEntity
  8
Geo
100
AcDbLine
 10
-28.75474628429322
 20
-6.910770043395199
 30
0.0
 11
-28.65474628429321
 21
-6.977336185728379
 31
0.0
  0
LINE
  5
F103BF
330
261
100
AcDbEntity
  8
Geo
100
AcDbLine
 10
-28.65474628429321
 20
-6.977336185728379
 30
0.0
 11
-28.55474628429322
 21
-7.042814766068678
 31
0.0
  0
LINE
  5
F103C1
330
261
100
AcDbEntity
  8
Geo
100
AcDbLine
 10
-28.55474628429322
 20
-7.042814766068678
 30
0.0
 11
-28.45474628429322
 21
-7.107161377371719
 31
0.0
  0
LINE
  5
F103C3
330
261
100
AcDbEntity
  8
Geo
100
AcDbLine
 10
-28.45474628429322
 20
-7.107161377371719
 30
0.0
 11
-28.35474628429322
 21
-7.170332380285428
 31
0.0
  0
LINE
  5
F103C5
330
261
100
AcDbEntity
  8
Geo
100
AcDbLine
 10
-28.35474628429322
 20
-7.170332380285428
 30
0.0
 11
-28.25474628429322
 21
-7.232284932745811
 31
0.0
  0
LINE
  5
F103C7
330
261
100
AcDbEntity
  8
Geo
100
AcDbLine
 10
-28.25474628429322
 20
-7.232284932745811
 30
0.0
 11
-28.15474628429321
 21
-7.292977019032139
 31
0.0
  0
LINE
  5
F103C9
330
261
100
AcDbEntity
  8
Geo
100
AcDbLine
 10
-28.15474628429321
 20
-7.292977019032139
 30
0.0
 11
-28.05474628429322
 21
-7.352367478261671
 31
0.0
  0
LINE
  5
F103CB
330
261
100
AcDbEntity
  8
Geo
100
AcDbLine
 10
-28.05474628429322
 20
-7.352367478261671
 30
0.0
 11
-27.95474628429322
 21
-7.41041603230462
 31
0.0
  0
LINE
  5
F103CD
330
261
100
AcDbEntity
  8
Geo
100
AcDbLine
 10
-27.95474628429322
 20
-7.41041603230462
 30
0.0
 11
-27.85474628429322
 21
-7.467083313100459
 31
0.0
  0
LINE
  5
F103CF
330
261
100
AcDbEntity
  8
Geo
100
AcDbLine
 10
-27.85474628429322
 20
-7.467083313100459
 30
0.0
 11
-27.75474628429322
 21
-7.522330889357018
 31
0.0
  0
LINE
  5
F103D1
330
261
100
AcDbEntity
  8
Geo
100
AcDbLine
 10
-27.75474628429322
 20
-7.522330889357018
 30
0.0
 11
-27.65474628429321
 21
-7.57612129261428
 31
0.0
  0
LINE
  5
F103D3
330
261
100
AcDbEntity
  8
Geo
100
AcDbLine
 10
-27.65474628429321
 20
-7.57612129261428
 30
0.0
 11
-27.55474628429322
 21
-7.62841804265518
 31
0.0
  0
LINE
  5
F103D5
330
261
100
AcDbEntity
  8
Geo
100
AcDbLine
 10
-27.55474628429322
 20
-7.62841804265518
 30
0.0
 11
-27.45474628429322
 21
-7.679185672246228
 31
0.0
  0
LINE
  5
F103D7
330
261
100
AcDbEntity
  8
Geo
100
AcDbLine
 10
-27.45474628429322
 20
-7.679185672246228
 30
0.0
 11
-27.35474628429321
 21
-7.728389751191039
 31
0.0
  0
LINE
  5
F103D9
330
261
100
AcDbEntity
  8
Geo
100
AcDbLine
 10
-27.35474628429321
 20
-7.728389751191039
 30
0.0
 11
-27.25474628429322
 21
-7.775996909680669
 31
0.0
  0
LINE
  5
F103DB
330
261
100
AcDbEntity
  8
Geo
100
AcDbLine
 10
-27.25474628429322
 20
-7.775996909680669
 30
0.0
 11
-27.15474628429321
 21
-7.82197486092472
 31
0.0
  0
LINE
  5
F103DD
330
261
100
AcDbEntity
  8
Geo
100
AcDbLine
 10
-27.15474628429321
 20
-7.82197486092472
 30
0.0
 11
-27.05474628429322
 21
-7.866292423048008
 31
0.0
  0
LINE
  5
F103DF
330
261
100
AcDbEntity
  8
Geo
100
AcDbLine
 10
-27.05474628429322
 20
-7.866292423048008
 30
0.0
 11
-26.95474628429322
 21
-7.90891954023781
 31
0.0
  0
LINE
  5
F103E1
330
261
100
AcDbEntity
  8
Geo
100
AcDbLine
 10
-26.95474628429322
 20
-7.90891954023781
 30
0.0
 11
-26.85474628429322
 21
-7.949827303127529
 31
0.0
  0
LINE
  5
F103E3
330
261
100
AcDbEntity
  8
Geo
100
AcDbLine
 10
-26.85474628429322
 20
-7.949827303127529
 30
0.0
 11
-26.75474628429322
 21
-7.988987968402771
 31
0.0
  0
LINE
  5
F103E5
330
261
100
AcDbEntity
  8
Geo
100
AcDbLine
 10
-26.75474628429322
 20
-7.988987968402771
 30
0.0
 11
-26.65474628429321
 21
-8.02637497761661
 31
0.0
  0
LINE
  5
F103E7
330
261
100
AcDbEntity
  8
Geo
100
AcDbLine
 10
-26.65474628429321
 20
-8.02637497761661
 30
0.0
 11
-26.55474628429322
 21
-8.06196297520135
 31
0.0
  0
LINE
  5
F103E9
330
261
100
AcDbEntity
  8
Geo
100
AcDbLine
 10
-26.55474628429322
 20
-8.06196297520135
 30
0.0
 11
-26.45474628429322
 21
-8.095727825664448
 31
0.0
  0
LINE
  5
F103EB
330
261
100
AcDbEntity
  8
Geo
100
AcDbLine
 10
-26.45474628429322
 20
-8.095727825664448
 30
0.0
 11
-26.35474628429321
 21
-8.127646629957039
 31
0.0
  0
LINE
  5
F103ED
330
261
100
AcDbEntity
  8
Geo
100
AcDbLine
 10
-26.35474628429321
 20
-8.127646629957039
 30
0.0
 11
-26.25474628429322
 21
-8.157697741003818
 31
0.0
  0
LINE
  5
F103EF
330
261
100
AcDbEntity
  8
Geo
100
AcDbLine
 10
-26.25474628429322
 20
-8.157697741003818
 30
0.0
 11
-26.15474628429321
 21
-8.18586077838399
 31
0.0
  0
LINE
  5
F103F1
330
261
100
AcDbEntity
  8
Geo
100
AcDbLine
 10
-26.15474628429321
 20
-8.18586077838399
 30
0.0
 11
-26.05474628429322
 21
-8.21211664215305
 31
0.0
  0
LINE
  5
F103F3
330
261
100
AcDbEntity
  8
Geo
100
AcDbLine
 10
-26.05474628429322
 20
-8.21211664215305
 30
0.0
 11
-25.95474628429322
 21
-8.236447525796251
 31
0.0
  0
LINE
  5
F103F5
330
261
100
AcDbEntity
  8
Geo
100
AcDbLine
 10
-25.95474628429322
 20
-8.236447525796251
 30
0.0
 11
-25.85474628429321
 21
-8.258836928304809
 31
0.0
  0
LINE
  5
F103F7
330
261
100
AcDbEntity
  8
Geo
100
AcDbLine
 10
-25.85474628429321
 20
-8.258836928304809
 30
0.0
 11
-25.75474628429322
 21
-8.279269665366769
 31
0.0
  0
LINE
  5
F103F9
330
261
100
AcDbEntity
  8
Geo
100
AcDbLine
 10
-25.75474628429322
 20
-8.279269665366769
 30
0.0
 11
-25.65474628429321
 21
-8.297731879664869
 31
0.0
  0
LINE
  5
F103FB
330
261
100
AcDbEntity
  8
Geo
100
AcDbLine
 10
-25.65474628429321
 20
-8.297731879664869
 30
0.0
 11
-25.55474628429322
 21
-8.314211050274501
 31
0.0
  0
LINE
  5
F103FD
330
261
100
AcDbEntity
  8
Geo
100
AcDbLine
 10
-25.55474628429322
 20
-8.314211050274501
 30
0.0
 11
-25.45474628429322
 21
-8.328696001155229
 31
0.0
  0
LINE
  5
F103FF
330
261
100
AcDbEntity
  8
Geo
100
AcDbLine
 10
-25.45474628429322
 20
-8.328696001155229
 30
0.0
 11
-25.35474628429322
 21
-8.341176908730371
 31
0.0
  0
LINE
  5
F10401
330
261
100
AcDbEntity
  8
Geo
100
AcDbLine
 10
-25.35474628429322
 20
-8.341176908730371
 30
0.0
 11
-25.25474628429322
 21
-8.351645308549189
 31
0.0
  0
LINE
  5
F10403
330
261
100
AcDbEntity
  8
Geo
100
AcDbLine
 10
-25.25474628429322
 20
-8.351645308549189
 30
0.0
 11
-25.15474628429321
 21
-8.360094101027488
 31
0.0
  0
LINE
  5
F10405
330
261
100
AcDbEntity
  8
Geo
100
AcDbLine
 10
-25.15474628429321
 20
-8.360094101027488
 30
0.0
 11
-25.05474628429322
 21
-8.366517556262451
 31
0.0
  0
LINE
  5
F10407
330
261
100
AcDbEntity
  8
Geo
100
AcDbLine
 10
-25.05474628429322
 20
-8.366517556262451
 30
0.0
 11
-24.95474628429322
 21
-8.37091131791859
 31
0.0
  0
LINE
  5
F10409
330
261
100
AcDbEntity
  8
Geo
100
AcDbLine
 10
-24.95474628429322
 20
-8.37091131791859
 30
0.0
 11
-24.85474628429321
 21
-8.373272406182259
 31
0.0
  0
LINE
  5
F1040B
330
261
100
AcDbEntity
  8
Geo
100
AcDbLine
 10
-13.95474628429322
 20
-2.623716391633889
 30
0.0
 11
-13.85474628429323
 21
-2.624624170234691
 31
0.0
  0
LINE
  5
F1040D
330
261
100
AcDbEntity
  8
Geo
100
AcDbLine
 10
-13.85474628429323
 20
-2.624624170234691
 30
0.0
 11
-13.75474628429322
 21
-2.630683244173791
 31
0.0
  0
LINE
  5
F1040F
330
261
100
AcDbEntity
  8
Geo
100
AcDbLine
 10
-13.75474628429322
 20
-2.630683244173791
 30
0.0
 11
-13.65474628429322
 21
-2.642598363677588
 31
0.0
  0
LINE
  5
F10411
330
261
100
AcDbEntity
  8
Geo
100
AcDbLine
 10
-17.65474628429322
 20
-2.374122293512689
 30
0.0
 11
-17.55474628429323
 21
-2.373854420606889
 31
0.0
  0
LINE
  5
F10413
330
261
100
AcDbEntity
  8
Geo
100
AcDbLine
 10
-17.55474628429323
 20
-2.373854420606889
 30
0.0
 11
-17.45474628429322
 21
-2.37562102986169
 31
0.0
  0
LINE
  5
F10415
330
261
100
AcDbEntity
  8
Geo
100
AcDbLine
 10
-17.45474628429322
 20
-2.37562102986169
 30
0.0
 11
-17.35474628429322
 21
-2.379420923177089
 31
0.0
  0
LINE
  5
F10417
330
261
100
AcDbEntity
  8
Geo
100
AcDbLine
 10
-17.35474628429322
 20
-2.379420923177089
 30
0.0
 11
-17.25474628429322
 21
-2.385251523496089
 31
0.0
  0
LINE
  5
F10419
330
261
100
AcDbEntity
  8
Geo
100
AcDbLine
 10
-17.25474628429322
 20
-2.385251523496089
 30
0.0
 11
-17.15474628429322
 21
-2.393108876552588
 31
0.0
  0
LINE
  5
F1041B
330
261
100
AcDbEntity
  8
Geo
100
AcDbLine
 10
-17.15474628429322
 20
-2.393108876552588
 30
0.0
 11
-17.05474628429323
 21
-2.402987653553289
 31
0.0
  0
LINE
  5
F1041D
330
261
100
AcDbEntity
  8
Geo
100
AcDbLine
 10
-17.05474628429323
 20
-2.402987653553289
 30
0.0
 11
-16.95474628429322
 21
-2.414881154791389
 31
0.0
  0
LINE
  5
F1041F
330
261
100
AcDbEntity
  8
Geo
100
AcDbLine
 10
-16.95474628429322
 20
-2.414881154791389
 30
0.0
 11
-16.85474628429323
 21
-2.42878131419039
 31
0.0
  0
LINE
  5
F10421
330
261
100
AcDbEntity
  8
Geo
100
AcDbLine
 10
-16.85474628429323
 20
-2.42878131419039
 30
0.0
 11
-16.75474628429322
 21
-2.444678704774489
 31
0.0
  0
LINE
  5
F10423
330
261
100
AcDbEntity
  8
Geo
100
AcDbLine
 10
-16.75474628429322
 20
-2.444678704774489
 30
0.0
 11
-16.65474628429322
 21
-2.46256254506169
 31
0.0
  0
LINE
  5
F10425
330
261
100
AcDbEntity
  8
Geo
100
AcDbLine
 10
-16.65474628429322
 20
-2.46256254506169
 30
0.0
 11
-16.55474628429323
 21
-2.702960640521791
 31
0.0
  0
LINE
  5
F10427
330
261
100
AcDbEntity
  8
Geo
100
AcDbLine
 10
-16.55474628429323
 20
-2.702960640521791
 30
0.0
 11
-16.45474628429322
 21
-2.700752402065692
 31
0.0
  0
LINE
  5
F10429
330
261
100
AcDbEntity
  8
Geo
100
AcDbLine
 10
-16.45474628429322
 20
-2.700752402065692
 30
0.0
 11
-16.35474628429323
 21
-2.69853568398719
 31
0.0
  0
LINE
  5
F1042B
330
261
100
AcDbEntity
  8
Geo
100
AcDbLine
 10
-16.35474628429323
 20
-2.69853568398719
 30
0.0
 11
-16.25474628429322
 21
-2.69631221955219
 31
0.0
  0
LINE
  5
F1042D
330
261
100
AcDbEntity
  8
Geo
100
AcDbLine
 10
-16.25474628429322
 20
-2.69631221955219
 30
0.0
 11
-16.15474628429322
 21
-2.69408377493729
 31
0.0
  0
LINE
  5
F1042F
330
261
100
AcDbEntity
  8
Geo
100
AcDbLine
 10
-16.15474628429322
 20
-2.69408377493729
 30
0.0
 11
-16.05474628429323
 21
-2.691852149284789
 31
0.0
  0
LINE
  5
F10431
330
261
100
AcDbEntity
  8
Geo
100
AcDbLine
 10
-16.05474628429323
 20
-2.691852149284789
 30
0.0
 11
-15.95474628429322
 21
-2.689619174753191
 31
0.0
  0
LINE
  5
F10433
330
261
100
AcDbEntity
  8
Geo
100
AcDbLine
 10
-15.95474628429322
 20
-2.689619174753191
 30
0.0
 11
-15.85474628429323
 21
-2.687386716564189
 31
0.0
  0
LINE
  5
F10435
330
261
100
AcDbEntity
  8
Geo
100
AcDbLine
 10
-15.85474628429323
 20
-2.687386716564189
 30
0.0
 11
-15.75474628429322
 21
-2.685156673045788
 31
0.0
  0
LINE
  5
F10437
330
261
100
AcDbEntity
  8
Geo
100
AcDbLine
 10
-15.75474628429322
 20
-2.685156673045788
 30
0.0
 11
-15.65474628429322
 21
-2.68293097567059
 31
0.0
  0
LINE
  5
F10439
330
261
100
AcDbEntity
  8
Geo
100
AcDbLine
 10
-15.65474628429322
 20
-2.68293097567059
 30
0.0
 11
-15.55474628429323
 21
-2.680711589089588
 31
0.0
  0
LINE
  5
F1043B
330
261
100
AcDbEntity
  8
Geo
100
AcDbLine
 10
-15.55474628429323
 20
-2.680711589089588
 30
0.0
 11
-15.45474628429322
 21
-2.678500511161191
 31
0.0
  0
LINE
  5
F1043D
330
261
100
AcDbEntity
  8
Geo
100
AcDbLine
 10
-15.45474628429322
 20
-2.678500511161191
 30
0.0
 11
-15.35474628429323
 21
-2.67629977297469
 31
0.0
  0
LINE
  5
F1043F
330
261
100
AcDbEntity
  8
Geo
100
AcDbLine
 10
-15.35474628429323
 20
-2.67629977297469
 30
0.0
 11
-15.25474628429322
 21
-2.67411143886909
 31
0.0
  0
LINE
  5
F10441
330
261
100
AcDbEntity
  8
Geo
100
AcDbLine
 10
-15.25474628429322
 20
-2.67411143886909
 30
0.0
 11
-15.15474628429322
 21
-2.67193760644529
 31
0.0
  0
LINE
  5
F10443
330
261
100
AcDbEntity
  8
Geo
100
AcDbLine
 10
-15.15474628429322
 20
-2.67193760644529
 30
0.0
 11
-15.05474628429323
 21
-2.669780406572789
 31
0.0
  0
LINE
  5
F10445
330
261
100
AcDbEntity
  8
Geo
100
AcDbLine
 10
-15.05474628429323
 20
-2.669780406572789
 30
0.0
 11
-14.95474628429322
 21
-2.66764200339009
 31
0.0
  0
LINE
  5
F10447
330
261
100
AcDbEntity
  8
Geo
100
AcDbLine
 10
-14.95474628429322
 20
-2.66764200339009
 30
0.0
 11
-14.85474628429322
 21
-2.665524594298087
 31
0.0
  0
LINE
  5
F10449
330
261
100
AcDbEntity
  8
Geo
100
AcDbLine
 10
-14.85474628429322
 20
-2.665524594298087
 30
0.0
 11
-14.75474628429322
 21
-2.663430409947491
 31
0.0
  0
LINE
  5
F1044B
330
261
100
AcDbEntity
  8
Geo
100
AcDbLine
 10
-14.75474628429322
 20
-2.663430409947491
 30
0.0
 11
-14.65474628429322
 21
-2.66136171421839
 31
0.0
  0
LINE
  5
F1044D
330
261
100
AcDbEntity
  8
Geo
100
AcDbLine
 10
-14.65474628429322
 20
-2.66136171421839
 30
0.0
 11
-14.55474628429323
 21
-2.659320804191988
 31
0.0
  0
LINE
  5
F1044F
330
261
100
AcDbEntity
  8
Geo
100
AcDbLine
 10
-14.55474628429323
 20
-2.659320804191988
 30
0.0
 11
-14.45474628429322
 21
-2.657310010115789
 31
0.0
  0
LINE
  5
F10451
330
261
100
AcDbEntity
  8
Geo
100
AcDbLine
 10
-14.45474628429322
 20
-2.657310010115789
 30
0.0
 11
-14.35474628429323
 21
-2.65533169535989
 31
0.0
  0
LINE
  5
F10453
330
261
100
AcDbEntity
  8
Geo
100
AcDbLine
 10
-14.35474628429323
 20
-2.65533169535989
 30
0.0
 11
-14.25474628429322
 21
-2.65338825636439
 31
0.0
  0
LINE
  5
F10455
330
261
100
AcDbEntity
  8
Geo
100
AcDbLine
 10
-14.25474628429322
 20
-2.65338825636439
 30
0.0
 11
-14.15474628429322
 21
-2.651482122579691
 31
0.0
  0
LINE
  5
F10457
330
261
100
AcDbEntity
  8
Geo
100
AcDbLine
 10
-14.15474628429322
 20
-2.651482122579691
 30
0.0
 11
-14.05474628429323
 21
-2.64961575639599
 31
0.0
  0
LINE
  5
F10459
330
261
100
AcDbEntity
  8
Geo
100
AcDbLine
 10
-14.05474628429323
 20
-2.64961575639599
 30
0.0
 11
-13.95474628429322
 21
-2.647791653064489
 31
0.0
  0
LINE
  5
F1045B
330
261
100
AcDbEntity
  8
Geo
100
AcDbLine
 10
-13.95474628429322
 20
-2.647791653064489
 30
0.0
 11
-13.85474628429323
 21
-2.646012340608789
 31
0.0
  0
LINE
  5
F1045D
330
261
100
AcDbEntity
  8
Geo
100
AcDbLine
 10
-13.85474628429323
 20
-2.646012340608789
 30
0.0
 11
-13.75474628429322
 21
-2.644280379725989
 31
0.0
  0
LINE
  5
F1045F
330
261
100
AcDbEntity
  8
Geo
100
AcDbLine
 10
-13.75474628429322
 20
-2.644280379725989
 30
0.0
 11
-13.65474628429322
 21
-2.642598363677588
 31
0.0
  0
LINE
  5
F10461
330
261
100
AcDbEntity
  8
Geo
100
AcDbLine
 10
-18.85474628429323
 20
-2.374686340364691
 30
0.0
 11
-18.75474628429322
 21
-2.373716955654488
 31
0.0
  0
LINE
  5
F10463
330
261
100
AcDbEntity
  8
Geo
100
AcDbLine
 10
-18.75474628429322
 20
-2.373716955654488
 30
0.0
 11
-18.65474628429322
 21
-2.37478214633249
 31
0.0
  0
LINE
  5
F10465
330
261
100
AcDbEntity
  8
Geo
100
AcDbLine
 10
-18.65474628429322
 20
-2.37478214633249
 30
0.0
 11
-18.55474628429323
 21
-2.377881189995191
 31
0.0
  0
LINE
  5
F10467
330
261
100
AcDbEntity
  8
Geo
100
AcDbLine
 10
-18.55474628429323
 20
-2.377881189995191
 30
0.0
 11
-18.45474628429322
 21
-2.383011984896089
 31
0.0
  0
LINE
  5
F10469
330
261
100
AcDbEntity
  8
Geo
100
AcDbLine
 10
-18.45474628429322
 20
-2.383011984896089
 30
0.0
 11
-18.35474628429323
 21
-2.39017105137149
 31
0.0
  0
LINE
  5
F1046B
330
261
100
AcDbEntity
  8
Geo
100
AcDbLine
 10
-18.35474628429323
 20
-2.39017105137149
 30
0.0
 11
-18.25474628429322
 21
-2.399353534200388
 31
0.0
  0
LINE
  5
F1046D
330
261
100
AcDbEntity
  8
Geo
100
AcDbLine
 10
-18.25474628429322
 20
-2.399353534200388
 30
0.0
 11
-18.15474628429322
 21
-2.41055320589699
 31
0.0
  0
LINE
  5
F1046F
330
261
100
AcDbEntity
  8
Geo
100
AcDbLine
 10
-18.15474628429322
 20
-2.41055320589699
 30
0.0
 11
-18.05474628429323
 21
-2.423762470934589
 31
0.0
  0
LINE
  5
F10471
330
261
100
AcDbEntity
  8
Geo
100
AcDbLine
 10
-18.05474628429323
 20
-2.423762470934589
 30
0.0
 11
-17.95474628429322
 21
-2.438972370896191
 31
0.0
  0
LINE
  5
F10473
330
261
100
AcDbEntity
  8
Geo
100
AcDbLine
 10
-17.95474628429322
 20
-2.438972370896191
 30
0.0
 11
-17.85474628429323
 21
-2.456172590550488
 31
0.0
  0
LINE
  5
F10475
330
261
100
AcDbEntity
  8
Geo
100
AcDbLine
 10
-17.85474628429323
 20
-2.456172590550488
 30
0.0
 11
-17.75474628429322
 21
-2.47535146484749
 31
0.0
  0
LINE
  5
F10477
330
261
100
AcDbEntity
  8
Geo
100
AcDbLine
 10
-17.75474628429322
 20
-2.47535146484749
 30
0.0
 11
-17.65474628429322
 21
-2.496495986829391
 31
0.0
  0
LINE
  5
F10479
330
261
100
AcDbEntity
  8
Geo
100
AcDbLine
 10
-17.65474628429322
 20
-2.496495986829391
 30
0.0
 11
-17.55474628429323
 21
-2.51959181645239
 31
0.0
  0
LINE
  5
F1047B
330
261
100
AcDbEntity
  8
Geo
100
AcDbLine
 10
-17.55474628429323
 20
-2.51959181645239
 30
0.0
 11
-17.45474628429322
 21
-2.544623290311191
 31
0.0
  0
LINE
  5
F1047D
330
261
100
AcDbEntity
  8
Geo
100
AcDbLine
 10
-17.45474628429322
 20
-2.544623290311191
 30
0.0
 11
-17.35474628429322
 21
-2.571573432262388
 31
0.0
  0
LINE
  5
F1047F
330
261
100
AcDbEntity
  8
Geo
100
AcDbLine
 10
-17.35474628429322
 20
-2.571573432262388
 30
0.0
 11
-17.25474628429322
 21
-2.600423964937489
 31
0.0
  0
LINE
  5
F10481
330
261
100
AcDbEntity
  8
Geo
100
AcDbLine
 10
-17.25474628429322
 20
-2.600423964937489
 30
0.0
 11
-17.15474628429322
 21
-2.63115532213809
 31
0.0
  0
LINE
  5
F10483
330
261
100
AcDbEntity
  8
Geo
100
AcDbLine
 10
-17.15474628429322
 20
-2.63115532213809
 30
0.0
 11
-17.05474628429323
 21
-2.663746662106088
 31
0.0
  0
LINE
  5
F10485
330
261
100
AcDbEntity
  8
Geo
100
AcDbLine
 10
-17.05474628429323
 20
-2.663746662106088
 30
0.0
 11
-16.95474628429322
 21
-2.69817588165789
 31
0.0
  0
LINE
  5
F10487
330
261
100
AcDbEntity
  8
Geo
100
AcDbLine
 10
-16.95474628429322
 20
-2.69817588165789
 30
0.0
 11
-16.85474628429323
 21
-2.734419631174789
 31
0.0
  0
LINE
  5
F10489
330
261
100
AcDbEntity
  8
Geo
100
AcDbLine
 10
-16.85474628429323
 20
-2.734419631174789
 30
0.0
 11
-16.75474628429322
 21
-2.772453330438588
 31
0.0
  0
LINE
  5
F1048B
330
261
100
AcDbEntity
  8
Geo
100
AcDbLine
 10
-16.75474628429322
 20
-2.772453330438588
 30
0.0
 11
-16.65474628429322
 21
-2.812251185301789
 31
0.0
  0
LINE
  5
F1048D
330
261
100
AcDbEntity
  8
Geo
100
AcDbLine
 10
-16.65474628429322
 20
-2.812251185301789
 30
0.0
 11
-16.55474628429323
 21
-3.069673279488089
 31
0.0
  0
LINE
  5
F1048F
330
261
100
AcDbEntity
  8
Geo
100
AcDbLine
 10
-16.55474628429323
 20
-3.069673279488089
 30
0.0
 11
-16.45474628429322
 21
-3.116581135545589
 31
0.0
  0
LINE
  5
F10491
330
261
100
AcDbEntity
  8
Geo
100
AcDbLine
 10
-16.45474628429322
 20
-3.116581135545589
 30
0.0
 11
-16.35474628429323
 21
-3.166502213572989
 31
0.0
  0
LINE
  5
F10493
330
261
100
AcDbEntity
  8
Geo
100
AcDbLine
 10
-16.35474628429323
 20
-3.166502213572989
 30
0.0
 11
-16.25474628429322
 21
-3.219503622698587
 31
0.0
  0
LINE
  5
F10495
330
261
100
AcDbEntity
  8
Geo
100
AcDbLine
 10
-16.25474628429322
 20
-3.219503622698587
 30
0.0
 11
-16.15474628429322
 21
-3.275646999833988
 31
0.0
  0
LINE
  5
F10497
330
261
100
AcDbEntity
  8
Geo
100
AcDbLine
 10
-16.15474628429322
 20
-3.275646999833988
 30
0.0
 11
-16.05474628429323
 21
-3.334987935702189
 31
0.0
  0
LINE
  5
F10499
330
261
100
AcDbEntity
  8
Geo
100
AcDbLine
 10
-16.05474628429323
 20
-3.334987935702189
 30
0.0
 11
-15.95474628429322
 21
-3.397575383235389
 31
0.0
  0
LINE
  5
F1049B
330
261
100
AcDbEntity
  8
Geo
100
AcDbLine
 10
-15.95474628429322
 20
-3.397575383235389
 30
0.0
 11
-15.85474628429323
 21
-3.46345104979319
 31
0.0
  0
LINE
  5
F1049D
330
261
100
AcDbEntity
  8
Geo
100
AcDbLine
 10
-15.85474628429323
 20
-3.46345104979319
 30
0.0
 11
-15.75474628429322
 21
-3.532648774879989
 31
0.0
  0
LINE
  5
F1049F
330
261
100
AcDbEntity
  8
Geo
100
AcDbLine
 10
-15.75474628429322
 20
-3.532648774879989
 30
0.0
 11
-15.65474628429322
 21
-3.60519389528209
 31
0.0
  0
LINE
  5
F104A1
330
261
100
AcDbEntity
  8
Geo
100
AcDbLine
 10
-15.65474628429322
 20
-3.60519389528209
 30
0.0
 11
-15.55474628429323
 21
-3.681102599794289
 31
0.0
  0
LINE
  5
F104A3
330
261
100
AcDbEntity
  8
Geo
100
AcDbLine
 10
-15.55474628429323
 20
-3.681102599794289
 30
0.0
 11
-15.45474628429322
 21
-3.760381275968088
 31
0.0
  0
LINE
  5
F104A5
330
261
100
AcDbEntity
  8
Geo
100
AcDbLine
 10
-15.45474628429322
 20
-3.760381275968088
 30
0.0
 11
-15.35474628429323
 21
-3.843025851582588
 31
0.0
  0
LINE
  5
F104A7
330
261
100
AcDbEntity
  8
Geo
100
AcDbLine
 10
-15.35474628429323
 20
-3.843025851582588
 30
0.0
 11
-15.25474628429322
 21
-3.92902113381929
 31
0.0
  0
LINE
  5
F104A9
330
261
100
AcDbEntity
  8
Geo
100
AcDbLine
 10
-15.25474628429322
 20
-3.92902113381929
 30
0.0
 11
-15.15474628429322
 21
-4.018340149405588
 31
0.0
  0
LINE
  5
F104AB
330
261
100
AcDbEntity
  8
Geo
100
AcDbLine
 10
-15.15474628429322
 20
-4.018340149405588
 30
0.0
 11
-15.05474628429323
 21
-4.110943489284691
 31
0.0
  0
LINE
  5
F104AD
330
261
100
AcDbEntity
  8
Geo
100
AcDbLine
 10
-15.05474628429323
 20
-4.110943489284691
 30
0.0
 11
-14.95474628429322
 21
-4.206778661664289
 31
0.0
  0
LINE
  5
F104AF
330
261
100
AcDbEntity
  8
Geo
100
AcDbLine
 10
-14.95474628429322
 20
-4.206778661664289
 30
0.0
 11
-14.85474628429322
 21
-4.305779457592489
 31
0.0
  0
LINE
  5
F104B1
330
261
100
AcDbEntity
  8
Geo
100
AcDbLine
 10
-14.85474628429322
 20
-4.305779457592489
 30
0.0
 11
-14.75474628429322
 21
-4.407865333511587
 31
0.0
  0
LINE
  5
F104B3
330
261
100
AcDbEntity
  8
Geo
100
AcDbLine
 10
-14.75474628429322
 20
-4.407865333511587
 30
0.0
 11
-14.65474628429322
 21
-4.512940815529889
 31
0.0
  0
LINE
  5
F104B5
330
261
100
AcDbEntity
  8
Geo
100
AcDbLine
 10
-14.65474628429322
 20
-4.512940815529889
 30
0.0
 11
-14.55474628429323
 21
-4.620894930450191
 31
0.0
  0
LINE
  5
F104B7
330
261
100
AcDbEntity
  8
Geo
100
AcDbLine
 10
-14.55474628429323
 20
-4.620894930450191
 30
0.0
 11
-14.45474628429322
 21
-4.73160066887369
 31
0.0
  0
LINE
  5
F104B9
330
261
100
AcDbEntity
  8
Geo
100
AcDbLine
 10
-14.45474628429322
 20
-4.73160066887369
 30
0.0
 11
-14.35474628429323
 21
-4.844914485973589
 31
0.0
  0
LINE
  5
F104BB
330
261
100
AcDbEntity
  8
Geo
100
AcDbLine
 10
-14.35474628429323
 20
-4.844914485973589
 30
0.0
 11
-14.25474628429322
 21
-4.960675845796489
 31
0.0
  0
LINE
  5
F104BD
330
261
100
AcDbEntity
  8
Geo
100
AcDbLine
 10
-14.25474628429322
 20
-4.960675845796489
 30
0.0
 11
-14.15474628429322
 21
-5.078706815192088
 31
0.0
  0
LINE
  5
F104BF
330
261
100
AcDbEntity
  8
Geo
100
AcDbLine
 10
-14.15474628429322
 20
-5.078706815192088
 30
0.0
 11
-14.05474628429323
 21
-5.19881171369929
 31
0.0
  0
LINE
  5
F104C1
330
261
100
AcDbEntity
  8
Geo
100
AcDbLine
 10
-14.05474628429323
 20
-5.19881171369929
 30
0.0
 11
-13.95474628429322
 21
-5.32077682591629
 31
0.0
  0
LINE
  5
F104C3
330
261
100
AcDbEntity
  8
Geo
100
AcDbLine
 10
-13.95474628429322
 20
-5.32077682591629
 30
0.0
 11
-13.85474628429323
 21
-5.44437018305769
 31
0.0
  0
LINE
  5
F104C5
330
261
100
AcDbEntity
  8
Geo
100
AcDbLine
 10
-13.85474628429323
 20
-5.44437018305769
 30
0.0
 11
-13.75474628429322
 21
-5.569341420542389
 31
0.0
  0
LINE
  5
F104C7
330
261
100
AcDbEntity
  8
Geo
100
AcDbLine
 10
-13.75474628429322
 20
-5.569341420542389
 30
0.0
 11
-13.65474628429322
 21
-5.69542171855919
 31
0.0
  0
LINE
  5
F104C9
330
261
100
AcDbEntity
  8
Geo
100
AcDbLine
 10
-23.65474628429321
 20
-2.373817868819889
 30
0.0
 11
-23.55474628429321
 21
-2.374192588984788
 31
0.0
  0
LINE
  5
F104CB
330
261
100
AcDbEntity
  8
Geo
100
AcDbLine
 10
-23.55474628429321
 20
-2.374192588984788
 30
0.0
 11
-23.45474628429322
 21
-2.376601561967389
 31
0.0
  0
LINE
  5
F104CD
330
261
100
AcDbEntity
  8
Geo
100
AcDbLine
 10
-23.45474628429322
 20
-2.376601561967389
 30
0.0
 11
-23.35474628429321
 21
-2.38104315402159
 31
0.0
  0
LINE
  5
F104CF
330
261
100
AcDbEntity
  8
Geo
100
AcDbLine
 10
-23.35474628429321
 20
-2.38104315402159
 30
0.0
 11
-23.25474628429322
 21
-2.387514352895488
 31
0.0
  0
LINE
  5
F104D1
330
261
100
AcDbEntity
  8
Geo
100
AcDbLine
 10
-23.25474628429322
 20
-2.387514352895488
 30
0.0
 11
-23.15474628429321
 21
-2.396010769874388
 31
0.0
  0
LINE
  5
F104D3
330
261
100
AcDbEntity
  8
Geo
100
AcDbLine
 10
-23.15474628429321
 20
-2.396010769874388
 30
0.0
 11
-23.05474628429322
 21
-2.406526642756791
 31
0.0
  0
LINE
  5
F104D5
330
261
100
AcDbEntity
  8
Geo
100
AcDbLine
 10
-23.05474628429322
 20
-2.406526642756791
 30
0.0
 11
-22.95474628429322
 21
-2.41905483976269
 31
0.0
  0
LINE
  5
F104D7
330
261
100
AcDbEntity
  8
Geo
100
AcDbLine
 10
-22.95474628429322
 20
-2.41905483976269
 30
0.0
 11
-22.85474628429321
 21
-2.43358686436999
 31
0.0
  0
LINE
  5
F104D9
330
261
100
AcDbEntity
  8
Geo
100
AcDbLine
 10
-22.85474628429321
 20
-2.43358686436999
 30
0.0
 11
-22.75474628429322
 21
-2.450112861077089
 31
0.0
  0
LINE
  5
F104DB
330
261
100
AcDbEntity
  8
Geo
100
AcDbLine
 10
-22.75474628429322
 20
-2.450112861077089
 30
0.0
 11
-22.65474628429321
 21
-2.468621622086489
 31
0.0
  0
LINE
  5
F104DD
330
261
100
AcDbEntity
  8
Geo
100
AcDbLine
 10
-22.65474628429321
 20
-2.468621622086489
 30
0.0
 11
-22.55474628429322
 21
-2.48910059490589
 31
0.0
  0
LINE
  5
F104DF
330
261
100
AcDbEntity
  8
Geo
100
AcDbLine
 10
-22.55474628429322
 20
-2.48910059490589
 30
0.0
 11
-22.45474628429322
 21
-2.511535890861289
 31
0.0
  0
LINE
  5
F104E1
330
261
100
AcDbEntity
  8
Geo
100
AcDbLine
 10
-22.45474628429322
 20
-2.511535890861289
 30
0.0
 11
-22.35474628429321
 21
-2.53591229451619
 31
0.0
  0
LINE
  5
F104E3
330
261
100
AcDbEntity
  8
Geo
100
AcDbLine
 10
-22.35474628429321
 20
-2.53591229451619
 30
0.0
 11
-22.25474628429322
 21
-2.56221327399059
 31
0.0
  0
LINE
  5
F104E5
330
261
100
AcDbEntity
  8
Geo
100
AcDbLine
 10
-22.25474628429322
 20
-2.56221327399059
 30
0.0
 11
-22.15474628429321
 21
-2.590420992172589
 31
0.0
  0
LINE
  5
F104E7
330
261
100
AcDbEntity
  8
Geo
100
AcDbLine
 10
-22.15474628429321
 20
-2.590420992172589
 30
0.0
 11
-22.05474628429322
 21
-2.620516318815488
 31
0.0
  0
LINE
  5
F104E9
330
261
100
AcDbEntity
  8
Geo
100
AcDbLine
 10
-22.05474628429322
 20
-2.620516318815488
 30
0.0
 11
-21.95474628429322
 21
-2.65247884351179
 31
0.0
  0
LINE
  5
F104EB
330
261
100
AcDbEntity
  8
Geo
100
AcDbLine
 10
-21.95474628429322
 20
-2.65247884351179
 30
0.0
 11
-21.85474628429322
 21
-2.686286889535487
 31
0.0
  0
LINE
  5
F104ED
330
261
100
AcDbEntity
  8
Geo
100
AcDbLine
 10
-21.85474628429322
 20
-2.686286889535487
 30
0.0
 11
-21.75474628429322
 21
-2.721917528542689
 31
0.0
  0
LINE
  5
F104EF
330
261
100
AcDbEntity
  8
Geo
100
AcDbLine
 10
-21.75474628429322
 20
-2.721917528542689
 30
0.0
 11
-21.65474628429321
 21
-2.759346596121989
 31
0.0
  0
LINE
  5
F104F1
330
261
100
AcDbEntity
  8
Geo
100
AcDbLine
 10
-21.65474628429321
 20
-2.759346596121989
 30
0.0
 11
-21.55474628429322
 21
-2.79854870818189
 31
0.0
  0
LINE
  5
F104F3
330
261
100
AcDbEntity
  8
Geo
100
AcDbLine
 10
-21.55474628429322
 20
-2.79854870818189
 30
0.0
 11
-21.45474628429322
 21
-2.839497278166589
 31
0.0
  0
LINE
  5
F104F5
330
261
100
AcDbEntity
  8
Geo
100
AcDbLine
 10
-21.45474628429322
 20
-2.839497278166589
 30
0.0
 11
-21.35474628429321
 21
-2.88216453508669
 31
0.0
  0
LINE
  5
F104F7
330
261
100
AcDbEntity
  8
Geo
100
AcDbLine
 10
-21.35474628429321
 20
-2.88216453508669
 30
0.0
 11
-21.25474628429322
 21
-2.92652154235319
 31
0.0
  0
LINE
  5
F104F9
330
261
100
AcDbEntity
  8
Geo
100
AcDbLine
 10
-21.25474628429322
 20
-2.92652154235319
 30
0.0
 11
-21.15474628429321
 21
-2.97253821740189
 31
0.0
  0
LINE
  5
F104FB
330
261
100
AcDbEntity
  8
Geo
100
AcDbLine
 10
-21.15474628429321
 20
-2.97253821740189
 30
0.0
 11
-21.05474628429321
 21
-3.020183352095589
 31
0.0
  0
LINE
  5
F104FD
330
261
100
AcDbEntity
  8
Geo
100
AcDbLine
 10
-21.05474628429321
 20
-3.020183352095589
 30
0.0
 11
-20.95474628429322
 21
-3.069424633888589
 31
0.0
  0
LINE
  5
F104FF
330
261
100
AcDbEntity
  8
Geo
100
AcDbLine
 10
-20.95474628429322
 20
-3.069424633888589
 30
0.0
 11
-20.85474628429321
 21
-3.12022866774129
 31
0.0
  0
LINE
  5
F10501
330
261
100
AcDbEntity
  8
Geo
100
AcDbLine
 10
-20.85474628429321
 20
-3.12022866774129
 30
0.0
 11
-20.75474628429322
 21
-3.172560998768389
 31
0.0
  0
LINE
  5
F10503
330
261
100
AcDbEntity
  8
Geo
100
AcDbLine
 10
-20.75474628429322
 20
-3.172560998768389
 30
0.0
 11
-20.65474628429321
 21
-3.226386135605389
 31
0.0
  0
LINE
  5
F10505
330
261
100
AcDbEntity
  8
Geo
100
AcDbLine
 10
-20.65474628429321
 20
-3.226386135605389
 30
0.0
 11
-20.55474628429322
 21
-3.281667574479488
 31
0.0
  0
LINE
  5
F10507
330
261
100
AcDbEntity
  8
Geo
100
AcDbLine
 10
-20.55474628429322
 20
-3.281667574479488
 30
0.0
 11
-20.45474628429322
 21
-3.338367823965089
 31
0.0
  0
LINE
  5
F10509
330
261
100
AcDbEntity
  8
Geo
100
AcDbLine
 10
-20.45474628429322
 20
-3.338367823965089
 30
0.0
 11
-20.35474628429321
 21
-3.396448430410989
 31
0.0
  0
LINE
  5
F1050B
330
261
100
AcDbEntity
  8
Geo
100
AcDbLine
 10
-20.35474628429321
 20
-3.396448430410989
 30
0.0
 11
-20.25474628429322
 21
-3.45587000401899
 31
0.0
  0
LINE
  5
F1050D
330
261
100
AcDbEntity
  8
Geo
100
AcDbLine
 10
-20.25474628429322
 20
-3.45587000401899
 30
0.0
 11
-20.15474628429321
 21
-3.51659224555779
 31
0.0
  0
LINE
  5
F1050F
330
261
100
AcDbEntity
  8
Geo
100
AcDbLine
 10
-20.15474628429321
 20
-3.51659224555779
 30
0.0
 11
-20.05474628429322
 21
-3.578573973693689
 31
0.0
  0
LINE
  5
F10511
330
261
100
AcDbEntity
  8
Geo
100
AcDbLine
 10
-20.05474628429322
 20
-3.578573973693689
 30
0.0
 11
-19.95474628429322
 21
-3.641773152919089
 31
0.0
  0
LINE
  5
F10513
330
261
100
AcDbEntity
  8
Geo
100
AcDbLine
 10
-19.95474628429322
 20
-3.641773152919089
 30
0.0
 11
-19.85474628429321
 21
-3.70614692206109
 31
0.0
  0
LINE
  5
F10515
330
261
100
AcDbEntity
  8
Geo
100
AcDbLine
 10
-19.85474628429321
 20
-3.70614692206109
 30
0.0
 11
-19.75474628429322
 21
-3.77165162334939
 31
0.0
  0
LINE
  5
F10517
330
261
100
AcDbEntity
  8
Geo
100
AcDbLine
 10
-19.75474628429322
 20
-3.77165162334939
 30
0.0
 11
-19.65474628429321
 21
-3.83824283202469
 31
0.0
  0
LINE
  5
F10519
330
261
100
AcDbEntity
  8
Geo
100
AcDbLine
 10
-19.65474628429321
 20
-3.83824283202469
 30
0.0
 11
-19.55474628429321
 21
-3.905875386466989
 31
0.0
  0
LINE
  5
F1051B
330
261
100
AcDbEntity
  8
Geo
100
AcDbLine
 10
-19.55474628429321
 20
-3.905875386466989
 30
0.0
 11
-19.45474628429322
 21
-3.974503418824189
 31
0.0
  0
LINE
  5
F1051D
330
261
100
AcDbEntity
  8
Geo
100
AcDbLine
 10
-19.45474628429322
 20
-3.974503418824189
 30
0.0
 11
-19.35474628429321
 21
-4.04408038611889
 31
0.0
  0
LINE
  5
F1051F
330
261
100
AcDbEntity
  8
Geo
100
AcDbLine
 10
-19.35474628429321
 20
-4.04408038611889
 30
0.0
 11
-19.25474628429322
 21
-4.114559101813989
 31
0.0
  0
LINE
  5
F10521
330
261
100
AcDbEntity
  8
Geo
100
AcDbLine
 10
-19.25474628429322
 20
-4.114559101813989
 30
0.0
 11
-19.15474628429321
 21
-4.185891767813489
 31
0.0
  0
LINE
  5
F10523
330
261
100
AcDbEntity
  8
Geo
100
AcDbLine
 10
-19.15474628429321
 20
-4.185891767813489
 30
0.0
 11
-19.05474628429321
 21
-4.258030006879488
 31
0.0
  0
LINE
  5
F10525
330
261
100
AcDbEntity
  8
Geo
100
AcDbLine
 10
-19.05474628429321
 20
-4.258030006879488
 30
0.0
 11
-18.95474628429322
 21
-4.33092489544099
 31
0.0
  0
LINE
  5
F10527
330
261
100
AcDbEntity
  8
Geo
100
AcDbLine
 10
-18.95474628429322
 20
-4.33092489544099
 30
0.0
 11
-18.85474628429323
 21
-4.40452699677319
 31
0.0
  0
LINE
  5
F10529
330
261
100
AcDbEntity
  8
Geo
100
AcDbLine
 10
-18.85474628429323
 20
-4.40452699677319
 30
0.0
 11
-18.75474628429322
 21
-4.478786394525389
 31
0.0
  0
LINE
  5
F1052B
330
261
100
AcDbEntity
  8
Geo
100
AcDbLine
 10
-18.75474628429322
 20
-4.478786394525389
 30
0.0
 11
-18.65474628429322
 21
-4.55365272657379
 31
0.0
  0
LINE
  5
F1052D
330
261
100
AcDbEntity
  8
Geo
100
AcDbLine
 10
-18.65474628429322
 20
-4.55365272657379
 30
0.0
 11
-18.55474628429323
 21
-4.62907521917679
 31
0.0
  0
LINE
  5
F1052F
330
261
100
AcDbEntity
  8
Geo
100
AcDbLine
 10
-18.55474628429323
 20
-4.62907521917679
 30
0.0
 11
-18.45474628429322
 21
-4.705002721408888
 31
0.0
  0
LINE
  5
F10531
330
261
100
AcDbEntity
  8
Geo
100
AcDbLine
 10
-18.45474628429322
 20
-4.705002721408888
 30
0.0
 11
-18.35474628429323
 21
-4.781383739851291
 31
0.0
  0
LINE
  5
F10533
330
261
100
AcDbEntity
  8
Geo
100
AcDbLine
 10
-18.35474628429323
 20
-4.781383739851291
 30
0.0
 11
-18.25474628429322
 21
-4.858166473514289
 31
0.0
  0
LINE
  5
F10535
330
261
100
AcDbEntity
  8
Geo
100
AcDbLine
 10
-18.25474628429322
 20
-4.858166473514289
 30
0.0
 11
-18.15474628429322
 21
-4.935298848967891
 31
0.0
  0
LINE
  5
F10537
330
261
100
AcDbEntity
  8
Geo
100
AcDbLine
 10
-18.15474628429322
 20
-4.935298848967891
 30
0.0
 11
-18.05474628429323
 21
-5.01272855565819
 31
0.0
  0
LINE
  5
F10539
330
261
100
AcDbEntity
  8
Geo
100
AcDbLine
 10
-18.05474628429323
 20
-5.01272855565819
 30
0.0
 11
-17.95474628429322
 21
-5.090403081383289
 31
0.0
  0
LINE
  5
F1053B
330
261
100
AcDbEntity
  8
Geo
100
AcDbLine
 10
-17.95474628429322
 20
-5.090403081383289
 30
0.0
 11
-17.85474628429323
 21
-5.16826974790729
 31
0.0
  0
LINE
  5
F1053D
330
261
100
AcDbEntity
  8
Geo
100
AcDbLine
 10
-17.85474628429323
 20
-5.16826974790729
 30
0.0
 11
-17.75474628429322
 21
-5.246275746685791
 31
0.0
  0
LINE
  5
F1053F
330
261
100
AcDbEntity
  8
Geo
100
AcDbLine
 10
-17.75474628429322
 20
-5.246275746685791
 30
0.0
 11
-17.65474628429322
 21
-5.32436817468039
 31
0.0
  0
LINE
  5
F10541
330
261
100
AcDbEntity
  8
Geo
100
AcDbLine
 10
-17.65474628429322
 20
-5.32436817468039
 30
0.0
 11
-17.55474628429323
 21
-5.40249407023729
 31
0.0
  0
LINE
  5
F10543
330
261
100
AcDbEntity
  8
Geo
100
AcDbLine
 10
-17.55474628429323
 20
-5.40249407023729
 30
0.0
 11
-17.45474628429322
 21
-5.480600449004889
 31
0.0
  0
LINE
  5
F10545
330
261
100
AcDbEntity
  8
Geo
100
AcDbLine
 10
-17.45474628429322
 20
-5.480600449004889
 30
0.0
 11
-17.35474628429322
 21
-5.558634339867989
 31
0.0
  0
LINE
  5
F10547
330
261
100
AcDbEntity
  8
Geo
100
AcDbLine
 10
-17.35474628429322
 20
-5.558634339867989
 30
0.0
 11
-17.25474628429322
 21
-5.636542820872088
 31
0.0
  0
LINE
  5
F10549
330
261
100
AcDbEntity
  8
Geo
100
AcDbLine
 10
-17.25474628429322
 20
-5.636542820872088
 30
0.0
 11
-17.15474628429322
 21
-5.714273055114588
 31
0.0
  0
LINE
  5
F1054B
330
261
100
AcDbEntity
  8
Geo
100
AcDbLine
 10
-17.15474628429322
 20
-5.714273055114588
 30
0.0
 11
-17.05474628429323
 21
-5.79177232657839
 31
0.0
  0
LINE
  5
F1054D
330
261
100
AcDbEntity
  8
Geo
100
AcDbLine
 10
-17.05474628429323
 20
-5.79177232657839
 30
0.0
 11
-16.95474628429322
 21
-5.868988075883489
 31
0.0
  0
LINE
  5
F1054F
330
261
100
AcDbEntity
  8
Geo
100
AcDbLine
 10
-16.95474628429322
 20
-5.868988075883489
 30
0.0
 11
-16.85474628429323
 21
-5.94586793593239
 31
0.0
  0
LINE
  5
F10551
330
261
100
AcDbEntity
  8
Geo
100
AcDbLine
 10
-16.85474628429323
 20
-5.94586793593239
 30
0.0
 11
-16.75474628429322
 21
-6.02235976742479
 31
0.0
  0
LINE
  5
F10553
330
261
100
AcDbEntity
  8
Geo
100
AcDbLine
 10
-16.75474628429322
 20
-6.02235976742479
 30
0.0
 11
-16.65474628429322
 21
-6.098411694218489
 31
0.0
  0
LINE
  5
F10555
330
261
100
AcDbEntity
  8
Geo
100
AcDbLine
 10
-16.65474628429322
 20
-6.098411694218489
 30
0.0
 11
-16.55474628429323
 21
-6.02912749765939
 31
0.0
  0
LINE
  5
F10557
330
261
100
AcDbEntity
  8
Geo
100
AcDbLine
 10
-16.55474628429323
 20
-6.02912749765939
 30
0.0
 11
-16.45474628429322
 21
-6.02006266915979
 31
0.0
  0
LINE
  5
F10559
330
261
100
AcDbEntity
  8
Geo
100
AcDbLine
 10
-16.45474628429322
 20
-6.02006266915979
 30
0.0
 11
-16.35474628429323
 21
-6.010825629861589
 31
0.0
  0
LINE
  5
F1055B
330
261
100
AcDbEntity
  8
Geo
100
AcDbLine
 10
-16.35474628429323
 20
-6.010825629861589
 30
0.0
 11
-16.25474628429322
 21
-6.00141608043379
 31
0.0
  0
LINE
  5
F1055D
330
261
100
AcDbEntity
  8
Geo
100
AcDbLine
 10
-16.25474628429322
 20
-6.00141608043379
 30
0.0
 11
-16.15474628429322
 21
-5.99183372639799
 31
0.0
  0
LINE
  5
F1055F
330
261
100
AcDbEntity
  8
Geo
100
AcDbLine
 10
-16.15474628429322
 20
-5.99183372639799
 30
0.0
 11
-16.05474628429323
 21
-5.982078278679191
 31
0.0
  0
LINE
  5
F10561
330
261
100
AcDbEntity
  8
Geo
100
AcDbLine
 10
-16.05474628429323
 20
-5.982078278679191
 30
0.0
 11
-15.95474628429322
 21
-5.97214945416729
 31
0.0
  0
LINE
  5
F10563
330
261
100
AcDbEntity
  8
Geo
100
AcDbLine
 10
-15.95474628429322
 20
-5.97214945416729
 30
0.0
 11
-15.85474628429323
 21
-5.962046976288389
 31
0.0
  0
LINE
  5
F10565
330
261
100
AcDbEntity
  8
Geo
100
AcDbLine
 10
-15.85474628429323
 20
-5.962046976288389
 30
0.0
 11
-15.75474628429322
 21
-5.951770575586989
 31
0.0
  0
LINE
  5
F10567
330
261
100
AcDbEntity
  8
Geo
100
AcDbLine
 10
-15.75474628429322
 20
-5.951770575586989
 30
0.0
 11
-15.65474628429322
 21
-5.941319990318291
 31
0.0
  0
LINE
  5
F10569
330
261
100
AcDbEntity
  8
Geo
100
AcDbLine
 10
-15.65474628429322
 20
-5.941319990318291
 30
0.0
 11
-15.55474628429323
 21
-5.930694967050989
 31
0.0
  0
LINE
  5
F1056B
330
261
100
AcDbEntity
  8
Geo
100
AcDbLine
 10
-15.55474628429323
 20
-5.930694967050989
 30
0.0
 11
-15.45474628429322
 21
-5.919895261279789
 31
0.0
  0
LINE
  5
F1056D
330
261
100
AcDbEntity
  8
Geo
100
AcDbLine
 10
-15.45474628429322
 20
-5.919895261279789
 30
0.0
 11
-15.35474628429323
 21
-5.90892063804949
 31
0.0
  0
LINE
  5
F1056F
330
261
100
AcDbEntity
  8
Geo
100
AcDbLine
 10
-15.35474628429323
 20
-5.90892063804949
 30
0.0
 11
-15.25474628429322
 21
-5.897770872587889
 31
0.0
  0
LINE
  5
F10571
330
261
100
AcDbEntity
  8
Geo
100
AcDbLine
 10
-15.25474628429322
 20
-5.897770872587889
 30
0.0
 11
-15.15474628429322
 21
-5.88644575095039
 31
0.0
  0
LINE
  5
F10573
330
261
100
AcDbEntity
  8
Geo
100
AcDbLine
 10
-15.15474628429322
 20
-5.88644575095039
 30
0.0
 11
-15.05474628429323
 21
-5.874945070673691
 31
0.0
  0
LINE
  5
F10575
330
261
100
AcDbEntity
  8
Geo
100
AcDbLine
 10
-15.05474628429323
 20
-5.874945070673691
 30
0.0
 11
-14.95474628429322
 21
-5.863268641440589
 31
0.0
  0
LINE
  5
F10577
330
261
100
AcDbEntity
  8
Geo
100
AcDbLine
 10
-14.95474628429322
 20
-5.863268641440589
 30
0.0
 11
-14.85474628429322
 21
-5.851416285754691
 31
0.0
  0
LINE
  5
F10579
330
261
100
AcDbEntity
  8
Geo
100
AcDbLine
 10
-14.85474628429322
 20
-5.851416285754691
 30
0.0
 11
-14.75474628429322
 21
-5.839387839625389
 31
0.0
  0
LINE
  5
F1057B
330
261
100
AcDbEntity
  8
Geo
100
AcDbLine
 10
-14.75474628429322
 20
-5.839387839625389
 30
0.0
 11
-14.65474628429322
 21
-5.827183153262691
 31
0.0
  0
LINE
  5
F1057D
330
261
100
AcDbEntity
  8
Geo
100
AcDbLine
 10
-14.65474628429322
 20
-5.827183153262691
 30
0.0
 11
-14.55474628429323
 21
-5.814802091782789
 31
0.0
  0
LINE
  5
F1057F
330
261
100
AcDbEntity
  8
Geo
100
AcDbLine
 10
-14.55474628429323
 20
-5.814802091782789
 30
0.0
 11
-14.45474628429322
 21
-5.80224453592319
 31
0.0
  0
LINE
  5
F10581
330
261
100
AcDbEntity
  8
Geo
100
AcDbLine
 10
-14.45474628429322
 20
-5.80224453592319
 30
0.0
 11
-14.35474628429323
 21
-5.789510382767989
 31
0.0
  0
LINE
  5
F10583
330
261
100
AcDbEntity
  8
Geo
100
AcDbLine
 10
-14.35474628429323
 20
-5.789510382767989
 30
0.0
 11
-14.25474628429322
 21
-5.776599546483289
 31
0.0
  0
LINE
  5
F10585
330
261
100
AcDbEntity
  8
Geo
100
AcDbLine
 10
-14.25474628429322
 20
-5.776599546483289
 30
0.0
 11
-14.15474628429322
 21
-5.763511959062588
 31
0.0
  0
LINE
  5
F10587
330
261
100
AcDbEntity
  8
Geo
100
AcDbLine
 10
-14.15474628429322
 20
-5.763511959062588
 30
0.0
 11
-14.05474628429323
 21
-5.75024757108169
 31
0.0
  0
LINE
  5
F10589
330
261
100
AcDbEntity
  8
Geo
100
AcDbLine
 10
-14.05474628429323
 20
-5.75024757108169
 30
0.0
 11
-13.95474628429322
 21
-5.73680635246359
 31
0.0
  0
LINE
  5
F1058B
330
261
100
AcDbEntity
  8
Geo
100
AcDbLine
 10
-13.95474628429322
 20
-5.73680635246359
 30
0.0
 11
-13.85474628429323
 21
-5.723188293253087
 31
0.0
  0
LINE
  5
F1058D
330
261
100
AcDbEntity
  8
Geo
100
AcDbLine
 10
-13.85474628429323
 20
-5.723188293253087
 30
0.0
 11
-13.75474628429322
 21
-5.70939340440139
 31
0.0
  0
LINE
  5
F1058F
330
261
100
AcDbEntity
  8
Geo
100
AcDbLine
 10
-13.75474628429322
 20
-5.70939340440139
 30
0.0
 11
-13.65474628429322
 21
-5.69542171855919
 31
0.0
  0
LINE
  5
F10591
330
261
100
AcDbEntity
  8
Geo
100
AcDbLine
 10
-29.65474628429321
 20
-2.946648626253988
 30
0.0
 11
-29.55474628429321
 21
-2.65834397232459
 31
0.0
  0
LINE
  5
F10593
330
261
100
AcDbEntity
  8
Geo
100
AcDbLine
 10
-29.65474628429321
 20
-5.78733564789899
 30
0.0
 11
-29.55474628429321
 21
-5.858207991748589
 31
0.0
  0
LINE
  5
F10595
330
261
100
AcDbEntity
  8
Geo
100
AcDbLine
 10
-29.55474628429321
 20
-2.65834397232459
 30
0.0
 11
-29.45474628429322
 21
-2.572016477426988
 31
0.0
  0
LINE
  5
F10597
330
261
100
AcDbEntity
  8
Geo
100
AcDbLine
 10
-29.55474628429321
 20
-5.858207991748589
 30
0.0
 11
-29.45474628429322
 21
-5.933957973397189
 31
0.0
  0
LINE
  5
F10599
330
261
100
AcDbEntity
  8
Geo
100
AcDbLine
 10
-29.45474628429322
 20
-2.572016477426988
 30
0.0
 11
-29.35474628429322
 21
-2.529475307474291
 31
0.0
  0
LINE
  5
F1059B
330
261
100
AcDbEntity
  8
Geo
100
AcDbLine
 10
-29.45474628429322
 20
-5.933957973397189
 30
0.0
 11
-29.35474628429322
 21
-6.011270963734489
 31
0.0
  0
LINE
  5
F1059D
330
261
100
AcDbEntity
  8
Geo
100
AcDbLine
 10
-29.35474628429322
 20
-2.529475307474291
 30
0.0
 11
-29.25474628429322
 21
-2.515572783567289
 31
0.0
  0
LINE
  5
F1059F
330
261
100
AcDbEntity
  8
Geo
100
AcDbLine
 10
-29.35474628429322
 20
-6.011270963734489
 30
0.0
 11
-29.25474628429322
 21
-6.088408619870989
 31
0.0
  0
LINE
  5
F105A1
330
261
100
AcDbEntity
  8
Geo
100
AcDbLine
 10
-29.25474628429322
 20
-2.515572783567289
 30
0.0
 11
-29.15474628429321
 21
-2.52513596173679
 31
0.0
  0
LINE
  5
F105A3
330
261
100
AcDbEntity
  8
Geo
100
AcDbLine
 10
-29.25474628429322
 20
-6.088408619870989
 30
0.0
 11
-29.15474628429321
 21
-6.16390379136058
 31
0.0
  0
LINE
  5
F105A5
330
261
100
AcDbEntity
  8
Geo
100
AcDbLine
 10
-29.15474628429321
 20
-2.52513596173679
 30
0.0
 11
-29.05474628429322
 21
-2.54667831300469
 31
0.0
  0
LINE
  5
F105A7
330
261
100
AcDbEntity
  8
Geo
100
AcDbLine
 10
-29.15474628429321
 20
-6.16390379136058
 30
0.0
 11
-29.05474628429322
 21
-6.23781262137898
 31
0.0
  0
LINE
  5
F105A9
330
261
100
AcDbEntity
  8
Geo
100
AcDbLine
 10
-29.05474628429322
 20
-2.54667831300469
 30
0.0
 11
-28.95474628429322
 21
-2.570137938665089
 31
0.0
  0
LINE
  5
F105AB
330
261
100
AcDbEntity
  8
Geo
100
AcDbLine
 10
-29.05474628429322
 20
-6.23781262137898
 30
0.0
 11
-28.95474628429322
 21
-6.311135428313139
 31
0.0
  0
LINE
  5
F105AD
330
261
100
AcDbEntity
  8
Geo
100
AcDbLine
 10
-28.95474628429322
 20
-2.570137938665089
 30
0.0
 11
-28.85474628429321
 21
-2.595498928589588
 31
0.0
  0
LINE
  5
F105AF
330
261
100
AcDbEntity
  8
Geo
100
AcDbLine
 10
-28.95474628429322
 20
-6.311135428313139
 30
0.0
 11
-28.85474628429321
 21
-6.3838224852276
 31
0.0
  0
LINE
  5
F105B1
330
261
100
AcDbEntity
  8
Geo
100
AcDbLine
 10
-28.85474628429321
 20
-2.595498928589588
 30
0.0
 11
-28.75474628429322
 21
-2.622744083159489
 31
0.0
  0
LINE
  5
F105B3
330
261
100
AcDbEntity
  8
Geo
100
AcDbLine
 10
-28.85474628429321
 20
-6.3838224852276
 30
0.0
 11
-28.75474628429322
 21
-6.455824496347389
 31
0.0
  0
LINE
  5
F105B5
330
261
100
AcDbEntity
  8
Geo
100
AcDbLine
 10
-28.75474628429322
 20
-2.622744083159489
 30
0.0
 11
-28.65474628429321
 21
-2.65185492493109
 31
0.0
  0
LINE
  5
F105B7
330
261
100
AcDbEntity
  8
Geo
100
AcDbLine
 10
-28.75474628429322
 20
-6.455824496347389
 30
0.0
 11
-28.65474628429321
 21
-6.5270926304901
 31
0.0
  0
LINE
  5
F105B9
330
261
100
AcDbEntity
  8
Geo
100
AcDbLine
 10
-28.65474628429321
 20
-2.65185492493109
 30
0.0
 11
-28.55474628429322
 21
-2.682811711166589
 31
0.0
  0
LINE
  5
F105BB
330
261
100
AcDbEntity
  8
Geo
100
AcDbLine
 10
-28.65474628429321
 20
-6.5270926304901
 30
0.0
 11
-28.55474628429322
 21
-6.59757855418274
 31
0.0
  0
LINE
  5
F105BD
330
261
100
AcDbEntity
  8
Geo
100
AcDbLine
 10
-28.55474628429322
 20
-2.682811711166589
 30
0.0
 11
-28.45474628429322
 21
-2.715593447223589
 31
0.0
  0
LINE
  5
F105BF
330
261
100
AcDbEntity
  8
Geo
100
AcDbLine
 10
-28.55474628429322
 20
-6.59757855418274
 30
0.0
 11
-28.45474628429322
 21
-6.667234464441129
 31
0.0
  0
LINE
  5
F105C1
330
261
100
AcDbEntity
  8
Geo
100
AcDbLine
 10
-28.45474628429322
 20
-2.715593447223589
 30
0.0
 11
-28.35474628429322
 21
-2.750177900793389
 31
0.0
  0
LINE
  5
F105C3
330
261
100
AcDbEntity
  8
Geo
100
AcDbLine
 10
-28.45474628429322
 20
-6.667234464441129
 30
0.0
 11
-28.35474628429322
 21
-6.736013121189499
 31
0.0
  0
LINE
  5
F105C5
330
261
100
AcDbEntity
  8
Geo
100
AcDbLine
 10
-28.35474628429322
 20
-2.750177900793389
 30
0.0
 11
-28.25474628429322
 21
-2.78654161697899
 31
0.0
  0
LINE
  5
F105C7
330
261
100
AcDbEntity
  8
Geo
100
AcDbLine
 10
-28.35474628429322
 20
-6.736013121189499
 30
0.0
 11
-28.25474628429322
 21
-6.803867879298339
 31
0.0
  0
LINE
  5
F105C9
330
261
100
AcDbEntity
  8
Geo
100
AcDbLine
 10
-28.25474628429322
 20
-2.78654161697899
 30
0.0
 11
-28.15474628429321
 21
-2.82465993420169
 31
0.0
  0
LINE
  5
F105CB
330
261
100
AcDbEntity
  8
Geo
100
AcDbLine
 10
-28.25474628429322
 20
-6.803867879298339
 30
0.0
 11
-28.15474628429321
 21
-6.87075272021871
 31
0.0
  0
LINE
  5
F105CD
330
261
100
AcDbEntity
  8
Geo
100
AcDbLine
 10
-28.15474628429321
 20
-2.82465993420169
 30
0.0
 11
-28.05474628429322
 21
-2.864507000926689
 31
0.0
  0
LINE
  5
F105CF
330
261
100
AcDbEntity
  8
Geo
100
AcDbLine
 10
-28.15474628429321
 20
-6.87075272021871
 30
0.0
 11
-28.05474628429322
 21
-6.936622283191692
 31
0.0
  0
LINE
  5
F105D1
330
261
100
AcDbEntity
  8
Geo
100
AcDbLine
 10
-28.05474628429322
 20
-2.864507000926689
 30
0.0
 11
-27.95474628429322
 21
-2.906055793194989
 31
0.0
  0
LINE
  5
F105D3
330
261
100
AcDbEntity
  8
Geo
100
AcDbLine
 10
-28.05474628429322
 20
-6.936622283191692
 30
0.0
 11
-27.95474628429322
 21
-7.001431896011659
 31
0.0
  0
LINE
  5
F105D5
330
261
100
AcDbEntity
  8
Geo
100
AcDbLine
 10
-27.95474628429322
 20
-2.906055793194989
 30
0.0
 11
-27.85474628429322
 21
-2.949278132951491
 31
0.0
  0
LINE
  5
F105D7
330
261
100
AcDbEntity
  8
Geo
100
AcDbLine
 10
-27.95474628429322
 20
-7.001431896011659
 30
0.0
 11
-27.85474628429322
 21
-7.06513760532264
 31
0.0
  0
LINE
  5
F105D9
330
261
100
AcDbEntity
  8
Geo
100
AcDbLine
 10
-27.85474628429322
 20
-2.949278132951491
 30
0.0
 11
-27.75474628429322
 21
-2.994144707154189
 31
0.0
  0
LINE
  5
F105DB
330
261
100
AcDbEntity
  8
Geo
100
AcDbLine
 10
-27.85474628429322
 20
-7.06513760532264
 30
0.0
 11
-27.75474628429322
 21
-7.127696206427069
 31
0.0
  0
LINE
  5
F105DD
330
261
100
AcDbEntity
  8
Geo
100
AcDbLine
 10
-27.75474628429322
 20
-2.994144707154189
 30
0.0
 11
-27.65474628429321
 21
-3.040625087654987
 31
0.0
  0
LINE
  5
F105DF
330
261
100
AcDbEntity
  8
Geo
100
AcDbLine
 10
-27.75474628429322
 20
-7.127696206427069
 30
0.0
 11
-27.65474628429321
 21
-7.189065272586951
 31
0.0
  0
LINE
  5
F105E1
330
261
100
AcDbEntity
  8
Geo
100
AcDbLine
 10
-27.65474628429321
 20
-3.040625087654987
 30
0.0
 11
-27.55474628429322
 21
-3.088687751835191
 31
0.0
  0
LINE
  5
F105E3
330
261
100
AcDbEntity
  8
Geo
100
AcDbLine
 10
-27.65474628429321
 20
-7.189065272586951
 30
0.0
 11
-27.55474628429322
 21
-7.249203183797229
 31
0.0
  0
LINE
  5
F105E5
330
261
100
AcDbEntity
  8
Geo
100
AcDbLine
 10
-27.55474628429322
 20
-3.088687751835191
 30
0.0
 11
-27.45474628429322
 21
-3.138300103984088
 31
0.0
  0
LINE
  5
F105E7
330
261
100
AcDbEntity
  8
Geo
100
AcDbLine
 10
-27.55474628429322
 20
-7.249203183797229
 30
0.0
 11
-27.45474628429322
 21
-7.308069155012249
 31
0.0
  0
LINE
  5
F105E9
330
261
100
AcDbEntity
  8
Geo
100
AcDbLine
 10
-27.45474628429322
 20
-3.138300103984088
 30
0.0
 11
-27.35474628429321
 21
-3.18942849740519
 31
0.0
  0
LINE
  5
F105EB
330
261
100
AcDbEntity
  8
Geo
100
AcDbLine
 10
-27.45474628429322
 20
-7.308069155012249
 30
0.0
 11
-27.35474628429321
 21
-7.36562326380573
 31
0.0
  0
LINE
  5
F105ED
330
261
100
AcDbEntity
  8
Geo
100
AcDbLine
 10
-27.35474628429321
 20
-3.18942849740519
 30
0.0
 11
-27.25474628429322
 21
-3.242038257234989
 31
0.0
  0
LINE
  5
F105EF
330
261
100
AcDbEntity
  8
Geo
100
AcDbLine
 10
-27.35474628429321
 20
-7.36562326380573
 30
0.0
 11
-27.25474628429322
 21
-7.421826477445939
 31
0.0
  0
LINE
  5
F105F1
330
261
100
AcDbEntity
  8
Geo
100
AcDbLine
 10
-27.25474628429322
 20
-3.242038257234989
 30
0.0
 11
-27.15474628429321
 21
-3.296093703959289
 31
0.0
  0
LINE
  5
F105F3
330
261
100
AcDbEntity
  8
Geo
100
AcDbLine
 10
-27.25474628429322
 20
-7.421826477445939
 30
0.0
 11
-27.15474628429321
 21
-7.476640679367291
 31
0.0
  0
LINE
  5
F105F5
330
261
100
AcDbEntity
  8
Geo
100
AcDbLine
 10
-27.15474628429321
 20
-3.296093703959289
 30
0.0
 11
-27.05474628429322
 21
-3.35155817761059
 31
0.0
  0
LINE
  5
F105F7
330
261
100
AcDbEntity
  8
Geo
100
AcDbLine
 10
-27.15474628429321
 20
-7.476640679367291
 30
0.0
 11
-27.05474628429322
 21
-7.53002869502075
 31
0.0
  0
LINE
  5
F105F9
330
261
100
AcDbEntity
  8
Geo
100
AcDbLine
 10
-27.05474628429322
 20
-3.35155817761059
 30
0.0
 11
-26.95474628429322
 21
-3.408394062630989
 31
0.0
  0
LINE
  5
F105FB
330
261
100
AcDbEntity
  8
Geo
100
AcDbLine
 10
-27.05474628429322
 20
-7.53002869502075
 30
0.0
 11
-26.95474628429322
 21
-7.581954317085269
 31
0.0
  0
LINE
  5
F105FD
330
261
100
AcDbEntity
  8
Geo
100
AcDbLine
 10
-26.95474628429322
 20
-3.408394062630989
 30
0.0
 11
-26.85474628429322
 21
-3.466562813382088
 31
0.0
  0
LINE
  5
F105FF
330
261
100
AcDbEntity
  8
Geo
100
AcDbLine
 10
-26.95474628429322
 20
-7.581954317085269
 30
0.0
 11
-26.85474628429322
 21
-7.632382330023359
 31
0.0
  0
LINE
  5
F10601
330
261
100
AcDbEntity
  8
Geo
100
AcDbLine
 10
-26.85474628429322
 20
-3.466562813382088
 30
0.0
 11
-26.75474628429322
 21
-3.526024980287088
 31
0.0
  0
LINE
  5
F10603
330
261
100
AcDbEntity
  8
Geo
100
AcDbLine
 10
-26.85474628429322
 20
-7.632382330023359
 30
0.0
 11
-26.75474628429322
 21
-7.68127853396391
 31
0.0
  0
LINE
  5
F10605
330
261
100
AcDbEntity
  8
Geo
100
AcDbLine
 10
-26.75474628429322
 20
-3.526024980287088
 30
0.0
 11
-26.65474628429321
 21
-3.586740236584589
 31
0.0
  0
LINE
  5
F10607
330
261
100
AcDbEntity
  8
Geo
100
AcDbLine
 10
-26.75474628429322
 20
-7.68127853396391
 30
0.0
 11
-26.65474628429321
 21
-7.728609767896319
 31
0.0
  0
LINE
  5
F10609
330
261
100
AcDbEntity
  8
Geo
100
AcDbLine
 10
-26.65474628429321
 20
-3.586740236584589
 30
0.0
 11
-26.55474628429322
 21
-3.648667405678088
 31
0.0
  0
LINE
  5
F1060B
330
261
100
AcDbEntity
  8
Geo
100
AcDbLine
 10
-26.65474628429321
 20
-7.728609767896319
 30
0.0
 11
-26.55474628429322
 21
-7.77434393215999
 31
0.0
  0
LINE
  5
F1060D
330
261
100
AcDbEntity
  8
Geo
100
AcDbLine
 10
-26.55474628429322
 20
-3.648667405678088
 30
0.0
 11
-26.45474628429322
 21
-3.711764489061788
 31
0.0
  0
LINE
  5
F1060F
330
261
100
AcDbEntity
  8
Geo
100
AcDbLine
 10
-26.55474628429322
 20
-7.77434393215999
 30
0.0
 11
-26.45474628429322
 21
-7.818450010214089
 31
0.0
  0
LINE
  5
F10611
330
261
100
AcDbEntity
  8
Geo
100
AcDbLine
 10
-26.45474628429322
 20
-3.711764489061788
 30
0.0
 11
-26.35474628429321
 21
-3.775988694803089
 31
0.0
  0
LINE
  5
F10613
330
261
100
AcDbEntity
  8
Geo
100
AcDbLine
 10
-26.45474628429322
 20
-7.818450010214089
 30
0.0
 11
-26.35474628429321
 21
-7.8608980896727
 31
0.0
  0
LINE
  5
F10615
330
261
100
AcDbEntity
  8
Geo
100
AcDbLine
 10
-26.35474628429321
 20
-3.775988694803089
 30
0.0
 11
-26.25474628429322
 21
-3.841296466564587
 31
0.0
  0
LINE
  5
F10617
330
261
100
AcDbEntity
  8
Geo
100
AcDbLine
 10
-26.35474628429321
 20
-7.8608980896727
 30
0.0
 11
-26.25474628429322
 21
-7.901659382591159
 31
0.0
  0
LINE
  5
F10619
330
261
100
AcDbEntity
  8
Geo
100
AcDbLine
 10
-26.25474628429322
 20
-3.841296466564587
 30
0.0
 11
-26.15474628429321
 21
-3.90764351314289
 31
0.0
  0
LINE
  5
F1061B
330
261
100
AcDbEntity
  8
Geo
100
AcDbLine
 10
-26.25474628429322
 20
-7.901659382591159
 30
0.0
 11
-26.15474628429321
 21
-7.940706244989819
 31
0.0
  0
LINE
  5
F1061D
330
261
100
AcDbEntity
  8
Geo
100
AcDbLine
 10
-26.15474628429321
 20
-3.90764351314289
 30
0.0
 11
-26.05474628429322
 21
-3.97498483850669
 31
0.0
  0
LINE
  5
F1061F
330
261
100
AcDbEntity
  8
Geo
100
AcDbLine
 10
-26.15474628429321
 20
-7.940706244989819
 30
0.0
 11
-26.05474628429322
 21
-7.97801219560196
 31
0.0
  0
LINE
  5
F10621
330
261
100
AcDbEntity
  8
Geo
100
AcDbLine
 10
-26.05474628429322
 20
-3.97498483850669
 30
0.0
 11
-25.95474628429322
 21
-4.043274772313191
 31
0.0
  0
LINE
  5
F10623
330
261
100
AcDbEntity
  8
Geo
100
AcDbLine
 10
-26.05474628429322
 20
-7.97801219560196
 30
0.0
 11
-25.95474628429322
 21
-8.01355193383317
 31
0.0
  0
LINE
  5
F10625
330
261
100
AcDbEntity
  8
Geo
100
AcDbLine
 10
-25.95474628429322
 20
-4.043274772313191
 30
0.0
 11
-25.85474628429321
 21
-4.112467000880691
 31
0.0
  0
LINE
  5
F10627
330
261
100
AcDbEntity
  8
Geo
100
AcDbLine
 10
-25.95474628429322
 20
-8.01355193383317
 30
0.0
 11
-25.85474628429321
 21
-8.047301356920009
 31
0.0
  0
LINE
  5
F10629
330
261
100
AcDbEntity
  8
Geo
100
AcDbLine
 10
-25.85474628429321
 20
-4.112467000880691
 30
0.0
 11
-25.75474628429322
 21
-4.18251459859869
 31
0.0
  0
LINE
  5
F1062B
330
261
100
AcDbEntity
  8
Geo
100
AcDbLine
 10
-25.85474628429321
 20
-8.047301356920009
 30
0.0
 11
-25.75474628429322
 21
-8.079237576276319
 31
0.0
  0
LINE
  5
F1062D
330
261
100
AcDbEntity
  8
Geo
100
AcDbLine
 10
-25.75474628429322
 20
-4.18251459859869
 30
0.0
 11
-25.65474628429321
 21
-4.253370059752089
 31
0.0
  0
LINE
  5
F1062F
330
261
100
AcDbEntity
  8
Geo
100
AcDbLine
 10
-25.75474628429322
 20
-8.079237576276319
 30
0.0
 11
-25.65474628429321
 21
-8.10933893301606
 31
0.0
  0
LINE
  5
F10631
330
261
100
AcDbEntity
  8
Geo
100
AcDbLine
 10
-25.65474628429321
 20
-4.253370059752089
 30
0.0
 11
-25.55474628429322
 21
-4.324985330739391
 31
0.0
  0
LINE
  5
F10633
330
261
100
AcDbEntity
  8
Geo
100
AcDbLine
 10
-25.65474628429321
 20
-8.10933893301606
 30
0.0
 11
-25.55474628429322
 21
-8.137585012642199
 31
0.0
  0
LINE
  5
F10635
330
261
100
AcDbEntity
  8
Geo
100
AcDbLine
 10
-25.55474628429322
 20
-4.324985330739391
 30
0.0
 11
-25.45474628429322
 21
-4.39731184266219
 31
0.0
  0
LINE
  5
F10637
330
261
100
AcDbEntity
  8
Geo
100
AcDbLine
 10
-25.55474628429322
 20
-8.137585012642199
 30
0.0
 11
-25.45474628429322
 21
-8.16395665889167
 31
0.0
  0
LINE
  5
F10639
330
261
100
AcDbEntity
  8
Geo
100
AcDbLine
 10
-25.45474628429322
 20
-4.39731184266219
 30
0.0
 11
-25.35474628429322
 21
-4.470300544264389
 31
0.0
  0
LINE
  5
F1063B
330
261
100
AcDbEntity
  8
Geo
100
AcDbLine
 10
-25.45474628429322
 20
-8.16395665889167
 30
0.0
 11
-25.35474628429322
 21
-8.18843598672697
 31
0.0
  0
LINE
  5
F1063D
330
261
100
AcDbEntity
  8
Geo
100
AcDbLine
 10
-25.35474628429322
 20
-4.470300544264389
 30
0.0
 11
-25.25474628429322
 21
-4.543901935197888
 31
0.0
  0
LINE
  5
F1063F
330
261
100
AcDbEntity
  8
Geo
100
AcDbLine
 10
-25.35474628429322
 20
-8.18843598672697
 30
0.0
 11
-25.25474628429322
 21
-8.211006394465659
 31
0.0
  0
LINE
  5
F10641
330
261
100
AcDbEntity
  8
Geo
100
AcDbLine
 10
-25.25474628429322
 20
-4.543901935197888
 30
0.0
 11
-25.15474628429321
 21
-4.618066099593789
 31
0.0
  0
LINE
  5
F10643
330
261
100
AcDbEntity
  8
Geo
100
AcDbLine
 10
-25.25474628429322
 20
-8.211006394465659
 30
0.0
 11
-25.15474628429321
 21
-8.2316525750395
 31
0.0
  0
LINE
  5
F10645
330
261
100
AcDbEntity
  8
Geo
100
AcDbLine
 10
-25.15474628429321
 20
-4.618066099593789
 30
0.0
 11
-25.05474628429322
 21
-4.692742739914889
 31
0.0
  0
LINE
  5
F10647
330
261
100
AcDbEntity
  8
Geo
100
AcDbLine
 10
-25.15474628429321
 20
-8.2316525750395
 30
0.0
 11
-25.05474628429322
 21
-8.250360526375569
 31
0.0
  0
LINE
  5
F10649
330
261
100
AcDbEntity
  8
Geo
100
AcDbLine
 10
-25.05474628429322
 20
-4.692742739914889
 30
0.0
 11
-24.95474628429322
 21
-4.767881211066692
 31
0.0
  0
LINE
  5
F1064B
330
261
100
AcDbEntity
  8
Geo
100
AcDbLine
 10
-25.05474628429322
 20
-8.250360526375569
 30
0.0
 11
-24.95474628429322
 21
-8.26711756089238
 31
0.0
  0
LINE
  5
F1064D
330
261
100
AcDbEntity
  8
Geo
100
AcDbLine
 10
-24.95474628429322
 20
-4.767881211066692
 30
0.0
 11
-24.85474628429321
 21
-4.84343055474509
 31
0.0
  0
LINE
  5
F1064F
330
261
100
AcDbEntity
  8
Geo
100
AcDbLine
 10
-24.95474628429322
 20
-8.26711756089238
 30
0.0
 11
-24.85474628429321
 21
-8.281912314104449
 31
0.0
  0
LINE
  5
F10651
330
261
100
AcDbEntity
  8
Geo
100
AcDbLine
 10
-24.85474628429321
 20
-4.84343055474509
 30
0.0
 11
-24.75474628429322
 21
-4.919339533995191
 31
0.0
  0
LINE
  5
F10653
330
261
100
AcDbEntity
  8
Geo
100
AcDbLine
 10
-24.85474628429321
 20
-8.281912314104449
 30
0.0
 11
-24.75474628429322
 21
-8.294734752329631
 31
0.0
  0
LINE
  5
F10655
330
261
100
AcDbEntity
  8
Geo
100
AcDbLine
 10
-24.75474628429322
 20
-4.919339533995191
 30
0.0
 11
-24.65474628429321
 21
-4.995556667960391
 31
0.0
  0
LINE
  5
F10657
330
261
100
AcDbEntity
  8
Geo
100
AcDbLine
 10
-24.75474628429322
 20
-8.294734752329631
 30
0.0
 11
-24.65474628429321
 21
-8.30557617949389
 31
0.0
  0
LINE
  5
F10659
330
261
100
AcDbEntity
  8
Geo
100
AcDbLine
 10
-24.65474628429321
 20
-4.995556667960391
 30
0.0
 11
-24.55474628429322
 21
-5.07203026679609
 31
0.0
  0
LINE
  5
F1065B
330
261
100
AcDbEntity
  8
Geo
100
AcDbLine
 10
-24.65474628429321
 20
-8.30557617949389
 30
0.0
 11
-24.55474628429322
 21
-8.314429243028879
 31
0.0
  0
LINE
  5
F1065D
330
261
100
AcDbEntity
  8
Geo
100
AcDbLine
 10
-24.55474628429322
 20
-5.07203026679609
 30
0.0
 11
-24.45474628429322
 21
-5.148708466725089
 31
0.0
  0
LINE
  5
F1065F
330
261
100
AcDbEntity
  8
Geo
100
AcDbLine
 10
-24.55474628429322
 20
-8.314429243028879
 30
0.0
 11
-24.45474628429322
 21
-8.3212879388584
 31
0.0
  0
LINE
  5
F10661
330
261
100
AcDbEntity
  8
Geo
100
AcDbLine
 10
-24.45474628429322
 20
-5.148708466725089
 30
0.0
 11
-24.35474628429322
 21
-5.225539265211489
 31
0.0
  0
LINE
  5
F10663
330
261
100
AcDbEntity
  8
Geo
100
AcDbLine
 10
-24.45474628429322
 20
-8.3212879388584
 30
0.0
 11
-24.35474628429322
 21
-8.326147615470349
 31
0.0
  0
LINE
  5
F10665
330
261
100
AcDbEntity
  8
Geo
100
AcDbLine
 10
-24.35474628429322
 20
-5.225539265211489
 30
0.0
 11
-24.25474628429322
 21
-5.302470556228389
 31
0.0
  0
LINE
  5
F10667
330
261
100
AcDbEntity
  8
Geo
100
AcDbLine
 10
-24.35474628429322
 20
-8.326147615470349
 30
0.0
 11
-24.25474628429322
 21
-8.329004977071299
 31
0.0
  0
LINE
  5
F10669
330
261
100
AcDbEntity
  8
Geo
100
AcDbLine
 10
-24.25474628429322
 20
-5.302470556228389
 30
0.0
 11
-24.15474628429321
 21
-5.37945016559529
 31
0.0
  0
LINE
  5
F1066B
330
261
100
AcDbEntity
  8
Geo
100
AcDbLine
 10
-24.15474628429321
 20
-5.37945016559529
 30
0.0
 11
-24.05474628429322
 21
-5.456425886363089
 31
0.0
  0
LINE
  5
F1066D
330
261
100
AcDbEntity
  8
Geo
100
AcDbLine
 10
-24.15474628429321
 20
-2.417574697446088
 30
0.0
 11
-24.05474628429322
 21
-2.418726420117689
 31
0.0
  0
LINE
  5
F1066F
330
261
100
AcDbEntity
  8
Geo
100
AcDbLine
 10
-24.05474628429322
 20
-5.456425886363089
 30
0.0
 11
-23.95474628429322
 21
-5.533345514219588
 31
0.0
  0
LINE
  5
F10671
330
261
100
AcDbEntity
  8
Geo
100
AcDbLine
 10
-24.05474628429322
 20
-2.418726420117689
 30
0.0
 11
-23.95474628429322
 21
-2.421882193122389
 31
0.0
  0
LINE
  5
F10673
330
261
100
AcDbEntity
  8
Geo
100
AcDbLine
 10
-23.95474628429322
 20
-5.533345514219588
 30
0.0
 11
-23.85474628429321
 21
-5.61015688289439
 31
0.0
  0
LINE
  5
F10675
330
261
100
AcDbEntity
  8
Geo
100
AcDbLine
 10
-23.95474628429322
 20
-2.421882193122389
 30
0.0
 11
-23.85474628429321
 21
-2.427039876240291
 31
0.0
  0
LINE
  5
F10677
330
261
100
AcDbEntity
  8
Geo
100
AcDbLine
 10
-23.85474628429321
 20
-5.61015688289439
 30
0.0
 11
-23.75474628429322
 21
-5.686807899537489
 31
0.0
  0
LINE
  5
F10679
330
261
100
AcDbEntity
  8
Geo
100
AcDbLine
 10
-23.85474628429321
 20
-2.427039876240291
 30
0.0
 11
-23.75474628429322
 21
-2.434195971572489
 31
0.0
  0
LINE
  5
F1067B
330
261
100
AcDbEntity
  8
Geo
100
AcDbLine
 10
-23.75474628429322
 20
-5.686807899537489
 30
0.0
 11
-23.65474628429321
 21
-5.76324658004869
 31
0.0
  0
LINE
  5
F1067D
330
261
100
AcDbEntity
  8
Geo
100
AcDbLine
 10
-23.75474628429322
 20
-2.434195971572489
 30
0.0
 11
-23.65474628429321
 21
-2.44334562591279
 31
0.0
  0
LINE
  5
F1067F
330
261
100
AcDbEntity
  8
Geo
100
AcDbLine
 10
-23.65474628429321
 20
-5.76324658004869
 30
0.0
 11
-23.55474628429321
 21
-5.839421084332089
 31
0.0
  0
LINE
  5
F10681
330
261
100
AcDbEntity
  8
Geo
100
AcDbLine
 10
-23.65474628429321
 20
-2.44334562591279
 30
0.0
 11
-23.55474628429321
 21
-2.454482634039589
 31
0.0
  0
LINE
  5
F10683
330
261
100
AcDbEntity
  8
Geo
100
AcDbLine
 10
-23.55474628429321
 20
-5.839421084332089
 30
0.0
 11
-23.45474628429322
 21
-5.91527975145409
 31
0.0
  0
LINE
  5
F10685
330
261
100
AcDbEntity
  8
Geo
100
AcDbLine
 10
-23.55474628429321
 20
-2.454482634039589
 30
0.0
 11
-23.45474628429322
 21
-2.467599442923889
 31
0.0
  0
LINE
  5
F10687
330
261
100
AcDbEntity
  8
Geo
100
AcDbLine
 10
-23.45474628429322
 20
-5.91527975145409
 30
0.0
 11
-23.35474628429321
 21
-5.99077113467929
 31
0.0
  0
LINE
  5
F10689
330
261
100
AcDbEntity
  8
Geo
100
AcDbLine
 10
-23.45474628429322
 20
-2.467599442923889
 30
0.0
 11
-23.35474628429321
 21
-2.482687156851788
 31
0.0
  0
LINE
  5
F1068B
330
261
100
AcDbEntity
  8
Geo
100
AcDbLine
 10
-23.35474628429321
 20
-5.99077113467929
 30
0.0
 11
-23.25474628429322
 21
-6.06584403636139
 31
0.0
  0
LINE
  5
F1068D
330
261
100
AcDbEntity
  8
Geo
100
AcDbLine
 10
-23.35474628429321
 20
-2.482687156851788
 30
0.0
 11
-23.25474628429322
 21
-2.49973554345769
 31
0.0
  0
LINE
  5
F1068F
330
261
100
AcDbEntity
  8
Geo
100
AcDbLine
 10
-23.25474628429322
 20
-6.06584403636139
 30
0.0
 11
-23.15474628429321
 21
-6.140447542664769
 31
0.0
  0
LINE
  5
F10691
330
261
100
AcDbEntity
  8
Geo
100
AcDbLine
 10
-23.25474628429322
 20
-2.49973554345769
 30
0.0
 11
-23.15474628429321
 21
-2.518733040663489
 31
0.0
  0
LINE
  5
F10693
330
261
100
AcDbEntity
  8
Geo
100
AcDbLine
 10
-23.15474628429321
 20
-6.140447542664769
 30
0.0
 11
-23.05474628429322
 21
-6.214531058093898
 31
0.0
  0
LINE
  5
F10695
330
261
100
AcDbEntity
  8
Geo
100
AcDbLine
 10
-23.15474628429321
 20
-2.518733040663489
 30
0.0
 11
-23.05474628429322
 21
-2.539666764519889
 31
0.0
  0
LINE
  5
F10697
330
261
100
AcDbEntity
  8
Geo
100
AcDbLine
 10
-23.05474628429322
 20
-6.214531058093898
 30
0.0
 11
-22.95474628429322
 21
-6.288044339806988
 31
0.0
  0
LINE
  5
F10699
330
261
100
AcDbEntity
  8
Geo
100
AcDbLine
 10
-23.05474628429322
 20
-2.539666764519889
 30
0.0
 11
-22.95474628429322
 21
-2.56252251794449
 31
0.0
  0
LINE
  5
F1069B
330
261
100
AcDbEntity
  8
Geo
100
AcDbLine
 10
-22.95474628429322
 20
-6.288044339806988
 30
0.0
 11
-22.85474628429321
 21
-6.36093753169011
 31
0.0
  0
LINE
  5
F1069D
330
261
100
AcDbEntity
  8
Geo
100
AcDbLine
 10
-22.95474628429322
 20
-2.56252251794449
 30
0.0
 11
-22.85474628429321
 21
-2.587284800349891
 31
0.0
  0
LINE
  5
F1069F
330
261
100
AcDbEntity
  8
Geo
100
AcDbLine
 10
-22.85474628429321
 20
-6.36093753169011
 30
0.0
 11
-22.75474628429322
 21
-6.433161198169219
 31
0.0
  0
LINE
  5
F106A1
330
261
100
AcDbEntity
  8
Geo
100
AcDbLine
 10
-22.85474628429321
 20
-2.587284800349891
 30
0.0
 11
-22.75474628429322
 21
-2.613936818156188
 31
0.0
  0
LINE
  5
F106A3
330
261
100
AcDbEntity
  8
Geo
100
AcDbLine
 10
-22.75474628429322
 20
-6.433161198169219
 30
0.0
 11
-22.65474628429321
 21
-6.50466635773704
 31
0.0
  0
LINE
  5
F106A5
330
261
100
AcDbEntity
  8
Geo
100
AcDbLine
 10
-22.75474628429322
 20
-2.613936818156188
 30
0.0
 11
-22.65474628429321
 21
-2.64246049618019
 31
0.0
  0
LINE
  5
F106A7
330
261
100
AcDbEntity
  8
Geo
100
AcDbLine
 10
-22.65474628429321
 20
-6.50466635773704
 30
0.0
 11
-22.55474628429322
 21
-6.575404516171838
 31
0.0
  0
LINE
  5
F106A9
330
261
100
AcDbEntity
  8
Geo
100
AcDbLine
 10
-22.65474628429321
 20
-2.64246049618019
 30
0.0
 11
-22.55474628429322
 21
-2.672836489893791
 31
0.0
  0
LINE
  5
F106AB
330
261
100
AcDbEntity
  8
Geo
100
AcDbLine
 10
-22.55474628429322
 20
-6.575404516171838
 30
0.0
 11
-22.45474628429322
 21
-6.645327699425889
 31
0.0
  0
LINE
  5
F106AD
330
261
100
AcDbEntity
  8
Geo
100
AcDbLine
 10
-22.55474628429322
 20
-2.672836489893791
 30
0.0
 11
-22.45474628429322
 21
-2.705044198543291
 31
0.0
  0
LINE
  5
F106AF
330
261
100
AcDbEntity
  8
Geo
100
AcDbLine
 10
-22.45474628429322
 20
-6.645327699425889
 30
0.0
 11
-22.35474628429321
 21
-6.714388486161031
 31
0.0
  0
LINE
  5
F106B1
330
261
100
AcDbEntity
  8
Geo
100
AcDbLine
 10
-22.45474628429322
 20
-2.705044198543291
 30
0.0
 11
-22.35474628429321
 21
-2.739061779120987
 31
0.0
  0
LINE
  5
F106B3
330
261
100
AcDbEntity
  8
Geo
100
AcDbLine
 10
-22.35474628429321
 20
-6.714388486161031
 30
0.0
 11
-22.25474628429322
 21
-6.782540039909459
 31
0.0
  0
LINE
  5
F106B5
330
261
100
AcDbEntity
  8
Geo
100
AcDbLine
 10
-22.35474628429321
 20
-2.739061779120987
 30
0.0
 11
-22.25474628429322
 21
-2.774866161178289
 31
0.0
  0
LINE
  5
F106B7
330
261
100
AcDbEntity
  8
Geo
100
AcDbLine
 10
-22.25474628429322
 20
-6.782540039909459
 30
0.0
 11
-22.15474628429321
 21
-6.849736140837839
 31
0.0
  0
LINE
  5
F106B9
330
261
100
AcDbEntity
  8
Geo
100
AcDbLine
 10
-22.25474628429322
 20
-2.774866161178289
 30
0.0
 11
-22.15474628429321
 21
-2.81243306247269
 31
0.0
  0
LINE
  5
F106BB
330
261
100
AcDbEntity
  8
Geo
100
AcDbLine
 10
-22.15474628429321
 20
-6.849736140837839
 30
0.0
 11
-22.05474628429322
 21
-6.91593121709323
 31
0.0
  0
LINE
  5
F106BD
330
261
100
AcDbEntity
  8
Geo
100
AcDbLine
 10
-22.15474628429321
 20
-2.81243306247269
 30
0.0
 11
-22.05474628429322
 21
-2.851737005434889
 31
0.0
  0
LINE
  5
F106BF
330
261
100
AcDbEntity
  8
Geo
100
AcDbLine
 10
-22.05474628429322
 20
-6.91593121709323
 30
0.0
 11
-21.95474628429322
 21
-6.981080375709531
 31
0.0
  0
LINE
  5
F106C1
330
261
100
AcDbEntity
  8
Geo
100
AcDbLine
 10
-22.05474628429322
 20
-2.851737005434889
 30
0.0
 11
-21.95474628429322
 21
-2.89275133444829
 31
0.0
  0
LINE
  5
F106C3
330
261
100
AcDbEntity
  8
Geo
100
AcDbLine
 10
-21.95474628429322
 20
-6.981080375709531
 30
0.0
 11
-21.85474628429322
 21
-7.04513943305354
 31
0.0
  0
LINE
  5
F106C5
330
261
100
AcDbEntity
  8
Geo
100
AcDbLine
 10
-21.95474628429322
 20
-2.89275133444829
 30
0.0
 11
-21.85474628429322
 21
-2.93544823392629
 31
0.0
  0
LINE
  5
F106C7
330
261
100
AcDbEntity
  8
Geo
100
AcDbLine
 10
-21.85474628429322
 20
-7.04513943305354
 30
0.0
 11
-21.75474628429322
 21
-7.108064944789919
 31
0.0
  0
LINE
  5
F106C9
330
261
100
AcDbEntity
  8
Geo
100
AcDbLine
 10
-21.85474628429322
 20
-2.93544823392629
 30
0.0
 11
-21.75474628429322
 21
-2.979798747176388
 31
0.0
  0
LINE
  5
F106CB
330
261
100
AcDbEntity
  8
Geo
100
AcDbLine
 10
-21.75474628429322
 20
-7.108064944789919
 30
0.0
 11
-21.65474628429321
 21
-7.169814235344839
 31
0.0
  0
LINE
  5
F106CD
330
261
100
AcDbEntity
  8
Geo
100
AcDbLine
 10
-21.75474628429322
 20
-2.979798747176388
 30
0.0
 11
-21.65474628429321
 21
-3.025772796038788
 31
0.0
  0
LINE
  5
F106CF
330
261
100
AcDbEntity
  8
Geo
100
AcDbLine
 10
-21.65474628429321
 20
-7.169814235344839
 30
0.0
 11
-21.55474628429322
 21
-7.230345426848149
 31
0.0
  0
LINE
  5
F106D1
330
261
100
AcDbEntity
  8
Geo
100
AcDbLine
 10
-21.65474628429321
 20
-3.025772796038788
 30
0.0
 11
-21.55474628429322
 21
-3.073339201284689
 31
0.0
  0
LINE
  5
F106D3
330
261
100
AcDbEntity
  8
Geo
100
AcDbLine
 10
-21.55474628429322
 20
-7.230345426848149
 30
0.0
 11
-21.45474628429322
 21
-7.28961746753464
 31
0.0
  0
LINE
  5
F106D5
330
261
100
AcDbEntity
  8
Geo
100
AcDbLine
 10
-21.55474628429322
 20
-3.073339201284689
 30
0.0
 11
-21.45474628429322
 21
-3.12246570376239
 31
0.0
  0
LINE
  5
F106D7
330
261
100
AcDbEntity
  8
Geo
100
AcDbLine
 10
-21.45474628429322
 20
-7.28961746753464
 30
0.0
 11
-21.35474628429321
 21
-7.347590159585029
 31
0.0
  0
LINE
  5
F106D9
330
261
100
AcDbEntity
  8
Geo
100
AcDbLine
 10
-21.45474628429322
 20
-3.12246570376239
 30
0.0
 11
-21.35474628429321
 21
-3.17311898627469
 31
0.0
  0
LINE
  5
F106DB
330
261
100
AcDbEntity
  8
Geo
100
AcDbLine
 10
-21.35474628429321
 20
-7.347590159585029
 30
0.0
 11
-21.25474628429322
 21
-7.404224186387779
 31
0.0
  0
LINE
  5
F106DD
330
261
100
AcDbEntity
  8
Geo
100
AcDbLine
 10
-21.35474628429321
 20
-3.17311898627469
 30
0.0
 11
-21.25474628429322
 21
-3.22526469617439
 31
0.0
  0
LINE
  5
F106DF
330
261
100
AcDbEntity
  8
Geo
100
AcDbLine
 10
-21.25474628429322
 20
-7.404224186387779
 30
0.0
 11
-21.15474628429321
 21
-7.459481139203319
 31
0.0
  0
LINE
  5
F106E1
330
261
100
AcDbEntity
  8
Geo
100
AcDbLine
 10
-21.25474628429322
 20
-3.22526469617439
 30
0.0
 11
-21.15474628429321
 21
-3.27886746866209
 31
0.0
  0
LINE
  5
F106E3
330
261
100
AcDbEntity
  8
Geo
100
AcDbLine
 10
-21.15474628429321
 20
-7.459481139203319
 30
0.0
 11
-21.05474628429321
 21
-7.5133235432125
 31
0.0
  0
LINE
  5
F106E5
330
261
100
AcDbEntity
  8
Geo
100
AcDbLine
 10
-21.15474628429321
 20
-3.27886746866209
 30
0.0
 11
-21.05474628429321
 21
-3.333890950770589
 31
0.0
  0
LINE
  5
F106E7
330
261
100
AcDbEntity
  8
Geo
100
AcDbLine
 10
-21.05474628429321
 20
-7.5133235432125
 30
0.0
 11
-20.95474628429322
 21
-7.5657148829318
 31
0.0
  0
LINE
  5
F106E9
330
261
100
AcDbEntity
  8
Geo
100
AcDbLine
 10
-21.05474628429321
 20
-3.333890950770589
 30
0.0
 11
-20.95474628429322
 21
-3.39029782601869
 31
0.0
  0
LINE
  5
F106EB
330
261
100
AcDbEntity
  8
Geo
100
AcDbLine
 10
-20.95474628429322
 20
-7.5657148829318
 30
0.0
 11
-20.85474628429321
 21
-7.616619626977749
 31
0.0
  0
LINE
  5
F106ED
330
261
100
AcDbEntity
  8
Geo
100
AcDbLine
 10
-20.95474628429322
 20
-3.39029782601869
 30
0.0
 11
-20.85474628429321
 21
-3.448049839719089
 31
0.0
  0
LINE
  5
F106EF
330
261
100
AcDbEntity
  8
Geo
100
AcDbLine
 10
-20.85474628429321
 20
-7.616619626977749
 30
0.0
 11
-20.75474628429322
 21
-7.666003252164049
 31
0.0
  0
LINE
  5
F106F1
330
261
100
AcDbEntity
  8
Geo
100
AcDbLine
 10
-20.85474628429321
 20
-3.448049839719089
 30
0.0
 11
-20.75474628429322
 21
-3.50710782492259
 31
0.0
  0
LINE
  5
F106F3
330
261
100
AcDbEntity
  8
Geo
100
AcDbLine
 10
-20.75474628429322
 20
-7.666003252164049
 30
0.0
 11
-20.65474628429321
 21
-7.713832266914959
 31
0.0
  0
LINE
  5
F106F5
330
261
100
AcDbEntity
  8
Geo
100
AcDbLine
 10
-20.75474628429322
 20
-3.50710782492259
 30
0.0
 11
-20.65474628429321
 21
-3.567431728980487
 31
0.0
  0
LINE
  5
F106F7
330
261
100
AcDbEntity
  8
Geo
100
AcDbLine
 10
-20.65474628429321
 20
-7.713832266914959
 30
0.0
 11
-20.55474628429322
 21
-7.760074233978949
 31
0.0
  0
LINE
  5
F106F9
330
261
100
AcDbEntity
  8
Geo
100
AcDbLine
 10
-20.65474628429321
 20
-3.567431728980487
 30
0.0
 11
-20.55474628429322
 21
-3.628980640708389
 31
0.0
  0
LINE
  5
F106FB
330
261
100
AcDbEntity
  8
Geo
100
AcDbLine
 10
-20.55474628429322
 20
-7.760074233978949
 30
0.0
 11
-20.45474628429322
 21
-7.804697792427429
 31
0.0
  0
LINE
  5
F106FD
330
261
100
AcDbEntity
  8
Geo
100
AcDbLine
 10
-20.55474628429322
 20
-3.628980640708389
 30
0.0
 11
-20.45474628429322
 21
-3.691712818131389
 31
0.0
  0
LINE
  5
F106FF
330
261
100
AcDbEntity
  8
Geo
100
AcDbLine
 10
-20.45474628429322
 20
-7.804697792427429
 30
0.0
 11
-20.35474628429321
 21
-7.84767267892346
 31
0.0
  0
LINE
  5
F10701
330
261
100
AcDbEntity
  8
Geo
100
AcDbLine
 10
-20.45474628429322
 20
-3.691712818131389
 30
0.0
 11
-20.35474628429321
 21
-3.755585716793389
 31
0.0
  0
LINE
  5
F10703
330
261
100
AcDbEntity
  8
Geo
100
AcDbLine
 10
-20.35474628429321
 20
-7.84767267892346
 30
0.0
 11
-20.25474628429322
 21
-7.88896974824609
 31
0.0
  0
LINE
  5
F10705
330
261
100
AcDbEntity
  8
Geo
100
AcDbLine
 10
-20.35474628429321
 20
-3.755585716793389
 30
0.0
 11
-20.25474628429322
 21
-3.820556018610389
 31
0.0
  0
LINE
  5
F10707
330
261
100
AcDbEntity
  8
Geo
100
AcDbLine
 10
-20.25474628429322
 20
-7.88896974824609
 30
0.0
 11
-20.15474628429321
 21
-7.928560993056448
 31
0.0
  0
LINE
  5
F10709
330
261
100
AcDbEntity
  8
Geo
100
AcDbLine
 10
-20.25474628429322
 20
-3.820556018610389
 30
0.0
 11
-20.15474628429321
 21
-3.886579661248489
 31
0.0
  0
LINE
  5
F1070B
330
261
100
AcDbEntity
  8
Geo
100
AcDbLine
 10
-20.15474628429321
 20
-7.928560993056448
 30
0.0
 11
-20.05474628429322
 21
-7.966419562892049
 31
0.0
  0
LINE
  5
F1070D
330
261
100
AcDbEntity
  8
Geo
100
AcDbLine
 10
-20.15474628429321
 20
-3.886579661248489
 30
0.0
 11
-20.05474628429322
 21
-3.953611868006388
 31
0.0
  0
LINE
  5
F1070F
330
261
100
AcDbEntity
  8
Geo
100
AcDbLine
 10
-20.05474628429322
 20
-7.966419562892049
 30
0.0
 11
-19.95474628429322
 21
-8.002519782376609
 31
0.0
  0
LINE
  5
F10711
330
261
100
AcDbEntity
  8
Geo
100
AcDbLine
 10
-20.05474628429322
 20
-3.953611868006388
 30
0.0
 11
-19.95474628429322
 21
-4.021607178182989
 31
0.0
  0
LINE
  5
F10713
330
261
100
AcDbEntity
  8
Geo
100
AcDbLine
 10
-19.95474628429322
 20
-8.002519782376609
 30
0.0
 11
-19.85474628429321
 21
-8.036837168632809
 31
0.0
  0
LINE
  5
F10715
330
261
100
AcDbEntity
  8
Geo
100
AcDbLine
 10
-19.95474628429322
 20
-4.021607178182989
 30
0.0
 11
-19.85474628429321
 21
-4.090519477907891
 31
0.0
  0
LINE
  5
F10717
330
261
100
AcDbEntity
  8
Geo
100
AcDbLine
 10
-19.85474628429321
 20
-8.036837168632809
 30
0.0
 11
-19.75474628429322
 21
-8.06934844788647
 31
0.0
  0
LINE
  5
F10719
330
261
100
AcDbEntity
  8
Geo
100
AcDbLine
 10
-19.85474628429321
 20
-4.090519477907891
 30
0.0
 11
-19.75474628429322
 21
-4.160302031416089
 31
0.0
  0
LINE
  5
F1071B
330
261
100
AcDbEntity
  8
Geo
100
AcDbLine
 10
-19.75474628429322
 20
-8.06934844788647
 30
0.0
 11
-19.65474628429321
 21
-8.100031571250559
 31
0.0
  0
LINE
  5
F1071D
330
261
100
AcDbEntity
  8
Geo
100
AcDbLine
 10
-19.75474628429322
 20
-4.160302031416089
 30
0.0
 11
-19.65474628429321
 21
-4.230907512743389
 31
0.0
  0
LINE
  5
F1071F
330
261
100
AcDbEntity
  8
Geo
100
AcDbLine
 10
-19.65474628429321
 20
-8.100031571250559
 30
0.0
 11
-19.55474628429321
 21
-8.12886572967864
 31
0.0
  0
LINE
  5
F10721
330
261
100
AcDbEntity
  8
Geo
100
AcDbLine
 10
-19.65474628429321
 20
-4.230907512743389
 30
0.0
 11
-19.55474628429321
 21
-4.302288037822489
 31
0.0
  0
LINE
  5
F10723
330
261
100
AcDbEntity
  8
Geo
100
AcDbLine
 10
-19.55474628429321
 20
-8.12886572967864
 30
0.0
 11
-19.45474628429322
 21
-8.155831368077318
 31
0.0
  0
LINE
  5
F10725
330
261
100
AcDbEntity
  8
Geo
100
AcDbLine
 10
-19.55474628429321
 20
-4.302288037822489
 30
0.0
 11
-19.45474628429322
 21
-4.374395196957987
 31
0.0
  0
LINE
  5
F10727
330
261
100
AcDbEntity
  8
Geo
100
AcDbLine
 10
-19.45474628429322
 20
-8.155831368077318
 30
0.0
 11
-19.35474628429321
 21
-8.18091019856844
 31
0.0
  0
LINE
  5
F10729
330
261
100
AcDbEntity
  8
Geo
100
AcDbLine
 10
-19.45474628429322
 20
-4.374395196957987
 30
0.0
 11
-19.35474628429321
 21
-4.447180087656791
 31
0.0
  0
LINE
  5
F1072B
330
261
100
AcDbEntity
  8
Geo
100
AcDbLine
 10
-19.35474628429321
 20
-8.18091019856844
 30
0.0
 11
-19.25474628429322
 21
-8.204085212891699
 31
0.0
  0
LINE
  5
F1072D
330
261
100
AcDbEntity
  8
Geo
100
AcDbLine
 10
-19.35474628429321
 20
-4.447180087656791
 30
0.0
 11
-19.25474628429322
 21
-4.52059334779379
 31
0.0
  0
LINE
  5
F1072F
330
261
100
AcDbEntity
  8
Geo
100
AcDbLine
 10
-19.25474628429322
 20
-8.204085212891699
 30
0.0
 11
-19.15474628429321
 21
-8.225340693939561
 31
0.0
  0
LINE
  5
F10731
330
261
100
AcDbEntity
  8
Geo
100
AcDbLine
 10
-19.25474628429322
 20
-4.52059334779379
 30
0.0
 11
-19.15474628429321
 21
-4.594585189089087
 31
0.0
  0
LINE
  5
F10733
330
261
100
AcDbEntity
  8
Geo
100
AcDbLine
 10
-19.15474628429321
 20
-8.225340693939561
 30
0.0
 11
-19.05474628429321
 21
-8.244662226416439
 31
0.0
  0
LINE
  5
F10735
330
261
100
AcDbEntity
  8
Geo
100
AcDbLine
 10
-19.15474628429321
 20
-4.594585189089087
 30
0.0
 11
-19.05474628429321
 21
-4.66910543087329
 31
0.0
  0
LINE
  5
F10737
330
261
100
AcDbEntity
  8
Geo
100
AcDbLine
 10
-19.05474628429321
 20
-8.244662226416439
 30
0.0
 11
-18.95474628429322
 21
-8.262036706615059
 31
0.0
  0
LINE
  5
F10739
330
261
100
AcDbEntity
  8
Geo
100
AcDbLine
 10
-19.05474628429321
 20
-4.66910543087329
 30
0.0
 11
-18.95474628429322
 21
-4.744103534120389
 31
0.0
  0
LINE
  5
F1073B
330
261
100
AcDbEntity
  8
Geo
100
AcDbLine
 10
-18.95474628429322
 20
-8.262036706615059
 30
0.0
 11
-18.85474628429323
 21
-8.277452351303278
 31
0.0
  0
LINE
  5
F1073D
330
261
100
AcDbEntity
  8
Geo
100
AcDbLine
 10
-18.95474628429322
 20
-4.744103534120389
 30
0.0
 11
-18.85474628429323
 21
-4.819528635722388
 31
0.0
  0
LINE
  5
F1073F
330
261
100
AcDbEntity
  8
Geo
100
AcDbLine
 10
-18.85474628429323
 20
-8.277452351303278
 30
0.0
 11
-18.75474628429322
 21
-8.29089870571536
 31
0.0
  0
LINE
  5
F10741
330
261
100
AcDbEntity
  8
Geo
100
AcDbLine
 10
-18.85474628429323
 20
-4.819528635722388
 30
0.0
 11
-18.75474628429322
 21
-4.89532958298469
 31
0.0
  0
LINE
  5
F10743
330
261
100
AcDbEntity
  8
Geo
100
AcDbLine
 10
-18.75474628429322
 20
-8.29089870571536
 30
0.0
 11
-18.65474628429322
 21
-8.302366650642348
 31
0.0
  0
LINE
  5
F10745
330
261
100
AcDbEntity
  8
Geo
100
AcDbLine
 10
-18.75474628429322
 20
-4.89532958298469
 30
0.0
 11
-18.65474628429322
 21
-4.971454968316988
 31
0.0
  0
LINE
  5
F10747
330
261
100
AcDbEntity
  8
Geo
100
AcDbLine
 10
-18.65474628429322
 20
-8.302366650642348
 30
0.0
 11
-18.55474628429323
 21
-8.311848408616619
 31
0.0
  0
LINE
  5
F10749
330
261
100
AcDbEntity
  8
Geo
100
AcDbLine
 10
-18.65474628429322
 20
-4.971454968316988
 30
0.0
 11
-18.55474628429323
 21
-5.04785316409769
 31
0.0
  0
LINE
  5
F1074B
330
261
100
AcDbEntity
  8
Geo
100
AcDbLine
 10
-18.55474628429323
 20
-8.311848408616619
 30
0.0
 11
-18.45474628429322
 21
-8.319337549186471
 31
0.0
  0
LINE
  5
F1074D
330
261
100
AcDbEntity
  8
Geo
100
AcDbLine
 10
-18.55474628429323
 20
-5.04785316409769
 30
0.0
 11
-18.45474628429322
 21
-5.12447235768759
 31
0.0
  0
LINE
  5
F1074F
330
261
100
AcDbEntity
  8
Geo
100
AcDbLine
 10
-18.45474628429322
 20
-8.319337549186471
 30
0.0
 11
-18.35474628429323
 21
-8.324828993277279
 31
0.0
  0
LINE
  5
F10751
330
261
100
AcDbEntity
  8
Geo
100
AcDbLine
 10
-18.45474628429322
 20
-5.12447235768759
 30
0.0
 11
-18.35474628429323
 21
-5.20126058656829
 31
0.0
  0
LINE
  5
F10753
330
261
100
AcDbEntity
  8
Geo
100
AcDbLine
 10
-18.35474628429323
 20
-8.324828993277279
 30
0.0
 11
-18.25474628429322
 21
-8.328319016636001
 31
0.0
  0
LINE
  5
F10755
330
261
100
AcDbEntity
  8
Geo
100
AcDbLine
 10
-18.35474628429323
 20
-5.20126058656829
 30
0.0
 11
-18.25474628429322
 21
-5.27816577358309
 31
0.0
  0
LINE
  5
F10757
330
261
100
AcDbEntity
  8
Geo
100
AcDbLine
 10
-18.25474628429322
 20
-8.328319016636001
 30
0.0
 11
-18.15474628429322
 21
-8.32980525235698
 31
0.0
  0
LINE
  5
F10759
330
261
100
AcDbEntity
  8
Geo
100
AcDbLine
 10
-18.25474628429322
 20
-5.27816577358309
 30
0.0
 11
-18.15474628429322
 21
-5.35513576225539
 31
0.0
  0
LINE
  5
F1075B
330
261
100
AcDbEntity
  8
Geo
100
AcDbLine
 10
-18.15474628429322
 20
-5.35513576225539
 30
0.0
 11
-18.05474628429323
 21
-5.432118352160488
 31
0.0
  0
LINE
  5
F1075D
330
261
100
AcDbEntity
  8
Geo
100
AcDbLine
 10
-18.05474628429323
 20
-2.418146090780588
 30
0.0
 11
-17.95474628429322
 21
-2.420669094558087
 31
0.0
  0
LINE
  5
F1075F
330
261
100
AcDbEntity
  8
Geo
100
AcDbLine
 10
-18.05474628429323
 20
-5.432118352160488
 30
0.0
 11
-17.95474628429322
 21
-5.509061334327689
 31
0.0
  0
LINE
  5
F10761
330
261
100
AcDbEntity
  8
Geo
100
AcDbLine
 10
-17.95474628429322
 20
-2.420669094558087
 30
0.0
 11
-17.85474628429323
 21
-2.425194831162491
 31
0.0
  0
LINE
  5
F10763
330
261
100
AcDbEntity
  8
Geo
100
AcDbLine
 10
-17.95474628429322
 20
-5.509061334327689
 30
0.0
 11
-17.85474628429323
 21
-5.58591252664779
 31
0.0
  0
LINE
  5
F10765
330
261
100
AcDbEntity
  8
Geo
100
AcDbLine
 10
-17.85474628429323
 20
-2.425194831162491
 30
0.0
 11
-17.75474628429322
 21
-2.431720231275789
 31
0.0
  0
LINE
  5
F10767
330
261
100
AcDbEntity
  8
Geo
100
AcDbLine
 10
-17.85474628429323
 20
-5.58591252664779
 30
0.0
 11
-17.75474628429322
 21
-5.66261980926289
 31
0.0
  0
LINE
  5
F10769
330
261
100
AcDbEntity
  8
Geo
100
AcDbLine
 10
-17.75474628429322
 20
-2.431720231275789
 30
0.0
 11
-17.65474628429322
 21
-2.44024086942429
 31
0.0
  0
LINE
  5
F1076B
330
261
100
AcDbEntity
  8
Geo
100
AcDbLine
 10
-17.75474628429322
 20
-5.66261980926289
 30
0.0
 11
-17.65474628429322
 21
-5.739131159913489
 31
0.0
  0
LINE
  5
F1076D
330
261
100
AcDbEntity
  8
Geo
100
AcDbLine
 10
-17.65474628429322
 20
-2.44024086942429
 30
0.0
 11
-17.55474628429323
 21
-2.450750966980089
 31
0.0
  0
LINE
  5
F1076F
330
261
100
AcDbEntity
  8
Geo
100
AcDbLine
 10
-17.65474628429322
 20
-5.739131159913489
 30
0.0
 11
-17.55474628429323
 21
-5.81539468921939
 31
0.0
  0
LINE
  5
F10771
330
261
100
AcDbEntity
  8
Geo
100
AcDbLine
 10
-17.55474628429323
 20
-2.450750966980089
 30
0.0
 11
-17.45474628429322
 21
-2.46324339607989
 31
0.0
  0
LINE
  5
F10773
330
261
100
AcDbEntity
  8
Geo
100
AcDbLine
 10
-17.55474628429323
 20
-5.81539468921939
 30
0.0
 11
-17.45474628429322
 21
-5.891358675871089
 31
0.0
  0
LINE
  5
F10775
330
261
100
AcDbEntity
  8
Geo
100
AcDbLine
 10
-17.45474628429322
 20
-2.46324339607989
 30
0.0
 11
-17.35474628429322
 21
-2.477709684459089
 31
0.0
  0
LINE
  5
F10777
330
261
100
AcDbEntity
  8
Geo
100
AcDbLine
 10
-17.45474628429322
 20
-5.891358675871089
 30
0.0
 11
-17.35474628429322
 21
-5.96697160170639
 31
0.0
  0
LINE
  5
F10779
330
261
100
AcDbEntity
  8
Geo
100
AcDbLine
 10
-17.35474628429322
 20
-2.477709684459089
 30
0.0
 11
-17.25474628429322
 21
-2.494140021197891
 31
0.0
  0
LINE
  5
F1077B
330
261
100
AcDbEntity
  8
Geo
100
AcDbLine
 10
-17.35474628429322
 20
-5.96697160170639
 30
0.0
 11
-17.25474628429322
 21
-6.042182186649489
 31
0.0
  0
LINE
  5
F1077D
330
261
100
AcDbEntity
  8
Geo
100
AcDbLine
 10
-17.25474628429322
 20
-2.494140021197891
 30
0.0
 11
-17.15474628429322
 21
-2.51252326337439
 31
0.0
  0
LINE
  5
F1077F
330
261
100
AcDbEntity
  8
Geo
100
AcDbLine
 10
-17.25474628429322
 20
-6.042182186649489
 30
0.0
 11
-17.15474628429322
 21
-6.11693942348919
 31
0.0
  0
LINE
  5
F10781
330
261
100
AcDbEntity
  8
Geo
100
AcDbLine
 10
-17.15474628429322
 20
-2.51252326337439
 30
0.0
 11
-17.05474628429323
 21
-2.532846943622487
 31
0.0
  0
LINE
  5
F10783
330
261
100
AcDbEntity
  8
Geo
100
AcDbLine
 10
-17.15474628429322
 20
-6.11693942348919
 30
0.0
 11
-17.05474628429323
 21
-6.191192612471299
 31
0.0
  0
LINE
  5
F10785
330
261
100
AcDbEntity
  8
Geo
100
AcDbLine
 10
-17.05474628429323
 20
-2.532846943622487
 30
0.0
 11
-16.95474628429322
 21
-2.555097278586192
 31
0.0
  0
LINE
  5
F10787
330
261
100
AcDbEntity
  8
Geo
100
AcDbLine
 10
-17.05474628429323
 20
-6.191192612471299
 30
0.0
 11
-16.95474628429322
 21
-6.264891395682679
 31
0.0
  0
LINE
  5
F10789
330
261
100
AcDbEntity
  8
Geo
100
AcDbLine
 10
-16.95474628429322
 20
-2.555097278586192
 30
0.0
 11
-16.85474628429323
 21
-2.579259178267989
 31
0.0
  0
LINE
  5
F1078B
330
261
100
AcDbEntity
  8
Geo
100
AcDbLine
 10
-16.95474628429322
 20
-6.264891395682679
 30
0.0
 11
-16.85474628429323
 21
-6.3379857912038
 31
0.0
  0
LINE
  5
F1078D
330
261
100
AcDbEntity
  8
Geo
100
AcDbLine
 10
-16.85474628429323
 20
-2.579259178267989
 30
0.0
 11
-16.75474628429322
 21
-2.60531625626289
 31
0.0
  0
LINE
  5
F1078F
330
261
100
AcDbEntity
  8
Geo
100
AcDbLine
 10
-16.85474628429323
 20
-6.3379857912038
 30
0.0
 11
-16.75474628429322
 21
-6.410426227005951
 31
0.0
  0
LINE
  5
F10791
330
261
100
AcDbEntity
  8
Geo
100
AcDbLine
 10
-16.75474628429322
 20
-2.60531625626289
 30
0.0
 11
-16.65474628429322
 21
-2.63325084087079
 31
0.0
  0
LINE
  5
F10793
330
261
100
AcDbEntity
  8
Geo
100
AcDbLine
 10
-16.75474628429322
 20
-6.410426227005951
 30
0.0
 11
-16.65474628429322
 21
-6.48216357457062
 31
0.0
  0
LINE
  5
F10795
330
261
100
AcDbEntity
  8
Geo
100
AcDbLine
 10
-29.65474628429321
 20
-5.373716391633889
 30
0.0
 11
-29.65474628429321
 21
-5.373716391633889
 31
0.0
  0
LINE
  5
F10797
330
261
100
AcDbEntity
  8
Geo
100
AcDbLine
 10
-29.65474628429321
 20
-5.373716391633889
 30
0.0
 11
-29.65474628429321
 21
-5.373716391633889
 31
0.0
  0
LINE
  5
F10799
330
261
100
AcDbEntity
  8
Geo
100
AcDbLine
 10
-30.65474628429321
 20
-5.373716391633889
 30
0.0
 11
-30.35474628429322
 21
-5.373716391633889
 31
0.0
  0
LINE
  5
F1079B
330
261
100
AcDbEntity
  8
Geo
100
AcDbLine
 10
-30.22724628429322
 20
-5.373716391633889
 30
0.0
 11
-30.14224628429322
 21
-5.373716391633889
 31
0.0
  0
LINE
  5
F1079D
330
261
100
AcDbEntity
  8
Geo
100
AcDbLine
 10
-29.92974628429322
 20
-5.373716391633889
 30
0.0
 11
-29.50474628429322
 21
-5.373716391633889
 31
0.0
  0
LINE
  5
F1079F
330
261
100
AcDbEntity
  8
Geo
100
AcDbLine
 10
-29.37724628429322
 20
-5.373716391633889
 30
0.0
 11
-29.29224628429322
 21
-5.373716391633889
 31
0.0
  0
LINE
  5
F107A1
330
261
100
AcDbEntity
  8
Geo
100
AcDbLine
 10
-29.07974628429322
 20
-5.373716391633889
 30
0.0
 11
-28.65474628429321
 21
-5.373716391633889
 31
0.0
  0
LINE
  5
F107A3
330
261
100
AcDbEntity
  8
Geo
100
AcDbLine
 10
27.34525371570678
 20
-2.873716391633889
 30
0.0
 11
27.34525371570678
 21
-5.373716391633889
 31
0.0
  0
LINE
  5
F107A5
330
261
100
AcDbEntity
  8
Geo
100
AcDbLine
 10
-29.65474628429321
 20
-5.373716391633889
 30
0.0
 11
-29.65474628429321
 21
-7.873716391633879
 31
0.0
  0
ARC
  5
F107A7
330
261
100
AcDbEntity
  8
Geo
100
AcDbCircle
 10
-29.15474628429321
 20
-7.873716391633879
 30
0.0
 40
0.5
100
AcDbArc
 50
180.0
 51
270.0
  0
LINE
  5
F107A9
330
261
100
AcDbEntity
  8
Geo
100
AcDbLine
 10
-29.15474628429321
 20
-8.37371639163388
 30
0.0
 11
-16.65474628429322
 21
-8.37371639163388
 31
0.0
  0
LINE
  5
F107AB
330
261
100
AcDbEntity
  8
Geo
100
AcDbLine
 10
-16.65474628429322
 20
-8.37371639163388
 30
0.0
 11
-16.65474628429322
 21
-8.123716391633879
 31
0.0
  0
LINE
  5
F107AD
330
261
100
AcDbEntity
  8
Geo
100
AcDbLine
 10
-16.65474628429322
 20
-8.123716391633879
 30
0.0
 11
-9.654746284293224
 21
-8.123716391633879
 31
0.0
  0
LINE
  5
F107AF
330
261
100
AcDbEntity
  8
Geo
100
AcDbLine
 10
-8.654746284293224
 20
-8.123716391633879
 30
0.0
 11
-8.654746284293224
 21
-8.37371639163388
 31
0.0
  0
LINE
  5
F107B1
330
261
100
AcDbEntity
  8
Geo
100
AcDbLine
 10
-9.654746284293224
 20
-8.37371639163388
 30
0.0
 11
26.84525371570678
 21
-8.37371639163388
 31
0.0
  0
LINE
  5
F107B3
330
261
100
AcDbEntity
  8
Geo
100
AcDbLine
 10
26.84525371570678
 20
-8.37371639163388
 30
0.0
 11
27.34525371570678
 21
-7.873716391633879
 31
0.0
  0
LINE
  5
F107B5
330
261
100
AcDbEntity
  8
Geo
100
AcDbLine
 10
-29.15474628429321
 20
-2.373716391633889
 30
0.0
 11
-29.15474628429321
 21
-8.37371639163388
 31
0.0
  0
LINE
  5
F107B7
330
261
100
AcDbEntity
  8
Geo
100
AcDbLine
 10
-29.15474628429321
 20
-2.373716391633889
 30
0.0
 11
-29.15474628429321
 21
-8.37371639163388
 31
0.0
  0
LINE
  5
F107B9
330
261
100
AcDbEntity
  8
Geo
100
AcDbLine
 10
-16.65474628429322
 20
-2.373716391633889
 30
0.0
 11
-16.65474628429322
 21
-8.37371639163388
 31
0.0
  0
LINE
  5
F107BB
330
261
100
AcDbEntity
  8
Geo
100
AcDbLine
 10
-16.65474628429322
 20
-2.623716391633889
 30
0.0
 11
-16.65474628429322
 21
-8.123716391633879
 31
0.0
  0
LINE
  5
F107BD
330
261
100
AcDbEntity
  8
Geo
100
AcDbLine
 10
-8.654746284293224
 20
-2.623716391633889
 30
0.0
 11
-8.654746284293224
 21
-8.123716391633879
 31
0.0
  0
LINE
  5
F107BF
330
261
100
AcDbEntity
  8
Geo
100
AcDbLine
 10
-8.654746284293224
 20
-2.373716391633889
 30
0.0
 11
-8.654746284293224
 21
-8.123716391633879
 31
0.0
  0
LINE
  5
F107C1
330
261
100
AcDbEntity
  8
Geo
100
AcDbLine
 10
26.84525371570678
 20
-2.373716391633889
 30
0.0
 11
26.84525371570678
 21
-8.37371639163388
 31
0.0
  0
LINE
  5
F107C3
330
261
100
AcDbEntity
  8
Geo
100
AcDbLine
 10
27.34525371570678
 20
-2.873716391633889
 30
0.0
 11
27.34525371570678
 21
-7.873716391633879
 31
0.0
  0
TEXT
  5
F107FF
330
261
100
AcDbEntity
  8
Text
100
AcDbText
 10
-35.0906735751295
 20
-49.99827288428329
 30
0.0
 40
2.0
  1

100
AcDbText
  0
TEXT
  5
F1080B
330
261
100
AcDbEntity
  8
Text
100
AcDbText
 10
-75.0777202072539
 20
-58.15889464594129
 30
0.0
 40
2.0
  1

100
AcDbText
  0
TEXT
  5
F1080F
330
261
100
AcDbEntity
  8
Text
100
AcDbText
 10
-35.0906735751295
 20
-58.15889464594129
 30
0.0
 40
2.0
  1

100
AcDbText
  0
TEXT
  5
F10813
330
261
100
AcDbEntity
  8
Text
100
AcDbText
 10
-75.0777202072539
 20
-61.9671848013817
 30
0.0
 40
2.0
  1

100
AcDbText
  0
TEXT
  5
F10817
330
261
100
AcDbEntity
  8
Text
100
AcDbText
 10
-35.0906735751295
 20
-61.9671848013817
 30
0.0
 40
2.0
  1

100
AcDbText
  0
TEXT
  5
F10823
330
261
100
AcDbEntity
  8
Text
100
AcDbText
 10
-75.0777202072539
 20
-70.1278065630397
 30
0.0
 40
2.0
  1

100
AcDbText
  0
TEXT
  5
F10827
330
261
100
AcDbEntity
  8
Text
100
AcDbText
 10
-35.0906735751295
 20
-70.1278065630397
 30
0.0
 40
2.0
  1

100
AcDbText
  0
TEXT
  5
F10857
330
261
100
AcDbEntity
  8
Text
100
AcDbText
 10
29.3782383419689
 20
-63.0552677029361
 30
0.0
 40
2.0
  1

100
AcDbText
  0
LWPOLYLINE
  5
F10859
330
261
100
AcDbEntity
  8
Rahmen
100
AcDbPolyline
 90
        4
 70
     1
 43
0.0
 10
-134.650259067358
 20
99.8316062176166
 10
143.354922279793
 20
99.8316062176166
 10
143.354922279793
 20
-100.103626943005
 10
-134.650259067358
 20
-100.103626943005
  0
LWPOLYLINE
  5
F1085D
330
261
100
AcDbEntity
  8
Rahmen
100
AcDbPolyline
 90
        4
 70
     1
 43
0.0
 10
103.367875647668
 20
-97.11139896373062
 10
143.354922279793
 20
-97.11139896373062
 10
143.354922279793
 20
-100.103626943005
 10
103.367875647668
 20
-100.103626943005
  0
TEXT
  5
F1085F
330
261
100
AcDbEntity
  8
Text
100
AcDbText
 10
104.455958549223
 20
-99.11139896373061
 30
0.0
 40
1.5
  1
Ers. durch:
100
AcDbText
  0
LWPOLYLINE
  5
F10863
330
261
100
AcDbEntity
  8
Rahmen
100
AcDbPolyline
 90
        4
 70
     1
 43
0.0
 10
63.380829015544
 20
-97.11139896373062
 10
103.367875647668
 20
-97.11139896373062
 10
103.367875647668
 20
-100.103626943005
 10
63.380829015544
 20
-100.103626943005
  0
TEXT
  5
F10865
330
261
100
AcDbEntity
  8
Text
100
AcDbText
 10
64.46891191709839
 20
-99.11139896373061
 30
0.0
 40
1.5
  1
Ers. für:
100
AcDbText
  0
TEXT
  5
F10867
330
261
100
AcDbEntity
  8
Text
100
AcDbText
 10
91.39896373056991
 20
-100.471502590674
 30
0.0
 40
1.5
  1

100
AcDbText
  0
LWPOLYLINE
  5
F10869
330
261
100
AcDbEntity
  8
Rahmen
100
AcDbPolyline
 90
        4
 70
     1
 43
0.0
 10
130.025906735751
 20
-94.119170984456
 10
143.354922279793
 20
-94.119170984456
 10
143.354922279793
 20
-97.11139896373062
 10
130.025906735751
 20
-97.11139896373062
  0
TEXT
  5
F1086B
330
261
100
AcDbEntity
  8
Text
100
AcDbText
 10
131.113989637306
 20
-96.11917098445601
 30
0.0
 40
1.5
  1
Blätter
100
AcDbText
  0
TEXT
  5
F1086D
330
261
100
AcDbEntity
  8
Text
100
AcDbText
 10
141.178756476684
 20
-97.47927461139902
 30
0.0
 40
1.5
  1

100
AcDbText
  0
LWPOLYLINE
  5
F1086F
330
261
100
AcDbEntity
  8
Rahmen
100
AcDbPolyline
 90
        4
 70
     1
 43
0.0
 10
130.025906735751
 20
-91.12694300518128
 10
143.354922279793
 20
-91.12694300518128
 10
143.354922279793
 20
-94.119170984456
 10
130.025906735751
 20
-94.119170984456
  0
TEXT
  5
F10871
330
261
100
AcDbEntity
  8
Text
100
AcDbText
 10
131.113989637306
 20
-93.12694300518129
 30
0.0
 40
1.5
  1
Blatt
100
AcDbText
  0
TEXT
  5
F10873
330
261
100
AcDbEntity
  8
Text
100
AcDbText
 10
141.178756476684
 20
-94.4870466321243
 30
0.0
 40
1.5
  1

100
AcDbText
  0
LWPOLYLINE
  5
F10875
330
261
100
AcDbEntity
  8
Rahmen
100
AcDbPolyline
 90
        4
 70
     1
 43
0.0
 10
63.380829015544
 20
-91.12694300518128
 10
130.025906735751
 20
-91.12694300518128
 10
130.025906735751
 20
-97.11139896373062
 10
63.380829015544
 20
-97.11139896373062
  0
TEXT
  5
F10877
330
261
100
AcDbEntity
  8
Text
100
AcDbText
 10
64.46891191709839
 20
-93.12694300518129
 30
0.0
 40
1.5
  1
Datum:
100
AcDbText
  0
LWPOLYLINE
  5
F1087B
330
261
100
AcDbEntity
  8
Rahmen
100
AcDbPolyline
 90
        4
 70
     1
 43
0.0
 10
63.380829015544
 20
-85.14248704663208
 10
143.354922279793
 20
-85.14248704663208
 10
143.354922279793
 20
-91.12694300518128
 10
63.380829015544
 20
-91.12694300518128
  0
TEXT
  5
F1087D
330
261
100
AcDbEntity
  8
Text
100
AcDbText
 10
-208.09585492228
 20
103.0
 30
0.0
 40
1.5
  1

100
AcDbText
  0
TEXT
  5
F1087F
330
261
100
AcDbEntity
  8
Text
100
AcDbText
 10
88.9507772020725
 20
-89.01986183074269
 30
0.0
 40
2.5
  1
7535-060-R0,5
100
AcDbText
  0
LWPOLYLINE
  5
F10881
330
261
100
AcDbEntity
  8
Rahmen
100
AcDbPolyline
 90
        4
 70
     1
 43
0.0
 10
103.367875647668
 20
-79.1580310880829
 10
143.354922279793
 20
-79.1580310880829
 10
143.354922279793
 20
-85.14248704663208
 10
103.367875647668
 20
-85.14248704663208
  0
TEXT
  5
F10883
330
261
100
AcDbEntity
  8
Text
100
AcDbText
 10
-208.09585492228
 20
103.0
 30
0.0
 40
1.5
  1

100
AcDbText
  0
TEXT
  5
F10885
330
261
100
AcDbEntity
  8
Text
100
AcDbText
 10
-208.09585492228
 20
103.0
 30
0.0
 40
1.5
  1

100
AcDbText
  0
LWPOLYLINE
  5
F10887
330
261
100
AcDbEntity
  8
Rahmen
100
AcDbPolyline
 90
        4
 70
     1
 43
0.0
 10
63.380829015544
 20
-79.1580310880829
 10
103.367875647668
 20
-79.1580310880829
 10
103.367875647668
 20
-85.14248704663208
 10
63.380829015544
 20
-85.14248704663208
  0
TEXT
  5
F10889
330
261
100
AcDbEntity
  8
Text
100
AcDbText
 10
64.46891191709839
 20
-81.15803108808291
 30
0.0
 40
1.5
  1
Werkstoff:
100
AcDbText
  0
LWPOLYLINE
  5
F1088D
330
261
100
AcDbEntity
  8
Rahmen
100
AcDbPolyline
 90
        4
 70
     1
 43
0.0
 10
103.367875647668
 20
-76.16580310880831
 10
143.354922279793
 20
-76.16580310880831
 10
143.354922279793
 20
-79.1580310880829
 10
103.367875647668
 20
-79.1580310880829
  0
TEXT
  5
F1088F
330
261
100
AcDbEntity
  8
Text
100
AcDbText
 10
-208.09585492228
 20
103.0
 30
0.0
 40
1.5
  1

100
AcDbText
  0
LWPOLYLINE
  5
F10893
330
261
100
AcDbEntity
  8
Rahmen
100
AcDbPolyline
 90
        4
 70
     1
 43
0.0
 10
63.380829015544
 20
-76.16580310880831
 10
103.367875647668
 20
-76.16580310880831
 10
103.367875647668
 20
-79.1580310880829
 10
63.380829015544
 20
-79.1580310880829
  0
TEXT
  5
F10895
330
261
100
AcDbEntity
  8
Text
100
AcDbText
 10
64.46891191709839
 20
-78.1658031088083
 30
0.0
 40
1.5
  1
Maßstab:
100
AcDbText
  0
LINE
  5
F10970
330
261
100
AcDbEntity
  8
0
100
AcDbLine
 10
-9.654746284293224
 20
-2.373716391633889
 30
0.0
 11
-9.654746284293231
 21
-8.37371639163388
 31
0.0
  0
VIEWPORT
  5
294
102
{ACAD_XDICTIONARY
360
F10A4B
102
}
330
25D
100
AcDbEntity
 67
     1
  8
0
 60
     1
100
AcDbViewport
 10
0.0
 20
0.0
 30
0.0
 40
10.0
 41
10.0
 68
    -1
 69
     1
 12
0.0
 22
0.0
 13
0.0
 23
0.0
 14
1.0
 24
1.0
 15
0.0
 25
0.0
 16
0.0
 26
0.0
 36
1.0
 17
0.0
 27
0.0
 37
0.0
 42
0.0
 43
0.0
 44
0.0
 45
10.0
 50
0.0
 51
0.0000000000007958
 72
   100
 90
    32800
  1

281
     0
 71
     0
 74
     0
110
0.0
120
0.0
130
0.0
111
1.0
121
0.0
131
0.0
112
0.0
122
1.0
132
0.0
 79
     0
146
0.0
1001
VD_INVISIBLE_NOT_FOR_READ
1000
VD_INVISIBLE_NOT_FOR_READ
1001
GENIUS_GENSCREG_15
1000
PF
1040
1.0
1000
DF
1040
1.0
1000
MIN
1011
-5.0
1021
-5.0
1031
0.0
1000
MAX
1011
5.0
1021
5.0
1031
0.0
1000
FLAGS
1070
     4
1001
GENIUS_GENOBJ-N-SDF_13
1002
{
1000
OWNER
1000
GEN
1002
}
1001
GENIUS_GENODEF_13
1002
{
1000
HIER
1070
     0
1002
}
1002
{
1000
MANEDIT
1070
     0
1002
}
1002
{
1000
NOSEL
1070
     0
1002
}
1002
{
1000
BEHIND
1070
     0
1002
}
1002
{
1000
OTHER
1070
     0
1002
}
1002
{
1000
REACTOR
1002
}
  0
VIEWPORT
  5
295
102
{ACAD_XDICTIONARY
360
F10A4D
102
}
330
25D
100
AcDbEntity
 67
     1
  8
0
 60
     1
100
AcDbViewport
 10
0.0
 20
0.0
 30
0.0
 40
10.0
 41
10.0
 68
     0
 69
     2
 12
0.0
 22
0.0
 13
0.0
 23
0.0
 14
1.0
 24
1.0
 15
0.0
 25
0.0
 16
0.0
 26
0.0
 36
1.0
 17
0.0
 27
0.0
 37
0.0
 42
0.0
 43
0.0
 44
0.0
 45
10.0
 50
0.0
 51
0.0000000000007958
 72
   100
 90
   163872
  1

281
     0
 71
     0
 74
     0
110
0.0
120
0.0
130
0.0
111
1.0
121
0.0
131
0.0
112
0.0
122
1.0
132
0.0
 79
     0
146
0.0
1001
VD_INVISIBLE_NOT_FOR_READ
1000
VD_INVISIBLE_NOT_FOR_READ
1001
GENIUS_GENSCREG_15
1000
PF
1040
1.0
1000
DF
1040
1.0
1000
MIN
1011
-5.0
1021
-5.0
1031
0.0
1000
MAX
1011
5.0
1021
5.0
1031
0.0
1000
FLAGS
1070
     4
1001
GENIUS_GENODEF_13
1002
{
1000
HIER
1070
     0
1002
}
1002
{
1000
MANEDIT
1070
     0
1002
}
1002
{
1000
NOSEL
1070
     0
1002
}
1002
{
1000
BEHIND
1070
     0
1002
}
1002
{
1000
OTHER
1070
     0
1002
}
1002
{
1000
REACTOR
1002
}
1001
GENIUS_GENOBJ-N-SDF_13
1002
{
1000
OWNER
1000
GEN
1002
}
  0
ENDSEC
  0
SECTION
  2
OBJECTS
  0
DICTIONARY
  5
13
330
0
100
AcDbDictionary
281
     1
  3
ACAD_COLOR
350
FA7
  3
ACAD_GROUP
350
14
  3
ACAD_LAYOUT
350
FCF
  3
ACAD_MATERIAL
350
F7A
  3
ACAD_MLEADERSTYLE
350
FCD
  3
ACAD_MLINESTYLE
350
16
  3
ACAD_PLOTSETTINGS
350
17
  3
ACAD_PLOTSTYLENAME
350
18
  3
ACAD_SCALELIST
350
FAB
  3
ACAD_TABLESTYLE
350
FA8
  3
ACAD_VISUALSTYLE
350
F93
  3
ACDB_RECOMPOSE_DATA
350
F10A49
  3
AcDbVariableDictionary
350
F10A40
  3
AcmDictionary
350
F108EE
  3
AMG
350
F108A2
  3
AMGSNAPSETTINGS
350
F1092F
  3
DWGPROPS
350
F10A4A
  0
DICTIONARY
  5
F10A36
330
252
100
AcDbDictionary
280
     1
281
     1
  3
ADSK_XREC_LAYER_RECONCILED
360
F10A37
  0
DICTIONARY
  5
F10A38
330
23F
100
AcDbDictionary
280
     1
281
     1
  3
ADSK_XREC_LAYER_RECONCILED
360
F10A39
  0
DICTIONARY
  5
F10A3A
330
240
100
AcDbDictionary
280
     1
281
     1
  3
ADSK_XREC_LAYER_RECONCILED
360
F10A3B
  0
DICTIONARY
  5
F10A3C
330
241
100
AcDbDictionary
280
     1
281
     1
  3
ADSK_XREC_LAYER_RECONCILED
360
F10A3D
  0
DICTIONARY
  5
F10A3E
330
57E
100
AcDbDictionary
280
     1
281
     1
  3
ADSK_XREC_LAYER_RECONCILED
360
F10A3F
  0
DICTIONARY
  5
F10A4F
330
296
100
AcDbDictionary
280
     1
281
     1
  3
ACAD_XREC_ROUNDTRIP
360
F10A50
  0
DICTIONARY
  5
F10A51
330
297
100
AcDbDictionary
280
     1
281
     1
  3
ACAD_XREC_ROUNDTRIP
360
F10A52
  0
DICTIONARY
  5
F10A4B
330
294
100
AcDbDictionary
280
     1
281
     1
  3
ACAD_XREC_ROUNDTRIP
360
F10A4C
  0
DICTIONARY
  5
F10A4D
330
295
100
AcDbDictionary
280
     1
281
     1
  3
ACAD_XREC_ROUNDTRIP
360
F10A4E
  0
DICTIONARY
  5
FA7
102
{ACAD_REACTORS
330
13
102
}
330
13
100
AcDbDictionary
281
     1
  0
DICTIONARY
  5
14
330
13
100
AcDbDictionary
281
     1
  0
DICTIONARY
  5
FCF
102
{ACAD_REACTORS
330
13
102
}
330
13
100
AcDbDictionary
281
     1
  3
Layout1
350
FD1
  3
Model
350
FD0
  0
DICTIONARY
  5
F7A
102
{ACAD_REACTORS
330
13
102
}
330
13
100
AcDbDictionary
281
     1
  3
ByBlock
350
F83
  3
ByLayer
350
F7B
  3
Global
350
F8B
  0
DICTIONARY
  5
FCD
102
{ACAD_REACTORS
330
13
102
}
330
13
100
AcDbDictionary
281
     1
  3
Standard
350
FCE
  0
DICTIONARY
  5
16
330
13
100
AcDbDictionary
281
     1
  3
Standard
350
FAA
  0
DICTIONARY
  5
17
102
{ACAD_REACTORS
330
13
102
}
330
13
100
AcDbDictionary
281
     1
  0
ACDBDICTIONARYWDFLT
  5
18
102
{ACAD_REACTORS
330
13
102
}
330
13
100
AcDbDictionary
281
     1
  3
Normal
350
19
100
AcDbDictionaryWithDefault
340
19
  0
DICTIONARY
  5
FAB
102
{ACAD_REACTORS
330
13
102
}
330
13
100
AcDbDictionary
281
     1
  3
A0
350
FAC
  3
A1
350
FAD
  3
A2
350
FAE
  3
A3
350
FAF
  3
A4
350
FB0
  3
A5
350
FB1
  3
A6
350
FB2
  3
A7
350
FB3
  3
A8
350
FB4
  3
A9
350
FB5
  3
B0
350
FB6
  3
B1
350
FB7
  3
B2
350
FB8
  3
B3
350
FB9
  3
B4
350
FBA
  3
B5
350
FBB
  3
B6
350
FBC
  3
B7
350
FBD
  3
B8
350
FBE
  3
B9
350
FBF
  3
C0
350
FC0
  3
C1
350
FC1
  3
C2
350
FC2
  3
C3
350
FC3
  3
C4
350
FC4
  3
C5
350
FC5
  3
C6
350
FC6
  3
C7
350
FC7
  3
C8
350
FC8
  3
C9
350
FC9
  3
D0
350
FCA
  3
D1
350
FCB
  3
D2
350
FCC
  0
DICTIONARY
  5
FA8
102
{ACAD_REACTORS
330
13
102
}
330
13
100
AcDbDictionary
281
     1
  3
Standard
350
FA9
  0
DICTIONARY
  5
F93
102
{ACAD_REACTORS
330
13
102
}
330
13
100
AcDbDictionary
281
     1
  3
2dWireframe
350
F99
  3
3D Hidden
350
F9B
  3
3dWireframe
350
F9A
  3
Basic
350
F98
  3
Brighten
350
F9F
  3
ColorChange
350
FA3
  3
Conceptual
350
F9C
  3
Dim
350
F9E
  3
EdgeColorOff
350
FA6
  3
Facepattern
350
FA2
  3
Flat
350
F94
  3
FlatWithEdges
350
F95
  3
Gouraud
350
F96
  3
GouraudWithEdges
350
F97
  3
Hidden
350
F1089A
  3
JitterOff
350
FA4
  3
Linepattern
350
FA1
  3
OverhangOff
350
FA5
  3
Realistic
350
F9D
  3
Shaded
350
F1089F
  3
Shaded with edges
350
F1089E
  3
Shades of Gray
350
F1089B
  3
Sketchy
350
F1089C
  3
Thicken
350
FA0
  3
Wireframe
350
F10899
  3
X-Ray
350
F1089D
  0
XRECORD
  5
F10A49
102
{ACAD_REACTORS
330
13
102
}
330
13
100
AcDbXrecord
280
     1
 90
        1
330
FA9
  0
DICTIONARY
  5
F10A40
102
{ACAD_REACTORS
330
13
102
}
330
13
100
AcDbDictionary
281
     1
  3
CANNOSCALE
350
F10A43
  3
CMLEADERSTYLE
350
F10A42
  3
CTABLESTYLE
350
F10A41
  3
DIMASSOC
350
F10A46
  3
INDEXCTL
350
F10A45
  3
SORTENTS
350
F10A44
  3
XCLIPFRAME
350
F10A47
  0
DICTIONARY
  5
F108EE
102
{ACAD_REACTORS
330
13
102
}
330
13
100
AcDbDictionary
281
     1
  3
AcmStdDictionary
350
F108F9
  0
DICTIONARY
  5
F108A2
102
{ACAD_REACTORS
330
13
102
}
330
13
100
AcDbDictionary
281
     1
  0
DICTIONARY
  5
F1092F
102
{ACAD_REACTORS
330
13
102
}
330
13
100
AcDbDictionary
281
     1
  0
XRECORD
  5
F10A4A
102
{ACAD_REACTORS
330
13
102
}
330
13
100
AcDbXrecord
280
     1
  1
DWGPROPS COOKIE
  2

  3

  4

  6

  7

  8
Steigner
  9

300
=
301
=
302
=
303
=
304
=
305
=
306
=
307
=
308
=
309
=
 40
0.0014673842592593
 41
2457073.584947754
 42
2457073.586413299
  1

 90
        0
  0
XRECORD
  5
F10A37
102
{ACAD_REACTORS
330
F10A36
102
}
330
F10A36
100
AcDbXrecord
280
     1
290
     1
  0
XRECORD
  5
F10A39
102
{ACAD_REACTORS
330
F10A38
102
}
330
F10A38
100
AcDbXrecord
280
     1
290
     1
  0
XRECORD
  5
F10A3B
102
{ACAD_REACTORS
330
F10A3A
102
}
330
F10A3A
100
AcDbXrecord
280
     1
290
     1
  0
XRECORD
  5
F10A3D
102
{ACAD_REACTORS
330
F10A3C
102
}
330
F10A3C
100
AcDbXrecord
280
     1
290
     1
  0
XRECORD
  5
F10A3F
102
{ACAD_REACTORS
330
F10A3E
102
}
330
F10A3E
100
AcDbXrecord
280
     1
290
     1
  0
XRECORD
  5
F10A50
102
{ACAD_REACTORS
330
F10A4F
102
}
330
F10A4F
100
AcDbXrecord
280
     1
102
SHADEPLOT
 70
     0
  0
XRECORD
  5
F10A52
102
{ACAD_REACTORS
330
F10A51
102
}
330
F10A51
100
AcDbXrecord
280
     1
102
SHADEPLOT
 70
     0
  0
XRECORD
  5
F10A4C
102
{ACAD_REACTORS
330
F10A4B
102
}
330
F10A4B
100
AcDbXrecord
280
     1
102
SHADEPLOT
 70
     0
  0
XRECORD
  5
F10A4E
102
{ACAD_REACTORS
330
F10A4D
102
}
330
F10A4D
100
AcDbXrecord
280
     1
102
SHADEPLOT
 70
     0
  0
LAYOUT
  5
FD1
102
{ACAD_XDICTIONARY
360
F10A7C
102
}
102
{ACAD_REACTORS
330
FCF
102
}
330
FCF
100
AcDbPlotSettings
  1

  2
Microsoft XPS Document Writer
  4

  6

 40
0.0
 41
0.0
 42
0.0
 43
0.0
 44
0.0
 45
0.0
 46
0.0
 47
0.0
 48
0.0
 49
0.0
140
0.0
141
0.0
142
1.0
143
1.0
 70
   688
 72
     0
 73
     0
 74
     5
  7

 75
    16
147
1.0
148
0.0
149
0.0
100
AcDbLayout
  1
Layout1
 70
     1
 71
     1
 10
0.0
 20
0.0
 11
12.0
 21
9.0
 12
0.0
 22
0.0
 32
0.0
 14
1.000000000000000E+20
 24
1.000000000000000E+20
 34
1.000000000000000E+20
 15
-1.000000000000000E+20
 25
-1.000000000000000E+20
 35
-1.000000000000000E+20
146
0.0
 13
0.0
 23
0.0
 33
0.0
 16
1.0
 26
0.0
 36
0.0
 17
0.0
 27
1.0
 37
0.0
 76
     0
330
25D
  0
LAYOUT
  5
FD0
102
{ACAD_XDICTIONARY
360
F10A7A
102
}
102
{ACAD_REACTORS
330
FCF
102
}
330
FCF
100
AcDbPlotSettings
  1

  2
Microsoft XPS Document Writer
  4

  6

 40
0.0
 41
0.0
 42
0.0
 43
0.0
 44
0.0
 45
0.0
 46
0.0
 47
0.0
 48
0.0
 49
0.0
140
0.0
141
0.0
142
1.0
143
1.0
 70
  1712
 72
     0
 73
     0
 74
     0
  7

 75
     0
147
1.0
148
0.0
149
0.0
100
AcDbLayout
  1
Model
 70
     1
 71
     0
 10
0.0
 20
0.0
 11
12.0
 21
9.0
 12
0.0
 22
0.0
 32
0.0
 14
0.0
 24
0.0
 34
0.0
 15
0.0
 25
0.0
 35
0.0
146
0.0
 13
0.0
 23
0.0
 33
0.0
 16
1.0
 26
0.0
 36
0.0
 17
0.0
 27
1.0
 37
0.0
 76
     0
330
261
331
26B
  0
MATERIAL
  5
F83
102
{ACAD_XDICTIONARY
360
F84
102
}
102
{ACAD_REACTORS
330
F7A
102
}
330
F7A
100
AcDbMaterial
  1
ByBlock
 72
     0
 43
0.0208333333333333
 43
0.0
 43
0.0
 43
0.0
 43
0.0
 43
0.0208333333333333
 43
0.0
 43
0.0
 43
0.0
 43
0.0
 43
1.0
 43
0.0
 43
0.0
 43
0.0
 43
0.0
 43
1.0
 77
     0
 47
0.0208333333333333
 47
0.0
 47
0.0
 47
0.0
 47
0.0
 47
0.0208333333333333
 47
0.0
 47
0.0
 47
0.0
 47
0.0
 47
1.0
 47
0.0
 47
0.0
 47
0.0
 47
0.0
 47
1.0
171
     0
 49
0.0208333333333333
 49
0.0
 49
0.0
 49
0.0
 49
0.0
 49
0.0208333333333333
 49
0.0
 49
0.0
 49
0.0
 49
0.0
 49
1.0
 49
0.0
 49
0.0
 49
0.0
 49
0.0
 49
1.0
175
     0
142
0.0208333333333333
142
0.0
142
0.0
142
0.0
142
0.0
142
0.0208333333333333
142
0.0
142
0.0
142
0.0
142
0.0
142
1.0
142
0.0
142
0.0
142
0.0
142
0.0
142
1.0
179
     0
144
0.0208333333333333
144
0.0
144
0.0
144
0.0
144
0.0
144
0.0208333333333333
144
0.0
144
0.0
144
0.0
144
0.0
144
1.0
144
0.0
144
0.0
144
0.0
144
0.0
144
1.0
147
0.0208333333333333
147
0.0
147
0.0
147
0.0
147
0.0
147
0.0208333333333333
147
0.0
147
0.0
147
0.0
147
0.0
147
1.0
147
0.0
147
0.0
147
0.0
147
0.0
147
1.0
  0
MATERIAL
  5
F7B
102
{ACAD_XDICTIONARY
360
F7C
102
}
102
{ACAD_REACTORS
330
F7A
102
}
330
F7A
100
AcDbMaterial
  1
ByLayer
 72
     0
 43
0.0208333333333333
 43
0.0
 43
0.0
 43
0.0
 43
0.0
 43
0.0208333333333333
 43
0.0
 43
0.0
 43
0.0
 43
0.0
 43
1.0
 43
0.0
 43
0.0
 43
0.0
 43
0.0
 43
1.0
 77
     0
 47
0.0208333333333333
 47
0.0
 47
0.0
 47
0.0
 47
0.0
 47
0.0208333333333333
 47
0.0
 47
0.0
 47
0.0
 47
0.0
 47
1.0
 47
0.0
 47
0.0
 47
0.0
 47
0.0
 47
1.0
171
     0
 49
0.0208333333333333
 49
0.0
 49
0.0
 49
0.0
 49
0.0
 49
0.0208333333333333
 49
0.0
 49
0.0
 49
0.0
 49
0.0
 49
1.0
 49
0.0
 49
0.0
 49
0.0
 49
0.0
 49
1.0
175
     0
142
0.0208333333333333
142
0.0
142
0.0
142
0.0
142
0.0
142
0.0208333333333333
142
0.0
142
0.0
142
0.0
142
0.0
142
1.0
142
0.0
142
0.0
142
0.0
142
0.0
142
1.0
179
     0
144
0.0208333333333333
144
0.0
144
0.0
144
0.0
144
0.0
144
0.0208333333333333
144
0.0
144
0.0
144
0.0
144
0.0
144
1.0
144
0.0
144
0.0
144
0.0
144
0.0
144
1.0
147
0.0208333333333333
147
0.0
147
0.0
147
0.0
147
0.0
147
0.0208333333333333
147
0.0
147
0.0
147
0.0
147
0.0
147
1.0
147
0.0
147
0.0
147
0.0
147
0.0
147
1.0
  0
MATERIAL
  5
F8B
102
{ACAD_XDICTIONARY
360
F8C
102
}
102
{ACAD_REACTORS
330
F7A
102
}
330
F7A
100
AcDbMaterial
  1
Global
 72
     0
 43
0.0208333333333333
 43
0.0
 43
0.0
 43
0.0
 43
0.0
 43
0.0208333333333333
 43
0.0
 43
0.0
 43
0.0
 43
0.0
 43
1.0
 43
0.0
 43
0.0
 43
0.0
 43
0.0
 43
1.0
 77
     0
 47
0.0208333333333333
 47
0.0
 47
0.0
 47
0.0
 47
0.0
 47
0.0208333333333333
 47
0.0
 47
0.0
 47
0.0
 47
0.0
 47
1.0
 47
0.0
 47
0.0
 47
0.0
 47
0.0
 47
1.0
171
     0
 49
0.0208333333333333
 49
0.0
 49
0.0
 49
0.0
 49
0.0
 49
0.0208333333333333
 49
0.0
 49
0.0
 49
0.0
 49
0.0
 49
1.0
 49
0.0
 49
0.0
 49
0.0
 49
0.0
 49
1.0
175
     0
142
0.0208333333333333
142
0.0
142
0.0
142
0.0
142
0.0
142
0.0208333333333333
142
0.0
142
0.0
142
0.0
142
0.0
142
1.0
142
0.0
142
0.0
142
0.0
142
0.0
142
1.0
179
     0
144
0.0208333333333333
144
0.0
144
0.0
144
0.0
144
0.0
144
0.0208333333333333
144
0.0
144
0.0
144
0.0
144
0.0
144
1.0
144
0.0
144
0.0
144
0.0
144
0.0
144
1.0
147
0.0208333333333333
147
0.0
147
0.0
147
0.0
147
0.0
147
0.0208333333333333
147
0.0
147
0.0
147
0.0
147
0.0
147
1.0
147
0.0
147
0.0
147
0.0
147
0.0
147
1.0
  0
MLEADERSTYLE
  5
FCE
102
{ACAD_REACTORS
330
FCD
102
}
330
FCD
100
AcDbMLeaderStyle
170
     2
171
     1
172
     0
 90
        2
 40
0.0
 41
0.0
173
     1
 91
-1056964608
340
256
 92
       -2
290
     1
 42
0.09
291
     1
 43
0.36
  3
Standard
 44
0.18
300

342
253
174
     1
178
     6
175
     1
176
     0
 93
-1056964608
 45
0.18
292
     0
297
     0
 46
0.18
 94
-1056964608
 47
1.0
 49
1.0
140
1.0
293
     1
141
0.0
294
     1
177
     0
142
1.0
295
     0
296
     0
143
0.125
1001
ACAD_MLEADERVER
1070
     2
  0
MLINESTYLE
  5
FAA
102
{ACAD_REACTORS
330
16
102
}
330
16
100
AcDbMlineStyle
  2
STANDARD
 70
     0
  3

 62
   256
 51
90.0
 52
90.0
 71
     2
 49
0.5
 62
   256
  6
BYLAYER
 49
-0.5
 62
   256
  6
BYLAYER
  0
ACDBPLACEHOLDER
  5
19
102
{ACAD_REACTORS
330
18
102
}
330
18
  0
SCALE
  5
FAC
102
{ACAD_REACTORS
330
FAB
102
}
330
FAB
100
AcDbScale
 70
     0
300
1:1
140
1.0
141
1.0
290
     1
  0
SCALE
  5
FAD
102
{ACAD_REACTORS
330
FAB
102
}
330
FAB
100
AcDbScale
 70
     0
300
1:2
140
1.0
141
2.0
290
     0
  0
SCALE
  5
FAE
102
{ACAD_REACTORS
330
FAB
102
}
330
FAB
100
AcDbScale
 70
     0
300
1:4
140
1.0
141
4.0
290
     0
  0
SCALE
  5
FAF
102
{ACAD_REACTORS
330
FAB
102
}
330
FAB
100
AcDbScale
 70
     0
300
1:5
140
1.0
141
5.0
290
     0
  0
SCALE
  5
FB0
102
{ACAD_REACTORS
330
FAB
102
}
330
FAB
100
AcDbScale
 70
     0
300
1:8
140
1.0
141
8.0
290
     0
  0
SCALE
  5
FB1
102
{ACAD_REACTORS
330
FAB
102
}
330
FAB
100
AcDbScale
 70
     0
300
1:10
140
1.0
141
10.0
290
     0
  0
SCALE
  5
FB2
102
{ACAD_REACTORS
330
FAB
102
}
330
FAB
100
AcDbScale
 70
     0
300
1:16
140
1.0
141
16.0
290
     0
  0
SCALE
  5
FB3
102
{ACAD_REACTORS
330
FAB
102
}
330
FAB
100
AcDbScale
 70
     0
300
1:20
140
1.0
141
20.0
290
     0
  0
SCALE
  5
FB4
102
{ACAD_REACTORS
330
FAB
102
}
330
FAB
100
AcDbScale
 70
     0
300
1:30
140
1.0
141
30.0
290
     0
  0
SCALE
  5
FB5
102
{ACAD_REACTORS
330
FAB
102
}
330
FAB
100
AcDbScale
 70
     0
300
1:40
140
1.0
141
40.0
290
     0
  0
SCALE
  5
FB6
102
{ACAD_REACTORS
330
FAB
102
}
330
FAB
100
AcDbScale
 70
     0
300
1:50
140
1.0
141
50.0
290
     0
  0
SCALE
  5
FB7
102
{ACAD_REACTORS
330
FAB
102
}
330
FAB
100
AcDbScale
 70
     0
300
1:100
140
1.0
141
100.0
290
     0
  0
SCALE
  5
FB8
102
{ACAD_REACTORS
330
FAB
102
}
330
FAB
100
AcDbScale
 70
     0
300
2:1
140
2.0
141
1.0
290
     0
  0
SCALE
  5
FB9
102
{ACAD_REACTORS
330
FAB
102
}
330
FAB
100
AcDbScale
 70
     0
300
4:1
140
4.0
141
1.0
290
     0
  0
SCALE
  5
FBA
102
{ACAD_REACTORS
330
FAB
102
}
330
FAB
100
AcDbScale
 70
     0
300
8:1
140
8.0
141
1.0
290
     0
  0
SCALE
  5
FBB
102
{ACAD_REACTORS
330
FAB
102
}
330
FAB
100
AcDbScale
 70
     0
300
10:1
140
10.0
141
1.0
290
     0
  0
SCALE
  5
FBC
102
{ACAD_REACTORS
330
FAB
102
}
330
FAB
100
AcDbScale
 70
     0
300
100:1
140
100.0
141
1.0
290
     0
  0
SCALE
  5
FBD
102
{ACAD_REACTORS
330
FAB
102
}
330
FAB
100
AcDbScale
 70
     0
300
1/128" = 1'-0"
140
0.0078125
141
12.0
290
     0
  0
SCALE
  5
FBE
102
{ACAD_REACTORS
330
FAB
102
}
330
FAB
100
AcDbScale
 70
     0
300
1/64" = 1'-0"
140
0.015625
141
12.0
290
     0
  0
SCALE
  5
FBF
102
{ACAD_REACTORS
330
FAB
102
}
330
FAB
100
AcDbScale
 70
     0
300
1/32" = 1'-0"
140
0.03125
141
12.0
290
     0
  0
SCALE
  5
FC0
102
{ACAD_REACTORS
330
FAB
102
}
330
FAB
100
AcDbScale
 70
     0
300
1/16" = 1'-0"
140
0.0625
141
12.0
290
     0
  0
SCALE
  5
FC1
102
{ACAD_REACTORS
330
FAB
102
}
330
FAB
100
AcDbScale
 70
     0
300
3/32" = 1'-0"
140
0.09375
141
12.0
290
     0
  0
SCALE
  5
FC2
102
{ACAD_REACTORS
330
FAB
102
}
330
FAB
100
AcDbScale
 70
     0
300
1/8" = 1'-0"
140
0.125
141
12.0
290
     0
  0
SCALE
  5
FC3
102
{ACAD_REACTORS
330
FAB
102
}
330
FAB
100
AcDbScale
 70
     0
300
3/16" = 1'-0"
140
0.1875
141
12.0
290
     0
  0
SCALE
  5
FC4
102
{ACAD_REACTORS
330
FAB
102
}
330
FAB
100
AcDbScale
 70
     0
300
1/4" = 1'-0"
140
0.25
141
12.0
290
     0
  0
SCALE
  5
FC5
102
{ACAD_REACTORS
330
FAB
102
}
330
FAB
100
AcDbScale
 70
     0
300
3/8" = 1'-0"
140
0.375
141
12.0
290
     0
  0
SCALE
  5
FC6
102
{ACAD_REACTORS
330
FAB
102
}
330
FAB
100
AcDbScale
 70
     0
300
1/2" = 1'-0"
140
0.5
141
12.0
290
     0
  0
SCALE
  5
FC7
102
{ACAD_REACTORS
330
FAB
102
}
330
FAB
100
AcDbScale
 70
     0
300
3/4" = 1'-0"
140
0.75
141
12.0
290
     0
  0
SCALE
  5
FC8
102
{ACAD_REACTORS
330
FAB
102
}
330
FAB
100
AcDbScale
 70
     0
300
1" = 1'-0"
140
1.0
141
12.0
290
     0
  0
SCALE
  5
FC9
102
{ACAD_REACTORS
330
FAB
102
}
330
FAB
100
AcDbScale
 70
     0
300
1-1/2" = 1'-0"
140
1.5
141
12.0
290
     0
  0
SCALE
  5
FCA
102
{ACAD_REACTORS
330
FAB
102
}
330
FAB
100
AcDbScale
 70
     0
300
3" = 1'-0"
140
3.0
141
12.0
290
     0
  0
SCALE
  5
FCB
102
{ACAD_REACTORS
330
FAB
102
}
330
FAB
100
AcDbScale
 70
     0
300
6" = 1'-0"
140
6.0
141
12.0
290
     0
  0
SCALE
  5
FCC
102
{ACAD_REACTORS
330
FAB
102
}
330
FAB
100
AcDbScale
 70
     0
300
1'-0" = 1'-0"
140
12.0
141
12.0
290
     0
  0
TABLESTYLE
  5
FA9
102
{ACAD_XDICTIONARY
360
FF8
102
}
102
{ACAD_REACTORS
330
FA8
102
}
330
FA8
100
AcDbTableStyle
  3
Standard
 70
     0
 71
     0
 40
0.06
 41
0.06
280
     0
281
     0
  7
Standard
140
0.18
170
     2
 62
     0
 63
     7
283
     0
274
    -2
284
     1
 64
     0
275
    -2
285
     1
 65
     0
276
    -2
286
     1
 66
     0
277
    -2
287
     1
 67
     0
278
    -2
288
     1
 68
     0
279
    -2
289
     1
 69
     0
  7
Standard
140
0.25
170
     5
 62
     0
 63
     7
283
     0
274
    -2
284
     1
 64
     0
275
    -2
285
     1
 65
     0
276
    -2
286
     1
 66
     0
277
    -2
287
     1
 67
     0
278
    -2
288
     1
 68
     0
279
    -2
289
     1
 69
     0
  7
Standard
140
0.18
170
     5
 62
     0
 63
     7
283
     0
274
    -2
284
     1
 64
     0
275
    -2
285
     1
 65
     0
276
    -2
286
     1
 66
     0
277
    -2
287
     1
 67
     0
278
    -2
288
     1
 68
     0
279
    -2
289
     1
 69
     0
  0
VISUALSTYLE
  5
F99
102
{ACAD_XDICTIONARY
360
F10A5D
102
}
102
{ACAD_REACTORS
330
F93
102
}
330
F93
100
AcDbVisualStyle
  2

 70
     4
 71
     0
 72
     2
 73
     0
 90
        0
 40
-0.6
 41
-30.0
 62
     5
 63
     7
 74
     1
 91
        4
 64
     7
 65
   257
 75
     1
175
     1
 42
1.0
 92
        0
 66
   257
 43
1.0
 76
     1
 77
     6
 78
     2
 67
     7
 79
     5
170
     0
171
     0
290
     0
174
     0
 93
        1
 44
0.0
173
     0
291
     0
 45
0.0
1001
ACAD
1000
AcDbSavedByObjectVersion
1070
     0
  0
VISUALSTYLE
  5
F9B
102
{ACAD_XDICTIONARY
360
F10A61
102
}
102
{ACAD_REACTORS
330
F93
102
}
330
F93
100
AcDbVisualStyle
  2

 70
     6
 71
     1
 72
     2
 73
     2
 90
        0
 40
-0.6
 41
-30.0
 62
     5
 63
     7
 74
     2
 91
        2
 64
     7
 65
   257
 75
     2
175
     1
 42
179.0
 92
        0
 66
   257
 43
1.0
 76
     1
 77
     6
 78
     2
 67
     7
 79
     3
170
     0
171
     0
290
     0
174
     0
 93
        1
 44
0.0
173
     0
291
     0
 45
0.0
1001
ACAD
1000
AcDbSavedByObjectVersion
1070
     0
  0
VISUALSTYLE
  5
F9A
102
{ACAD_XDICTIONARY
360
F10A5F
102
}
102
{ACAD_REACTORS
330
F93
102
}
330
F93
100
AcDbVisualStyle
  2

 70
     5
 71
     0
 72
     2
 73
     0
 90
        0
 40
-0.6
 41
-30.0
 62
     5
 63
     7
 74
     1
 91
        4
 64
     7
 65
   257
 75
     1
175
     1
 42
1.0
 92
        0
 66
   257
 43
1.0
 76
     1
 77
     6
 78
     2
 67
     7
 79
     5
170
     0
171
     0
290
     0
174
     0
 93
        1
 44
0.0
173
     0
291
     0
 45
0.0
1001
ACAD
1000
AcDbSavedByObjectVersion
1070
     0
  0
VISUALSTYLE
  5
F98
102
{ACAD_XDICTIONARY
360
F10A5B
102
}
102
{ACAD_REACTORS
330
F93
102
}
330
F93
100
AcDbVisualStyle
  2

 70
     7
 71
     1
 72
     0
 73
     1
 90
        0
 40
-0.6
 41
-30.0
 62
     5
 63
     7
 74
     0
 91
        4
 64
     7
 65
   257
 75
     1
175
     1
 42
1.0
 92
        8
 66
     7
 43
1.0
 76
     1
 77
     6
 78
     2
 67
     7
 79
     5
170
     0
171
     0
290
     0
174
     0
 93
        1
 44
0.0
173
     0
291
     1
 45
0.0
1001
ACAD
1000
AcDbSavedByObjectVersion
1070
     0
  0
VISUALSTYLE
  5
F9F
102
{ACAD_XDICTIONARY
360
F10A69
102
}
102
{ACAD_REACTORS
330
F93
102
}
330
F93
100
AcDbVisualStyle
  2

 70
    12
 71
     2
 72
     2
 73
     0
 90
        0
 40
-0.6
 41
-30.0
 62
     5
 63
     7
 74
     1
 91
        4
 64
     7
 65
   257
 75
     1
175
     1
 42
1.0
 92
        8
 66
     7
 43
1.0
 76
     1
 77
     6
 78
     2
 67
     7
 79
     5
170
     0
171
     0
290
     0
174
     0
 93
        1
 44
50.0
173
     0
291
     1
 45
0.0
1001
ACAD
1000
AcDbSavedByObjectVersion
1070
     0
  0
VISUALSTYLE
  5
FA3
102
{ACAD_XDICTIONARY
360
F10A71
102
}
102
{ACAD_REACTORS
330
F93
102
}
330
F93
100
AcDbVisualStyle
  2

 70
    16
 71
     2
 72
     2
 73
     3
 90
        0
 40
-0.6
 41
-30.0
 62
     5
 63
     8
 74
     1
 91
        4
 64
     7
 65
   257
 75
     1
175
     1
 42
1.0
 92
        8
 66
     8
 43
1.0
 76
     1
 77
     6
 78
     2
 67
     7
 79
     5
170
     0
171
     0
290
     0
174
     0
 93
        1
 44
0.0
173
     0
291
     1
 45
0.0
1001
ACAD
1000
AcDbSavedByObjectVersion
1070
     0
  0
VISUALSTYLE
  5
F9C
102
{ACAD_XDICTIONARY
360
F10A63
102
}
102
{ACAD_REACTORS
330
F93
102
}
330
F93
100
AcDbVisualStyle
  2

 70
     9
 71
     3
 72
     2
 73
     0
 90
        0
 40
-0.6
 41
-30.0
 62
     5
 63
     7
 74
     2
 91
        2
 64
     7
 65
   257
 75
     1
175
     1
 42
179.0
 92
        8
 66
     7
 43
1.0
 76
     1
 77
     6
 78
     2
 67
     7
 79
     3
170
     0
171
     0
290
     0
174
     0
 93
        1
 44
0.0
173
     0
291
     0
 45
0.0
1001
ACAD
1000
AcDbSavedByObjectVersion
1070
     0
  0
VISUALSTYLE
  5
F9E
102
{ACAD_XDICTIONARY
360
F10A67
102
}
102
{ACAD_REACTORS
330
F93
102
}
330
F93
100
AcDbVisualStyle
  2

 70
    11
 71
     2
 72
     2
 73
     0
 90
        0
 40
-0.6
 41
-30.0
 62
     5
 63
     7
 74
     1
 91
        4
 64
     7
 65
   257
 75
     1
175
     1
 42
1.0
 92
        8
 66
     7
 43
1.0
 76
     1
 77
     6
 78
     2
 67
     7
 79
     5
170
     0
171
     0
290
     0
174
     0
 93
        1
 44
-50.0
173
     0
291
     1
 45
0.0
1001
ACAD
1000
AcDbSavedByObjectVersion
1070
     0
  0
VISUALSTYLE
  5
FA6
102
{ACAD_XDICTIONARY
360
F10A77
102
}
102
{ACAD_REACTORS
330
F93
102
}
330
F93
100
AcDbVisualStyle
  2

 70
    22
 71
     2
 72
     2
 73
     0
 90
        0
 40
-0.6
 41
-30.0
 62
     5
 63
     7
 74
     1
 91
        4
 64
     7
 65
   257
 75
     1
175
     1
 42
1.0
 92
        8
 66
     7
 43
1.0
 76
     1
 77
     6
 78
     2
 67
     7
 79
     5
170
     0
171
     0
290
     0
174
     0
 93
        1
 44
0.0
173
     0
291
     1
 45
0.0
1001
ACAD
1000
AcDbSavedByObjectVersion
1070
     0
  0
VISUALSTYLE
  5
FA2
102
{ACAD_XDICTIONARY
360
F10A6F
102
}
102
{ACAD_REACTORS
330
F93
102
}
330
F93
100
AcDbVisualStyle
  2

 70
    15
 71
     2
 72
     2
 73
     0
 90
        0
 40
-0.6
 41
-30.0
 62
     5
 63
     7
 74
     1
 91
        4
 64
     7
 65
   257
 75
     1
175
     1
 42
1.0
 92
        8
 66
     7
 43
1.0
 76
     1
 77
     6
 78
     2
 67
     7
 79
     5
170
     0
171
     0
290
     0
174
     0
 93
        1
 44
0.0
173
     0
291
     1
 45
0.0
1001
ACAD
1000
AcDbSavedByObjectVersion
1070
     0
  0
VISUALSTYLE
  5
F94
102
{ACAD_XDICTIONARY
360
F10A53
102
}
102
{ACAD_REACTORS
330
F93
102
}
330
F93
100
AcDbVisualStyle
  2

 70
     0
 71
     2
 72
     1
 73
     1
 90
        2
 40
-0.6
 41
30.0
 62
     5
 63
     7
 74
     0
 91
        4
 64
     7
 65
   257
 75
     1
175
     1
 42
1.0
 92
        8
 66
     7
 43
1.0
 76
     1
 77
     6
 78
     2
 67
     7
 79
     5
170
     0
171
     0
290
     0
174
     0
 93
       13
 44
0.0
173
     0
291
     1
 45
0.0
1001
ACAD
1000
AcDbSavedByObjectVersion
1070
     0
  0
VISUALSTYLE
  5
F95
102
{ACAD_XDICTIONARY
360
F10A55
102
}
102
{ACAD_REACTORS
330
F93
102
}
330
F93
100
AcDbVisualStyle
  2

 70
     1
 71
     2
 72
     1
 73
     1
 90
        2
 40
-0.6
 41
30.0
 62
     5
 63
     7
 74
     1
 91
        4
 64
     7
 65
   257
 75
     1
175
     1
 42
1.0
 92
        0
 66
   257
 43
1.0
 76
     1
 77
     6
 78
     2
 67
     7
 79
     5
170
     0
171
     0
290
     0
174
     0
 93
       13
 44
0.0
173
     0
291
     1
 45
0.0
1001
ACAD
1000
AcDbSavedByObjectVersion
1070
     0
  0
VISUALSTYLE
  5
F96
102
{ACAD_XDICTIONARY
360
F10A57
102
}
102
{ACAD_REACTORS
330
F93
102
}
330
F93
100
AcDbVisualStyle
  2

 70
     2
 71
     2
 72
     2
 73
     1
 90
        2
 40
-0.6
 41
30.0
 62
     5
 63
     7
 74
     0
 91
        4
 64
     7
 65
   257
 75
     1
175
     1
 42
1.0
 92
        0
 66
     7
 43
1.0
 76
     1
 77
     6
 78
     2
 67
     7
 79
     5
170
     0
171
     0
290
     0
174
     0
 93
       13
 44
0.0
173
     0
291
     1
 45
0.0
1001
ACAD
1000
AcDbSavedByObjectVersion
1070
     0
  0
VISUALSTYLE
  5
F97
102
{ACAD_XDICTIONARY
360
F10A59
102
}
102
{ACAD_REACTORS
330
F93
102
}
330
F93
100
AcDbVisualStyle
  2

 70
     3
 71
     2
 72
     2
 73
     1
 90
        2
 40
-0.6
 41
30.0
 62
     5
 63
     7
 74
     1
 91
        4
 64
     7
 65
   257
 75
     1
175
     1
 42
1.0
 92
        0
 66
   257
 43
1.0
 76
     1
 77
     6
 78
     2
 67
     7
 79
     5
170
     0
171
     0
290
     0
174
     0
 93
       13
 44
0.0
173
     0
291
     1
 45
0.0
1001
ACAD
1000
AcDbSavedByObjectVersion
1070
     0
  0
VISUALSTYLE
  5
F1089A
102
{ACAD_XDICTIONARY
360
F10A80
102
}
102
{ACAD_REACTORS
330
F93
102
}
330
F93
100
AcDbVisualStyle
  2
Hidden
 70
     6
 71
     1
 72
     2
 73
     2
 90
        0
 40
-0.6
 41
-30.0
 62
     5
 63
     7
 74
     2
 91
        2
 64
     7
 65
   257
 75
     2
175
     1
 42
40.0
 92
        0
 66
   257
 43
1.0
 76
     1
 77
     6
 78
     2
 67
     7
 79
     3
170
     0
171
     0
290
     0
174
     0
 93
        1
 44
0.0
173
     0
291
     0
 45
0.0
1001
ACAD
1000
AcDbSavedByObjectVersion
1070
     0
  0
VISUALSTYLE
  5
FA4
102
{ACAD_XDICTIONARY
360
F10A73
102
}
102
{ACAD_REACTORS
330
F93
102
}
330
F93
100
AcDbVisualStyle
  2

 70
    20
 71
     2
 72
     2
 73
     0
 90
        0
 40
-0.6
 41
-30.0
 62
     5
 63
     7
 74
     1
 91
        4
 64
     7
 65
   257
 75
     1
175
     1
 42
1.0
 92
       10
 66
     7
 43
1.0
 76
     1
 77
     6
 78
     2
 67
     7
 79
     5
170
     0
171
     0
290
     0
174
     0
 93
        1
 44
0.0
173
     0
291
     1
 45
0.0
1001
ACAD
1000
AcDbSavedByObjectVersion
1070
     0
  0
VISUALSTYLE
  5
FA1
102
{ACAD_XDICTIONARY
360
F10A6D
102
}
102
{ACAD_REACTORS
330
F93
102
}
330
F93
100
AcDbVisualStyle
  2

 70
    14
 71
     2
 72
     2
 73
     0
 90
        0
 40
-0.6
 41
-30.0
 62
     5
 63
     7
 74
     1
 91
        4
 64
     7
 65
   257
 75
     7
175
     7
 42
1.0
 92
        8
 66
     7
 43
1.0
 76
     1
 77
     6
 78
     2
 67
     7
 79
     5
170
     0
171
     0
290
     0
174
     0
 93
        1
 44
0.0
173
     0
291
     1
 45
0.0
1001
ACAD
1000
AcDbSavedByObjectVersion
1070
     0
  0
VISUALSTYLE
  5
FA5
102
{ACAD_XDICTIONARY
360
F10A75
102
}
102
{ACAD_REACTORS
330
F93
102
}
330
F93
100
AcDbVisualStyle
  2

 70
    21
 71
     2
 72
     2
 73
     0
 90
        0
 40
-0.6
 41
-30.0
 62
     5
 63
     7
 74
     1
 91
        4
 64
     7
 65
   257
 75
     1
175
     1
 42
1.0
 92
        9
 66
     7
 43
1.0
 76
     1
 77
     6
 78
     2
 67
     7
 79
     5
170
     0
171
     0
290
     0
174
     0
 93
        1
 44
0.0
173
     0
291
     1
 45
0.0
1001
ACAD
1000
AcDbSavedByObjectVersion
1070
     0
  0
VISUALSTYLE
  5
F9D
102
{ACAD_XDICTIONARY
360
F10A65
102
}
102
{ACAD_REACTORS
330
F93
102
}
330
F93
100
AcDbVisualStyle
  2

 70
     8
 71
     2
 72
     2
 73
     0
 90
        0
 40
-0.6
 41
-30.0
 62
     5
 63
     7
 74
     1
 91
        0
 64
     7
 65
   257
 75
     1
175
     1
 42
1.0
 92
        8
 66
     8
 43
1.0
 76
     1
 77
     6
 78
     2
 67
     7
 79
     5
170
     0
171
     0
290
     0
174
     0
 93
       13
 44
0.0
173
     0
291
     0
 45
0.0
1001
ACAD
1000
AcDbSavedByObjectVersion
1070
     0
  0
VISUALSTYLE
  5
F1089F
102
{ACAD_XDICTIONARY
360
F10A8A
102
}
102
{ACAD_REACTORS
330
F93
102
}
330
F93
100
AcDbVisualStyle
  2
Shaded
 70
    27
 71
     2
 72
     2
 73
     1
 90
        2
 40
-0.6
 41
30.0
 62
     5
 63
     7
 74
     0
 91
        4
 64
     7
 65
   257
 75
     1
175
     1
 42
1.0
 92
        8
 66
   257
 43
1.0
 76
     1
 77
     6
 78
     2
 67
     8
 79
     3
170
     0
171
     0
290
     0
174
     0
 93
        5
 44
0.0
173
     0
291
     0
 45
0.0
1001
ACAD
1000
AcDbSavedByObjectVersion
1070
     0
  0
VISUALSTYLE
  5
F1089E
102
{ACAD_XDICTIONARY
360
F10A88
102
}
102
{ACAD_REACTORS
330
F93
102
}
330
F93
100
AcDbVisualStyle
  2
Shaded with edges
 70
    26
 71
     2
 72
     2
 73
     1
 90
        2
 40
-0.6
 41
30.0
 62
     5
 63
     7
 74
     1
 91
       10
 64
     7
 65
   257
 75
     2
175
     1
 42
1.0
 92
        8
 66
   257
 43
1.0
 76
     1
 77
     6
 78
     2
 67
     7
 79
     3
170
     0
171
     0
290
     0
174
     0
 93
        5
 44
0.0
173
     0
291
     0
 45
0.0
1001
ACAD
1000
AcDbSavedByObjectVersion
1070
     0
  0
VISUALSTYLE
  5
F1089B
102
{ACAD_XDICTIONARY
360
F10A82
102
}
102
{ACAD_REACTORS
330
F93
102
}
330
F93
100
AcDbVisualStyle
  2
Shades of Gray
 70
    23
 71
     2
 72
     2
 73
     3
 90
        0
 40
-0.6
 41
-30.0
 62
     5
 63
     7
 74
     2
 91
        2
 64
     7
 65
     7
 75
     1
175
     1
 42
40.0
 92
        8
 66
     7
 43
1.0
 76
     1
 77
     6
 78
     2
 67
     7
 79
     3
170
     0
171
     0
290
     0
174
     0
 93
        1
 44
0.0
173
     0
291
     0
 45
0.0
1001
ACAD
1000
AcDbSavedByObjectVersion
1070
     0
  0
VISUALSTYLE
  5
F1089C
102
{ACAD_XDICTIONARY
360
F10A84
102
}
102
{ACAD_REACTORS
330
F93
102
}
330
F93
100
AcDbVisualStyle
  2
Sketchy
 70
    24
 71
     1
 72
     2
 73
     2
 90
        0
 40
-0.6
 41
-30.0
 62
     5
 63
     7
 74
     2
 91
        2
 64
     7
 65
     7
 75
     1
175
     1
 42
40.0
 92
       11
 66
     7
 43
1.0
 76
     1
 77
     6
 78
     2
 67
     7
 79
     6
170
     0
171
     0
290
     0
174
     0
 93
        1
 44
0.0
173
     0
291
     0
 45
0.0
1001
ACAD
1000
AcDbSavedByObjectVersion
1070
     0
  0
VISUALSTYLE
  5
FA0
102
{ACAD_XDICTIONARY
360
F10A6B
102
}
102
{ACAD_REACTORS
330
F93
102
}
330
F93
100
AcDbVisualStyle
  2

 70
    13
 71
     2
 72
     2
 73
     0
 90
        0
 40
-0.6
 41
-30.0
 62
     5
 63
     7
 74
     1
 91
        4
 64
     7
 65
   257
 75
     1
175
     1
 42
1.0
 92
       12
 66
     7
 43
1.0
 76
     1
 77
     6
 78
     2
 67
     7
 79
     5
170
     0
171
     0
290
     0
174
     0
 93
        1
 44
0.0
173
     0
291
     1
 45
0.0
1001
ACAD
1000
AcDbSavedByObjectVersion
1070
     0
  0
VISUALSTYLE
  5
F10899
102
{ACAD_XDICTIONARY
360
F10A7E
102
}
102
{ACAD_REACTORS
330
F93
102
}
330
F93
100
AcDbVisualStyle
  2
Wireframe
 70
     5
 71
     0
 72
     2
 73
     0
 90
        0
 40
-0.6
 41
-30.0
 62
     5
 63
     7
 74
     1
 91
        4
 64
     7
 65
   257
 75
     1
175
     1
 42
1.0
 92
        0
 66
   257
 43
1.0
 76
     1
 77
     6
 78
     2
 67
     7
 79
     3
170
     0
171
     0
290
     0
174
     0
 93
        1
 44
0.0
173
     0
291
     0
 45
0.0
1001
ACAD
1000
AcDbSavedByObjectVersion
1070
     0
  0
VISUALSTYLE
  5
F1089D
102
{ACAD_XDICTIONARY
360
F10A86
102
}
102
{ACAD_REACTORS
330
F93
102
}
330
F93
100
AcDbVisualStyle
  2
X-Ray
 70
    25
 71
     2
 72
     2
 73
     1
 90
        1
 40
0.5
 41
-30.0
 62
     5
 63
     7
 74
     1
 91
        0
 64
     7
 65
   257
 75
     1
175
     1
 42
1.0
 92
        8
 66
     7
 43
1.0
 76
     1
 77
     6
 78
     2
 67
     7
 79
     3
170
     0
171
     0
290
     0
174
     0
 93
       13
 44
0.0
173
     0
291
     0
 45
0.0
1001
ACAD
1000
AcDbSavedByObjectVersion
1070
     0
  0
DICTIONARYVAR
  5
F10A43
102
{ACAD_REACTORS
330
F10A40
102
}
330
F10A40
100
DictionaryVariables
280
     0
  1
1:1
  0
DICTIONARYVAR
  5
F10A42
102
{ACAD_REACTORS
330
F10A40
102
}
330
F10A40
100
DictionaryVariables
280
     0
  1
STANDARD
  0
DICTIONARYVAR
  5
F10A41
102
{ACAD_REACTORS
330
F10A40
102
}
330
F10A40
100
DictionaryVariables
280
     0
  1
STANDARD
  0
DICTIONARYVAR
  5
F10A46
102
{ACAD_REACTORS
330
F10A40
102
}
330
F10A40
100
DictionaryVariables
280
     0
  1
1
  0
DICTIONARYVAR
  5
F10A45
102
{ACAD_REACTORS
330
F10A40
102
}
330
F10A40
100
DictionaryVariables
280
     0
  1
0
  0
DICTIONARYVAR
  5
F10A44
102
{ACAD_REACTORS
330
F10A40
102
}
330
F10A40
100
DictionaryVariables
280
     0
  1
127
  0
DICTIONARYVAR
  5
F10A47
102
{ACAD_REACTORS
330
F10A40
102
}
330
F10A40
100
DictionaryVariables
280
     0
  1
2
  0
DICTIONARY
  5
F108F9
102
{ACAD_REACTORS
330
F108EE
102
}
330
F108EE
100
AcDbDictionary
281
     1
  0
DICTIONARY
  5
F10A7C
330
FD1
100
AcDbDictionary
280
     1
281
     1
  3
ACAD_XREC_ROUNDTRIP
360
F10A7D
  0
DICTIONARY
  5
F10A7A
330
FD0
100
AcDbDictionary
280
     1
281
     1
  3
ACAD_XREC_ROUNDTRIP
360
F10A7B
  0
DICTIONARY
  5
F84
330
F83
100
AcDbDictionary
280
     1
281
     1
  3
ACAD_XREC_ROUNDTRIP
360
FFF
  3
BUMPTILE
360
F86
  3
DIFFUSETILE
360
F85
  3
OPACITYTILE
360
F89
  3
REFLECTIONTILE
360
F88
  3
REFRACTIONTILE
360
F8A
  3
SPECULARTILE
360
F87
  0
DICTIONARY
  5
F7C
330
F7B
100
AcDbDictionary
280
     1
281
     1
  3
ACAD_XREC_ROUNDTRIP
360
FFE
  3
BUMPTILE
360
F7E
  3
DIFFUSETILE
360
F7D
  3
OPACITYTILE
360
F81
  3
REFLECTIONTILE
360
F80
  3
REFRACTIONTILE
360
F82
  3
SPECULARTILE
360
F7F
  0
DICTIONARY
  5
F8C
330
F8B
100
AcDbDictionary
280
     1
281
     1
  3
ACAD_XREC_ROUNDTRIP
360
1000
  3
BUMPTILE
360
F8E
  3
DIFFUSETILE
360
F8D
  3
OPACITYTILE
360
F91
  3
REFLECTIONTILE
360
F90
  3
REFRACTIONTILE
360
F92
  3
SPECULARTILE
360
F8F
  0
DICTIONARY
  5
FF8
330
FA9
100
AcDbDictionary
280
     1
281
     1
  3
ACAD_ROUNDTRIP_2008_TABLESTYLE_CELLSTYLEMAP
360
F10A48
  3
ACAD_XREC_ROUNDTRIP
360
F10A79
  0
DICTIONARY
  5
F10A5D
330
F99
100
AcDbDictionary
280
     1
281
     1
  3
ACAD_XREC_ROUNDTRIP
360
F10A5E
  0
DICTIONARY
  5
F10A61
330
F9B
100
AcDbDictionary
280
     1
281
     1
  3
ACAD_XREC_ROUNDTRIP
360
F10A62
  0
DICTIONARY
  5
F10A5F
330
F9A
100
AcDbDictionary
280
     1
281
     1
  3
ACAD_XREC_ROUNDTRIP
360
F10A60
  0
DICTIONARY
  5
F10A5B
330
F98
100
AcDbDictionary
280
     1
281
     1
  3
ACAD_XREC_ROUNDTRIP
360
F10A5C
  0
DICTIONARY
  5
F10A69
330
F9F
100
AcDbDictionary
280
     1
281
     1
  3
ACAD_XREC_ROUNDTRIP
360
F10A6A
  0
DICTIONARY
  5
F10A71
330
FA3
100
AcDbDictionary
280
     1
281
     1
  3
ACAD_XREC_ROUNDTRIP
360
F10A72
  0
DICTIONARY
  5
F10A63
330
F9C
100
AcDbDictionary
280
     1
281
     1
  3
ACAD_XREC_ROUNDTRIP
360
F10A64
  0
DICTIONARY
  5
F10A67
330
F9E
100
AcDbDictionary
280
     1
281
     1
  3
ACAD_XREC_ROUNDTRIP
360
F10A68
  0
DICTIONARY
  5
F10A77
330
FA6
100
AcDbDictionary
280
     1
281
     1
  3
ACAD_XREC_ROUNDTRIP
360
F10A78
  0
DICTIONARY
  5
F10A6F
330
FA2
100
AcDbDictionary
280
     1
281
     1
  3
ACAD_XREC_ROUNDTRIP
360
F10A70
  0
DICTIONARY
  5
F10A53
330
F94
100
AcDbDictionary
280
     1
281
     1
  3
ACAD_XREC_ROUNDTRIP
360
F10A54
  0
DICTIONARY
  5
F10A55
330
F95
100
AcDbDictionary
280
     1
281
     1
  3
ACAD_XREC_ROUNDTRIP
360
F10A56
  0
DICTIONARY
  5
F10A57
330
F96
100
AcDbDictionary
280
     1
281
     1
  3
ACAD_XREC_ROUNDTRIP
360
F10A58
  0
DICTIONARY
  5
F10A59
330
F97
100
AcDbDictionary
280
     1
281
     1
  3
ACAD_XREC_ROUNDTRIP
360
F10A5A
  0
DICTIONARY
  5
F10A80
330
F1089A
100
AcDbDictionary
280
     1
281
     1
  3
ACAD_XREC_ROUNDTRIP
360
F10A81
  0
DICTIONARY
  5
F10A73
330
FA4
100
AcDbDictionary
280
     1
281
     1
  3
ACAD_XREC_ROUNDTRIP
360
F10A74
  0
DICTIONARY
  5
F10A6D
330
FA1
100
AcDbDictionary
280
     1
281
     1
  3
ACAD_XREC_ROUNDTRIP
360
F10A6E
  0
DICTIONARY
  5
F10A75
330
FA5
100
AcDbDictionary
280
     1
281
     1
  3
ACAD_XREC_ROUNDTRIP
360
F10A76
  0
DICTIONARY
  5
F10A65
330
F9D
100
AcDbDictionary
280
     1
281
     1
  3
ACAD_XREC_ROUNDTRIP
360
F10A66
  0
DICTIONARY
  5
F10A8A
330
F1089F
100
AcDbDictionary
280
     1
281
     1
  3
ACAD_XREC_ROUNDTRIP
360
F10A8B
  0
DICTIONARY
  5
F10A88
330
F1089E
100
AcDbDictionary
280
     1
281
     1
  3
ACAD_XREC_ROUNDTRIP
360
F10A89
  0
DICTIONARY
  5
F10A82
330
F1089B
100
AcDbDictionary
280
     1
281
     1
  3
ACAD_XREC_ROUNDTRIP
360
F10A83
  0
DICTIONARY
  5
F10A84
330
F1089C
100
AcDbDictionary
280
     1
281
     1
  3
ACAD_XREC_ROUNDTRIP
360
F10A85
  0
DICTIONARY
  5
F10A6B
330
FA0
100
AcDbDictionary
280
     1
281
     1
  3
ACAD_XREC_ROUNDTRIP
360
F10A6C
  0
DICTIONARY
  5
F10A7E
330
F10899
100
AcDbDictionary
280
     1
281
     1
  3
ACAD_XREC_ROUNDTRIP
360
F10A7F
  0
DICTIONARY
  5
F10A86
330
F1089D
100
AcDbDictionary
280
     1
281
     1
  3
ACAD_XREC_ROUNDTRIP
360
F10A87
  0
XRECORD
  5
F10A7D
102
{ACAD_REACTORS
330
F10A7C
102
}
330
F10A7C
100
AcDbXrecord
280
     1
102
SHADEPLOT
 70
     0
102
SHADEPLOTRESLEVEL
 70
     2
102
SHADEPLOTCUSTOMDPI
 70
   300
  0
XRECORD
  5
F10A7B
102
{ACAD_REACTORS
330
F10A7A
102
}
330
F10A7A
100
AcDbXrecord
280
     1
102
SHADEPLOT
 70
     0
102
SHADEPLOTRESLEVEL
 70
     2
102
SHADEPLOTCUSTOMDPI
 70
   300
  0
XRECORD
  5
FFF
102
{ACAD_REACTORS
330
F84
102
}
330
F84
100
AcDbXrecord
280
     1
102
MATERIAL
148
0.0
149
0.0
149
0.0
 93
        0
 94
      127
282
     0
 72
     0
 77
     0
171
     0
175
     0
179
     0
273
     0
  0
XRECORD
  5
F86
102
{ACAD_REACTORS
330
F84
102
}
330
F84
100
AcDbXrecord
280
     1
270
     1
271
     1
  0
XRECORD
  5
F85
102
{ACAD_REACTORS
330
F84
102
}
330
F84
100
AcDbXrecord
280
     1
270
     1
271
     1
  0
XRECORD
  5
F89
102
{ACAD_REACTORS
330
F84
102
}
330
F84
100
AcDbXrecord
280
     1
270
     1
271
     1
  0
XRECORD
  5
F88
102
{ACAD_REACTORS
330
F84
102
}
330
F84
100
AcDbXrecord
280
     1
270
     1
271
     1
  0
XRECORD
  5
F8A
102
{ACAD_REACTORS
330
F84
102
}
330
F84
100
AcDbXrecord
280
     1
270
     1
271
     1
  0
XRECORD
  5
F87
102
{ACAD_REACTORS
330
F84
102
}
330
F84
100
AcDbXrecord
280
     1
270
     1
271
     1
  0
XRECORD
  5
FFE
102
{ACAD_REACTORS
330
F7C
102
}
330
F7C
100
AcDbXrecord
280
     1
102
MATERIAL
148
0.0
149
0.0
149
0.0
 93
        0
 94
      127
282
     0
 72
     0
 77
     0
171
     0
175
     0
179
     0
273
     0
  0
XRECORD
  5
F7E
102
{ACAD_REACTORS
330
F7C
102
}
330
F7C
100
AcDbXrecord
280
     1
270
     1
271
     1
  0
XRECORD
  5
F7D
102
{ACAD_REACTORS
330
F7C
102
}
330
F7C
100
AcDbXrecord
280
     1
270
     1
271
     1
  0
XRECORD
  5
F81
102
{ACAD_REACTORS
330
F7C
102
}
330
F7C
100
AcDbXrecord
280
     1
270
     1
271
     1
  0
XRECORD
  5
F80
102
{ACAD_REACTORS
330
F7C
102
}
330
F7C
100
AcDbXrecord
280
     1
270
     1
271
     1
  0
XRECORD
  5
F82
102
{ACAD_REACTORS
330
F7C
102
}
330
F7C
100
AcDbXrecord
280
     1
270
     1
271
     1
  0
XRECORD
  5
F7F
102
{ACAD_REACTORS
330
F7C
102
}
330
F7C
100
AcDbXrecord
280
     1
270
     1
271
     1
  0
XRECORD
  5
1000
102
{ACAD_REACTORS
330
F8C
102
}
330
F8C
100
AcDbXrecord
280
     1
102
MATERIAL
148
0.0
149
0.0
149
0.0
 93
        0
 94
      127
282
     0
 72
     0
 77
     0
171
     0
175
     0
179
     0
273
     0
  0
XRECORD
  5
F8E
102
{ACAD_REACTORS
330
F8C
102
}
330
F8C
100
AcDbXrecord
280
     1
270
     1
271
     1
  0
XRECORD
  5
F8D
102
{ACAD_REACTORS
330
F8C
102
}
330
F8C
100
AcDbXrecord
280
     1
270
     1
271
     1
  0
XRECORD
  5
F91
102
{ACAD_REACTORS
330
F8C
102
}
330
F8C
100
AcDbXrecord
280
     1
270
     1
271
     1
  0
XRECORD
  5
F90
102
{ACAD_REACTORS
330
F8C
102
}
330
F8C
100
AcDbXrecord
280
     1
270
     1
271
     1
  0
XRECORD
  5
F92
102
{ACAD_REACTORS
330
F8C
102
}
330
F8C
100
AcDbXrecord
280
     1
270
     1
271
     1
  0
XRECORD
  5
F8F
102
{ACAD_REACTORS
330
F8C
102
}
330
F8C
100
AcDbXrecord
280
     1
270
     1
271
     1
  0
CELLSTYLEMAP
  5
F10A48
102
{ACAD_REACTORS
330
FF8
102
}
330
FF8
100
AcDbCellStyleMap
 90
        3
300
CELLSTYLE
  1
TABLEFORMAT_BEGIN
 90
        5
170
     1
 91
        0
 92
    32768
 62
   257
 93
        1
300
CONTENTFORMAT
  1
CONTENTFORMAT_BEGIN
 90
        0
 91
        0
 92
      512
 93
        0
300

 40
0.0
140
1.0
 94
        5
 62
     0
340
253
144
0.25
309
CONTENTFORMAT_END
171
     1
301
MARGIN
  1
CELLMARGIN_BEGIN
 40
0.06
 40
0.06
 40
0.06
 40
0.06
 40
0.18
 40
0.18
309
CELLMARGIN_END
 94
        6
 95
        1
302
GRIDFORMAT
  1
GRIDFORMAT_BEGIN
 90
        0
 91
        1
 62
     0
 92
       -2
340
0
 93
        0
 40
0.045
309
GRIDFORMAT_END
 95
        2
302
GRIDFORMAT
  1
GRIDFORMAT_BEGIN
 90
        0
 91
        1
 62
     0
 92
       -2
340
0
 93
        0
 40
0.045
309
GRIDFORMAT_END
 95
        4
302
GRIDFORMAT
  1
GRIDFORMAT_BEGIN
 90
        0
 91
        1
 62
     0
 92
       -2
340
0
 93
        0
 40
0.045
309
GRIDFORMAT_END
 95
        8
302
GRIDFORMAT
  1
GRIDFORMAT_BEGIN
 90
        0
 91
        1
 62
     0
 92
       -2
340
0
 93
        0
 40
0.045
309
GRIDFORMAT_END
 95
       16
302
GRIDFORMAT
  1
GRIDFORMAT_BEGIN
 90
        0
 91
        1
 62
     0
 92
       -2
340
0
 93
        0
 40
0.045
309
GRIDFORMAT_END
 95
       32
302
GRIDFORMAT
  1
GRIDFORMAT_BEGIN
 90
        0
 91
        1
 62
     0
 92
       -2
340
0
 93
        0
 40
0.045
309
GRIDFORMAT_END
309
TABLEFORMAT_END
  1
CELLSTYLE_BEGIN
 90
        1
 91
        1
300
_TITLE
309
CELLSTYLE_END
300
CELLSTYLE
  1
TABLEFORMAT_BEGIN
 90
        5
170
     1
 91
        0
 92
        0
 62
   257
 93
        1
300
CONTENTFORMAT
  1
CONTENTFORMAT_BEGIN
 90
        0
 91
        0
 92
      512
 93
        0
300

 40
0.0
140
1.0
 94
        5
 62
     0
340
253
144
0.18
309
CONTENTFORMAT_END
171
     1
301
MARGIN
  1
CELLMARGIN_BEGIN
 40
0.06
 40
0.06
 40
0.06
 40
0.06
 40
0.18
 40
0.18
309
CELLMARGIN_END
 94
        6
 95
        1
302
GRIDFORMAT
  1
GRIDFORMAT_BEGIN
 90
        0
 91
        1
 62
     0
 92
       -2
340
0
 93
        0
 40
0.045
309
GRIDFORMAT_END
 95
        2
302
GRIDFORMAT
  1
GRIDFORMAT_BEGIN
 90
        0
 91
        1
 62
     0
 92
       -2
340
0
 93
        0
 40
0.045
309
GRIDFORMAT_END
 95
        4
302
GRIDFORMAT
  1
GRIDFORMAT_BEGIN
 90
        0
 91
        1
 62
     0
 92
       -2
340
0
 93
        0
 40
0.045
309
GRIDFORMAT_END
 95
        8
302
GRIDFORMAT
  1
GRIDFORMAT_BEGIN
 90
        0
 91
        1
 62
     0
 92
       -2
340
0
 93
        0
 40
0.045
309
GRIDFORMAT_END
 95
       16
302
GRIDFORMAT
  1
GRIDFORMAT_BEGIN
 90
        0
 91
        1
 62
     0
 92
       -2
340
0
 93
        0
 40
0.045
309
GRIDFORMAT_END
 95
       32
302
GRIDFORMAT
  1
GRIDFORMAT_BEGIN
 90
        0
 91
        1
 62
     0
 92
       -2
340
0
 93
        0
 40
0.045
309
GRIDFORMAT_END
309
TABLEFORMAT_END
  1
CELLSTYLE_BEGIN
 90
        2
 91
        1
300
_HEADER
309
CELLSTYLE_END
300
CELLSTYLE
  1
TABLEFORMAT_BEGIN
 90
        5
170
     1
 91
        0
 92
        0
 62
   257
 93
        1
300
CONTENTFORMAT
  1
CONTENTFORMAT_BEGIN
 90
        0
 91
        0
 92
      512
 93
        0
300

 40
0.0
140
1.0
 94
        2
 62
     0
340
253
144
0.18
309
CONTENTFORMAT_END
171
     1
301
MARGIN
  1
CELLMARGIN_BEGIN
 40
0.06
 40
0.06
 40
0.06
 40
0.06
 40
0.18
 40
0.18
309
CELLMARGIN_END
 94
        6
 95
        1
302
GRIDFORMAT
  1
GRIDFORMAT_BEGIN
 90
        0
 91
        1
 62
     0
 92
       -2
340
0
 93
        0
 40
0.045
309
GRIDFORMAT_END
 95
        2
302
GRIDFORMAT
  1
GRIDFORMAT_BEGIN
 90
        0
 91
        1
 62
     0
 92
       -2
340
0
 93
        0
 40
0.045
309
GRIDFORMAT_END
 95
        4
302
GRIDFORMAT
  1
GRIDFORMAT_BEGIN
 90
        0
 91
        1
 62
     0
 92
       -2
340
0
 93
        0
 40
0.045
309
GRIDFORMAT_END
 95
        8
302
GRIDFORMAT
  1
GRIDFORMAT_BEGIN
 90
        0
 91
        1
 62
     0
 92
       -2
340
0
 93
        0
 40
0.045
309
GRIDFORMAT_END
 95
       16
302
GRIDFORMAT
  1
GRIDFORMAT_BEGIN
 90
        0
 91
        1
 62
     0
 92
       -2
340
0
 93
        0
 40
0.045
309
GRIDFORMAT_END
 95
       32
302
GRIDFORMAT
  1
GRIDFORMAT_BEGIN
 90
        0
 91
        1
 62
     0
 92
       -2
340
0
 93
        0
 40
0.045
309
GRIDFORMAT_END
309
TABLEFORMAT_END
  1
CELLSTYLE_BEGIN
 90
        3
 91
        2
300
_DATA
309
CELLSTYLE_END
  0
XRECORD
  5
F10A79
102
{ACAD_REACTORS
330
FF8
102
}
330
FF8
100
AcDbXrecord
280
     1
102
ACAD_ROUNDTRIP_PRE2007_TABLESTYLE
 90
      512
 91
        0
  1

 92
      512
 93
        0
  2

 94
      512
 95
        0
  3

  0
XRECORD
  5
F10A5E
102
{ACAD_REACTORS
330
F10A5D
102
}
330
F10A5D
100
AcDbXrecord
280
     1
102
RTVSPropertyOp0
 70
     1
102
RTVSPropertyOp1
 70
     1
102
RTVSPropertyOp2
 70
     1
102
RTVSPropertyOp3
 70
     1
102
RTVSPropertyOp4
 70
     1
102
RTVSPropertyOp5
 70
     1
102
RTVSPropertyOp6
 70
     1
102
RTVSPropertyOp7
 70
     1
102
RTVSPropertyOp8
 70
     1
102
RTVSPropertyOp9
 70
     1
102
RTVSPropertyOp10
 70
     1
102
RTVSPropertyOp11
 70
     1
102
RTVSPropertyOp12
 70
     1
102
RTVSPropertyOp13
 70
     1
102
RTVSPropertyOp14
 70
     1
102
RTVSPropertyOp15
 70
     1
102
RTVSPropertyOp16
 70
     1
102
RTVSPropertyOp17
 70
     1
102
RTVSPropertyOp18
 70
     1
102
RTVSPropertyOp19
 70
     1
102
RTVSPropertyOp20
 70
     1
102
RTVSPropertyOp21
 70
     1
102
RTVSPropertyOp22
 70
     1
102
RTVSPropertyOp23
 70
     1
102
RTVSPropertyOp24
 70
     1
102
RTVSPropertyOp25
 70
     1
102
RTVSPropertyOp26
 70
     1
102
RTVSPropertyOp27
 70
     1
102
RTVSPropertyOp28
 70
     1
102
RTVSPropertyOp29
 70
     1
102
RTVSPropertyOp30
 70
     1
102
RTVSPropertyOp31
 70
     1
102
RTVSPropertyOp32
 70
     1
  0
XRECORD
  5
F10A62
102
{ACAD_REACTORS
330
F10A61
102
}
330
F10A61
100
AcDbXrecord
280
     1
102
RTVSPropertyOp0
 70
     1
102
RTVSPropertyOp1
 70
     1
102
RTVSPropertyOp2
 70
     1
102
RTVSPropertyOp3
 70
     1
102
RTVSPropertyOp4
 70
     1
102
RTVSPropertyOp5
 70
     1
102
RTVSPropertyOp6
 70
     1
102
RTVSPropertyOp7
 70
     1
102
RTVSPropertyOp8
 70
     1
102
RTVSPropertyOp9
 70
     1
102
RTVSPropertyOp10
 70
     1
102
RTVSPropertyOp11
 70
     1
102
RTVSPropertyOp12
 70
     1
102
RTVSPropertyOp13
 70
     1
102
RTVSPropertyOp14
 70
     1
102
RTVSPropertyOp15
 70
     1
102
RTVSPropertyOp16
 70
     1
102
RTVSPropertyOp17
 70
     1
102
RTVSPropertyOp18
 70
     1
102
RTVSPropertyOp19
 70
     1
102
RTVSPropertyOp20
 70
     1
102
RTVSPropertyOp21
 70
     1
102
RTVSPropertyOp22
 70
     1
102
RTVSPropertyOp23
 70
     1
102
RTVSPropertyOp24
 70
     1
102
RTVSPropertyOp25
 70
     1
102
RTVSPropertyOp26
 70
     1
102
RTVSPropertyOp27
 70
     1
102
RTVSPropertyOp28
 70
     1
102
RTVSPropertyOp29
 70
     1
102
RTVSPropertyOp30
 70
     1
102
RTVSPropertyOp31
 70
     1
102
RTVSPropertyOp32
 70
     1
  0
XRECORD
  5
F10A60
102
{ACAD_REACTORS
330
F10A5F
102
}
330
F10A5F
100
AcDbXrecord
280
     1
102
RTVSPropertyOp0
 70
     1
102
RTVSPropertyOp1
 70
     1
102
RTVSPropertyOp2
 70
     1
102
RTVSPropertyOp3
 70
     1
102
RTVSPropertyOp4
 70
     1
102
RTVSPropertyOp5
 70
     1
102
RTVSPropertyOp6
 70
     1
102
RTVSPropertyOp7
 70
     1
102
RTVSPropertyOp8
 70
     1
102
RTVSPropertyOp9
 70
     1
102
RTVSPropertyOp10
 70
     1
102
RTVSPropertyOp11
 70
     1
102
RTVSPropertyOp12
 70
     1
102
RTVSPropertyOp13
 70
     1
102
RTVSPropertyOp14
 70
     1
102
RTVSPropertyOp15
 70
     1
102
RTVSPropertyOp16
 70
     1
102
RTVSPropertyOp17
 70
     1
102
RTVSPropertyOp18
 70
     1
102
RTVSPropertyOp19
 70
     1
102
RTVSPropertyOp20
 70
     1
102
RTVSPropertyOp21
 70
     1
102
RTVSPropertyOp22
 70
     1
102
RTVSPropertyOp23
 70
     1
102
RTVSPropertyOp24
 70
     1
102
RTVSPropertyOp25
 70
     1
102
RTVSPropertyOp26
 70
     1
102
RTVSPropertyOp27
 70
     1
102
RTVSPropertyOp28
 70
     1
102
RTVSPropertyOp29
 70
     1
102
RTVSPropertyOp30
 70
     1
102
RTVSPropertyOp31
 70
     1
102
RTVSPropertyOp32
 70
     1
  0
XRECORD
  5
F10A5C
102
{ACAD_REACTORS
330
F10A5B
102
}
330
F10A5B
100
AcDbXrecord
280
     1
102
RTVSPropertyOp0
 70
     1
102
RTVSPropertyOp1
 70
     1
102
RTVSPropertyOp2
 70
     1
102
RTVSPropertyOp3
 70
     1
102
RTVSPropertyOp4
 70
     1
102
RTVSPropertyOp5
 70
     1
102
RTVSPropertyOp6
 70
     1
102
RTVSPropertyOp7
 70
     1
102
RTVSPropertyOp8
 70
     1
102
RTVSPropertyOp9
 70
     1
102
RTVSPropertyOp10
 70
     1
102
RTVSPropertyOp11
 70
     1
102
RTVSPropertyOp12
 70
     1
102
RTVSPropertyOp13
 70
     1
102
RTVSPropertyOp14
 70
     1
102
RTVSPropertyOp15
 70
     1
102
RTVSPropertyOp16
 70
     1
102
RTVSPropertyOp17
 70
     1
102
RTVSPropertyOp18
 70
     1
102
RTVSPropertyOp19
 70
     1
102
RTVSPropertyOp20
 70
     1
102
RTVSPropertyOp21
 70
     1
102
RTVSPropertyOp22
 70
     1
102
RTVSPropertyOp23
 70
     1
102
RTVSPropertyOp24
 70
     1
102
RTVSPropertyOp25
 70
     1
102
RTVSPropertyOp26
 70
     1
102
RTVSPropertyOp27
 70
     1
102
RTVSPropertyOp28
 70
     1
102
RTVSPropertyOp29
 70
     1
102
RTVSPropertyOp30
 70
     1
102
RTVSPropertyOp31
 70
     1
102
RTVSPropertyOp32
 70
     1
  0
XRECORD
  5
F10A6A
102
{ACAD_REACTORS
330
F10A69
102
}
330
F10A69
100
AcDbXrecord
280
     1
102
RTVSPropertyOp0
 70
     1
102
RTVSPropertyOp1
 70
     1
102
RTVSPropertyOp2
 70
     1
102
RTVSPropertyOp3
 70
     1
102
RTVSPropertyOp4
 70
     1
102
RTVSPropertyOp5
 70
     1
102
RTVSPropertyOp6
 70
     1
102
RTVSPropertyOp7
 70
     1
102
RTVSPropertyOp8
 70
     1
102
RTVSPropertyOp9
 70
     1
102
RTVSPropertyOp10
 70
     1
102
RTVSPropertyOp11
 70
     1
102
RTVSPropertyOp12
 70
     1
102
RTVSPropertyOp13
 70
     1
102
RTVSPropertyOp14
 70
     1
102
RTVSPropertyOp15
 70
     1
102
RTVSPropertyOp16
 70
     1
102
RTVSPropertyOp17
 70
     1
102
RTVSPropertyOp18
 70
     1
102
RTVSPropertyOp19
 70
     1
102
RTVSPropertyOp20
 70
     1
102
RTVSPropertyOp21
 70
     1
102
RTVSPropertyOp22
 70
     1
102
RTVSPropertyOp23
 70
     1
102
RTVSPropertyOp24
 70
     1
102
RTVSPropertyOp25
 70
     1
102
RTVSPropertyOp26
 70
     1
102
RTVSPropertyOp27
 70
     1
102
RTVSPropertyOp28
 70
     1
102
RTVSPropertyOp29
 70
     1
102
RTVSPropertyOp30
 70
     1
102
RTVSPropertyOp31
 70
     1
102
RTVSPropertyOp32
 70
     1
  0
XRECORD
  5
F10A72
102
{ACAD_REACTORS
330
F10A71
102
}
330
F10A71
100
AcDbXrecord
280
     1
102
RTVSPropertyOp0
 70
     1
102
RTVSPropertyOp1
 70
     1
102
RTVSPropertyOp2
 70
     1
102
RTVSPropertyOp3
 70
     1
102
RTVSPropertyOp4
 70
     1
102
RTVSPropertyOp5
 70
     1
102
RTVSPropertyOp6
 70
     1
102
RTVSPropertyOp7
 70
     1
102
RTVSPropertyOp8
 70
     1
102
RTVSPropertyOp9
 70
     1
102
RTVSPropertyOp10
 70
     1
102
RTVSPropertyOp11
 70
     1
102
RTVSPropertyOp12
 70
     1
102
RTVSPropertyOp13
 70
     1
102
RTVSPropertyOp14
 70
     1
102
RTVSPropertyOp15
 70
     1
102
RTVSPropertyOp16
 70
     1
102
RTVSPropertyOp17
 70
     1
102
RTVSPropertyOp18
 70
     1
102
RTVSPropertyOp19
 70
     1
102
RTVSPropertyOp20
 70
     1
102
RTVSPropertyOp21
 70
     1
102
RTVSPropertyOp22
 70
     1
102
RTVSPropertyOp23
 70
     1
102
RTVSPropertyOp24
 70
     1
102
RTVSPropertyOp25
 70
     1
102
RTVSPropertyOp26
 70
     1
102
RTVSPropertyOp27
 70
     1
102
RTVSPropertyOp28
 70
     1
102
RTVSPropertyOp29
 70
     1
102
RTVSPropertyOp30
 70
     1
102
RTVSPropertyOp31
 70
     1
102
RTVSPropertyOp32
 70
     1
  0
XRECORD
  5
F10A64
102
{ACAD_REACTORS
330
F10A63
102
}
330
F10A63
100
AcDbXrecord
280
     1
102
RTVSPropertyOp0
 70
     1
102
RTVSPropertyOp1
 70
     1
102
RTVSPropertyOp2
 70
     1
102
RTVSPropertyOp3
 70
     1
102
RTVSPropertyOp4
 70
     1
102
RTVSPropertyOp5
 70
     1
102
RTVSPropertyOp6
 70
     1
102
RTVSPropertyOp7
 70
     1
102
RTVSPropertyOp8
 70
     1
102
RTVSPropertyOp9
 70
     1
102
RTVSPropertyOp10
 70
     1
102
RTVSPropertyOp11
 70
     1
102
RTVSPropertyOp12
 70
     1
102
RTVSPropertyOp13
 70
     1
102
RTVSPropertyOp14
 70
     1
102
RTVSPropertyOp15
 70
     1
102
RTVSPropertyOp16
 70
     1
102
RTVSPropertyOp17
 70
     1
102
RTVSPropertyOp18
 70
     1
102
RTVSPropertyOp19
 70
     1
102
RTVSPropertyOp20
 70
     1
102
RTVSPropertyOp21
 70
     1
102
RTVSPropertyOp22
 70
     1
102
RTVSPropertyOp23
 70
     1
102
RTVSPropertyOp24
 70
     1
102
RTVSPropertyOp25
 70
     1
102
RTVSPropertyOp26
 70
     1
102
RTVSPropertyOp27
 70
     1
102
RTVSPropertyOp28
 70
     1
102
RTVSPropertyOp29
 70
     1
102
RTVSPropertyOp30
 70
     1
102
RTVSPropertyOp31
 70
     1
102
RTVSPropertyOp32
 70
     1
  0
XRECORD
  5
F10A68
102
{ACAD_REACTORS
330
F10A67
102
}
330
F10A67
100
AcDbXrecord
280
     1
102
RTVSPropertyOp0
 70
     1
102
RTVSPropertyOp1
 70
     1
102
RTVSPropertyOp2
 70
     1
102
RTVSPropertyOp3
 70
     1
102
RTVSPropertyOp4
 70
     1
102
RTVSPropertyOp5
 70
     1
102
RTVSPropertyOp6
 70
     1
102
RTVSPropertyOp7
 70
     1
102
RTVSPropertyOp8
 70
     1
102
RTVSPropertyOp9
 70
     1
102
RTVSPropertyOp10
 70
     1
102
RTVSPropertyOp11
 70
     1
102
RTVSPropertyOp12
 70
     1
102
RTVSPropertyOp13
 70
     1
102
RTVSPropertyOp14
 70
     1
102
RTVSPropertyOp15
 70
     1
102
RTVSPropertyOp16
 70
     1
102
RTVSPropertyOp17
 70
     1
102
RTVSPropertyOp18
 70
     1
102
RTVSPropertyOp19
 70
     1
102
RTVSPropertyOp20
 70
     1
102
RTVSPropertyOp21
 70
     1
102
RTVSPropertyOp22
 70
     1
102
RTVSPropertyOp23
 70
     1
102
RTVSPropertyOp24
 70
     1
102
RTVSPropertyOp25
 70
     1
102
RTVSPropertyOp26
 70
     1
102
RTVSPropertyOp27
 70
     1
102
RTVSPropertyOp28
 70
     1
102
RTVSPropertyOp29
 70
     1
102
RTVSPropertyOp30
 70
     1
102
RTVSPropertyOp31
 70
     1
102
RTVSPropertyOp32
 70
     1
  0
XRECORD
  5
F10A78
102
{ACAD_REACTORS
330
F10A77
102
}
330
F10A77
100
AcDbXrecord
280
     1
102
RTVSPropertyOp0
 70
     0
102
RTVSPropertyOp1
 70
     0
102
RTVSPropertyOp2
 70
     0
102
RTVSPropertyOp3
 70
     0
102
RTVSPropertyOp4
 70
     0
102
RTVSPropertyOp5
 70
     0
102
RTVSPropertyOp6
 70
     0
102
RTVSPropertyOp7
 70
     0
102
RTVSPropertyOp8
 70
     0
102
RTVSPropertyOp9
 70
     0
102
RTVSPropertyOp10
 70
     0
102
RTVSPropertyOp11
 70
     0
102
RTVSPropertyOp12
 70
     0
102
RTVSPropertyOp13
 70
     0
102
RTVSPropertyOp14
 70
     2
102
RTVSPropertyOp15
 70
     0
102
RTVSPropertyOp16
 70
     0
102
RTVSPropertyOp17
 70
     0
102
RTVSPropertyOp18
 70
     0
102
RTVSPropertyOp19
 70
     0
102
RTVSPropertyOp20
 70
     0
102
RTVSPropertyOp21
 70
     0
102
RTVSPropertyOp22
 70
     0
102
RTVSPropertyOp23
 70
     0
102
RTVSPropertyOp24
 70
     0
102
RTVSPropertyOp25
 70
     0
102
RTVSPropertyOp26
 70
     0
102
RTVSPropertyOp27
 70
     0
102
RTVSPropertyOp28
 70
     1
102
RTVSPropertyOp29
 70
     1
102
RTVSPropertyOp30
 70
     1
102
RTVSPropertyOp31
 70
     1
102
RTVSPropertyOp32
 70
     1
  0
XRECORD
  5
F10A70
102
{ACAD_REACTORS
330
F10A6F
102
}
330
F10A6F
100
AcDbXrecord
280
     1
102
RTVSPropertyOp0
 70
     1
102
RTVSPropertyOp1
 70
     1
102
RTVSPropertyOp2
 70
     1
102
RTVSPropertyOp3
 70
     1
102
RTVSPropertyOp4
 70
     1
102
RTVSPropertyOp5
 70
     1
102
RTVSPropertyOp6
 70
     1
102
RTVSPropertyOp7
 70
     1
102
RTVSPropertyOp8
 70
     1
102
RTVSPropertyOp9
 70
     1
102
RTVSPropertyOp10
 70
     1
102
RTVSPropertyOp11
 70
     1
102
RTVSPropertyOp12
 70
     1
102
RTVSPropertyOp13
 70
     1
102
RTVSPropertyOp14
 70
     1
102
RTVSPropertyOp15
 70
     1
102
RTVSPropertyOp16
 70
     1
102
RTVSPropertyOp17
 70
     1
102
RTVSPropertyOp18
 70
     1
102
RTVSPropertyOp19
 70
     1
102
RTVSPropertyOp20
 70
     1
102
RTVSPropertyOp21
 70
     1
102
RTVSPropertyOp22
 70
     1
102
RTVSPropertyOp23
 70
     1
102
RTVSPropertyOp24
 70
     1
102
RTVSPropertyOp25
 70
     1
102
RTVSPropertyOp26
 70
     1
102
RTVSPropertyOp27
 70
     1
102
RTVSPropertyOp28
 70
     1
102
RTVSPropertyOp29
 70
     1
102
RTVSPropertyOp30
 70
     1
102
RTVSPropertyOp31
 70
     1
102
RTVSPropertyOp32
 70
     1
  0
XRECORD
  5
F10A54
102
{ACAD_REACTORS
330
F10A53
102
}
330
F10A53
100
AcDbXrecord
280
     1
102
RTVSPropertyOp0
 70
     1
102
RTVSPropertyOp1
 70
     1
102
RTVSPropertyOp2
 70
     1
102
RTVSPropertyOp3
 70
     1
102
RTVSPropertyOp4
 70
     1
102
RTVSPropertyOp5
 70
     1
102
RTVSPropertyOp6
 70
     1
102
RTVSPropertyOp7
 70
     1
102
RTVSPropertyOp8
 70
     1
102
RTVSPropertyOp9
 70
     1
102
RTVSPropertyOp10
 70
     1
102
RTVSPropertyOp11
 70
     1
102
RTVSPropertyOp12
 70
     1
102
RTVSPropertyOp13
 70
     1
102
RTVSPropertyOp14
 70
     1
102
RTVSPropertyOp15
 70
     1
102
RTVSPropertyOp16
 70
     1
102
RTVSPropertyOp17
 70
     1
102
RTVSPropertyOp18
 70
     1
102
RTVSPropertyOp19
 70
     1
102
RTVSPropertyOp20
 70
     1
102
RTVSPropertyOp21
 70
     1
102
RTVSPropertyOp22
 70
     1
102
RTVSPropertyOp23
 70
     1
102
RTVSPropertyOp24
 70
     1
102
RTVSPropertyOp25
 70
     1
102
RTVSPropertyOp26
 70
     1
102
RTVSPropertyOp27
 70
     1
102
RTVSPropertyOp28
 70
     1
102
RTVSPropertyOp29
 70
     1
102
RTVSPropertyOp30
 70
     1
102
RTVSPropertyOp31
 70
     1
102
RTVSPropertyOp32
 70
     1
  0
XRECORD
  5
F10A56
102
{ACAD_REACTORS
330
F10A55
102
}
330
F10A55
100
AcDbXrecord
280
     1
102
RTVSPropertyOp0
 70
     1
102
RTVSPropertyOp1
 70
     1
102
RTVSPropertyOp2
 70
     1
102
RTVSPropertyOp3
 70
     1
102
RTVSPropertyOp4
 70
     1
102
RTVSPropertyOp5
 70
     1
102
RTVSPropertyOp6
 70
     1
102
RTVSPropertyOp7
 70
     1
102
RTVSPropertyOp8
 70
     1
102
RTVSPropertyOp9
 70
     1
102
RTVSPropertyOp10
 70
     1
102
RTVSPropertyOp11
 70
     1
102
RTVSPropertyOp12
 70
     1
102
RTVSPropertyOp13
 70
     1
102
RTVSPropertyOp14
 70
     1
102
RTVSPropertyOp15
 70
     1
102
RTVSPropertyOp16
 70
     1
102
RTVSPropertyOp17
 70
     1
102
RTVSPropertyOp18
 70
     1
102
RTVSPropertyOp19
 70
     1
102
RTVSPropertyOp20
 70
     1
102
RTVSPropertyOp21
 70
     1
102
RTVSPropertyOp22
 70
     1
102
RTVSPropertyOp23
 70
     1
102
RTVSPropertyOp24
 70
     1
102
RTVSPropertyOp25
 70
     1
102
RTVSPropertyOp26
 70
     1
102
RTVSPropertyOp27
 70
     1
102
RTVSPropertyOp28
 70
     1
102
RTVSPropertyOp29
 70
     1
102
RTVSPropertyOp30
 70
     1
102
RTVSPropertyOp31
 70
     1
102
RTVSPropertyOp32
 70
     1
  0
XRECORD
  5
F10A58
102
{ACAD_REACTORS
330
F10A57
102
}
330
F10A57
100
AcDbXrecord
280
     1
102
RTVSPropertyOp0
 70
     1
102
RTVSPropertyOp1
 70
     1
102
RTVSPropertyOp2
 70
     1
102
RTVSPropertyOp3
 70
     1
102
RTVSPropertyOp4
 70
     1
102
RTVSPropertyOp5
 70
     1
102
RTVSPropertyOp6
 70
     1
102
RTVSPropertyOp7
 70
     1
102
RTVSPropertyOp8
 70
     1
102
RTVSPropertyOp9
 70
     1
102
RTVSPropertyOp10
 70
     1
102
RTVSPropertyOp11
 70
     1
102
RTVSPropertyOp12
 70
     1
102
RTVSPropertyOp13
 70
     1
102
RTVSPropertyOp14
 70
     1
102
RTVSPropertyOp15
 70
     1
102
RTVSPropertyOp16
 70
     1
102
RTVSPropertyOp17
 70
     1
102
RTVSPropertyOp18
 70
     1
102
RTVSPropertyOp19
 70
     1
102
RTVSPropertyOp20
 70
     1
102
RTVSPropertyOp21
 70
     1
102
RTVSPropertyOp22
 70
     1
102
RTVSPropertyOp23
 70
     1
102
RTVSPropertyOp24
 70
     1
102
RTVSPropertyOp25
 70
     1
102
RTVSPropertyOp26
 70
     1
102
RTVSPropertyOp27
 70
     1
102
RTVSPropertyOp28
 70
     1
102
RTVSPropertyOp29
 70
     1
102
RTVSPropertyOp30
 70
     1
102
RTVSPropertyOp31
 70
     1
102
RTVSPropertyOp32
 70
     1
  0
XRECORD
  5
F10A5A
102
{ACAD_REACTORS
330
F10A59
102
}
330
F10A59
100
AcDbXrecord
280
     1
102
RTVSPropertyOp0
 70
     1
102
RTVSPropertyOp1
 70
     1
102
RTVSPropertyOp2
 70
     1
102
RTVSPropertyOp3
 70
     1
102
RTVSPropertyOp4
 70
     1
102
RTVSPropertyOp5
 70
     1
102
RTVSPropertyOp6
 70
     1
102
RTVSPropertyOp7
 70
     1
102
RTVSPropertyOp8
 70
     1
102
RTVSPropertyOp9
 70
     1
102
RTVSPropertyOp10
 70
     1
102
RTVSPropertyOp11
 70
     1
102
RTVSPropertyOp12
 70
     1
102
RTVSPropertyOp13
 70
     1
102
RTVSPropertyOp14
 70
     1
102
RTVSPropertyOp15
 70
     1
102
RTVSPropertyOp16
 70
     1
102
RTVSPropertyOp17
 70
     1
102
RTVSPropertyOp18
 70
     1
102
RTVSPropertyOp19
 70
     1
102
RTVSPropertyOp20
 70
     1
102
RTVSPropertyOp21
 70
     1
102
RTVSPropertyOp22
 70
     1
102
RTVSPropertyOp23
 70
     1
102
RTVSPropertyOp24
 70
     1
102
RTVSPropertyOp25
 70
     1
102
RTVSPropertyOp26
 70
     1
102
RTVSPropertyOp27
 70
     1
102
RTVSPropertyOp28
 70
     1
102
RTVSPropertyOp29
 70
     1
102
RTVSPropertyOp30
 70
     1
102
RTVSPropertyOp31
 70
     1
102
RTVSPropertyOp32
 70
     1
  0
XRECORD
  5
F10A81
102
{ACAD_REACTORS
330
F10A80
102
}
330
F10A80
100
AcDbXrecord
280
     1
102
RTVSPropertyOp0
 70
     1
102
RTVSPropertyOp1
 70
     1
102
RTVSPropertyOp2
 70
     1
102
RTVSPropertyOp3
 70
     1
102
RTVSPropertyOp4
 70
     1
102
RTVSPropertyOp5
 70
     1
102
RTVSPropertyOp6
 70
     1
102
RTVSPropertyOp7
 70
     1
102
RTVSPropertyOp8
 70
     1
102
RTVSPropertyOp9
 70
     1
102
RTVSPropertyOp10
 70
     1
102
RTVSPropertyOp11
 70
     1
102
RTVSPropertyOp12
 70
     1
102
RTVSPropertyOp13
 70
     1
102
RTVSPropertyOp14
 70
     1
102
RTVSPropertyOp15
 70
     1
102
RTVSPropertyOp16
 70
     1
102
RTVSPropertyOp17
 70
     1
102
RTVSPropertyOp18
 70
     1
102
RTVSPropertyOp19
 70
     1
102
RTVSPropertyOp20
 70
     1
102
RTVSPropertyOp21
 70
     1
102
RTVSPropertyOp22
 70
     1
102
RTVSPropertyOp23
 70
     1
102
RTVSPropertyOp24
 70
     1
102
RTVSPropertyOp25
 70
     1
102
RTVSPropertyOp26
 70
     1
102
RTVSPropertyOp27
 70
     1
102
RTVSPropertyOp28
 70
     1
102
RTVSPropertyOp29
 70
     1
102
RTVSPropertyOp30
 70
     1
102
RTVSPropertyOp31
 70
     1
102
RTVSPropertyOp32
 70
     1
  0
XRECORD
  5
F10A74
102
{ACAD_REACTORS
330
F10A73
102
}
330
F10A73
100
AcDbXrecord
280
     1
102
RTVSPropertyOp0
 70
     0
102
RTVSPropertyOp1
 70
     0
102
RTVSPropertyOp2
 70
     0
102
RTVSPropertyOp3
 70
     0
102
RTVSPropertyOp4
 70
     0
102
RTVSPropertyOp5
 70
     0
102
RTVSPropertyOp6
 70
     0
102
RTVSPropertyOp7
 70
     0
102
RTVSPropertyOp8
 70
     0
102
RTVSPropertyOp9
 70
     0
102
RTVSPropertyOp10
 70
     0
102
RTVSPropertyOp11
 70
     0
102
RTVSPropertyOp12
 70
     0
102
RTVSPropertyOp13
 70
     0
102
RTVSPropertyOp14
 70
     2
102
RTVSPropertyOp15
 70
     0
102
RTVSPropertyOp16
 70
     0
102
RTVSPropertyOp17
 70
     0
102
RTVSPropertyOp18
 70
     0
102
RTVSPropertyOp19
 70
     0
102
RTVSPropertyOp20
 70
     0
102
RTVSPropertyOp21
 70
     0
102
RTVSPropertyOp22
 70
     0
102
RTVSPropertyOp23
 70
     0
102
RTVSPropertyOp24
 70
     0
102
RTVSPropertyOp25
 70
     0
102
RTVSPropertyOp26
 70
     0
102
RTVSPropertyOp27
 70
     0
102
RTVSPropertyOp28
 70
     1
102
RTVSPropertyOp29
 70
     1
102
RTVSPropertyOp30
 70
     1
102
RTVSPropertyOp31
 70
     1
102
RTVSPropertyOp32
 70
     1
  0
XRECORD
  5
F10A6E
102
{ACAD_REACTORS
330
F10A6D
102
}
330
F10A6D
100
AcDbXrecord
280
     1
102
RTVSPropertyOp0
 70
     1
102
RTVSPropertyOp1
 70
     1
102
RTVSPropertyOp2
 70
     1
102
RTVSPropertyOp3
 70
     1
102
RTVSPropertyOp4
 70
     1
102
RTVSPropertyOp5
 70
     1
102
RTVSPropertyOp6
 70
     1
102
RTVSPropertyOp7
 70
     1
102
RTVSPropertyOp8
 70
     1
102
RTVSPropertyOp9
 70
     1
102
RTVSPropertyOp10
 70
     1
102
RTVSPropertyOp11
 70
     1
102
RTVSPropertyOp12
 70
     1
102
RTVSPropertyOp13
 70
     1
102
RTVSPropertyOp14
 70
     1
102
RTVSPropertyOp15
 70
     1
102
RTVSPropertyOp16
 70
     1
102
RTVSPropertyOp17
 70
     1
102
RTVSPropertyOp18
 70
     1
102
RTVSPropertyOp19
 70
     1
102
RTVSPropertyOp20
 70
     1
102
RTVSPropertyOp21
 70
     1
102
RTVSPropertyOp22
 70
     1
102
RTVSPropertyOp23
 70
     1
102
RTVSPropertyOp24
 70
     1
102
RTVSPropertyOp25
 70
     1
102
RTVSPropertyOp26
 70
     1
102
RTVSPropertyOp27
 70
     1
102
RTVSPropertyOp28
 70
     1
102
RTVSPropertyOp29
 70
     1
102
RTVSPropertyOp30
 70
     1
102
RTVSPropertyOp31
 70
     1
102
RTVSPropertyOp32
 70
     1
  0
XRECORD
  5
F10A76
102
{ACAD_REACTORS
330
F10A75
102
}
330
F10A75
100
AcDbXrecord
280
     1
102
RTVSPropertyOp0
 70
     0
102
RTVSPropertyOp1
 70
     0
102
RTVSPropertyOp2
 70
     0
102
RTVSPropertyOp3
 70
     0
102
RTVSPropertyOp4
 70
     0
102
RTVSPropertyOp5
 70
     0
102
RTVSPropertyOp6
 70
     0
102
RTVSPropertyOp7
 70
     0
102
RTVSPropertyOp8
 70
     0
102
RTVSPropertyOp9
 70
     0
102
RTVSPropertyOp10
 70
     0
102
RTVSPropertyOp11
 70
     0
102
RTVSPropertyOp12
 70
     0
102
RTVSPropertyOp13
 70
     0
102
RTVSPropertyOp14
 70
     2
102
RTVSPropertyOp15
 70
     0
102
RTVSPropertyOp16
 70
     0
102
RTVSPropertyOp17
 70
     0
102
RTVSPropertyOp18
 70
     0
102
RTVSPropertyOp19
 70
     0
102
RTVSPropertyOp20
 70
     0
102
RTVSPropertyOp21
 70
     0
102
RTVSPropertyOp22
 70
     0
102
RTVSPropertyOp23
 70
     0
102
RTVSPropertyOp24
 70
     0
102
RTVSPropertyOp25
 70
     0
102
RTVSPropertyOp26
 70
     0
102
RTVSPropertyOp27
 70
     0
102
RTVSPropertyOp28
 70
     1
102
RTVSPropertyOp29
 70
     1
102
RTVSPropertyOp30
 70
     1
102
RTVSPropertyOp31
 70
     1
102
RTVSPropertyOp32
 70
     1
  0
XRECORD
  5
F10A66
102
{ACAD_REACTORS
330
F10A65
102
}
330
F10A65
100
AcDbXrecord
280
     1
102
RTVSPropertyOp0
 70
     1
102
RTVSPropertyOp1
 70
     1
102
RTVSPropertyOp2
 70
     1
102
RTVSPropertyOp3
 70
     1
102
RTVSPropertyOp4
 70
     1
102
RTVSPropertyOp5
 70
     1
102
RTVSPropertyOp6
 70
     1
102
RTVSPropertyOp7
 70
     1
102
RTVSPropertyOp8
 70
     1
102
RTVSPropertyOp9
 70
     1
102
RTVSPropertyOp10
 70
     1
102
RTVSPropertyOp11
 70
     1
102
RTVSPropertyOp12
 70
     1
102
RTVSPropertyOp13
 70
     1
102
RTVSPropertyOp14
 70
     1
102
RTVSPropertyOp15
 70
     1
102
RTVSPropertyOp16
 70
     1
102
RTVSPropertyOp17
 70
     1
102
RTVSPropertyOp18
 70
     1
102
RTVSPropertyOp19
 70
     1
102
RTVSPropertyOp20
 70
     1
102
RTVSPropertyOp21
 70
     1
102
RTVSPropertyOp22
 70
     1
102
RTVSPropertyOp23
 70
     1
102
RTVSPropertyOp24
 70
     1
102
RTVSPropertyOp25
 70
     1
102
RTVSPropertyOp26
 70
     1
102
RTVSPropertyOp27
 70
     1
102
RTVSPropertyOp28
 70
     1
102
RTVSPropertyOp29
 70
     1
102
RTVSPropertyOp30
 70
     1
102
RTVSPropertyOp31
 70
     1
102
RTVSPropertyOp32
 70
     1
  0
XRECORD
  5
F10A8B
102
{ACAD_REACTORS
330
F10A8A
102
}
330
F10A8A
100
AcDbXrecord
280
     1
102
RTVSPropertyOp0
 70
     1
102
RTVSPropertyOp1
 70
     1
102
RTVSPropertyOp2
 70
     1
102
RTVSPropertyOp3
 70
     1
102
RTVSPropertyOp4
 70
     1
102
RTVSPropertyOp5
 70
     1
102
RTVSPropertyOp6
 70
     1
102
RTVSPropertyOp7
 70
     1
102
RTVSPropertyOp8
 70
     1
102
RTVSPropertyOp9
 70
     1
102
RTVSPropertyOp10
 70
     1
102
RTVSPropertyOp11
 70
     1
102
RTVSPropertyOp12
 70
     1
102
RTVSPropertyOp13
 70
     1
102
RTVSPropertyOp14
 70
     1
102
RTVSPropertyOp15
 70
     1
102
RTVSPropertyOp16
 70
     1
102
RTVSPropertyOp17
 70
     1
102
RTVSPropertyOp18
 70
     1
102
RTVSPropertyOp19
 70
     1
102
RTVSPropertyOp20
 70
     1
102
RTVSPropertyOp21
 70
     1
102
RTVSPropertyOp22
 70
     1
102
RTVSPropertyOp23
 70
     1
102
RTVSPropertyOp24
 70
     1
102
RTVSPropertyOp25
 70
     1
102
RTVSPropertyOp26
 70
     1
102
RTVSPropertyOp27
 70
     1
102
RTVSPropertyOp28
 70
     1
102
RTVSPropertyOp29
 70
     1
102
RTVSPropertyOp30
 70
     1
102
RTVSPropertyOp31
 70
     1
102
RTVSPropertyOp32
 70
     1
  0
XRECORD
  5
F10A89
102
{ACAD_REACTORS
330
F10A88
102
}
330
F10A88
100
AcDbXrecord
280
     1
102
RTVSPropertyOp0
 70
     1
102
RTVSPropertyOp1
 70
     1
102
RTVSPropertyOp2
 70
     1
102
RTVSPropertyOp3
 70
     1
102
RTVSPropertyOp4
 70
     1
102
RTVSPropertyOp5
 70
     1
102
RTVSPropertyOp6
 70
     1
102
RTVSPropertyOp7
 70
     1
102
RTVSPropertyOp8
 70
     1
102
RTVSPropertyOp9
 70
     1
102
RTVSPropertyOp10
 70
     1
102
RTVSPropertyOp11
 70
     1
102
RTVSPropertyOp12
 70
     1
102
RTVSPropertyOp13
 70
     1
102
RTVSPropertyOp14
 70
     1
102
RTVSPropertyOp15
 70
     1
102
RTVSPropertyOp16
 70
     1
102
RTVSPropertyOp17
 70
     1
102
RTVSPropertyOp18
 70
     1
102
RTVSPropertyOp19
 70
     1
102
RTVSPropertyOp20
 70
     1
102
RTVSPropertyOp21
 70
     1
102
RTVSPropertyOp22
 70
     1
102
RTVSPropertyOp23
 70
     1
102
RTVSPropertyOp24
 70
     1
102
RTVSPropertyOp25
 70
     1
102
RTVSPropertyOp26
 70
     1
102
RTVSPropertyOp27
 70
     1
102
RTVSPropertyOp28
 70
     1
102
RTVSPropertyOp29
 70
     1
102
RTVSPropertyOp30
 70
     1
102
RTVSPropertyOp31
 70
     1
102
RTVSPropertyOp32
 70
     1
  0
XRECORD
  5
F10A83
102
{ACAD_REACTORS
330
F10A82
102
}
330
F10A82
100
AcDbXrecord
280
     1
102
RTVSPropertyOp0
 70
     1
102
RTVSPropertyOp1
 70
     1
102
RTVSPropertyOp2
 70
     1
102
RTVSPropertyOp3
 70
     1
102
RTVSPropertyOp4
 70
     1
102
RTVSPropertyOp5
 70
     1
102
RTVSPropertyOp6
 70
     1
102
RTVSPropertyOp7
 70
     1
102
RTVSPropertyOp8
 70
     1
102
RTVSPropertyOp9
 70
     1
102
RTVSPropertyOp10
 70
     1
102
RTVSPropertyOp11
 70
     1
102
RTVSPropertyOp12
 70
     1
102
RTVSPropertyOp13
 70
     1
102
RTVSPropertyOp14
 70
     1
102
RTVSPropertyOp15
 70
     1
102
RTVSPropertyOp16
 70
     1
102
RTVSPropertyOp17
 70
     1
102
RTVSPropertyOp18
 70
     1
102
RTVSPropertyOp19
 70
     1
102
RTVSPropertyOp20
 70
     1
102
RTVSPropertyOp21
 70
     1
102
RTVSPropertyOp22
 70
     1
102
RTVSPropertyOp23
 70
     1
102
RTVSPropertyOp24
 70
     1
102
RTVSPropertyOp25
 70
     1
102
RTVSPropertyOp26
 70
     1
102
RTVSPropertyOp27
 70
     1
102
RTVSPropertyOp28
 70
     1
102
RTVSPropertyOp29
 70
     1
102
RTVSPropertyOp30
 70
     1
102
RTVSPropertyOp31
 70
     1
102
RTVSPropertyOp32
 70
     1
  0
XRECORD
  5
F10A85
102
{ACAD_REACTORS
330
F10A84
102
}
330
F10A84
100
AcDbXrecord
280
     1
102
RTVSPropertyOp0
 70
     1
102
RTVSPropertyOp1
 70
     1
102
RTVSPropertyOp2
 70
     1
102
RTVSPropertyOp3
 70
     1
102
RTVSPropertyOp4
 70
     1
102
RTVSPropertyOp5
 70
     1
102
RTVSPropertyOp6
 70
     1
102
RTVSPropertyOp7
 70
     1
102
RTVSPropertyOp8
 70
     1
102
RTVSPropertyOp9
 70
     1
102
RTVSPropertyOp10
 70
     1
102
RTVSPropertyOp11
 70
     1
102
RTVSPropertyOp12
 70
     1
102
RTVSPropertyOp13
 70
     1
102
RTVSPropertyOp14
 70
     1
102
RTVSPropertyOp15
 70
     1
102
RTVSPropertyOp16
 70
     1
102
RTVSPropertyOp17
 70
     1
102
RTVSPropertyOp18
 70
     1
102
RTVSPropertyOp19
 70
     1
102
RTVSPropertyOp20
 70
     1
102
RTVSPropertyOp21
 70
     1
102
RTVSPropertyOp22
 70
     1
102
RTVSPropertyOp23
 70
     1
102
RTVSPropertyOp24
 70
     1
102
RTVSPropertyOp25
 70
     1
102
RTVSPropertyOp26
 70
     1
102
RTVSPropertyOp27
 70
     1
102
RTVSPropertyOp28
 70
     1
102
RTVSPropertyOp29
 70
     1
102
RTVSPropertyOp30
 70
     1
102
RTVSPropertyOp31
 70
     1
102
RTVSPropertyOp32
 70
     1
  0
XRECORD
  5
F10A6C
102
{ACAD_REACTORS
330
F10A6B
102
}
330
F10A6B
100
AcDbXrecord
280
     1
102
RTVSPropertyOp0
 70
     1
102
RTVSPropertyOp1
 70
     1
102
RTVSPropertyOp2
 70
     1
102
RTVSPropertyOp3
 70
     1
102
RTVSPropertyOp4
 70
     1
102
RTVSPropertyOp5
 70
     1
102
RTVSPropertyOp6
 70
     1
102
RTVSPropertyOp7
 70
     1
102
RTVSPropertyOp8
 70
     1
102
RTVSPropertyOp9
 70
     1
102
RTVSPropertyOp10
 70
     1
102
RTVSPropertyOp11
 70
     1
102
RTVSPropertyOp12
 70
     1
102
RTVSPropertyOp13
 70
     1
102
RTVSPropertyOp14
 70
     1
102
RTVSPropertyOp15
 70
     1
102
RTVSPropertyOp16
 70
     1
102
RTVSPropertyOp17
 70
     1
102
RTVSPropertyOp18
 70
     1
102
RTVSPropertyOp19
 70
     1
102
RTVSPropertyOp20
 70
     1
102
RTVSPropertyOp21
 70
     1
102
RTVSPropertyOp22
 70
     1
102
RTVSPropertyOp23
 70
     1
102
RTVSPropertyOp24
 70
     1
102
RTVSPropertyOp25
 70
     1
102
RTVSPropertyOp26
 70
     1
102
RTVSPropertyOp27
 70
     1
102
RTVSPropertyOp28
 70
     1
102
RTVSPropertyOp29
 70
     1
102
RTVSPropertyOp30
 70
     1
102
RTVSPropertyOp31
 70
     1
102
RTVSPropertyOp32
 70
     1
  0
XRECORD
  5
F10A7F
102
{ACAD_REACTORS
330
F10A7E
102
}
330
F10A7E
100
AcDbXrecord
280
     1
102
RTVSPropertyOp0
 70
     1
102
RTVSPropertyOp1
 70
     1
102
RTVSPropertyOp2
 70
     1
102
RTVSPropertyOp3
 70
     1
102
RTVSPropertyOp4
 70
     1
102
RTVSPropertyOp5
 70
     1
102
RTVSPropertyOp6
 70
     1
102
RTVSPropertyOp7
 70
     1
102
RTVSPropertyOp8
 70
     1
102
RTVSPropertyOp9
 70
     1
102
RTVSPropertyOp10
 70
     1
102
RTVSPropertyOp11
 70
     1
102
RTVSPropertyOp12
 70
     1
102
RTVSPropertyOp13
 70
     1
102
RTVSPropertyOp14
 70
     1
102
RTVSPropertyOp15
 70
     1
102
RTVSPropertyOp16
 70
     1
102
RTVSPropertyOp17
 70
     1
102
RTVSPropertyOp18
 70
     1
102
RTVSPropertyOp19
 70
     1
102
RTVSPropertyOp20
 70
     1
102
RTVSPropertyOp21
 70
     1
102
RTVSPropertyOp22
 70
     1
102
RTVSPropertyOp23
 70
     1
102
RTVSPropertyOp24
 70
     1
102
RTVSPropertyOp25
 70
     1
102
RTVSPropertyOp26
 70
     1
102
RTVSPropertyOp27
 70
     1
102
RTVSPropertyOp28
 70
     1
102
RTVSPropertyOp29
 70
     1
102
RTVSPropertyOp30
 70
     1
102
RTVSPropertyOp31
 70
     1
102
RTVSPropertyOp32
 70
     1
  0
XRECORD
  5
F10A87
102
{ACAD_REACTORS
330
F10A86
102
}
330
F10A86
100
AcDbXrecord
280
     1
102
RTVSPropertyOp0
 70
     1
102
RTVSPropertyOp1
 70
     1
102
RTVSPropertyOp2
 70
     1
102
RTVSPropertyOp3
 70
     1
102
RTVSPropertyOp4
 70
     1
102
RTVSPropertyOp5
 70
     1
102
RTVSPropertyOp6
 70
     1
102
RTVSPropertyOp7
 70
     1
102
RTVSPropertyOp8
 70
     1
102
RTVSPropertyOp9
 70
     1
102
RTVSPropertyOp10
 70
     1
102
RTVSPropertyOp11
 70
     1
102
RTVSPropertyOp12
 70
     1
102
RTVSPropertyOp13
 70
     1
102
RTVSPropertyOp14
 70
     1
102
RTVSPropertyOp15
 70
     1
102
RTVSPropertyOp16
 70
     1
102
RTVSPropertyOp17
 70
     1
102
RTVSPropertyOp18
 70
     1
102
RTVSPropertyOp19
 70
     1
102
RTVSPropertyOp20
 70
     1
102
RTVSPropertyOp21
 70
     1
102
RTVSPropertyOp22
 70
     1
102
RTVSPropertyOp23
 70
     1
102
RTVSPropertyOp24
 70
     1
102
RTVSPropertyOp25
 70
     1
102
RTVSPropertyOp26
 70
     1
102
RTVSPropertyOp27
 70
     1
102
RTVSPropertyOp28
 70
     1
102
RTVSPropertyOp29
 70
     1
102
RTVSPropertyOp30
 70
     1
102
RTVSPropertyOp31
 70
     1
102
RTVSPropertyOp32
 70
     1
  0
ENDSEC
  0
EOF
