  0
SECTION
  2
HEADER
  9
$ACADVER
  1
AC1015
  9
$ACADMAINTVER
 70
    20
  9
$DWGCODEPAGE
  3
ANSI_1252
  9
$INSBASE
 10
0.0
 20
0.0
 30
0.0
  9
$EXTMIN
 10
-165.802325581395
 20
-100.116279069767
 30
0.0
  9
$EXTMAX
 10
143.337209302326
 20
106.7646657571623
 30
0.0
  9
$LIMMIN
 10
0.0
 20
0.0
  9
$LIMMAX
 10
12.0
 20
9.0
  9
$ORTHOMODE
 70
     0
  9
$REGENMODE
 70
     1
  9
$FILLMODE
 70
     1
  9
$QTEXTMODE
 70
     0
  9
$MIRRTEXT
 70
     1
  9
$LTSCALE
 40
1.0
  9
$ATTMODE
 70
     1
  9
$TEXTSIZE
 40
0.2
  9
$TRACEWID
 40
0.05
  9
$TEXTSTYLE
  7
Standard
  9
$CLAYER
  8
0
  9
$CELTYPE
  6
ByLayer
  9
$CECOLOR
 62
   256
  9
$CELTSCALE
 40
1.0
  9
$DISPSILH
 70
     0
  9
$DIMSCALE
 40
1.0
  9
$DIMASZ
 40
2.5
  9
$DIMEXO
 40
0.625
  9
$DIMDLI
 40
0.38
  9
$DIMRND
 40
0.0
  9
$DIMDLE
 40
0.0
  9
$DIMEXE
 40
1.25
  9
$DIMTP
 40
0.0
  9
$DIMTM
 40
0.000000001
  9
$DIMTXT
 40
2.5
  9
$DIMCEN
 40
0.09
  9
$DIMTSZ
 40
0.0
  9
$DIMTOL
 70
     1
  9
$DIMLIM
 70
     0
  9
$DIMTIH
 70
     0
  9
$DIMTOH
 70
     0
  9
$DIMSE1
 70
     0
  9
$DIMSE2
 70
     0
  9
$DIMTAD
 70
     1
  9
$DIMZIN
 70
     0
  9
$DIMBLK
  1
VDDIM_DEFAULT
  9
$DIMASO
 70
     1
  9
$DIMSHO
 70
     1
  9
$DIMPOST
  1

  9
$DIMAPOST
  1

  9
$DIMALT
 70
     0
  9
$DIMALTD
 70
     2
  9
$DIMALTF
 40
25.4
  9
$DIMLFAC
 40
1.0
  9
$DIMTOFL
 70
     0
  9
$DIMTVP
 40
0.0
  9
$DIMTIX
 70
     0
  9
$DIMSOXD
 70
     0
  9
$DIMSAH
 70
     0
  9
$DIMBLK1
  1

  9
$DIMBLK2
  1

  9
$DIMSTYLE
  2
BEM-ISBE
  9
$DIMCLRD
 70
     0
  9
$DIMCLRE
 70
     0
  9
$DIMCLRT
 70
     0
  9
$DIMTFAC
 40
0.5
  9
$DIMGAP
 40
0.625
  9
$DIMJUST
 70
     0
  9
$DIMSD1
 70
     0
  9
$DIMSD2
 70
     0
  9
$DIMTOLJ
 70
     1
  9
$DIMTZIN
 70
     0
  9
$DIMALTZ
 70
     0
  9
$DIMALTTZ
 70
     0
  9
$DIMUPT
 70
     0
  9
$DIMDEC
 70
     3
  9
$DIMTDEC
 70
     3
  9
$DIMALTU
 70
     2
  9
$DIMALTTD
 70
     2
  9
$DIMTXSTY
  7
Standard
  9
$DIMAUNIT
 70
     0
  9
$DIMADEC
 70
     3
  9
$DIMALTRND
 40
0.0
  9
$DIMAZIN
 70
     0
  9
$DIMDSEP
 70
    46
  9
$DIMATFIT
 70
     3
  9
$DIMFRAC
 70
     0
  9
$DIMLDRBLK
  1

  9
$DIMLUNIT
 70
     2
  9
$DIMLWD
 70
    -2
  9
$DIMLWE
 70
    -2
  9
$DIMTMOVE
 70
     0
  9
$LUNITS
 70
     2
  9
$LUPREC
 70
     4
  9
$SKETCHINC
 40
0.1
  9
$FILLETRAD
 40
0.0
  9
$AUNITS
 70
     0
  9
$AUPREC
 70
     0
  9
$MENU
  1
.
  9
$ELEVATION
 40
0.0
  9
$PELEVATION
 40
0.0
  9
$THICKNESS
 40
0.0
  9
$LIMCHECK
 70
     0
  9
$CHAMFERA
 40
0.5
  9
$CHAMFERB
 40
0.5
  9
$CHAMFERC
 40
1.0
  9
$CHAMFERD
 40
0.0
  9
$SKPOLY
 70
     0
  9
$TDCREATE
 40
2456815.564529791
  9
$TDUCREATE
 40
2456815.481196459
  9
$TDUPDATE
 40
2456815.566416053
  9
$TDUUPDATE
 40
2456815.483082720
  9
$TDINDWG
 40
0.0018874884
  9
$TDUSRTIMER
 40
0.0018874421
  9
$USRTIMER
 70
     1
  9
$ANGBASE
 50
0.0
  9
$ANGDIR
 70
     0
  9
$PDMODE
 70
     0
  9
$PDSIZE
 40
0.0
  9
$PLINEWID
 40
0.0
  9
$SPLFRAME
 70
     0
  9
$SPLINETYPE
 70
     6
  9
$SPLINESEGS
 70
     8
  9
$HANDSEED
  5
F10CB2
  9
$SURFTAB1
 70
     6
  9
$SURFTAB2
 70
     6
  9
$SURFTYPE
 70
     6
  9
$SURFU
 70
     6
  9
$SURFV
 70
     6
  9
$UCSBASE
  2

  9
$UCSNAME
  2

  9
$UCSORG
 10
-81.06277533039659
 20
10.7544052863435
 30
0.0
  9
$UCSXDIR
 10
1.0
 20
0.0
 30
0.0
  9
$UCSYDIR
 10
0.0
 20
1.0
 30
0.0
  9
$UCSORTHOREF
  2

  9
$UCSORTHOVIEW
 70
     0
  9
$UCSORGTOP
 10
0.0
 20
0.0
 30
0.0
  9
$UCSORGBOTTOM
 10
0.0
 20
0.0
 30
0.0
  9
$UCSORGLEFT
 10
0.0
 20
0.0
 30
0.0
  9
$UCSORGRIGHT
 10
0.0
 20
0.0
 30
0.0
  9
$UCSORGFRONT
 10
0.0
 20
0.0
 30
0.0
  9
$UCSORGBACK
 10
0.0
 20
0.0
 30
0.0
  9
$PUCSBASE
  2

  9
$PUCSNAME
  2

  9
$PUCSORG
 10
0.0
 20
0.0
 30
0.0
  9
$PUCSXDIR
 10
1.0
 20
0.0
 30
0.0
  9
$PUCSYDIR
 10
0.0
 20
1.0
 30
0.0
  9
$PUCSORTHOREF
  2

  9
$PUCSORTHOVIEW
 70
     0
  9
$PUCSORGTOP
 10
0.0
 20
0.0
 30
0.0
  9
$PUCSORGBOTTOM
 10
0.0
 20
0.0
 30
0.0
  9
$PUCSORGLEFT
 10
0.0
 20
0.0
 30
0.0
  9
$PUCSORGRIGHT
 10
0.0
 20
0.0
 30
0.0
  9
$PUCSORGFRONT
 10
0.0
 20
0.0
 30
0.0
  9
$PUCSORGBACK
 10
0.0
 20
0.0
 30
0.0
  9
$USERI1
 70
     0
  9
$USERI2
 70
     0
  9
$USERI3
 70
     0
  9
$USERI4
 70
     0
  9
$USERI5
 70
     0
  9
$USERR1
 40
0.0
  9
$USERR2
 40
0.0
  9
$USERR3
 40
0.0
  9
$USERR4
 40
0.0
  9
$USERR5
 40
0.0
  9
$WORLDVIEW
 70
     1
  9
$SHADEDGE
 70
     3
  9
$SHADEDIF
 70
    70
  9
$TILEMODE
 70
     1
  9
$MAXACTVP
 70
    64
  9
$PINSBASE
 10
0.0
 20
0.0
 30
0.0
  9
$PLIMCHECK
 70
     0
  9
$PEXTMIN
 10
1.000000000000000E+20
 20
1.000000000000000E+20
 30
1.000000000000000E+20
  9
$PEXTMAX
 10
-1.000000000000000E+20
 20
-1.000000000000000E+20
 30
-1.000000000000000E+20
  9
$PLIMMIN
 10
0.0
 20
0.0
  9
$PLIMMAX
 10
12.0
 20
9.0
  9
$UNITMODE
 70
     0
  9
$VISRETAIN
 70
     1
  9
$PLINEGEN
 70
     0
  9
$PSLTSCALE
 70
     1
  9
$TREEDEPTH
 70
  3020
  9
$CMLSTYLE
  2
Standard
  9
$CMLJUST
 70
     0
  9
$CMLSCALE
 40
1.0
  9
$PROXYGRAPHICS
 70
     1
  9
$MEASUREMENT
 70
     0
  9
$CELWEIGHT
370
    -1
  9
$ENDCAPS
280
     0
  9
$JOINSTYLE
280
     0
  9
$LWDISPLAY
290
     0
  9
$INSUNITS
 70
     4
  9
$HYPERLINKBASE
  1

  9
$STYLESHEET
  1

  9
$XEDIT
290
     1
  9
$CEPSNTYPE
380
     0
  9
$PSTYLEMODE
290
     0
  9
$FINGERPRINTGUID
  2
{FAEB1C30-E019-11D5-929B-00C0DF256EC4}
  9
$VERSIONGUID
  2
{88EBAE18-4508-4927-9C7C-7BCF46B25851}
  9
$EXTNAMES
290
     1
  9
$PSVPSCALE
 40
0.0
  9
$OLESTARTUP
290
     0
  0
ENDSEC
  0
SECTION
  2
CLASSES
  0
CLASS
  1
ACDBDICTIONARYWDFLT
  2
AcDbDictionaryWithDefault
  3
ObjectDBX Classes
 90
        0
280
     0
281
     0
  0
CLASS
  1
MATERIAL
  2
AcDbMaterial
  3
ObjectDBX Classes
 90
     1153
280
     0
281
     0
  0
CLASS
  1
MLEADERSTYLE
  2
AcDbMLeaderStyle
  3
ACDB_MLEADERSTYLE_CLASS
 90
     4095
280
     0
281
     0
  0
CLASS
  1
SCALE
  2
AcDbScale
  3
ObjectDBX Classes
 90
     1153
280
     0
281
     0
  0
CLASS
  1
TABLESTYLE
  2
AcDbTableStyle
  3
ObjectDBX Classes
 90
     4095
280
     0
281
     0
  0
CLASS
  1
VISUALSTYLE
  2
AcDbVisualStyle
  3
ObjectDBX Classes
 90
     4095
280
     0
281
     0
  0
CLASS
  1
DICTIONARYVAR
  2
AcDbDictionaryVar
  3
ObjectDBX Classes
 90
        0
280
     0
281
     0
  0
CLASS
  1
CELLSTYLEMAP
  2
AcDbCellStyleMap
  3
ObjectDBX Classes
 90
     1152
280
     0
281
     0
  0
CLASS
  1
AMGSETTINGSOBJ
  2
AmgSettingsObj
  3
"AcadM|Product Description: AutoCAD Mechanical|Company: Autodesk, Inc."
 90
     1024
280
     0
281
     0
  0
CLASS
  1
ACME_DOCUMENT
  2
AcMeDbDoc
  3
AcMeServices
 90
     1024
280
     0
281
     0
  0
CLASS
  1
ACMESCOPE
  2
AcMeScope
  3
AcMeServices
 90
     1024
280
     0
281
     0
  0
CLASS
  1
ACMECOMMANDHISTORY
  2
AcMeCommandHistory
  3
AcMeServices
 90
     1024
280
     0
281
     0
  0
CLASS
  1
ACIMSYSVARMAN
  2
AcImSysVarManager
  3
AcMeServices
 90
     1024
280
     0
281
     0
  0
CLASS
  1
ACIMINTSYSVAR
  2
AcImIntSysVar
  3
AcMeServices
 90
     1024
280
     0
281
     0
  0
CLASS
  1
ACMESTATEMGR
  2
AcMeStateMgr
  3
AcMeServices
 90
     1024
280
     0
281
     0
  0
CLASS
  1
ACDBENTITYCACHE
  2
AcMeEntityCache
  3
AcMeServices
 90
     1024
280
     0
281
     0
  0
CLASS
  1
ACGREFMASTER
  2
AcGrefMaster
  3
AcAttribServices
 90
     1024
280
     0
281
     0
  0
CLASS
  1
AM_DRAWING_MGR
  2
AcDmDwgMgr
  3
AcMechDwgViewMgmt
 90
     1024
280
     0
281
     0
  0
CLASS
  1
AM_DWG_DOCUMENT
  2
AcDmDwgDocument
  3
AcMechDwgViewMgmt
 90
     1024
280
     0
281
     0
  0
CLASS
  1
AM_DWG_SHEET
  2
AcDmSheet
  3
AcMechDwgViewMgmt
 90
     1024
280
     0
281
     0
  0
CLASS
  1
AM_VIEWDIMPARMAP
  2
AcDmViewDimParMap
  3
AcMechDwgViewMgmt
 90
     1024
280
     0
281
     0
  0
CLASS
  1
AMDTINTERNALREACTOR
  2
AmdtInternalReactor
  3
AcMeServices
 90
     1024
280
     0
281
     0
  0
CLASS
  1
ACIMREALSYSVAR
  2
AcImRealSysVar
  3
AcMeServices
 90
     1024
280
     0
281
     0
  0
CLASS
  1
AM_DWGMGR_NAME
  2
AcDmDwgMgrName
  3
AcMechDwgViewMgmt
 90
     1024
280
     0
281
     0
  0
CLASS
  1
ACME_DATABASE
  2
AcMeDbDatabase
  3
AcMeServices
 90
     1024
280
     0
281
     0
  0
CLASS
  1
ACRFINSADJUSTERMGR
  2
AcRfInsAdjusterMgr
  3
AcMeServices
 90
     1024
280
     0
281
     0
  0
CLASS
  1
ACGREFACADMASTER
  2
AcGrefacadMaster
  3
AcGrefServices
 90
     1024
280
     0
281
     0
  0
CLASS
  1
AMDTMENUSTATEMGR
  2
AmdtMenuStateMgr
  3
McadcomServices
 90
     1024
280
     0
281
     0
  0
CLASS
  1
AMDTMCOMMENUSTATE
  2
AmdtMcomMenuState
  3
McadcomServices
 90
     1024
280
     0
281
     0
  0
CLASS
  1
AMIMASTER
  2
AmiMaster
  3
AmiServices
 90
     1024
280
     0
281
     0
  0
CLASS
  1
MAPIAMMOUDLE
  2
MApiAmModule
  3
MApiAmServices
 90
     1024
280
     0
281
     0
  0
CLASS
  1
ACIMSTRSYSVAR
  2
AcImStrSysVar
  3
AcMeServices
 90
     1024
280
     0
281
     0
  0
CLASS
  1
AMDTDMMENUSTATE
  2
AmdtDmMenuState
  3
AcMechDwgViewMgmt
 90
     1024
280
     0
281
     0
  0
CLASS
  1
AMDTAMMENUSTATE
  2
AmdtAmMenuState
  3
DesignerAssemblies
 90
     1024
280
     0
281
     0
  0
CLASS
  1
ACAMPROJECT
  2
AcAmProject
  3
DesignerAssemblies
 90
     1024
280
     0
281
     0
  0
CLASS
  1
ACAMGRCOMPDEF
  2
AcAmGrCompDef
  3
DesignerAssemblies
 90
     1024
280
     0
281
     0
  0
CLASS
  1
ACAMCOMPDEF
  2
AcAmCompDef
  3
DesignerAssemblies
 90
     1024
280
     0
281
     0
  0
CLASS
  1
ACAMCOMPDEFMGR
  2
AcAmCompDefMgr
  3
DesignerAssemblies
 90
     1024
280
     0
281
     0
  0
CLASS
  1
AMCONTEXTMGR
  2
AcAmContextMgr
  3
DesignerAssemblies
 90
     1024
280
     0
281
     0
  0
CLASS
  1
ACAMCONTEXTMODELER
  2
AcAmContextModeler
  3
DesignerAssemblies
 90
     1024
280
     0
281
     0
  0
CLASS
  1
ACMDATADICTIONARY
  2
AcmDataDictionary
  3
"AcmSymBB|Product Description: AutoCAD Mechanical|Company: Autodesk, Inc."
 90
     1024
280
     0
281
     0
  0
CLASS
  1
ACAMGRCOMPDEFSET
  2
AcAmGrCompDefSet
  3
DesignerAssemblies
 90
     1024
280
     0
281
     0
  0
CLASS
  1
AMDTBROWSERDBTAB
  2
AmdtBrowserDbTab
  3
McadcomServices
 90
     1024
280
     0
281
     0
  0
CLASS
  1
CBROWSERAPPOBJECT
  2
CBrowserAppObject
  3
McadcomServices
 90
     1024
280
     0
281
     0
  0
CLASS
  1
DM_PLACEHOLDER
  2
AcDmSelsetPlaceholder
  3
AcMechDwgViewMgmt
 90
     1024
280
     0
281
     0
  0
CLASS
  1
EXACXREFPANELOBJECT
  2
ExAcXREFPanelObject
  3
EXAC_ESW
 90
     1025
280
     0
281
     0
  0
CLASS
  1
NPOCOLLECTION
  2
AcDbImpNonPersistentObjectsCollection
  3
ObjectDBX Classes
 90
     1153
280
     0
281
     0
  0
CLASS
  1
ACMSTANDARDANSI
  2
AcmStandardANSI
  3
"Amdt_StdImp|Product Description: AutoCAD Mechanical|Company: Autodesk, Inc."
 90
     1024
280
     0
281
     0
  0
CLASS
  1
ACMSURFSTANDARDANSI
  2
AcmSurfTextStdANSI
  3
"Amdt_StdImp|Product Description: AutoCAD Mechanical|Company: Autodesk, Inc."
 90
     1024
280
     0
281
     0
  0
CLASS
  1
ACMFCFSTANDARDANSI
  2
AcmFCFStdANSI
  3
"Amdt_StdImp|Product Description: AutoCAD Mechanical|Company: Autodesk, Inc."
 90
     1024
280
     0
281
     0
  0
CLASS
  1
ACMWELDSTANDARDANSI
  2
AcmWeldingStdANSI
  3
"Amdt_StdImp|Product Description: AutoCAD Mechanical|Company: Autodesk, Inc."
 90
     1024
280
     0
281
     0
  0
CLASS
  1
ACMIDSTANDARDANSI
  2
AcmIdStdANSI
  3
"Amdt_StdImp|Product Description: AutoCAD Mechanical|Company: Autodesk, Inc."
 90
     1024
280
     0
281
     0
  0
CLASS
  1
ACMDATUMSTANDARDANSI
  2
AcmDatumStdANSI
  3
"Amdt_StdImp|Product Description: AutoCAD Mechanical|Company: Autodesk, Inc."
 90
     1024
280
     0
281
     0
  0
CLASS
  1
ACMBOMSTANDARDANSI
  2
AcmBOMStdANSI
  3
"Amdt_StdImp|Product Description: AutoCAD Mechanical|Company: Autodesk, Inc."
 90
     1024
280
     0
281
     0
  0
CLASS
  1
ACMDETAILSTANDARDANSI
  2
AmdtDetailSymStdANSI
  3
"Amdt_StdImp|Product Description: AutoCAD Mechanical|Company: Autodesk, Inc."
 90
     1024
280
     0
281
     0
  0
CLASS
  1
ACMSECTIONSTANDARDANSI
  2
AmdtSectionSymStdANSI
  3
"Amdt_StdImp|Product Description: AutoCAD Mechanical|Company: Autodesk, Inc."
 90
     1024
280
     0
281
     0
  0
CLASS
  1
ACMCENTERLINESTANDARDANSI
  2
AmdtCenterLineStdANSI
  3
"Amdt_StdImp|Product Description: AutoCAD Mechanical|Company: Autodesk, Inc."
 90
     1024
280
     0
281
     0
  0
CLASS
  1
ACMTHREADLINESTANDARDANSI
  2
AmdtThreadLineStdANSI
  3
"Amdt_StdImp|Product Description: AutoCAD Mechanical|Company: Autodesk, Inc."
 90
     1024
280
     0
281
     0
  0
CLASS
  1
ACMNOTESTANDARDANSI
  2
AmdtNoteStdANSI
  3
"Amdt_StdImp|Product Description: AutoCAD Mechanical|Company: Autodesk, Inc."
 90
     1024
280
     0
281
     0
  0
CLASS
  1
ACMTAPERSTANDARDANSI
  2
AcmTaperStdANSI
  3
"Amdt_StdImp|Product Description: AutoCAD Mechanical|Company: Autodesk, Inc."
 90
     1024
280
     0
281
     0
  0
CLASS
  1
ACMANOOTATIONVIEWSTANDARDANSI
  2
AmdtAnViewStdANSI
  3
"Amdt_StdImp|Product Description: AutoCAD Mechanical|Company: Autodesk, Inc."
 90
     1024
280
     0
281
     0
  0
CLASS
  1
ACAMGLAYSTD
  2
AcAmgLayStd
  3
"AmgLay|Product Description: AutoCAD Mechanical|Company: Autodesk, Inc."
 90
     1024
280
     0
281
     0
  0
CLASS
  1
ACAMGDIMSTD
  2
AcAmgDimStd
  3
"AmgDim|Product Description: AutoCAD Mechanical|Company: Autodesk, Inc."
 90
     1024
280
     0
281
     0
  0
CLASS
  1
AMGOBJPROPCFG
  2
AmgObjPropCfg
  3
"AmgLay|Product Description: AutoCAD Mechanical|Company: Autodesk, Inc."
 90
     1025
280
     0
281
     0
  0
CLASS
  1
ACAMGHOLECHARTSTDANSI
  2
AcAmgHoleChartStdANSI
  3
AmgDim|Product Description: AutoCAD Mechanical|Company: Autodesk, Inc.
 90
     1024
280
     0
281
     0
  0
CLASS
  1
ACAMGTITLESTD
  2
AcAmgTitleStd
  3
"AmgTitle|Product Description: AutoCAD Mechanical|Company: Autodesk, Inc."
 90
     4095
280
     0
281
     0
  0
CLASS
  1
AMDTNOTETEMPLATEDB
  2
AmdtNoteTemplateDB
  3
AcmSymBB|Product Description: AutoCAD Mechanical|Company: Autodesk, Inc.
 90
     1024
280
     0
281
     0
  0
CLASS
  1
ACAMGFILTERDAT
  2
AcAmgFilterDat
  3
"AcadM|Product Description: AutoCAD Mechanical|Company: Autodesk, Inc."
 90
     1024
280
     0
281
     0
  0
CLASS
  1
ACDBPLACEHOLDER
  2
AcDbPlaceHolder
  3
ObjectDBX Classes
 90
        0
280
     0
281
     0
  0
CLASS
  1
LAYOUT
  2
AcDbLayout
  3
ObjectDBX Classes
 90
        0
280
     0
281
     0
  0
ENDSEC
  0
SECTION
  2
TABLES
  0
TABLE
  2
VPORT
  5
24A
330
0
100
AcDbSymbolTable
 70
     1
  0
VPORT
  5
26B
330
24A
100
AcDbSymbolTableRecord
100
AcDbViewportTableRecord
  2
*Active
 70
     0
 10
0.0
 20
0.0
 11
1.0
 21
1.0
 12
39.49382760895932
 22
-8.831993254210999
 13
0.0
 23
0.0
 14
10.0
 24
10.0
 15
10.0
 25
10.0
 16
0.0
 26
0.0
 36
1.0
 17
0.0
 27
0.0
 37
0.0
 40
266.7170729178225
 41
1.649188514357053
 42
1.0
 43
0.0
 44
0.0
 50
0.0
 51
0.0000000000007958
 71
     0
 72
   100
 73
     1
 74
     3
 75
     0
 76
     0
 77
     0
 78
     1
281
     0
 65
     0
110
0.0
120
0.0
130
0.0
111
1.0
121
0.0
131
0.0
112
0.0
122
1.0
132
0.0
 79
     0
146
0.0
  0
ENDTAB
  0
TABLE
  2
LTYPE
  5
247
330
0
100
AcDbSymbolTable
 70
    36
  0
LTYPE
  5
256
330
247
100
AcDbSymbolTableRecord
100
AcDbLinetypeTableRecord
  2
ByBlock
 70
     0
  3

 72
    65
 73
     0
 40
0.0
  0
LTYPE
  5
257
330
247
100
AcDbSymbolTableRecord
100
AcDbLinetypeTableRecord
  2
ByLayer
 70
     0
  3

 72
    65
 73
     0
 40
0.0
  0
LTYPE
  5
258
330
247
100
AcDbSymbolTableRecord
100
AcDbLinetypeTableRecord
  2
Continuous
 70
     0
  3
Solid line
 72
    65
 73
     0
 40
0.0
  0
LTYPE
  5
273
330
247
100
AcDbSymbolTableRecord
100
AcDbLinetypeTableRecord
  2
CENTER
 70
     0
  3
Center ____ _ ____ _ ____ _ ____ _ ____ _ ____
 72
    65
 73
     4
 40
2.0
 49
1.25
 74
     0
 49
-0.25
 74
     0
 49
0.25
 74
     0
 49
-0.25
 74
     0
  0
LTYPE
  5
274
330
247
100
AcDbSymbolTableRecord
100
AcDbLinetypeTableRecord
  2
DASHDOT
 70
     0
  3
Dashdot __ . __ . __ . __ . __ . __ . __ . __
 72
    65
 73
     4
 40
1.0
 49
0.5
 74
     0
 49
-0.25
 74
     0
 49
0.0
 74
     0
 49
-0.25
 74
     0
  0
LTYPE
  5
275
330
247
100
AcDbSymbolTableRecord
100
AcDbLinetypeTableRecord
  2
DASHED
 70
     0
  3
Dashed __ __ __ __ __ __ __ __ __ __ __ __ __ _
 72
    65
 73
     2
 40
0.75
 49
0.5
 74
     0
 49
-0.25
 74
     0
  0
LTYPE
  5
276
330
247
100
AcDbSymbolTableRecord
100
AcDbLinetypeTableRecord
  2
HIDDEN
 70
     0
  3
Hidden __ __ __ __ __ __ __ __ __ __ __ __ __ __
 72
    65
 73
     2
 40
0.375
 49
0.25
 74
     0
 49
-0.125
 74
     0
  0
LTYPE
  5
277
330
247
100
AcDbSymbolTableRecord
100
AcDbLinetypeTableRecord
  2
HIDDEN2
 70
     0
  3
Hidden2 _ _ _ _ _ _ _ _ _ _ _ _ _ _ _ _ _
 72
    65
 73
     2
 40
0.1875
 49
0.125
 74
     0
 49
-0.0625
 74
     0
  0
LTYPE
  5
278
330
247
100
AcDbSymbolTableRecord
100
AcDbLinetypeTableRecord
  2
BORDER
 70
     0
  3
Border __ __ . __ __ . __ __ . __ __ . __ __ .
 72
    65
 73
     6
 40
1.75
 49
0.5
 74
     0
 49
-0.25
 74
     0
 49
0.5
 74
     0
 49
-0.25
 74
     0
 49
0.0
 74
     0
 49
-0.25
 74
     0
  0
LTYPE
  5
279
330
247
100
AcDbSymbolTableRecord
100
AcDbLinetypeTableRecord
  2
BORDER2
 70
     0
  3
Border2 __.__.__.__.__.__.__.__.__.__.__.
 72
    65
 73
     6
 40
0.875
 49
0.25
 74
     0
 49
-0.125
 74
     0
 49
0.25
 74
     0
 49
-0.125
 74
     0
 49
0.0
 74
     0
 49
-0.125
 74
     0
  0
LTYPE
  5
27A
330
247
100
AcDbSymbolTableRecord
100
AcDbLinetypeTableRecord
  2
BORDERX2
 70
     0
  3
Borderx2  ____  ____  .  ____  ____  .  ___
 72
    65
 73
     6
 40
3.5
 49
1.0
 74
     0
 49
-0.5
 74
     0
 49
1.0
 74
     0
 49
-0.5
 74
     0
 49
0.0
 74
     0
 49
-0.5
 74
     0
  0
LTYPE
  5
27B
330
247
100
AcDbSymbolTableRecord
100
AcDbLinetypeTableRecord
  2
CENTER2
 70
     0
  3
Center2  ___ _ ___ _ ___ _ ___ _ ___ _ ___
 72
    65
 73
     4
 40
1.125
 49
0.75
 74
     0
 49
-0.125
 74
     0
 49
0.125
 74
     0
 49
-0.125
 74
     0
  0
LTYPE
  5
27C
330
247
100
AcDbSymbolTableRecord
100
AcDbLinetypeTableRecord
  2
CENTERX2
 70
     0
  3
Centerx2  ________  __  ________  __  _____
 72
    65
 73
     4
 40
4.0
 49
2.5
 74
     0
 49
-0.5
 74
     0
 49
0.5
 74
     0
 49
-0.5
 74
     0
  0
LTYPE
  5
27D
330
247
100
AcDbSymbolTableRecord
100
AcDbLinetypeTableRecord
  2
DASHDOT2
 70
     0
  3
Dashdot2  _._._._._._._._._._._._._._._.
 72
    65
 73
     4
 40
0.5
 49
0.25
 74
     0
 49
-0.125
 74
     0
 49
0.0
 74
     0
 49
-0.125
 74
     0
  0
LTYPE
  5
27E
330
247
100
AcDbSymbolTableRecord
100
AcDbLinetypeTableRecord
  2
DASHDOTX2
 70
     0
  3
Dashdotx2 ____  .  ____  .  ____  .  ___
 72
    65
 73
     4
 40
2.0
 49
1.0
 74
     0
 49
-0.5
 74
     0
 49
0.0
 74
     0
 49
-0.5
 74
     0
  0
LTYPE
  5
27F
330
247
100
AcDbSymbolTableRecord
100
AcDbLinetypeTableRecord
  2
DASHED2
 70
     0
  3
Dashed2 _ _ _ _ _ _ _ _ _ _ _ _ _ _ _ _ _
 72
    65
 73
     2
 40
0.375
 49
0.25
 74
     0
 49
-0.125
 74
     0
  0
LTYPE
  5
280
330
247
100
AcDbSymbolTableRecord
100
AcDbLinetypeTableRecord
  2
DASHEDX2
 70
     0
  3
Dashedx2 ____  ____  ____  ____  ____  ___
 72
    65
 73
     2
 40
1.5
 49
1.0
 74
     0
 49
-0.5
 74
     0
  0
LTYPE
  5
281
330
247
100
AcDbSymbolTableRecord
100
AcDbLinetypeTableRecord
  2
DIVIDE
 70
     0
  3
Divide ____ . . ____ . . ____ . . ____ . . ____
 72
    65
 73
     6
 40
1.25
 49
0.5
 74
     0
 49
-0.25
 74
     0
 49
0.0
 74
     0
 49
-0.25
 74
     0
 49
0.0
 74
     0
 49
-0.25
 74
     0
  0
LTYPE
  5
282
330
247
100
AcDbSymbolTableRecord
100
AcDbLinetypeTableRecord
  2
DIVIDE2
 70
     0
  3
Divide2 __..__..__..__..__..__..__..__.._
 72
    65
 73
     6
 40
0.625
 49
0.25
 74
     0
 49
-0.125
 74
     0
 49
0.0
 74
     0
 49
-0.125
 74
     0
 49
0.0
 74
     0
 49
-0.125
 74
     0
  0
LTYPE
  5
283
330
247
100
AcDbSymbolTableRecord
100
AcDbLinetypeTableRecord
  2
DIVIDEX2
 70
     0
  3
Dividex2 ________  .  .  ________  .  .  _
 72
    65
 73
     6
 40
2.5
 49
1.0
 74
     0
 49
-0.5
 74
     0
 49
0.0
 74
     0
 49
-0.5
 74
     0
 49
0.0
 74
     0
 49
-0.5
 74
     0
  0
LTYPE
  5
284
330
247
100
AcDbSymbolTableRecord
100
AcDbLinetypeTableRecord
  2
DOT
 70
     0
  3
Dot . . . . . . . . . . . . . . . . . . . . . . . .
 72
    65
 73
     2
 40
0.25
 49
0.0
 74
     0
 49
-0.25
 74
     0
  0
LTYPE
  5
285
330
247
100
AcDbSymbolTableRecord
100
AcDbLinetypeTableRecord
  2
DOT2
 70
     0
  3
Dot2 ........................................
 72
    65
 73
     2
 40
0.125
 49
0.0
 74
     0
 49
-0.125
 74
     0
  0
LTYPE
  5
286
330
247
100
AcDbSymbolTableRecord
100
AcDbLinetypeTableRecord
  2
DOTX2
 70
     0
  3
Dotx2 .  .  .  .  .  .  .  .  .  .  .  .  .  .
 72
    65
 73
     2
 40
0.5
 49
0.0
 74
     0
 49
-0.5
 74
     0
  0
LTYPE
  5
287
330
247
100
AcDbSymbolTableRecord
100
AcDbLinetypeTableRecord
  2
HIDDENX2
 70
     0
  3
Hiddenx2 ____ ____ ____ ____ ____ ____ ____
 72
    65
 73
     2
 40
0.75
 49
0.5
 74
     0
 49
-0.25
 74
     0
  0
LTYPE
  5
288
330
247
100
AcDbSymbolTableRecord
100
AcDbLinetypeTableRecord
  2
PHANTOM
 70
     0
  3
Phantom ______  __  __  ______  __  __  ______
 72
    65
 73
     6
 40
2.5
 49
1.25
 74
     0
 49
-0.25
 74
     0
 49
0.25
 74
     0
 49
-0.25
 74
     0
 49
0.25
 74
     0
 49
-0.25
 74
     0
  0
LTYPE
  5
289
330
247
100
AcDbSymbolTableRecord
100
AcDbLinetypeTableRecord
  2
PHANTOM2
 70
     0
  3
Phantom2 ___ _ _ ___ _ _ ___ _ _ ___ _ _
 72
    65
 73
     6
 40
1.25
 49
0.625
 74
     0
 49
-0.125
 74
     0
 49
0.125
 74
     0
 49
-0.125
 74
     0
 49
0.125
 74
     0
 49
-0.125
 74
     0
  0
LTYPE
  5
28A
330
247
100
AcDbSymbolTableRecord
100
AcDbLinetypeTableRecord
  2
PHANTOMX2
 70
     0
  3
Phantomx2 ____________    ____    ____   _
 72
    65
 73
     6
 40
5.0
 49
2.5
 74
     0
 49
-0.5
 74
     0
 49
0.5
 74
     0
 49
-0.5
 74
     0
 49
0.5
 74
     0
 49
-0.5
 74
     0
  0
LTYPE
  5
F10914
330
247
100
AcDbSymbolTableRecord
100
AcDbLinetypeTableRecord
  2
AM_ISO02W050
 70
     0
  3
__ __ __ __ __ __ __ __ __ __ __ __ __ __ __
 72
    65
 73
     2
 40
7.5
 49
6.0
 74
     0
 49
-1.5
 74
     0
  0
LTYPE
  5
F10915
330
247
100
AcDbSymbolTableRecord
100
AcDbLinetypeTableRecord
  2
AM_ISO08W050
 70
     0
  3
____ . ____ . ____ . ____ . ____ . ____ . ____
 72
    65
 73
     4
 40
18.0
 49
12.0
 74
     0
 49
-1.5
 74
     0
 49
3.0
 74
     0
 49
-1.5
 74
     0
  0
LTYPE
  5
F10916
330
247
100
AcDbSymbolTableRecord
100
AcDbLinetypeTableRecord
  2
AM_ISO09W050
 70
     0
  3
_____ . . _____ . . _____ . . ____ .. ____
 72
    65
 73
     6
 40
22.5
 49
12.0
 74
     0
 49
-1.5
 74
     0
 49
3.0
 74
     0
 49
-1.5
 74
     0
 49
3.0
 74
     0
 49
-1.5
 74
     0
  0
LTYPE
  5
F10917
330
247
100
AcDbSymbolTableRecord
100
AcDbLinetypeTableRecord
  2
Amconstr
 70
     0
  3
_______________________
 72
    65
 73
     2
 40
9999.0
 49
9999.0
 74
     0
 49
0.0
 74
     0
  0
LTYPE
  5
F10918
330
247
100
AcDbSymbolTableRecord
100
AcDbLinetypeTableRecord
  2
AM_ISO08W050x2
 70
     0
  3
__ . __ . __ . __ . __ . __
 72
    65
 73
     4
 40
9.0
 49
6.0
 74
     0
 49
-0.75
 74
     0
 49
1.5
 74
     0
 49
-0.75
 74
     0
  0
LTYPE
  5
F10919
330
247
100
AcDbSymbolTableRecord
100
AcDbLinetypeTableRecord
  2
AM_ISO02W050x2
 70
     0
  3
 _ _ _ _ _ _ _ _ _ _ _ _
 72
    65
 73
     2
 40
3.75
 49
3.0
 74
     0
 49
-0.75
 74
     0
  0
LTYPE
  5
F1091C
330
247
100
AcDbSymbolTableRecord
100
AcDbLinetypeTableRecord
  2
Amzigzag
 70
     0
  3
/\/-/\/-/\/-/\/-/\/-/\/
 72
    65
 73
     2
 40
11.0001
 49
0.0001
 74
     4
 75
   136
340
F1091B
 46
0.04
 50
0.0
 44
0.0
 45
0.0
 49
-11.0
 74
     0
  0
LTYPE
  5
F1091D
330
247
100
AcDbSymbolTableRecord
100
AcDbLinetypeTableRecord
  2
Amzigzag2
 70
     0
  3
/\/-/\/-/\/-/\/-/\/-/\/
 72
    65
 73
     2
 40
0.4401
 49
0.0001
 74
     4
 75
   136
340
F1091B
 46
0.0016
 50
0.0
 44
0.0
 45
0.0
 49
-0.4400000000000001
 74
     0
  0
LTYPE
  5
F1092B
330
247
100
AcDbSymbolTableRecord
100
AcDbLinetypeTableRecord
  2
ACANSTGB
 70
     0
  3
__ . . __ . .
 72
    65
 73
     6
 40
0.35433070866
 49
0.15748031496
 74
     0
 49
-0.03937007874
 74
     0
 49
0.03937007874
 74
     0
 49
-0.03937007874
 74
     0
 49
0.03937007874
 74
     0
 49
-0.03937007874
 74
     0
  0
LTYPE
  5
F1092C
330
247
100
AcDbSymbolTableRecord
100
AcDbLinetypeTableRecord
  2
ACANSTGL
 70
     0
  3
_ _ _ _ _
 72
    65
 73
     2
 40
0.11811023622
 49
0.07874015748
 74
     0
 49
-0.03937007874
 74
     0
  0
ENDTAB
  0
TABLE
  2
LAYER
  5
244
330
0
100
AcDbSymbolTable
 70
     6
  0
LAYER
  5
252
102
{ACAD_XDICTIONARY
360
F10C54
102
}
330
244
100
AcDbSymbolTableRecord
100
AcDbLayerTableRecord
  2
0
 70
     0
 62
     7
  6
Continuous
370
     0
390
19
  0
LAYER
  5
23F
102
{ACAD_XDICTIONARY
360
F10C56
102
}
330
244
100
AcDbSymbolTableRecord
100
AcDbLayerTableRecord
  2
Bemassung
 70
     0
 62
     7
  6
Continuous
370
     0
390
19
  0
LAYER
  5
240
102
{ACAD_XDICTIONARY
360
F10C58
102
}
330
244
100
AcDbSymbolTableRecord
100
AcDbLayerTableRecord
  2
Rahmen
 70
     0
 62
     7
  6
Continuous
370
     0
390
19
  0
LAYER
  5
241
102
{ACAD_XDICTIONARY
360
F10C5A
102
}
330
244
100
AcDbSymbolTableRecord
100
AcDbLayerTableRecord
  2
Geo
 70
     0
 62
     7
  6
Continuous
370
     0
390
19
  0
LAYER
  5
33A
330
244
100
AcDbSymbolTableRecord
100
AcDbLayerTableRecord
  2
Defpoints
 70
     0
 62
     7
  6
Continuous
290
     0
370
    -3
390
19
  0
LAYER
  5
57E
102
{ACAD_XDICTIONARY
360
F10C5C
102
}
330
244
100
AcDbSymbolTableRecord
100
AcDbLayerTableRecord
  2
Text
 70
     0
 62
     7
  6
Continuous
370
     0
390
19
1001
AcAecLayerStandard
1000

1000

  0
ENDTAB
  0
TABLE
  2
STYLE
  5
245
330
0
100
AcDbSymbolTable
 70
     5
  0
STYLE
  5
253
330
245
100
AcDbSymbolTableRecord
100
AcDbTextStyleTableRecord
  2
Standard
 70
     0
 40
0.0
 41
1.0
 50
0.0
 71
     0
 42
0.2
  3
Arial
  4

1001
ACAD
1000
Arial
1071
        0
  0
STYLE
  5
132
330
245
100
AcDbSymbolTableRecord
100
AcDbTextStyleTableRecord
  2
Beschriftung
 70
     0
 40
0.0
 41
1.0
 50
0.0
 71
     0
 42
0.2
  3
Arial
  4

1001
ACAD
1000
Arial
1071
        0
1001
AcadAnnotative
1000
AnnotativeData
1070
     1
1070
     1
  0
STYLE
  5
F1091B
330
245
100
AcDbSymbolTableRecord
100
AcDbTextStyleTableRecord
  2

 70
     1
 40
0.0
 41
1.0
 50
0.0
 71
     0
 42
0.2
  3
genltshp.shx
  4

  0
STYLE
  5
F10929
330
245
100
AcDbSymbolTableRecord
100
AcDbTextStyleTableRecord
  2
ACANSTS
 70
     0
 40
1.0
 41
1.0
 50
0.0
 71
     0
 42
0.2
  3
romans.shx
  4

  0
STYLE
  5
F1092A
330
245
100
AcDbSymbolTableRecord
100
AcDbTextStyleTableRecord
  2
ACANSGDT
 70
     0
 40
0.0
 41
1.0
 50
0.0
 71
     0
 42
0.2
  3
amgdt.shx
  4

  0
ENDTAB
  0
TABLE
  2
VIEW
  5
248
330
0
100
AcDbSymbolTable
 70
     0
  0
ENDTAB
  0
TABLE
  2
UCS
  5
249
330
0
100
AcDbSymbolTable
 70
     0
  0
ENDTAB
  0
TABLE
  2
APPID
  5
24B
330
0
100
AcDbSymbolTable
 70
    30
  0
APPID
  5
254
330
24B
100
AcDbSymbolTableRecord
100
AcDbRegAppTableRecord
  2
ACAD
 70
     0
  0
APPID
  5
26C
330
24B
100
AcDbSymbolTableRecord
100
AcDbRegAppTableRecord
  2
VD_INVISIBLE_NOT_FOR_READ
 70
     0
  0
APPID
  5
26D
330
24B
100
AcDbSymbolTableRecord
100
AcDbRegAppTableRecord
  2
VD_TEMPHATCH
 70
     0
  0
APPID
  5
26E
330
24B
100
AcDbSymbolTableRecord
100
AcDbRegAppTableRecord
  2
VDEXTRAPARAM
 70
     0
  0
APPID
  5
26F
330
24B
100
AcDbSymbolTableRecord
100
AcDbRegAppTableRecord
  2
PE_URL
 70
     0
  0
APPID
  5
270
330
24B
100
AcDbSymbolTableRecord
100
AcDbRegAppTableRecord
  2
VD_UNKNOWN
 70
     0
  0
APPID
  5
28F
330
24B
100
AcDbSymbolTableRecord
100
AcDbRegAppTableRecord
  2
AcadAnnotative
 70
     0
  0
APPID
  5
290
330
24B
100
AcDbSymbolTableRecord
100
AcDbRegAppTableRecord
  2
ACAD_DSTYLE_DIMJAG
 70
     0
  0
APPID
  5
291
330
24B
100
AcDbSymbolTableRecord
100
AcDbRegAppTableRecord
  2
ACAD_DSTYLE_DIMTALN
 70
     0
  0
APPID
  5
293
330
24B
100
AcDbSymbolTableRecord
100
AcDbRegAppTableRecord
  2
ACAD_PSEXT
 70
     0
  0
APPID
  5
42A
330
24B
100
AcDbSymbolTableRecord
100
AcDbRegAppTableRecord
  2
ACAD_MLEADERVER
 70
     0
  0
APPID
  5
532
330
24B
100
AcDbSymbolTableRecord
100
AcDbRegAppTableRecord
  2
ACAD_EXEMPT_FROM_CAD_STANDARDS
 70
     0
  0
APPID
  5
57F
330
24B
100
AcDbSymbolTableRecord
100
AcDbRegAppTableRecord
  2
AcAecLayerStandard
 70
     0
  0
APPID
  5
F108AE
330
24B
100
AcDbSymbolTableRecord
100
AcDbRegAppTableRecord
  2
MCAD_NO_VIS
 70
     0
  0
APPID
  5
F108AF
330
24B
100
AcDbSymbolTableRecord
100
AcDbRegAppTableRecord
  2
ACAD_TEMP_GRAPHIC
 70
     0
  0
APPID
  5
F108D8
330
24B
100
AcDbSymbolTableRecord
100
AcDbRegAppTableRecord
  2
AD_DRAW
 70
     0
  0
APPID
  5
F108DB
330
24B
100
AcDbSymbolTableRecord
100
AcDbRegAppTableRecord
  2
ACATTRIBSERVICES
 70
     0
  0
APPID
  5
F108F4
330
24B
100
AcDbSymbolTableRecord
100
AcDbRegAppTableRecord
  2
DESIGNERASSEMBLIES
 70
     0
  0
APPID
  5
F108F9
330
24B
100
AcDbSymbolTableRecord
100
AcDbRegAppTableRecord
  2
ACADM_DIM_EDIT
 70
     0
  0
APPID
  5
F108FA
330
24B
100
AcDbSymbolTableRecord
100
AcDbRegAppTableRecord
  2
AMDT_DM_ADJ
 70
     0
  0
APPID
  5
F10912
330
24B
100
AcDbSymbolTableRecord
100
AcDbRegAppTableRecord
  2
ACAD_DSTYLE_DIMBREAK
 70
     0
  0
APPID
  5
F10933
330
24B
100
AcDbSymbolTableRecord
100
AcDbRegAppTableRecord
  2
GENIUS_GENSCREG_15
 70
     0
  0
APPID
  5
F10934
330
24B
100
AcDbSymbolTableRecord
100
AcDbRegAppTableRecord
  2
GENIUS_GENODEF_13
 70
     0
  0
APPID
  5
F10935
330
24B
100
AcDbSymbolTableRecord
100
AcDbRegAppTableRecord
  2
GENIUS_GENOBJ-N-SDF_13
 70
     0
  0
APPID
  5
F109AC
330
24B
100
AcDbSymbolTableRecord
100
AcDbRegAppTableRecord
  2
GENIUS_GENDTOL_13
 70
     0
  0
APPID
  5
F109AD
330
24B
100
AcDbSymbolTableRecord
100
AcDbRegAppTableRecord
  2
ACAD_DSTYLE_DIMINSPECT
 70
     0
  0
APPID
  5
F10CAE
330
24B
100
AcDbSymbolTableRecord
100
AcDbRegAppTableRecord
  2
ACAD_DSTYLE_DIMARC_LENGTH_SYMBOL
 70
     0
  0
APPID
  5
F10CAF
330
24B
100
AcDbSymbolTableRecord
100
AcDbRegAppTableRecord
  2
ACAD_DSTYLE_DIM_LINETYPE
 70
     0
  0
APPID
  5
F10CB0
330
24B
100
AcDbSymbolTableRecord
100
AcDbRegAppTableRecord
  2
ACAD_DSTYLE_DIM_EXT1_LINETYPE
 70
     0
  0
APPID
  5
F10CB1
330
24B
100
AcDbSymbolTableRecord
100
AcDbRegAppTableRecord
  2
ACAD_DSTYLE_DIM_EXT2_LINETYPE
 70
     0
  0
ENDTAB
  0
TABLE
  2
DIMSTYLE
  5
24C
330
0
100
AcDbSymbolTable
 70
     9
100
AcDbDimStyleTable
 71
     2
340
27
340
269
  0
DIMSTYLE
105
269
330
24C
100
AcDbSymbolTableRecord
100
AcDbDimStyleTableRecord
  2
Standard
 70
     0
172
     1
174
     1
288
     1
340
253
342
23C
  0
DIMSTYLE
105
137
330
24C
100
AcDbSymbolTableRecord
100
AcDbDimStyleTableRecord
  2
Beschriftung
 70
     0
 41
2.5
 42
0.625
 44
1.25
 73
     0
 74
     0
 77
     1
140
2.5
147
0.625
172
     1
174
     1
271
     2
288
     1
340
253
342
23C
1001
AcadAnnotative
1000
AnnotativeData
1070
     1
1070
     1
1001
ACAD_DSTYLE_DIMJAG
1070
   388
1040
1.5
1001
ACAD_DSTYLE_DIMTALN
1070
   392
1070
     0
  0
DIMSTYLE
105
27
102
{ACAD_REACTORS
330
F10012
330
F1001C
330
F10021
330
F10026
330
F10008
330
F1000D
330
F10017
102
}
330
24C
100
AcDbSymbolTableRecord
100
AcDbDimStyleTableRecord
  2
BEM-ISBE
 70
     0
 41
2.5
 42
0.625
 44
1.25
 48
0.000000001
 71
     1
 73
     0
 74
     0
 77
     1
140
2.5
146
0.5
147
0.625
171
     3
172
     1
179
     3
271
     3
272
     3
274
     3
340
253
342
23C
1001
ACAD_DSTYLE_DIMJAG
1070
   388
1040
1.5
1001
ACAD_DSTYLE_DIMTALN
1070
   392
1070
     1
  0
DIMSTYLE
105
F10911
102
{ACAD_REACTORS
330
F10901
102
}
330
24C
100
AcDbSymbolTableRecord
100
AcDbDimStyleTableRecord
  2
AM_ANSI
 70
     0
  4
mm
 41
0.12
 42
0.05
 43
0.5
 44
0.1
 47
0.1
 48
0.1
 78
     7
 79
     2
140
0.12
141
0.0
146
0.71
147
0.06
176
   256
177
   256
178
     2
274
     4
284
     7
340
253
371
    -1
372
    -1
1001
ACAD_DSTYLE_DIMJAG
1070
   388
1040
1.5
1001
ACAD_DSTYLE_DIMBREAK
1070
   391
1040
0.125
1001
ACAD_DSTYLE_DIMARC_LENGTH_SYMBOL
1070
   379
1070
     1
1001
ACAD_DSTYLE_DIM_LINETYPE
1070
   380
1005
256
1001
ACAD_DSTYLE_DIM_EXT1_LINETYPE
1070
   381
1005
256
1001
ACAD_DSTYLE_DIM_EXT2_LINETYPE
1070
   382
1005
256
  0
DIMSTYLE
105
F1091E
330
24C
100
AcDbSymbolTableRecord
100
AcDbDimStyleTableRecord
  2
AM_ANSI$3
 70
     0
  4
mm
 41
0.12
 42
0.05
 43
0.5
 44
0.1
 47
0.1
 48
0.1
 78
     7
 79
     2
140
0.12
141
0.0
146
0.71
147
0.06
176
   256
177
   256
178
     2
274
     4
284
     7
288
     1
289
     0
340
253
371
    -1
372
    -1
1001
ACAD_DSTYLE_DIMBREAK
1070
   391
1040
0.125
1001
ACAD_DSTYLE_DIMJAG
1070
   388
1040
1.5
1001
ACAD_DSTYLE_DIMARC_LENGTH_SYMBOL
1070
   379
1070
     1
1001
ACAD_DSTYLE_DIM_LINETYPE
1070
   380
1005
256
1001
ACAD_DSTYLE_DIM_EXT1_LINETYPE
1070
   381
1005
256
1001
ACAD_DSTYLE_DIM_EXT2_LINETYPE
1070
   382
1005
256
  0
DIMSTYLE
105
F1091F
330
24C
100
AcDbSymbolTableRecord
100
AcDbDimStyleTableRecord
  2
AM_ANSI$4
 70
     0
  4
mm
 41
0.12
 42
0.05
 43
0.5
 44
0.1
 47
0.1
 48
0.1
 78
     7
 79
     2
140
0.12
141
0.0
146
0.71
147
0.06
176
   256
177
   256
178
     2
274
     4
284
     7
288
     1
289
     0
340
253
371
    -1
372
    -1
1001
ACAD_DSTYLE_DIMBREAK
1070
   391
1040
0.125
1001
ACAD_DSTYLE_DIMJAG
1070
   388
1040
1.5
1001
ACAD_DSTYLE_DIMARC_LENGTH_SYMBOL
1070
   379
1070
     1
1001
ACAD_DSTYLE_DIM_LINETYPE
1070
   380
1005
256
1001
ACAD_DSTYLE_DIM_EXT1_LINETYPE
1070
   381
1005
256
1001
ACAD_DSTYLE_DIM_EXT2_LINETYPE
1070
   382
1005
256
  0
DIMSTYLE
105
F10920
330
24C
100
AcDbSymbolTableRecord
100
AcDbDimStyleTableRecord
  2
AM_ANSI$7
 70
     0
  4
mm
 41
0.12
 42
0.05
 43
0.5
 44
0.1
 47
0.1
 48
0.1
 78
     7
 79
     2
140
0.12
141
0.0
146
0.71
147
0.06
176
   256
177
   256
178
     2
274
     4
284
     7
340
253
371
    -1
372
    -1
1001
ACAD_DSTYLE_DIMBREAK
1070
   391
1040
0.125
1001
ACAD_DSTYLE_DIMJAG
1070
   388
1040
1.5
1001
ACAD_DSTYLE_DIMARC_LENGTH_SYMBOL
1070
   379
1070
     1
1001
ACAD_DSTYLE_DIM_LINETYPE
1070
   380
1005
256
1001
ACAD_DSTYLE_DIM_EXT1_LINETYPE
1070
   381
1005
256
1001
ACAD_DSTYLE_DIM_EXT2_LINETYPE
1070
   382
1005
256
  0
DIMSTYLE
105
F10921
330
24C
100
AcDbSymbolTableRecord
100
AcDbDimStyleTableRecord
  2
AM_ANSI$SF
 70
     0
  4
mm
 41
0.12
 42
0.05
 43
0.5
 44
0.1
 47
0.1
 48
0.1
 75
     1
 76
     1
 78
     7
 79
     2
140
0.12
141
0.0
146
0.71
147
0.06
176
   256
177
   256
178
     2
274
     4
284
     7
340
253
371
    -1
372
    -1
1001
ACAD_DSTYLE_DIMBREAK
1070
   391
1040
0.125
1001
ACAD_DSTYLE_DIMJAG
1070
   388
1040
1.5
1001
ACAD_DSTYLE_DIMARC_LENGTH_SYMBOL
1070
   379
1070
     1
1001
ACAD_DSTYLE_DIM_LINETYPE
1070
   380
1005
256
1001
ACAD_DSTYLE_DIM_EXT1_LINETYPE
1070
   381
1005
256
1001
ACAD_DSTYLE_DIM_EXT2_LINETYPE
1070
   382
1005
256
  0
DIMSTYLE
105
F10926
330
24C
100
AcDbSymbolTableRecord
100
AcDbDimStyleTableRecord
  2
AM_ANSI$SH
 70
     0
  4
mm
 41
0.12
 42
0.05
 43
0.5
 44
0.1
 47
0.1
 48
0.1
 75
     1
 76
     1
 78
     7
 79
     2
140
0.12
141
0.0
146
0.71
147
0.06
173
     1
176
   256
177
   256
178
     2
274
     4
284
     7
340
253
343
F10922
371
    -1
372
    -1
1001
ACAD_DSTYLE_DIMBREAK
1070
   391
1040
0.125
1001
ACAD_DSTYLE_DIMJAG
1070
   388
1040
1.5
1001
ACAD_DSTYLE_DIMARC_LENGTH_SYMBOL
1070
   379
1070
     1
1001
ACAD_DSTYLE_DIM_LINETYPE
1070
   380
1005
256
1001
ACAD_DSTYLE_DIM_EXT1_LINETYPE
1070
   381
1005
256
1001
ACAD_DSTYLE_DIM_EXT2_LINETYPE
1070
   382
1005
256
  0
ENDTAB
  0
TABLE
  2
BLOCK_RECORD
  5
243
330
0
100
AcDbSymbolTable
 70
    15
  0
BLOCK_RECORD
  5
261
330
243
100
AcDbSymbolTableRecord
100
AcDbBlockTableRecord
  2
*Model_Space
340
FD0
  0
BLOCK_RECORD
  5
25D
330
243
100
AcDbSymbolTableRecord
100
AcDbBlockTableRecord
  2
*Paper_Space
340
FD1
  0
BLOCK_RECORD
  5
265
330
243
100
AcDbSymbolTableRecord
100
AcDbBlockTableRecord
  2
*Paper_Space0
340
0
  0
BLOCK_RECORD
  5
23C
330
243
100
AcDbSymbolTableRecord
100
AcDbBlockTableRecord
  2
VDDIM_DEFAULT
340
0
102
{BLKREFS
331
F10945
331
F10946
331
F10952
331
F10953
331
F1095E
331
F1095F
331
F10A16
331
F10A17
331
F10A84
331
F10A85
331
F10B28
331
F10B29
331
F10B70
331
F10B71
331
F10C3C
331
F10C3D
331
F10C45
331
F10C46
331
F10C4E
331
F10C4F
102
}
  0
BLOCK_RECORD
  5
23E
330
243
100
AcDbSymbolTableRecord
100
AcDbBlockTableRecord
  2
VDDIM_NONE
340
0
  0
BLOCK_RECORD
  5
F10002
330
243
100
AcDbSymbolTableRecord
100
AcDbBlockTableRecord
  2
*D3
340
0
  0
BLOCK_RECORD
  5
F10011
330
243
100
AcDbSymbolTableRecord
100
AcDbBlockTableRecord
  2
*D4
340
0
  0
BLOCK_RECORD
  5
F1001B
330
243
100
AcDbSymbolTableRecord
100
AcDbBlockTableRecord
  2
*D5
340
0
  0
BLOCK_RECORD
  5
F10020
330
243
100
AcDbSymbolTableRecord
100
AcDbBlockTableRecord
  2
*D6
340
0
  0
BLOCK_RECORD
  5
F10025
330
243
100
AcDbSymbolTableRecord
100
AcDbBlockTableRecord
  2
*D7
340
0
  0
BLOCK_RECORD
  5
F10007
330
243
100
AcDbSymbolTableRecord
100
AcDbBlockTableRecord
  2
*D8
340
0
  0
BLOCK_RECORD
  5
F1000C
330
243
100
AcDbSymbolTableRecord
100
AcDbBlockTableRecord
  2
*D9
340
0
  0
BLOCK_RECORD
  5
F10016
330
243
100
AcDbSymbolTableRecord
100
AcDbBlockTableRecord
  2
*D10
340
0
  0
BLOCK_RECORD
  5
F10922
330
243
100
AcDbSymbolTableRecord
100
AcDbBlockTableRecord
  2
GENAXEH
340
0
  0
BLOCK_RECORD
  5
F1093E
330
243
100
AcDbSymbolTableRecord
100
AcDbBlockTableRecord
  2
*D13
340
0
  0
BLOCK_RECORD
  5
F1094C
330
243
100
AcDbSymbolTableRecord
100
AcDbBlockTableRecord
  2
*D14
340
0
  0
ENDTAB
  0
ENDSEC
  0
SECTION
  2
BLOCKS
  0
BLOCK
  5
262
330
261
100
AcDbEntity
  8
0
100
AcDbBlockBegin
  2
*Model_Space
 70
     0
 10
0.0
 20
0.0
 30
0.0
  3
*Model_Space
  1

  0
ENDBLK
  5
263
330
261
100
AcDbEntity
  8
0
100
AcDbBlockEnd
  0
BLOCK
  5
25E
330
25D
100
AcDbEntity
 67
     1
  8
0
100
AcDbBlockBegin
  2
*Paper_Space
 70
     0
 10
0.0
 20
0.0
 30
0.0
  3
*Paper_Space
  1

  0
ENDBLK
  5
25F
330
25D
100
AcDbEntity
 67
     1
  8
0
100
AcDbBlockEnd
  0
BLOCK
  5
266
330
265
100
AcDbEntity
  8
0
100
AcDbBlockBegin
  2
*Paper_Space0
 70
     0
 10
0.0
 20
0.0
 30
0.0
  3
*Paper_Space0
  1

  0
VIEWPORT
  5
296
102
{ACAD_XDICTIONARY
360
F10C71
102
}
330
265
100
AcDbEntity
  8
0
 60
     1
100
AcDbViewport
 10
0.0
 20
0.0
 30
0.0
 40
10.0
 41
10.0
 69
     0
 12
0.0
 22
0.0
 13
0.0
 23
0.0
 14
1.0
 24
1.0
 15
0.0
 25
0.0
 16
0.0
 26
0.0
 36
1.0
 17
0.0
 27
0.0
 37
0.0
 42
0.0
 43
0.0
 44
0.0
 45
10.0
 50
0.0
 51
0.0000000000007958
 72
   100
 90
   163872
  1

281
     0
 71
     0
 74
     0
110
0.0
120
0.0
130
0.0
111
1.0
121
0.0
131
0.0
112
0.0
122
1.0
132
0.0
 79
     0
146
0.0
1001
VD_INVISIBLE_NOT_FOR_READ
1000
VD_INVISIBLE_NOT_FOR_READ
  0
VIEWPORT
  5
297
102
{ACAD_XDICTIONARY
360
F10C73
102
}
330
265
100
AcDbEntity
  8
0
 60
     1
100
AcDbViewport
 10
0.0
 20
0.0
 30
0.0
 40
10.0
 41
10.0
 69
     0
 12
0.0
 22
0.0
 13
0.0
 23
0.0
 14
1.0
 24
1.0
 15
0.0
 25
0.0
 16
0.0
 26
0.0
 36
1.0
 17
0.0
 27
0.0
 37
0.0
 42
0.0
 43
0.0
 44
0.0
 45
10.0
 50
0.0
 51
0.0000000000007958
 72
   100
 90
   163872
  1

281
     0
 71
     0
 74
     0
110
0.0
120
0.0
130
0.0
111
1.0
121
0.0
131
0.0
112
0.0
122
1.0
132
0.0
 79
     0
146
0.0
1001
VD_INVISIBLE_NOT_FOR_READ
1000
VD_INVISIBLE_NOT_FOR_READ
  0
ENDBLK
  5
267
330
265
100
AcDbEntity
  8
0
100
AcDbBlockEnd
  0
BLOCK
  5
28B
330
23C
100
AcDbEntity
  8
0
100
AcDbBlockBegin
  2
VDDIM_DEFAULT
 70
     0
 10
0.0
 20
0.0
 30
0.0
  3
VDDIM_DEFAULT
  1

  0
LWPOLYLINE
  5
23D
330
23C
100
AcDbEntity
  8
0
  6
Continuous
 62
     0
100
AcDbPolyline
 90
        4
 70
     0
 43
0.0
 10
0.0
 20
0.0
 10
-1.0
 20
-0.1665
 10
-1.0
 20
0.1665
 10
0.0
 20
0.0
1001
VDEXTRAPARAM
1071
        1
1071
        0
1071
        0
1040
1.0
1000

1000

1040
0.0
1040
0.0
  0
HATCH
  5
292
330
23C
100
AcDbEntity
  8
0
  6
Continuous
 62
     0
100
AcDbHatch
 10
0.0
 20
0.0
 30
0.0
210
0.0
220
0.0
230
1.0
  2
SOLID
 70
     1
 71
     0
 91
        1
 92
        2
 72
     0
 73
     1
 93
        3
 10
0.0
 20
0.0
 10
-1.0
 20
-0.1665
 10
-1.0
 20
0.1665
 97
        0
 75
     0
 76
     1
 98
        1
 10
0.0
 20
0.0
1001
VDEXTRAPARAM
1071
        1
1071
        0
1071
        0
1040
1.0
1000

1000

1040
0.0
1040
0.0
1001
VD_TEMPHATCH
1000
VD_TEMPHATCH
  0
ENDBLK
  5
28C
330
23C
100
AcDbEntity
  8
0
100
AcDbBlockEnd
  0
BLOCK
  5
28D
330
23E
100
AcDbEntity
  8
0
100
AcDbBlockBegin
  2
VDDIM_NONE
 70
     0
 10
0.0
 20
0.0
 30
0.0
  3
VDDIM_NONE
  1

  0
ENDBLK
  5
28E
330
23E
100
AcDbEntity
  8
0
100
AcDbBlockEnd
  0
BLOCK
  5
F1002A
330
F10002
100
AcDbEntity
  8
0
100
AcDbBlockBegin
  2
*D3
 70
     1
 10
0.0
 20
0.0
 30
0.0
  3
*D3
  1

  0
LINE
  5
F10959
330
F10002
100
AcDbEntity
  8
Bemassung
 62
     0
370
    -2
100
AcDbLine
 10
-81.06277533039659
 20
-3.62059471365649
 30
0.0
 11
-81.06277533039659
 21
25.0044052863435
 31
0.0
  0
LINE
  5
F1095A
330
F10002
100
AcDbEntity
  8
Bemassung
 62
     0
370
    -2
100
AcDbLine
 10
-80.99277533039659
 20
14.3794052863435
 30
0.0
 11
-80.99277533039659
 21
25.0044052863435
 31
0.0
  0
LINE
  5
F1095B
330
F10002
100
AcDbEntity
  8
Bemassung
 62
     0
370
    -2
100
AcDbLine
 10
-83.56277533039659
 20
23.7544052863435
 30
0.0
 11
-86.06277533039659
 21
23.7544052863435
 31
0.0
  0
LINE
  5
F1095C
330
F10002
100
AcDbEntity
  8
Bemassung
 62
     0
370
    -2
100
AcDbLine
 10
-78.4927753303966
 20
23.7544052863435
 30
0.0
 11
-68.24891448455757
 21
23.7544052863435
 31
0.0
  0
LINE
  5
F1095D
330
F10002
100
AcDbEntity
  8
Bemassung
 62
     0
370
    -2
100
AcDbLine
 10
-81.06277533039659
 20
23.7544052863435
 30
0.0
 11
-80.99277533039659
 21
23.7544052863435
 31
0.0
  0
INSERT
  5
F1095E
330
F10002
100
AcDbEntity
  8
Bemassung
 62
     0
370
    -2
100
AcDbBlockReference
  2
VDDIM_DEFAULT
 10
-81.06277533039659
 20
23.7544052863435
 30
0.0
 41
2.5
 42
2.5
 43
2.5
  0
INSERT
  5
F1095F
330
F10002
100
AcDbEntity
  8
Bemassung
 62
     0
370
    -2
100
AcDbBlockReference
  2
VDDIM_DEFAULT
 10
-80.99277533039659
 20
23.7544052863435
 30
0.0
 41
2.5
 42
2.5
 43
2.5
 50
180.0
  0
MTEXT
  5
F10960
330
F10002
100
AcDbEntity
  8
Bemassung
 62
     0
100
AcDbMText
 10
-72.12084490747709
 20
24.3794052863435
 30
0.0
 40
2.5
 41
0.0
 71
     8
 72
     1
  1
\A1;0.07
 73
     1
 44
1.0
1001
ACAD
1000
MTEXTBEGIN
1070
    73
1070
     1
1070
    44
1040
1.0
1070
    74
1070
     0
1000
MTEXTEND
  0
POINT
  5
F10961
330
F10002
100
AcDbEntity
  8
Defpoints
 62
     0
100
AcDbPoint
 10
-81.06277533039659
 20
-4.24559471365649
 30
0.0
  0
POINT
  5
F10962
330
F10002
100
AcDbEntity
  8
Defpoints
 62
     0
100
AcDbPoint
 10
-80.99277533039659
 20
13.7544052863435
 30
0.0
  0
POINT
  5
F10963
330
F10002
100
AcDbEntity
  8
Defpoints
 62
     0
100
AcDbPoint
 10
-80.99277533039659
 20
23.7544052863435
 30
0.0
  0
ENDBLK
  5
F10033
330
F10002
100
AcDbEntity
  8
0
100
AcDbBlockEnd
  0
BLOCK
  5
F10034
330
F10011
100
AcDbEntity
  8
0
100
AcDbBlockBegin
  2
*D4
 70
     1
 10
0.0
 20
0.0
 30
0.0
  3
*D4
  1

  0
LINE
  5
F10B25
330
F10011
100
AcDbEntity
  8
Bemassung
 62
     0
370
    -2
100
AcDbLine
 10
-60.06277533039661
 20
14.3794052863435
 30
0.0
 11
-60.06277533039661
 21
30.0044052863435
 31
0.0
  0
LINE
  5
F10B26
330
F10011
100
AcDbEntity
  8
Bemassung
 62
     0
370
    -2
100
AcDbLine
 10
-24.0627753303966
 20
13.8794052863435
 30
0.0
 11
-24.0627753303966
 21
30.0044052863435
 31
0.0
  0
LINE
  5
F10B27
330
F10011
100
AcDbEntity
  8
Bemassung
 62
     0
370
    -2
100
AcDbLine
 10
-57.56277533039661
 20
28.7544052863435
 30
0.0
 11
-26.5627753303966
 21
28.7544052863435
 31
0.0
  0
INSERT
  5
F10B28
330
F10011
100
AcDbEntity
  8
Bemassung
 62
     0
370
    -2
100
AcDbBlockReference
  2
VDDIM_DEFAULT
 10
-60.06277533039661
 20
28.7544052863435
 30
0.0
 41
2.5
 42
2.5
 43
2.5
 50
180.0
  0
INSERT
  5
F10B29
330
F10011
100
AcDbEntity
  8
Bemassung
 62
     0
370
    -2
100
AcDbBlockReference
  2
VDDIM_DEFAULT
 10
-24.0627753303966
 20
28.7544052863435
 30
0.0
 41
2.5
 42
2.5
 43
2.5
  0
MTEXT
  5
F10B2A
330
F10011
100
AcDbEntity
  8
Bemassung
 62
     0
100
AcDbMText
 10
-42.0627753303966
 20
29.3794052863435
 30
0.0
 40
2.5
 41
0.0
 71
     8
 72
     1
  1
\A1;36
 73
     1
 44
1.0
1001
ACAD
1000
MTEXTBEGIN
1070
    73
1070
     1
1070
    44
1040
1.0
1070
    74
1070
     0
1000
MTEXTEND
  0
POINT
  5
F10B2B
330
F10011
100
AcDbEntity
  8
Defpoints
 62
     0
100
AcDbPoint
 10
-60.06277533039661
 20
13.7544052863435
 30
0.0
  0
POINT
  5
F10B2C
330
F10011
100
AcDbEntity
  8
Defpoints
 62
     0
100
AcDbPoint
 10
-24.0627753303966
 20
13.2544052863435
 30
0.0
  0
POINT
  5
F10B2D
330
F10011
100
AcDbEntity
  8
Defpoints
 62
     0
100
AcDbPoint
 10
-24.0627753303966
 20
28.7544052863435
 30
0.0
  0
ENDBLK
  5
F1003D
330
F10011
100
AcDbEntity
  8
0
100
AcDbBlockEnd
  0
BLOCK
  5
F1003E
330
F1001B
100
AcDbEntity
  8
0
100
AcDbBlockBegin
  2
*D5
 70
     1
 10
0.0
 20
0.0
 30
0.0
  3
*D5
  1

  0
LINE
  5
F10C42
330
F1001B
100
AcDbEntity
  8
Bemassung
 62
     0
370
    -2
100
AcDbLine
 10
-68.0627753303966
 20
7.37940528634351
 30
0.0
 11
-68.0627753303966
 21
-3.495594713656489
 31
0.0
  0
LINE
  5
F10C43
330
F1001B
100
AcDbEntity
  8
Bemassung
 62
     0
370
    -2
100
AcDbLine
 10
-81.06277533039659
 20
7.199405286343509
 30
0.0
 11
-81.06277533039659
 21
-3.49559471365649
 31
0.0
  0
LINE
  5
F10C44
330
F1001B
100
AcDbEntity
  8
Bemassung
 62
     0
370
    -2
100
AcDbLine
 10
-70.5627753303966
 20
-2.245594713656489
 30
0.0
 11
-78.56277533039659
 21
-2.245594713656489
 31
0.0
  0
INSERT
  5
F10C45
330
F1001B
100
AcDbEntity
  8
Bemassung
 62
     0
370
    -2
100
AcDbBlockReference
  2
VDDIM_DEFAULT
 10
-68.0627753303966
 20
-2.245594713656489
 30
0.0
 41
2.5
 42
2.5
 43
2.5
  0
INSERT
  5
F10C46
330
F1001B
100
AcDbEntity
  8
Bemassung
 62
     0
370
    -2
100
AcDbBlockReference
  2
VDDIM_DEFAULT
 10
-81.06277533039659
 20
-2.245594713656489
 30
0.0
 41
2.5
 42
2.5
 43
2.5
 50
180.0
  0
MTEXT
  5
F10C47
330
F1001B
100
AcDbEntity
  8
Bemassung
 62
     0
100
AcDbMText
 10
-74.56277533039659
 20
-1.620594713656489
 30
0.0
 40
2.5
 41
0.0
 71
     8
 72
     1
  1
\A1;13
 73
     1
 44
1.0
1001
ACAD
1000
MTEXTBEGIN
1070
    73
1070
     1
1070
    44
1040
1.0
1070
    74
1070
     0
1000
MTEXTEND
  0
POINT
  5
F10C48
330
F1001B
100
AcDbEntity
  8
Defpoints
 62
     0
100
AcDbPoint
 10
-68.0627753303966
 20
8.00440528634351
 30
0.0
  0
POINT
  5
F10C49
330
F1001B
100
AcDbEntity
  8
Defpoints
 62
     0
100
AcDbPoint
 10
-81.06277533039659
 20
7.824405286343509
 30
0.0
  0
POINT
  5
F10C4A
330
F1001B
100
AcDbEntity
  8
Defpoints
 62
     0
100
AcDbPoint
 10
-81.06277533039659
 20
-2.245594713656489
 30
0.0
  0
ENDBLK
  5
F10047
330
F1001B
100
AcDbEntity
  8
0
100
AcDbBlockEnd
  0
BLOCK
  5
F10048
330
F10020
100
AcDbEntity
  8
0
100
AcDbBlockBegin
  2
*D6
 70
     1
 10
0.0
 20
0.0
 30
0.0
  3
*D6
  1

  0
LINE
  5
F10C4B
330
F10020
100
AcDbEntity
  8
Bemassung
 62
     0
370
    -2
100
AcDbLine
 10
-24.0627753303966
 20
13.8794052863435
 30
0.0
 11
-24.0627753303966
 21
45.00440528634349
 31
0.0
  0
LINE
  5
F10C4C
330
F10020
100
AcDbEntity
  8
Bemassung
 62
     0
370
    -2
100
AcDbLine
 10
-81.06277533039659
 20
8.449405286343509
 30
0.0
 11
-81.06277533039659
 21
45.00440528634349
 31
0.0
  0
LINE
  5
F10C4D
330
F10020
100
AcDbEntity
  8
Bemassung
 62
     0
370
    -2
100
AcDbLine
 10
-26.5627753303966
 20
43.75440528634349
 30
0.0
 11
-78.56277533039659
 21
43.75440528634349
 31
0.0
  0
INSERT
  5
F10C4E
330
F10020
100
AcDbEntity
  8
Bemassung
 62
     0
370
    -2
100
AcDbBlockReference
  2
VDDIM_DEFAULT
 10
-24.0627753303966
 20
43.75440528634349
 30
0.0
 41
2.5
 42
2.5
 43
2.5
  0
INSERT
  5
F10C4F
330
F10020
100
AcDbEntity
  8
Bemassung
 62
     0
370
    -2
100
AcDbBlockReference
  2
VDDIM_DEFAULT
 10
-81.06277533039659
 20
43.75440528634349
 30
0.0
 41
2.5
 42
2.5
 43
2.5
 50
180.0
  0
MTEXT
  5
F10C50
330
F10020
100
AcDbEntity
  8
Bemassung
 62
     0
100
AcDbMText
 10
-52.56277533039659
 20
44.37940528634349
 30
0.0
 40
2.5
 41
0.0
 71
     8
 72
     1
  1
\A1;57
 73
     1
 44
1.0
1001
ACAD
1000
MTEXTBEGIN
1070
    73
1070
     1
1070
    44
1040
1.0
1070
    74
1070
     0
1000
MTEXTEND
  0
POINT
  5
F10C51
330
F10020
100
AcDbEntity
  8
Defpoints
 62
     0
100
AcDbPoint
 10
-24.0627753303966
 20
13.2544052863435
 30
0.0
  0
POINT
  5
F10C52
330
F10020
100
AcDbEntity
  8
Defpoints
 62
     0
100
AcDbPoint
 10
-81.06277533039659
 20
7.824405286343509
 30
0.0
  0
POINT
  5
F10C53
330
F10020
100
AcDbEntity
  8
Defpoints
 62
     0
100
AcDbPoint
 10
-81.06277533039659
 20
43.75440528634349
 30
0.0
  0
ENDBLK
  5
F10051
330
F10020
100
AcDbEntity
  8
0
100
AcDbBlockEnd
  0
BLOCK
  5
F10052
330
F10025
100
AcDbEntity
  8
0
100
AcDbBlockBegin
  2
*D7
 70
     1
 10
0.0
 20
0.0
 30
0.0
  3
*D7
  1

  0
LINE
  5
F10B6D
330
F10025
100
AcDbEntity
  8
Bemassung
 62
     0
370
    -2
100
AcDbLine
 10
-81.06277533039659
 20
11.3794052863435
 30
0.0
 11
-81.06277533039659
 21
29.94162995594699
 31
0.0
  0
LINE
  5
F10B6E
330
F10025
100
AcDbEntity
  8
Bemassung
 62
     0
370
    -2
100
AcDbLine
 10
-60.06277533039661
 20
14.1294052863435
 30
0.0
 11
-60.06277533039661
 21
29.94162995594699
 31
0.0
  0
LINE
  5
F10B6F
330
F10025
100
AcDbEntity
  8
Bemassung
 62
     0
370
    -2
100
AcDbLine
 10
-78.56277533039659
 20
28.691629955947
 30
0.0
 11
-62.56277533039661
 21
28.691629955947
 31
0.0
  0
INSERT
  5
F10B70
330
F10025
100
AcDbEntity
  8
Bemassung
 62
     0
370
    -2
100
AcDbBlockReference
  2
VDDIM_DEFAULT
 10
-81.06277533039659
 20
28.691629955947
 30
0.0
 41
2.5
 42
2.5
 43
2.5
 50
180.0
  0
INSERT
  5
F10B71
330
F10025
100
AcDbEntity
  8
Bemassung
 62
     0
370
    -2
100
AcDbBlockReference
  2
VDDIM_DEFAULT
 10
-60.06277533039661
 20
28.691629955947
 30
0.0
 41
2.5
 42
2.5
 43
2.5
  0
MTEXT
  5
F10B72
330
F10025
100
AcDbEntity
  8
Bemassung
 62
     0
100
AcDbMText
 10
-70.56277533039659
 20
29.316629955947
 30
0.0
 40
2.5
 41
0.0
 71
     8
 72
     1
  1
\A1;21
 73
     1
 44
1.0
1001
ACAD
1000
MTEXTBEGIN
1070
    73
1070
     1
1070
    44
1040
1.0
1070
    74
1070
     0
1000
MTEXTEND
  0
POINT
  5
F10B73
330
F10025
100
AcDbEntity
  8
Defpoints
 62
     0
100
AcDbPoint
 10
-81.06277533039659
 20
10.7544052863435
 30
0.0
  0
POINT
  5
F10B74
330
F10025
100
AcDbEntity
  8
Defpoints
 62
     0
100
AcDbPoint
 10
-60.06277533039661
 20
13.5044052863435
 30
0.0
  0
POINT
  5
F10B75
330
F10025
100
AcDbEntity
  8
Defpoints
 62
     0
100
AcDbPoint
 10
-60.06277533039661
 20
28.691629955947
 30
0.0
  0
ENDBLK
  5
F1005B
330
F10025
100
AcDbEntity
  8
0
100
AcDbBlockEnd
  0
BLOCK
  5
F1005C
330
F10007
100
AcDbEntity
  8
0
100
AcDbBlockBegin
  2
*D8
 70
     1
 10
0.0
 20
0.0
 30
0.0
  3
*D8
  1

  0
LINE
  5
F10A7F
330
F10007
100
AcDbEntity
  8
Bemassung
 62
     0
370
    -2
100
AcDbLine
 10
-81.61777533039659
 20
7.75440528634351
 30
0.0
 11
-92.31277533039659
 21
7.754405286343513
 31
0.0
  0
LINE
  5
F10A80
330
F10007
100
AcDbEntity
  8
Bemassung
 62
     0
370
    -2
100
AcDbLine
 10
-81.61777533039659
 20
13.7544052863435
 30
0.0
 11
-92.31277533039659
 21
13.7544052863435
 31
0.0
  0
LINE
  5
F10A81
330
F10007
100
AcDbEntity
  8
Bemassung
 62
     0
370
    -2
100
AcDbLine
 10
-91.06277533039659
 20
5.254405286343513
 30
0.0
 11
-91.06277533039659
 21
2.754405286343513
 31
0.0
  0
LINE
  5
F10A82
330
F10007
100
AcDbEntity
  8
Bemassung
 62
     0
370
    -2
100
AcDbLine
 10
-91.06277533039659
 20
16.2544052863435
 30
0.0
 11
-91.06277533039659
 21
18.7544052863435
 31
0.0
  0
LINE
  5
F10A83
330
F10007
100
AcDbEntity
  8
Bemassung
 62
     0
370
    -2
100
AcDbLine
 10
-91.06277533039659
 20
7.754405286343513
 30
0.0
 11
-91.06277533039659
 21
13.7544052863435
 31
0.0
  0
INSERT
  5
F10A84
330
F10007
100
AcDbEntity
  8
Bemassung
 62
     0
370
    -2
100
AcDbBlockReference
  2
VDDIM_DEFAULT
 10
-91.06277533039659
 20
7.754405286343513
 30
0.0
 41
2.5
 42
2.5
 43
2.5
 50
90.0
  0
INSERT
  5
F10A85
330
F10007
100
AcDbEntity
  8
Bemassung
 62
     0
370
    -2
100
AcDbBlockReference
  2
VDDIM_DEFAULT
 10
-91.06277533039659
 20
13.7544052863435
 30
0.0
 41
2.5
 42
2.5
 43
2.5
 50
270.0
  0
MTEXT
  5
F10A86
330
F10007
100
AcDbEntity
  8
Bemassung
 62
     0
100
AcDbMText
 10
-91.68777533039659
 20
10.75440528634349
 30
0.0
 40
2.5
 41
0.0
 71
     8
 72
     1
  1
\A1;%%C6
 11
0.0000000000000001
 21
1.0
 31
0.0
 73
     1
 44
1.0
1001
ACAD
1000
MTEXTBEGIN
1070
    73
1070
     1
1070
    44
1040
1.0
1070
    74
1070
     0
1000
MTEXTEND
  0
POINT
  5
F10A87
330
F10007
100
AcDbEntity
  8
Defpoints
 62
     0
100
AcDbPoint
 10
-80.99277533039659
 20
7.75440528634351
 30
0.0
  0
POINT
  5
F10A88
330
F10007
100
AcDbEntity
  8
Defpoints
 62
     0
100
AcDbPoint
 10
-80.99277533039659
 20
13.7544052863435
 30
0.0
  0
POINT
  5
F10A89
330
F10007
100
AcDbEntity
  8
Defpoints
 62
     0
100
AcDbPoint
 10
-91.06277533039659
 20
13.7544052863435
 30
0.0
  0
ENDBLK
  5
F10065
330
F10007
100
AcDbEntity
  8
0
100
AcDbBlockEnd
  0
BLOCK
  5
F10066
330
F1000C
100
AcDbEntity
  8
0
100
AcDbBlockBegin
  2
*D9
 70
     1
 10
0.0
 20
0.0
 30
0.0
  3
*D9
  1

  0
LINE
  5
F10A11
330
F1000C
100
AcDbEntity
  8
Bemassung
 62
     0
370
    -2
100
AcDbLine
 10
-63.5886563876653
 20
8.00440528634351
 30
0.0
 11
-60.9636563876653
 21
8.00440528634351
 31
0.0
  0
LINE
  5
F10A12
330
F1000C
100
AcDbEntity
  8
Bemassung
 62
     0
370
    -2
100
AcDbLine
 10
-63.5886563876653
 20
13.5044052863435
 30
0.0
 11
-60.9636563876653
 21
13.5044052863435
 31
0.0
  0
LINE
  5
F10A13
330
F1000C
100
AcDbEntity
  8
Bemassung
 62
     0
370
    -2
100
AcDbLine
 10
-62.2136563876653
 20
5.50440528634351
 30
0.0
 11
-62.2136563876653
 21
3.00440528634351
 31
0.0
  0
LINE
  5
F10A14
330
F1000C
100
AcDbEntity
  8
Bemassung
 62
     0
370
    -2
100
AcDbLine
 10
-62.21365638766529
 20
16.0044052863435
 30
0.0
 11
-62.21365638766529
 21
27.04465085250995
 31
0.0
  0
LINE
  5
F10A15
330
F1000C
100
AcDbEntity
  8
Bemassung
 62
     0
370
    -2
100
AcDbLine
 10
-62.2136563876653
 20
8.00440528634351
 30
0.0
 11
-62.2136563876653
 21
13.5044052863435
 31
0.0
  0
INSERT
  5
F10A16
330
F1000C
100
AcDbEntity
  8
Bemassung
 62
     0
370
    -2
100
AcDbBlockReference
  2
VDDIM_DEFAULT
 10
-62.2136563876653
 20
8.00440528634351
 30
0.0
 41
2.5
 42
2.5
 43
2.5
 50
90.0
  0
INSERT
  5
F10A17
330
F1000C
100
AcDbEntity
  8
Bemassung
 62
     0
370
    -2
100
AcDbBlockReference
  2
VDDIM_DEFAULT
 10
-62.2136563876653
 20
13.5044052863435
 30
0.0
 41
2.5
 42
2.5
 43
2.5
 50
270.0
  0
MTEXT
  5
F10A18
330
F1000C
100
AcDbEntity
  8
Bemassung
 62
     0
100
AcDbMText
 10
-62.83865638766529
 20
22.77452806942671
 30
0.0
 40
2.5
 41
0.0
 71
     8
 72
     1
  1
\A1;%%C5.5
 11
0.0000000000000001
 21
1.0
 31
0.0
 73
     1
 44
1.0
1001
ACAD
1000
MTEXTBEGIN
1070
    73
1070
     1
1070
    44
1040
1.0
1070
    74
1070
     0
1000
MTEXTEND
  0
POINT
  5
F10A19
330
F1000C
100
AcDbEntity
  8
Defpoints
 62
     0
100
AcDbPoint
 10
-64.2136563876653
 20
8.00440528634351
 30
0.0
  0
POINT
  5
F10A1A
330
F1000C
100
AcDbEntity
  8
Defpoints
 62
     0
100
AcDbPoint
 10
-64.2136563876653
 20
13.5044052863435
 30
0.0
  0
POINT
  5
F10A1B
330
F1000C
100
AcDbEntity
  8
Defpoints
 62
     0
100
AcDbPoint
 10
-62.2136563876653
 20
13.5044052863435
 30
0.0
  0
ENDBLK
  5
F1006F
330
F1000C
100
AcDbEntity
  8
0
100
AcDbBlockEnd
  0
BLOCK
  5
F10070
330
F10016
100
AcDbEntity
  8
0
100
AcDbBlockBegin
  2
*D10
 70
     1
 10
0.0
 20
0.0
 30
0.0
  3
*D10
  1

  0
LINE
  5
F10C37
330
F10016
100
AcDbEntity
  8
Bemassung
 62
     0
370
    -2
100
AcDbLine
 10
-23.9377753303966
 20
7.75440528634351
 30
0.0
 11
-12.8127753303966
 21
7.754405286343506
 31
0.0
  0
LINE
  5
F10C38
330
F10016
100
AcDbEntity
  8
Bemassung
 62
     0
370
    -2
100
AcDbLine
 10
-23.9377753303966
 20
13.7544052863435
 30
0.0
 11
-12.8127753303966
 21
13.7544052863435
 31
0.0
  0
LINE
  5
F10C39
330
F10016
100
AcDbEntity
  8
Bemassung
 62
     0
370
    -2
100
AcDbLine
 10
-14.0627753303966
 20
5.254405286343507
 30
0.0
 11
-14.0627753303966
 21
2.754405286343506
 31
0.0
  0
LINE
  5
F10C3A
330
F10016
100
AcDbEntity
  8
Bemassung
 62
     0
370
    -2
100
AcDbLine
 10
-14.0627753303966
 20
16.2544052863435
 30
0.0
 11
-14.0627753303966
 21
18.7544052863435
 31
0.0
  0
LINE
  5
F10C3B
330
F10016
100
AcDbEntity
  8
Bemassung
 62
     0
370
    -2
100
AcDbLine
 10
-14.0627753303966
 20
7.754405286343507
 30
0.0
 11
-14.0627753303966
 21
13.7544052863435
 31
0.0
  0
INSERT
  5
F10C3C
330
F10016
100
AcDbEntity
  8
Bemassung
 62
     0
370
    -2
100
AcDbBlockReference
  2
VDDIM_DEFAULT
 10
-14.0627753303966
 20
7.754405286343507
 30
0.0
 41
2.5
 42
2.5
 43
2.5
 50
90.0
  0
INSERT
  5
F10C3D
330
F10016
100
AcDbEntity
  8
Bemassung
 62
     0
370
    -2
100
AcDbBlockReference
  2
VDDIM_DEFAULT
 10
-14.0627753303966
 20
13.7544052863435
 30
0.0
 41
2.5
 42
2.5
 43
2.5
 50
270.0
  0
MTEXT
  5
F10C3E
330
F10016
100
AcDbEntity
  8
Bemassung
 62
     0
100
AcDbMText
 10
-14.6877753303966
 20
10.7544052863435
 30
0.0
 40
2.5
 41
0.0
 71
     8
 72
     1
  1
\A1;%%C6 
 11
0.0000000000000001
 21
1.0
 31
0.0
 73
     1
 44
1.0
1001
ACAD
1000
MTEXTBEGIN
1070
    73
1070
     1
1070
    44
1040
1.0
1070
    74
1070
     0
1000
MTEXTEND
  0
POINT
  5
F10C3F
330
F10016
100
AcDbEntity
  8
Defpoints
 62
     0
100
AcDbPoint
 10
-24.5627753303966
 20
7.75440528634351
 30
0.0
  0
POINT
  5
F10C40
330
F10016
100
AcDbEntity
  8
Defpoints
 62
     0
100
AcDbPoint
 10
-24.5627753303966
 20
13.7544052863435
 30
0.0
  0
POINT
  5
F10C41
330
F10016
100
AcDbEntity
  8
Defpoints
 62
     0
100
AcDbPoint
 10
-14.0627753303966
 20
13.7544052863435
 30
0.0
  0
ENDBLK
  5
F10079
330
F10016
100
AcDbEntity
  8
0
100
AcDbBlockEnd
  0
BLOCK
  5
F10924
330
F10922
100
AcDbEntity
  8
0
100
AcDbBlockBegin
  2
GENAXEH
 70
     0
 10
0.0
 20
0.0
 30
0.0
  3
GENAXEH
  1

  0
LINE
  5
F10923
330
F10922
100
AcDbEntity
  8
0
100
AcDbLine
 10
-1.0
 20
0.0
 30
0.0
 11
1.0
 21
0.0
 31
0.0
  0
ENDBLK
  5
F10925
330
F10922
100
AcDbEntity
  8
0
100
AcDbBlockEnd
  0
BLOCK
  5
F1093F
330
F1093E
100
AcDbEntity
  8
0
100
AcDbBlockBegin
  2
*D13
 70
     1
 10
0.0
 20
0.0
 30
0.0
  3
*D13
  1

  0
LINE
  5
F10941
330
F1093E
100
AcDbEntity
  8
0
 62
     0
370
    -2
100
AcDbLine
 10
-81.61777533039659
 20
13.7544052863435
 30
0.0
 11
-110.7643758563617
 21
13.75440528634351
 31
0.0
  0
LINE
  5
F10942
330
F1093E
100
AcDbEntity
  8
0
 62
     0
370
    -2
100
AcDbLine
 10
-81.61777533039659
 20
7.75440528634351
 30
0.0
 11
-110.7643758563617
 21
7.754405286343518
 31
0.0
  0
LINE
  5
F10943
330
F1093E
100
AcDbEntity
  8
0
 62
     0
370
    -2
100
AcDbLine
 10
-109.5143758563617
 20
16.25440528634351
 30
0.0
 11
-109.5143758563617
 21
18.75440528634351
 31
0.0
  0
LINE
  5
F10944
330
F1093E
100
AcDbEntity
  8
0
 62
     0
370
    -2
100
AcDbLine
 10
-109.5143758563617
 20
5.254405286343518
 30
0.0
 11
-109.5143758563617
 21
-12.31295487736726
 31
0.0
  0
INSERT
  5
F10945
330
F1093E
100
AcDbEntity
  8
0
 62
     0
370
    -2
100
AcDbBlockReference
  2
VDDIM_DEFAULT
 10
-109.5143758563617
 20
13.75440528634351
 30
0.0
 41
2.5
 42
2.5
 43
2.5
 50
270.0
  0
INSERT
  5
F10946
330
F1093E
100
AcDbEntity
  8
0
 62
     0
370
    -2
100
AcDbBlockReference
  2
VDDIM_DEFAULT
 10
-109.5143758563617
 20
7.754405286343518
 30
0.0
 41
2.5
 42
2.5
 43
2.5
 50
90.0
  0
MTEXT
  5
F10947
102
{ACAD_XDICTIONARY
360
F10C67
102
}
330
F1093E
100
AcDbEntity
  8
0
 62
     0
100
AcDbMText
 10
-111.6454581665026
 20
-4.779274795511887
 30
0.0
 40
2.5
 41
0.0
 71
     5
 72
     1
  1
\A1;6.000{\H0.5x;\S+0.000^ -0.000;}
 11
0.0000000000000001
 21
1.0
 31
0.0
 73
     1
 44
1.0
1001
ACAD
1000
MTEXTBEGIN
1070
    73
1070
     1
1070
    44
1040
1.0
1070
    74
1070
     0
1000
MTEXTEND
  0
POINT
  5
F10948
330
F1093E
100
AcDbEntity
  8
Defpoints
 62
     0
100
AcDbPoint
 10
-80.99277533039659
 20
13.7544052863435
 30
0.0
  0
POINT
  5
F10949
330
F1093E
100
AcDbEntity
  8
Defpoints
 62
     0
100
AcDbPoint
 10
-80.99277533039659
 20
7.75440528634351
 30
0.0
  0
POINT
  5
F1094A
330
F1093E
100
AcDbEntity
  8
Defpoints
 62
     0
100
AcDbPoint
 10
-109.5143758563617
 20
7.754405286343518
 30
0.0
  0
ENDBLK
  5
F10940
330
F1093E
100
AcDbEntity
  8
0
100
AcDbBlockEnd
  0
BLOCK
  5
F1094D
330
F1094C
100
AcDbEntity
  8
0
100
AcDbBlockBegin
  2
*D14
 70
     1
 10
0.0
 20
0.0
 30
0.0
  3
*D14
  1

  0
LINE
  5
F1094F
330
F1094C
100
AcDbEntity
  8
0
 62
     0
370
    -2
100
AcDbLine
 10
-81.06277533039659
 20
14.3094052863435
 30
0.0
 11
-81.06277533039659
 21
64.28743051880949
 31
0.0
  0
LINE
  5
F10950
330
F1094C
100
AcDbEntity
  8
0
 62
     0
370
    -2
100
AcDbLine
 10
-24.0627753303966
 20
13.8794052863435
 30
0.0
 11
-24.0627753303966
 21
64.28743051880949
 31
0.0
  0
LINE
  5
F10951
330
F1094C
100
AcDbEntity
  8
0
 62
     0
370
    -2
100
AcDbLine
 10
-78.56277533039659
 20
63.03743051880949
 30
0.0
 11
-26.5627753303966
 21
63.03743051880949
 31
0.0
  0
INSERT
  5
F10952
330
F1094C
100
AcDbEntity
  8
0
 62
     0
370
    -2
100
AcDbBlockReference
  2
VDDIM_DEFAULT
 10
-81.06277533039659
 20
63.03743051880949
 30
0.0
 41
2.5
 42
2.5
 43
2.5
 50
180.0
  0
INSERT
  5
F10953
330
F1094C
100
AcDbEntity
  8
0
 62
     0
370
    -2
100
AcDbBlockReference
  2
VDDIM_DEFAULT
 10
-24.0627753303966
 20
63.03743051880949
 30
0.0
 41
2.5
 42
2.5
 43
2.5
  0
MTEXT
  5
F10954
102
{ACAD_XDICTIONARY
360
F10C69
102
}
330
F1094C
100
AcDbEntity
  8
0
 62
     0
100
AcDbMText
 10
-52.56277533039659
 20
65.16851282895046
 30
0.0
 40
2.5
 41
0.0
 71
     5
 72
     1
  1
\A1;57.000{\H0.5x;\S+0.000^ -0.000;}
 73
     1
 44
1.0
1001
ACAD
1000
MTEXTBEGIN
1070
    73
1070
     1
1070
    44
1040
1.0
1070
    74
1070
     0
1000
MTEXTEND
  0
POINT
  5
F10955
330
F1094C
100
AcDbEntity
  8
Defpoints
 62
     0
100
AcDbPoint
 10
-81.06277533039659
 20
13.6844052863435
 30
0.0
  0
POINT
  5
F10956
330
F1094C
100
AcDbEntity
  8
Defpoints
 62
     0
100
AcDbPoint
 10
-24.0627753303966
 20
13.2544052863435
 30
0.0
  0
POINT
  5
F10957
330
F1094C
100
AcDbEntity
  8
Defpoints
 62
     0
100
AcDbPoint
 10
-24.0627753303966
 20
63.03743051880949
 30
0.0
  0
ENDBLK
  5
F1094E
330
F1094C
100
AcDbEntity
  8
0
100
AcDbBlockEnd
  0
ENDSEC
  0
SECTION
  2
ENTITIES
  0
DIMENSION
  5
F10012
330
261
100
AcDbEntity
  8
Bemassung
100
AcDbDimension
  2
*D4
 10
-24.0627753303966
 20
28.7544052863435
 30
0.0
 11
-42.0627753303966
 21
30.65669041594786
 31
0.0
 70
    32
  1
<>
 71
     8
 42
36.0
  3
BEM-ISBE
100
AcDbAlignedDimension
 13
-60.06277533039661
 23
13.7544052863435
 33
0.0
 14
-24.0627753303966
 24
13.2544052863435
 34
0.0
100
AcDbRotatedDimension
1001
ACAD
1000
DSTYLE
1002
{
1070
    47
1040
2.0
1070
    48
1040
0.0
1070
    71
1070
     0
1070
    78
1070
     8
1002
}
1001
ACAD_DSTYLE_DIMINSPECT
1070
   396
1000
100%
1070
   395
1000

1070
   394
1070
    33
1070
   393
1070
     0
  0
DIMENSION
  5
F1001C
330
261
100
AcDbEntity
  8
Bemassung
100
AcDbDimension
  2
*D5
 10
-81.06277533039659
 20
-2.245594713656489
 30
0.0
 11
-74.56277533039659
 21
-0.3433095840521243
 31
0.0
 70
    32
  1
<>
 71
     8
 42
12.99999999999998
  3
BEM-ISBE
100
AcDbAlignedDimension
 13
-68.0627753303966
 23
8.00440528634351
 33
0.0
 14
-81.06277533039659
 24
7.824405286343509
 34
0.0
100
AcDbRotatedDimension
1001
ACAD
1000
DSTYLE
1002
{
1070
    47
1040
1.5
1070
    48
1040
0.0
1070
    71
1070
     0
1070
    78
1070
     8
1002
}
1001
ACAD_DSTYLE_DIMINSPECT
1070
   396
1000
100%
1070
   395
1000

1070
   394
1070
    33
1070
   393
1070
     0
  0
DIMENSION
  5
F10021
330
261
100
AcDbEntity
  8
Bemassung
100
AcDbDimension
  2
*D6
 10
-81.06277533039659
 20
43.75440528634349
 30
0.0
 11
-52.56277533039659
 21
45.65072179384691
 31
0.0
 70
    32
  1
<>
 71
     8
 42
56.99999999999999
  3
BEM-ISBE
100
AcDbAlignedDimension
 13
-24.0627753303966
 23
13.2544052863435
 33
0.0
 14
-81.06277533039659
 24
7.824405286343509
 34
0.0
100
AcDbRotatedDimension
1001
ACAD
1000
DSTYLE
1002
{
1070
    47
1040
2.0
1070
    48
1040
0.0
1070
    71
1070
     0
1070
    78
1070
     8
1002
}
1001
ACAD_DSTYLE_DIMINSPECT
1070
   396
1000
100%
1070
   395
1000

1070
   394
1070
    33
1070
   393
1070
     0
  0
DIMENSION
  5
F10026
330
261
100
AcDbEntity
  8
Bemassung
100
AcDbDimension
  2
*D7
 10
-60.06277533039661
 20
28.691629955947
 30
0.0
 11
-70.56277533039659
 21
30.57174591774782
 31
0.0
 70
    32
  1
<>
 71
     8
 42
20.99999999999999
  3
BEM-ISBE
100
AcDbAlignedDimension
 13
-81.06277533039659
 23
10.7544052863435
 33
0.0
 14
-60.06277533039661
 24
13.5044052863435
 34
0.0
100
AcDbRotatedDimension
1001
ACAD
1000
DSTYLE
1002
{
1070
    47
1040
0.5
1070
    48
1040
0.0
1070
    71
1070
     0
1070
    78
1070
     8
1002
}
1001
ACAD_DSTYLE_DIMINSPECT
1070
   396
1000
100%
1070
   395
1000

1070
   394
1070
    33
1070
   393
1070
     0
  0
DIMENSION
  5
F10008
330
261
100
AcDbEntity
  8
Bemassung
100
AcDbDimension
  2
*D8
 10
-91.06277533039659
 20
13.7544052863435
 30
0.0
 11
-93.034125944312
 21
10.75440528634349
 31
0.0
 70
    32
  1
%%C<>
 71
     8
 42
5.99999999999999
  3
BEM-ISBE
100
AcDbAlignedDimension
 13
-80.99277533039659
 23
7.75440528634351
 33
0.0
 14
-80.99277533039659
 24
13.7544052863435
 34
0.0
 50
90.0
100
AcDbRotatedDimension
1001
ACAD
1000
DSTYLE
1002
{
1070
    48
1040
-0.048
1070
    71
1070
     0
1070
    78
1070
     8
1002
}
1001
ACAD_DSTYLE_DIMINSPECT
1070
   396
1000
100%
1070
   395
1000

1070
   394
1070
    33
1070
   393
1070
     0
  0
DIMENSION
  5
F1000D
330
261
100
AcDbEntity
  8
Bemassung
100
AcDbDimension
  2
*D9
 10
-62.2136563876653
 20
13.5044052863435
 30
0.0
 11
-64.18500700158071
 21
22.77452806942671
 31
0.0
 70
    32
  1
%%C<>
 71
     8
 42
5.499999999999989
  3
BEM-ISBE
100
AcDbAlignedDimension
 13
-64.2136563876653
 23
8.00440528634351
 33
0.0
 14
-64.2136563876653
 24
13.5044052863435
 34
0.0
 50
90.0
100
AcDbRotatedDimension
1001
ACAD
1000
DSTYLE
1002
{
1070
    47
1040
0.1
1070
    48
1040
-0.1
1070
    71
1070
     0
1070
    78
1070
     8
1002
}
1001
ACAD_DSTYLE_DIMINSPECT
1070
   396
1000
100%
1070
   395
1000

1070
   394
1070
    33
1070
   393
1070
     0
  0
DIMENSION
  5
F10017
330
261
100
AcDbEntity
  8
Bemassung
100
AcDbDimension
  2
*D10
 10
-14.0627753303966
 20
13.7544052863435
 30
0.0
 11
-16.03412594431202
 21
10.7544052863435
 31
0.0
 70
    32
  1
%%C<> 
 71
     8
 42
5.99999999999999
  3
BEM-ISBE
100
AcDbAlignedDimension
 13
-24.5627753303966
 23
7.75440528634351
 33
0.0
 14
-24.5627753303966
 24
13.7544052863435
 34
0.0
 50
90.0
100
AcDbRotatedDimension
1001
ACAD
1000
DSTYLE
1002
{
1070
    71
1070
     0
1070
    78
1070
     8
1002
}
1001
ACAD_DSTYLE_DIMINSPECT
1070
   396
1000
100%
1070
   395
1000

1070
   394
1070
    33
1070
   393
1070
     0
  0
LINE
  5
F1007A
330
261
100
AcDbEntity
  8
Geo
100
AcDbLine
 10
-81.06277533039659
 20
10.7544052863435
 30
0.0
 11
-81.06277533039659
 21
13.6844052863435
 31
0.0
  0
LINE
  5
F1007C
330
261
100
AcDbEntity
  8
Geo
100
AcDbLine
 10
-81.06277533039659
 20
13.6844052863435
 30
0.0
 11
-80.99277533039659
 21
13.7544052863435
 31
0.0
  0
LINE
  5
F1007E
330
261
100
AcDbEntity
  8
Geo
100
AcDbLine
 10
-80.99277533039659
 20
13.7544052863435
 30
0.0
 11
-68.0627753303966
 21
13.7544052863435
 31
0.0
  0
LINE
  5
F10080
330
261
100
AcDbEntity
  8
Geo
100
AcDbLine
 10
-68.0627753303966
 20
13.7544052863435
 30
0.0
 11
-68.0627753303966
 21
13.5044052863435
 31
0.0
  0
LINE
  5
F10082
330
261
100
AcDbEntity
  8
Geo
100
AcDbLine
 10
-68.0627753303966
 20
13.5044052863435
 30
0.0
 11
-60.06277533039661
 21
13.5044052863435
 31
0.0
  0
LINE
  5
F10084
330
261
100
AcDbEntity
  8
Geo
100
AcDbLine
 10
-60.06277533039661
 20
13.5044052863435
 30
0.0
 11
-60.06277533039661
 21
13.7544052863435
 31
0.0
  0
LINE
  5
F10086
330
261
100
AcDbEntity
  8
Geo
100
AcDbLine
 10
-60.06277533039661
 20
13.7544052863435
 30
0.0
 11
-45.0627753303966
 21
13.7544052863435
 31
0.0
  0
LINE
  5
F10088
330
261
100
AcDbEntity
  8
Geo
100
AcDbLine
 10
-45.0627753303966
 20
13.7544052863435
 30
0.0
 11
-44.1627753303966
 21
12.8544052863435
 31
0.0
  0
LINE
  5
F1008A
330
261
100
AcDbEntity
  8
Geo
100
AcDbLine
 10
-44.1627753303966
 20
12.8544052863435
 30
0.0
 11
-39.96277533039661
 21
12.8544052863435
 31
0.0
  0
LINE
  5
F1008C
330
261
100
AcDbEntity
  8
Geo
100
AcDbLine
 10
-39.96277533039661
 20
12.8544052863435
 30
0.0
 11
-39.0627753303966
 21
13.7544052863435
 31
0.0
  0
LINE
  5
F1008E
330
261
100
AcDbEntity
  8
Geo
100
AcDbLine
 10
-39.0627753303966
 20
13.7544052863435
 30
0.0
 11
-24.5627753303966
 21
13.7544052863435
 31
0.0
  0
LINE
  5
F10090
330
261
100
AcDbEntity
  8
Geo
100
AcDbLine
 10
-24.5627753303966
 20
13.7544052863435
 30
0.0
 11
-24.0627753303966
 21
13.2544052863435
 31
0.0
  0
LINE
  5
F10092
330
261
100
AcDbEntity
  8
Geo
100
AcDbLine
 10
-79.26277533039659
 20
13.7541481875933
 30
0.0
 11
-79.1627753303966
 21
13.7541537046304
 31
0.0
  0
LINE
  5
F10094
330
261
100
AcDbEntity
  8
Geo
100
AcDbLine
 10
-79.1627753303966
 20
13.7541537046304
 30
0.0
 11
-79.06277533039659
 21
13.7521248165174
 31
0.0
  0
LINE
  5
F10096
330
261
100
AcDbEntity
  8
Geo
100
AcDbLine
 10
-79.06277533039659
 20
13.7521248165174
 30
0.0
 11
-78.96277533039659
 21
13.7480628992298
 31
0.0
  0
LINE
  5
F10098
330
261
100
AcDbEntity
  8
Geo
100
AcDbLine
 10
-78.96277533039659
 20
13.7480628992298
 30
0.0
 11
-78.8627753303966
 21
13.7419707075271
 31
0.0
  0
LINE
  5
F1009A
330
261
100
AcDbEntity
  8
Geo
100
AcDbLine
 10
-78.8627753303966
 20
13.7419707075271
 30
0.0
 11
-78.76277533039659
 21
13.7338523730845
 31
0.0
  0
LINE
  5
F1009C
330
261
100
AcDbEntity
  8
Geo
100
AcDbLine
 10
-78.76277533039659
 20
13.7338523730845
 30
0.0
 11
-78.6627753303966
 21
13.7237134016909
 31
0.0
  0
LINE
  5
F1009E
330
261
100
AcDbEntity
  8
Geo
100
AcDbLine
 10
-78.6627753303966
 20
13.7237134016909
 30
0.0
 11
-78.56277533039659
 21
13.7115606695147
 31
0.0
  0
LINE
  5
F100A0
330
261
100
AcDbEntity
  8
Geo
100
AcDbLine
 10
-78.56277533039659
 20
13.7115606695147
 30
0.0
 11
-78.4627753303966
 21
13.6974024184409
 31
0.0
  0
LINE
  5
F100A2
330
261
100
AcDbEntity
  8
Geo
100
AcDbLine
 10
-78.4627753303966
 20
13.6974024184409
 30
0.0
 11
-78.3627753303966
 21
13.6812482504808
 31
0.0
  0
LINE
  5
F100A4
330
261
100
AcDbEntity
  8
Geo
100
AcDbLine
 10
-78.3627753303966
 20
13.6812482504808
 30
0.0
 11
-78.26277533039659
 21
13.6631091212608
 31
0.0
  0
LINE
  5
F100A6
330
261
100
AcDbEntity
  8
Geo
100
AcDbLine
 10
-78.26277533039659
 20
13.6631091212608
 30
0.0
 11
-78.16277533039659
 21
13.6429973325919
 31
0.0
  0
LINE
  5
F100A8
330
261
100
AcDbEntity
  8
Geo
100
AcDbLine
 10
-78.16277533039659
 20
13.6429973325919
 30
0.0
 11
-78.06277533039659
 21
13.6209265241265
 31
0.0
  0
LINE
  5
F100AA
330
261
100
AcDbEntity
  8
Geo
100
AcDbLine
 10
-78.06277533039659
 20
13.6209265241265
 30
0.0
 11
-77.9627753303966
 21
13.5969116641089
 31
0.0
  0
LINE
  5
F100AC
330
261
100
AcDbEntity
  8
Geo
100
AcDbLine
 10
-77.9627753303966
 20
13.5969116641089
 30
0.0
 11
-77.8627753303966
 21
13.570969039223
 31
0.0
  0
LINE
  5
F100AE
330
261
100
AcDbEntity
  8
Geo
100
AcDbLine
 10
-77.8627753303966
 20
13.570969039223
 30
0.0
 11
-77.76277533039659
 21
13.5431162435476
 31
0.0
  0
LINE
  5
F100B0
330
261
100
AcDbEntity
  8
Geo
100
AcDbLine
 10
-77.76277533039659
 20
13.5431162435476
 30
0.0
 11
-77.6627753303966
 21
13.5133721666238
 31
0.0
  0
LINE
  5
F100B2
330
261
100
AcDbEntity
  8
Geo
100
AcDbLine
 10
-77.6627753303966
 20
13.5133721666238
 30
0.0
 11
-77.56277533039659
 21
13.4817569806443
 31
0.0
  0
LINE
  5
F100B4
330
261
100
AcDbEntity
  8
Geo
100
AcDbLine
 10
-77.56277533039659
 20
13.4817569806443
 30
0.0
 11
-77.46277533039659
 21
13.4482921267729
 31
0.0
  0
LINE
  5
F100B6
330
261
100
AcDbEntity
  8
Geo
100
AcDbLine
 10
-77.46277533039659
 20
13.4482921267729
 30
0.0
 11
-77.3627753303966
 21
13.4130003006032
 31
0.0
  0
LINE
  5
F100B8
330
261
100
AcDbEntity
  8
Geo
100
AcDbLine
 10
-77.3627753303966
 20
13.4130003006032
 30
0.0
 11
-77.2627753303966
 21
13.3759054367667
 31
0.0
  0
LINE
  5
F100BA
330
261
100
AcDbEntity
  8
Geo
100
AcDbLine
 10
-77.2627753303966
 20
13.3759054367667
 30
0.0
 11
-77.1627753303966
 21
13.3370326927004
 31
0.0
  0
LINE
  5
F100BC
330
261
100
AcDbEntity
  8
Geo
100
AcDbLine
 10
-77.1627753303966
 20
13.3370326927004
 30
0.0
 11
-77.06277533039659
 21
13.2964084315854
 31
0.0
  0
LINE
  5
F100BE
330
261
100
AcDbEntity
  8
Geo
100
AcDbLine
 10
-77.06277533039659
 20
13.2964084315854
 30
0.0
 11
-76.96277533039659
 21
13.2540602044676
 31
0.0
  0
LINE
  5
F100C0
330
261
100
AcDbEntity
  8
Geo
100
AcDbLine
 10
-76.96277533039659
 20
13.2540602044676
 30
0.0
 11
-76.8627753303966
 21
13.2100167315725
 31
0.0
  0
LINE
  5
F100C2
330
261
100
AcDbEntity
  8
Geo
100
AcDbLine
 10
-76.8627753303966
 20
13.2100167315725
 30
0.0
 11
-76.76277533039659
 21
13.1643078828278
 31
0.0
  0
LINE
  5
F100C4
330
261
100
AcDbEntity
  8
Geo
100
AcDbLine
 10
-76.76277533039659
 20
13.1643078828278
 30
0.0
 11
-76.6627753303966
 21
13.1169646576054
 31
0.0
  0
LINE
  5
F100C6
330
261
100
AcDbEntity
  8
Geo
100
AcDbLine
 10
-76.6627753303966
 20
13.1169646576054
 30
0.0
 11
-76.56277533039659
 21
13.0680191636984
 31
0.0
  0
LINE
  5
F100C8
330
261
100
AcDbEntity
  8
Geo
100
AcDbLine
 10
-76.56277533039659
 20
13.0680191636984
 30
0.0
 11
-76.46277533039659
 21
13.0175045955454
 31
0.0
  0
LINE
  5
F100CA
330
261
100
AcDbEntity
  8
Geo
100
AcDbLine
 10
-76.46277533039659
 20
13.0175045955454
 30
0.0
 11
-76.3627753303966
 21
12.9654552117186
 31
0.0
  0
LINE
  5
F100CC
330
261
100
AcDbEntity
  8
Geo
100
AcDbLine
 10
-76.3627753303966
 20
12.9654552117186
 30
0.0
 11
-76.26277533039659
 21
12.9119063116898
 31
0.0
  0
LINE
  5
F100CE
330
261
100
AcDbEntity
  8
Geo
100
AcDbLine
 10
-76.26277533039659
 20
12.9119063116898
 30
0.0
 11
-76.1627753303966
 21
12.8568942118903
 31
0.0
  0
LINE
  5
F100D0
330
261
100
AcDbEntity
  8
Geo
100
AcDbLine
 10
-76.1627753303966
 20
12.8568942118903
 30
0.0
 11
-76.06277533039659
 21
12.8004562210821
 31
0.0
  0
LINE
  5
F100D2
330
261
100
AcDbEntity
  8
Geo
100
AcDbLine
 10
-76.06277533039659
 20
12.8004562210821
 30
0.0
 11
-75.9627753303966
 21
12.7426306150547
 31
0.0
  0
LINE
  5
F100D4
330
261
100
AcDbEntity
  8
Geo
100
AcDbLine
 10
-75.9627753303966
 20
12.7426306150547
 30
0.0
 11
-75.8627753303966
 21
12.6834566106671
 31
0.0
  0
LINE
  5
F100D6
330
261
100
AcDbEntity
  8
Geo
100
AcDbLine
 10
-75.8627753303966
 20
12.6834566106671
 30
0.0
 11
-75.76277533039659
 21
12.622974339251
 31
0.0
  0
LINE
  5
F100D8
330
261
100
AcDbEntity
  8
Geo
100
AcDbLine
 10
-75.76277533039659
 20
12.622974339251
 30
0.0
 11
-75.66277533039659
 21
12.5612248193946
 31
0.0
  0
LINE
  5
F100DA
330
261
100
AcDbEntity
  8
Geo
100
AcDbLine
 10
-75.66277533039659
 20
12.5612248193946
 30
0.0
 11
-75.56277533039659
 21
12.4982499291234
 31
0.0
  0
LINE
  5
F100DC
330
261
100
AcDbEntity
  8
Geo
100
AcDbLine
 10
-75.56277533039659
 20
12.4982499291234
 30
0.0
 11
-75.4627753303966
 21
12.4340923774995
 31
0.0
  0
LINE
  5
F100DE
330
261
100
AcDbEntity
  8
Geo
100
AcDbLine
 10
-75.4627753303966
 20
12.4340923774995
 30
0.0
 11
-75.3627753303966
 21
12.3687956756562
 31
0.0
  0
LINE
  5
F100E0
330
261
100
AcDbEntity
  8
Geo
100
AcDbLine
 10
-75.3627753303966
 20
12.3687956756562
 30
0.0
 11
-75.26277533039659
 21
12.3024041072893
 31
0.0
  0
LINE
  5
F100E2
330
261
100
AcDbEntity
  8
Geo
100
AcDbLine
 10
-75.26277533039659
 20
12.3024041072893
 30
0.0
 11
-75.1627753303966
 21
12.2349626986243
 31
0.0
  0
LINE
  5
F100E4
330
261
100
AcDbEntity
  8
Geo
100
AcDbLine
 10
-75.1627753303966
 20
12.2349626986243
 30
0.0
 11
-75.06277533039659
 21
12.1665171878799
 31
0.0
  0
LINE
  5
F100E6
330
261
100
AcDbEntity
  8
Geo
100
AcDbLine
 10
-75.06277533039659
 20
12.1665171878799
 30
0.0
 11
-74.96277533039659
 21
12.0971139942486
 31
0.0
  0
LINE
  5
F100E8
330
261
100
AcDbEntity
  8
Geo
100
AcDbLine
 10
-74.96277533039659
 20
12.0971139942486
 30
0.0
 11
-74.8627753303966
 21
12.0268001864158
 31
0.0
  0
LINE
  5
F100EA
330
261
100
AcDbEntity
  8
Geo
100
AcDbLine
 10
-74.8627753303966
 20
12.0268001864158
 30
0.0
 11
-74.7627753303966
 21
11.95562345063819
 31
0.0
  0
LINE
  5
F100EC
330
261
100
AcDbEntity
  8
Geo
100
AcDbLine
 10
-74.7627753303966
 20
11.95562345063819
 30
0.0
 11
-74.6627753303966
 21
11.88363205840309
 31
0.0
  0
LINE
  5
F100EE
330
261
100
AcDbEntity
  8
Geo
100
AcDbLine
 10
-74.6627753303966
 20
11.88363205840309
 30
0.0
 11
-74.56277533039659
 21
11.8108748336912
 31
0.0
  0
LINE
  5
F100F0
330
261
100
AcDbEntity
  8
Geo
100
AcDbLine
 10
-74.56277533039659
 20
11.8108748336912
 30
0.0
 11
-74.46277533039659
 21
11.7374011198648
 31
0.0
  0
LINE
  5
F100F2
330
261
100
AcDbEntity
  8
Geo
100
AcDbLine
 10
-74.46277533039659
 20
11.7374011198648
 30
0.0
 11
-74.3627753303966
 21
11.6632607462031
 31
0.0
  0
LINE
  5
F100F4
330
261
100
AcDbEntity
  8
Geo
100
AcDbLine
 10
-74.3627753303966
 20
11.6632607462031
 30
0.0
 11
-74.26277533039659
 21
11.5885039941089
 31
0.0
  0
LINE
  5
F100F6
330
261
100
AcDbEntity
  8
Geo
100
AcDbLine
 10
-74.26277533039659
 20
11.5885039941089
 30
0.0
 11
-74.1627753303966
 21
11.5131815630076
 31
0.0
  0
LINE
  5
F100F8
330
261
100
AcDbEntity
  8
Geo
100
AcDbLine
 10
-74.1627753303966
 20
11.5131815630076
 30
0.0
 11
-74.06277533039659
 21
11.4373445359636
 31
0.0
  0
LINE
  5
F100FA
330
261
100
AcDbEntity
  8
Geo
100
AcDbLine
 10
-74.06277533039659
 20
11.4373445359636
 30
0.0
 11
-73.96277533039659
 21
11.3610443450362
 31
0.0
  0
LINE
  5
F100FC
330
261
100
AcDbEntity
  8
Geo
100
AcDbLine
 10
-73.96277533039659
 20
11.3610443450362
 30
0.0
 11
-73.8627753303966
 21
11.2843327363986
 31
0.0
  0
LINE
  5
F100FE
330
261
100
AcDbEntity
  8
Geo
100
AcDbLine
 10
-73.8627753303966
 20
11.2843327363986
 30
0.0
 11
-73.76277533039659
 21
11.2072617352443
 31
0.0
  0
LINE
  5
F10100
330
261
100
AcDbEntity
  8
Geo
100
AcDbLine
 10
-73.76277533039659
 20
11.2072617352443
 30
0.0
 11
-73.6627753303966
 21
11.1298836105038
 31
0.0
  0
LINE
  5
F10102
330
261
100
AcDbEntity
  8
Geo
100
AcDbLine
 10
-73.6627753303966
 20
11.1298836105038
 30
0.0
 11
-73.56277533039659
 21
11.0522508393964
 31
0.0
  0
LINE
  5
F10104
330
261
100
AcDbEntity
  8
Geo
100
AcDbLine
 10
-73.56277533039659
 20
11.0522508393964
 30
0.0
 11
-73.4627753303966
 21
10.9744160718405
 31
0.0
  0
LINE
  5
F10106
330
261
100
AcDbEntity
  8
Geo
100
AcDbLine
 10
-73.4627753303966
 20
10.9744160718405
 30
0.0
 11
-73.3627753303966
 21
10.8964320947467
 31
0.0
  0
LINE
  5
F10108
330
261
100
AcDbEntity
  8
Geo
100
AcDbLine
 10
-73.3627753303966
 20
10.8964320947467
 30
0.0
 11
-73.26277533039659
 21
10.8183517962185
 31
0.0
  0
LINE
  5
F1010A
330
261
100
AcDbEntity
  8
Geo
100
AcDbLine
 10
-73.26277533039659
 20
10.8183517962185
 30
0.0
 11
-73.16277533039659
 21
10.7402281296837
 31
0.0
  0
LINE
  5
F1010C
330
261
100
AcDbEntity
  8
Geo
100
AcDbLine
 10
-73.16277533039659
 20
10.7402281296837
 30
0.0
 11
-73.06277533039659
 21
10.6621140779822
 31
0.0
  0
LINE
  5
F1010E
330
261
100
AcDbEntity
  8
Geo
100
AcDbLine
 10
-73.06277533039659
 20
10.6621140779822
 30
0.0
 11
-72.9627753303966
 21
10.5840626174327
 31
0.0
  0
LINE
  5
F10110
330
261
100
AcDbEntity
  8
Geo
100
AcDbLine
 10
-72.9627753303966
 20
10.5840626174327
 30
0.0
 11
-72.8627753303966
 21
10.5061266819055
 31
0.0
  0
LINE
  5
F10112
330
261
100
AcDbEntity
  8
Geo
100
AcDbLine
 10
-72.8627753303966
 20
10.5061266819055
 30
0.0
 11
-72.76277533039659
 21
10.4283591269227
 31
0.0
  0
LINE
  5
F10114
330
261
100
AcDbEntity
  8
Geo
100
AcDbLine
 10
-72.76277533039659
 20
10.4283591269227
 30
0.0
 11
-72.6627753303966
 21
10.3508126938119
 31
0.0
  0
LINE
  5
F10116
330
261
100
AcDbEntity
  8
Geo
100
AcDbLine
 10
-72.6627753303966
 20
10.3508126938119
 30
0.0
 11
-72.56277533039659
 21
10.2735399739378
 31
0.0
  0
LINE
  5
F10118
330
261
100
AcDbEntity
  8
Geo
100
AcDbLine
 10
-72.56277533039659
 20
10.2735399739378
 30
0.0
 11
-72.46277533039659
 21
10.1965933730349
 31
0.0
  0
LINE
  5
F1011A
330
261
100
AcDbEntity
  8
Geo
100
AcDbLine
 10
-72.46277533039659
 20
10.1965933730349
 30
0.0
 11
-72.3627753303966
 21
10.1200250756666
 31
0.0
  0
LINE
  5
F1011C
330
261
100
AcDbEntity
  8
Geo
100
AcDbLine
 10
-72.3627753303966
 20
10.1200250756666
 30
0.0
 11
-72.2627753303966
 21
10.0438870098335
 31
0.0
  0
LINE
  5
F1011E
330
261
100
AcDbEntity
  8
Geo
100
AcDbLine
 10
-72.2627753303966
 20
10.0438870098335
 30
0.0
 11
-72.1627753303966
 21
9.968230811757241
 31
0.0
  0
LINE
  5
F10120
330
261
100
AcDbEntity
  8
Geo
100
AcDbLine
 10
-72.1627753303966
 20
9.968230811757241
 30
0.0
 11
-72.06277533039659
 21
9.89310779086014
 31
0.0
  0
LINE
  5
F10122
330
261
100
AcDbEntity
  8
Geo
100
AcDbLine
 10
-72.06277533039659
 20
9.89310779086014
 30
0.0
 11
-71.96277533039659
 21
9.818568894968301
 31
0.0
  0
LINE
  5
F10124
330
261
100
AcDbEntity
  8
Geo
100
AcDbLine
 10
-71.96277533039659
 20
9.818568894968301
 30
0.0
 11
-71.8627753303966
 21
9.74466467575891
 31
0.0
  0
LINE
  5
F10126
330
261
100
AcDbEntity
  8
Geo
100
AcDbLine
 10
-71.8627753303966
 20
9.74466467575891
 30
0.0
 11
-71.76277533039659
 21
9.67144525447655
 31
0.0
  0
LINE
  5
F10128
330
261
100
AcDbEntity
  8
Geo
100
AcDbLine
 10
-71.76277533039659
 20
9.67144525447655
 30
0.0
 11
-71.6627753303966
 21
9.598960287941389
 31
0.0
  0
LINE
  5
F1012A
330
261
100
AcDbEntity
  8
Geo
100
AcDbLine
 10
-71.6627753303966
 20
9.598960287941389
 30
0.0
 11
-71.56277533039659
 21
9.527258934872321
 31
0.0
  0
LINE
  5
F1012C
330
261
100
AcDbEntity
  8
Geo
100
AcDbLine
 10
-71.56277533039659
 20
9.527258934872321
 30
0.0
 11
-71.46277533039659
 21
9.45638982254789
 31
0.0
  0
LINE
  5
F1012E
330
261
100
AcDbEntity
  8
Geo
100
AcDbLine
 10
-71.46277533039659
 20
9.45638982254789
 30
0.0
 11
-71.3627753303966
 21
9.386401013827731
 31
0.0
  0
LINE
  5
F10130
330
261
100
AcDbEntity
  8
Geo
100
AcDbLine
 10
-71.3627753303966
 20
9.386401013827731
 30
0.0
 11
-71.26277533039659
 21
9.317339974556649
 31
0.0
  0
LINE
  5
F10132
330
261
100
AcDbEntity
  8
Geo
100
AcDbLine
 10
-71.26277533039659
 20
9.317339974556649
 30
0.0
 11
-71.1627753303966
 21
9.249253541373709
 31
0.0
  0
LINE
  5
F10134
330
261
100
AcDbEntity
  8
Geo
100
AcDbLine
 10
-71.1627753303966
 20
9.249253541373709
 30
0.0
 11
-71.06277533039659
 21
9.18218788994802
 31
0.0
  0
LINE
  5
F10136
330
261
100
AcDbEntity
  8
Geo
100
AcDbLine
 10
-71.06277533039659
 20
9.18218788994802
 30
0.0
 11
-70.9627753303966
 21
9.11618850366271
 31
0.0
  0
LINE
  5
F10138
330
261
100
AcDbEntity
  8
Geo
100
AcDbLine
 10
-70.9627753303966
 20
9.11618850366271
 30
0.0
 11
-70.8627753303966
 21
9.051300142768528
 31
0.0
  0
LINE
  5
F1013A
330
261
100
AcDbEntity
  8
Geo
100
AcDbLine
 10
-70.8627753303966
 20
9.051300142768528
 30
0.0
 11
-70.76277533039659
 21
8.987566814027768
 31
0.0
  0
LINE
  5
F1013C
330
261
100
AcDbEntity
  8
Geo
100
AcDbLine
 10
-70.76277533039659
 20
8.987566814027768
 30
0.0
 11
-70.66277533039659
 21
8.925031740869259
 31
0.0
  0
LINE
  5
F1013E
330
261
100
AcDbEntity
  8
Geo
100
AcDbLine
 10
-70.66277533039659
 20
8.925031740869259
 30
0.0
 11
-70.56277533039659
 21
8.863737334074539
 31
0.0
  0
LINE
  5
F10140
330
261
100
AcDbEntity
  8
Geo
100
AcDbLine
 10
-70.56277533039659
 20
8.863737334074539
 30
0.0
 11
-70.4627753303966
 21
8.803725163015268
 31
0.0
  0
LINE
  5
F10142
330
261
100
AcDbEntity
  8
Geo
100
AcDbLine
 10
-70.4627753303966
 20
8.803725163015268
 30
0.0
 11
-70.3627753303966
 21
8.745035927461179
 31
0.0
  0
LINE
  5
F10144
330
261
100
AcDbEntity
  8
Geo
100
AcDbLine
 10
-70.3627753303966
 20
8.745035927461179
 30
0.0
 11
-70.2627753303966
 21
8.68770942997782
 31
0.0
  0
LINE
  5
F10146
330
261
100
AcDbEntity
  8
Geo
100
AcDbLine
 10
-70.2627753303966
 20
8.68770942997782
 30
0.0
 11
-70.1627753303966
 21
8.631784548932801
 31
0.0
  0
LINE
  5
F10148
330
261
100
AcDbEntity
  8
Geo
100
AcDbLine
 10
-70.1627753303966
 20
8.631784548932801
 30
0.0
 11
-70.06277533039661
 21
8.577299212128769
 31
0.0
  0
LINE
  5
F1014A
330
261
100
AcDbEntity
  8
Geo
100
AcDbLine
 10
-70.06277533039661
 20
8.577299212128769
 30
0.0
 11
-69.96277533039661
 21
8.524290371081109
 31
0.0
  0
LINE
  5
F1014C
330
261
100
AcDbEntity
  8
Geo
100
AcDbLine
 10
-69.96277533039661
 20
8.524290371081109
 30
0.0
 11
-69.8627753303966
 21
8.47279397595768
 31
0.0
  0
LINE
  5
F1014E
330
261
100
AcDbEntity
  8
Geo
100
AcDbLine
 10
-69.8627753303966
 20
8.47279397595768
 30
0.0
 11
-69.7627753303966
 21
8.422844951197768
 31
0.0
  0
LINE
  5
F10150
330
261
100
AcDbEntity
  8
Geo
100
AcDbLine
 10
-69.7627753303966
 20
8.422844951197768
 30
0.0
 11
-69.6627753303966
 21
8.37447717182655
 31
0.0
  0
LINE
  5
F10152
330
261
100
AcDbEntity
  8
Geo
100
AcDbLine
 10
-69.6627753303966
 20
8.37447717182655
 30
0.0
 11
-69.5627753303966
 21
8.32772344048136
 31
0.0
  0
LINE
  5
F10154
330
261
100
AcDbEntity
  8
Geo
100
AcDbLine
 10
-69.5627753303966
 20
8.32772344048136
 30
0.0
 11
-69.46277533039661
 21
8.2826154651652
 31
0.0
  0
LINE
  5
F10156
330
261
100
AcDbEntity
  8
Geo
100
AcDbLine
 10
-69.46277533039661
 20
8.2826154651652
 30
0.0
 11
-69.3627753303966
 21
8.23918383774261
 31
0.0
  0
LINE
  5
F10158
330
261
100
AcDbEntity
  8
Geo
100
AcDbLine
 10
-69.3627753303966
 20
8.23918383774261
 30
0.0
 11
-69.26277533039661
 21
8.197458013192528
 31
0.0
  0
LINE
  5
F1015A
330
261
100
AcDbEntity
  8
Geo
100
AcDbLine
 10
-69.26277533039661
 20
8.197458013192528
 30
0.0
 11
-69.1627753303966
 21
8.1574662896322
 31
0.0
  0
LINE
  5
F1015C
330
261
100
AcDbEntity
  8
Geo
100
AcDbLine
 10
-69.1627753303966
 20
8.1574662896322
 30
0.0
 11
-69.0627753303966
 21
8.11923578912553
 31
0.0
  0
LINE
  5
F1015E
330
261
100
AcDbEntity
  8
Geo
100
AcDbLine
 10
-69.0627753303966
 20
8.11923578912553
 30
0.0
 11
-68.96277533039661
 21
8.0827924392892
 31
0.0
  0
LINE
  5
F10160
330
261
100
AcDbEntity
  8
Geo
100
AcDbLine
 10
-68.96277533039661
 20
8.0827924392892
 30
0.0
 11
-68.8627753303966
 21
8.04816095570875
 31
0.0
  0
LINE
  5
F10162
330
261
100
AcDbEntity
  8
Geo
100
AcDbLine
 10
-68.8627753303966
 20
8.04816095570875
 30
0.0
 11
-68.76277533039661
 21
8.015364825176639
 31
0.0
  0
LINE
  5
F10164
330
261
100
AcDbEntity
  8
Geo
100
AcDbLine
 10
-68.76277533039661
 20
8.015364825176639
 30
0.0
 11
-68.6627753303966
 21
7.984426289763719
 31
0.0
  0
LINE
  5
F10166
330
261
100
AcDbEntity
  8
Geo
100
AcDbLine
 10
-68.6627753303966
 20
7.984426289763719
 30
0.0
 11
-68.5627753303966
 21
7.95536633173483
 31
0.0
  0
LINE
  5
F10168
330
261
100
AcDbEntity
  8
Geo
100
AcDbLine
 10
-68.5627753303966
 20
7.95536633173483
 30
0.0
 11
-68.46277533039661
 21
7.92820465931882
 31
0.0
  0
LINE
  5
F1016A
330
261
100
AcDbEntity
  8
Geo
100
AcDbLine
 10
-68.46277533039661
 20
7.92820465931882
 30
0.0
 11
-68.3627753303966
 21
7.902959693342549
 31
0.0
  0
LINE
  5
F1016C
330
261
100
AcDbEntity
  8
Geo
100
AcDbLine
 10
-68.3627753303966
 20
7.902959693342549
 30
0.0
 11
-68.26277533039661
 21
7.879648554738049
 31
0.0
  0
LINE
  5
F1016E
330
261
100
AcDbEntity
  8
Geo
100
AcDbLine
 10
-68.26277533039661
 20
7.879648554738049
 30
0.0
 11
-68.16277533039659
 21
7.85828705293125
 31
0.0
  0
LINE
  5
F10170
330
261
100
AcDbEntity
  8
Geo
100
AcDbLine
 10
-68.16277533039659
 20
7.85828705293125
 30
0.0
 11
-68.0627753303966
 21
7.83888967512016
 31
0.0
  0
LINE
  5
F10172
330
261
100
AcDbEntity
  8
Geo
100
AcDbLine
 10
-68.0627753303966
 20
7.83888967512016
 30
0.0
 11
-68.0627753303966
 21
7.83888967512016
 31
0.0
  0
LINE
  5
F10174
330
261
100
AcDbEntity
  8
Geo
100
AcDbLine
 10
-68.0627753303966
 20
7.83888967512016
 30
0.0
 11
-68.0627753303966
 21
8.08184930938877
 31
0.0
  0
LINE
  5
F10176
330
261
100
AcDbEntity
  8
Geo
100
AcDbLine
 10
-68.0627753303966
 20
8.08184930938877
 30
0.0
 11
-68.0627753303966
 21
7.83888967512016
 31
0.0
  0
LINE
  5
F10178
330
261
100
AcDbEntity
  8
Geo
100
AcDbLine
 10
-68.0627753303966
 20
7.83888967512016
 30
0.0
 11
-68.0627753303966
 21
7.83888967512016
 31
0.0
  0
LINE
  5
F1017A
330
261
100
AcDbEntity
  8
Geo
100
AcDbLine
 10
-68.0627753303966
 20
7.83888967512016
 30
0.0
 11
-67.96277533039661
 21
8.06362521802416
 31
0.0
  0
LINE
  5
F1017C
330
261
100
AcDbEntity
  8
Geo
100
AcDbLine
 10
-67.96277533039661
 20
8.06362521802416
 30
0.0
 11
-67.8627753303966
 21
8.047550025351348
 31
0.0
  0
LINE
  5
F1017E
330
261
100
AcDbEntity
  8
Geo
100
AcDbLine
 10
-67.8627753303966
 20
8.047550025351348
 30
0.0
 11
-67.7627753303966
 21
8.03377573612285
 31
0.0
  0
LINE
  5
F10180
330
261
100
AcDbEntity
  8
Geo
100
AcDbLine
 10
-67.7627753303966
 20
8.03377573612285
 30
0.0
 11
-67.6627753303966
 21
8.02245593703177
 31
0.0
  0
LINE
  5
F10182
330
261
100
AcDbEntity
  8
Geo
100
AcDbLine
 10
-67.6627753303966
 20
8.02245593703177
 30
0.0
 11
-67.56277533039661
 21
8.013745395090099
 31
0.0
  0
LINE
  5
F10184
330
261
100
AcDbEntity
  8
Geo
100
AcDbLine
 10
-67.56277533039661
 20
8.013745395090099
 30
0.0
 11
-67.46277533039661
 21
8.00779961941337
 31
0.0
  0
LINE
  5
F10186
330
261
100
AcDbEntity
  8
Geo
100
AcDbLine
 10
-67.46277533039661
 20
8.00779961941337
 30
0.0
 11
-67.3627753303966
 21
8.004774385526049
 31
0.0
  0
LINE
  5
F10188
330
261
100
AcDbEntity
  8
Geo
100
AcDbLine
 10
-81.06277533039659
 20
12.8262281552201
 30
0.0
 11
-81.06277533039659
 21
12.8262281552201
 31
0.0
  0
LINE
  5
F1018A
330
261
100
AcDbEntity
  8
Geo
100
AcDbLine
 10
-81.06277533039659
 20
12.8262281552201
 30
0.0
 11
-81.06277533039659
 21
12.8757256299032
 31
0.0
  0
LINE
  5
F1018C
330
261
100
AcDbEntity
  8
Geo
100
AcDbLine
 10
-81.06277533039659
 20
12.8757256299032
 30
0.0
 11
-80.96277533039659
 21
12.8197673069064
 31
0.0
  0
LINE
  5
F1018E
330
261
100
AcDbEntity
  8
Geo
100
AcDbLine
 10
-80.96277533039659
 20
12.8197673069064
 30
0.0
 11
-80.86277533039661
 21
12.7624082720679
 31
0.0
  0
LINE
  5
F10190
330
261
100
AcDbEntity
  8
Geo
100
AcDbLine
 10
-80.86277533039661
 20
12.7624082720679
 30
0.0
 11
-80.76277533039659
 21
12.7036874258219
 31
0.0
  0
LINE
  5
F10192
330
261
100
AcDbEntity
  8
Geo
100
AcDbLine
 10
-80.76277533039659
 20
12.7036874258219
 30
0.0
 11
-80.66277533039659
 21
12.6436445921721
 31
0.0
  0
LINE
  5
F10194
330
261
100
AcDbEntity
  8
Geo
100
AcDbLine
 10
-80.66277533039659
 20
12.6436445921721
 30
0.0
 11
-80.5627753303966
 21
12.5823204916834
 31
0.0
  0
LINE
  5
F10196
330
261
100
AcDbEntity
  8
Geo
100
AcDbLine
 10
-80.5627753303966
 20
12.5823204916834
 30
0.0
 11
-80.4627753303966
 21
12.5197567138653
 31
0.0
  0
LINE
  5
F10198
330
261
100
AcDbEntity
  8
Geo
100
AcDbLine
 10
-80.4627753303966
 20
12.5197567138653
 30
0.0
 11
-80.3627753303966
 21
12.4559956889668
 31
0.0
  0
LINE
  5
F1019A
330
261
100
AcDbEntity
  8
Geo
100
AcDbLine
 10
-80.3627753303966
 20
12.4559956889668
 30
0.0
 11
-80.26277533039658
 21
12.3910806592
 31
0.0
  0
LINE
  5
F1019C
330
261
100
AcDbEntity
  8
Geo
100
AcDbLine
 10
-80.26277533039658
 20
12.3910806592
 30
0.0
 11
-80.1627753303966
 21
12.3250556494137
 31
0.0
  0
LINE
  5
F1019E
330
261
100
AcDbEntity
  8
Geo
100
AcDbLine
 10
-80.1627753303966
 20
12.3250556494137
 30
0.0
 11
-80.06277533039659
 21
12.2579654372363
 31
0.0
  0
LINE
  5
F101A0
330
261
100
AcDbEntity
  8
Geo
100
AcDbLine
 10
-80.06277533039659
 20
12.2579654372363
 30
0.0
 11
-79.96277533039659
 21
12.189855522708
 31
0.0
  0
LINE
  5
F101A2
330
261
100
AcDbEntity
  8
Geo
100
AcDbLine
 10
-79.96277533039659
 20
12.189855522708
 30
0.0
 11
-79.8627753303966
 21
12.1207720974226
 31
0.0
  0
LINE
  5
F101A4
330
261
100
AcDbEntity
  8
Geo
100
AcDbLine
 10
-79.8627753303966
 20
12.1207720974226
 30
0.0
 11
-79.7627753303966
 21
12.0507620132013
 31
0.0
  0
LINE
  5
F101A6
330
261
100
AcDbEntity
  8
Geo
100
AcDbLine
 10
-79.7627753303966
 20
12.0507620132013
 30
0.0
 11
-79.6627753303966
 21
11.9798727503177
 31
0.0
  0
LINE
  5
F101A8
330
261
100
AcDbEntity
  8
Geo
100
AcDbLine
 10
-79.6627753303966
 20
11.9798727503177
 30
0.0
 11
-79.56277533039659
 21
11.9081523852974
 31
0.0
  0
LINE
  5
F101AA
330
261
100
AcDbEntity
  8
Geo
100
AcDbLine
 10
-79.56277533039659
 20
11.9081523852974
 30
0.0
 11
-79.46277533039659
 21
11.8356495583127
 31
0.0
  0
LINE
  5
F101AC
330
261
100
AcDbEntity
  8
Geo
100
AcDbLine
 10
-79.46277533039659
 20
11.8356495583127
 30
0.0
 11
-79.3627753303966
 21
11.7624134401953
 31
0.0
  0
LINE
  5
F101AE
330
261
100
AcDbEntity
  8
Geo
100
AcDbLine
 10
-79.3627753303966
 20
11.7624134401953
 30
0.0
 11
-79.26277533039659
 21
11.688493699089
 31
0.0
  0
LINE
  5
F101B0
330
261
100
AcDbEntity
  8
Geo
100
AcDbLine
 10
-79.26277533039659
 20
11.688493699089
 30
0.0
 11
-79.1627753303966
 21
11.6139404667653
 31
0.0
  0
LINE
  5
F101B2
330
261
100
AcDbEntity
  8
Geo
100
AcDbLine
 10
-79.1627753303966
 20
11.6139404667653
 30
0.0
 11
-79.06277533039659
 21
11.5388043046242
 31
0.0
  0
LINE
  5
F101B4
330
261
100
AcDbEntity
  8
Geo
100
AcDbLine
 10
-79.06277533039659
 20
11.5388043046242
 30
0.0
 11
-78.96277533039659
 21
11.4631361694039
 31
0.0
  0
LINE
  5
F101B6
330
261
100
AcDbEntity
  8
Geo
100
AcDbLine
 10
-78.96277533039659
 20
11.4631361694039
 30
0.0
 11
-78.8627753303966
 21
11.3869873786228
 31
0.0
  0
LINE
  5
F101B8
330
261
100
AcDbEntity
  8
Geo
100
AcDbLine
 10
-78.8627753303966
 20
11.3869873786228
 30
0.0
 11
-78.76277533039659
 21
11.3104095757757
 31
0.0
  0
LINE
  5
F101BA
330
261
100
AcDbEntity
  8
Geo
100
AcDbLine
 10
-78.76277533039659
 20
11.3104095757757
 30
0.0
 11
-78.6627753303966
 21
11.23345469531
 31
0.0
  0
LINE
  5
F101BC
330
261
100
AcDbEntity
  8
Geo
100
AcDbLine
 10
-78.6627753303966
 20
11.23345469531
 30
0.0
 11
-78.56277533039659
 21
11.1561749274041
 31
0.0
  0
LINE
  5
F101BE
330
261
100
AcDbEntity
  8
Geo
100
AcDbLine
 10
-78.56277533039659
 20
11.1561749274041
 30
0.0
 11
-78.4627753303966
 21
11.0786226825725
 31
0.0
  0
LINE
  5
F101C0
330
261
100
AcDbEntity
  8
Geo
100
AcDbLine
 10
-78.4627753303966
 20
11.0786226825725
 30
0.0
 11
-78.3627753303966
 21
11.0008505561213
 31
0.0
  0
LINE
  5
F101C2
330
261
100
AcDbEntity
  8
Geo
100
AcDbLine
 10
-78.3627753303966
 20
11.0008505561213
 30
0.0
 11
-78.26277533039659
 21
10.9229112924785
 31
0.0
  0
LINE
  5
F101C4
330
261
100
AcDbEntity
  8
Geo
100
AcDbLine
 10
-78.26277533039659
 20
10.9229112924785
 30
0.0
 11
-78.16277533039659
 21
10.8448577494233
 31
0.0
  0
LINE
  5
F101C6
330
261
100
AcDbEntity
  8
Geo
100
AcDbLine
 10
-78.16277533039659
 20
10.8448577494233
 30
0.0
 11
-78.06277533039659
 21
10.7667428622381
 31
0.0
  0
LINE
  5
F101C8
330
261
100
AcDbEntity
  8
Geo
100
AcDbLine
 10
-78.06277533039659
 20
10.7667428622381
 30
0.0
 11
-77.9627753303966
 21
10.6886196078087
 31
0.0
  0
LINE
  5
F101CA
330
261
100
AcDbEntity
  8
Geo
100
AcDbLine
 10
-77.9627753303966
 20
10.6886196078087
 30
0.0
 11
-77.8627753303966
 21
10.6105409686951
 31
0.0
  0
LINE
  5
F101CC
330
261
100
AcDbEntity
  8
Geo
100
AcDbLine
 10
-77.8627753303966
 20
10.6105409686951
 30
0.0
 11
-77.76277533039659
 21
10.5325598971998
 31
0.0
  0
LINE
  5
F101CE
330
261
100
AcDbEntity
  8
Geo
100
AcDbLine
 10
-77.76277533039659
 20
10.5325598971998
 30
0.0
 11
-77.6627753303966
 21
10.4547292794557
 31
0.0
  0
LINE
  5
F101D0
330
261
100
AcDbEntity
  8
Geo
100
AcDbLine
 10
-77.6627753303966
 20
10.4547292794557
 30
0.0
 11
-77.56277533039659
 21
10.3771018995592
 31
0.0
  0
LINE
  5
F101D2
330
261
100
AcDbEntity
  8
Geo
100
AcDbLine
 10
-77.56277533039659
 20
10.3771018995592
 30
0.0
 11
-77.46277533039659
 21
10.2997304037723
 31
0.0
  0
LINE
  5
F101D4
330
261
100
AcDbEntity
  8
Geo
100
AcDbLine
 10
-77.46277533039659
 20
10.2997304037723
 30
0.0
 11
-77.3627753303966
 21
10.2226672648187
 31
0.0
  0
LINE
  5
F101D6
330
261
100
AcDbEntity
  8
Geo
100
AcDbLine
 10
-77.3627753303966
 20
10.2226672648187
 30
0.0
 11
-77.2627753303966
 21
10.1459647462968
 31
0.0
  0
LINE
  5
F101D8
330
261
100
AcDbEntity
  8
Geo
100
AcDbLine
 10
-77.2627753303966
 20
10.1459647462968
 30
0.0
 11
-77.1627753303966
 21
10.0696748672351
 31
0.0
  0
LINE
  5
F101DA
330
261
100
AcDbEntity
  8
Geo
100
AcDbLine
 10
-77.1627753303966
 20
10.0696748672351
 30
0.0
 11
-77.06277533039659
 21
9.99384936681349
 31
0.0
  0
LINE
  5
F101DC
330
261
100
AcDbEntity
  8
Geo
100
AcDbLine
 10
-77.06277533039659
 20
9.99384936681349
 30
0.0
 11
-76.96277533039659
 21
9.918539669273959
 31
0.0
  0
LINE
  5
F101DE
330
261
100
AcDbEntity
  8
Geo
100
AcDbLine
 10
-76.96277533039659
 20
9.918539669273959
 30
0.0
 11
-76.8627753303966
 21
9.843796849045141
 31
0.0
  0
LINE
  5
F101E0
330
261
100
AcDbEntity
  8
Geo
100
AcDbLine
 10
-76.8627753303966
 20
9.843796849045141
 30
0.0
 11
-76.76277533039659
 21
9.769671596104069
 31
0.0
  0
LINE
  5
F101E2
330
261
100
AcDbEntity
  8
Geo
100
AcDbLine
 10
-76.76277533039659
 20
9.769671596104069
 30
0.0
 11
-76.6627753303966
 21
9.69621418159862
 31
0.0
  0
LINE
  5
F101E4
330
261
100
AcDbEntity
  8
Geo
100
AcDbLine
 10
-76.6627753303966
 20
9.69621418159862
 30
0.0
 11
-76.56277533039659
 21
9.623474423754037
 31
0.0
  0
LINE
  5
F101E6
330
261
100
AcDbEntity
  8
Geo
100
AcDbLine
 10
-76.56277533039659
 20
9.623474423754037
 30
0.0
 11
-76.46277533039659
 21
9.55150165408663
 31
0.0
  0
LINE
  5
F101E8
330
261
100
AcDbEntity
  8
Geo
100
AcDbLine
 10
-76.46277533039659
 20
9.55150165408663
 30
0.0
 11
-76.3627753303966
 21
9.480344683947491
 31
0.0
  0
LINE
  5
F101EA
330
261
100
AcDbEntity
  8
Geo
100
AcDbLine
 10
-76.3627753303966
 20
9.480344683947491
 30
0.0
 11
-76.26277533039659
 21
9.41005177141908
 31
0.0
  0
LINE
  5
F101EC
330
261
100
AcDbEntity
  8
Geo
100
AcDbLine
 10
-76.26277533039659
 20
9.41005177141908
 30
0.0
 11
-76.1627753303966
 21
9.340670588586961
 31
0.0
  0
LINE
  5
F101EE
330
261
100
AcDbEntity
  8
Geo
100
AcDbLine
 10
-76.1627753303966
 20
9.340670588586961
 30
0.0
 11
-76.06277533039659
 21
9.27224818920898
 31
0.0
  0
LINE
  5
F101F0
330
261
100
AcDbEntity
  8
Geo
100
AcDbLine
 10
-76.06277533039659
 20
9.27224818920898
 30
0.0
 11
-75.9627753303966
 21
9.204830976803789
 31
0.0
  0
LINE
  5
F101F2
330
261
100
AcDbEntity
  8
Geo
100
AcDbLine
 10
-75.9627753303966
 20
9.204830976803789
 30
0.0
 11
-75.8627753303966
 21
9.138464673180349
 31
0.0
  0
LINE
  5
F101F4
330
261
100
AcDbEntity
  8
Geo
100
AcDbLine
 10
-75.8627753303966
 20
9.138464673180349
 30
0.0
 11
-75.76277533039659
 21
9.073194287429789
 31
0.0
  0
LINE
  5
F101F6
330
261
100
AcDbEntity
  8
Geo
100
AcDbLine
 10
-75.76277533039659
 20
9.073194287429789
 30
0.0
 11
-75.66277533039659
 21
9.00906408540057
 31
0.0
  0
LINE
  5
F101F8
330
261
100
AcDbEntity
  8
Geo
100
AcDbLine
 10
-75.66277533039659
 20
9.00906408540057
 30
0.0
 11
-75.56277533039659
 21
8.946117559677768
 31
0.0
  0
LINE
  5
F101FA
330
261
100
AcDbEntity
  8
Geo
100
AcDbLine
 10
-75.56277533039659
 20
8.946117559677768
 30
0.0
 11
-75.4627753303966
 21
8.884397400086749
 31
0.0
  0
LINE
  5
F101FC
330
261
100
AcDbEntity
  8
Geo
100
AcDbLine
 10
-75.4627753303966
 20
8.884397400086749
 30
0.0
 11
-75.3627753303966
 21
8.823945464741258
 31
0.0
  0
LINE
  5
F101FE
330
261
100
AcDbEntity
  8
Geo
100
AcDbLine
 10
-75.3627753303966
 20
8.823945464741258
 30
0.0
 11
-75.26277533039659
 21
8.764802751655629
 31
0.0
  0
LINE
  5
F10200
330
261
100
AcDbEntity
  8
Geo
100
AcDbLine
 10
-75.26277533039659
 20
8.764802751655629
 30
0.0
 11
-75.1627753303966
 21
8.707009370940209
 31
0.0
  0
LINE
  5
F10202
330
261
100
AcDbEntity
  8
Geo
100
AcDbLine
 10
-75.1627753303966
 20
8.707009370940209
 30
0.0
 11
-75.06277533039659
 21
8.65060451759904
 31
0.0
  0
LINE
  5
F10204
330
261
100
AcDbEntity
  8
Geo
100
AcDbLine
 10
-75.06277533039659
 20
8.65060451759904
 30
0.0
 11
-74.96277533039659
 21
8.595626444948099
 31
0.0
  0
LINE
  5
F10206
330
261
100
AcDbEntity
  8
Geo
100
AcDbLine
 10
-74.96277533039659
 20
8.595626444948099
 30
0.0
 11
-74.8627753303966
 21
8.54211243867225
 31
0.0
  0
LINE
  5
F10208
330
261
100
AcDbEntity
  8
Geo
100
AcDbLine
 10
-74.8627753303966
 20
8.54211243867225
 30
0.0
 11
-74.7627753303966
 21
8.49009879153834
 31
0.0
  0
LINE
  5
F1020A
330
261
100
AcDbEntity
  8
Geo
100
AcDbLine
 10
-74.7627753303966
 20
8.49009879153834
 30
0.0
 11
-74.6627753303966
 21
8.43962077878178
 31
0.0
  0
LINE
  5
F1020C
330
261
100
AcDbEntity
  8
Geo
100
AcDbLine
 10
-74.6627753303966
 20
8.43962077878178
 30
0.0
 11
-74.56277533039659
 21
8.390712634183129
 31
0.0
  0
LINE
  5
F1020E
330
261
100
AcDbEntity
  8
Geo
100
AcDbLine
 10
-74.56277533039659
 20
8.390712634183129
 30
0.0
 11
-74.46277533039659
 21
8.343407526851059
 31
0.0
  0
LINE
  5
F10210
330
261
100
AcDbEntity
  8
Geo
100
AcDbLine
 10
-74.46277533039659
 20
8.343407526851059
 30
0.0
 11
-74.3627753303966
 21
8.29773753872732
 31
0.0
  0
LINE
  5
F10212
330
261
100
AcDbEntity
  8
Geo
100
AcDbLine
 10
-74.3627753303966
 20
8.29773753872732
 30
0.0
 11
-74.26277533039659
 21
8.253733642828979
 31
0.0
  0
LINE
  5
F10214
330
261
100
AcDbEntity
  8
Geo
100
AcDbLine
 10
-74.26277533039659
 20
8.253733642828979
 30
0.0
 11
-74.1627753303966
 21
8.21142568224287
 31
0.0
  0
LINE
  5
F10216
330
261
100
AcDbEntity
  8
Geo
100
AcDbLine
 10
-74.1627753303966
 20
8.21142568224287
 30
0.0
 11
-74.06277533039659
 21
8.17084234988615
 31
0.0
  0
LINE
  5
F10218
330
261
100
AcDbEntity
  8
Geo
100
AcDbLine
 10
-74.06277533039659
 20
8.17084234988615
 30
0.0
 11
-73.96277533039659
 21
8.132011169047069
 31
0.0
  0
LINE
  5
F1021A
330
261
100
AcDbEntity
  8
Geo
100
AcDbLine
 10
-73.96277533039659
 20
8.132011169047069
 30
0.0
 11
-73.8627753303966
 21
8.09495847471884
 31
0.0
  0
LINE
  5
F1021C
330
261
100
AcDbEntity
  8
Geo
100
AcDbLine
 10
-73.8627753303966
 20
8.09495847471884
 30
0.0
 11
-73.76277533039659
 21
8.059709395739519
 31
0.0
  0
LINE
  5
F1021E
330
261
100
AcDbEntity
  8
Geo
100
AcDbLine
 10
-73.76277533039659
 20
8.059709395739519
 30
0.0
 11
-73.6627753303966
 21
8.02628783774978
 31
0.0
  0
LINE
  5
F10220
330
261
100
AcDbEntity
  8
Geo
100
AcDbLine
 10
-73.6627753303966
 20
8.02628783774978
 30
0.0
 11
-73.56277533039659
 21
7.99471646698032
 31
0.0
  0
LINE
  5
F10222
330
261
100
AcDbEntity
  8
Geo
100
AcDbLine
 10
-73.56277533039659
 20
7.99471646698032
 30
0.0
 11
-73.4627753303966
 21
7.96501669487982
 31
0.0
  0
LINE
  5
F10224
330
261
100
AcDbEntity
  8
Geo
100
AcDbLine
 10
-73.4627753303966
 20
7.96501669487982
 30
0.0
 11
-73.3627753303966
 21
7.937208663593839
 31
0.0
  0
LINE
  5
F10226
330
261
100
AcDbEntity
  8
Geo
100
AcDbLine
 10
-73.3627753303966
 20
7.937208663593839
 30
0.0
 11
-73.26277533039659
 21
7.911311232304619
 31
0.0
  0
LINE
  5
F10228
330
261
100
AcDbEntity
  8
Geo
100
AcDbLine
 10
-73.26277533039659
 20
7.911311232304619
 30
0.0
 11
-73.16277533039659
 21
7.887341964440909
 31
0.0
  0
LINE
  5
F1022A
330
261
100
AcDbEntity
  8
Geo
100
AcDbLine
 10
-73.16277533039659
 20
7.887341964440909
 30
0.0
 11
-73.06277533039659
 21
7.86531711576657
 31
0.0
  0
LINE
  5
F1022C
330
261
100
AcDbEntity
  8
Geo
100
AcDbLine
 10
-73.06277533039659
 20
7.86531711576657
 30
0.0
 11
-72.9627753303966
 21
7.845251623356099
 31
0.0
  0
LINE
  5
F1022E
330
261
100
AcDbEntity
  8
Geo
100
AcDbLine
 10
-72.9627753303966
 20
7.845251623356099
 30
0.0
 11
-72.8627753303966
 21
7.827159095464399
 31
0.0
  0
LINE
  5
F10230
330
261
100
AcDbEntity
  8
Geo
100
AcDbLine
 10
-72.8627753303966
 20
7.827159095464399
 30
0.0
 11
-72.76277533039659
 21
7.81105180229776
 31
0.0
  0
LINE
  5
F10232
330
261
100
AcDbEntity
  8
Geo
100
AcDbLine
 10
-72.76277533039659
 20
7.81105180229776
 30
0.0
 11
-72.6627753303966
 21
7.796940667692309
 31
0.0
  0
LINE
  5
F10234
330
261
100
AcDbEntity
  8
Geo
100
AcDbLine
 10
-72.6627753303966
 20
7.796940667692309
 30
0.0
 11
-72.56277533039659
 21
7.78483526170558
 31
0.0
  0
LINE
  5
F10236
330
261
100
AcDbEntity
  8
Geo
100
AcDbLine
 10
-72.56277533039659
 20
7.78483526170558
 30
0.0
 11
-72.46277533039659
 21
7.77474379412615
 31
0.0
  0
LINE
  5
F10238
330
261
100
AcDbEntity
  8
Geo
100
AcDbLine
 10
-72.46277533039659
 20
7.77474379412615
 30
0.0
 11
-72.3627753303966
 21
7.76667310890581
 31
0.0
  0
LINE
  5
F1023A
330
261
100
AcDbEntity
  8
Geo
100
AcDbLine
 10
-72.3627753303966
 20
7.76667310890581
 30
0.0
 11
-72.2627753303966
 21
7.76062867951811
 31
0.0
  0
LINE
  5
F1023C
330
261
100
AcDbEntity
  8
Geo
100
AcDbLine
 10
-72.2627753303966
 20
7.76062867951811
 30
0.0
 11
-72.1627753303966
 21
7.756614605246229
 31
0.0
  0
LINE
  5
F1023E
330
261
100
AcDbEntity
  8
Geo
100
AcDbLine
 10
-72.1627753303966
 20
7.756614605246229
 30
0.0
 11
-72.06277533039659
 21
7.754633608402929
 31
0.0
  0
LINE
  5
F10240
330
261
100
AcDbEntity
  8
Geo
100
AcDbLine
 10
-81.06277533039659
 20
12.1122587516179
 30
0.0
 11
-81.06277533039659
 21
12.1122587516179
 31
0.0
  0
LINE
  5
F10242
330
261
100
AcDbEntity
  8
Geo
100
AcDbLine
 10
-81.06277533039659
 20
12.1122587516179
 30
0.0
 11
-81.06277533039659
 21
12.1446989367951
 31
0.0
  0
LINE
  5
F10244
330
261
100
AcDbEntity
  8
Geo
100
AcDbLine
 10
-81.06277533039659
 20
12.1446989367951
 30
0.0
 11
-80.96277533039659
 21
12.075003030083
 31
0.0
  0
LINE
  5
F10246
330
261
100
AcDbEntity
  8
Geo
100
AcDbLine
 10
-80.96277533039659
 20
12.075003030083
 30
0.0
 11
-80.86277533039661
 21
12.0044115046468
 31
0.0
  0
LINE
  5
F10248
330
261
100
AcDbEntity
  8
Geo
100
AcDbLine
 10
-80.86277533039661
 20
12.0044115046468
 30
0.0
 11
-80.76277533039659
 21
11.9329722350889
 31
0.0
  0
LINE
  5
F1024A
330
261
100
AcDbEntity
  8
Geo
100
AcDbLine
 10
-80.76277533039659
 20
11.9329722350889
 30
0.0
 11
-80.66277533039659
 21
11.860733670945
 31
0.0
  0
LINE
  5
F1024C
330
261
100
AcDbEntity
  8
Geo
100
AcDbLine
 10
-80.66277533039659
 20
11.860733670945
 30
0.0
 11
-80.5627753303966
 21
11.7877448038257
 31
0.0
  0
LINE
  5
F1024E
330
261
100
AcDbEntity
  8
Geo
100
AcDbLine
 10
-80.5627753303966
 20
11.7877448038257
 30
0.0
 11
-80.4627753303966
 21
11.7140551341913
 31
0.0
  0
LINE
  5
F10250
330
261
100
AcDbEntity
  8
Geo
100
AcDbLine
 10
-80.4627753303966
 20
11.7140551341913
 30
0.0
 11
-80.3627753303966
 21
11.6397146377807
 31
0.0
  0
LINE
  5
F10252
330
261
100
AcDbEntity
  8
Geo
100
AcDbLine
 10
-80.3627753303966
 20
11.6397146377807
 30
0.0
 11
-80.26277533039658
 21
11.564773731718
 31
0.0
  0
LINE
  5
F10254
330
261
100
AcDbEntity
  8
Geo
100
AcDbLine
 10
-80.26277533039658
 20
11.564773731718
 30
0.0
 11
-80.1627753303966
 21
11.4892832403205
 31
0.0
  0
LINE
  5
F10256
330
261
100
AcDbEntity
  8
Geo
100
AcDbLine
 10
-80.1627753303966
 20
11.4892832403205
 30
0.0
 11
-80.06277533039659
 21
11.4132943606298
 31
0.0
  0
LINE
  5
F10258
330
261
100
AcDbEntity
  8
Geo
100
AcDbLine
 10
-80.06277533039659
 20
11.4132943606298
 30
0.0
 11
-79.96277533039659
 21
11.3368586276903
 31
0.0
  0
LINE
  5
F1025A
330
261
100
AcDbEntity
  8
Geo
100
AcDbLine
 10
-79.96277533039659
 20
11.3368586276903
 30
0.0
 11
-79.8627753303966
 21
11.2600278795989
 31
0.0
  0
LINE
  5
F1025C
330
261
100
AcDbEntity
  8
Geo
100
AcDbLine
 10
-79.8627753303966
 20
11.2600278795989
 30
0.0
 11
-79.7627753303966
 21
11.1828542223483
 31
0.0
  0
LINE
  5
F1025E
330
261
100
AcDbEntity
  8
Geo
100
AcDbLine
 10
-79.7627753303966
 20
11.1828542223483
 30
0.0
 11
-79.6627753303966
 21
11.1053899944896
 31
0.0
  0
LINE
  5
F10260
330
261
100
AcDbEntity
  8
Geo
100
AcDbLine
 10
-79.6627753303966
 20
11.1053899944896
 30
0.0
 11
-79.56277533039659
 21
11.0276877316366
 31
0.0
  0
LINE
  5
F10262
330
261
100
AcDbEntity
  8
Geo
100
AcDbLine
 10
-79.56277533039659
 20
11.0276877316366
 30
0.0
 11
-79.46277533039659
 21
10.9498001308363
 31
0.0
  0
LINE
  5
F10264
330
261
100
AcDbEntity
  8
Geo
100
AcDbLine
 10
-79.46277533039659
 20
10.9498001308363
 30
0.0
 11
-79.3627753303966
 21
10.8717800148306
 31
0.0
  0
LINE
  5
F10266
330
261
100
AcDbEntity
  8
Geo
100
AcDbLine
 10
-79.3627753303966
 20
10.8717800148306
 30
0.0
 11
-79.26277533039659
 21
10.793680296232
 31
0.0
  0
LINE
  5
F10268
330
261
100
AcDbEntity
  8
Geo
100
AcDbLine
 10
-79.26277533039659
 20
10.793680296232
 30
0.0
 11
-79.1627753303966
 21
10.7155539416389
 31
0.0
  0
LINE
  5
F1026A
330
261
100
AcDbEntity
  8
Geo
100
AcDbLine
 10
-79.1627753303966
 20
10.7155539416389
 30
0.0
 11
-79.06277533039659
 21
10.6374539357139
 31
0.0
  0
LINE
  5
F1026C
330
261
100
AcDbEntity
  8
Geo
100
AcDbLine
 10
-79.06277533039659
 20
10.6374539357139
 30
0.0
 11
-78.96277533039659
 21
10.5594332452504
 31
0.0
  0
LINE
  5
F1026E
330
261
100
AcDbEntity
  8
Geo
100
AcDbLine
 10
-78.96277533039659
 20
10.5594332452504
 30
0.0
 11
-78.8627753303966
 21
10.4815447832506
 31
0.0
  0
LINE
  5
F10270
330
261
100
AcDbEntity
  8
Geo
100
AcDbLine
 10
-78.8627753303966
 20
10.4815447832506
 30
0.0
 11
-78.76277533039659
 21
10.4038413730401
 31
0.0
  0
LINE
  5
F10272
330
261
100
AcDbEntity
  8
Geo
100
AcDbLine
 10
-78.76277533039659
 20
10.4038413730401
 30
0.0
 11
-78.6627753303966
 21
10.3263757124444
 31
0.0
  0
LINE
  5
F10274
330
261
100
AcDbEntity
  8
Geo
100
AcDbLine
 10
-78.6627753303966
 20
10.3263757124444
 30
0.0
 11
-78.56277533039659
 21
10.2492003380488
 31
0.0
  0
LINE
  5
F10276
330
261
100
AcDbEntity
  8
Geo
100
AcDbLine
 10
-78.56277533039659
 20
10.2492003380488
 30
0.0
 11
-78.4627753303966
 21
10.1723675895689
 31
0.0
  0
LINE
  5
F10278
330
261
100
AcDbEntity
  8
Geo
100
AcDbLine
 10
-78.4627753303966
 20
10.1723675895689
 30
0.0
 11
-78.3627753303966
 21
10.0959295743542
 31
0.0
  0
LINE
  5
F1027A
330
261
100
AcDbEntity
  8
Geo
100
AcDbLine
 10
-78.3627753303966
 20
10.0959295743542
 30
0.0
 11
-78.26277533039659
 21
10.0199381320492
 31
0.0
  0
LINE
  5
F1027C
330
261
100
AcDbEntity
  8
Geo
100
AcDbLine
 10
-78.26277533039659
 20
10.0199381320492
 30
0.0
 11
-78.16277533039659
 21
9.9444447994364
 31
0.0
  0
LINE
  5
F1027E
330
261
100
AcDbEntity
  8
Geo
100
AcDbLine
 10
-78.16277533039659
 20
9.9444447994364
 30
0.0
 11
-78.06277533039659
 21
9.869500775484288
 31
0.0
  0
LINE
  5
F10280
330
261
100
AcDbEntity
  8
Geo
100
AcDbLine
 10
-78.06277533039659
 20
9.869500775484288
 30
0.0
 11
-77.9627753303966
 21
9.795156886624589
 31
0.0
  0
LINE
  5
F10282
330
261
100
AcDbEntity
  8
Geo
100
AcDbLine
 10
-77.9627753303966
 20
9.795156886624589
 30
0.0
 11
-77.8627753303966
 21
9.721463552282319
 31
0.0
  0
LINE
  5
F10284
330
261
100
AcDbEntity
  8
Geo
100
AcDbLine
 10
-77.8627753303966
 20
9.721463552282319
 30
0.0
 11
-77.76277533039659
 21
9.648470750681649
 31
0.0
  0
LINE
  5
F10286
330
261
100
AcDbEntity
  8
Geo
100
AcDbLine
 10
-77.76277533039659
 20
9.648470750681649
 30
0.0
 11
-77.6627753303966
 21
9.576227984951088
 31
0.0
  0
LINE
  5
F10288
330
261
100
AcDbEntity
  8
Geo
100
AcDbLine
 10
-77.6627753303966
 20
9.576227984951088
 30
0.0
 11
-77.56277533039659
 21
9.504784249550919
 31
0.0
  0
LINE
  5
F1028A
330
261
100
AcDbEntity
  8
Geo
100
AcDbLine
 10
-77.56277533039659
 20
9.504784249550919
 30
0.0
 11
-77.46277533039659
 21
9.434187997045469
 31
0.0
  0
LINE
  5
F1028C
330
261
100
AcDbEntity
  8
Geo
100
AcDbLine
 10
-77.46277533039659
 20
9.434187997045469
 30
0.0
 11
-77.3627753303966
 21
9.36448710524302
 31
0.0
  0
LINE
  5
F1028E
330
261
100
AcDbEntity
  8
Geo
100
AcDbLine
 10
-77.3627753303966
 20
9.36448710524302
 30
0.0
 11
-77.2627753303966
 21
9.29572884472547
 31
0.0
  0
LINE
  5
F10290
330
261
100
AcDbEntity
  8
Geo
100
AcDbLine
 10
-77.2627753303966
 20
9.29572884472547
 30
0.0
 11
-77.1627753303966
 21
9.22795984678977
 31
0.0
  0
LINE
  5
F10292
330
261
100
AcDbEntity
  8
Geo
100
AcDbLine
 10
-77.1627753303966
 20
9.22795984678977
 30
0.0
 11
-77.06277533039659
 21
9.161226071823008
 31
0.0
  0
LINE
  5
F10294
330
261
100
AcDbEntity
  8
Geo
100
AcDbLine
 10
-77.06277533039659
 20
9.161226071823008
 30
0.0
 11
-76.96277533039659
 21
9.095572778132391
 31
0.0
  0
LINE
  5
F10296
330
261
100
AcDbEntity
  8
Geo
100
AcDbLine
 10
-76.96277533039659
 20
9.095572778132391
 30
0.0
 11
-76.8627753303966
 21
9.031044491251462
 31
0.0
  0
LINE
  5
F10298
330
261
100
AcDbEntity
  8
Geo
100
AcDbLine
 10
-76.8627753303966
 20
9.031044491251462
 30
0.0
 11
-76.76277533039659
 21
8.96768497374321
 31
0.0
  0
LINE
  5
F1029A
330
261
100
AcDbEntity
  8
Geo
100
AcDbLine
 10
-76.76277533039659
 20
8.96768497374321
 30
0.0
 11
-76.6627753303966
 21
8.905537195520711
 31
0.0
  0
LINE
  5
F1029C
330
261
100
AcDbEntity
  8
Geo
100
AcDbLine
 10
-76.6627753303966
 20
8.905537195520711
 30
0.0
 11
-76.56277533039659
 21
8.84464330470522
 31
0.0
  0
LINE
  5
F1029E
330
261
100
AcDbEntity
  8
Geo
100
AcDbLine
 10
-76.56277533039659
 20
8.84464330470522
 30
0.0
 11
-76.46277533039659
 21
8.785044599041679
 31
0.0
  0
LINE
  5
F102A0
330
261
100
AcDbEntity
  8
Geo
100
AcDbLine
 10
-76.46277533039659
 20
8.785044599041679
 30
0.0
 11
-76.3627753303966
 21
8.726781497890941
 31
0.0
  0
LINE
  5
F102A2
330
261
100
AcDbEntity
  8
Geo
100
AcDbLine
 10
-76.3627753303966
 20
8.726781497890941
 30
0.0
 11
-76.26277533039659
 21
8.669893514817639
 31
0.0
  0
LINE
  5
F102A4
330
261
100
AcDbEntity
  8
Geo
100
AcDbLine
 10
-76.26277533039659
 20
8.669893514817639
 30
0.0
 11
-76.1627753303966
 21
8.614419230792449
 31
0.0
  0
LINE
  5
F102A6
330
261
100
AcDbEntity
  8
Geo
100
AcDbLine
 10
-76.1627753303966
 20
8.614419230792449
 30
0.0
 11
-76.06277533039659
 21
8.560396268026758
 31
0.0
  0
LINE
  5
F102A8
330
261
100
AcDbEntity
  8
Geo
100
AcDbLine
 10
-76.06277533039659
 20
8.560396268026758
 30
0.0
 11
-75.9627753303966
 21
8.507861264457611
 31
0.0
  0
LINE
  5
F102AA
330
261
100
AcDbEntity
  8
Geo
100
AcDbLine
 10
-75.9627753303966
 20
8.507861264457611
 30
0.0
 11
-75.8627753303966
 21
8.456849848900128
 31
0.0
  0
LINE
  5
F102AC
330
261
100
AcDbEntity
  8
Geo
100
AcDbLine
 10
-75.8627753303966
 20
8.456849848900128
 30
0.0
 11
-75.76277533039659
 21
8.40739661688436
 31
0.0
  0
LINE
  5
F102AE
330
261
100
AcDbEntity
  8
Geo
100
AcDbLine
 10
-75.76277533039659
 20
8.40739661688436
 30
0.0
 11
-75.66277533039659
 21
8.359535107192849
 31
0.0
  0
LINE
  5
F102B0
330
261
100
AcDbEntity
  8
Geo
100
AcDbLine
 10
-75.66277533039659
 20
8.359535107192849
 30
0.0
 11
-75.56277533039659
 21
8.31329777911492
 31
0.0
  0
LINE
  5
F102B2
330
261
100
AcDbEntity
  8
Geo
100
AcDbLine
 10
-75.56277533039659
 20
8.31329777911492
 30
0.0
 11
-75.4627753303966
 21
8.268715990433038
 31
0.0
  0
LINE
  5
F102B4
330
261
100
AcDbEntity
  8
Geo
100
AcDbLine
 10
-75.4627753303966
 20
8.268715990433038
 30
0.0
 11
-75.3627753303966
 21
8.22581997615625
 31
0.0
  0
LINE
  5
F102B6
330
261
100
AcDbEntity
  8
Geo
100
AcDbLine
 10
-75.3627753303966
 20
8.22581997615625
 30
0.0
 11
-75.26277533039659
 21
8.18463882801497
 31
0.0
  0
LINE
  5
F102B8
330
261
100
AcDbEntity
  8
Geo
100
AcDbLine
 10
-75.26277533039659
 20
8.18463882801497
 30
0.0
 11
-75.1627753303966
 21
8.14520047473128
 31
0.0
  0
LINE
  5
F102BA
330
261
100
AcDbEntity
  8
Geo
100
AcDbLine
 10
-75.1627753303966
 20
8.14520047473128
 30
0.0
 11
-75.06277533039659
 21
8.107531663077859
 31
0.0
  0
LINE
  5
F102BC
330
261
100
AcDbEntity
  8
Geo
100
AcDbLine
 10
-75.06277533039659
 20
8.107531663077859
 30
0.0
 11
-74.96277533039659
 21
8.07165793973855
 31
0.0
  0
LINE
  5
F102BE
330
261
100
AcDbEntity
  8
Geo
100
AcDbLine
 10
-74.96277533039659
 20
8.07165793973855
 30
0.0
 11
-74.8627753303966
 21
8.037603633982769
 31
0.0
  0
LINE
  5
F102C0
330
261
100
AcDbEntity
  8
Geo
100
AcDbLine
 10
-74.8627753303966
 20
8.037603633982769
 30
0.0
 11
-74.7627753303966
 21
8.005391841165669
 31
0.0
  0
LINE
  5
F102C2
330
261
100
AcDbEntity
  8
Geo
100
AcDbLine
 10
-74.7627753303966
 20
8.005391841165669
 30
0.0
 11
-74.6627753303966
 21
7.975044407064959
 31
0.0
  0
LINE
  5
F102C4
330
261
100
AcDbEntity
  8
Geo
100
AcDbLine
 10
-74.6627753303966
 20
7.975044407064959
 30
0.0
 11
-74.56277533039659
 21
7.94658191306537
 31
0.0
  0
LINE
  5
F102C6
330
261
100
AcDbEntity
  8
Geo
100
AcDbLine
 10
-74.56277533039659
 20
7.94658191306537
 30
0.0
 11
-74.46277533039659
 21
7.920023662200449
 31
0.0
  0
LINE
  5
F102C8
330
261
100
AcDbEntity
  8
Geo
100
AcDbLine
 10
-74.46277533039659
 20
7.920023662200449
 30
0.0
 11
-74.3627753303966
 21
7.895387666061441
 31
0.0
  0
LINE
  5
F102CA
330
261
100
AcDbEntity
  8
Geo
100
AcDbLine
 10
-74.3627753303966
 20
7.895387666061441
 30
0.0
 11
-74.26277533039659
 21
7.872690632581941
 31
0.0
  0
LINE
  5
F102CC
330
261
100
AcDbEntity
  8
Geo
100
AcDbLine
 10
-74.26277533039659
 20
7.872690632581941
 30
0.0
 11
-74.1627753303966
 21
7.851947954706768
 31
0.0
  0
LINE
  5
F102CE
330
261
100
AcDbEntity
  8
Geo
100
AcDbLine
 10
-74.1627753303966
 20
7.851947954706768
 30
0.0
 11
-74.06277533039659
 21
7.833173699952518
 31
0.0
  0
LINE
  5
F102D0
330
261
100
AcDbEntity
  8
Geo
100
AcDbLine
 10
-74.06277533039659
 20
7.833173699952518
 30
0.0
 11
-73.96277533039659
 21
7.816380600867138
 31
0.0
  0
LINE
  5
F102D2
330
261
100
AcDbEntity
  8
Geo
100
AcDbLine
 10
-73.96277533039659
 20
7.816380600867138
 30
0.0
 11
-73.8627753303966
 21
7.801580046394799
 31
0.0
  0
LINE
  5
F102D4
330
261
100
AcDbEntity
  8
Geo
100
AcDbLine
 10
-73.8627753303966
 20
7.801580046394799
 30
0.0
 11
-73.76277533039659
 21
7.788782074152019
 31
0.0
  0
LINE
  5
F102D6
330
261
100
AcDbEntity
  8
Geo
100
AcDbLine
 10
-73.76277533039659
 20
7.788782074152019
 30
0.0
 11
-73.6627753303966
 21
7.7779953636202
 31
0.0
  0
LINE
  5
F102D8
330
261
100
AcDbEntity
  8
Geo
100
AcDbLine
 10
-73.6627753303966
 20
7.7779953636202
 30
0.0
 11
-73.56277533039659
 21
7.76922723025932
 31
0.0
  0
LINE
  5
F102DA
330
261
100
AcDbEntity
  8
Geo
100
AcDbLine
 10
-73.56277533039659
 20
7.76922723025932
 30
0.0
 11
-73.4627753303966
 21
7.762483620546589
 31
0.0
  0
LINE
  5
F102DC
330
261
100
AcDbEntity
  8
Geo
100
AcDbLine
 10
-73.4627753303966
 20
7.762483620546589
 30
0.0
 11
-73.3627753303966
 21
7.757769107943669
 31
0.0
  0
LINE
  5
F102DE
330
261
100
AcDbEntity
  8
Geo
100
AcDbLine
 10
-73.3627753303966
 20
7.757769107943669
 30
0.0
 11
-73.26277533039659
 21
7.755086889794919
 31
0.0
  0
LINE
  5
F102E0
330
261
100
AcDbEntity
  8
Geo
100
AcDbLine
 10
-81.06277533039659
 20
8.682582417466919
 30
0.0
 11
-81.06277533039659
 21
8.682582417466919
 31
0.0
  0
LINE
  5
F102E2
330
261
100
AcDbEntity
  8
Geo
100
AcDbLine
 10
-81.06277533039659
 20
8.682582417466919
 30
0.0
 11
-81.06277533039659
 21
8.63308494278386
 31
0.0
  0
LINE
  5
F102E4
330
261
100
AcDbEntity
  8
Geo
100
AcDbLine
 10
-81.06277533039659
 20
8.63308494278386
 30
0.0
 11
-80.96277533039659
 21
8.578565282111441
 31
0.0
  0
LINE
  5
F102E6
330
261
100
AcDbEntity
  8
Geo
100
AcDbLine
 10
-80.96277533039659
 20
8.578565282111441
 30
0.0
 11
-80.86277533039661
 21
8.525521258556949
 31
0.0
  0
LINE
  5
F102E8
330
261
100
AcDbEntity
  8
Geo
100
AcDbLine
 10
-80.86277533039661
 20
8.525521258556949
 30
0.0
 11
-80.76277533039659
 21
8.47398884614876
 31
0.0
  0
LINE
  5
F102EA
330
261
100
AcDbEntity
  8
Geo
100
AcDbLine
 10
-80.76277533039659
 20
8.47398884614876
 30
0.0
 11
-80.66277533039659
 21
8.424002993752768
 31
0.0
  0
LINE
  5
F102EC
330
261
100
AcDbEntity
  8
Geo
100
AcDbLine
 10
-80.66277533039659
 20
8.424002993752768
 30
0.0
 11
-80.5627753303966
 21
8.37559760137036
 31
0.0
  0
LINE
  5
F102EE
330
261
100
AcDbEntity
  8
Geo
100
AcDbLine
 10
-80.5627753303966
 20
8.37559760137036
 30
0.0
 11
-80.4627753303966
 21
8.328805497147719
 31
0.0
  0
LINE
  5
F102F0
330
261
100
AcDbEntity
  8
Geo
100
AcDbLine
 10
-80.4627753303966
 20
8.328805497147719
 30
0.0
 11
-80.3627753303966
 21
8.283658415111998
 31
0.0
  0
LINE
  5
F102F2
330
261
100
AcDbEntity
  8
Geo
100
AcDbLine
 10
-80.3627753303966
 20
8.283658415111998
 30
0.0
 11
-80.26277533039658
 21
8.240186973649629
 31
0.0
  0
LINE
  5
F102F4
330
261
100
AcDbEntity
  8
Geo
100
AcDbLine
 10
-80.26277533039658
 20
8.240186973649629
 30
0.0
 11
-80.1627753303966
 21
8.198420654741111
 31
0.0
  0
LINE
  5
F102F6
330
261
100
AcDbEntity
  8
Geo
100
AcDbLine
 10
-80.1627753303966
 20
8.198420654741111
 30
0.0
 11
-80.06277533039659
 21
8.158387783966599
 31
0.0
  0
LINE
  5
F102F8
330
261
100
AcDbEntity
  8
Geo
100
AcDbLine
 10
-80.06277533039659
 20
8.158387783966599
 30
0.0
 11
-79.96277533039659
 21
8.12011551129574
 31
0.0
  0
LINE
  5
F102FA
330
261
100
AcDbEntity
  8
Geo
100
AcDbLine
 10
-79.96277533039659
 20
8.12011551129574
 30
0.0
 11
-79.8627753303966
 21
8.08362979267475
 31
0.0
  0
LINE
  5
F102FC
330
261
100
AcDbEntity
  8
Geo
100
AcDbLine
 10
-79.8627753303966
 20
8.08362979267475
 30
0.0
 11
-79.7627753303966
 21
8.048955372423339
 31
0.0
  0
LINE
  5
F102FE
330
261
100
AcDbEntity
  8
Geo
100
AcDbLine
 10
-79.7627753303966
 20
8.048955372423339
 30
0.0
 11
-79.6627753303966
 21
8.01611576645326
 31
0.0
  0
LINE
  5
F10300
330
261
100
AcDbEntity
  8
Geo
100
AcDbLine
 10
-79.6627753303966
 20
8.01611576645326
 30
0.0
 11
-79.56277533039659
 21
7.98513324632007
 31
0.0
  0
LINE
  5
F10302
330
261
100
AcDbEntity
  8
Geo
100
AcDbLine
 10
-79.56277533039659
 20
7.98513324632007
 30
0.0
 11
-79.46277533039659
 21
7.95602882411869
 31
0.0
  0
LINE
  5
F10304
330
261
100
AcDbEntity
  8
Geo
100
AcDbLine
 10
-79.46277533039659
 20
7.95602882411869
 30
0.0
 11
-79.3627753303966
 21
7.92882223823319
 31
0.0
  0
LINE
  5
F10306
330
261
100
AcDbEntity
  8
Geo
100
AcDbLine
 10
-79.3627753303966
 20
7.92882223823319
 30
0.0
 11
-79.26277533039659
 21
7.90353193995041
 31
0.0
  0
LINE
  5
F10308
330
261
100
AcDbEntity
  8
Geo
100
AcDbLine
 10
-79.26277533039659
 20
7.90353193995041
 30
0.0
 11
-79.1627753303966
 21
7.880175080946361
 31
0.0
  0
LINE
  5
F1030A
330
261
100
AcDbEntity
  8
Geo
100
AcDbLine
 10
-79.1627753303966
 20
7.880175080946361
 30
0.0
 11
-79.06277533039659
 21
7.8587675016542
 31
0.0
  0
LINE
  5
F1030C
330
261
100
AcDbEntity
  8
Geo
100
AcDbLine
 10
-79.06277533039659
 20
7.8587675016542
 30
0.0
 11
-78.96277533039659
 21
7.839323720521309
 31
0.0
  0
LINE
  5
F1030E
330
261
100
AcDbEntity
  8
Geo
100
AcDbLine
 10
-78.96277533039659
 20
7.839323720521309
 30
0.0
 11
-78.8627753303966
 21
7.82185692416301
 31
0.0
  0
LINE
  5
F10310
330
261
100
AcDbEntity
  8
Geo
100
AcDbLine
 10
-78.8627753303966
 20
7.82185692416301
 30
0.0
 11
-78.76277533039659
 21
7.80637895841951
 31
0.0
  0
LINE
  5
F10312
330
261
100
AcDbEntity
  8
Geo
100
AcDbLine
 10
-78.76277533039659
 20
7.80637895841951
 30
0.0
 11
-78.6627753303966
 21
7.7929003203222
 31
0.0
  0
LINE
  5
F10314
330
261
100
AcDbEntity
  8
Geo
100
AcDbLine
 10
-78.6627753303966
 20
7.7929003203222
 30
0.0
 11
-78.56277533039659
 21
7.781430150974559
 31
0.0
  0
LINE
  5
F10316
330
261
100
AcDbEntity
  8
Geo
100
AcDbLine
 10
-78.56277533039659
 20
7.781430150974559
 30
0.0
 11
-78.4627753303966
 21
7.771976229352799
 31
0.0
  0
LINE
  5
F10318
330
261
100
AcDbEntity
  8
Geo
100
AcDbLine
 10
-78.4627753303966
 20
7.771976229352799
 30
0.0
 11
-78.3627753303966
 21
7.76454496703022
 31
0.0
  0
LINE
  5
F1031A
330
261
100
AcDbEntity
  8
Geo
100
AcDbLine
 10
-78.3627753303966
 20
7.76454496703022
 30
0.0
 11
-78.26277533039659
 21
7.75914140382891
 31
0.0
  0
LINE
  5
F1031C
330
261
100
AcDbEntity
  8
Geo
100
AcDbLine
 10
-78.26277533039659
 20
7.75914140382891
 30
0.0
 11
-78.16277533039659
 21
7.755769204401789
 31
0.0
  0
LINE
  5
F1031E
330
261
100
AcDbEntity
  8
Geo
100
AcDbLine
 10
-78.16277533039659
 20
7.755769204401789
 30
0.0
 11
-78.06277533039659
 21
7.754430655747269
 31
0.0
  0
LINE
  5
F10320
330
261
100
AcDbEntity
  8
Geo
100
AcDbLine
 10
-81.06277533039659
 20
8.15803590452545
 30
0.0
 11
-81.06277533039659
 21
8.15803590452545
 31
0.0
  0
LINE
  5
F10322
330
261
100
AcDbEntity
  8
Geo
100
AcDbLine
 10
-81.06277533039659
 20
8.15803590452545
 30
0.0
 11
-81.06277533039659
 21
8.096006601888161
 31
0.0
  0
LINE
  5
F10324
330
261
100
AcDbEntity
  8
Geo
100
AcDbLine
 10
-81.06277533039659
 20
8.096006601888161
 30
0.0
 11
-80.96277533039659
 21
8.060704931955509
 31
0.0
  0
LINE
  5
F10326
330
261
100
AcDbEntity
  8
Geo
100
AcDbLine
 10
-80.96277533039659
 20
8.060704931955509
 30
0.0
 11
-80.86277533039661
 21
8.027230107847829
 31
0.0
  0
LINE
  5
F10328
330
261
100
AcDbEntity
  8
Geo
100
AcDbLine
 10
-80.86277533039661
 20
8.027230107847829
 30
0.0
 11
-80.76277533039659
 21
7.99560483192046
 31
0.0
  0
LINE
  5
F1032A
330
261
100
AcDbEntity
  8
Geo
100
AcDbLine
 10
-80.76277533039659
 20
7.99560483192046
 30
0.0
 11
-80.66277533039659
 21
7.96585055218011
 31
0.0
  0
LINE
  5
F1032C
330
261
100
AcDbEntity
  8
Geo
100
AcDbLine
 10
-80.66277533039659
 20
7.96585055218011
 30
0.0
 11
-80.5627753303966
 21
7.937987447739009
 31
0.0
  0
LINE
  5
F1032E
330
261
100
AcDbEntity
  8
Geo
100
AcDbLine
 10
-80.5627753303966
 20
7.937987447739009
 30
0.0
 11
-80.4627753303966
 21
7.912034415129549
 31
0.0
  0
LINE
  5
F10330
330
261
100
AcDbEntity
  8
Geo
100
AcDbLine
 10
-80.4627753303966
 20
7.912034415129549
 30
0.0
 11
-80.3627753303966
 21
7.88800905548884
 31
0.0
  0
LINE
  5
F10332
330
261
100
AcDbEntity
  8
Geo
100
AcDbLine
 10
-80.3627753303966
 20
7.88800905548884
 30
0.0
 11
-80.26277533039658
 21
7.865927662621739
 31
0.0
  0
LINE
  5
F10334
330
261
100
AcDbEntity
  8
Geo
100
AcDbLine
 10
-80.26277533039658
 20
7.865927662621739
 30
0.0
 11
-80.1627753303966
 21
7.84580521195057
 31
0.0
  0
LINE
  5
F10336
330
261
100
AcDbEntity
  8
Geo
100
AcDbLine
 10
-80.1627753303966
 20
7.84580521195057
 30
0.0
 11
-80.06277533039659
 21
7.827655350358849
 31
0.0
  0
LINE
  5
F10338
330
261
100
AcDbEntity
  8
Geo
100
AcDbLine
 10
-80.06277533039659
 20
7.827655350358849
 30
0.0
 11
-79.96277533039659
 21
7.811490386936129
 31
0.0
  0
LINE
  5
F1033A
330
261
100
AcDbEntity
  8
Geo
100
AcDbLine
 10
-79.96277533039659
 20
7.811490386936129
 30
0.0
 11
-79.8627753303966
 21
7.797321284630049
 31
0.0
  0
LINE
  5
F1033C
330
261
100
AcDbEntity
  8
Geo
100
AcDbLine
 10
-79.8627753303966
 20
7.797321284630049
 30
0.0
 11
-79.7627753303966
 21
7.785157652811349
 31
0.0
  0
LINE
  5
F1033E
330
261
100
AcDbEntity
  8
Geo
100
AcDbLine
 10
-79.7627753303966
 20
7.785157652811349
 30
0.0
 11
-79.6627753303966
 21
7.775007740756889
 31
0.0
  0
LINE
  5
F10340
330
261
100
AcDbEntity
  8
Geo
100
AcDbLine
 10
-79.6627753303966
 20
7.775007740756889
 30
0.0
 11
-79.56277533039659
 21
7.76687843205507
 31
0.0
  0
LINE
  5
F10342
330
261
100
AcDbEntity
  8
Geo
100
AcDbLine
 10
-79.56277533039659
 20
7.76687843205507
 30
0.0
 11
-79.46277533039659
 21
7.76077523993737
 31
0.0
  0
LINE
  5
F10344
330
261
100
AcDbEntity
  8
Geo
100
AcDbLine
 10
-79.46277533039659
 20
7.76077523993737
 30
0.0
 11
-79.3627753303966
 21
7.756702303539409
 31
0.0
  0
LINE
  5
F10346
330
261
100
AcDbEntity
  8
Geo
100
AcDbLine
 10
-79.3627753303966
 20
7.756702303539409
 30
0.0
 11
-79.26277533039659
 21
7.754662385093759
 31
0.0
  0
LINE
  5
F10348
330
261
100
AcDbEntity
  8
Geo
100
AcDbLine
 10
-67.3627753303966
 20
13.504036187161
 30
0.0
 11
-67.2627753303966
 21
13.5039853512497
 31
0.0
  0
LINE
  5
F1034A
330
261
100
AcDbEntity
  8
Geo
100
AcDbLine
 10
-67.2627753303966
 20
13.5039853512497
 30
0.0
 11
-67.1627753303966
 21
13.5007037177968
 31
0.0
  0
LINE
  5
F1034C
330
261
100
AcDbEntity
  8
Geo
100
AcDbLine
 10
-67.1627753303966
 20
13.5007037177968
 30
0.0
 11
-67.0627753303966
 21
13.4940379513269
 31
0.0
  0
LINE
  5
F1034E
330
261
100
AcDbEntity
  8
Geo
100
AcDbLine
 10
-67.0627753303966
 20
13.4940379513269
 30
0.0
 11
-66.96277533039661
 21
13.4838367401186
 31
0.0
  0
LINE
  5
F10350
330
261
100
AcDbEntity
  8
Geo
100
AcDbLine
 10
-66.96277533039661
 20
13.4838367401186
 30
0.0
 11
-66.8627753303966
 21
13.4699514671965
 31
0.0
  0
LINE
  5
F10352
330
261
100
AcDbEntity
  8
Geo
100
AcDbLine
 10
-66.8627753303966
 20
13.4699514671965
 30
0.0
 11
-66.76277533039661
 21
13.4522369206177
 31
0.0
  0
LINE
  5
F10354
330
261
100
AcDbEntity
  8
Geo
100
AcDbLine
 10
-66.76277533039661
 20
13.4522369206177
 30
0.0
 11
-66.6627753303966
 21
13.4305520425897
 31
0.0
  0
LINE
  5
F10356
330
261
100
AcDbEntity
  8
Geo
100
AcDbLine
 10
-66.6627753303966
 20
13.4305520425897
 30
0.0
 11
-66.5627753303966
 21
13.4047607166799
 31
0.0
  0
LINE
  5
F10358
330
261
100
AcDbEntity
  8
Geo
100
AcDbLine
 10
-66.5627753303966
 20
13.4047607166799
 30
0.0
 11
-66.46277533039661
 21
13.3747325920815
 31
0.0
  0
LINE
  5
F1035A
330
261
100
AcDbEntity
  8
Geo
100
AcDbLine
 10
-66.46277533039661
 20
13.3747325920815
 30
0.0
 11
-66.3627753303966
 21
13.3403439435829
 31
0.0
  0
LINE
  5
F1035C
330
261
100
AcDbEntity
  8
Geo
100
AcDbLine
 10
-66.3627753303966
 20
13.3403439435829
 30
0.0
 11
-66.26277533039661
 21
13.3014785655468
 31
0.0
  0
LINE
  5
F1035E
330
261
100
AcDbEntity
  8
Geo
100
AcDbLine
 10
-66.26277533039661
 20
13.3014785655468
 30
0.0
 11
-66.1627753303966
 21
13.2580286978463
 31
0.0
  0
LINE
  5
F10360
330
261
100
AcDbEntity
  8
Geo
100
AcDbLine
 10
-66.1627753303966
 20
13.2580286978463
 30
0.0
 11
-66.0627753303966
 21
13.209895981322
 31
0.0
  0
LINE
  5
F10362
330
261
100
AcDbEntity
  8
Geo
100
AcDbLine
 10
-66.0627753303966
 20
13.209895981322
 30
0.0
 11
-65.96277533039661
 21
13.1569924399249
 31
0.0
  0
LINE
  5
F10364
330
261
100
AcDbEntity
  8
Geo
100
AcDbLine
 10
-65.96277533039661
 20
13.1569924399249
 30
0.0
 11
-65.8627753303966
 21
13.0992414862868
 31
0.0
  0
LINE
  5
F10366
330
261
100
AcDbEntity
  8
Geo
100
AcDbLine
 10
-65.8627753303966
 20
13.0992414862868
 30
0.0
 11
-65.76277533039661
 21
13.0365789470263
 31
0.0
  0
LINE
  5
F10368
330
261
100
AcDbEntity
  8
Geo
100
AcDbLine
 10
-65.76277533039661
 20
13.0365789470263
 30
0.0
 11
-65.66277533039659
 21
12.9689541036402
 31
0.0
  0
LINE
  5
F1036A
330
261
100
AcDbEntity
  8
Geo
100
AcDbLine
 10
-65.66277533039659
 20
12.9689541036402
 30
0.0
 11
-65.5627753303966
 21
12.8963307443667
 31
0.0
  0
LINE
  5
F1036C
330
261
100
AcDbEntity
  8
Geo
100
AcDbLine
 10
-65.5627753303966
 20
12.8963307443667
 30
0.0
 11
-65.46277533039661
 21
12.8186882219228
 31
0.0
  0
LINE
  5
F1036E
330
261
100
AcDbEntity
  8
Geo
100
AcDbLine
 10
-65.46277533039661
 20
12.8186882219228
 30
0.0
 11
-65.3627753303966
 21
12.7360225115334
 31
0.0
  0
LINE
  5
F10370
330
261
100
AcDbEntity
  8
Geo
100
AcDbLine
 10
-65.3627753303966
 20
12.7360225115334
 30
0.0
 11
-65.2627753303966
 21
12.6483472631697
 31
0.0
  0
LINE
  5
F10372
330
261
100
AcDbEntity
  8
Geo
100
AcDbLine
 10
-65.2627753303966
 20
12.6483472631697
 30
0.0
 11
-65.1627753303966
 21
12.555694841421
 31
0.0
  0
LINE
  5
F10374
330
261
100
AcDbEntity
  8
Geo
100
AcDbLine
 10
-65.1627753303966
 20
12.555694841421
 30
0.0
 11
-65.06277533039661
 21
12.4581173459195
 31
0.0
  0
LINE
  5
F10376
330
261
100
AcDbEntity
  8
Geo
100
AcDbLine
 10
-65.06277533039661
 20
12.4581173459195
 30
0.0
 11
-65.06277533039661
 21
12.4581173459195
 31
0.0
  0
LINE
  5
F10378
330
261
100
AcDbEntity
  8
Geo
100
AcDbLine
 10
-72.06277533039659
 20
13.7541769642841
 30
0.0
 11
-71.96277533039659
 21
13.7541235402027
 31
0.0
  0
LINE
  5
F1037A
330
261
100
AcDbEntity
  8
Geo
100
AcDbLine
 10
-71.96277533039659
 20
13.7541235402027
 30
0.0
 11
-71.8627753303966
 21
13.7520357314285
 31
0.0
  0
LINE
  5
F1037C
330
261
100
AcDbEntity
  8
Geo
100
AcDbLine
 10
-71.8627753303966
 20
13.7520357314285
 30
0.0
 11
-71.76277533039659
 21
13.7479149538965
 31
0.0
  0
LINE
  5
F1037E
330
261
100
AcDbEntity
  8
Geo
100
AcDbLine
 10
-71.76277533039659
 20
13.7479149538965
 30
0.0
 11
-71.6627753303966
 21
13.7417640022847
 31
0.0
  0
LINE
  5
F10380
330
261
100
AcDbEntity
  8
Geo
100
AcDbLine
 10
-71.6627753303966
 20
13.7417640022847
 30
0.0
 11
-71.56277533039659
 21
13.7335870481189
 31
0.0
  0
LINE
  5
F10382
330
261
100
AcDbEntity
  8
Geo
100
AcDbLine
 10
-71.56277533039659
 20
13.7335870481189
 30
0.0
 11
-71.46277533039659
 21
13.7233896369433
 31
0.0
  0
LINE
  5
F10384
330
261
100
AcDbEntity
  8
Geo
100
AcDbLine
 10
-71.46277533039659
 20
13.7233896369433
 30
0.0
 11
-71.3627753303966
 21
13.7111786845597
 31
0.0
  0
LINE
  5
F10386
330
261
100
AcDbEntity
  8
Geo
100
AcDbLine
 10
-71.3627753303966
 20
13.7111786845597
 30
0.0
 11
-71.26277533039659
 21
13.6969624723376
 31
0.0
  0
LINE
  5
F10388
330
261
100
AcDbEntity
  8
Geo
100
AcDbLine
 10
-71.26277533039659
 20
13.6969624723376
 30
0.0
 11
-71.1627753303966
 21
13.6807506415972
 31
0.0
  0
LINE
  5
F1038A
330
261
100
AcDbEntity
  8
Geo
100
AcDbLine
 10
-71.1627753303966
 20
13.6807506415972
 30
0.0
 11
-71.06277533039659
 21
13.6625541870712
 31
0.0
  0
LINE
  5
F1038C
330
261
100
AcDbEntity
  8
Geo
100
AcDbLine
 10
-71.06277533039659
 20
13.6625541870712
 30
0.0
 11
-70.9627753303966
 21
13.642385449448
 31
0.0
  0
LINE
  5
F1038E
330
261
100
AcDbEntity
  8
Geo
100
AcDbLine
 10
-70.9627753303966
 20
13.642385449448
 30
0.0
 11
-70.8627753303966
 21
13.6202581070027
 31
0.0
  0
LINE
  5
F10390
330
261
100
AcDbEntity
  8
Geo
100
AcDbLine
 10
-70.8627753303966
 20
13.6202581070027
 30
0.0
 11
-70.76277533039659
 21
13.5961871663202
 31
0.0
  0
LINE
  5
F10392
330
261
100
AcDbEntity
  8
Geo
100
AcDbLine
 10
-70.76277533039659
 20
13.5961871663202
 30
0.0
 11
-70.66277533039659
 21
13.5701889521181
 31
0.0
  0
LINE
  5
F10394
330
261
100
AcDbEntity
  8
Geo
100
AcDbLine
 10
-70.66277533039659
 20
13.5701889521181
 30
0.0
 11
-70.56277533039659
 21
13.5422810961752
 31
0.0
  0
LINE
  5
F10396
330
261
100
AcDbEntity
  8
Geo
100
AcDbLine
 10
-70.56277533039659
 20
13.5422810961752
 30
0.0
 11
-70.4627753303966
 21
13.512482525374
 31
0.0
  0
LINE
  5
F10398
330
261
100
AcDbEntity
  8
Geo
100
AcDbLine
 10
-70.4627753303966
 20
13.512482525374
 30
0.0
 11
-70.3627753303966
 21
13.4808134488647
 31
0.0
  0
LINE
  5
F1039A
330
261
100
AcDbEntity
  8
Geo
100
AcDbLine
 10
-70.3627753303966
 20
13.4808134488647
 30
0.0
 11
-70.2627753303966
 21
13.4472953443591
 31
0.0
  0
LINE
  5
F1039C
330
261
100
AcDbEntity
  8
Geo
100
AcDbLine
 10
-70.2627753303966
 20
13.4472953443591
 30
0.0
 11
-70.1627753303966
 21
13.4119509435649
 31
0.0
  0
LINE
  5
F1039E
330
261
100
AcDbEntity
  8
Geo
100
AcDbLine
 10
-70.1627753303966
 20
13.4119509435649
 30
0.0
 11
-70.06277533039661
 21
13.3748042167695
 31
0.0
  0
LINE
  5
F103A0
330
261
100
AcDbEntity
  8
Geo
100
AcDbLine
 10
-70.06277533039661
 20
13.3748042167695
 30
0.0
 11
-69.96277533039661
 21
13.3358803565828
 31
0.0
  0
LINE
  5
F103A2
330
261
100
AcDbEntity
  8
Geo
100
AcDbLine
 10
-69.96277533039661
 20
13.3358803565828
 30
0.0
 11
-69.8627753303966
 21
13.2952057608525
 31
0.0
  0
LINE
  5
F103A4
330
261
100
AcDbEntity
  8
Geo
100
AcDbLine
 10
-69.8627753303966
 20
13.2952057608525
 30
0.0
 11
-69.7627753303966
 21
13.2528080147608
 31
0.0
  0
LINE
  5
F103A6
330
261
100
AcDbEntity
  8
Geo
100
AcDbLine
 10
-69.7627753303966
 20
13.2528080147608
 30
0.0
 11
-69.6627753303966
 21
13.2087158721169
 31
0.0
  0
LINE
  5
F103A8
330
261
100
AcDbEntity
  8
Geo
100
AcDbLine
 10
-69.6627753303966
 20
13.2087158721169
 30
0.0
 11
-69.5627753303966
 21
13.1629592358557
 31
0.0
  0
LINE
  5
F103AA
330
261
100
AcDbEntity
  8
Geo
100
AcDbLine
 10
-69.5627753303966
 20
13.1629592358557
 30
0.0
 11
-69.46277533039661
 21
13.1155691377583
 31
0.0
  0
LINE
  5
F103AC
330
261
100
AcDbEntity
  8
Geo
100
AcDbLine
 10
-69.46277533039661
 20
13.1155691377583
 30
0.0
 11
-69.3627753303966
 21
13.0665777174066
 31
0.0
  0
LINE
  5
F103AE
330
261
100
AcDbEntity
  8
Geo
100
AcDbLine
 10
-69.3627753303966
 20
13.0665777174066
 30
0.0
 11
-69.26277533039661
 21
13.0160182003861
 31
0.0
  0
LINE
  5
F103B0
330
261
100
AcDbEntity
  8
Geo
100
AcDbLine
 10
-69.26277533039661
 20
13.0160182003861
 30
0.0
 11
-69.1627753303966
 21
12.9639248757531
 31
0.0
  0
LINE
  5
F103B2
330
261
100
AcDbEntity
  8
Geo
100
AcDbLine
 10
-69.1627753303966
 20
12.9639248757531
 30
0.0
 11
-69.0627753303966
 21
12.9103330727794
 31
0.0
  0
LINE
  5
F103B4
330
261
100
AcDbEntity
  8
Geo
100
AcDbLine
 10
-69.0627753303966
 20
12.9103330727794
 30
0.0
 11
-68.96277533039661
 21
12.8552791369931
 31
0.0
  0
LINE
  5
F103B6
330
261
100
AcDbEntity
  8
Geo
100
AcDbLine
 10
-68.96277533039661
 20
12.8552791369931
 30
0.0
 11
-68.8627753303966
 21
12.7988004055288
 31
0.0
  0
LINE
  5
F103B8
330
261
100
AcDbEntity
  8
Geo
100
AcDbLine
 10
-68.8627753303966
 20
12.7988004055288
 30
0.0
 11
-68.76277533039661
 21
12.740935181806
 31
0.0
  0
LINE
  5
F103BA
330
261
100
AcDbEntity
  8
Geo
100
AcDbLine
 10
-68.76277533039661
 20
12.740935181806
 30
0.0
 11
-68.6627753303966
 21
12.6817227095521
 31
0.0
  0
LINE
  5
F103BC
330
261
100
AcDbEntity
  8
Geo
100
AcDbLine
 10
-68.6627753303966
 20
12.6817227095521
 30
0.0
 11
-68.5627753303966
 21
12.6212031461876
 31
0.0
  0
LINE
  5
F103BE
330
261
100
AcDbEntity
  8
Geo
100
AcDbLine
 10
-68.5627753303966
 20
12.6212031461876
 30
0.0
 11
-68.46277533039661
 21
12.5594175355915
 31
0.0
  0
LINE
  5
F103C0
330
261
100
AcDbEntity
  8
Geo
100
AcDbLine
 10
-68.46277533039661
 20
12.5594175355915
 30
0.0
 11
-68.3627753303966
 21
12.4964077802659
 31
0.0
  0
LINE
  5
F103C2
330
261
100
AcDbEntity
  8
Geo
100
AcDbLine
 10
-68.3627753303966
 20
12.4964077802659
 30
0.0
 11
-68.26277533039661
 21
12.4322166129181
 31
0.0
  0
LINE
  5
F103C4
330
261
100
AcDbEntity
  8
Geo
100
AcDbLine
 10
-68.26277533039661
 20
12.4322166129181
 30
0.0
 11
-68.16277533039659
 21
12.3668875674792
 31
0.0
  0
LINE
  5
F103C6
330
261
100
AcDbEntity
  8
Geo
100
AcDbLine
 10
-68.16277533039659
 20
12.3668875674792
 30
0.0
 11
-68.0627753303966
 21
12.3004649495804
 31
0.0
  0
LINE
  5
F103C8
330
261
100
AcDbEntity
  8
Geo
100
AcDbLine
 10
-68.0627753303966
 20
12.3004649495804
 30
0.0
 11
-68.0627753303966
 21
12.3004649495803
 31
0.0
  0
LINE
  5
F103CA
330
261
100
AcDbEntity
  8
Geo
100
AcDbLine
 10
-68.0627753303966
 20
12.3004649495803
 30
0.0
 11
-68.0627753303966
 21
12.1716266443106
 31
0.0
  0
LINE
  5
F103CC
330
261
100
AcDbEntity
  8
Geo
100
AcDbLine
 10
-68.0627753303966
 20
12.1716266443106
 30
0.0
 11
-68.0627753303966
 21
12.3004649495803
 31
0.0
  0
LINE
  5
F103CE
330
261
100
AcDbEntity
  8
Geo
100
AcDbLine
 10
-68.0627753303966
 20
12.3004649495803
 30
0.0
 11
-68.0627753303966
 21
12.3004649495803
 31
0.0
  0
LINE
  5
F103D0
330
261
100
AcDbEntity
  8
Geo
100
AcDbLine
 10
-68.0627753303966
 20
12.3004649495803
 30
0.0
 11
-67.96277533039661
 21
12.1794691513123
 31
0.0
  0
LINE
  5
F103D2
330
261
100
AcDbEntity
  8
Geo
100
AcDbLine
 10
-67.96277533039661
 20
12.1794691513123
 30
0.0
 11
-67.8627753303966
 21
12.1874404134014
 31
0.0
  0
LINE
  5
F103D4
330
261
100
AcDbEntity
  8
Geo
100
AcDbLine
 10
-67.8627753303966
 20
12.1874404134014
 30
0.0
 11
-67.7627753303966
 21
12.1955394429125
 31
0.0
  0
LINE
  5
F103D6
330
261
100
AcDbEntity
  8
Geo
100
AcDbLine
 10
-67.7627753303966
 20
12.1955394429125
 30
0.0
 11
-67.6627753303966
 21
12.2037652259006
 31
0.0
  0
LINE
  5
F103D8
330
261
100
AcDbEntity
  8
Geo
100
AcDbLine
 10
-67.6627753303966
 20
12.2037652259006
 30
0.0
 11
-67.56277533039661
 21
12.2121167217177
 31
0.0
  0
LINE
  5
F103DA
330
261
100
AcDbEntity
  8
Geo
100
AcDbLine
 10
-67.56277533039661
 20
12.2121167217177
 30
0.0
 11
-67.46277533039661
 21
12.2205928625851
 31
0.0
  0
LINE
  5
F103DC
330
261
100
AcDbEntity
  8
Geo
100
AcDbLine
 10
-67.46277533039661
 20
12.2205928625851
 30
0.0
 11
-67.3627753303966
 21
12.2291925531602
 31
0.0
  0
LINE
  5
F103DE
330
261
100
AcDbEntity
  8
Geo
100
AcDbLine
 10
-67.3627753303966
 20
12.2291925531602
 30
0.0
 11
-67.2627753303966
 21
12.2379146700993
 31
0.0
  0
LINE
  5
F103E0
330
261
100
AcDbEntity
  8
Geo
100
AcDbLine
 10
-67.2627753303966
 20
12.2379146700993
 30
0.0
 11
-67.1627753303966
 21
12.2467580616156
 31
0.0
  0
LINE
  5
F103E2
330
261
100
AcDbEntity
  8
Geo
100
AcDbLine
 10
-67.1627753303966
 20
12.2467580616156
 30
0.0
 11
-67.0627753303966
 21
12.2557215470333
 31
0.0
  0
LINE
  5
F103E4
330
261
100
AcDbEntity
  8
Geo
100
AcDbLine
 10
-67.0627753303966
 20
12.2557215470333
 30
0.0
 11
-66.96277533039661
 21
12.2648039163374
 31
0.0
  0
LINE
  5
F103E6
330
261
100
AcDbEntity
  8
Geo
100
AcDbLine
 10
-66.96277533039661
 20
12.2648039163374
 30
0.0
 11
-66.8627753303966
 21
12.27400392972
 31
0.0
  0
LINE
  5
F103E8
330
261
100
AcDbEntity
  8
Geo
100
AcDbLine
 10
-66.8627753303966
 20
12.27400392972
 30
0.0
 11
-66.76277533039661
 21
12.2833203171224
 31
0.0
  0
LINE
  5
F103EA
330
261
100
AcDbEntity
  8
Geo
100
AcDbLine
 10
-66.76277533039661
 20
12.2833203171224
 30
0.0
 11
-66.6627753303966
 21
12.2927517777745
 31
0.0
  0
LINE
  5
F103EC
330
261
100
AcDbEntity
  8
Geo
100
AcDbLine
 10
-66.6627753303966
 20
12.2927517777745
 30
0.0
 11
-66.5627753303966
 21
12.3022969797302
 31
0.0
  0
LINE
  5
F103EE
330
261
100
AcDbEntity
  8
Geo
100
AcDbLine
 10
-66.5627753303966
 20
12.3022969797302
 30
0.0
 11
-66.46277533039661
 21
12.3119545594003
 31
0.0
  0
LINE
  5
F103F0
330
261
100
AcDbEntity
  8
Geo
100
AcDbLine
 10
-66.46277533039661
 20
12.3119545594003
 30
0.0
 11
-66.3627753303966
 21
12.3217231210825
 31
0.0
  0
LINE
  5
F103F2
330
261
100
AcDbEntity
  8
Geo
100
AcDbLine
 10
-66.3627753303966
 20
12.3217231210825
 30
0.0
 11
-66.26277533039661
 21
12.3316012364885
 31
0.0
  0
LINE
  5
F103F4
330
261
100
AcDbEntity
  8
Geo
100
AcDbLine
 10
-66.26277533039661
 20
12.3316012364885
 30
0.0
 11
-66.1627753303966
 21
12.341587444269
 31
0.0
  0
LINE
  5
F103F6
330
261
100
AcDbEntity
  8
Geo
100
AcDbLine
 10
-66.1627753303966
 20
12.341587444269
 30
0.0
 11
-66.0627753303966
 21
12.3516802495366
 31
0.0
  0
LINE
  5
F103F8
330
261
100
AcDbEntity
  8
Geo
100
AcDbLine
 10
-66.0627753303966
 20
12.3516802495366
 30
0.0
 11
-65.96277533039661
 21
12.3618781233868
 31
0.0
  0
LINE
  5
F103FA
330
261
100
AcDbEntity
  8
Geo
100
AcDbLine
 10
-65.96277533039661
 20
12.3618781233868
 30
0.0
 11
-65.8627753303966
 21
12.3721795024171
 31
0.0
  0
LINE
  5
F103FC
330
261
100
AcDbEntity
  8
Geo
100
AcDbLine
 10
-65.8627753303966
 20
12.3721795024171
 30
0.0
 11
-65.76277533039661
 21
12.3825827882451
 31
0.0
  0
LINE
  5
F103FE
330
261
100
AcDbEntity
  8
Geo
100
AcDbLine
 10
-65.76277533039661
 20
12.3825827882451
 30
0.0
 11
-65.66277533039659
 21
12.3930863470252
 31
0.0
  0
LINE
  5
F10400
330
261
100
AcDbEntity
  8
Geo
100
AcDbLine
 10
-65.66277533039659
 20
12.3930863470252
 30
0.0
 11
-65.5627753303966
 21
12.4036885089648
 31
0.0
  0
LINE
  5
F10402
330
261
100
AcDbEntity
  8
Geo
100
AcDbLine
 10
-65.5627753303966
 20
12.4036885089648
 30
0.0
 11
-65.46277533039661
 21
12.4143875678391
 31
0.0
  0
LINE
  5
F10404
330
261
100
AcDbEntity
  8
Geo
100
AcDbLine
 10
-65.46277533039661
 20
12.4143875678391
 30
0.0
 11
-65.3627753303966
 21
12.4251817805067
 31
0.0
  0
LINE
  5
F10406
330
261
100
AcDbEntity
  8
Geo
100
AcDbLine
 10
-65.3627753303966
 20
12.4251817805067
 30
0.0
 11
-65.2627753303966
 21
12.4360693664242
 31
0.0
  0
LINE
  5
F10408
330
261
100
AcDbEntity
  8
Geo
100
AcDbLine
 10
-65.2627753303966
 20
12.4360693664242
 30
0.0
 11
-65.1627753303966
 21
12.447048507162
 31
0.0
  0
LINE
  5
F1040A
330
261
100
AcDbEntity
  8
Geo
100
AcDbLine
 10
-65.1627753303966
 20
12.447048507162
 30
0.0
 11
-65.06277533039661
 21
12.4581173459195
 31
0.0
  0
LINE
  5
F1040C
330
261
100
AcDbEntity
  8
Geo
100
AcDbLine
 10
-65.06277533039661
 20
12.4581173459195
 30
0.0
 11
-65.06277533039661
 21
12.4581173459195
 31
0.0
  0
LINE
  5
F1040E
330
261
100
AcDbEntity
  8
Geo
100
AcDbLine
 10
-73.26277533039659
 20
13.7537236828921
 30
0.0
 11
-73.16277533039659
 21
13.754371787528
 31
0.0
  0
LINE
  5
F10410
330
261
100
AcDbEntity
  8
Geo
100
AcDbLine
 10
-73.16277533039659
 20
13.754371787528
 30
0.0
 11
-73.06277533039659
 21
13.7529853391117
 31
0.0
  0
LINE
  5
F10412
330
261
100
AcDbEntity
  8
Geo
100
AcDbLine
 10
-73.06277533039659
 20
13.7529853391117
 30
0.0
 11
-72.9627753303966
 21
13.7495652779213
 31
0.0
  0
LINE
  5
F10414
330
261
100
AcDbEntity
  8
Geo
100
AcDbLine
 10
-72.9627753303966
 20
13.7495652779213
 30
0.0
 11
-72.8627753303966
 21
13.7441139234147
 31
0.0
  0
LINE
  5
F10416
330
261
100
AcDbEntity
  8
Geo
100
AcDbLine
 10
-72.8627753303966
 20
13.7441139234147
 30
0.0
 11
-72.76277533039659
 21
13.7366349726566
 31
0.0
  0
LINE
  5
F10418
330
261
100
AcDbEntity
  8
Geo
100
AcDbLine
 10
-72.76277533039659
 20
13.7366349726566
 30
0.0
 11
-72.6627753303966
 21
13.7271334978108
 31
0.0
  0
LINE
  5
F1041A
330
261
100
AcDbEntity
  8
Geo
100
AcDbLine
 10
-72.6627753303966
 20
13.7271334978108
 30
0.0
 11
-72.56277533039659
 21
13.715615942701
 31
0.0
  0
LINE
  5
F1041C
330
261
100
AcDbEntity
  8
Geo
100
AcDbLine
 10
-72.56277533039659
 20
13.715615942701
 30
0.0
 11
-72.46277533039659
 21
13.7020901184399
 31
0.0
  0
LINE
  5
F1041E
330
261
100
AcDbEntity
  8
Geo
100
AcDbLine
 10
-72.46277533039659
 20
13.7020901184399
 30
0.0
 11
-72.3627753303966
 21
13.6865651981323
 31
0.0
  0
LINE
  5
F10420
330
261
100
AcDbEntity
  8
Geo
100
AcDbLine
 10
-72.3627753303966
 20
13.6865651981323
 30
0.0
 11
-72.2627753303966
 21
13.6690517106539
 31
0.0
  0
LINE
  5
F10422
330
261
100
AcDbEntity
  8
Geo
100
AcDbLine
 10
-72.2627753303966
 20
13.6690517106539
 30
0.0
 11
-72.1627753303966
 21
13.6495615335103
 31
0.0
  0
LINE
  5
F10424
330
261
100
AcDbEntity
  8
Geo
100
AcDbLine
 10
-72.1627753303966
 20
13.6495615335103
 30
0.0
 11
-72.06277533039659
 21
13.6281078847823
 31
0.0
  0
LINE
  5
F10426
330
261
100
AcDbEntity
  8
Geo
100
AcDbLine
 10
-72.06277533039659
 20
13.6281078847823
 30
0.0
 11
-71.96277533039659
 21
13.6047053141613
 31
0.0
  0
LINE
  5
F10428
330
261
100
AcDbEntity
  8
Geo
100
AcDbLine
 10
-71.96277533039659
 20
13.6047053141613
 30
0.0
 11
-71.8627753303966
 21
13.5793696930815
 31
0.0
  0
LINE
  5
F1042A
330
261
100
AcDbEntity
  8
Geo
100
AcDbLine
 10
-71.8627753303966
 20
13.5793696930815
 30
0.0
 11
-71.76277533039659
 21
13.5521182039565
 31
0.0
  0
LINE
  5
F1042C
330
261
100
AcDbEntity
  8
Geo
100
AcDbLine
 10
-71.76277533039659
 20
13.5521182039565
 30
0.0
 11
-71.6627753303966
 21
13.5229693285263
 31
0.0
  0
LINE
  5
F1042E
330
261
100
AcDbEntity
  8
Geo
100
AcDbLine
 10
-71.6627753303966
 20
13.5229693285263
 30
0.0
 11
-71.56277533039659
 21
13.4919428353227
 31
0.0
  0
LINE
  5
F10430
330
261
100
AcDbEntity
  8
Geo
100
AcDbLine
 10
-71.56277533039659
 20
13.4919428353227
 30
0.0
 11
-71.46277533039659
 21
13.4590597662628
 31
0.0
  0
LINE
  5
F10432
330
261
100
AcDbEntity
  8
Geo
100
AcDbLine
 10
-71.46277533039659
 20
13.4590597662628
 30
0.0
 11
-71.3627753303966
 21
13.4243424223785
 31
0.0
  0
LINE
  5
F10434
330
261
100
AcDbEntity
  8
Geo
100
AcDbLine
 10
-71.3627753303966
 20
13.4243424223785
 30
0.0
 11
-71.26277533039659
 21
13.387814348692
 31
0.0
  0
LINE
  5
F10436
330
261
100
AcDbEntity
  8
Geo
100
AcDbLine
 10
-71.26277533039659
 20
13.387814348692
 30
0.0
 11
-71.1627753303966
 21
13.3495003182478
 31
0.0
  0
LINE
  5
F10438
330
261
100
AcDbEntity
  8
Geo
100
AcDbLine
 10
-71.1627753303966
 20
13.3495003182478
 30
0.0
 11
-71.06277533039659
 21
13.309426315312
 31
0.0
  0
LINE
  5
F1043A
330
261
100
AcDbEntity
  8
Geo
100
AcDbLine
 10
-71.06277533039659
 20
13.309426315312
 30
0.0
 11
-70.9627753303966
 21
13.2676195177498
 31
0.0
  0
LINE
  5
F1043C
330
261
100
AcDbEntity
  8
Geo
100
AcDbLine
 10
-70.9627753303966
 20
13.2676195177498
 30
0.0
 11
-70.8627753303966
 21
13.2241082785935
 31
0.0
  0
LINE
  5
F1043E
330
261
100
AcDbEntity
  8
Geo
100
AcDbLine
 10
-70.8627753303966
 20
13.2241082785935
 30
0.0
 11
-70.76277533039659
 21
13.1789221068141
 31
0.0
  0
LINE
  5
F10440
330
261
100
AcDbEntity
  8
Geo
100
AcDbLine
 10
-70.76277533039659
 20
13.1789221068141
 30
0.0
 11
-70.66277533039659
 21
13.1320916473085
 31
0.0
  0
LINE
  5
F10442
330
261
100
AcDbEntity
  8
Geo
100
AcDbLine
 10
-70.66277533039659
 20
13.1320916473085
 30
0.0
 11
-70.56277533039659
 21
13.083648660116
 31
0.0
  0
LINE
  5
F10444
330
261
100
AcDbEntity
  8
Geo
100
AcDbLine
 10
-70.56277533039659
 20
13.083648660116
 30
0.0
 11
-70.4627753303966
 21
13.0336259988793
 31
0.0
  0
LINE
  5
F10446
330
261
100
AcDbEntity
  8
Geo
100
AcDbLine
 10
-70.4627753303966
 20
13.0336259988793
 30
0.0
 11
-70.3627753303966
 21
12.9820575885632
 31
0.0
  0
LINE
  5
F10448
330
261
100
AcDbEntity
  8
Geo
100
AcDbLine
 10
-70.3627753303966
 20
12.9820575885632
 30
0.0
 11
-70.2627753303966
 21
12.9289784024472
 31
0.0
  0
LINE
  5
F1044A
330
261
100
AcDbEntity
  8
Geo
100
AcDbLine
 10
-70.2627753303966
 20
12.9289784024472
 30
0.0
 11
-70.1627753303966
 21
12.8744244384065
 31
0.0
  0
LINE
  5
F1044C
330
261
100
AcDbEntity
  8
Geo
100
AcDbLine
 10
-70.1627753303966
 20
12.8744244384065
 30
0.0
 11
-70.06277533039661
 21
12.8184326944991
 31
0.0
  0
LINE
  5
F1044E
330
261
100
AcDbEntity
  8
Geo
100
AcDbLine
 10
-70.06277533039661
 20
12.8184326944991
 30
0.0
 11
-69.96277533039661
 21
12.7610411438733
 31
0.0
  0
LINE
  5
F10450
330
261
100
AcDbEntity
  8
Geo
100
AcDbLine
 10
-69.96277533039661
 20
12.7610411438733
 30
0.0
 11
-69.8627753303966
 21
12.7022887090153
 31
0.0
  0
LINE
  5
F10452
330
261
100
AcDbEntity
  8
Geo
100
AcDbLine
 10
-69.8627753303966
 20
12.7022887090153
 30
0.0
 11
-69.7627753303966
 21
12.6422152353519
 31
0.0
  0
LINE
  5
F10454
330
261
100
AcDbEntity
  8
Geo
100
AcDbLine
 10
-69.7627753303966
 20
12.6422152353519
 30
0.0
 11
-69.6627753303966
 21
12.5808614642278
 31
0.0
  0
LINE
  5
F10456
330
261
100
AcDbEntity
  8
Geo
100
AcDbLine
 10
-69.6627753303966
 20
12.5808614642278
 30
0.0
 11
-69.5627753303966
 21
12.5182690052751
 31
0.0
  0
LINE
  5
F10458
330
261
100
AcDbEntity
  8
Geo
100
AcDbLine
 10
-69.5627753303966
 20
12.5182690052751
 30
0.0
 11
-69.46277533039661
 21
12.4544803081938
 31
0.0
  0
LINE
  5
F1045A
330
261
100
AcDbEntity
  8
Geo
100
AcDbLine
 10
-69.46277533039661
 20
12.4544803081938
 30
0.0
 11
-69.3627753303966
 21
12.3895386339632
 31
0.0
  0
LINE
  5
F1045C
330
261
100
AcDbEntity
  8
Geo
100
AcDbLine
 10
-69.3627753303966
 20
12.3895386339632
 30
0.0
 11
-69.26277533039661
 21
12.3234880255022
 31
0.0
  0
LINE
  5
F1045E
330
261
100
AcDbEntity
  8
Geo
100
AcDbLine
 10
-69.26277533039661
 20
12.3234880255022
 30
0.0
 11
-69.1627753303966
 21
12.2563732778001
 31
0.0
  0
LINE
  5
F10460
330
261
100
AcDbEntity
  8
Geo
100
AcDbLine
 10
-69.1627753303966
 20
12.2563732778001
 30
0.0
 11
-69.0627753303966
 21
12.1882399075366
 31
0.0
  0
LINE
  5
F10462
330
261
100
AcDbEntity
  8
Geo
100
AcDbLine
 10
-69.0627753303966
 20
12.1882399075366
 30
0.0
 11
-68.96277533039661
 21
12.1191341222133
 31
0.0
  0
LINE
  5
F10464
330
261
100
AcDbEntity
  8
Geo
100
AcDbLine
 10
-68.96277533039661
 20
12.1191341222133
 30
0.0
 11
-68.8627753303966
 21
12.0491027888155
 31
0.0
  0
LINE
  5
F10466
330
261
100
AcDbEntity
  8
Geo
100
AcDbLine
 10
-68.8627753303966
 20
12.0491027888155
 30
0.0
 11
-68.76277533039661
 21
11.9781934020281
 31
0.0
  0
LINE
  5
F10468
330
261
100
AcDbEntity
  8
Geo
100
AcDbLine
 10
-68.76277533039661
 20
11.9781934020281
 30
0.0
 11
-68.6627753303966
 21
11.9064540520244
 31
0.0
  0
LINE
  5
F1046A
330
261
100
AcDbEntity
  8
Geo
100
AcDbLine
 10
-68.6627753303966
 20
11.9064540520244
 30
0.0
 11
-68.5627753303966
 21
11.8339333918522
 31
0.0
  0
LINE
  5
F1046C
330
261
100
AcDbEntity
  8
Geo
100
AcDbLine
 10
-68.5627753303966
 20
11.8339333918522
 30
0.0
 11
-68.46277533039661
 21
11.7606806044376
 31
0.0
  0
LINE
  5
F1046E
330
261
100
AcDbEntity
  8
Geo
100
AcDbLine
 10
-68.46277533039661
 20
11.7606806044376
 30
0.0
 11
-68.3627753303966
 21
11.6867453692293
 31
0.0
  0
LINE
  5
F10470
330
261
100
AcDbEntity
  8
Geo
100
AcDbLine
 10
-68.3627753303966
 20
11.6867453692293
 30
0.0
 11
-68.26277533039661
 21
11.6121778285067
 31
0.0
  0
LINE
  5
F10472
330
261
100
AcDbEntity
  8
Geo
100
AcDbLine
 10
-68.26277533039661
 20
11.6121778285067
 30
0.0
 11
-68.16277533039659
 21
11.5370285533737
 31
0.0
  0
LINE
  5
F10474
330
261
100
AcDbEntity
  8
Geo
100
AcDbLine
 10
-68.16277533039659
 20
11.5370285533737
 30
0.0
 11
-68.0627753303966
 21
11.4613485094619
 31
0.0
  0
LINE
  5
F10476
330
261
100
AcDbEntity
  8
Geo
100
AcDbLine
 10
-68.0627753303966
 20
11.4613485094619
 30
0.0
 11
-68.0627753303966
 21
11.4613485094618
 31
0.0
  0
LINE
  5
F10478
330
261
100
AcDbEntity
  8
Geo
100
AcDbLine
 10
-68.0627753303966
 20
11.4613485094618
 30
0.0
 11
-68.0627753303966
 21
11.402436574202
 31
0.0
  0
LINE
  5
F1047A
330
261
100
AcDbEntity
  8
Geo
100
AcDbLine
 10
-68.0627753303966
 20
11.402436574202
 30
0.0
 11
-68.0627753303966
 21
11.4613485094618
 31
0.0
  0
LINE
  5
F1047C
330
261
100
AcDbEntity
  8
Geo
100
AcDbLine
 10
-68.0627753303966
 20
11.4613485094618
 30
0.0
 11
-68.0627753303966
 21
11.4613485094618
 31
0.0
  0
LINE
  5
F1047E
330
261
100
AcDbEntity
  8
Geo
100
AcDbLine
 10
-68.0627753303966
 20
11.4613485094618
 30
0.0
 11
-67.96277533039661
 21
11.322034235513
 31
0.0
  0
LINE
  5
F10480
330
261
100
AcDbEntity
  8
Geo
100
AcDbLine
 10
-67.96277533039661
 20
11.322034235513
 30
0.0
 11
-67.8627753303966
 21
11.2396213166219
 31
0.0
  0
LINE
  5
F10482
330
261
100
AcDbEntity
  8
Geo
100
AcDbLine
 10
-67.8627753303966
 20
11.2396213166219
 30
0.0
 11
-67.7627753303966
 21
11.1552479617988
 31
0.0
  0
LINE
  5
F10484
330
261
100
AcDbEntity
  8
Geo
100
AcDbLine
 10
-67.7627753303966
 20
11.1552479617988
 30
0.0
 11
-67.6627753303966
 21
11.0689728510974
 31
0.0
  0
LINE
  5
F10486
330
261
100
AcDbEntity
  8
Geo
100
AcDbLine
 10
-67.6627753303966
 20
11.0689728510974
 30
0.0
 11
-67.56277533039661
 21
10.9808635837734
 31
0.0
  0
LINE
  5
F10488
330
261
100
AcDbEntity
  8
Geo
100
AcDbLine
 10
-67.56277533039661
 20
10.9808635837734
 30
0.0
 11
-67.46277533039661
 21
10.8909970517879
 31
0.0
  0
LINE
  5
F1048A
330
261
100
AcDbEntity
  8
Geo
100
AcDbLine
 10
-67.46277533039661
 20
10.8909970517879
 30
0.0
 11
-67.3627753303966
 21
10.7994598007648
 31
0.0
  0
LINE
  5
F1048C
330
261
100
AcDbEntity
  8
Geo
100
AcDbLine
 10
-67.3627753303966
 20
10.7994598007648
 30
0.0
 11
-67.2627753303966
 21
10.7063483755996
 31
0.0
  0
LINE
  5
F1048E
330
261
100
AcDbEntity
  8
Geo
100
AcDbLine
 10
-67.2627753303966
 20
10.7063483755996
 30
0.0
 11
-67.1627753303966
 21
10.6117696477494
 31
0.0
  0
LINE
  5
F10490
330
261
100
AcDbEntity
  8
Geo
100
AcDbLine
 10
-67.1627753303966
 20
10.6117696477494
 30
0.0
 11
-67.0627753303966
 21
10.5158411210628
 31
0.0
  0
LINE
  5
F10492
330
261
100
AcDbEntity
  8
Geo
100
AcDbLine
 10
-67.0627753303966
 20
10.5158411210628
 30
0.0
 11
-66.96277533039661
 21
10.4186912128477
 31
0.0
  0
LINE
  5
F10494
330
261
100
AcDbEntity
  8
Geo
100
AcDbLine
 10
-66.96277533039661
 20
10.4186912128477
 30
0.0
 11
-66.8627753303966
 21
10.3204595067179
 31
0.0
  0
LINE
  5
F10496
330
261
100
AcDbEntity
  8
Geo
100
AcDbLine
 10
-66.8627753303966
 20
10.3204595067179
 30
0.0
 11
-66.76277533039661
 21
10.2212969736061
 31
0.0
  0
LINE
  5
F10498
330
261
100
AcDbEntity
  8
Geo
100
AcDbLine
 10
-66.76277533039661
 20
10.2212969736061
 30
0.0
 11
-66.6627753303966
 21
10.1213661571949
 31
0.0
  0
LINE
  5
F1049A
330
261
100
AcDbEntity
  8
Geo
100
AcDbLine
 10
-66.6627753303966
 20
10.1213661571949
 30
0.0
 11
-66.5627753303966
 21
10.0208413198848
 31
0.0
  0
LINE
  5
F1049C
330
261
100
AcDbEntity
  8
Geo
100
AcDbLine
 10
-66.5627753303966
 20
10.0208413198848
 30
0.0
 11
-66.46277533039661
 21
9.91990854530497
 31
0.0
  0
LINE
  5
F1049E
330
261
100
AcDbEntity
  8
Geo
100
AcDbLine
 10
-66.46277533039661
 20
9.91990854530497
 30
0.0
 11
-66.3627753303966
 21
9.81876579327206
 31
0.0
  0
LINE
  5
F104A0
330
261
100
AcDbEntity
  8
Geo
100
AcDbLine
 10
-66.3627753303966
 20
9.81876579327206
 30
0.0
 11
-66.26277533039661
 21
9.71762290302064
 31
0.0
  0
LINE
  5
F104A2
330
261
100
AcDbEntity
  8
Geo
100
AcDbLine
 10
-66.26277533039661
 20
9.71762290302064
 30
0.0
 11
-66.1627753303966
 21
9.616701540469689
 31
0.0
  0
LINE
  5
F104A4
330
261
100
AcDbEntity
  8
Geo
100
AcDbLine
 10
-66.1627753303966
 20
9.616701540469689
 30
0.0
 11
-66.0627753303966
 21
9.51623508525083
 31
0.0
  0
LINE
  5
F104A6
330
261
100
AcDbEntity
  8
Geo
100
AcDbLine
 10
-66.0627753303966
 20
9.51623508525083
 30
0.0
 11
-65.96277533039661
 21
9.416468453213608
 31
0.0
  0
LINE
  5
F104A8
330
261
100
AcDbEntity
  8
Geo
100
AcDbLine
 10
-65.96277533039661
 20
9.416468453213608
 30
0.0
 11
-65.8627753303966
 21
9.31765785014066
 31
0.0
  0
LINE
  5
F104AA
330
261
100
AcDbEntity
  8
Geo
100
AcDbLine
 10
-65.8627753303966
 20
9.31765785014066
 30
0.0
 11
-65.76277533039661
 21
9.220070452454258
 31
0.0
  0
LINE
  5
F104AC
330
261
100
AcDbEntity
  8
Geo
100
AcDbLine
 10
-65.76277533039661
 20
9.220070452454258
 30
0.0
 11
-65.66277533039659
 21
9.12398401078005
 31
0.0
  0
LINE
  5
F104AE
330
261
100
AcDbEntity
  8
Geo
100
AcDbLine
 10
-65.66277533039659
 20
9.12398401078005
 30
0.0
 11
-65.5627753303966
 21
9.029686372354239
 31
0.0
  0
LINE
  5
F104B0
330
261
100
AcDbEntity
  8
Geo
100
AcDbLine
 10
-65.5627753303966
 20
9.029686372354239
 30
0.0
 11
-65.46277533039661
 21
8.937474918421811
 31
0.0
  0
LINE
  5
F104B2
330
261
100
AcDbEntity
  8
Geo
100
AcDbLine
 10
-65.46277533039661
 20
8.937474918421811
 30
0.0
 11
-65.3627753303966
 21
8.847655912977689
 31
0.0
  0
LINE
  5
F104B4
330
261
100
AcDbEntity
  8
Geo
100
AcDbLine
 10
-65.3627753303966
 20
8.847655912977689
 30
0.0
 11
-65.2627753303966
 21
8.760543759452609
 31
0.0
  0
LINE
  5
F104B6
330
261
100
AcDbEntity
  8
Geo
100
AcDbLine
 10
-65.2627753303966
 20
8.760543759452609
 30
0.0
 11
-65.1627753303966
 21
8.67646016224403
 31
0.0
  0
LINE
  5
F104B8
330
261
100
AcDbEntity
  8
Geo
100
AcDbLine
 10
-65.1627753303966
 20
8.67646016224403
 30
0.0
 11
-65.06277533039661
 21
8.59573319034208
 31
0.0
  0
LINE
  5
F104BA
330
261
100
AcDbEntity
  8
Geo
100
AcDbLine
 10
-65.06277533039661
 20
8.59573319034208
 30
0.0
 11
-65.06277533039661
 21
8.59573319034207
 31
0.0
  0
LINE
  5
F104BC
330
261
100
AcDbEntity
  8
Geo
100
AcDbLine
 10
-78.06277533039659
 20
13.7543799169398
 30
0.0
 11
-77.9627753303966
 21
13.7536839070288
 31
0.0
  0
LINE
  5
F104BE
330
261
100
AcDbEntity
  8
Geo
100
AcDbLine
 10
-77.9627753303966
 20
13.7536839070288
 30
0.0
 11
-77.8627753303966
 21
13.7509538105806
 31
0.0
  0
LINE
  5
F104C0
330
261
100
AcDbEntity
  8
Geo
100
AcDbLine
 10
-77.8627753303966
 20
13.7509538105806
 30
0.0
 11
-77.76277533039659
 21
13.7461914791246
 31
0.0
  0
LINE
  5
F104C2
330
261
100
AcDbEntity
  8
Geo
100
AcDbLine
 10
-77.76277533039659
 20
13.7461914791246
 30
0.0
 11
-77.6627753303966
 21
13.7394001424355
 31
0.0
  0
LINE
  5
F104C4
330
261
100
AcDbEntity
  8
Geo
100
AcDbLine
 10
-77.6627753303966
 20
13.7394001424355
 30
0.0
 11
-77.56277533039659
 21
13.730584406343
 31
0.0
  0
LINE
  5
F104C6
330
261
100
AcDbEntity
  8
Geo
100
AcDbLine
 10
-77.56277533039659
 20
13.730584406343
 30
0.0
 11
-77.46277533039659
 21
13.7197502496081
 31
0.0
  0
LINE
  5
F104C8
330
261
100
AcDbEntity
  8
Geo
100
AcDbLine
 10
-77.46277533039659
 20
13.7197502496081
 30
0.0
 11
-77.3627753303966
 21
13.7069050198685
 31
0.0
  0
LINE
  5
F104CA
330
261
100
AcDbEntity
  8
Geo
100
AcDbLine
 10
-77.3627753303966
 20
13.7069050198685
 30
0.0
 11
-77.2627753303966
 21
13.6920574286551
 31
0.0
  0
LINE
  5
F104CC
330
261
100
AcDbEntity
  8
Geo
100
AcDbLine
 10
-77.2627753303966
 20
13.6920574286551
 30
0.0
 11
-77.1627753303966
 21
13.6752175454844
 31
0.0
  0
LINE
  5
F104CE
330
261
100
AcDbEntity
  8
Geo
100
AcDbLine
 10
-77.1627753303966
 20
13.6752175454844
 30
0.0
 11
-77.06277533039659
 21
13.6563967910292
 31
0.0
  0
LINE
  5
F104D0
330
261
100
AcDbEntity
  8
Geo
100
AcDbLine
 10
-77.06277533039659
 20
13.6563967910292
 30
0.0
 11
-76.96277533039659
 21
13.6356079293731
 31
0.0
  0
LINE
  5
F104D2
330
261
100
AcDbEntity
  8
Geo
100
AcDbLine
 10
-76.96277533039659
 20
13.6356079293731
 30
0.0
 11
-76.8627753303966
 21
13.6128650593543
 31
0.0
  0
LINE
  5
F104D4
330
261
100
AcDbEntity
  8
Geo
100
AcDbLine
 10
-76.8627753303966
 20
13.6128650593543
 30
0.0
 11
-76.76277533039659
 21
13.5881836050035
 31
0.0
  0
LINE
  5
F104D6
330
261
100
AcDbEntity
  8
Geo
100
AcDbLine
 10
-76.76277533039659
 20
13.5881836050035
 30
0.0
 11
-76.6627753303966
 21
13.5615803050837
 31
0.0
  0
LINE
  5
F104D8
330
261
100
AcDbEntity
  8
Geo
100
AcDbLine
 10
-76.6627753303966
 20
13.5615803050837
 30
0.0
 11
-76.56277533039659
 21
13.533073201738
 31
0.0
  0
LINE
  5
F104DA
330
261
100
AcDbEntity
  8
Geo
100
AcDbLine
 10
-76.56277533039659
 20
13.533073201738
 30
0.0
 11
-76.46277533039659
 21
13.5026816282537
 31
0.0
  0
LINE
  5
F104DC
330
261
100
AcDbEntity
  8
Geo
100
AcDbLine
 10
-76.46277533039659
 20
13.5026816282537
 30
0.0
 11
-76.3627753303966
 21
13.4704261959505
 31
0.0
  0
LINE
  5
F104DE
330
261
100
AcDbEntity
  8
Geo
100
AcDbLine
 10
-76.3627753303966
 20
13.4704261959505
 30
0.0
 11
-76.26277533039659
 21
13.436328780202
 31
0.0
  0
LINE
  5
F104E0
330
261
100
AcDbEntity
  8
Geo
100
AcDbLine
 10
-76.26277533039659
 20
13.436328780202
 30
0.0
 11
-76.1627753303966
 21
13.4004125056003
 31
0.0
  0
LINE
  5
F104E2
330
261
100
AcDbEntity
  8
Geo
100
AcDbLine
 10
-76.1627753303966
 20
13.4004125056003
 30
0.0
 11
-76.06277533039659
 21
13.3627017302727
 31
0.0
  0
LINE
  5
F104E4
330
261
100
AcDbEntity
  8
Geo
100
AcDbLine
 10
-76.06277533039659
 20
13.3627017302727
 30
0.0
 11
-75.9627753303966
 21
13.3232220293625
 31
0.0
  0
LINE
  5
F104E6
330
261
100
AcDbEntity
  8
Geo
100
AcDbLine
 10
-75.9627753303966
 20
13.3232220293625
 30
0.0
 11
-75.8627753303966
 21
13.2820001776839
 31
0.0
  0
LINE
  5
F104E8
330
261
100
AcDbEntity
  8
Geo
100
AcDbLine
 10
-75.8627753303966
 20
13.2820001776839
 30
0.0
 11
-75.76277533039659
 21
13.2390641315638
 31
0.0
  0
LINE
  5
F104EA
330
261
100
AcDbEntity
  8
Geo
100
AcDbLine
 10
-75.76277533039659
 20
13.2390641315638
 30
0.0
 11
-75.66277533039659
 21
13.194443009882
 31
0.0
  0
LINE
  5
F104EC
330
261
100
AcDbEntity
  8
Geo
100
AcDbLine
 10
-75.66277533039659
 20
13.194443009882
 30
0.0
 11
-75.56277533039659
 21
13.1481670743229
 31
0.0
  0
LINE
  5
F104EE
330
261
100
AcDbEntity
  8
Geo
100
AcDbLine
 10
-75.56277533039659
 20
13.1481670743229
 30
0.0
 11
-75.4627753303966
 21
13.100267708852
 31
0.0
  0
LINE
  5
F104F0
330
261
100
AcDbEntity
  8
Geo
100
AcDbLine
 10
-75.4627753303966
 20
13.100267708852
 30
0.0
 11
-75.3627753303966
 21
13.0507773984324
 31
0.0
  0
LINE
  5
F104F2
330
261
100
AcDbEntity
  8
Geo
100
AcDbLine
 10
-75.3627753303966
 20
13.0507773984324
 30
0.0
 11
-75.26277533039659
 21
12.9997297069927
 31
0.0
  0
LINE
  5
F104F4
330
261
100
AcDbEntity
  8
Geo
100
AcDbLine
 10
-75.26277533039659
 20
12.9997297069927
 30
0.0
 11
-75.1627753303966
 21
12.9471592546651
 31
0.0
  0
LINE
  5
F104F6
330
261
100
AcDbEntity
  8
Geo
100
AcDbLine
 10
-75.1627753303966
 20
12.9471592546651
 30
0.0
 11
-75.06277533039659
 21
12.8931016943057
 31
0.0
  0
LINE
  5
F104F8
330
261
100
AcDbEntity
  8
Geo
100
AcDbLine
 10
-75.06277533039659
 20
12.8931016943057
 30
0.0
 11
-74.96277533039659
 21
12.8375936873153
 31
0.0
  0
LINE
  5
F104FA
330
261
100
AcDbEntity
  8
Geo
100
AcDbLine
 10
-74.96277533039659
 20
12.8375936873153
 30
0.0
 11
-74.8627753303966
 21
12.7806728787761
 31
0.0
  0
LINE
  5
F104FC
330
261
100
AcDbEntity
  8
Geo
100
AcDbLine
 10
-74.8627753303966
 20
12.7806728787761
 30
0.0
 11
-74.7627753303966
 21
12.7223778719206
 31
0.0
  0
LINE
  5
F104FE
330
261
100
AcDbEntity
  8
Geo
100
AcDbLine
 10
-74.7627753303966
 20
12.7223778719206
 30
0.0
 11
-74.6627753303966
 21
12.6627482019518
 31
0.0
  0
LINE
  5
F10500
330
261
100
AcDbEntity
  8
Geo
100
AcDbLine
 10
-74.6627753303966
 20
12.6627482019518
 30
0.0
 11
-74.56277533039659
 21
12.6018243092301
 31
0.0
  0
LINE
  5
F10502
330
261
100
AcDbEntity
  8
Geo
100
AcDbLine
 10
-74.56277533039659
 20
12.6018243092301
 30
0.0
 11
-74.46277533039659
 21
12.5396475118475
 31
0.0
  0
LINE
  5
F10504
330
261
100
AcDbEntity
  8
Geo
100
AcDbLine
 10
-74.46277533039659
 20
12.5396475118475
 30
0.0
 11
-74.3627753303966
 21
12.4762599776059
 31
0.0
  0
LINE
  5
F10506
330
261
100
AcDbEntity
  8
Geo
100
AcDbLine
 10
-74.3627753303966
 20
12.4762599776059
 30
0.0
 11
-74.26277533039659
 21
12.4117046954191
 31
0.0
  0
LINE
  5
F10508
330
261
100
AcDbEntity
  8
Geo
100
AcDbLine
 10
-74.26277533039659
 20
12.4117046954191
 30
0.0
 11
-74.1627753303966
 21
12.3460254461581
 31
0.0
  0
LINE
  5
F1050A
330
261
100
AcDbEntity
  8
Geo
100
AcDbLine
 10
-74.1627753303966
 20
12.3460254461581
 30
0.0
 11
-74.06277533039659
 21
12.2792667729592
 31
0.0
  0
LINE
  5
F1050C
330
261
100
AcDbEntity
  8
Geo
100
AcDbLine
 10
-74.06277533039659
 20
12.2792667729592
 30
0.0
 11
-73.96277533039659
 21
12.2114739510155
 31
0.0
  0
LINE
  5
F1050E
330
261
100
AcDbEntity
  8
Geo
100
AcDbLine
 10
-73.96277533039659
 20
12.2114739510155
 30
0.0
 11
-73.8627753303966
 21
12.1426929568713
 31
0.0
  0
LINE
  5
F10510
330
261
100
AcDbEntity
  8
Geo
100
AcDbLine
 10
-73.8627753303966
 20
12.1426929568713
 30
0.0
 11
-73.76277533039659
 21
12.0729704372412
 31
0.0
  0
LINE
  5
F10512
330
261
100
AcDbEntity
  8
Geo
100
AcDbLine
 10
-73.76277533039659
 20
12.0729704372412
 30
0.0
 11
-73.6627753303966
 21
12.0023536773751
 31
0.0
  0
LINE
  5
F10514
330
261
100
AcDbEntity
  8
Geo
100
AcDbLine
 10
-73.6627753303966
 20
12.0023536773751
 30
0.0
 11
-73.56277533039659
 21
11.9308905689892
 31
0.0
  0
LINE
  5
F10516
330
261
100
AcDbEntity
  8
Geo
100
AcDbLine
 10
-73.56277533039659
 20
11.9308905689892
 30
0.0
 11
-73.4627753303966
 21
11.8586295777862
 31
0.0
  0
LINE
  5
F10518
330
261
100
AcDbEntity
  8
Geo
100
AcDbLine
 10
-73.4627753303966
 20
11.8586295777862
 30
0.0
 11
-73.3627753303966
 21
11.785619710587
 31
0.0
  0
LINE
  5
F1051A
330
261
100
AcDbEntity
  8
Geo
100
AcDbLine
 10
-73.3627753303966
 20
11.785619710587
 30
0.0
 11
-73.26277533039659
 21
11.7119104820938
 31
0.0
  0
LINE
  5
F1051C
330
261
100
AcDbEntity
  8
Geo
100
AcDbLine
 10
-73.26277533039659
 20
11.7119104820938
 30
0.0
 11
-73.16277533039659
 21
11.63755188131
 31
0.0
  0
LINE
  5
F1051E
330
261
100
AcDbEntity
  8
Geo
100
AcDbLine
 10
-73.16277533039659
 20
11.63755188131
 30
0.0
 11
-73.06277533039659
 21
11.5625943376381
 31
0.0
  0
LINE
  5
F10520
330
261
100
AcDbEntity
  8
Geo
100
AcDbLine
 10
-73.06277533039659
 20
11.5625943376381
 30
0.0
 11
-72.9627753303966
 21
11.4870886866789
 31
0.0
  0
LINE
  5
F10522
330
261
100
AcDbEntity
  8
Geo
100
AcDbLine
 10
-72.9627753303966
 20
11.4870886866789
 30
0.0
 11
-72.8627753303966
 21
11.411086135755
 31
0.0
  0
LINE
  5
F10524
330
261
100
AcDbEntity
  8
Geo
100
AcDbLine
 10
-72.8627753303966
 20
11.411086135755
 30
0.0
 11
-72.76277533039659
 21
11.3346382291826
 31
0.0
  0
LINE
  5
F10526
330
261
100
AcDbEntity
  8
Geo
100
AcDbLine
 10
-72.76277533039659
 20
11.3346382291826
 30
0.0
 11
-72.6627753303966
 21
11.2577968133146
 31
0.0
  0
LINE
  5
F10528
330
261
100
AcDbEntity
  8
Geo
100
AcDbLine
 10
-72.6627753303966
 20
11.2577968133146
 30
0.0
 11
-72.56277533039659
 21
11.1806140013787
 31
0.0
  0
LINE
  5
F1052A
330
261
100
AcDbEntity
  8
Geo
100
AcDbLine
 10
-72.56277533039659
 20
11.1806140013787
 30
0.0
 11
-72.46277533039659
 21
11.1031421381344
 31
0.0
  0
LINE
  5
F1052C
330
261
100
AcDbEntity
  8
Geo
100
AcDbLine
 10
-72.46277533039659
 20
11.1031421381344
 30
0.0
 11
-72.3627753303966
 21
11.02543376437369
 31
0.0
  0
LINE
  5
F1052E
330
261
100
AcDbEntity
  8
Geo
100
AcDbLine
 10
-72.3627753303966
 20
11.02543376437369
 30
0.0
 11
-72.2627753303966
 21
10.9475415812882
 31
0.0
  0
LINE
  5
F10530
330
261
100
AcDbEntity
  8
Geo
100
AcDbLine
 10
-72.2627753303966
 20
10.9475415812882
 30
0.0
 11
-72.1627753303966
 21
10.8695184147273
 31
0.0
  0
LINE
  5
F10532
330
261
100
AcDbEntity
  8
Geo
100
AcDbLine
 10
-72.1627753303966
 20
10.8695184147273
 30
0.0
 11
-72.06277533039659
 21
10.7914171793725
 31
0.0
  0
LINE
  5
F10534
330
261
100
AcDbEntity
  8
Geo
100
AcDbLine
 10
-72.06277533039659
 20
10.7914171793725
 30
0.0
 11
-71.96277533039659
 21
10.7132908428507
 31
0.0
  0
LINE
  5
F10536
330
261
100
AcDbEntity
  8
Geo
100
AcDbLine
 10
-71.96277533039659
 20
10.7132908428507
 30
0.0
 11
-71.8627753303966
 21
10.6351923898124
 31
0.0
  0
LINE
  5
F10538
330
261
100
AcDbEntity
  8
Geo
100
AcDbLine
 10
-71.8627753303966
 20
10.6351923898124
 30
0.0
 11
-71.76277533039659
 21
10.5571747859977
 31
0.0
  0
LINE
  5
F1053A
330
261
100
AcDbEntity
  8
Geo
100
AcDbLine
 10
-71.76277533039659
 20
10.5571747859977
 30
0.0
 11
-71.6627753303966
 21
10.4792909423155
 31
0.0
  0
LINE
  5
F1053C
330
261
100
AcDbEntity
  8
Geo
100
AcDbLine
 10
-71.6627753303966
 20
10.4792909423155
 30
0.0
 11
-71.56277533039659
 21
10.4015936789594
 31
0.0
  0
LINE
  5
F1053E
330
261
100
AcDbEntity
  8
Geo
100
AcDbLine
 10
-71.56277533039659
 20
10.4015936789594
 30
0.0
 11
-71.46277533039659
 21
10.3241356895861
 31
0.0
  0
LINE
  5
F10540
330
261
100
AcDbEntity
  8
Geo
100
AcDbLine
 10
-71.46277533039659
 20
10.3241356895861
 30
0.0
 11
-71.3627753303966
 21
10.2469695055782
 31
0.0
  0
LINE
  5
F10542
330
261
100
AcDbEntity
  8
Geo
100
AcDbLine
 10
-71.3627753303966
 20
10.2469695055782
 30
0.0
 11
-71.26277533039659
 21
10.1701474604186
 31
0.0
  0
LINE
  5
F10544
330
261
100
AcDbEntity
  8
Geo
100
AcDbLine
 10
-71.26277533039659
 20
10.1701474604186
 30
0.0
 11
-71.1627753303966
 21
10.0937216541978
 31
0.0
  0
LINE
  5
F10546
330
261
100
AcDbEntity
  8
Geo
100
AcDbLine
 10
-71.1627753303966
 20
10.0937216541978
 30
0.0
 11
-71.06277533039659
 21
10.0177439182804
 31
0.0
  0
LINE
  5
F10548
330
261
100
AcDbEntity
  8
Geo
100
AcDbLine
 10
-71.06277533039659
 20
10.0177439182804
 30
0.0
 11
-70.9627753303966
 21
9.942265780153309
 31
0.0
  0
LINE
  5
F1054A
330
261
100
AcDbEntity
  8
Geo
100
AcDbLine
 10
-70.9627753303966
 20
9.942265780153309
 30
0.0
 11
-70.8627753303966
 21
9.867338428480119
 31
0.0
  0
LINE
  5
F1054C
330
261
100
AcDbEntity
  8
Geo
100
AcDbLine
 10
-70.8627753303966
 20
9.867338428480119
 30
0.0
 11
-70.76277533039659
 21
9.793012678385618
 31
0.0
  0
LINE
  5
F1054E
330
261
100
AcDbEntity
  8
Geo
100
AcDbLine
 10
-70.76277533039659
 20
9.793012678385618
 30
0.0
 11
-70.66277533039659
 21
9.719338936993258
 31
0.0
  0
LINE
  5
F10550
330
261
100
AcDbEntity
  8
Geo
100
AcDbLine
 10
-70.66277533039659
 20
9.719338936993258
 30
0.0
 11
-70.56277533039659
 21
9.646367169239429
 31
0.0
  0
LINE
  5
F10552
330
261
100
AcDbEntity
  8
Geo
100
AcDbLine
 10
-70.56277533039659
 20
9.646367169239429
 30
0.0
 11
-70.4627753303966
 21
9.57414686398766
 31
0.0
  0
LINE
  5
F10554
330
261
100
AcDbEntity
  8
Geo
100
AcDbLine
 10
-70.4627753303966
 20
9.57414686398766
 30
0.0
 11
-70.3627753303966
 21
9.502727000465698
 31
0.0
  0
LINE
  5
F10556
330
261
100
AcDbEntity
  8
Geo
100
AcDbLine
 10
-70.3627753303966
 20
9.502727000465698
 30
0.0
 11
-70.2627753303966
 21
9.43215601504818
 31
0.0
  0
LINE
  5
F10558
330
261
100
AcDbEntity
  8
Geo
100
AcDbLine
 10
-70.2627753303966
 20
9.43215601504818
 30
0.0
 11
-70.1627753303966
 21
9.362481768407439
 31
0.0
  0
LINE
  5
F1055A
330
261
100
AcDbEntity
  8
Geo
100
AcDbLine
 10
-70.1627753303966
 20
9.362481768407439
 30
0.0
 11
-70.06277533039661
 21
9.293751513054839
 31
0.0
  0
LINE
  5
F1055C
330
261
100
AcDbEntity
  8
Geo
100
AcDbLine
 10
-70.06277533039661
 20
9.293751513054839
 30
0.0
 11
-69.96277533039661
 21
9.22601186129447
 31
0.0
  0
LINE
  5
F1055E
330
261
100
AcDbEntity
  8
Geo
100
AcDbLine
 10
-69.96277533039661
 20
9.22601186129447
 30
0.0
 11
-69.8627753303966
 21
9.159308753611069
 31
0.0
  0
LINE
  5
F10560
330
261
100
AcDbEntity
  8
Geo
100
AcDbLine
 10
-69.8627753303966
 20
9.159308753611069
 30
0.0
 11
-69.7627753303966
 21
9.093687427513529
 31
0.0
  0
LINE
  5
F10562
330
261
100
AcDbEntity
  8
Geo
100
AcDbLine
 10
-69.7627753303966
 20
9.093687427513529
 30
0.0
 11
-69.6627753303966
 21
9.02919238685523
 31
0.0
  0
LINE
  5
F10564
330
261
100
AcDbEntity
  8
Geo
100
AcDbLine
 10
-69.6627753303966
 20
9.02919238685523
 30
0.0
 11
-69.5627753303966
 21
8.965867371651869
 31
0.0
  0
LINE
  5
F10566
330
261
100
AcDbEntity
  8
Geo
100
AcDbLine
 10
-69.5627753303966
 20
8.965867371651869
 30
0.0
 11
-69.46277533039661
 21
8.90375532841732
 31
0.0
  0
LINE
  5
F10568
330
261
100
AcDbEntity
  8
Geo
100
AcDbLine
 10
-69.46277533039661
 20
8.90375532841732
 30
0.0
 11
-69.3627753303966
 21
8.842898381037649
 31
0.0
  0
LINE
  5
F1056A
330
261
100
AcDbEntity
  8
Geo
100
AcDbLine
 10
-69.3627753303966
 20
8.842898381037649
 30
0.0
 11
-69.26277533039661
 21
8.78333780220308
 31
0.0
  0
LINE
  5
F1056C
330
261
100
AcDbEntity
  8
Geo
100
AcDbLine
 10
-69.26277533039661
 20
8.78333780220308
 30
0.0
 11
-69.1627753303966
 21
8.725113985417129
 31
0.0
  0
LINE
  5
F1056E
330
261
100
AcDbEntity
  8
Geo
100
AcDbLine
 10
-69.1627753303966
 20
8.725113985417129
 30
0.0
 11
-69.0627753303966
 21
8.66826641760212
 31
0.0
  0
LINE
  5
F10570
330
261
100
AcDbEntity
  8
Geo
100
AcDbLine
 10
-69.0627753303966
 20
8.66826641760212
 30
0.0
 11
-68.96277533039661
 21
8.6128336523194
 31
0.0
  0
LINE
  5
F10572
330
261
100
AcDbEntity
  8
Geo
100
AcDbLine
 10
-68.96277533039661
 20
8.6128336523194
 30
0.0
 11
-68.8627753303966
 21
8.558853283622699
 31
0.0
  0
LINE
  5
F10574
330
261
100
AcDbEntity
  8
Geo
100
AcDbLine
 10
-68.8627753303966
 20
8.558853283622699
 30
0.0
 11
-68.76277533039661
 21
8.506361920562099
 31
0.0
  0
LINE
  5
F10576
330
261
100
AcDbEntity
  8
Geo
100
AcDbLine
 10
-68.76277533039661
 20
8.506361920562099
 30
0.0
 11
-68.6627753303966
 21
8.455395162356099
 31
0.0
  0
LINE
  5
F10578
330
261
100
AcDbEntity
  8
Geo
100
AcDbLine
 10
-68.6627753303966
 20
8.455395162356099
 30
0.0
 11
-68.5627753303966
 21
8.405987574248459
 31
0.0
  0
LINE
  5
F1057A
330
261
100
AcDbEntity
  8
Geo
100
AcDbLine
 10
-68.5627753303966
 20
8.405987574248459
 30
0.0
 11
-68.46277533039661
 21
8.358172664066419
 31
0.0
  0
LINE
  5
F1057C
330
261
100
AcDbEntity
  8
Geo
100
AcDbLine
 10
-68.46277533039661
 20
8.358172664066419
 30
0.0
 11
-68.3627753303966
 21
8.311982859495889
 31
0.0
  0
LINE
  5
F1057E
330
261
100
AcDbEntity
  8
Geo
100
AcDbLine
 10
-68.3627753303966
 20
8.311982859495889
 30
0.0
 11
-68.26277533039661
 21
8.267449486089279
 31
0.0
  0
LINE
  5
F10580
330
261
100
AcDbEntity
  8
Geo
100
AcDbLine
 10
-68.26277533039661
 20
8.267449486089279
 30
0.0
 11
-68.16277533039659
 21
8.224602746020769
 31
0.0
  0
LINE
  5
F10582
330
261
100
AcDbEntity
  8
Geo
100
AcDbLine
 10
-68.16277533039659
 20
8.224602746020769
 30
0.0
 11
-68.0627753303966
 21
8.183471697603419
 31
0.0
  0
LINE
  5
F10584
330
261
100
AcDbEntity
  8
Geo
100
AcDbLine
 10
-68.0627753303966
 20
8.183471697603419
 30
0.0
 11
-68.0627753303966
 21
8.18347169760341
 31
0.0
  0
LINE
  5
F10586
330
261
100
AcDbEntity
  8
Geo
100
AcDbLine
 10
-68.0627753303966
 20
8.18347169760341
 30
0.0
 11
-68.0627753303966
 21
8.397716163331748
 31
0.0
  0
LINE
  5
F10588
330
261
100
AcDbEntity
  8
Geo
100
AcDbLine
 10
-68.0627753303966
 20
8.397716163331748
 30
0.0
 11
-68.0627753303966
 21
8.18347169760341
 31
0.0
  0
LINE
  5
F1058A
330
261
100
AcDbEntity
  8
Geo
100
AcDbLine
 10
-68.0627753303966
 20
8.18347169760341
 30
0.0
 11
-68.0627753303966
 21
8.18347169760341
 31
0.0
  0
LINE
  5
F1058C
330
261
100
AcDbEntity
  8
Geo
100
AcDbLine
 10
-68.0627753303966
 20
8.18347169760341
 30
0.0
 11
-67.96277533039661
 21
8.40245014630357
 31
0.0
  0
LINE
  5
F1058E
330
261
100
AcDbEntity
  8
Geo
100
AcDbLine
 10
-67.96277533039661
 20
8.40245014630357
 30
0.0
 11
-67.8627753303966
 21
8.40729848761914
 31
0.0
  0
LINE
  5
F10590
330
261
100
AcDbEntity
  8
Geo
100
AcDbLine
 10
-67.8627753303966
 20
8.40729848761914
 30
0.0
 11
-67.7627753303966
 21
8.41226260435973
 31
0.0
  0
LINE
  5
F10592
330
261
100
AcDbEntity
  8
Geo
100
AcDbLine
 10
-67.7627753303966
 20
8.41226260435973
 30
0.0
 11
-67.6627753303966
 21
8.417343933788298
 31
0.0
  0
LINE
  5
F10594
330
261
100
AcDbEntity
  8
Geo
100
AcDbLine
 10
-67.6627753303966
 20
8.417343933788298
 30
0.0
 11
-67.56277533039661
 21
8.422543933008059
 31
0.0
  0
LINE
  5
F10596
330
261
100
AcDbEntity
  8
Geo
100
AcDbLine
 10
-67.56277533039661
 20
8.422543933008059
 30
0.0
 11
-67.46277533039661
 21
8.42786407861155
 31
0.0
  0
LINE
  5
F10598
330
261
100
AcDbEntity
  8
Geo
100
AcDbLine
 10
-67.46277533039661
 20
8.42786407861155
 30
0.0
 11
-67.3627753303966
 21
8.433305866319589
 31
0.0
  0
LINE
  5
F1059A
330
261
100
AcDbEntity
  8
Geo
100
AcDbLine
 10
-67.3627753303966
 20
8.433305866319589
 30
0.0
 11
-67.2627753303966
 21
8.438870810610429
 31
0.0
  0
LINE
  5
F1059C
330
261
100
AcDbEntity
  8
Geo
100
AcDbLine
 10
-67.2627753303966
 20
8.438870810610429
 30
0.0
 11
-67.1627753303966
 21
8.444560444338399
 31
0.0
  0
LINE
  5
F1059E
330
261
100
AcDbEntity
  8
Geo
100
AcDbLine
 10
-67.1627753303966
 20
8.444560444338399
 30
0.0
 11
-67.0627753303966
 21
8.450376318342369
 31
0.0
  0
LINE
  5
F105A0
330
261
100
AcDbEntity
  8
Geo
100
AcDbLine
 10
-67.0627753303966
 20
8.450376318342369
 30
0.0
 11
-66.96277533039661
 21
8.456320001043479
 31
0.0
  0
LINE
  5
F105A2
330
261
100
AcDbEntity
  8
Geo
100
AcDbLine
 10
-66.96277533039661
 20
8.456320001043479
 30
0.0
 11
-66.8627753303966
 21
8.46239307803213
 31
0.0
  0
LINE
  5
F105A4
330
261
100
AcDbEntity
  8
Geo
100
AcDbLine
 10
-66.8627753303966
 20
8.46239307803213
 30
0.0
 11
-66.76277533039661
 21
8.468597151643999
 31
0.0
  0
LINE
  5
F105A6
330
261
100
AcDbEntity
  8
Geo
100
AcDbLine
 10
-66.76277533039661
 20
8.468597151643999
 30
0.0
 11
-66.6627753303966
 21
8.474933840524949
 31
0.0
  0
LINE
  5
F105A8
330
261
100
AcDbEntity
  8
Geo
100
AcDbLine
 10
-66.6627753303966
 20
8.474933840524949
 30
0.0
 11
-66.5627753303966
 21
8.4814047791846
 31
0.0
  0
LINE
  5
F105AA
330
261
100
AcDbEntity
  8
Geo
100
AcDbLine
 10
-66.5627753303966
 20
8.4814047791846
 30
0.0
 11
-66.46277533039661
 21
8.488011617538319
 31
0.0
  0
LINE
  5
F105AC
330
261
100
AcDbEntity
  8
Geo
100
AcDbLine
 10
-66.46277533039661
 20
8.488011617538319
 30
0.0
 11
-66.3627753303966
 21
8.49475602043763
 31
0.0
  0
LINE
  5
F105AE
330
261
100
AcDbEntity
  8
Geo
100
AcDbLine
 10
-66.3627753303966
 20
8.49475602043763
 30
0.0
 11
-66.26277533039661
 21
8.50163966718865
 31
0.0
  0
LINE
  5
F105B0
330
261
100
AcDbEntity
  8
Geo
100
AcDbLine
 10
-66.26277533039661
 20
8.50163966718865
 30
0.0
 11
-66.1627753303966
 21
8.508664251058508
 31
0.0
  0
LINE
  5
F105B2
330
261
100
AcDbEntity
  8
Geo
100
AcDbLine
 10
-66.1627753303966
 20
8.508664251058508
 30
0.0
 11
-66.0627753303966
 21
8.51583147876949
 31
0.0
  0
LINE
  5
F105B4
330
261
100
AcDbEntity
  8
Geo
100
AcDbLine
 10
-66.0627753303966
 20
8.51583147876949
 30
0.0
 11
-65.96277533039661
 21
8.523143069980749
 31
0.0
  0
LINE
  5
F105B6
330
261
100
AcDbEntity
  8
Geo
100
AcDbLine
 10
-65.96277533039661
 20
8.523143069980749
 30
0.0
 11
-65.8627753303966
 21
8.53060075675742
 31
0.0
  0
LINE
  5
F105B8
330
261
100
AcDbEntity
  8
Geo
100
AcDbLine
 10
-65.8627753303966
 20
8.53060075675742
 30
0.0
 11
-65.76277533039661
 21
8.53820628302688
 31
0.0
  0
LINE
  5
F105BA
330
261
100
AcDbEntity
  8
Geo
100
AcDbLine
 10
-65.76277533039661
 20
8.53820628302688
 30
0.0
 11
-65.66277533039659
 21
8.545961404022058
 31
0.0
  0
LINE
  5
F105BC
330
261
100
AcDbEntity
  8
Geo
100
AcDbLine
 10
-65.66277533039659
 20
8.545961404022058
 30
0.0
 11
-65.5627753303966
 21
8.55386788571157
 31
0.0
  0
LINE
  5
F105BE
330
261
100
AcDbEntity
  8
Geo
100
AcDbLine
 10
-65.5627753303966
 20
8.55386788571157
 30
0.0
 11
-65.46277533039661
 21
8.56192750421647
 31
0.0
  0
LINE
  5
F105C0
330
261
100
AcDbEntity
  8
Geo
100
AcDbLine
 10
-65.46277533039661
 20
8.56192750421647
 30
0.0
 11
-65.3627753303966
 21
8.570142045213469
 31
0.0
  0
LINE
  5
F105C2
330
261
100
AcDbEntity
  8
Geo
100
AcDbLine
 10
-65.3627753303966
 20
8.570142045213469
 30
0.0
 11
-65.2627753303966
 21
8.57851330332452
 31
0.0
  0
LINE
  5
F105C4
330
261
100
AcDbEntity
  8
Geo
100
AcDbLine
 10
-65.2627753303966
 20
8.57851330332452
 30
0.0
 11
-65.1627753303966
 21
8.58704308149235
 31
0.0
  0
LINE
  5
F105C6
330
261
100
AcDbEntity
  8
Geo
100
AcDbLine
 10
-65.1627753303966
 20
8.58704308149235
 30
0.0
 11
-65.06277533039661
 21
8.59573319034207
 31
0.0
  0
LINE
  5
F105C8
330
261
100
AcDbEntity
  8
Geo
100
AcDbLine
 10
-65.06277533039661
 20
8.59573319034207
 30
0.0
 11
-65.06277533039661
 21
8.59573319034207
 31
0.0
  0
LINE
  5
F105CA
330
261
100
AcDbEntity
  8
Geo
100
AcDbLine
 10
-81.06277533039659
 20
12.4902119866528
 30
0.0
 11
-80.96277533039659
 21
12.4695670429858
 31
0.0
  0
LINE
  5
F105CC
330
261
100
AcDbEntity
  8
Geo
100
AcDbLine
 10
-81.06277533039659
 20
8.44730136327572
 30
0.0
 11
-80.96277533039659
 21
8.34670373905179
 31
0.0
  0
LINE
  5
F105CE
330
261
100
AcDbEntity
  8
Geo
100
AcDbLine
 10
-80.96277533039659
 20
12.4695670429858
 30
0.0
 11
-80.86277533039661
 21
12.4062891058189
 31
0.0
  0
LINE
  5
F105D0
330
261
100
AcDbEntity
  8
Geo
100
AcDbLine
 10
-80.96277533039659
 20
8.34670373905179
 30
0.0
 11
-80.86277533039661
 21
8.302857522330979
 31
0.0
  0
LINE
  5
F105D2
330
261
100
AcDbEntity
  8
Geo
100
AcDbLine
 10
-80.86277533039661
 20
12.4062891058189
 30
0.0
 11
-80.76277533039659
 21
12.3418908743868
 31
0.0
  0
LINE
  5
F105D4
330
261
100
AcDbEntity
  8
Geo
100
AcDbLine
 10
-80.86277533039661
 20
8.302857522330979
 30
0.0
 11
-80.76277533039659
 21
8.260673925504059
 31
0.0
  0
LINE
  5
F105D6
330
261
100
AcDbEntity
  8
Geo
100
AcDbLine
 10
-80.76277533039659
 20
12.3418908743868
 30
0.0
 11
-80.66277533039659
 21
12.2764160230501
 31
0.0
  0
LINE
  5
F105D8
330
261
100
AcDbEntity
  8
Geo
100
AcDbLine
 10
-80.76277533039659
 20
8.260673925504059
 30
0.0
 11
-80.66277533039659
 21
8.2201815571457
 31
0.0
  0
LINE
  5
F105DA
330
261
100
AcDbEntity
  8
Geo
100
AcDbLine
 10
-80.66277533039659
 20
12.2764160230501
 30
0.0
 11
-80.5627753303966
 21
12.2099089563241
 31
0.0
  0
LINE
  5
F105DC
330
261
100
AcDbEntity
  8
Geo
100
AcDbLine
 10
-80.66277533039659
 20
8.2201815571457
 30
0.0
 11
-80.5627753303966
 21
8.181407878853089
 31
0.0
  0
LINE
  5
F105DE
330
261
100
AcDbEntity
  8
Geo
100
AcDbLine
 10
-80.5627753303966
 20
12.2099089563241
 30
0.0
 11
-80.4627753303966
 21
12.1424147787644
 31
0.0
  0
LINE
  5
F105E0
330
261
100
AcDbEntity
  8
Geo
100
AcDbLine
 10
-80.5627753303966
 20
8.181407878853089
 30
0.0
 11
-80.4627753303966
 21
8.1443791866217
 31
0.0
  0
LINE
  5
F105E2
330
261
100
AcDbEntity
  8
Geo
100
AcDbLine
 10
-80.4627753303966
 20
12.1424147787644
 30
0.0
 11
-80.3627753303966
 21
12.073979264377
 31
0.0
  0
LINE
  5
F105E4
330
261
100
AcDbEntity
  8
Geo
100
AcDbLine
 10
-80.4627753303966
 20
8.1443791866217
 30
0.0
 11
-80.3627753303966
 21
8.109120593011549
 31
0.0
  0
LINE
  5
F105E6
330
261
100
AcDbEntity
  8
Geo
100
AcDbLine
 10
-80.3627753303966
 20
12.073979264377
 30
0.0
 11
-80.26277533039658
 21
12.004648825575
 31
0.0
  0
LINE
  5
F105E8
330
261
100
AcDbEntity
  8
Geo
100
AcDbLine
 10
-80.3627753303966
 20
8.109120593011549
 30
0.0
 11
-80.26277533039658
 21
8.075656010116039
 31
0.0
  0
LINE
  5
F105EA
330
261
100
AcDbEntity
  8
Geo
100
AcDbLine
 10
-80.26277533039658
 20
12.004648825575
 30
0.0
 11
-80.1627753303966
 21
11.9344704817023
 31
0.0
  0
LINE
  5
F105EC
330
261
100
AcDbEntity
  8
Geo
100
AcDbLine
 10
-80.26277533039658
 20
8.075656010116039
 30
0.0
 11
-80.1627753303966
 21
8.044008133345039
 31
0.0
  0
LINE
  5
F105EE
330
261
100
AcDbEntity
  8
Geo
100
AcDbLine
 10
-80.1627753303966
 20
11.9344704817023
 30
0.0
 11
-80.06277533039659
 21
11.8634918271447
 31
0.0
  0
LINE
  5
F105F0
330
261
100
AcDbEntity
  8
Geo
100
AcDbLine
 10
-80.1627753303966
 20
8.044008133345039
 30
0.0
 11
-80.06277533039659
 21
8.014198426032969
 31
0.0
  0
LINE
  5
F105F2
330
261
100
AcDbEntity
  8
Geo
100
AcDbLine
 10
-80.06277533039659
 20
11.8634918271447
 30
0.0
 11
-79.96277533039659
 21
11.7917609990526
 31
0.0
  0
LINE
  5
F105F4
330
261
100
AcDbEntity
  8
Geo
100
AcDbLine
 10
-80.06277533039659
 20
8.014198426032969
 30
0.0
 11
-79.96277533039659
 21
7.98624710488256
 31
0.0
  0
LINE
  5
F105F6
330
261
100
AcDbEntity
  8
Geo
100
AcDbLine
 10
-79.96277533039659
 20
11.7917609990526
 30
0.0
 11
-79.8627753303966
 21
11.7193266446942
 31
0.0
  0
LINE
  5
F105F8
330
261
100
AcDbEntity
  8
Geo
100
AcDbLine
 10
-79.96277533039659
 20
7.98624710488256
 30
0.0
 11
-79.8627753303966
 21
7.96017312625409
 31
0.0
  0
LINE
  5
F105FA
330
261
100
AcDbEntity
  8
Geo
100
AcDbLine
 10
-79.8627753303966
 20
11.7193266446942
 30
0.0
 11
-79.7627753303966
 21
11.6462378884637
 31
0.0
  0
LINE
  5
F105FC
330
261
100
AcDbEntity
  8
Geo
100
AcDbLine
 10
-79.8627753303966
 20
7.96017312625409
 30
0.0
 11
-79.7627753303966
 21
7.935994173309269
 31
0.0
  0
LINE
  5
F105FE
330
261
100
AcDbEntity
  8
Geo
100
AcDbLine
 10
-79.7627753303966
 20
11.6462378884637
 30
0.0
 11
-79.6627753303966
 21
11.5725442985652
 31
0.0
  0
LINE
  5
F10600
330
261
100
AcDbEntity
  8
Geo
100
AcDbLine
 10
-79.7627753303966
 20
7.935994173309269
 30
0.0
 11
-79.6627753303966
 21
7.9137266440187
 31
0.0
  0
LINE
  5
F10602
330
261
100
AcDbEntity
  8
Geo
100
AcDbLine
 10
-79.6627753303966
 20
11.5725442985652
 30
0.0
 11
-79.56277533039659
 21
11.4982958533962
 31
0.0
  0
LINE
  5
F10604
330
261
100
AcDbEntity
  8
Geo
100
AcDbLine
 10
-79.6627753303966
 20
7.9137266440187
 30
0.0
 11
-79.56277533039659
 21
7.893385640040929
 31
0.0
  0
LINE
  5
F10606
330
261
100
AcDbEntity
  8
Geo
100
AcDbLine
 10
-79.56277533039659
 20
11.4982958533962
 30
0.0
 11
-79.46277533039659
 21
11.4235429076526
 31
0.0
  0
LINE
  5
F10608
330
261
100
AcDbEntity
  8
Geo
100
AcDbLine
 10
-79.56277533039659
 20
7.893385640040929
 30
0.0
 11
-79.46277533039659
 21
7.874984956480539
 31
0.0
  0
LINE
  5
F1060A
330
261
100
AcDbEntity
  8
Geo
100
AcDbLine
 10
-79.46277533039659
 20
11.4235429076526
 30
0.0
 11
-79.3627753303966
 21
11.3483361581785
 31
0.0
  0
LINE
  5
F1060C
330
261
100
AcDbEntity
  8
Geo
100
AcDbLine
 10
-79.46277533039659
 20
7.874984956480539
 30
0.0
 11
-79.3627753303966
 21
7.85853707253254
 31
0.0
  0
LINE
  5
F1060E
330
261
100
AcDbEntity
  8
Geo
100
AcDbLine
 10
-79.3627753303966
 20
11.3483361581785
 30
0.0
 11
-79.26277533039659
 21
11.2727266095839
 31
0.0
  0
LINE
  5
F10610
330
261
100
AcDbEntity
  8
Geo
100
AcDbLine
 10
-79.3627753303966
 20
7.85853707253254
 30
0.0
 11
-79.26277533039659
 21
7.844053143018969
 31
0.0
  0
LINE
  5
F10612
330
261
100
AcDbEntity
  8
Geo
100
AcDbLine
 10
-79.26277533039659
 20
11.2727266095839
 30
0.0
 11
-79.1627753303966
 21
11.196765539654
 31
0.0
  0
LINE
  5
F10614
330
261
100
AcDbEntity
  8
Geo
100
AcDbLine
 10
-79.26277533039659
 20
7.844053143018969
 30
0.0
 11
-79.1627753303966
 21
7.831542990823849
 31
0.0
  0
LINE
  5
F10616
330
261
100
AcDbEntity
  8
Geo
100
AcDbLine
 10
-79.1627753303966
 20
11.196765539654
 30
0.0
 11
-79.06277533039659
 21
11.120504464573
 31
0.0
  0
LINE
  5
F10618
330
261
100
AcDbEntity
  8
Geo
100
AcDbLine
 10
-79.1627753303966
 20
7.831542990823849
 30
0.0
 11
-79.06277533039659
 21
7.821015100231369
 31
0.0
  0
LINE
  5
F1061A
330
261
100
AcDbEntity
  8
Geo
100
AcDbLine
 10
-79.06277533039659
 20
11.120504464573
 30
0.0
 11
-78.96277533039659
 21
11.0439951039861
 31
0.0
  0
LINE
  5
F1061C
330
261
100
AcDbEntity
  8
Geo
100
AcDbLine
 10
-79.06277533039659
 20
7.821015100231369
 30
0.0
 11
-78.96277533039659
 21
7.812476611171889
 31
0.0
  0
LINE
  5
F1061E
330
261
100
AcDbEntity
  8
Geo
100
AcDbLine
 10
-78.96277533039659
 20
11.0439951039861
 30
0.0
 11
-78.8627753303966
 21
10.9672893459237
 31
0.0
  0
LINE
  5
F10620
330
261
100
AcDbEntity
  8
Geo
100
AcDbLine
 10
-78.96277533039659
 20
7.812476611171889
 30
0.0
 11
-78.8627753303966
 21
7.805933314379729
 31
0.0
  0
LINE
  5
F10622
330
261
100
AcDbEntity
  8
Geo
100
AcDbLine
 10
-78.8627753303966
 20
10.9672893459237
 30
0.0
 11
-78.76277533039659
 21
10.8904392116115
 31
0.0
  0
LINE
  5
F10624
330
261
100
AcDbEntity
  8
Geo
100
AcDbLine
 10
-78.8627753303966
 20
7.805933314379729
 30
0.0
 11
-78.76277533039659
 21
7.80138964746594
 31
0.0
  0
LINE
  5
F10626
330
261
100
AcDbEntity
  8
Geo
100
AcDbLine
 10
-78.76277533039659
 20
10.8904392116115
 30
0.0
 11
-78.6627753303966
 21
10.8134968201898
 31
0.0
  0
LINE
  5
F10628
330
261
100
AcDbEntity
  8
Geo
100
AcDbLine
 10
-78.76277533039659
 20
7.80138964746594
 30
0.0
 11
-78.6627753303966
 21
7.79884869190871
 31
0.0
  0
LINE
  5
F1062A
330
261
100
AcDbEntity
  8
Geo
100
AcDbLine
 10
-78.6627753303966
 20
10.8134968201898
 30
0.0
 11
-78.56277533039659
 21
10.7365143533671
 31
0.0
  0
LINE
  5
F1062C
330
261
100
AcDbEntity
  8
Geo
100
AcDbLine
 10
-78.56277533039659
 20
10.7365143533671
 30
0.0
 11
-78.4627753303966
 21
10.6595440200306
 31
0.0
  0
LINE
  5
F1062E
330
261
100
AcDbEntity
  8
Geo
100
AcDbLine
 10
-78.56277533039659
 20
13.7104984017234
 30
0.0
 11
-78.4627753303966
 21
13.7090301241923
 31
0.0
  0
LINE
  5
F10630
330
261
100
AcDbEntity
  8
Geo
100
AcDbLine
 10
-78.4627753303966
 20
10.6595440200306
 30
0.0
 11
-78.3627753303966
 21
10.5826380208388
 31
0.0
  0
LINE
  5
F10632
330
261
100
AcDbEntity
  8
Geo
100
AcDbLine
 10
-78.4627753303966
 20
13.7090301241923
 30
0.0
 11
-78.3627753303966
 21
13.7055580439588
 31
0.0
  0
LINE
  5
F10634
330
261
100
AcDbEntity
  8
Geo
100
AcDbLine
 10
-78.3627753303966
 20
10.5826380208388
 30
0.0
 11
-78.26277533039659
 21
10.5058485128192
 31
0.0
  0
LINE
  5
F10636
330
261
100
AcDbEntity
  8
Geo
100
AcDbLine
 10
-78.3627753303966
 20
13.7055580439588
 30
0.0
 11
-78.26277533039659
 21
13.7000845157598
 31
0.0
  0
LINE
  5
F10638
330
261
100
AcDbEntity
  8
Geo
100
AcDbLine
 10
-78.26277533039659
 20
10.5058485128192
 30
0.0
 11
-78.16277533039659
 21
10.429227573996
 31
0.0
  0
LINE
  5
F1063A
330
261
100
AcDbEntity
  8
Geo
100
AcDbLine
 10
-78.26277533039659
 20
13.7000845157598
 30
0.0
 11
-78.16277533039659
 21
13.6926132516979
 31
0.0
  0
LINE
  5
F1063C
330
261
100
AcDbEntity
  8
Geo
100
AcDbLine
 10
-78.16277533039659
 20
10.429227573996
 30
0.0
 11
-78.06277533039659
 21
10.3528271680711
 31
0.0
  0
LINE
  5
F1063E
330
261
100
AcDbEntity
  8
Geo
100
AcDbLine
 10
-78.16277533039659
 20
13.6926132516979
 30
0.0
 11
-78.06277533039659
 21
13.683149318724
 31
0.0
  0
LINE
  5
F10640
330
261
100
AcDbEntity
  8
Geo
100
AcDbLine
 10
-78.06277533039659
 20
10.3528271680711
 30
0.0
 11
-77.9627753303966
 21
10.2766991091826
 31
0.0
  0
LINE
  5
F10642
330
261
100
AcDbEntity
  8
Geo
100
AcDbLine
 10
-78.06277533039659
 20
13.683149318724
 30
0.0
 11
-77.9627753303966
 21
13.671699135201
 31
0.0
  0
LINE
  5
F10644
330
261
100
AcDbEntity
  8
Geo
100
AcDbLine
 10
-77.9627753303966
 20
10.2766991091826
 30
0.0
 11
-77.8627753303966
 21
10.2008950267654
 31
0.0
  0
LINE
  5
F10646
330
261
100
AcDbEntity
  8
Geo
100
AcDbLine
 10
-77.9627753303966
 20
13.671699135201
 30
0.0
 11
-77.8627753303966
 21
13.6582704665509
 31
0.0
  0
LINE
  5
F10648
330
261
100
AcDbEntity
  8
Geo
100
AcDbLine
 10
-77.8627753303966
 20
10.2008950267654
 30
0.0
 11
-77.76277533039659
 21
10.1254663305358
 31
0.0
  0
LINE
  5
F1064A
330
261
100
AcDbEntity
  8
Geo
100
AcDbLine
 10
-77.8627753303966
 20
13.6582704665509
 30
0.0
 11
-77.76277533039659
 21
13.6428724199884
 31
0.0
  0
LINE
  5
F1064C
330
261
100
AcDbEntity
  8
Geo
100
AcDbLine
 10
-77.76277533039659
 20
10.1254663305358
 30
0.0
 11
-77.6627753303966
 21
10.0504641756265
 31
0.0
  0
LINE
  5
F1064E
330
261
100
AcDbEntity
  8
Geo
100
AcDbLine
 10
-77.76277533039659
 20
13.6428724199884
 30
0.0
 11
-77.6627753303966
 21
13.6255154383443
 31
0.0
  0
LINE
  5
F10650
330
261
100
AcDbEntity
  8
Geo
100
AcDbLine
 10
-77.6627753303966
 20
10.0504641756265
 30
0.0
 11
-77.56277533039659
 21
9.975939427893161
 31
0.0
  0
LINE
  5
F10652
330
261
100
AcDbEntity
  8
Geo
100
AcDbLine
 10
-77.6627753303966
 20
13.6255154383443
 30
0.0
 11
-77.56277533039659
 21
13.6062112929833
 31
0.0
  0
LINE
  5
F10654
330
261
100
AcDbEntity
  8
Geo
100
AcDbLine
 10
-77.56277533039659
 20
9.975939427893161
 30
0.0
 11
-77.46277533039659
 21
9.90194262941784
 31
0.0
  0
LINE
  5
F10656
330
261
100
AcDbEntity
  8
Geo
100
AcDbLine
 10
-77.56277533039659
 20
13.6062112929833
 30
0.0
 11
-77.46277533039659
 21
13.5849730758208
 31
0.0
  0
LINE
  5
F10658
330
261
100
AcDbEntity
  8
Geo
100
AcDbLine
 10
-77.46277533039659
 20
9.90194262941784
 30
0.0
 11
-77.3627753303966
 21
9.828523964231617
 31
0.0
  0
LINE
  5
F1065A
330
261
100
AcDbEntity
  8
Geo
100
AcDbLine
 10
-77.46277533039659
 20
13.5849730758208
 30
0.0
 11
-77.3627753303966
 21
13.5618151904444
 31
0.0
  0
LINE
  5
F1065C
330
261
100
AcDbEntity
  8
Geo
100
AcDbLine
 10
-77.3627753303966
 20
9.828523964231617
 30
0.0
 11
-77.2627753303966
 21
9.755733224280279
 31
0.0
  0
LINE
  5
F1065E
330
261
100
AcDbEntity
  8
Geo
100
AcDbLine
 10
-77.3627753303966
 20
13.5618151904444
 30
0.0
 11
-77.2627753303966
 21
13.5367533423447
 31
0.0
  0
LINE
  5
F10660
330
261
100
AcDbEntity
  8
Geo
100
AcDbLine
 10
-77.2627753303966
 20
9.755733224280279
 30
0.0
 11
-77.1627753303966
 21
9.68361977565576
 31
0.0
  0
LINE
  5
F10662
330
261
100
AcDbEntity
  8
Geo
100
AcDbLine
 10
-77.2627753303966
 20
13.5367533423447
 30
0.0
 11
-77.1627753303966
 21
13.5098045282648
 31
0.0
  0
LINE
  5
F10664
330
261
100
AcDbEntity
  8
Geo
100
AcDbLine
 10
-77.1627753303966
 20
9.68361977565576
 30
0.0
 11
-77.06277533039659
 21
9.612232525116509
 31
0.0
  0
LINE
  5
F10666
330
261
100
AcDbEntity
  8
Geo
100
AcDbLine
 10
-77.1627753303966
 20
13.5098045282648
 30
0.0
 11
-77.06277533039659
 21
13.4809870246727
 31
0.0
  0
LINE
  5
F10668
330
261
100
AcDbEntity
  8
Geo
100
AcDbLine
 10
-77.06277533039659
 20
9.612232525116509
 30
0.0
 11
-76.96277533039659
 21
9.541619886919278
 31
0.0
  0
LINE
  5
F1066A
330
261
100
AcDbEntity
  8
Geo
100
AcDbLine
 10
-77.06277533039659
 20
13.4809870246727
 30
0.0
 11
-76.96277533039659
 21
13.4503203753667
 31
0.0
  0
LINE
  5
F1066C
330
261
100
AcDbEntity
  8
Geo
100
AcDbLine
 10
-76.96277533039659
 20
9.541619886919278
 30
0.0
 11
-76.8627753303966
 21
9.471829749984999
 31
0.0
  0
LINE
  5
F1066E
330
261
100
AcDbEntity
  8
Geo
100
AcDbLine
 10
-76.96277533039659
 20
13.4503203753667
 30
0.0
 11
-76.8627753303966
 21
13.4178253782205
 31
0.0
  0
LINE
  5
F10670
330
261
100
AcDbEntity
  8
Geo
100
AcDbLine
 10
-76.8627753303966
 20
9.471829749984999
 30
0.0
 11
-76.76277533039659
 21
9.402909445420901
 31
0.0
  0
LINE
  5
F10672
330
261
100
AcDbEntity
  8
Geo
100
AcDbLine
 10
-76.8627753303966
 20
13.4178253782205
 30
0.0
 11
-76.76277533039659
 21
13.3835240710789
 31
0.0
  0
LINE
  5
F10674
330
261
100
AcDbEntity
  8
Geo
100
AcDbLine
 10
-76.76277533039659
 20
9.402909445420901
 30
0.0
 11
-76.6627753303966
 21
9.3349057144209
 31
0.0
  0
LINE
  5
F10676
330
261
100
AcDbEntity
  8
Geo
100
AcDbLine
 10
-76.76277533039659
 20
13.3835240710789
 30
0.0
 11
-76.6627753303966
 21
13.3474397168112
 31
0.0
  0
LINE
  5
F10678
330
261
100
AcDbEntity
  8
Geo
100
AcDbLine
 10
-76.6627753303966
 20
9.3349057144209
 30
0.0
 11
-76.56277533039659
 21
9.26786467656613
 31
0.0
  0
LINE
  5
F1067A
330
261
100
AcDbEntity
  8
Geo
100
AcDbLine
 10
-76.6627753303966
 20
13.3474397168112
 30
0.0
 11
-76.56277533039659
 21
13.3095967875352
 31
0.0
  0
LINE
  5
F1067C
330
261
100
AcDbEntity
  8
Geo
100
AcDbLine
 10
-76.56277533039659
 20
9.26786467656613
 30
0.0
 11
-76.46277533039659
 21
9.201831798547029
 31
0.0
  0
LINE
  5
F1067E
330
261
100
AcDbEntity
  8
Geo
100
AcDbLine
 10
-76.56277533039659
 20
13.3095967875352
 30
0.0
 11
-76.46277533039659
 21
13.2700209480198
 31
0.0
  0
LINE
  5
F10680
330
261
100
AcDbEntity
  8
Geo
100
AcDbLine
 10
-76.46277533039659
 20
9.201831798547029
 30
0.0
 11
-76.3627753303966
 21
9.136851863328159
 31
0.0
  0
LINE
  5
F10682
330
261
100
AcDbEntity
  8
Geo
100
AcDbLine
 10
-76.46277533039659
 20
13.2700209480198
 30
0.0
 11
-76.3627753303966
 21
13.2287390382797
 31
0.0
  0
LINE
  5
F10684
330
261
100
AcDbEntity
  8
Geo
100
AcDbLine
 10
-76.3627753303966
 20
9.136851863328159
 30
0.0
 11
-76.26277533039659
 21
9.072968939776778
 31
0.0
  0
LINE
  5
F10686
330
261
100
AcDbEntity
  8
Geo
100
AcDbLine
 10
-76.3627753303966
 20
13.2287390382797
 30
0.0
 11
-76.26277533039659
 21
13.1857790553728
 31
0.0
  0
LINE
  5
F10688
330
261
100
AcDbEntity
  8
Geo
100
AcDbLine
 10
-76.26277533039659
 20
9.072968939776778
 30
0.0
 11
-76.1627753303966
 21
9.010226352775688
 31
0.0
  0
LINE
  5
F1068A
330
261
100
AcDbEntity
  8
Geo
100
AcDbLine
 10
-76.26277533039659
 20
13.1857790553728
 30
0.0
 11
-76.1627753303966
 21
13.1411701344125
 31
0.0
  0
LINE
  5
F1068C
330
261
100
AcDbEntity
  8
Geo
100
AcDbLine
 10
-76.1627753303966
 20
9.010226352775688
 30
0.0
 11
-76.06277533039659
 21
8.94866665384068
 31
0.0
  0
LINE
  5
F1068E
330
261
100
AcDbEntity
  8
Geo
100
AcDbLine
 10
-76.1627753303966
 20
13.1411701344125
 30
0.0
 11
-76.06277533039659
 21
13.0949425288086
 31
0.0
  0
LINE
  5
F10690
330
261
100
AcDbEntity
  8
Geo
100
AcDbLine
 10
-76.06277533039659
 20
8.94866665384068
 30
0.0
 11
-75.9627753303966
 21
8.888331592262369
 31
0.0
  0
LINE
  5
F10692
330
261
100
AcDbEntity
  8
Geo
100
AcDbLine
 10
-76.06277533039659
 20
13.0949425288086
 30
0.0
 11
-75.9627753303966
 21
13.04712758975
 31
0.0
  0
LINE
  5
F10694
330
261
100
AcDbEntity
  8
Geo
100
AcDbLine
 10
-75.9627753303966
 20
8.888331592262369
 30
0.0
 11
-75.8627753303966
 21
8.82926208679224
 31
0.0
  0
LINE
  5
F10696
330
261
100
AcDbEntity
  8
Geo
100
AcDbLine
 10
-75.9627753303966
 20
13.04712758975
 30
0.0
 11
-75.8627753303966
 21
12.9977577449422
 31
0.0
  0
LINE
  5
F10698
330
261
100
AcDbEntity
  8
Geo
100
AcDbLine
 10
-75.8627753303966
 20
8.82926208679224
 30
0.0
 11
-75.76277533039659
 21
8.771498197891821
 31
0.0
  0
LINE
  5
F1069A
330
261
100
AcDbEntity
  8
Geo
100
AcDbLine
 10
-75.8627753303966
 20
12.9977577449422
 30
0.0
 11
-75.76277533039659
 21
12.9468664766152
 31
0.0
  0
LINE
  5
F1069C
330
261
100
AcDbEntity
  8
Geo
100
AcDbLine
 10
-75.76277533039659
 20
8.771498197891821
 30
0.0
 11
-75.66277533039659
 21
8.715079100564059
 31
0.0
  0
LINE
  5
F1069E
330
261
100
AcDbEntity
  8
Geo
100
AcDbLine
 10
-75.76277533039659
 20
12.9468664766152
 30
0.0
 11
-75.66277533039659
 21
12.8944882988161
 31
0.0
  0
LINE
  5
F106A0
330
261
100
AcDbEntity
  8
Geo
100
AcDbLine
 10
-75.66277533039659
 20
8.715079100564059
 30
0.0
 11
-75.56277533039659
 21
8.66004305778509
 31
0.0
  0
LINE
  5
F106A2
330
261
100
AcDbEntity
  8
Geo
100
AcDbLine
 10
-75.66277533039659
 20
12.8944882988161
 30
0.0
 11
-75.56277533039659
 21
12.8406587340021
 31
0.0
  0
LINE
  5
F106A4
330
261
100
AcDbEntity
  8
Geo
100
AcDbLine
 10
-75.56277533039659
 20
8.66004305778509
 30
0.0
 11
-75.4627753303966
 21
8.606427394554629
 31
0.0
  0
LINE
  5
F106A6
330
261
100
AcDbEntity
  8
Geo
100
AcDbLine
 10
-75.56277533039659
 20
12.8406587340021
 30
0.0
 11
-75.4627753303966
 21
12.7854142889492
 31
0.0
  0
LINE
  5
F106A8
330
261
100
AcDbEntity
  8
Geo
100
AcDbLine
 10
-75.4627753303966
 20
8.606427394554629
 30
0.0
 11
-75.3627753303966
 21
8.554268472582469
 31
0.0
  0
LINE
  5
F106AA
330
261
100
AcDbEntity
  8
Geo
100
AcDbLine
 10
-75.4627753303966
 20
12.7854142889492
 30
0.0
 11
-75.3627753303966
 21
12.7287924299941
 31
0.0
  0
LINE
  5
F106AC
330
261
100
AcDbEntity
  8
Geo
100
AcDbLine
 10
-75.3627753303966
 20
8.554268472582469
 30
0.0
 11
-75.26277533039659
 21
8.50360166562822
 31
0.0
  0
LINE
  5
F106AE
330
261
100
AcDbEntity
  8
Geo
100
AcDbLine
 10
-75.3627753303966
 20
12.7287924299941
 30
0.0
 11
-75.26277533039659
 21
12.6708315576241
 31
0.0
  0
LINE
  5
F106B0
330
261
100
AcDbEntity
  8
Geo
100
AcDbLine
 10
-75.26277533039659
 20
8.50360166562822
 30
0.0
 11
-75.1627753303966
 21
8.454461335511169
 31
0.0
  0
LINE
  5
F106B2
330
261
100
AcDbEntity
  8
Geo
100
AcDbLine
 10
-75.26277533039659
 20
12.6708315576241
 30
0.0
 11
-75.1627753303966
 21
12.6115709804347
 31
0.0
  0
LINE
  5
F106B4
330
261
100
AcDbEntity
  8
Geo
100
AcDbLine
 10
-75.1627753303966
 20
8.454461335511169
 30
0.0
 11
-75.06277533039659
 21
8.40688080880632
 31
0.0
  0
LINE
  5
F106B6
330
261
100
AcDbEntity
  8
Geo
100
AcDbLine
 10
-75.1627753303966
 20
12.6115709804347
 30
0.0
 11
-75.06277533039659
 21
12.5510508884707
 31
0.0
  0
LINE
  5
F106B8
330
261
100
AcDbEntity
  8
Geo
100
AcDbLine
 10
-75.06277533039659
 20
8.40688080880632
 30
0.0
 11
-74.96277533039659
 21
8.360892354242588
 31
0.0
  0
LINE
  5
F106BA
330
261
100
AcDbEntity
  8
Geo
100
AcDbLine
 10
-75.06277533039659
 20
12.5510508884707
 30
0.0
 11
-74.96277533039659
 21
12.4893123259699
 31
0.0
  0
LINE
  5
F106BC
330
261
100
AcDbEntity
  8
Geo
100
AcDbLine
 10
-74.96277533039659
 20
8.360892354242588
 30
0.0
 11
-74.8627753303966
 21
8.31652716081847
 31
0.0
  0
LINE
  5
F106BE
330
261
100
AcDbEntity
  8
Geo
100
AcDbLine
 10
-74.96277533039659
 20
12.4893123259699
 30
0.0
 11
-74.8627753303966
 21
12.4263971635265
 31
0.0
  0
LINE
  5
F106C0
330
261
100
AcDbEntity
  8
Geo
100
AcDbLine
 10
-74.8627753303966
 20
8.31652716081847
 30
0.0
 11
-74.7627753303966
 21
8.273815316649809
 31
0.0
  0
LINE
  5
F106C2
330
261
100
AcDbEntity
  8
Geo
100
AcDbLine
 10
-74.8627753303966
 20
12.4263971635265
 30
0.0
 11
-74.7627753303966
 21
12.3623480696957
 31
0.0
  0
LINE
  5
F106C4
330
261
100
AcDbEntity
  8
Geo
100
AcDbLine
 10
-74.7627753303966
 20
8.273815316649809
 30
0.0
 11
-74.6627753303966
 21
8.232785788564369
 31
0.0
  0
LINE
  5
F106C6
330
261
100
AcDbEntity
  8
Geo
100
AcDbLine
 10
-74.7627753303966
 20
12.3623480696957
 30
0.0
 11
-74.6627753303966
 21
12.2972084820556
 31
0.0
  0
LINE
  5
F106C8
330
261
100
AcDbEntity
  8
Geo
100
AcDbLine
 10
-74.6627753303966
 20
8.232785788564369
 30
0.0
 11
-74.56277533039659
 21
8.19346640245674
 31
0.0
  0
LINE
  5
F106CA
330
261
100
AcDbEntity
  8
Geo
100
AcDbLine
 10
-74.6627753303966
 20
12.2972084820556
 30
0.0
 11
-74.56277533039659
 21
12.2310225777485
 31
0.0
  0
LINE
  5
F106CC
330
261
100
AcDbEntity
  8
Geo
100
AcDbLine
 10
-74.56277533039659
 20
8.19346640245674
 30
0.0
 11
-74.46277533039659
 21
8.155883824416999
 31
0.0
  0
LINE
  5
F106CE
330
261
100
AcDbEntity
  8
Geo
100
AcDbLine
 10
-74.56277533039659
 20
12.2310225777485
 30
0.0
 11
-74.46277533039659
 21
12.1638352435201
 31
0.0
  0
LINE
  5
F106D0
330
261
100
AcDbEntity
  8
Geo
100
AcDbLine
 10
-74.46277533039659
 20
8.155883824416999
 30
0.0
 11
-74.3627753303966
 21
8.120063542646059
 31
0.0
  0
LINE
  5
F106D2
330
261
100
AcDbEntity
  8
Geo
100
AcDbLine
 10
-74.46277533039659
 20
12.1638352435201
 30
0.0
 11
-74.3627753303966
 21
12.0956920452778
 31
0.0
  0
LINE
  5
F106D4
330
261
100
AcDbEntity
  8
Geo
100
AcDbLine
 10
-74.3627753303966
 20
8.120063542646059
 30
0.0
 11
-74.26277533039659
 21
8.08602985016971
 31
0.0
  0
LINE
  5
F106D6
330
261
100
AcDbEntity
  8
Geo
100
AcDbLine
 10
-74.3627753303966
 20
12.0956920452778
 30
0.0
 11
-74.26277533039659
 21
12.0266391971884
 31
0.0
  0
LINE
  5
F106D8
330
261
100
AcDbEntity
  8
Geo
100
AcDbLine
 10
-74.26277533039659
 20
8.08602985016971
 30
0.0
 11
-74.1627753303966
 21
8.053805828363321
 31
0.0
  0
LINE
  5
F106DA
330
261
100
AcDbEntity
  8
Geo
100
AcDbLine
 10
-74.26277533039659
 20
12.0266391971884
 30
0.0
 11
-74.1627753303966
 21
11.9567235303357
 31
0.0
  0
LINE
  5
F106DC
330
261
100
AcDbEntity
  8
Geo
100
AcDbLine
 10
-74.1627753303966
 20
8.053805828363321
 30
0.0
 11
-74.06277533039659
 21
8.02341333129822
 31
0.0
  0
LINE
  5
F106DE
330
261
100
AcDbEntity
  8
Geo
100
AcDbLine
 10
-74.1627753303966
 20
11.9567235303357
 30
0.0
 11
-74.06277533039659
 21
11.8859924609603
 31
0.0
  0
LINE
  5
F106E0
330
261
100
AcDbEntity
  8
Geo
100
AcDbLine
 10
-74.06277533039659
 20
8.02341333129822
 30
0.0
 11
-73.96277533039659
 21
7.994872970920469
 31
0.0
  0
LINE
  5
F106E2
330
261
100
AcDbEntity
  8
Geo
100
AcDbLine
 10
-74.06277533039659
 20
11.8859924609603
 30
0.0
 11
-73.96277533039659
 21
11.8144939583023
 31
0.0
  0
LINE
  5
F106E4
330
261
100
AcDbEntity
  8
Geo
100
AcDbLine
 10
-73.96277533039659
 20
7.994872970920469
 30
0.0
 11
-73.8627753303966
 21
7.968204103071969
 31
0.0
  0
LINE
  5
F106E6
330
261
100
AcDbEntity
  8
Geo
100
AcDbLine
 10
-73.96277533039659
 20
11.8144939583023
 30
0.0
 11
-73.8627753303966
 21
11.7422765120686
 31
0.0
  0
LINE
  5
F106E8
330
261
100
AcDbEntity
  8
Geo
100
AcDbLine
 10
-73.8627753303966
 20
7.968204103071969
 30
0.0
 11
-73.76277533039659
 21
7.943424814363499
 31
0.0
  0
LINE
  5
F106EA
330
261
100
AcDbEntity
  8
Geo
100
AcDbLine
 10
-73.8627753303966
 20
11.7422765120686
 30
0.0
 11
-73.76277533039659
 21
11.6693890995481
 31
0.0
  0
LINE
  5
F106EC
330
261
100
AcDbEntity
  8
Geo
100
AcDbLine
 10
-73.76277533039659
 20
7.943424814363499
 30
0.0
 11
-73.6627753303966
 21
7.92055190990854
 31
0.0
  0
LINE
  5
F106EE
330
261
100
AcDbEntity
  8
Geo
100
AcDbLine
 10
-73.76277533039659
 20
11.6693890995481
 30
0.0
 11
-73.6627753303966
 21
11.5958811523952
 31
0.0
  0
LINE
  5
F106F0
330
261
100
AcDbEntity
  8
Geo
100
AcDbLine
 10
-73.6627753303966
 20
7.92055190990854
 30
0.0
 11
-73.56277533039659
 21
7.899600901926159
 31
0.0
  0
LINE
  5
F106F2
330
261
100
AcDbEntity
  8
Geo
100
AcDbLine
 10
-73.6627753303966
 20
11.5958811523952
 30
0.0
 11
-73.56277533039659
 21
11.5218025231061
 31
0.0
  0
LINE
  5
F106F4
330
261
100
AcDbEntity
  8
Geo
100
AcDbLine
 10
-73.56277533039659
 20
7.899600901926159
 30
0.0
 11
-73.4627753303966
 21
7.880585999220769
 31
0.0
  0
LINE
  5
F106F6
330
261
100
AcDbEntity
  8
Geo
100
AcDbLine
 10
-73.56277533039659
 20
11.5218025231061
 30
0.0
 11
-73.4627753303966
 21
11.4472034512088
 31
0.0
  0
LINE
  5
F106F8
330
261
100
AcDbEntity
  8
Geo
100
AcDbLine
 10
-73.4627753303966
 20
7.880585999220769
 30
0.0
 11
-73.3627753303966
 21
7.863520097545809
 31
0.0
  0
LINE
  5
F106FA
330
261
100
AcDbEntity
  8
Geo
100
AcDbLine
 10
-73.4627753303966
 20
11.4472034512088
 30
0.0
 11
-73.3627753303966
 21
11.3721345291914
 31
0.0
  0
LINE
  5
F106FC
330
261
100
AcDbEntity
  8
Geo
100
AcDbLine
 10
-73.3627753303966
 20
7.863520097545809
 30
0.0
 11
-73.26277533039659
 21
7.84841477085795
 31
0.0
  0
LINE
  5
F106FE
330
261
100
AcDbEntity
  8
Geo
100
AcDbLine
 10
-73.3627753303966
 20
11.3721345291914
 30
0.0
 11
-73.26277533039659
 21
11.2966466681905
 31
0.0
  0
LINE
  5
F10700
330
261
100
AcDbEntity
  8
Geo
100
AcDbLine
 10
-73.26277533039659
 20
7.84841477085795
 30
0.0
 11
-73.16277533039659
 21
7.83528026346778
 31
0.0
  0
LINE
  5
F10702
330
261
100
AcDbEntity
  8
Geo
100
AcDbLine
 10
-73.26277533039659
 20
11.2966466681905
 30
0.0
 11
-73.16277533039659
 21
11.2207910634638
 31
0.0
  0
LINE
  5
F10704
330
261
100
AcDbEntity
  8
Geo
100
AcDbLine
 10
-73.16277533039659
 20
7.83528026346778
 30
0.0
 11
-73.06277533039659
 21
7.824125483092109
 31
0.0
  0
LINE
  5
F10706
330
261
100
AcDbEntity
  8
Geo
100
AcDbLine
 10
-73.16277533039659
 20
11.2207910634638
 30
0.0
 11
-73.06277533039659
 21
11.1446191596698
 31
0.0
  0
LINE
  5
F10708
330
261
100
AcDbEntity
  8
Geo
100
AcDbLine
 10
-73.06277533039659
 20
7.824125483092109
 30
0.0
 11
-72.9627753303966
 21
7.814957994812919
 31
0.0
  0
LINE
  5
F1070A
330
261
100
AcDbEntity
  8
Geo
100
AcDbLine
 10
-73.06277533039659
 20
11.1446191596698
 30
0.0
 11
-72.9627753303966
 21
11.0681826159784
 31
0.0
  0
LINE
  5
F1070C
330
261
100
AcDbEntity
  8
Geo
100
AcDbLine
 10
-72.9627753303966
 20
7.814957994812919
 30
0.0
 11
-72.8627753303966
 21
7.8077840159467
 31
0.0
  0
LINE
  5
F1070E
330
261
100
AcDbEntity
  8
Geo
100
AcDbLine
 10
-72.9627753303966
 20
11.0681826159784
 30
0.0
 11
-72.8627753303966
 21
10.9915332710363
 31
0.0
  0
LINE
  5
F10710
330
261
100
AcDbEntity
  8
Geo
100
AcDbLine
 10
-72.8627753303966
 20
7.8077840159467
 30
0.0
 11
-72.76277533039659
 21
7.802608411827989
 31
0.0
  0
LINE
  5
F10712
330
261
100
AcDbEntity
  8
Geo
100
AcDbLine
 10
-72.8627753303966
 20
10.9915332710363
 30
0.0
 11
-72.76277533039659
 21
10.91472310781
 31
0.0
  0
LINE
  5
F10714
330
261
100
AcDbEntity
  8
Geo
100
AcDbLine
 10
-72.76277533039659
 20
7.802608411827989
 30
0.0
 11
-72.6627753303966
 21
7.799434692509709
 31
0.0
  0
LINE
  5
F10716
330
261
100
AcDbEntity
  8
Geo
100
AcDbLine
 10
-72.76277533039659
 20
10.91472310781
 30
0.0
 11
-72.6627753303966
 21
10.8378042183321
 31
0.0
  0
LINE
  5
F10718
330
261
100
AcDbEntity
  8
Geo
100
AcDbLine
 10
-72.6627753303966
 20
7.799434692509709
 30
0.0
 11
-72.56277533039659
 21
7.79826501038265
 31
0.0
  0
LINE
  5
F1071A
330
261
100
AcDbEntity
  8
Geo
100
AcDbLine
 10
-72.6627753303966
 20
10.8378042183321
 30
0.0
 11
-72.56277533039659
 21
10.760828768372
 31
0.0
  0
LINE
  5
F1071C
330
261
100
AcDbEntity
  8
Geo
100
AcDbLine
 10
-72.56277533039659
 20
10.760828768372
 30
0.0
 11
-72.46277533039659
 21
10.6838489620583
 31
0.0
  0
LINE
  5
F1071E
330
261
100
AcDbEntity
  8
Geo
100
AcDbLine
 10
-72.46277533039659
 20
13.7097104139712
 30
0.0
 11
-72.3627753303966
 21
13.7068710015687
 31
0.0
  0
LINE
  5
F10720
330
261
100
AcDbEntity
  8
Geo
100
AcDbLine
 10
-72.46277533039659
 20
10.6838489620583
 30
0.0
 11
-72.3627753303966
 21
10.6069170064739
 31
0.0
  0
LINE
  5
F10722
330
261
100
AcDbEntity
  8
Geo
100
AcDbLine
 10
-72.3627753303966
 20
13.7068710015687
 30
0.0
 11
-72.2627753303966
 21
13.7020292507635
 31
0.0
  0
LINE
  5
F10724
330
261
100
AcDbEntity
  8
Geo
100
AcDbLine
 10
-72.3627753303966
 20
10.6069170064739
 30
0.0
 11
-72.2627753303966
 21
10.5300850762497
 31
0.0
  0
LINE
  5
F10726
330
261
100
AcDbEntity
  8
Geo
100
AcDbLine
 10
-72.2627753303966
 20
13.7020292507635
 30
0.0
 11
-72.1627753303966
 21
13.6951884451917
 31
0.0
  0
LINE
  5
F10728
330
261
100
AcDbEntity
  8
Geo
100
AcDbLine
 10
-72.2627753303966
 20
10.5300850762497
 30
0.0
 11
-72.1627753303966
 21
10.4534052781803
 31
0.0
  0
LINE
  5
F1072A
330
261
100
AcDbEntity
  8
Geo
100
AcDbLine
 10
-72.1627753303966
 20
13.6951884451917
 30
0.0
 11
-72.06277533039659
 21
13.6863532242325
 31
0.0
  0
LINE
  5
F1072C
330
261
100
AcDbEntity
  8
Geo
100
AcDbLine
 10
-72.1627753303966
 20
10.4534052781803
 30
0.0
 11
-72.06277533039659
 21
10.3769296158854
 31
0.0
  0
LINE
  5
F1072E
330
261
100
AcDbEntity
  8
Geo
100
AcDbLine
 10
-72.06277533039659
 20
13.6863532242325
 30
0.0
 11
-71.96277533039659
 21
13.6755295798614
 31
0.0
  0
LINE
  5
F10730
330
261
100
AcDbEntity
  8
Geo
100
AcDbLine
 10
-72.06277533039659
 20
10.3769296158854
 30
0.0
 11
-71.96277533039659
 21
10.3007099545416
 31
0.0
  0
LINE
  5
F10732
330
261
100
AcDbEntity
  8
Geo
100
AcDbLine
 10
-71.96277533039659
 20
13.6755295798614
 30
0.0
 11
-71.8627753303966
 21
13.6627248525866
 31
0.0
  0
LINE
  5
F10734
330
261
100
AcDbEntity
  8
Geo
100
AcDbLine
 10
-71.96277533039659
 20
10.3007099545416
 30
0.0
 11
-71.8627753303966
 21
10.2247979857076
 31
0.0
  0
LINE
  5
F10736
330
261
100
AcDbEntity
  8
Geo
100
AcDbLine
 10
-71.8627753303966
 20
13.6627248525866
 30
0.0
 11
-71.76277533039659
 21
13.6479477264707
 31
0.0
  0
LINE
  5
F10738
330
261
100
AcDbEntity
  8
Geo
100
AcDbLine
 10
-71.8627753303966
 20
10.2247979857076
 30
0.0
 11
-71.76277533039659
 21
10.1492451922676
 31
0.0
  0
LINE
  5
F1073A
330
261
100
AcDbEntity
  8
Geo
100
AcDbLine
 10
-71.76277533039659
 20
13.6479477264707
 30
0.0
 11
-71.6627753303966
 21
13.6312082232413
 31
0.0
  0
LINE
  5
F1073C
330
261
100
AcDbEntity
  8
Geo
100
AcDbLine
 10
-71.76277533039659
 20
10.1492451922676
 30
0.0
 11
-71.6627753303966
 21
10.0741028135159
 31
0.0
  0
LINE
  5
F1073E
330
261
100
AcDbEntity
  8
Geo
100
AcDbLine
 10
-71.6627753303966
 20
13.6312082232413
 30
0.0
 11
-71.56277533039659
 21
13.6125176954943
 31
0.0
  0
LINE
  5
F10740
330
261
100
AcDbEntity
  8
Geo
100
AcDbLine
 10
-71.6627753303966
 20
10.0741028135159
 30
0.0
 11
-71.56277533039659
 21
9.999421810406859
 31
0.0
  0
LINE
  5
F10742
330
261
100
AcDbEntity
  8
Geo
100
AcDbLine
 10
-71.56277533039659
 20
13.6125176954943
 30
0.0
 11
-71.46277533039659
 21
13.5918888189947
 31
0.0
  0
LINE
  5
F10744
330
261
100
AcDbEntity
  8
Geo
100
AcDbLine
 10
-71.56277533039659
 20
9.999421810406859
 30
0.0
 11
-71.46277533039659
 21
9.925252830993649
 31
0.0
  0
LINE
  5
F10746
330
261
100
AcDbEntity
  8
Geo
100
AcDbLine
 10
-71.46277533039659
 20
13.5918888189947
 30
0.0
 11
-71.3627753303966
 21
13.5693355840798
 31
0.0
  0
LINE
  5
F10748
330
261
100
AcDbEntity
  8
Geo
100
AcDbLine
 10
-71.46277533039659
 20
9.925252830993649
 30
0.0
 11
-71.3627753303966
 21
9.851646176079098
 31
0.0
  0
LINE
  5
F1074A
330
261
100
AcDbEntity
  8
Geo
100
AcDbLine
 10
-71.3627753303966
 20
13.5693355840798
 30
0.0
 11
-71.26277533039659
 21
13.5448732861716
 31
0.0
  0
LINE
  5
F1074C
330
261
100
AcDbEntity
  8
Geo
100
AcDbLine
 10
-71.3627753303966
 20
9.851646176079098
 30
0.0
 11
-71.26277533039659
 21
9.778651765102079
 31
0.0
  0
LINE
  5
F1074E
330
261
100
AcDbEntity
  8
Geo
100
AcDbLine
 10
-71.26277533039659
 20
13.5448732861716
 30
0.0
 11
-71.1627753303966
 21
13.5185185154027
 31
0.0
  0
LINE
  5
F10750
330
261
100
AcDbEntity
  8
Geo
100
AcDbLine
 10
-71.26277533039659
 20
9.778651765102079
 30
0.0
 11
-71.1627753303966
 21
9.706319102282609
 31
0.0
  0
LINE
  5
F10752
330
261
100
AcDbEntity
  8
Geo
100
AcDbLine
 10
-71.1627753303966
 20
13.5185185154027
 30
0.0
 11
-71.06277533039659
 21
13.490289145366
 31
0.0
  0
LINE
  5
F10754
330
261
100
AcDbEntity
  8
Geo
100
AcDbLine
 10
-71.1627753303966
 20
9.706319102282609
 30
0.0
 11
-71.06277533039659
 21
9.63469724304841
 31
0.0
  0
LINE
  5
F10756
330
261
100
AcDbEntity
  8
Geo
100
AcDbLine
 10
-71.06277533039659
 20
13.490289145366
 30
0.0
 11
-70.9627753303966
 21
13.4602043209921
 31
0.0
  0
LINE
  5
F10758
330
261
100
AcDbEntity
  8
Geo
100
AcDbLine
 10
-71.06277533039659
 20
9.63469724304841
 30
0.0
 11
-70.9627753303966
 21
9.563834760765971
 31
0.0
  0
LINE
  5
F1075A
330
261
100
AcDbEntity
  8
Geo
100
AcDbLine
 10
-70.9627753303966
 20
13.4602043209921
 30
0.0
 11
-70.8627753303966
 21
13.4282844455661
 31
0.0
  0
LINE
  5
F1075C
330
261
100
AcDbEntity
  8
Geo
100
AcDbLine
 10
-70.9627753303966
 20
9.563834760765971
 30
0.0
 11
-70.8627753303966
 21
9.493779713798449
 31
0.0
  0
LINE
  5
F1075E
330
261
100
AcDbEntity
  8
Geo
100
AcDbLine
 10
-70.8627753303966
 20
13.4282844455661
 30
0.0
 11
-70.76277533039659
 21
13.3945511668896
 31
0.0
  0
LINE
  5
F10760
330
261
100
AcDbEntity
  8
Geo
100
AcDbLine
 10
-70.8627753303966
 20
9.493779713798449
 30
0.0
 11
-70.76277533039659
 21
9.424579612912939
 31
0.0
  0
LINE
  5
F10762
330
261
100
AcDbEntity
  8
Geo
100
AcDbLine
 10
-70.76277533039659
 20
13.3945511668896
 30
0.0
 11
-70.66277533039659
 21
13.3590273625997
 31
0.0
  0
LINE
  5
F10764
330
261
100
AcDbEntity
  8
Geo
100
AcDbLine
 10
-70.76277533039659
 20
9.424579612912939
 30
0.0
 11
-70.66277533039659
 21
9.356281389058938
 31
0.0
  0
LINE
  5
F10766
330
261
100
AcDbEntity
  8
Geo
100
AcDbLine
 10
-70.66277533039659
 20
13.3590273625997
 30
0.0
 11
-70.56277533039659
 21
13.3217371246537
 31
0.0
  0
LINE
  5
F10768
330
261
100
AcDbEntity
  8
Geo
100
AcDbLine
 10
-70.66277533039659
 20
9.356281389058938
 30
0.0
 11
-70.56277533039659
 21
9.28893136154028
 31
0.0
  0
LINE
  5
F1076A
330
261
100
AcDbEntity
  8
Geo
100
AcDbLine
 10
-70.56277533039659
 20
13.3217371246537
 30
0.0
 11
-70.4627753303966
 21
13.2827057429897
 31
0.0
  0
LINE
  5
F1076C
330
261
100
AcDbEntity
  8
Geo
100
AcDbLine
 10
-70.56277533039659
 20
9.28893136154028
 30
0.0
 11
-70.4627753303966
 21
9.222575206601669
 31
0.0
  0
LINE
  5
F1076E
330
261
100
AcDbEntity
  8
Geo
100
AcDbLine
 10
-70.4627753303966
 20
13.2827057429897
 30
0.0
 11
-70.3627753303966
 21
13.2419596883756
 31
0.0
  0
LINE
  5
F10770
330
261
100
AcDbEntity
  8
Geo
100
AcDbLine
 10
-70.4627753303966
 20
9.222575206601669
 30
0.0
 11
-70.3627753303966
 21
9.157257926451489
 31
0.0
  0
LINE
  5
F10772
330
261
100
AcDbEntity
  8
Geo
100
AcDbLine
 10
-70.3627753303966
 20
13.2419596883756
 30
0.0
 11
-70.2627753303966
 21
13.1995265944565
 31
0.0
  0
LINE
  5
F10774
330
261
100
AcDbEntity
  8
Geo
100
AcDbLine
 10
-70.3627753303966
 20
9.157257926451489
 30
0.0
 11
-70.2627753303966
 21
9.09302381874159
 31
0.0
  0
LINE
  5
F10776
330
261
100
AcDbEntity
  8
Geo
100
AcDbLine
 10
-70.2627753303966
 20
13.1995265944565
 30
0.0
 11
-70.1627753303966
 21
13.155435239014
 31
0.0
  0
LINE
  5
F10778
330
261
100
AcDbEntity
  8
Geo
100
AcDbLine
 10
-70.2627753303966
 20
9.09302381874159
 30
0.0
 11
-70.1627753303966
 21
9.029916446525049
 31
0.0
  0
LINE
  5
F1077A
330
261
100
AcDbEntity
  8
Geo
100
AcDbLine
 10
-70.1627753303966
 20
13.155435239014
 30
0.0
 11
-70.06277533039661
 21
13.1097155244493
 31
0.0
  0
LINE
  5
F1077C
330
261
100
AcDbEntity
  8
Geo
100
AcDbLine
 10
-70.1627753303966
 20
9.029916446525049
 30
0.0
 11
-70.06277533039661
 21
8.967978608712009
 31
0.0
  0
LINE
  5
F1077E
330
261
100
AcDbEntity
  8
Geo
100
AcDbLine
 10
-70.06277533039661
 20
13.1097155244493
 30
0.0
 11
-69.96277533039661
 21
13.0623984575035
 31
0.0
  0
LINE
  5
F10780
330
261
100
AcDbEntity
  8
Geo
100
AcDbLine
 10
-70.06277533039661
 20
8.967978608712009
 30
0.0
 11
-69.96277533039661
 21
8.907252311043858
 31
0.0
  0
LINE
  5
F10782
330
261
100
AcDbEntity
  8
Geo
100
AcDbLine
 10
-69.96277533039661
 20
13.0623984575035
 30
0.0
 11
-69.8627753303966
 21
13.0135161282293
 31
0.0
  0
LINE
  5
F10784
330
261
100
AcDbEntity
  8
Geo
100
AcDbLine
 10
-69.96277533039661
 20
8.907252311043858
 30
0.0
 11
-69.8627753303966
 21
8.84777873760523
 31
0.0
  0
LINE
  5
F10786
330
261
100
AcDbEntity
  8
Geo
100
AcDbLine
 10
-69.8627753303966
 20
13.0135161282293
 30
0.0
 11
-69.7627753303966
 21
12.9631016882275
 31
0.0
  0
LINE
  5
F10788
330
261
100
AcDbEntity
  8
Geo
100
AcDbLine
 10
-69.8627753303966
 20
8.84777873760523
 30
0.0
 11
-69.7627753303966
 21
8.78959822289328
 31
0.0
  0
LINE
  5
F1078A
330
261
100
AcDbEntity
  8
Geo
100
AcDbLine
 10
-69.7627753303966
 20
12.9631016882275
 30
0.0
 11
-69.6627753303966
 21
12.9111893281644
 31
0.0
  0
LINE
  5
F1078C
330
261
100
AcDbEntity
  8
Geo
100
AcDbLine
 10
-69.7627753303966
 20
8.78959822289328
 30
0.0
 11
-69.6627753303966
 21
8.732750224463201
 31
0.0
  0
LINE
  5
F1078E
330
261
100
AcDbEntity
  8
Geo
100
AcDbLine
 10
-69.6627753303966
 20
12.9111893281644
 30
0.0
 11
-69.5627753303966
 21
12.8578142545831
 31
0.0
  0
LINE
  5
F10790
330
261
100
AcDbEntity
  8
Geo
100
AcDbLine
 10
-69.6627753303966
 20
8.732750224463201
 30
0.0
 11
-69.5627753303966
 21
8.67727329616841
 31
0.0
  0
LINE
  5
F10792
330
261
100
AcDbEntity
  8
Geo
100
AcDbLine
 10
-69.5627753303966
 20
12.8578142545831
 30
0.0
 11
-69.46277533039661
 21
12.8030126660275
 31
0.0
  0
LINE
  5
F10794
330
261
100
AcDbEntity
  8
Geo
100
AcDbLine
 10
-69.5627753303966
 20
8.67727329616841
 30
0.0
 11
-69.46277533039661
 21
8.623205062013619
 31
0.0
  0
LINE
  5
F10796
330
261
100
AcDbEntity
  8
Geo
100
AcDbLine
 10
-69.46277533039661
 20
12.8030126660275
 30
0.0
 11
-69.3627753303966
 21
12.7468217284923
 31
0.0
  0
LINE
  5
F10798
330
261
100
AcDbEntity
  8
Geo
100
AcDbLine
 10
-69.46277533039661
 20
8.623205062013619
 30
0.0
 11
-69.3627753303966
 21
8.57058219063855
 31
0.0
  0
LINE
  5
F1079A
330
261
100
AcDbEntity
  8
Geo
100
AcDbLine
 10
-69.3627753303966
 20
12.7468217284923
 30
0.0
 11
-69.26277533039661
 21
12.6892795502177
 31
0.0
  0
LINE
  5
F1079C
330
261
100
AcDbEntity
  8
Geo
100
AcDbLine
 10
-69.3627753303966
 20
8.57058219063855
 30
0.0
 11
-69.26277533039661
 21
8.51944037044957
 31
0.0
  0
LINE
  5
F1079E
330
261
100
AcDbEntity
  8
Geo
100
AcDbLine
 10
-69.26277533039661
 20
12.6892795502177
 30
0.0
 11
-69.1627753303966
 21
12.6304251558441
 31
0.0
  0
LINE
  5
F107A0
330
261
100
AcDbEntity
  8
Geo
100
AcDbLine
 10
-69.26277533039661
 20
8.51944037044957
 30
0.0
 11
-69.1627753303966
 21
8.469814285416099
 31
0.0
  0
LINE
  5
F107A2
330
261
100
AcDbEntity
  8
Geo
100
AcDbLine
 10
-69.1627753303966
 20
12.6304251558441
 30
0.0
 11
-69.0627753303966
 21
12.5702984599464
 31
0.0
  0
LINE
  5
F107A4
330
261
100
AcDbEntity
  8
Geo
100
AcDbLine
 10
-69.1627753303966
 20
8.469814285416099
 30
0.0
 11
-69.0627753303966
 21
8.421737591548199
 31
0.0
  0
LINE
  5
F107A6
330
261
100
AcDbEntity
  8
Geo
100
AcDbLine
 10
-69.0627753303966
 20
12.5702984599464
 30
0.0
 11
-68.96277533039661
 21
12.5089402399643
 31
0.0
  0
LINE
  5
F107A8
330
261
100
AcDbEntity
  8
Geo
100
AcDbLine
 10
-69.0627753303966
 20
8.421737591548199
 30
0.0
 11
-68.96277533039661
 21
8.375242894071361
 31
0.0
  0
LINE
  5
F107AA
330
261
100
AcDbEntity
  8
Geo
100
AcDbLine
 10
-68.96277533039661
 20
12.5089402399643
 30
0.0
 11
-68.8627753303966
 21
12.446392108547
 31
0.0
  0
LINE
  5
F107AC
330
261
100
AcDbEntity
  8
Geo
100
AcDbLine
 10
-68.96277533039661
 20
8.375242894071361
 30
0.0
 11
-68.8627753303966
 21
8.330361725313901
 31
0.0
  0
LINE
  5
F107AE
330
261
100
AcDbEntity
  8
Geo
100
AcDbLine
 10
-68.8627753303966
 20
12.446392108547
 30
0.0
 11
-68.76277533039661
 21
12.382696485332
 31
0.0
  0
LINE
  5
F107B0
330
261
100
AcDbEntity
  8
Geo
100
AcDbLine
 10
-68.8627753303966
 20
8.330361725313901
 30
0.0
 11
-68.76277533039661
 21
8.28712452332201
 31
0.0
  0
LINE
  5
F107B2
330
261
100
AcDbEntity
  8
Geo
100
AcDbLine
 10
-68.76277533039661
 20
12.382696485332
 30
0.0
 11
-68.6627753303966
 21
12.3178965681766
 31
0.0
  0
LINE
  5
F107B4
330
261
100
AcDbEntity
  8
Geo
100
AcDbLine
 10
-68.76277533039661
 20
8.28712452332201
 30
0.0
 11
-68.6627753303966
 21
8.245560611216859
 31
0.0
  0
LINE
  5
F107B6
330
261
100
AcDbEntity
  8
Geo
100
AcDbLine
 10
-68.6627753303966
 20
12.3178965681766
 30
0.0
 11
-68.5627753303966
 21
12.2520363038612
 31
0.0
  0
LINE
  5
F107B8
330
261
100
AcDbEntity
  8
Geo
100
AcDbLine
 10
-68.6627753303966
 20
8.245560611216859
 30
0.0
 11
-68.5627753303966
 21
8.205698177307969
 31
0.0
  0
LINE
  5
F107BA
330
261
100
AcDbEntity
  8
Geo
100
AcDbLine
 10
-68.5627753303966
 20
12.2520363038612
 30
0.0
 11
-68.46277533039661
 21
12.1851603582852
 31
0.0
  0
LINE
  5
F107BC
330
261
100
AcDbEntity
  8
Geo
100
AcDbLine
 10
-68.5627753303966
 20
8.205698177307969
 30
0.0
 11
-68.46277533039661
 21
8.167564255976058
 31
0.0
  0
LINE
  5
F107BE
330
261
100
AcDbEntity
  8
Geo
100
AcDbLine
 10
-68.46277533039661
 20
12.1851603582852
 30
0.0
 11
-68.3627753303966
 21
12.1173140861747
 31
0.0
  0
LINE
  5
F107C0
330
261
100
AcDbEntity
  8
Geo
100
AcDbLine
 10
-68.46277533039661
 20
8.167564255976058
 30
0.0
 11
-68.3627753303966
 21
8.13118470933859
 31
0.0
  0
LINE
  5
F107C2
330
261
100
AcDbEntity
  8
Geo
100
AcDbLine
 10
-68.3627753303966
 20
12.1173140861747
 30
0.0
 11
-68.26277533039661
 21
12.0485435003236
 31
0.0
  0
LINE
  5
F107C4
330
261
100
AcDbEntity
  8
Geo
100
AcDbLine
 10
-68.3627753303966
 20
8.13118470933859
 30
0.0
 11
-68.26277533039661
 21
8.09658420971029
 31
0.0
  0
LINE
  5
F107C6
330
261
100
AcDbEntity
  8
Geo
100
AcDbLine
 10
-68.26277533039661
 20
12.0485435003236
 30
0.0
 11
-68.16277533039659
 21
11.9788952403877
 31
0.0
  0
LINE
  5
F107C8
330
261
100
AcDbEntity
  8
Geo
100
AcDbLine
 10
-68.26277533039661
 20
8.09658420971029
 30
0.0
 11
-68.16277533039659
 21
8.06378622287054
 31
0.0
  0
LINE
  5
F107CA
330
261
100
AcDbEntity
  8
Geo
100
AcDbLine
 10
-68.16277533039659
 20
11.9788952403877
 30
0.0
 11
-68.0627753303966
 21
11.9084165412545
 31
0.0
  0
LINE
  5
F107CC
330
261
100
AcDbEntity
  8
Geo
100
AcDbLine
 10
-68.16277533039659
 20
8.06378622287054
 30
0.0
 11
-68.0627753303966
 21
8.03281299214915
 31
0.0
  0
LINE
  5
F107CE
330
261
100
AcDbEntity
  8
Geo
100
AcDbLine
 10
-68.0627753303966
 20
11.9084165412545
 30
0.0
 11
-68.0627753303966
 21
12.3004649495804
 31
0.0
  0
LINE
  5
F107D0
330
261
100
AcDbEntity
  8
Geo
100
AcDbLine
 10
-68.0627753303966
 20
11.9084165412545
 30
0.0
 11
-68.0627753303966
 21
11.4613485094619
 31
0.0
  0
LINE
  5
F107D2
330
261
100
AcDbEntity
  8
Geo
100
AcDbLine
 10
-68.0627753303966
 20
8.03281299214915
 30
0.0
 11
-68.0627753303966
 21
8.183471697603419
 31
0.0
  0
LINE
  5
F107D4
330
261
100
AcDbEntity
  8
Geo
100
AcDbLine
 10
-68.0627753303966
 20
8.03281299214915
 30
0.0
 11
-68.0627753303966
 21
7.83888967512016
 31
0.0
  0
LINE
  5
F107D6
330
261
100
AcDbEntity
  8
Geo
100
AcDbLine
 10
-81.06277533039659
 20
10.7544052863435
 30
0.0
 11
-81.06277533039659
 21
10.7544052863435
 31
0.0
  0
LINE
  5
F107D8
330
261
100
AcDbEntity
  8
Geo
100
AcDbLine
 10
-81.06277533039659
 20
10.7544052863435
 30
0.0
 11
-81.06277533039659
 21
10.7544052863435
 31
0.0
  0
LINE
  5
F107DA
330
261
100
AcDbEntity
  8
Geo
100
AcDbLine
 10
-24.0627753303966
 20
13.2544052863435
 30
0.0
 11
-24.0627753303966
 21
10.7544052863435
 31
0.0
  0
LINE
  5
F107DC
330
261
100
AcDbEntity
  8
Geo
100
AcDbLine
 10
-81.06277533039659
 20
10.7544052863435
 30
0.0
 11
-81.06277533039659
 21
7.82440528634351
 31
0.0
  0
LINE
  5
F107DE
330
261
100
AcDbEntity
  8
Geo
100
AcDbLine
 10
-81.06277533039659
 20
7.82440528634351
 30
0.0
 11
-80.99277533039659
 21
7.75440528634351
 31
0.0
  0
LINE
  5
F107E0
330
261
100
AcDbEntity
  8
Geo
100
AcDbLine
 10
-80.99277533039659
 20
7.75440528634351
 30
0.0
 11
-68.0627753303966
 21
7.75440528634351
 31
0.0
  0
LINE
  5
F107E2
330
261
100
AcDbEntity
  8
Geo
100
AcDbLine
 10
-68.0627753303966
 20
7.75440528634351
 30
0.0
 11
-68.0627753303966
 21
8.00440528634351
 31
0.0
  0
LINE
  5
F107E4
330
261
100
AcDbEntity
  8
Geo
100
AcDbLine
 10
-68.0627753303966
 20
8.00440528634351
 30
0.0
 11
-60.06277533039661
 21
8.00440528634351
 31
0.0
  0
LINE
  5
F107E6
330
261
100
AcDbEntity
  8
Geo
100
AcDbLine
 10
-60.06277533039661
 20
8.00440528634351
 30
0.0
 11
-60.06277533039661
 21
7.75440528634351
 31
0.0
  0
LINE
  5
F107E8
330
261
100
AcDbEntity
  8
Geo
100
AcDbLine
 10
-60.06277533039661
 20
7.75440528634351
 30
0.0
 11
-24.5627753303966
 21
7.75440528634351
 31
0.0
  0
LINE
  5
F107EA
330
261
100
AcDbEntity
  8
Geo
100
AcDbLine
 10
-24.5627753303966
 20
7.75440528634351
 30
0.0
 11
-24.0627753303966
 21
8.25440528634351
 31
0.0
  0
LINE
  5
F107EC
330
261
100
AcDbEntity
  8
Geo
100
AcDbLine
 10
-81.06277533039659
 20
13.6844052863435
 30
0.0
 11
-81.06277533039659
 21
7.82440528634351
 31
0.0
  0
LINE
  5
F107EE
330
261
100
AcDbEntity
  8
Geo
100
AcDbLine
 10
-80.99277533039659
 20
13.7544052863435
 30
0.0
 11
-80.99277533039659
 21
7.75440528634351
 31
0.0
  0
LINE
  5
F107F0
330
261
100
AcDbEntity
  8
Geo
100
AcDbLine
 10
-68.0627753303966
 20
13.7544052863435
 30
0.0
 11
-68.0627753303966
 21
7.75440528634351
 31
0.0
  0
LINE
  5
F107F2
330
261
100
AcDbEntity
  8
Geo
100
AcDbLine
 10
-68.0627753303966
 20
13.5044052863435
 30
0.0
 11
-68.0627753303966
 21
8.00440528634351
 31
0.0
  0
LINE
  5
F107F4
330
261
100
AcDbEntity
  8
Geo
100
AcDbLine
 10
-60.06277533039661
 20
13.5044052863435
 30
0.0
 11
-60.06277533039661
 21
8.00440528634351
 31
0.0
  0
LINE
  5
F107F6
330
261
100
AcDbEntity
  8
Geo
100
AcDbLine
 10
-60.06277533039661
 20
13.7544052863435
 30
0.0
 11
-60.06277533039661
 21
7.75440528634351
 31
0.0
  0
LINE
  5
F107F8
330
261
100
AcDbEntity
  8
Geo
100
AcDbLine
 10
-24.5627753303966
 20
13.7544052863435
 30
0.0
 11
-24.5627753303966
 21
7.75440528634351
 31
0.0
  0
LINE
  5
F107FA
330
261
100
AcDbEntity
  8
Geo
100
AcDbLine
 10
-24.0627753303966
 20
13.2544052863435
 30
0.0
 11
-24.0627753303966
 21
8.25440528634351
 31
0.0
  0
LWPOLYLINE
  5
F10860
330
261
100
AcDbEntity
  8
Rahmen
100
AcDbPolyline
 90
        4
 70
     1
 43
0.0
 10
-134.546511627907
 20
99.87209302325581
 10
143.337209302326
 20
99.87209302325581
 10
143.337209302326
 20
-100.116279069767
 10
-134.546511627907
 20
-100.116279069767
  0
TEXT
  5
F10862
330
261
100
AcDbEntity
  8
Text
100
AcDbText
 10
-133.56976744186
 20
-99.6162790697674
 30
0.0
 40
1.0
  1
ISBESketcher
100
AcDbText
  0
LWPOLYLINE
  5
F10864
330
261
100
AcDbEntity
  8
Rahmen
100
AcDbPolyline
 90
        4
 70
     1
 43
0.0
 10
103.290697674419
 20
-97.18604651162792
 10
143.337209302326
 20
-97.18604651162792
 10
143.337209302326
 20
-100.116279069767
 10
103.290697674419
 20
-100.116279069767
  0
TEXT
  5
F10866
330
261
100
AcDbEntity
  8
Text
100
AcDbText
 10
104.267441860465
 20
-99.18604651162791
 30
0.0
 40
1.5
  1
Ers. durch:
100
AcDbText
  0
TEXT
  5
F10868
330
261
100
AcDbEntity
  8
Text
100
AcDbText
 10
126.976744186046
 20
-99.18604651162791
 30
0.0
 40
1.5
  1
A. Steigner
100
AcDbText
  0
LWPOLYLINE
  5
F1086A
330
261
100
AcDbEntity
  8
Rahmen
100
AcDbPolyline
 90
        4
 70
     1
 43
0.0
 10
63.4883720930233
 20
-97.18604651162792
 10
103.290697674419
 20
-97.18604651162792
 10
103.290697674419
 20
-100.116279069767
 10
63.4883720930233
 20
-100.116279069767
  0
TEXT
  5
F1086C
330
261
100
AcDbEntity
  8
Text
100
AcDbText
 10
64.46511627906978
 20
-99.18604651162791
 30
0.0
 40
1.5
  1
Ers. für:
100
AcDbText
  0
TEXT
  5
F1086E
330
261
100
AcDbEntity
  8
Text
100
AcDbText
 10
91.32558139534879
 20
-100.651162790698
 30
0.0
 40
1.5
  1

100
AcDbText
  0
LWPOLYLINE
  5
F10870
330
261
100
AcDbEntity
  8
Rahmen
100
AcDbPolyline
 90
        4
 70
     1
 43
0.0
 10
130.151162790698
 20
-94.0116279069767
 10
143.337209302326
 20
-94.0116279069767
 10
143.337209302326
 20
-97.18604651162792
 10
130.151162790698
 20
-97.18604651162792
  0
TEXT
  5
F10872
330
261
100
AcDbEntity
  8
Text
100
AcDbText
 10
131.127906976744
 20
-96.01162790697671
 30
0.0
 40
1.5
  1
Blätter
100
AcDbText
  0
TEXT
  5
F10874
330
261
100
AcDbEntity
  8
Text
100
AcDbText
 10
141.383720930233
 20
-97.47674418604651
 30
0.0
 40
1.5
  1

100
AcDbText
  0
LWPOLYLINE
  5
F10876
330
261
100
AcDbEntity
  8
Rahmen
100
AcDbPolyline
 90
        4
 70
     1
 43
0.0
 10
130.151162790698
 20
-91.0813953488372
 10
143.337209302326
 20
-91.0813953488372
 10
143.337209302326
 20
-94.0116279069767
 10
130.151162790698
 20
-94.0116279069767
  0
TEXT
  5
F10878
330
261
100
AcDbEntity
  8
Text
100
AcDbText
 10
131.127906976744
 20
-93.0813953488372
 30
0.0
 40
1.5
  1
Blatt
100
AcDbText
  0
TEXT
  5
F1087A
330
261
100
AcDbEntity
  8
Text
100
AcDbText
 10
141.383720930233
 20
-94.54651162790701
 30
0.0
 40
1.5
  1

100
AcDbText
  0
LWPOLYLINE
  5
F1087C
330
261
100
AcDbEntity
  8
Rahmen
100
AcDbPolyline
 90
        4
 70
     1
 43
0.0
 10
63.4883720930233
 20
-91.0813953488372
 10
130.151162790698
 20
-91.0813953488372
 10
130.151162790698
 20
-97.18604651162792
 10
63.4883720930233
 20
-97.18604651162792
  0
TEXT
  5
F1087E
330
261
100
AcDbEntity
  8
Text
100
AcDbText
 10
64.46511627906978
 20
-93.0813953488372
 30
0.0
 40
1.5
  1
Datum:
100
AcDbText
  0
TEXT
  5
F10880
330
261
100
AcDbEntity
  8
Text
100
AcDbText
 10
91.0813953488372
 20
-96.01162790697671
 30
0.0
 40
1.5
  1
06.06.2014
100
AcDbText
  0
LWPOLYLINE
  5
F10882
330
261
100
AcDbEntity
  8
Rahmen
100
AcDbPolyline
 90
        4
 70
     1
 43
0.0
 10
63.4883720930233
 20
-85.22093023255811
 10
143.337209302326
 20
-85.22093023255811
 10
143.337209302326
 20
-91.0813953488372
 10
63.4883720930233
 20
-91.0813953488372
  0
TEXT
  5
F10884
330
261
100
AcDbEntity
  8
Text
100
AcDbText
 10
-165.802325581395
 20
103.0
 30
0.0
 40
1.5
  1

100
AcDbText
  0
TEXT
  5
F10886
330
261
100
AcDbEntity
  8
Text
100
AcDbText
 10
94.9883720930233
 20
-89.0426356589147
 30
0.0
 40
2.5
  1
7535-060
100
AcDbText
  0
LWPOLYLINE
  5
F10888
330
261
100
AcDbEntity
  8
Rahmen
100
AcDbPolyline
 90
        4
 70
     1
 43
0.0
 10
103.290697674419
 20
-79.11627906976741
 10
143.337209302326
 20
-79.11627906976741
 10
143.337209302326
 20
-85.22093023255811
 10
103.290697674419
 20
-85.22093023255811
  0
TEXT
  5
F1088A
330
261
100
AcDbEntity
  8
Text
100
AcDbText
 10
-165.802325581395
 20
103.0
 30
0.0
 40
1.5
  1

100
AcDbText
  0
TEXT
  5
F1088C
330
261
100
AcDbEntity
  8
Text
100
AcDbText
 10
-165.802325581395
 20
103.0
 30
0.0
 40
1.5
  1

100
AcDbText
  0
LWPOLYLINE
  5
F1088E
330
261
100
AcDbEntity
  8
Rahmen
100
AcDbPolyline
 90
        4
 70
     1
 43
0.0
 10
63.4883720930233
 20
-79.11627906976741
 10
103.290697674419
 20
-79.11627906976741
 10
103.290697674419
 20
-85.22093023255811
 10
63.4883720930233
 20
-85.22093023255811
  0
TEXT
  5
F10890
330
261
100
AcDbEntity
  8
Text
100
AcDbText
 10
64.46511627906978
 20
-81.11627906976741
 30
0.0
 40
1.5
  1
Werkstoff:
100
AcDbText
  0
LWPOLYLINE
  5
F10894
330
261
100
AcDbEntity
  8
Rahmen
100
AcDbPolyline
 90
        4
 70
     1
 43
0.0
 10
103.290697674419
 20
-76.1860465116279
 10
143.337209302326
 20
-76.1860465116279
 10
143.337209302326
 20
-79.11627906976741
 10
103.290697674419
 20
-79.11627906976741
  0
TEXT
  5
F10896
330
261
100
AcDbEntity
  8
Text
100
AcDbText
 10
-165.802325581395
 20
103.0
 30
0.0
 40
1.5
  1

100
AcDbText
  0
LWPOLYLINE
  5
F1089A
330
261
100
AcDbEntity
  8
Rahmen
100
AcDbPolyline
 90
        4
 70
     1
 43
0.0
 10
63.4883720930233
 20
-76.1860465116279
 10
103.290697674419
 20
-76.1860465116279
 10
103.290697674419
 20
-79.11627906976741
 10
63.4883720930233
 20
-79.11627906976741
  0
TEXT
  5
F1089C
330
261
100
AcDbEntity
  8
Text
100
AcDbText
 10
64.46511627906978
 20
-78.1860465116279
 30
0.0
 40
1.5
  1
Maßstab:
100
AcDbText
  0
TEXT
  5
F1089E
330
261
100
AcDbEntity
  8
Text
100
AcDbText
 10
88.8837209302326
 20
-78.1860465116279
 30
0.0
 40
1.5
  1
1 : 1
100
AcDbText
  0
VIEWPORT
  5
294
102
{ACAD_XDICTIONARY
360
F10C6D
102
}
330
25D
100
AcDbEntity
 67
     1
  8
0
 60
     1
100
AcDbViewport
 10
0.0
 20
0.0
 30
0.0
 40
10.0
 41
10.0
 68
    -1
 69
     1
 12
0.0
 22
0.0
 13
0.0
 23
0.0
 14
1.0
 24
1.0
 15
0.0
 25
0.0
 16
0.0
 26
0.0
 36
1.0
 17
0.0
 27
0.0
 37
0.0
 42
0.0
 43
0.0
 44
0.0
 45
10.0
 50
0.0
 51
0.0000000000007958
 72
   100
 90
    32800
  1

281
     0
 71
     0
 74
     0
110
0.0
120
0.0
130
0.0
111
1.0
121
0.0
131
0.0
112
0.0
122
1.0
132
0.0
 79
     0
146
0.0
1001
VD_INVISIBLE_NOT_FOR_READ
1000
VD_INVISIBLE_NOT_FOR_READ
1001
GENIUS_GENSCREG_15
1000
PF
1040
1.0
1000
DF
1040
1.0
1000
MIN
1011
-5.0
1021
-5.0
1031
0.0
1000
MAX
1011
5.0
1021
5.0
1031
0.0
1000
FLAGS
1070
     4
1001
GENIUS_GENODEF_13
1002
{
1000
HIER
1070
     0
1002
}
1002
{
1000
MANEDIT
1070
     0
1002
}
1002
{
1000
NOSEL
1070
     0
1002
}
1002
{
1000
BEHIND
1070
     0
1002
}
1002
{
1000
OTHER
1070
     0
1002
}
1002
{
1000
REACTOR
1002
}
1001
GENIUS_GENOBJ-N-SDF_13
1002
{
1000
OWNER
1000
GEN
1002
}
  0
VIEWPORT
  5
295
102
{ACAD_XDICTIONARY
360
F10C6F
102
}
330
25D
100
AcDbEntity
 67
     1
  8
0
 60
     1
100
AcDbViewport
 10
0.0
 20
0.0
 30
0.0
 40
10.0
 41
10.0
 68
     0
 69
     2
 12
0.0
 22
0.0
 13
0.0
 23
0.0
 14
1.0
 24
1.0
 15
0.0
 25
0.0
 16
0.0
 26
0.0
 36
1.0
 17
0.0
 27
0.0
 37
0.0
 42
0.0
 43
0.0
 44
0.0
 45
10.0
 50
0.0
 51
0.0000000000007958
 72
   100
 90
   163872
  1

281
     0
 71
     0
 74
     0
110
0.0
120
0.0
130
0.0
111
1.0
121
0.0
131
0.0
112
0.0
122
1.0
132
0.0
 79
     0
146
0.0
1001
VD_INVISIBLE_NOT_FOR_READ
1000
VD_INVISIBLE_NOT_FOR_READ
1001
GENIUS_GENSCREG_15
1000
PF
1040
1.0
1000
DF
1040
1.0
1000
MIN
1011
-5.0
1021
-5.0
1031
0.0
1000
MAX
1011
5.0
1021
5.0
1031
0.0
1000
FLAGS
1070
     4
1001
GENIUS_GENODEF_13
1002
{
1000
HIER
1070
     0
1002
}
1002
{
1000
MANEDIT
1070
     0
1002
}
1002
{
1000
NOSEL
1070
     0
1002
}
1002
{
1000
BEHIND
1070
     0
1002
}
1002
{
1000
OTHER
1070
     0
1002
}
1002
{
1000
REACTOR
1002
}
1001
GENIUS_GENOBJ-N-SDF_13
1002
{
1000
OWNER
1000
GEN
1002
}
  0
ENDSEC
  0
SECTION
  2
OBJECTS
  0
DICTIONARY
  5
13
330
0
100
AcDbDictionary
281
     1
  3
ACAD_COLOR
350
FA7
  3
ACAD_GROUP
350
14
  3
ACAD_LAYOUT
350
FCF
  3
ACAD_MATERIAL
350
F7A
  3
ACAD_MLEADERSTYLE
350
FCD
  3
ACAD_MLINESTYLE
350
16
  3
ACAD_PLOTSETTINGS
350
17
  3
ACAD_PLOTSTYLENAME
350
18
  3
ACAD_SCALELIST
350
FAB
  3
ACAD_TABLESTYLE
350
FA8
  3
ACAD_VISUALSTYLE
350
F93
  3
ACDB_RECOMPOSE_DATA
350
F10C6B
  3
AcDbVariableDictionary
350
F10C5E
  3
AcmDictionary
350
F108F5
  3
AMG
350
F108A9
  3
AMGSNAPSETTINGS
350
F10936
  3
DWGPROPS
350
F10C6C
  0
DICTIONARY
  5
F10C54
330
252
100
AcDbDictionary
280
     1
281
     1
  3
ADSK_XREC_LAYER_RECONCILED
360
F10C55
  0
DICTIONARY
  5
F10C56
330
23F
100
AcDbDictionary
280
     1
281
     1
  3
ADSK_XREC_LAYER_RECONCILED
360
F10C57
  0
DICTIONARY
  5
F10C58
330
240
100
AcDbDictionary
280
     1
281
     1
  3
ADSK_XREC_LAYER_RECONCILED
360
F10C59
  0
DICTIONARY
  5
F10C5A
330
241
100
AcDbDictionary
280
     1
281
     1
  3
ADSK_XREC_LAYER_RECONCILED
360
F10C5B
  0
DICTIONARY
  5
F10C5C
330
57E
100
AcDbDictionary
280
     1
281
     1
  3
ADSK_XREC_LAYER_RECONCILED
360
F10C5D
  0
DICTIONARY
  5
F10C71
330
296
100
AcDbDictionary
280
     1
281
     1
  3
ACAD_XREC_ROUNDTRIP
360
F10C72
  0
DICTIONARY
  5
F10C73
330
297
100
AcDbDictionary
280
     1
281
     1
  3
ACAD_XREC_ROUNDTRIP
360
F10C74
  0
DICTIONARY
  5
F10C67
330
F10947
100
AcDbDictionary
280
     1
281
     1
  3
ACAD_MTEXT_2008_RT
360
F10C68
  0
DICTIONARY
  5
F10C69
330
F10954
100
AcDbDictionary
280
     1
281
     1
  3
ACAD_MTEXT_2008_RT
360
F10C6A
  0
DICTIONARY
  5
F10C6D
330
294
100
AcDbDictionary
280
     1
281
     1
  3
ACAD_XREC_ROUNDTRIP
360
F10C6E
  0
DICTIONARY
  5
F10C6F
330
295
100
AcDbDictionary
280
     1
281
     1
  3
ACAD_XREC_ROUNDTRIP
360
F10C70
  0
DICTIONARY
  5
FA7
102
{ACAD_REACTORS
330
13
102
}
330
13
100
AcDbDictionary
281
     1
  0
DICTIONARY
  5
14
330
13
100
AcDbDictionary
281
     1
  0
DICTIONARY
  5
FCF
102
{ACAD_REACTORS
330
13
102
}
330
13
100
AcDbDictionary
281
     1
  3
Layout1
350
FD1
  3
Model
350
FD0
  0
DICTIONARY
  5
F7A
102
{ACAD_REACTORS
330
13
102
}
330
13
100
AcDbDictionary
281
     1
  3
ByBlock
350
F83
  3
ByLayer
350
F7B
  3
Global
350
F8B
  0
DICTIONARY
  5
FCD
102
{ACAD_REACTORS
330
13
102
}
330
13
100
AcDbDictionary
281
     1
  3
Standard
350
FCE
  0
DICTIONARY
  5
16
330
13
100
AcDbDictionary
281
     1
  3
Standard
350
FAA
  0
DICTIONARY
  5
17
102
{ACAD_REACTORS
330
13
102
}
330
13
100
AcDbDictionary
281
     1
  0
ACDBDICTIONARYWDFLT
  5
18
102
{ACAD_REACTORS
330
13
102
}
330
13
100
AcDbDictionary
281
     1
  3
Normal
350
19
100
AcDbDictionaryWithDefault
340
19
  0
DICTIONARY
  5
FAB
102
{ACAD_REACTORS
330
13
102
}
330
13
100
AcDbDictionary
281
     1
  3
A0
350
FAC
  3
A1
350
FAD
  3
A2
350
FAE
  3
A3
350
FAF
  3
A4
350
FB0
  3
A5
350
FB1
  3
A6
350
FB2
  3
A7
350
FB3
  3
A8
350
FB4
  3
A9
350
FB5
  3
B0
350
FB6
  3
B1
350
FB7
  3
B2
350
FB8
  3
B3
350
FB9
  3
B4
350
FBA
  3
B5
350
FBB
  3
B6
350
FBC
  3
B7
350
FBD
  3
B8
350
FBE
  3
B9
350
FBF
  3
C0
350
FC0
  3
C1
350
FC1
  3
C2
350
FC2
  3
C3
350
FC3
  3
C4
350
FC4
  3
C5
350
FC5
  3
C6
350
FC6
  3
C7
350
FC7
  3
C8
350
FC8
  3
C9
350
FC9
  3
D0
350
FCA
  3
D1
350
FCB
  3
D2
350
FCC
  0
DICTIONARY
  5
FA8
102
{ACAD_REACTORS
330
13
102
}
330
13
100
AcDbDictionary
281
     1
  3
Standard
350
FA9
  0
DICTIONARY
  5
F93
102
{ACAD_REACTORS
330
13
102
}
330
13
100
AcDbDictionary
281
     1
  3
2dWireframe
350
F99
  3
3D Hidden
350
F9B
  3
3dWireframe
350
F9A
  3
Basic
350
F98
  3
Brighten
350
F9F
  3
ColorChange
350
FA3
  3
Conceptual
350
F9C
  3
Dim
350
F9E
  3
EdgeColorOff
350
FA6
  3
Facepattern
350
FA2
  3
Flat
350
F94
  3
FlatWithEdges
350
F95
  3
Gouraud
350
F96
  3
GouraudWithEdges
350
F97
  3
Hidden
350
F108A1
  3
JitterOff
350
FA4
  3
Linepattern
350
FA1
  3
OverhangOff
350
FA5
  3
Realistic
350
F9D
  3
Shaded
350
F108A6
  3
Shaded with edges
350
F108A5
  3
Shades of Gray
350
F108A2
  3
Sketchy
350
F108A3
  3
Thicken
350
FA0
  3
Wireframe
350
F108A0
  3
X-Ray
350
F108A4
  0
XRECORD
  5
F10C6B
102
{ACAD_REACTORS
330
13
102
}
330
13
100
AcDbXrecord
280
     1
 90
        1
330
FA9
330
F10947
330
F10954
  0
DICTIONARY
  5
F10C5E
102
{ACAD_REACTORS
330
13
102
}
330
13
100
AcDbDictionary
281
     1
  3
CANNOSCALE
350
F10C61
  3
CMLEADERSTYLE
350
F10C60
  3
CTABLESTYLE
350
F10C5F
  3
DIMASSOC
350
F10C64
  3
INDEXCTL
350
F10C63
  3
SORTENTS
350
F10C62
  3
XCLIPFRAME
350
F10C65
  0
DICTIONARY
  5
F108F5
102
{ACAD_REACTORS
330
13
102
}
330
13
100
AcDbDictionary
281
     1
  3
AcmStdDictionary
350
F10900
  0
DICTIONARY
  5
F108A9
102
{ACAD_REACTORS
330
13
102
}
330
13
100
AcDbDictionary
281
     1
  0
DICTIONARY
  5
F10936
102
{ACAD_REACTORS
330
13
102
}
330
13
100
AcDbDictionary
281
     1
  0
XRECORD
  5
F10C6C
102
{ACAD_REACTORS
330
13
102
}
330
13
100
AcDbXrecord
280
     1
  1
DWGPROPS COOKIE
  2

  3

  4

  6

  7

  8
steigner
  9

300
=
301
=
302
=
303
=
304
=
305
=
306
=
307
=
308
=
309
=
 40
0.0018872222222222
 41
2456815.564529791
 42
2456815.566416053
  1

 90
        0
  0
XRECORD
  5
F10C55
102
{ACAD_REACTORS
330
F10C54
102
}
330
F10C54
100
AcDbXrecord
280
     1
290
     1
  0
XRECORD
  5
F10C57
102
{ACAD_REACTORS
330
F10C56
102
}
330
F10C56
100
AcDbXrecord
280
     1
290
     1
  0
XRECORD
  5
F10C59
102
{ACAD_REACTORS
330
F10C58
102
}
330
F10C58
100
AcDbXrecord
280
     1
290
     1
  0
XRECORD
  5
F10C5B
102
{ACAD_REACTORS
330
F10C5A
102
}
330
F10C5A
100
AcDbXrecord
280
     1
290
     1
  0
XRECORD
  5
F10C5D
102
{ACAD_REACTORS
330
F10C5C
102
}
330
F10C5C
100
AcDbXrecord
280
     1
290
     1
  0
XRECORD
  5
F10C72
102
{ACAD_REACTORS
330
F10C71
102
}
330
F10C71
100
AcDbXrecord
280
     1
102
SHADEPLOT
 70
     0
  0
XRECORD
  5
F10C74
102
{ACAD_REACTORS
330
F10C73
102
}
330
F10C73
100
AcDbXrecord
280
     1
102
SHADEPLOT
 70
     0
  0
XRECORD
  5
F10C68
102
{ACAD_REACTORS
330
F10C67
102
}
330
F10C67
100
AcDbXrecord
280
     1
 40
36962.0
  1
\A1;6.000{\H1.250000;\S+0.000~.-0.000;}
  0
XRECORD
  5
F10C6A
102
{ACAD_REACTORS
330
F10C69
102
}
330
F10C69
100
AcDbXrecord
280
     1
 40
39107.0
  1
\A1;57.000{\H1.250000;\S+0.000~.-0.000;}
  0
XRECORD
  5
F10C6E
102
{ACAD_REACTORS
330
F10C6D
102
}
330
F10C6D
100
AcDbXrecord
280
     1
102
SHADEPLOT
 70
     0
  0
XRECORD
  5
F10C70
102
{ACAD_REACTORS
330
F10C6F
102
}
330
F10C6F
100
AcDbXrecord
280
     1
102
SHADEPLOT
 70
     0
  0
LAYOUT
  5
FD1
102
{ACAD_XDICTIONARY
360
F10C9E
102
}
102
{ACAD_REACTORS
330
FCF
102
}
330
FCF
100
AcDbPlotSettings
  1

  2
Microsoft XPS Document Writer
  4

  6

 40
0.0
 41
0.0
 42
0.0
 43
0.0
 44
0.0
 45
0.0
 46
0.0
 47
0.0
 48
0.0
 49
0.0
140
0.0
141
0.0
142
1.0
143
1.0
 70
   688
 72
     0
 73
     0
 74
     5
  7

 75
    16
147
1.0
148
0.0
149
0.0
100
AcDbLayout
  1
Layout1
 70
     1
 71
     1
 10
0.0
 20
0.0
 11
12.0
 21
9.0
 12
0.0
 22
0.0
 32
0.0
 14
1.000000000000000E+20
 24
1.000000000000000E+20
 34
1.000000000000000E+20
 15
-1.000000000000000E+20
 25
-1.000000000000000E+20
 35
-1.000000000000000E+20
146
0.0
 13
0.0
 23
0.0
 33
0.0
 16
1.0
 26
0.0
 36
0.0
 17
0.0
 27
1.0
 37
0.0
 76
     0
330
25D
  0
LAYOUT
  5
FD0
102
{ACAD_XDICTIONARY
360
F10C9C
102
}
102
{ACAD_REACTORS
330
FCF
102
}
330
FCF
100
AcDbPlotSettings
  1

  2
Microsoft XPS Document Writer
  4

  6

 40
0.0
 41
0.0
 42
0.0
 43
0.0
 44
0.0
 45
0.0
 46
0.0
 47
0.0
 48
0.0
 49
0.0
140
0.0
141
0.0
142
1.0
143
1.0
 70
  1712
 72
     0
 73
     0
 74
     0
  7

 75
     0
147
1.0
148
0.0
149
0.0
100
AcDbLayout
  1
Model
 70
     1
 71
     0
 10
0.0
 20
0.0
 11
12.0
 21
9.0
 12
0.0
 22
0.0
 32
0.0
 14
0.0
 24
0.0
 34
0.0
 15
0.0
 25
0.0
 35
0.0
146
0.0
 13
0.0
 23
0.0
 33
0.0
 16
1.0
 26
0.0
 36
0.0
 17
0.0
 27
1.0
 37
0.0
 76
     0
330
261
331
26B
  0
MATERIAL
  5
F83
102
{ACAD_XDICTIONARY
360
F84
102
}
102
{ACAD_REACTORS
330
F7A
102
}
330
F7A
100
AcDbMaterial
  1
ByBlock
 72
     0
 43
0.0208333333333333
 43
0.0
 43
0.0
 43
0.0
 43
0.0
 43
0.0208333333333333
 43
0.0
 43
0.0
 43
0.0
 43
0.0
 43
1.0
 43
0.0
 43
0.0
 43
0.0
 43
0.0
 43
1.0
 77
     0
 47
0.0208333333333333
 47
0.0
 47
0.0
 47
0.0
 47
0.0
 47
0.0208333333333333
 47
0.0
 47
0.0
 47
0.0
 47
0.0
 47
1.0
 47
0.0
 47
0.0
 47
0.0
 47
0.0
 47
1.0
171
     0
 49
0.0208333333333333
 49
0.0
 49
0.0
 49
0.0
 49
0.0
 49
0.0208333333333333
 49
0.0
 49
0.0
 49
0.0
 49
0.0
 49
1.0
 49
0.0
 49
0.0
 49
0.0
 49
0.0
 49
1.0
175
     0
142
0.0208333333333333
142
0.0
142
0.0
142
0.0
142
0.0
142
0.0208333333333333
142
0.0
142
0.0
142
0.0
142
0.0
142
1.0
142
0.0
142
0.0
142
0.0
142
0.0
142
1.0
179
     0
144
0.0208333333333333
144
0.0
144
0.0
144
0.0
144
0.0
144
0.0208333333333333
144
0.0
144
0.0
144
0.0
144
0.0
144
1.0
144
0.0
144
0.0
144
0.0
144
0.0
144
1.0
147
0.0208333333333333
147
0.0
147
0.0
147
0.0
147
0.0
147
0.0208333333333333
147
0.0
147
0.0
147
0.0
147
0.0
147
1.0
147
0.0
147
0.0
147
0.0
147
0.0
147
1.0
  0
MATERIAL
  5
F7B
102
{ACAD_XDICTIONARY
360
F7C
102
}
102
{ACAD_REACTORS
330
F7A
102
}
330
F7A
100
AcDbMaterial
  1
ByLayer
 72
     0
 43
0.0208333333333333
 43
0.0
 43
0.0
 43
0.0
 43
0.0
 43
0.0208333333333333
 43
0.0
 43
0.0
 43
0.0
 43
0.0
 43
1.0
 43
0.0
 43
0.0
 43
0.0
 43
0.0
 43
1.0
 77
     0
 47
0.0208333333333333
 47
0.0
 47
0.0
 47
0.0
 47
0.0
 47
0.0208333333333333
 47
0.0
 47
0.0
 47
0.0
 47
0.0
 47
1.0
 47
0.0
 47
0.0
 47
0.0
 47
0.0
 47
1.0
171
     0
 49
0.0208333333333333
 49
0.0
 49
0.0
 49
0.0
 49
0.0
 49
0.0208333333333333
 49
0.0
 49
0.0
 49
0.0
 49
0.0
 49
1.0
 49
0.0
 49
0.0
 49
0.0
 49
0.0
 49
1.0
175
     0
142
0.0208333333333333
142
0.0
142
0.0
142
0.0
142
0.0
142
0.0208333333333333
142
0.0
142
0.0
142
0.0
142
0.0
142
1.0
142
0.0
142
0.0
142
0.0
142
0.0
142
1.0
179
     0
144
0.0208333333333333
144
0.0
144
0.0
144
0.0
144
0.0
144
0.0208333333333333
144
0.0
144
0.0
144
0.0
144
0.0
144
1.0
144
0.0
144
0.0
144
0.0
144
0.0
144
1.0
147
0.0208333333333333
147
0.0
147
0.0
147
0.0
147
0.0
147
0.0208333333333333
147
0.0
147
0.0
147
0.0
147
0.0
147
1.0
147
0.0
147
0.0
147
0.0
147
0.0
147
1.0
  0
MATERIAL
  5
F8B
102
{ACAD_XDICTIONARY
360
F8C
102
}
102
{ACAD_REACTORS
330
F7A
102
}
330
F7A
100
AcDbMaterial
  1
Global
 72
     0
 43
0.0208333333333333
 43
0.0
 43
0.0
 43
0.0
 43
0.0
 43
0.0208333333333333
 43
0.0
 43
0.0
 43
0.0
 43
0.0
 43
1.0
 43
0.0
 43
0.0
 43
0.0
 43
0.0
 43
1.0
 77
     0
 47
0.0208333333333333
 47
0.0
 47
0.0
 47
0.0
 47
0.0
 47
0.0208333333333333
 47
0.0
 47
0.0
 47
0.0
 47
0.0
 47
1.0
 47
0.0
 47
0.0
 47
0.0
 47
0.0
 47
1.0
171
     0
 49
0.0208333333333333
 49
0.0
 49
0.0
 49
0.0
 49
0.0
 49
0.0208333333333333
 49
0.0
 49
0.0
 49
0.0
 49
0.0
 49
1.0
 49
0.0
 49
0.0
 49
0.0
 49
0.0
 49
1.0
175
     0
142
0.0208333333333333
142
0.0
142
0.0
142
0.0
142
0.0
142
0.0208333333333333
142
0.0
142
0.0
142
0.0
142
0.0
142
1.0
142
0.0
142
0.0
142
0.0
142
0.0
142
1.0
179
     0
144
0.0208333333333333
144
0.0
144
0.0
144
0.0
144
0.0
144
0.0208333333333333
144
0.0
144
0.0
144
0.0
144
0.0
144
1.0
144
0.0
144
0.0
144
0.0
144
0.0
144
1.0
147
0.0208333333333333
147
0.0
147
0.0
147
0.0
147
0.0
147
0.0208333333333333
147
0.0
147
0.0
147
0.0
147
0.0
147
1.0
147
0.0
147
0.0
147
0.0
147
0.0
147
1.0
  0
MLEADERSTYLE
  5
FCE
102
{ACAD_REACTORS
330
FCD
102
}
330
FCD
100
AcDbMLeaderStyle
170
     2
171
     1
172
     0
 90
        2
 40
0.0
 41
0.0
173
     1
 91
-1056964608
340
256
 92
       -2
290
     1
 42
0.09
291
     1
 43
0.36
  3
Standard
 44
0.18
300

342
253
174
     1
178
     6
175
     1
176
     0
 93
-1056964608
 45
0.18
292
     0
297
     0
 46
0.18
 94
-1056964608
 47
1.0
 49
1.0
140
1.0
293
     1
141
0.0
294
     1
177
     0
142
1.0
295
     0
296
     0
143
0.125
1001
ACAD_MLEADERVER
1070
     2
  0
MLINESTYLE
  5
FAA
102
{ACAD_REACTORS
330
16
102
}
330
16
100
AcDbMlineStyle
  2
STANDARD
 70
     0
  3

 62
   256
 51
90.0
 52
90.0
 71
     2
 49
0.5
 62
   256
  6
BYLAYER
 49
-0.5
 62
   256
  6
BYLAYER
  0
ACDBPLACEHOLDER
  5
19
102
{ACAD_REACTORS
330
18
102
}
330
18
  0
SCALE
  5
FAC
102
{ACAD_REACTORS
330
FAB
102
}
330
FAB
100
AcDbScale
 70
     0
300
1:1
140
1.0
141
1.0
290
     1
  0
SCALE
  5
FAD
102
{ACAD_REACTORS
330
FAB
102
}
330
FAB
100
AcDbScale
 70
     0
300
1:2
140
1.0
141
2.0
290
     0
  0
SCALE
  5
FAE
102
{ACAD_REACTORS
330
FAB
102
}
330
FAB
100
AcDbScale
 70
     0
300
1:4
140
1.0
141
4.0
290
     0
  0
SCALE
  5
FAF
102
{ACAD_REACTORS
330
FAB
102
}
330
FAB
100
AcDbScale
 70
     0
300
1:5
140
1.0
141
5.0
290
     0
  0
SCALE
  5
FB0
102
{ACAD_REACTORS
330
FAB
102
}
330
FAB
100
AcDbScale
 70
     0
300
1:8
140
1.0
141
8.0
290
     0
  0
SCALE
  5
FB1
102
{ACAD_REACTORS
330
FAB
102
}
330
FAB
100
AcDbScale
 70
     0
300
1:10
140
1.0
141
10.0
290
     0
  0
SCALE
  5
FB2
102
{ACAD_REACTORS
330
FAB
102
}
330
FAB
100
AcDbScale
 70
     0
300
1:16
140
1.0
141
16.0
290
     0
  0
SCALE
  5
FB3
102
{ACAD_REACTORS
330
FAB
102
}
330
FAB
100
AcDbScale
 70
     0
300
1:20
140
1.0
141
20.0
290
     0
  0
SCALE
  5
FB4
102
{ACAD_REACTORS
330
FAB
102
}
330
FAB
100
AcDbScale
 70
     0
300
1:30
140
1.0
141
30.0
290
     0
  0
SCALE
  5
FB5
102
{ACAD_REACTORS
330
FAB
102
}
330
FAB
100
AcDbScale
 70
     0
300
1:40
140
1.0
141
40.0
290
     0
  0
SCALE
  5
FB6
102
{ACAD_REACTORS
330
FAB
102
}
330
FAB
100
AcDbScale
 70
     0
300
1:50
140
1.0
141
50.0
290
     0
  0
SCALE
  5
FB7
102
{ACAD_REACTORS
330
FAB
102
}
330
FAB
100
AcDbScale
 70
     0
300
1:100
140
1.0
141
100.0
290
     0
  0
SCALE
  5
FB8
102
{ACAD_REACTORS
330
FAB
102
}
330
FAB
100
AcDbScale
 70
     0
300
2:1
140
2.0
141
1.0
290
     0
  0
SCALE
  5
FB9
102
{ACAD_REACTORS
330
FAB
102
}
330
FAB
100
AcDbScale
 70
     0
300
4:1
140
4.0
141
1.0
290
     0
  0
SCALE
  5
FBA
102
{ACAD_REACTORS
330
FAB
102
}
330
FAB
100
AcDbScale
 70
     0
300
8:1
140
8.0
141
1.0
290
     0
  0
SCALE
  5
FBB
102
{ACAD_REACTORS
330
FAB
102
}
330
FAB
100
AcDbScale
 70
     0
300
10:1
140
10.0
141
1.0
290
     0
  0
SCALE
  5
FBC
102
{ACAD_REACTORS
330
FAB
102
}
330
FAB
100
AcDbScale
 70
     0
300
100:1
140
100.0
141
1.0
290
     0
  0
SCALE
  5
FBD
102
{ACAD_REACTORS
330
FAB
102
}
330
FAB
100
AcDbScale
 70
     0
300
1/128" = 1'-0"
140
0.0078125
141
12.0
290
     0
  0
SCALE
  5
FBE
102
{ACAD_REACTORS
330
FAB
102
}
330
FAB
100
AcDbScale
 70
     0
300
1/64" = 1'-0"
140
0.015625
141
12.0
290
     0
  0
SCALE
  5
FBF
102
{ACAD_REACTORS
330
FAB
102
}
330
FAB
100
AcDbScale
 70
     0
300
1/32" = 1'-0"
140
0.03125
141
12.0
290
     0
  0
SCALE
  5
FC0
102
{ACAD_REACTORS
330
FAB
102
}
330
FAB
100
AcDbScale
 70
     0
300
1/16" = 1'-0"
140
0.0625
141
12.0
290
     0
  0
SCALE
  5
FC1
102
{ACAD_REACTORS
330
FAB
102
}
330
FAB
100
AcDbScale
 70
     0
300
3/32" = 1'-0"
140
0.09375
141
12.0
290
     0
  0
SCALE
  5
FC2
102
{ACAD_REACTORS
330
FAB
102
}
330
FAB
100
AcDbScale
 70
     0
300
1/8" = 1'-0"
140
0.125
141
12.0
290
     0
  0
SCALE
  5
FC3
102
{ACAD_REACTORS
330
FAB
102
}
330
FAB
100
AcDbScale
 70
     0
300
3/16" = 1'-0"
140
0.1875
141
12.0
290
     0
  0
SCALE
  5
FC4
102
{ACAD_REACTORS
330
FAB
102
}
330
FAB
100
AcDbScale
 70
     0
300
1/4" = 1'-0"
140
0.25
141
12.0
290
     0
  0
SCALE
  5
FC5
102
{ACAD_REACTORS
330
FAB
102
}
330
FAB
100
AcDbScale
 70
     0
300
3/8" = 1'-0"
140
0.375
141
12.0
290
     0
  0
SCALE
  5
FC6
102
{ACAD_REACTORS
330
FAB
102
}
330
FAB
100
AcDbScale
 70
     0
300
1/2" = 1'-0"
140
0.5
141
12.0
290
     0
  0
SCALE
  5
FC7
102
{ACAD_REACTORS
330
FAB
102
}
330
FAB
100
AcDbScale
 70
     0
300
3/4" = 1'-0"
140
0.75
141
12.0
290
     0
  0
SCALE
  5
FC8
102
{ACAD_REACTORS
330
FAB
102
}
330
FAB
100
AcDbScale
 70
     0
300
1" = 1'-0"
140
1.0
141
12.0
290
     0
  0
SCALE
  5
FC9
102
{ACAD_REACTORS
330
FAB
102
}
330
FAB
100
AcDbScale
 70
     0
300
1-1/2" = 1'-0"
140
1.5
141
12.0
290
     0
  0
SCALE
  5
FCA
102
{ACAD_REACTORS
330
FAB
102
}
330
FAB
100
AcDbScale
 70
     0
300
3" = 1'-0"
140
3.0
141
12.0
290
     0
  0
SCALE
  5
FCB
102
{ACAD_REACTORS
330
FAB
102
}
330
FAB
100
AcDbScale
 70
     0
300
6" = 1'-0"
140
6.0
141
12.0
290
     0
  0
SCALE
  5
FCC
102
{ACAD_REACTORS
330
FAB
102
}
330
FAB
100
AcDbScale
 70
     0
300
1'-0" = 1'-0"
140
12.0
141
12.0
290
     0
  0
TABLESTYLE
  5
FA9
102
{ACAD_XDICTIONARY
360
FF8
102
}
102
{ACAD_REACTORS
330
FA8
102
}
330
FA8
100
AcDbTableStyle
  3
Standard
 70
     0
 71
     0
 40
0.06
 41
0.06
280
     0
281
     0
  7
Standard
140
0.18
170
     2
 62
     0
 63
     7
283
     0
274
    -2
284
     1
 64
     0
275
    -2
285
     1
 65
     0
276
    -2
286
     1
 66
     0
277
    -2
287
     1
 67
     0
278
    -2
288
     1
 68
     0
279
    -2
289
     1
 69
     0
  7
Standard
140
0.25
170
     5
 62
     0
 63
     7
283
     0
274
    -2
284
     1
 64
     0
275
    -2
285
     1
 65
     0
276
    -2
286
     1
 66
     0
277
    -2
287
     1
 67
     0
278
    -2
288
     1
 68
     0
279
    -2
289
     1
 69
     0
  7
Standard
140
0.18
170
     5
 62
     0
 63
     7
283
     0
274
    -2
284
     1
 64
     0
275
    -2
285
     1
 65
     0
276
    -2
286
     1
 66
     0
277
    -2
287
     1
 67
     0
278
    -2
288
     1
 68
     0
279
    -2
289
     1
 69
     0
  0
VISUALSTYLE
  5
F99
102
{ACAD_XDICTIONARY
360
F10C7F
102
}
102
{ACAD_REACTORS
330
F93
102
}
330
F93
100
AcDbVisualStyle
  2

 70
     4
 71
     0
 72
     2
 73
     0
 90
        0
 40
-0.6
 41
-30.0
 62
     5
 63
     7
 74
     1
 91
        4
 64
     7
 65
   257
 75
     1
175
     1
 42
1.0
 92
        0
 66
   257
 43
1.0
 76
     1
 77
     6
 78
     2
 67
     7
 79
     5
170
     0
171
     0
290
     0
174
     0
 93
        1
 44
0.0
173
     0
291
     0
 45
0.0
1001
ACAD
1000
AcDbSavedByObjectVersion
1070
     0
  0
VISUALSTYLE
  5
F9B
102
{ACAD_XDICTIONARY
360
F10C83
102
}
102
{ACAD_REACTORS
330
F93
102
}
330
F93
100
AcDbVisualStyle
  2

 70
     6
 71
     1
 72
     2
 73
     2
 90
        0
 40
-0.6
 41
-30.0
 62
     5
 63
     7
 74
     2
 91
        2
 64
     7
 65
   257
 75
     2
175
     1
 42
179.0
 92
        0
 66
   257
 43
1.0
 76
     1
 77
     6
 78
     2
 67
     7
 79
     3
170
     0
171
     0
290
     0
174
     0
 93
        1
 44
0.0
173
     0
291
     0
 45
0.0
1001
ACAD
1000
AcDbSavedByObjectVersion
1070
     0
  0
VISUALSTYLE
  5
F9A
102
{ACAD_XDICTIONARY
360
F10C81
102
}
102
{ACAD_REACTORS
330
F93
102
}
330
F93
100
AcDbVisualStyle
  2

 70
     5
 71
     0
 72
     2
 73
     0
 90
        0
 40
-0.6
 41
-30.0
 62
     5
 63
     7
 74
     1
 91
        4
 64
     7
 65
   257
 75
     1
175
     1
 42
1.0
 92
        0
 66
   257
 43
1.0
 76
     1
 77
     6
 78
     2
 67
     7
 79
     5
170
     0
171
     0
290
     0
174
     0
 93
        1
 44
0.0
173
     0
291
     0
 45
0.0
1001
ACAD
1000
AcDbSavedByObjectVersion
1070
     0
  0
VISUALSTYLE
  5
F98
102
{ACAD_XDICTIONARY
360
F10C7D
102
}
102
{ACAD_REACTORS
330
F93
102
}
330
F93
100
AcDbVisualStyle
  2

 70
     7
 71
     1
 72
     0
 73
     1
 90
        0
 40
-0.6
 41
-30.0
 62
     5
 63
     7
 74
     0
 91
        4
 64
     7
 65
   257
 75
     1
175
     1
 42
1.0
 92
        8
 66
     7
 43
1.0
 76
     1
 77
     6
 78
     2
 67
     7
 79
     5
170
     0
171
     0
290
     0
174
     0
 93
        1
 44
0.0
173
     0
291
     1
 45
0.0
1001
ACAD
1000
AcDbSavedByObjectVersion
1070
     0
  0
VISUALSTYLE
  5
F9F
102
{ACAD_XDICTIONARY
360
F10C8B
102
}
102
{ACAD_REACTORS
330
F93
102
}
330
F93
100
AcDbVisualStyle
  2

 70
    12
 71
     2
 72
     2
 73
     0
 90
        0
 40
-0.6
 41
-30.0
 62
     5
 63
     7
 74
     1
 91
        4
 64
     7
 65
   257
 75
     1
175
     1
 42
1.0
 92
        8
 66
     7
 43
1.0
 76
     1
 77
     6
 78
     2
 67
     7
 79
     5
170
     0
171
     0
290
     0
174
     0
 93
        1
 44
50.0
173
     0
291
     1
 45
0.0
1001
ACAD
1000
AcDbSavedByObjectVersion
1070
     0
  0
VISUALSTYLE
  5
FA3
102
{ACAD_XDICTIONARY
360
F10C93
102
}
102
{ACAD_REACTORS
330
F93
102
}
330
F93
100
AcDbVisualStyle
  2

 70
    16
 71
     2
 72
     2
 73
     3
 90
        0
 40
-0.6
 41
-30.0
 62
     5
 63
     8
 74
     1
 91
        4
 64
     7
 65
   257
 75
     1
175
     1
 42
1.0
 92
        8
 66
     8
 43
1.0
 76
     1
 77
     6
 78
     2
 67
     7
 79
     5
170
     0
171
     0
290
     0
174
     0
 93
        1
 44
0.0
173
     0
291
     1
 45
0.0
1001
ACAD
1000
AcDbSavedByObjectVersion
1070
     0
  0
VISUALSTYLE
  5
F9C
102
{ACAD_XDICTIONARY
360
F10C85
102
}
102
{ACAD_REACTORS
330
F93
102
}
330
F93
100
AcDbVisualStyle
  2

 70
     9
 71
     3
 72
     2
 73
     0
 90
        0
 40
-0.6
 41
-30.0
 62
     5
 63
     7
 74
     2
 91
        2
 64
     7
 65
   257
 75
     1
175
     1
 42
179.0
 92
        8
 66
     7
 43
1.0
 76
     1
 77
     6
 78
     2
 67
     7
 79
     3
170
     0
171
     0
290
     0
174
     0
 93
        1
 44
0.0
173
     0
291
     0
 45
0.0
1001
ACAD
1000
AcDbSavedByObjectVersion
1070
     0
  0
VISUALSTYLE
  5
F9E
102
{ACAD_XDICTIONARY
360
F10C89
102
}
102
{ACAD_REACTORS
330
F93
102
}
330
F93
100
AcDbVisualStyle
  2

 70
    11
 71
     2
 72
     2
 73
     0
 90
        0
 40
-0.6
 41
-30.0
 62
     5
 63
     7
 74
     1
 91
        4
 64
     7
 65
   257
 75
     1
175
     1
 42
1.0
 92
        8
 66
     7
 43
1.0
 76
     1
 77
     6
 78
     2
 67
     7
 79
     5
170
     0
171
     0
290
     0
174
     0
 93
        1
 44
-50.0
173
     0
291
     1
 45
0.0
1001
ACAD
1000
AcDbSavedByObjectVersion
1070
     0
  0
VISUALSTYLE
  5
FA6
102
{ACAD_XDICTIONARY
360
F10C99
102
}
102
{ACAD_REACTORS
330
F93
102
}
330
F93
100
AcDbVisualStyle
  2

 70
    22
 71
     2
 72
     2
 73
     0
 90
        0
 40
-0.6
 41
-30.0
 62
     5
 63
     7
 74
     1
 91
        4
 64
     7
 65
   257
 75
     1
175
     1
 42
1.0
 92
        8
 66
     7
 43
1.0
 76
     1
 77
     6
 78
     2
 67
     7
 79
     5
170
     0
171
     0
290
     0
174
     0
 93
        1
 44
0.0
173
     0
291
     1
 45
0.0
1001
ACAD
1000
AcDbSavedByObjectVersion
1070
     0
  0
VISUALSTYLE
  5
FA2
102
{ACAD_XDICTIONARY
360
F10C91
102
}
102
{ACAD_REACTORS
330
F93
102
}
330
F93
100
AcDbVisualStyle
  2

 70
    15
 71
     2
 72
     2
 73
     0
 90
        0
 40
-0.6
 41
-30.0
 62
     5
 63
     7
 74
     1
 91
        4
 64
     7
 65
   257
 75
     1
175
     1
 42
1.0
 92
        8
 66
     7
 43
1.0
 76
     1
 77
     6
 78
     2
 67
     7
 79
     5
170
     0
171
     0
290
     0
174
     0
 93
        1
 44
0.0
173
     0
291
     1
 45
0.0
1001
ACAD
1000
AcDbSavedByObjectVersion
1070
     0
  0
VISUALSTYLE
  5
F94
102
{ACAD_XDICTIONARY
360
F10C75
102
}
102
{ACAD_REACTORS
330
F93
102
}
330
F93
100
AcDbVisualStyle
  2

 70
     0
 71
     2
 72
     1
 73
     1
 90
        2
 40
-0.6
 41
30.0
 62
     5
 63
     7
 74
     0
 91
        4
 64
     7
 65
   257
 75
     1
175
     1
 42
1.0
 92
        8
 66
     7
 43
1.0
 76
     1
 77
     6
 78
     2
 67
     7
 79
     5
170
     0
171
     0
290
     0
174
     0
 93
       13
 44
0.0
173
     0
291
     1
 45
0.0
1001
ACAD
1000
AcDbSavedByObjectVersion
1070
     0
  0
VISUALSTYLE
  5
F95
102
{ACAD_XDICTIONARY
360
F10C77
102
}
102
{ACAD_REACTORS
330
F93
102
}
330
F93
100
AcDbVisualStyle
  2

 70
     1
 71
     2
 72
     1
 73
     1
 90
        2
 40
-0.6
 41
30.0
 62
     5
 63
     7
 74
     1
 91
        4
 64
     7
 65
   257
 75
     1
175
     1
 42
1.0
 92
        0
 66
   257
 43
1.0
 76
     1
 77
     6
 78
     2
 67
     7
 79
     5
170
     0
171
     0
290
     0
174
     0
 93
       13
 44
0.0
173
     0
291
     1
 45
0.0
1001
ACAD
1000
AcDbSavedByObjectVersion
1070
     0
  0
VISUALSTYLE
  5
F96
102
{ACAD_XDICTIONARY
360
F10C79
102
}
102
{ACAD_REACTORS
330
F93
102
}
330
F93
100
AcDbVisualStyle
  2

 70
     2
 71
     2
 72
     2
 73
     1
 90
        2
 40
-0.6
 41
30.0
 62
     5
 63
     7
 74
     0
 91
        4
 64
     7
 65
   257
 75
     1
175
     1
 42
1.0
 92
        0
 66
     7
 43
1.0
 76
     1
 77
     6
 78
     2
 67
     7
 79
     5
170
     0
171
     0
290
     0
174
     0
 93
       13
 44
0.0
173
     0
291
     1
 45
0.0
1001
ACAD
1000
AcDbSavedByObjectVersion
1070
     0
  0
VISUALSTYLE
  5
F97
102
{ACAD_XDICTIONARY
360
F10C7B
102
}
102
{ACAD_REACTORS
330
F93
102
}
330
F93
100
AcDbVisualStyle
  2

 70
     3
 71
     2
 72
     2
 73
     1
 90
        2
 40
-0.6
 41
30.0
 62
     5
 63
     7
 74
     1
 91
        4
 64
     7
 65
   257
 75
     1
175
     1
 42
1.0
 92
        0
 66
   257
 43
1.0
 76
     1
 77
     6
 78
     2
 67
     7
 79
     5
170
     0
171
     0
290
     0
174
     0
 93
       13
 44
0.0
173
     0
291
     1
 45
0.0
1001
ACAD
1000
AcDbSavedByObjectVersion
1070
     0
  0
VISUALSTYLE
  5
F108A1
102
{ACAD_XDICTIONARY
360
F10CA2
102
}
102
{ACAD_REACTORS
330
F93
102
}
330
F93
100
AcDbVisualStyle
  2
Hidden
 70
     6
 71
     1
 72
     2
 73
     2
 90
        0
 40
-0.6
 41
-30.0
 62
     5
 63
     7
 74
     2
 91
        2
 64
     7
 65
   257
 75
     2
175
     1
 42
40.0
 92
        0
 66
   257
 43
1.0
 76
     1
 77
     6
 78
     2
 67
     7
 79
     3
170
     0
171
     0
290
     0
174
     0
 93
        1
 44
0.0
173
     0
291
     0
 45
0.0
1001
ACAD
1000
AcDbSavedByObjectVersion
1070
     0
  0
VISUALSTYLE
  5
FA4
102
{ACAD_XDICTIONARY
360
F10C95
102
}
102
{ACAD_REACTORS
330
F93
102
}
330
F93
100
AcDbVisualStyle
  2

 70
    20
 71
     2
 72
     2
 73
     0
 90
        0
 40
-0.6
 41
-30.0
 62
     5
 63
     7
 74
     1
 91
        4
 64
     7
 65
   257
 75
     1
175
     1
 42
1.0
 92
       10
 66
     7
 43
1.0
 76
     1
 77
     6
 78
     2
 67
     7
 79
     5
170
     0
171
     0
290
     0
174
     0
 93
        1
 44
0.0
173
     0
291
     1
 45
0.0
1001
ACAD
1000
AcDbSavedByObjectVersion
1070
     0
  0
VISUALSTYLE
  5
FA1
102
{ACAD_XDICTIONARY
360
F10C8F
102
}
102
{ACAD_REACTORS
330
F93
102
}
330
F93
100
AcDbVisualStyle
  2

 70
    14
 71
     2
 72
     2
 73
     0
 90
        0
 40
-0.6
 41
-30.0
 62
     5
 63
     7
 74
     1
 91
        4
 64
     7
 65
   257
 75
     7
175
     7
 42
1.0
 92
        8
 66
     7
 43
1.0
 76
     1
 77
     6
 78
     2
 67
     7
 79
     5
170
     0
171
     0
290
     0
174
     0
 93
        1
 44
0.0
173
     0
291
     1
 45
0.0
1001
ACAD
1000
AcDbSavedByObjectVersion
1070
     0
  0
VISUALSTYLE
  5
FA5
102
{ACAD_XDICTIONARY
360
F10C97
102
}
102
{ACAD_REACTORS
330
F93
102
}
330
F93
100
AcDbVisualStyle
  2

 70
    21
 71
     2
 72
     2
 73
     0
 90
        0
 40
-0.6
 41
-30.0
 62
     5
 63
     7
 74
     1
 91
        4
 64
     7
 65
   257
 75
     1
175
     1
 42
1.0
 92
        9
 66
     7
 43
1.0
 76
     1
 77
     6
 78
     2
 67
     7
 79
     5
170
     0
171
     0
290
     0
174
     0
 93
        1
 44
0.0
173
     0
291
     1
 45
0.0
1001
ACAD
1000
AcDbSavedByObjectVersion
1070
     0
  0
VISUALSTYLE
  5
F9D
102
{ACAD_XDICTIONARY
360
F10C87
102
}
102
{ACAD_REACTORS
330
F93
102
}
330
F93
100
AcDbVisualStyle
  2

 70
     8
 71
     2
 72
     2
 73
     0
 90
        0
 40
-0.6
 41
-30.0
 62
     5
 63
     7
 74
     1
 91
        0
 64
     7
 65
   257
 75
     1
175
     1
 42
1.0
 92
        8
 66
     8
 43
1.0
 76
     1
 77
     6
 78
     2
 67
     7
 79
     5
170
     0
171
     0
290
     0
174
     0
 93
       13
 44
0.0
173
     0
291
     0
 45
0.0
1001
ACAD
1000
AcDbSavedByObjectVersion
1070
     0
  0
VISUALSTYLE
  5
F108A6
102
{ACAD_XDICTIONARY
360
F10CAC
102
}
102
{ACAD_REACTORS
330
F93
102
}
330
F93
100
AcDbVisualStyle
  2
Shaded
 70
    27
 71
     2
 72
     2
 73
     1
 90
        2
 40
-0.6
 41
30.0
 62
     5
 63
     7
 74
     0
 91
        4
 64
     7
 65
   257
 75
     1
175
     1
 42
1.0
 92
        8
 66
   257
 43
1.0
 76
     1
 77
     6
 78
     2
 67
     8
 79
     3
170
     0
171
     0
290
     0
174
     0
 93
        5
 44
0.0
173
     0
291
     0
 45
0.0
1001
ACAD
1000
AcDbSavedByObjectVersion
1070
     0
  0
VISUALSTYLE
  5
F108A5
102
{ACAD_XDICTIONARY
360
F10CAA
102
}
102
{ACAD_REACTORS
330
F93
102
}
330
F93
100
AcDbVisualStyle
  2
Shaded with edges
 70
    26
 71
     2
 72
     2
 73
     1
 90
        2
 40
-0.6
 41
30.0
 62
     5
 63
     7
 74
     1
 91
       10
 64
     7
 65
   257
 75
     2
175
     1
 42
1.0
 92
        8
 66
   257
 43
1.0
 76
     1
 77
     6
 78
     2
 67
     7
 79
     3
170
     0
171
     0
290
     0
174
     0
 93
        5
 44
0.0
173
     0
291
     0
 45
0.0
1001
ACAD
1000
AcDbSavedByObjectVersion
1070
     0
  0
VISUALSTYLE
  5
F108A2
102
{ACAD_XDICTIONARY
360
F10CA4
102
}
102
{ACAD_REACTORS
330
F93
102
}
330
F93
100
AcDbVisualStyle
  2
Shades of Gray
 70
    23
 71
     2
 72
     2
 73
     3
 90
        0
 40
-0.6
 41
-30.0
 62
     5
 63
     7
 74
     2
 91
        2
 64
     7
 65
     7
 75
     1
175
     1
 42
40.0
 92
        8
 66
     7
 43
1.0
 76
     1
 77
     6
 78
     2
 67
     7
 79
     3
170
     0
171
     0
290
     0
174
     0
 93
        1
 44
0.0
173
     0
291
     0
 45
0.0
1001
ACAD
1000
AcDbSavedByObjectVersion
1070
     0
  0
VISUALSTYLE
  5
F108A3
102
{ACAD_XDICTIONARY
360
F10CA6
102
}
102
{ACAD_REACTORS
330
F93
102
}
330
F93
100
AcDbVisualStyle
  2
Sketchy
 70
    24
 71
     1
 72
     2
 73
     2
 90
        0
 40
-0.6
 41
-30.0
 62
     5
 63
     7
 74
     2
 91
        2
 64
     7
 65
     7
 75
     1
175
     1
 42
40.0
 92
       11
 66
     7
 43
1.0
 76
     1
 77
     6
 78
     2
 67
     7
 79
     6
170
     0
171
     0
290
     0
174
     0
 93
        1
 44
0.0
173
     0
291
     0
 45
0.0
1001
ACAD
1000
AcDbSavedByObjectVersion
1070
     0
  0
VISUALSTYLE
  5
FA0
102
{ACAD_XDICTIONARY
360
F10C8D
102
}
102
{ACAD_REACTORS
330
F93
102
}
330
F93
100
AcDbVisualStyle
  2

 70
    13
 71
     2
 72
     2
 73
     0
 90
        0
 40
-0.6
 41
-30.0
 62
     5
 63
     7
 74
     1
 91
        4
 64
     7
 65
   257
 75
     1
175
     1
 42
1.0
 92
       12
 66
     7
 43
1.0
 76
     1
 77
     6
 78
     2
 67
     7
 79
     5
170
     0
171
     0
290
     0
174
     0
 93
        1
 44
0.0
173
     0
291
     1
 45
0.0
1001
ACAD
1000
AcDbSavedByObjectVersion
1070
     0
  0
VISUALSTYLE
  5
F108A0
102
{ACAD_XDICTIONARY
360
F10CA0
102
}
102
{ACAD_REACTORS
330
F93
102
}
330
F93
100
AcDbVisualStyle
  2
Wireframe
 70
     5
 71
     0
 72
     2
 73
     0
 90
        0
 40
-0.6
 41
-30.0
 62
     5
 63
     7
 74
     1
 91
        4
 64
     7
 65
   257
 75
     1
175
     1
 42
1.0
 92
        0
 66
   257
 43
1.0
 76
     1
 77
     6
 78
     2
 67
     7
 79
     3
170
     0
171
     0
290
     0
174
     0
 93
        1
 44
0.0
173
     0
291
     0
 45
0.0
1001
ACAD
1000
AcDbSavedByObjectVersion
1070
     0
  0
VISUALSTYLE
  5
F108A4
102
{ACAD_XDICTIONARY
360
F10CA8
102
}
102
{ACAD_REACTORS
330
F93
102
}
330
F93
100
AcDbVisualStyle
  2
X-Ray
 70
    25
 71
     2
 72
     2
 73
     1
 90
        1
 40
0.5
 41
-30.0
 62
     5
 63
     7
 74
     1
 91
        0
 64
     7
 65
   257
 75
     1
175
     1
 42
1.0
 92
        8
 66
     7
 43
1.0
 76
     1
 77
     6
 78
     2
 67
     7
 79
     3
170
     0
171
     0
290
     0
174
     0
 93
       13
 44
0.0
173
     0
291
     0
 45
0.0
1001
ACAD
1000
AcDbSavedByObjectVersion
1070
     0
  0
DICTIONARYVAR
  5
F10C61
102
{ACAD_REACTORS
330
F10C5E
102
}
330
F10C5E
100
DictionaryVariables
280
     0
  1
1:1
  0
DICTIONARYVAR
  5
F10C60
102
{ACAD_REACTORS
330
F10C5E
102
}
330
F10C5E
100
DictionaryVariables
280
     0
  1
STANDARD
  0
DICTIONARYVAR
  5
F10C5F
102
{ACAD_REACTORS
330
F10C5E
102
}
330
F10C5E
100
DictionaryVariables
280
     0
  1
STANDARD
  0
DICTIONARYVAR
  5
F10C64
102
{ACAD_REACTORS
330
F10C5E
102
}
330
F10C5E
100
DictionaryVariables
280
     0
  1
1
  0
DICTIONARYVAR
  5
F10C63
102
{ACAD_REACTORS
330
F10C5E
102
}
330
F10C5E
100
DictionaryVariables
280
     0
  1
0
  0
DICTIONARYVAR
  5
F10C62
102
{ACAD_REACTORS
330
F10C5E
102
}
330
F10C5E
100
DictionaryVariables
280
     0
  1
127
  0
DICTIONARYVAR
  5
F10C65
102
{ACAD_REACTORS
330
F10C5E
102
}
330
F10C5E
100
DictionaryVariables
280
     0
  1
2
  0
DICTIONARY
  5
F10900
102
{ACAD_REACTORS
330
F108F5
102
}
330
F108F5
100
AcDbDictionary
281
     1
  0
DICTIONARY
  5
F10C9E
330
FD1
100
AcDbDictionary
280
     1
281
     1
  3
ACAD_XREC_ROUNDTRIP
360
F10C9F
  0
DICTIONARY
  5
F10C9C
330
FD0
100
AcDbDictionary
280
     1
281
     1
  3
ACAD_XREC_ROUNDTRIP
360
F10C9D
  0
DICTIONARY
  5
F84
330
F83
100
AcDbDictionary
280
     1
281
     1
  3
ACAD_XREC_ROUNDTRIP
360
FFF
  3
BUMPTILE
360
F86
  3
DIFFUSETILE
360
F85
  3
OPACITYTILE
360
F89
  3
REFLECTIONTILE
360
F88
  3
REFRACTIONTILE
360
F8A
  3
SPECULARTILE
360
F87
  0
DICTIONARY
  5
F7C
330
F7B
100
AcDbDictionary
280
     1
281
     1
  3
ACAD_XREC_ROUNDTRIP
360
FFE
  3
BUMPTILE
360
F7E
  3
DIFFUSETILE
360
F7D
  3
OPACITYTILE
360
F81
  3
REFLECTIONTILE
360
F80
  3
REFRACTIONTILE
360
F82
  3
SPECULARTILE
360
F7F
  0
DICTIONARY
  5
F8C
330
F8B
100
AcDbDictionary
280
     1
281
     1
  3
ACAD_XREC_ROUNDTRIP
360
1000
  3
BUMPTILE
360
F8E
  3
DIFFUSETILE
360
F8D
  3
OPACITYTILE
360
F91
  3
REFLECTIONTILE
360
F90
  3
REFRACTIONTILE
360
F92
  3
SPECULARTILE
360
F8F
  0
DICTIONARY
  5
FF8
330
FA9
100
AcDbDictionary
280
     1
281
     1
  3
ACAD_ROUNDTRIP_2008_TABLESTYLE_CELLSTYLEMAP
360
F10C66
  3
ACAD_XREC_ROUNDTRIP
360
F10C9B
  0
DICTIONARY
  5
F10C7F
330
F99
100
AcDbDictionary
280
     1
281
     1
  3
ACAD_XREC_ROUNDTRIP
360
F10C80
  0
DICTIONARY
  5
F10C83
330
F9B
100
AcDbDictionary
280
     1
281
     1
  3
ACAD_XREC_ROUNDTRIP
360
F10C84
  0
DICTIONARY
  5
F10C81
330
F9A
100
AcDbDictionary
280
     1
281
     1
  3
ACAD_XREC_ROUNDTRIP
360
F10C82
  0
DICTIONARY
  5
F10C7D
330
F98
100
AcDbDictionary
280
     1
281
     1
  3
ACAD_XREC_ROUNDTRIP
360
F10C7E
  0
DICTIONARY
  5
F10C8B
330
F9F
100
AcDbDictionary
280
     1
281
     1
  3
ACAD_XREC_ROUNDTRIP
360
F10C8C
  0
DICTIONARY
  5
F10C93
330
FA3
100
AcDbDictionary
280
     1
281
     1
  3
ACAD_XREC_ROUNDTRIP
360
F10C94
  0
DICTIONARY
  5
F10C85
330
F9C
100
AcDbDictionary
280
     1
281
     1
  3
ACAD_XREC_ROUNDTRIP
360
F10C86
  0
DICTIONARY
  5
F10C89
330
F9E
100
AcDbDictionary
280
     1
281
     1
  3
ACAD_XREC_ROUNDTRIP
360
F10C8A
  0
DICTIONARY
  5
F10C99
330
FA6
100
AcDbDictionary
280
     1
281
     1
  3
ACAD_XREC_ROUNDTRIP
360
F10C9A
  0
DICTIONARY
  5
F10C91
330
FA2
100
AcDbDictionary
280
     1
281
     1
  3
ACAD_XREC_ROUNDTRIP
360
F10C92
  0
DICTIONARY
  5
F10C75
330
F94
100
AcDbDictionary
280
     1
281
     1
  3
ACAD_XREC_ROUNDTRIP
360
F10C76
  0
DICTIONARY
  5
F10C77
330
F95
100
AcDbDictionary
280
     1
281
     1
  3
ACAD_XREC_ROUNDTRIP
360
F10C78
  0
DICTIONARY
  5
F10C79
330
F96
100
AcDbDictionary
280
     1
281
     1
  3
ACAD_XREC_ROUNDTRIP
360
F10C7A
  0
DICTIONARY
  5
F10C7B
330
F97
100
AcDbDictionary
280
     1
281
     1
  3
ACAD_XREC_ROUNDTRIP
360
F10C7C
  0
DICTIONARY
  5
F10CA2
330
F108A1
100
AcDbDictionary
280
     1
281
     1
  3
ACAD_XREC_ROUNDTRIP
360
F10CA3
  0
DICTIONARY
  5
F10C95
330
FA4
100
AcDbDictionary
280
     1
281
     1
  3
ACAD_XREC_ROUNDTRIP
360
F10C96
  0
DICTIONARY
  5
F10C8F
330
FA1
100
AcDbDictionary
280
     1
281
     1
  3
ACAD_XREC_ROUNDTRIP
360
F10C90
  0
DICTIONARY
  5
F10C97
330
FA5
100
AcDbDictionary
280
     1
281
     1
  3
ACAD_XREC_ROUNDTRIP
360
F10C98
  0
DICTIONARY
  5
F10C87
330
F9D
100
AcDbDictionary
280
     1
281
     1
  3
ACAD_XREC_ROUNDTRIP
360
F10C88
  0
DICTIONARY
  5
F10CAC
330
F108A6
100
AcDbDictionary
280
     1
281
     1
  3
ACAD_XREC_ROUNDTRIP
360
F10CAD
  0
DICTIONARY
  5
F10CAA
330
F108A5
100
AcDbDictionary
280
     1
281
     1
  3
ACAD_XREC_ROUNDTRIP
360
F10CAB
  0
DICTIONARY
  5
F10CA4
330
F108A2
100
AcDbDictionary
280
     1
281
     1
  3
ACAD_XREC_ROUNDTRIP
360
F10CA5
  0
DICTIONARY
  5
F10CA6
330
F108A3
100
AcDbDictionary
280
     1
281
     1
  3
ACAD_XREC_ROUNDTRIP
360
F10CA7
  0
DICTIONARY
  5
F10C8D
330
FA0
100
AcDbDictionary
280
     1
281
     1
  3
ACAD_XREC_ROUNDTRIP
360
F10C8E
  0
DICTIONARY
  5
F10CA0
330
F108A0
100
AcDbDictionary
280
     1
281
     1
  3
ACAD_XREC_ROUNDTRIP
360
F10CA1
  0
DICTIONARY
  5
F10CA8
330
F108A4
100
AcDbDictionary
280
     1
281
     1
  3
ACAD_XREC_ROUNDTRIP
360
F10CA9
  0
XRECORD
  5
F10C9F
102
{ACAD_REACTORS
330
F10C9E
102
}
330
F10C9E
100
AcDbXrecord
280
     1
102
SHADEPLOT
 70
     0
102
SHADEPLOTRESLEVEL
 70
     2
102
SHADEPLOTCUSTOMDPI
 70
   300
  0
XRECORD
  5
F10C9D
102
{ACAD_REACTORS
330
F10C9C
102
}
330
F10C9C
100
AcDbXrecord
280
     1
102
SHADEPLOT
 70
     0
102
SHADEPLOTRESLEVEL
 70
     2
102
SHADEPLOTCUSTOMDPI
 70
   300
  0
XRECORD
  5
FFF
102
{ACAD_REACTORS
330
F84
102
}
330
F84
100
AcDbXrecord
280
     1
102
MATERIAL
148
0.0
149
0.0
149
0.0
 93
        0
 94
      127
282
     0
 72
     0
 77
     0
171
     0
175
     0
179
     0
273
     0
  0
XRECORD
  5
F86
102
{ACAD_REACTORS
330
F84
102
}
330
F84
100
AcDbXrecord
280
     1
270
     1
271
     1
  0
XRECORD
  5
F85
102
{ACAD_REACTORS
330
F84
102
}
330
F84
100
AcDbXrecord
280
     1
270
     1
271
     1
  0
XRECORD
  5
F89
102
{ACAD_REACTORS
330
F84
102
}
330
F84
100
AcDbXrecord
280
     1
270
     1
271
     1
  0
XRECORD
  5
F88
102
{ACAD_REACTORS
330
F84
102
}
330
F84
100
AcDbXrecord
280
     1
270
     1
271
     1
  0
XRECORD
  5
F8A
102
{ACAD_REACTORS
330
F84
102
}
330
F84
100
AcDbXrecord
280
     1
270
     1
271
     1
  0
XRECORD
  5
F87
102
{ACAD_REACTORS
330
F84
102
}
330
F84
100
AcDbXrecord
280
     1
270
     1
271
     1
  0
XRECORD
  5
FFE
102
{ACAD_REACTORS
330
F7C
102
}
330
F7C
100
AcDbXrecord
280
     1
102
MATERIAL
148
0.0
149
0.0
149
0.0
 93
        0
 94
      127
282
     0
 72
     0
 77
     0
171
     0
175
     0
179
     0
273
     0
  0
XRECORD
  5
F7E
102
{ACAD_REACTORS
330
F7C
102
}
330
F7C
100
AcDbXrecord
280
     1
270
     1
271
     1
  0
XRECORD
  5
F7D
102
{ACAD_REACTORS
330
F7C
102
}
330
F7C
100
AcDbXrecord
280
     1
270
     1
271
     1
  0
XRECORD
  5
F81
102
{ACAD_REACTORS
330
F7C
102
}
330
F7C
100
AcDbXrecord
280
     1
270
     1
271
     1
  0
XRECORD
  5
F80
102
{ACAD_REACTORS
330
F7C
102
}
330
F7C
100
AcDbXrecord
280
     1
270
     1
271
     1
  0
XRECORD
  5
F82
102
{ACAD_REACTORS
330
F7C
102
}
330
F7C
100
AcDbXrecord
280
     1
270
     1
271
     1
  0
XRECORD
  5
F7F
102
{ACAD_REACTORS
330
F7C
102
}
330
F7C
100
AcDbXrecord
280
     1
270
     1
271
     1
  0
XRECORD
  5
1000
102
{ACAD_REACTORS
330
F8C
102
}
330
F8C
100
AcDbXrecord
280
     1
102
MATERIAL
148
0.0
149
0.0
149
0.0
 93
        0
 94
      127
282
     0
 72
     0
 77
     0
171
     0
175
     0
179
     0
273
     0
  0
XRECORD
  5
F8E
102
{ACAD_REACTORS
330
F8C
102
}
330
F8C
100
AcDbXrecord
280
     1
270
     1
271
     1
  0
XRECORD
  5
F8D
102
{ACAD_REACTORS
330
F8C
102
}
330
F8C
100
AcDbXrecord
280
     1
270
     1
271
     1
  0
XRECORD
  5
F91
102
{ACAD_REACTORS
330
F8C
102
}
330
F8C
100
AcDbXrecord
280
     1
270
     1
271
     1
  0
XRECORD
  5
F90
102
{ACAD_REACTORS
330
F8C
102
}
330
F8C
100
AcDbXrecord
280
     1
270
     1
271
     1
  0
XRECORD
  5
F92
102
{ACAD_REACTORS
330
F8C
102
}
330
F8C
100
AcDbXrecord
280
     1
270
     1
271
     1
  0
XRECORD
  5
F8F
102
{ACAD_REACTORS
330
F8C
102
}
330
F8C
100
AcDbXrecord
280
     1
270
     1
271
     1
  0
CELLSTYLEMAP
  5
F10C66
102
{ACAD_REACTORS
330
FF8
102
}
330
FF8
100
AcDbCellStyleMap
 90
        3
300
CELLSTYLE
  1
TABLEFORMAT_BEGIN
 90
        5
170
     1
 91
        0
 92
    32768
 62
   257
 93
        1
300
CONTENTFORMAT
  1
CONTENTFORMAT_BEGIN
 90
        0
 91
        0
 92
      512
 93
        0
300

 40
0.0
140
1.0
 94
        5
 62
     0
340
253
144
0.25
309
CONTENTFORMAT_END
171
     1
301
MARGIN
  1
CELLMARGIN_BEGIN
 40
0.06
 40
0.06
 40
0.06
 40
0.06
 40
0.18
 40
0.18
309
CELLMARGIN_END
 94
        6
 95
        1
302
GRIDFORMAT
  1
GRIDFORMAT_BEGIN
 90
        0
 91
        1
 62
     0
 92
       -2
340
0
 93
        0
 40
0.045
309
GRIDFORMAT_END
 95
        2
302
GRIDFORMAT
  1
GRIDFORMAT_BEGIN
 90
        0
 91
        1
 62
     0
 92
       -2
340
0
 93
        0
 40
0.045
309
GRIDFORMAT_END
 95
        4
302
GRIDFORMAT
  1
GRIDFORMAT_BEGIN
 90
        0
 91
        1
 62
     0
 92
       -2
340
0
 93
        0
 40
0.045
309
GRIDFORMAT_END
 95
        8
302
GRIDFORMAT
  1
GRIDFORMAT_BEGIN
 90
        0
 91
        1
 62
     0
 92
       -2
340
0
 93
        0
 40
0.045
309
GRIDFORMAT_END
 95
       16
302
GRIDFORMAT
  1
GRIDFORMAT_BEGIN
 90
        0
 91
        1
 62
     0
 92
       -2
340
0
 93
        0
 40
0.045
309
GRIDFORMAT_END
 95
       32
302
GRIDFORMAT
  1
GRIDFORMAT_BEGIN
 90
        0
 91
        1
 62
     0
 92
       -2
340
0
 93
        0
 40
0.045
309
GRIDFORMAT_END
309
TABLEFORMAT_END
  1
CELLSTYLE_BEGIN
 90
        1
 91
        1
300
_TITLE
309
CELLSTYLE_END
300
CELLSTYLE
  1
TABLEFORMAT_BEGIN
 90
        5
170
     1
 91
        0
 92
        0
 62
   257
 93
        1
300
CONTENTFORMAT
  1
CONTENTFORMAT_BEGIN
 90
        0
 91
        0
 92
      512
 93
        0
300

 40
0.0
140
1.0
 94
        5
 62
     0
340
253
144
0.18
309
CONTENTFORMAT_END
171
     1
301
MARGIN
  1
CELLMARGIN_BEGIN
 40
0.06
 40
0.06
 40
0.06
 40
0.06
 40
0.18
 40
0.18
309
CELLMARGIN_END
 94
        6
 95
        1
302
GRIDFORMAT
  1
GRIDFORMAT_BEGIN
 90
        0
 91
        1
 62
     0
 92
       -2
340
0
 93
        0
 40
0.045
309
GRIDFORMAT_END
 95
        2
302
GRIDFORMAT
  1
GRIDFORMAT_BEGIN
 90
        0
 91
        1
 62
     0
 92
       -2
340
0
 93
        0
 40
0.045
309
GRIDFORMAT_END
 95
        4
302
GRIDFORMAT
  1
GRIDFORMAT_BEGIN
 90
        0
 91
        1
 62
     0
 92
       -2
340
0
 93
        0
 40
0.045
309
GRIDFORMAT_END
 95
        8
302
GRIDFORMAT
  1
GRIDFORMAT_BEGIN
 90
        0
 91
        1
 62
     0
 92
       -2
340
0
 93
        0
 40
0.045
309
GRIDFORMAT_END
 95
       16
302
GRIDFORMAT
  1
GRIDFORMAT_BEGIN
 90
        0
 91
        1
 62
     0
 92
       -2
340
0
 93
        0
 40
0.045
309
GRIDFORMAT_END
 95
       32
302
GRIDFORMAT
  1
GRIDFORMAT_BEGIN
 90
        0
 91
        1
 62
     0
 92
       -2
340
0
 93
        0
 40
0.045
309
GRIDFORMAT_END
309
TABLEFORMAT_END
  1
CELLSTYLE_BEGIN
 90
        2
 91
        1
300
_HEADER
309
CELLSTYLE_END
300
CELLSTYLE
  1
TABLEFORMAT_BEGIN
 90
        5
170
     1
 91
        0
 92
        0
 62
   257
 93
        1
300
CONTENTFORMAT
  1
CONTENTFORMAT_BEGIN
 90
        0
 91
        0
 92
      512
 93
        0
300

 40
0.0
140
1.0
 94
        2
 62
     0
340
253
144
0.18
309
CONTENTFORMAT_END
171
     1
301
MARGIN
  1
CELLMARGIN_BEGIN
 40
0.06
 40
0.06
 40
0.06
 40
0.06
 40
0.18
 40
0.18
309
CELLMARGIN_END
 94
        6
 95
        1
302
GRIDFORMAT
  1
GRIDFORMAT_BEGIN
 90
        0
 91
        1
 62
     0
 92
       -2
340
0
 93
        0
 40
0.045
309
GRIDFORMAT_END
 95
        2
302
GRIDFORMAT
  1
GRIDFORMAT_BEGIN
 90
        0
 91
        1
 62
     0
 92
       -2
340
0
 93
        0
 40
0.045
309
GRIDFORMAT_END
 95
        4
302
GRIDFORMAT
  1
GRIDFORMAT_BEGIN
 90
        0
 91
        1
 62
     0
 92
       -2
340
0
 93
        0
 40
0.045
309
GRIDFORMAT_END
 95
        8
302
GRIDFORMAT
  1
GRIDFORMAT_BEGIN
 90
        0
 91
        1
 62
     0
 92
       -2
340
0
 93
        0
 40
0.045
309
GRIDFORMAT_END
 95
       16
302
GRIDFORMAT
  1
GRIDFORMAT_BEGIN
 90
        0
 91
        1
 62
     0
 92
       -2
340
0
 93
        0
 40
0.045
309
GRIDFORMAT_END
 95
       32
302
GRIDFORMAT
  1
GRIDFORMAT_BEGIN
 90
        0
 91
        1
 62
     0
 92
       -2
340
0
 93
        0
 40
0.045
309
GRIDFORMAT_END
309
TABLEFORMAT_END
  1
CELLSTYLE_BEGIN
 90
        3
 91
        2
300
_DATA
309
CELLSTYLE_END
  0
XRECORD
  5
F10C9B
102
{ACAD_REACTORS
330
FF8
102
}
330
FF8
100
AcDbXrecord
280
     1
102
ACAD_ROUNDTRIP_PRE2007_TABLESTYLE
 90
      512
 91
        0
  1

 92
      512
 93
        0
  2

 94
      512
 95
        0
  3

  0
XRECORD
  5
F10C80
102
{ACAD_REACTORS
330
F10C7F
102
}
330
F10C7F
100
AcDbXrecord
280
     1
102
RTVSPropertyOp0
 70
     1
102
RTVSPropertyOp1
 70
     1
102
RTVSPropertyOp2
 70
     1
102
RTVSPropertyOp3
 70
     1
102
RTVSPropertyOp4
 70
     1
102
RTVSPropertyOp5
 70
     1
102
RTVSPropertyOp6
 70
     1
102
RTVSPropertyOp7
 70
     1
102
RTVSPropertyOp8
 70
     1
102
RTVSPropertyOp9
 70
     1
102
RTVSPropertyOp10
 70
     1
102
RTVSPropertyOp11
 70
     1
102
RTVSPropertyOp12
 70
     1
102
RTVSPropertyOp13
 70
     1
102
RTVSPropertyOp14
 70
     1
102
RTVSPropertyOp15
 70
     1
102
RTVSPropertyOp16
 70
     1
102
RTVSPropertyOp17
 70
     1
102
RTVSPropertyOp18
 70
     1
102
RTVSPropertyOp19
 70
     1
102
RTVSPropertyOp20
 70
     1
102
RTVSPropertyOp21
 70
     1
102
RTVSPropertyOp22
 70
     1
102
RTVSPropertyOp23
 70
     1
102
RTVSPropertyOp24
 70
     1
102
RTVSPropertyOp25
 70
     1
102
RTVSPropertyOp26
 70
     1
102
RTVSPropertyOp27
 70
     1
102
RTVSPropertyOp28
 70
     1
102
RTVSPropertyOp29
 70
     1
102
RTVSPropertyOp30
 70
     1
102
RTVSPropertyOp31
 70
     1
102
RTVSPropertyOp32
 70
     1
  0
XRECORD
  5
F10C84
102
{ACAD_REACTORS
330
F10C83
102
}
330
F10C83
100
AcDbXrecord
280
     1
102
RTVSPropertyOp0
 70
     1
102
RTVSPropertyOp1
 70
     1
102
RTVSPropertyOp2
 70
     1
102
RTVSPropertyOp3
 70
     1
102
RTVSPropertyOp4
 70
     1
102
RTVSPropertyOp5
 70
     1
102
RTVSPropertyOp6
 70
     1
102
RTVSPropertyOp7
 70
     1
102
RTVSPropertyOp8
 70
     1
102
RTVSPropertyOp9
 70
     1
102
RTVSPropertyOp10
 70
     1
102
RTVSPropertyOp11
 70
     1
102
RTVSPropertyOp12
 70
     1
102
RTVSPropertyOp13
 70
     1
102
RTVSPropertyOp14
 70
     1
102
RTVSPropertyOp15
 70
     1
102
RTVSPropertyOp16
 70
     1
102
RTVSPropertyOp17
 70
     1
102
RTVSPropertyOp18
 70
     1
102
RTVSPropertyOp19
 70
     1
102
RTVSPropertyOp20
 70
     1
102
RTVSPropertyOp21
 70
     1
102
RTVSPropertyOp22
 70
     1
102
RTVSPropertyOp23
 70
     1
102
RTVSPropertyOp24
 70
     1
102
RTVSPropertyOp25
 70
     1
102
RTVSPropertyOp26
 70
     1
102
RTVSPropertyOp27
 70
     1
102
RTVSPropertyOp28
 70
     1
102
RTVSPropertyOp29
 70
     1
102
RTVSPropertyOp30
 70
     1
102
RTVSPropertyOp31
 70
     1
102
RTVSPropertyOp32
 70
     1
  0
XRECORD
  5
F10C82
102
{ACAD_REACTORS
330
F10C81
102
}
330
F10C81
100
AcDbXrecord
280
     1
102
RTVSPropertyOp0
 70
     1
102
RTVSPropertyOp1
 70
     1
102
RTVSPropertyOp2
 70
     1
102
RTVSPropertyOp3
 70
     1
102
RTVSPropertyOp4
 70
     1
102
RTVSPropertyOp5
 70
     1
102
RTVSPropertyOp6
 70
     1
102
RTVSPropertyOp7
 70
     1
102
RTVSPropertyOp8
 70
     1
102
RTVSPropertyOp9
 70
     1
102
RTVSPropertyOp10
 70
     1
102
RTVSPropertyOp11
 70
     1
102
RTVSPropertyOp12
 70
     1
102
RTVSPropertyOp13
 70
     1
102
RTVSPropertyOp14
 70
     1
102
RTVSPropertyOp15
 70
     1
102
RTVSPropertyOp16
 70
     1
102
RTVSPropertyOp17
 70
     1
102
RTVSPropertyOp18
 70
     1
102
RTVSPropertyOp19
 70
     1
102
RTVSPropertyOp20
 70
     1
102
RTVSPropertyOp21
 70
     1
102
RTVSPropertyOp22
 70
     1
102
RTVSPropertyOp23
 70
     1
102
RTVSPropertyOp24
 70
     1
102
RTVSPropertyOp25
 70
     1
102
RTVSPropertyOp26
 70
     1
102
RTVSPropertyOp27
 70
     1
102
RTVSPropertyOp28
 70
     1
102
RTVSPropertyOp29
 70
     1
102
RTVSPropertyOp30
 70
     1
102
RTVSPropertyOp31
 70
     1
102
RTVSPropertyOp32
 70
     1
  0
XRECORD
  5
F10C7E
102
{ACAD_REACTORS
330
F10C7D
102
}
330
F10C7D
100
AcDbXrecord
280
     1
102
RTVSPropertyOp0
 70
     1
102
RTVSPropertyOp1
 70
     1
102
RTVSPropertyOp2
 70
     1
102
RTVSPropertyOp3
 70
     1
102
RTVSPropertyOp4
 70
     1
102
RTVSPropertyOp5
 70
     1
102
RTVSPropertyOp6
 70
     1
102
RTVSPropertyOp7
 70
     1
102
RTVSPropertyOp8
 70
     1
102
RTVSPropertyOp9
 70
     1
102
RTVSPropertyOp10
 70
     1
102
RTVSPropertyOp11
 70
     1
102
RTVSPropertyOp12
 70
     1
102
RTVSPropertyOp13
 70
     1
102
RTVSPropertyOp14
 70
     1
102
RTVSPropertyOp15
 70
     1
102
RTVSPropertyOp16
 70
     1
102
RTVSPropertyOp17
 70
     1
102
RTVSPropertyOp18
 70
     1
102
RTVSPropertyOp19
 70
     1
102
RTVSPropertyOp20
 70
     1
102
RTVSPropertyOp21
 70
     1
102
RTVSPropertyOp22
 70
     1
102
RTVSPropertyOp23
 70
     1
102
RTVSPropertyOp24
 70
     1
102
RTVSPropertyOp25
 70
     1
102
RTVSPropertyOp26
 70
     1
102
RTVSPropertyOp27
 70
     1
102
RTVSPropertyOp28
 70
     1
102
RTVSPropertyOp29
 70
     1
102
RTVSPropertyOp30
 70
     1
102
RTVSPropertyOp31
 70
     1
102
RTVSPropertyOp32
 70
     1
  0
XRECORD
  5
F10C8C
102
{ACAD_REACTORS
330
F10C8B
102
}
330
F10C8B
100
AcDbXrecord
280
     1
102
RTVSPropertyOp0
 70
     1
102
RTVSPropertyOp1
 70
     1
102
RTVSPropertyOp2
 70
     1
102
RTVSPropertyOp3
 70
     1
102
RTVSPropertyOp4
 70
     1
102
RTVSPropertyOp5
 70
     1
102
RTVSPropertyOp6
 70
     1
102
RTVSPropertyOp7
 70
     1
102
RTVSPropertyOp8
 70
     1
102
RTVSPropertyOp9
 70
     1
102
RTVSPropertyOp10
 70
     1
102
RTVSPropertyOp11
 70
     1
102
RTVSPropertyOp12
 70
     1
102
RTVSPropertyOp13
 70
     1
102
RTVSPropertyOp14
 70
     1
102
RTVSPropertyOp15
 70
     1
102
RTVSPropertyOp16
 70
     1
102
RTVSPropertyOp17
 70
     1
102
RTVSPropertyOp18
 70
     1
102
RTVSPropertyOp19
 70
     1
102
RTVSPropertyOp20
 70
     1
102
RTVSPropertyOp21
 70
     1
102
RTVSPropertyOp22
 70
     1
102
RTVSPropertyOp23
 70
     1
102
RTVSPropertyOp24
 70
     1
102
RTVSPropertyOp25
 70
     1
102
RTVSPropertyOp26
 70
     1
102
RTVSPropertyOp27
 70
     1
102
RTVSPropertyOp28
 70
     1
102
RTVSPropertyOp29
 70
     1
102
RTVSPropertyOp30
 70
     1
102
RTVSPropertyOp31
 70
     1
102
RTVSPropertyOp32
 70
     1
  0
XRECORD
  5
F10C94
102
{ACAD_REACTORS
330
F10C93
102
}
330
F10C93
100
AcDbXrecord
280
     1
102
RTVSPropertyOp0
 70
     1
102
RTVSPropertyOp1
 70
     1
102
RTVSPropertyOp2
 70
     1
102
RTVSPropertyOp3
 70
     1
102
RTVSPropertyOp4
 70
     1
102
RTVSPropertyOp5
 70
     1
102
RTVSPropertyOp6
 70
     1
102
RTVSPropertyOp7
 70
     1
102
RTVSPropertyOp8
 70
     1
102
RTVSPropertyOp9
 70
     1
102
RTVSPropertyOp10
 70
     1
102
RTVSPropertyOp11
 70
     1
102
RTVSPropertyOp12
 70
     1
102
RTVSPropertyOp13
 70
     1
102
RTVSPropertyOp14
 70
     1
102
RTVSPropertyOp15
 70
     1
102
RTVSPropertyOp16
 70
     1
102
RTVSPropertyOp17
 70
     1
102
RTVSPropertyOp18
 70
     1
102
RTVSPropertyOp19
 70
     1
102
RTVSPropertyOp20
 70
     1
102
RTVSPropertyOp21
 70
     1
102
RTVSPropertyOp22
 70
     1
102
RTVSPropertyOp23
 70
     1
102
RTVSPropertyOp24
 70
     1
102
RTVSPropertyOp25
 70
     1
102
RTVSPropertyOp26
 70
     1
102
RTVSPropertyOp27
 70
     1
102
RTVSPropertyOp28
 70
     1
102
RTVSPropertyOp29
 70
     1
102
RTVSPropertyOp30
 70
     1
102
RTVSPropertyOp31
 70
     1
102
RTVSPropertyOp32
 70
     1
  0
XRECORD
  5
F10C86
102
{ACAD_REACTORS
330
F10C85
102
}
330
F10C85
100
AcDbXrecord
280
     1
102
RTVSPropertyOp0
 70
     1
102
RTVSPropertyOp1
 70
     1
102
RTVSPropertyOp2
 70
     1
102
RTVSPropertyOp3
 70
     1
102
RTVSPropertyOp4
 70
     1
102
RTVSPropertyOp5
 70
     1
102
RTVSPropertyOp6
 70
     1
102
RTVSPropertyOp7
 70
     1
102
RTVSPropertyOp8
 70
     1
102
RTVSPropertyOp9
 70
     1
102
RTVSPropertyOp10
 70
     1
102
RTVSPropertyOp11
 70
     1
102
RTVSPropertyOp12
 70
     1
102
RTVSPropertyOp13
 70
     1
102
RTVSPropertyOp14
 70
     1
102
RTVSPropertyOp15
 70
     1
102
RTVSPropertyOp16
 70
     1
102
RTVSPropertyOp17
 70
     1
102
RTVSPropertyOp18
 70
     1
102
RTVSPropertyOp19
 70
     1
102
RTVSPropertyOp20
 70
     1
102
RTVSPropertyOp21
 70
     1
102
RTVSPropertyOp22
 70
     1
102
RTVSPropertyOp23
 70
     1
102
RTVSPropertyOp24
 70
     1
102
RTVSPropertyOp25
 70
     1
102
RTVSPropertyOp26
 70
     1
102
RTVSPropertyOp27
 70
     1
102
RTVSPropertyOp28
 70
     1
102
RTVSPropertyOp29
 70
     1
102
RTVSPropertyOp30
 70
     1
102
RTVSPropertyOp31
 70
     1
102
RTVSPropertyOp32
 70
     1
  0
XRECORD
  5
F10C8A
102
{ACAD_REACTORS
330
F10C89
102
}
330
F10C89
100
AcDbXrecord
280
     1
102
RTVSPropertyOp0
 70
     1
102
RTVSPropertyOp1
 70
     1
102
RTVSPropertyOp2
 70
     1
102
RTVSPropertyOp3
 70
     1
102
RTVSPropertyOp4
 70
     1
102
RTVSPropertyOp5
 70
     1
102
RTVSPropertyOp6
 70
     1
102
RTVSPropertyOp7
 70
     1
102
RTVSPropertyOp8
 70
     1
102
RTVSPropertyOp9
 70
     1
102
RTVSPropertyOp10
 70
     1
102
RTVSPropertyOp11
 70
     1
102
RTVSPropertyOp12
 70
     1
102
RTVSPropertyOp13
 70
     1
102
RTVSPropertyOp14
 70
     1
102
RTVSPropertyOp15
 70
     1
102
RTVSPropertyOp16
 70
     1
102
RTVSPropertyOp17
 70
     1
102
RTVSPropertyOp18
 70
     1
102
RTVSPropertyOp19
 70
     1
102
RTVSPropertyOp20
 70
     1
102
RTVSPropertyOp21
 70
     1
102
RTVSPropertyOp22
 70
     1
102
RTVSPropertyOp23
 70
     1
102
RTVSPropertyOp24
 70
     1
102
RTVSPropertyOp25
 70
     1
102
RTVSPropertyOp26
 70
     1
102
RTVSPropertyOp27
 70
     1
102
RTVSPropertyOp28
 70
     1
102
RTVSPropertyOp29
 70
     1
102
RTVSPropertyOp30
 70
     1
102
RTVSPropertyOp31
 70
     1
102
RTVSPropertyOp32
 70
     1
  0
XRECORD
  5
F10C9A
102
{ACAD_REACTORS
330
F10C99
102
}
330
F10C99
100
AcDbXrecord
280
     1
102
RTVSPropertyOp0
 70
     0
102
RTVSPropertyOp1
 70
     0
102
RTVSPropertyOp2
 70
     0
102
RTVSPropertyOp3
 70
     0
102
RTVSPropertyOp4
 70
     0
102
RTVSPropertyOp5
 70
     0
102
RTVSPropertyOp6
 70
     0
102
RTVSPropertyOp7
 70
     0
102
RTVSPropertyOp8
 70
     0
102
RTVSPropertyOp9
 70
     0
102
RTVSPropertyOp10
 70
     0
102
RTVSPropertyOp11
 70
     0
102
RTVSPropertyOp12
 70
     0
102
RTVSPropertyOp13
 70
     0
102
RTVSPropertyOp14
 70
     2
102
RTVSPropertyOp15
 70
     0
102
RTVSPropertyOp16
 70
     0
102
RTVSPropertyOp17
 70
     0
102
RTVSPropertyOp18
 70
     0
102
RTVSPropertyOp19
 70
     0
102
RTVSPropertyOp20
 70
     0
102
RTVSPropertyOp21
 70
     0
102
RTVSPropertyOp22
 70
     0
102
RTVSPropertyOp23
 70
     0
102
RTVSPropertyOp24
 70
     0
102
RTVSPropertyOp25
 70
     0
102
RTVSPropertyOp26
 70
     0
102
RTVSPropertyOp27
 70
     0
102
RTVSPropertyOp28
 70
     1
102
RTVSPropertyOp29
 70
     1
102
RTVSPropertyOp30
 70
     1
102
RTVSPropertyOp31
 70
     1
102
RTVSPropertyOp32
 70
     1
  0
XRECORD
  5
F10C92
102
{ACAD_REACTORS
330
F10C91
102
}
330
F10C91
100
AcDbXrecord
280
     1
102
RTVSPropertyOp0
 70
     1
102
RTVSPropertyOp1
 70
     1
102
RTVSPropertyOp2
 70
     1
102
RTVSPropertyOp3
 70
     1
102
RTVSPropertyOp4
 70
     1
102
RTVSPropertyOp5
 70
     1
102
RTVSPropertyOp6
 70
     1
102
RTVSPropertyOp7
 70
     1
102
RTVSPropertyOp8
 70
     1
102
RTVSPropertyOp9
 70
     1
102
RTVSPropertyOp10
 70
     1
102
RTVSPropertyOp11
 70
     1
102
RTVSPropertyOp12
 70
     1
102
RTVSPropertyOp13
 70
     1
102
RTVSPropertyOp14
 70
     1
102
RTVSPropertyOp15
 70
     1
102
RTVSPropertyOp16
 70
     1
102
RTVSPropertyOp17
 70
     1
102
RTVSPropertyOp18
 70
     1
102
RTVSPropertyOp19
 70
     1
102
RTVSPropertyOp20
 70
     1
102
RTVSPropertyOp21
 70
     1
102
RTVSPropertyOp22
 70
     1
102
RTVSPropertyOp23
 70
     1
102
RTVSPropertyOp24
 70
     1
102
RTVSPropertyOp25
 70
     1
102
RTVSPropertyOp26
 70
     1
102
RTVSPropertyOp27
 70
     1
102
RTVSPropertyOp28
 70
     1
102
RTVSPropertyOp29
 70
     1
102
RTVSPropertyOp30
 70
     1
102
RTVSPropertyOp31
 70
     1
102
RTVSPropertyOp32
 70
     1
  0
XRECORD
  5
F10C76
102
{ACAD_REACTORS
330
F10C75
102
}
330
F10C75
100
AcDbXrecord
280
     1
102
RTVSPropertyOp0
 70
     1
102
RTVSPropertyOp1
 70
     1
102
RTVSPropertyOp2
 70
     1
102
RTVSPropertyOp3
 70
     1
102
RTVSPropertyOp4
 70
     1
102
RTVSPropertyOp5
 70
     1
102
RTVSPropertyOp6
 70
     1
102
RTVSPropertyOp7
 70
     1
102
RTVSPropertyOp8
 70
     1
102
RTVSPropertyOp9
 70
     1
102
RTVSPropertyOp10
 70
     1
102
RTVSPropertyOp11
 70
     1
102
RTVSPropertyOp12
 70
     1
102
RTVSPropertyOp13
 70
     1
102
RTVSPropertyOp14
 70
     1
102
RTVSPropertyOp15
 70
     1
102
RTVSPropertyOp16
 70
     1
102
RTVSPropertyOp17
 70
     1
102
RTVSPropertyOp18
 70
     1
102
RTVSPropertyOp19
 70
     1
102
RTVSPropertyOp20
 70
     1
102
RTVSPropertyOp21
 70
     1
102
RTVSPropertyOp22
 70
     1
102
RTVSPropertyOp23
 70
     1
102
RTVSPropertyOp24
 70
     1
102
RTVSPropertyOp25
 70
     1
102
RTVSPropertyOp26
 70
     1
102
RTVSPropertyOp27
 70
     1
102
RTVSPropertyOp28
 70
     1
102
RTVSPropertyOp29
 70
     1
102
RTVSPropertyOp30
 70
     1
102
RTVSPropertyOp31
 70
     1
102
RTVSPropertyOp32
 70
     1
  0
XRECORD
  5
F10C78
102
{ACAD_REACTORS
330
F10C77
102
}
330
F10C77
100
AcDbXrecord
280
     1
102
RTVSPropertyOp0
 70
     1
102
RTVSPropertyOp1
 70
     1
102
RTVSPropertyOp2
 70
     1
102
RTVSPropertyOp3
 70
     1
102
RTVSPropertyOp4
 70
     1
102
RTVSPropertyOp5
 70
     1
102
RTVSPropertyOp6
 70
     1
102
RTVSPropertyOp7
 70
     1
102
RTVSPropertyOp8
 70
     1
102
RTVSPropertyOp9
 70
     1
102
RTVSPropertyOp10
 70
     1
102
RTVSPropertyOp11
 70
     1
102
RTVSPropertyOp12
 70
     1
102
RTVSPropertyOp13
 70
     1
102
RTVSPropertyOp14
 70
     1
102
RTVSPropertyOp15
 70
     1
102
RTVSPropertyOp16
 70
     1
102
RTVSPropertyOp17
 70
     1
102
RTVSPropertyOp18
 70
     1
102
RTVSPropertyOp19
 70
     1
102
RTVSPropertyOp20
 70
     1
102
RTVSPropertyOp21
 70
     1
102
RTVSPropertyOp22
 70
     1
102
RTVSPropertyOp23
 70
     1
102
RTVSPropertyOp24
 70
     1
102
RTVSPropertyOp25
 70
     1
102
RTVSPropertyOp26
 70
     1
102
RTVSPropertyOp27
 70
     1
102
RTVSPropertyOp28
 70
     1
102
RTVSPropertyOp29
 70
     1
102
RTVSPropertyOp30
 70
     1
102
RTVSPropertyOp31
 70
     1
102
RTVSPropertyOp32
 70
     1
  0
XRECORD
  5
F10C7A
102
{ACAD_REACTORS
330
F10C79
102
}
330
F10C79
100
AcDbXrecord
280
     1
102
RTVSPropertyOp0
 70
     1
102
RTVSPropertyOp1
 70
     1
102
RTVSPropertyOp2
 70
     1
102
RTVSPropertyOp3
 70
     1
102
RTVSPropertyOp4
 70
     1
102
RTVSPropertyOp5
 70
     1
102
RTVSPropertyOp6
 70
     1
102
RTVSPropertyOp7
 70
     1
102
RTVSPropertyOp8
 70
     1
102
RTVSPropertyOp9
 70
     1
102
RTVSPropertyOp10
 70
     1
102
RTVSPropertyOp11
 70
     1
102
RTVSPropertyOp12
 70
     1
102
RTVSPropertyOp13
 70
     1
102
RTVSPropertyOp14
 70
     1
102
RTVSPropertyOp15
 70
     1
102
RTVSPropertyOp16
 70
     1
102
RTVSPropertyOp17
 70
     1
102
RTVSPropertyOp18
 70
     1
102
RTVSPropertyOp19
 70
     1
102
RTVSPropertyOp20
 70
     1
102
RTVSPropertyOp21
 70
     1
102
RTVSPropertyOp22
 70
     1
102
RTVSPropertyOp23
 70
     1
102
RTVSPropertyOp24
 70
     1
102
RTVSPropertyOp25
 70
     1
102
RTVSPropertyOp26
 70
     1
102
RTVSPropertyOp27
 70
     1
102
RTVSPropertyOp28
 70
     1
102
RTVSPropertyOp29
 70
     1
102
RTVSPropertyOp30
 70
     1
102
RTVSPropertyOp31
 70
     1
102
RTVSPropertyOp32
 70
     1
  0
XRECORD
  5
F10C7C
102
{ACAD_REACTORS
330
F10C7B
102
}
330
F10C7B
100
AcDbXrecord
280
     1
102
RTVSPropertyOp0
 70
     1
102
RTVSPropertyOp1
 70
     1
102
RTVSPropertyOp2
 70
     1
102
RTVSPropertyOp3
 70
     1
102
RTVSPropertyOp4
 70
     1
102
RTVSPropertyOp5
 70
     1
102
RTVSPropertyOp6
 70
     1
102
RTVSPropertyOp7
 70
     1
102
RTVSPropertyOp8
 70
     1
102
RTVSPropertyOp9
 70
     1
102
RTVSPropertyOp10
 70
     1
102
RTVSPropertyOp11
 70
     1
102
RTVSPropertyOp12
 70
     1
102
RTVSPropertyOp13
 70
     1
102
RTVSPropertyOp14
 70
     1
102
RTVSPropertyOp15
 70
     1
102
RTVSPropertyOp16
 70
     1
102
RTVSPropertyOp17
 70
     1
102
RTVSPropertyOp18
 70
     1
102
RTVSPropertyOp19
 70
     1
102
RTVSPropertyOp20
 70
     1
102
RTVSPropertyOp21
 70
     1
102
RTVSPropertyOp22
 70
     1
102
RTVSPropertyOp23
 70
     1
102
RTVSPropertyOp24
 70
     1
102
RTVSPropertyOp25
 70
     1
102
RTVSPropertyOp26
 70
     1
102
RTVSPropertyOp27
 70
     1
102
RTVSPropertyOp28
 70
     1
102
RTVSPropertyOp29
 70
     1
102
RTVSPropertyOp30
 70
     1
102
RTVSPropertyOp31
 70
     1
102
RTVSPropertyOp32
 70
     1
  0
XRECORD
  5
F10CA3
102
{ACAD_REACTORS
330
F10CA2
102
}
330
F10CA2
100
AcDbXrecord
280
     1
102
RTVSPropertyOp0
 70
     1
102
RTVSPropertyOp1
 70
     1
102
RTVSPropertyOp2
 70
     1
102
RTVSPropertyOp3
 70
     1
102
RTVSPropertyOp4
 70
     1
102
RTVSPropertyOp5
 70
     1
102
RTVSPropertyOp6
 70
     1
102
RTVSPropertyOp7
 70
     1
102
RTVSPropertyOp8
 70
     1
102
RTVSPropertyOp9
 70
     1
102
RTVSPropertyOp10
 70
     1
102
RTVSPropertyOp11
 70
     1
102
RTVSPropertyOp12
 70
     1
102
RTVSPropertyOp13
 70
     1
102
RTVSPropertyOp14
 70
     1
102
RTVSPropertyOp15
 70
     1
102
RTVSPropertyOp16
 70
     1
102
RTVSPropertyOp17
 70
     1
102
RTVSPropertyOp18
 70
     1
102
RTVSPropertyOp19
 70
     1
102
RTVSPropertyOp20
 70
     1
102
RTVSPropertyOp21
 70
     1
102
RTVSPropertyOp22
 70
     1
102
RTVSPropertyOp23
 70
     1
102
RTVSPropertyOp24
 70
     1
102
RTVSPropertyOp25
 70
     1
102
RTVSPropertyOp26
 70
     1
102
RTVSPropertyOp27
 70
     1
102
RTVSPropertyOp28
 70
     1
102
RTVSPropertyOp29
 70
     1
102
RTVSPropertyOp30
 70
     1
102
RTVSPropertyOp31
 70
     1
102
RTVSPropertyOp32
 70
     1
  0
XRECORD
  5
F10C96
102
{ACAD_REACTORS
330
F10C95
102
}
330
F10C95
100
AcDbXrecord
280
     1
102
RTVSPropertyOp0
 70
     0
102
RTVSPropertyOp1
 70
     0
102
RTVSPropertyOp2
 70
     0
102
RTVSPropertyOp3
 70
     0
102
RTVSPropertyOp4
 70
     0
102
RTVSPropertyOp5
 70
     0
102
RTVSPropertyOp6
 70
     0
102
RTVSPropertyOp7
 70
     0
102
RTVSPropertyOp8
 70
     0
102
RTVSPropertyOp9
 70
     0
102
RTVSPropertyOp10
 70
     0
102
RTVSPropertyOp11
 70
     0
102
RTVSPropertyOp12
 70
     0
102
RTVSPropertyOp13
 70
     0
102
RTVSPropertyOp14
 70
     2
102
RTVSPropertyOp15
 70
     0
102
RTVSPropertyOp16
 70
     0
102
RTVSPropertyOp17
 70
     0
102
RTVSPropertyOp18
 70
     0
102
RTVSPropertyOp19
 70
     0
102
RTVSPropertyOp20
 70
     0
102
RTVSPropertyOp21
 70
     0
102
RTVSPropertyOp22
 70
     0
102
RTVSPropertyOp23
 70
     0
102
RTVSPropertyOp24
 70
     0
102
RTVSPropertyOp25
 70
     0
102
RTVSPropertyOp26
 70
     0
102
RTVSPropertyOp27
 70
     0
102
RTVSPropertyOp28
 70
     1
102
RTVSPropertyOp29
 70
     1
102
RTVSPropertyOp30
 70
     1
102
RTVSPropertyOp31
 70
     1
102
RTVSPropertyOp32
 70
     1
  0
XRECORD
  5
F10C90
102
{ACAD_REACTORS
330
F10C8F
102
}
330
F10C8F
100
AcDbXrecord
280
     1
102
RTVSPropertyOp0
 70
     1
102
RTVSPropertyOp1
 70
     1
102
RTVSPropertyOp2
 70
     1
102
RTVSPropertyOp3
 70
     1
102
RTVSPropertyOp4
 70
     1
102
RTVSPropertyOp5
 70
     1
102
RTVSPropertyOp6
 70
     1
102
RTVSPropertyOp7
 70
     1
102
RTVSPropertyOp8
 70
     1
102
RTVSPropertyOp9
 70
     1
102
RTVSPropertyOp10
 70
     1
102
RTVSPropertyOp11
 70
     1
102
RTVSPropertyOp12
 70
     1
102
RTVSPropertyOp13
 70
     1
102
RTVSPropertyOp14
 70
     1
102
RTVSPropertyOp15
 70
     1
102
RTVSPropertyOp16
 70
     1
102
RTVSPropertyOp17
 70
     1
102
RTVSPropertyOp18
 70
     1
102
RTVSPropertyOp19
 70
     1
102
RTVSPropertyOp20
 70
     1
102
RTVSPropertyOp21
 70
     1
102
RTVSPropertyOp22
 70
     1
102
RTVSPropertyOp23
 70
     1
102
RTVSPropertyOp24
 70
     1
102
RTVSPropertyOp25
 70
     1
102
RTVSPropertyOp26
 70
     1
102
RTVSPropertyOp27
 70
     1
102
RTVSPropertyOp28
 70
     1
102
RTVSPropertyOp29
 70
     1
102
RTVSPropertyOp30
 70
     1
102
RTVSPropertyOp31
 70
     1
102
RTVSPropertyOp32
 70
     1
  0
XRECORD
  5
F10C98
102
{ACAD_REACTORS
330
F10C97
102
}
330
F10C97
100
AcDbXrecord
280
     1
102
RTVSPropertyOp0
 70
     0
102
RTVSPropertyOp1
 70
     0
102
RTVSPropertyOp2
 70
     0
102
RTVSPropertyOp3
 70
     0
102
RTVSPropertyOp4
 70
     0
102
RTVSPropertyOp5
 70
     0
102
RTVSPropertyOp6
 70
     0
102
RTVSPropertyOp7
 70
     0
102
RTVSPropertyOp8
 70
     0
102
RTVSPropertyOp9
 70
     0
102
RTVSPropertyOp10
 70
     0
102
RTVSPropertyOp11
 70
     0
102
RTVSPropertyOp12
 70
     0
102
RTVSPropertyOp13
 70
     0
102
RTVSPropertyOp14
 70
     2
102
RTVSPropertyOp15
 70
     0
102
RTVSPropertyOp16
 70
     0
102
RTVSPropertyOp17
 70
     0
102
RTVSPropertyOp18
 70
     0
102
RTVSPropertyOp19
 70
     0
102
RTVSPropertyOp20
 70
     0
102
RTVSPropertyOp21
 70
     0
102
RTVSPropertyOp22
 70
     0
102
RTVSPropertyOp23
 70
     0
102
RTVSPropertyOp24
 70
     0
102
RTVSPropertyOp25
 70
     0
102
RTVSPropertyOp26
 70
     0
102
RTVSPropertyOp27
 70
     0
102
RTVSPropertyOp28
 70
     1
102
RTVSPropertyOp29
 70
     1
102
RTVSPropertyOp30
 70
     1
102
RTVSPropertyOp31
 70
     1
102
RTVSPropertyOp32
 70
     1
  0
XRECORD
  5
F10C88
102
{ACAD_REACTORS
330
F10C87
102
}
330
F10C87
100
AcDbXrecord
280
     1
102
RTVSPropertyOp0
 70
     1
102
RTVSPropertyOp1
 70
     1
102
RTVSPropertyOp2
 70
     1
102
RTVSPropertyOp3
 70
     1
102
RTVSPropertyOp4
 70
     1
102
RTVSPropertyOp5
 70
     1
102
RTVSPropertyOp6
 70
     1
102
RTVSPropertyOp7
 70
     1
102
RTVSPropertyOp8
 70
     1
102
RTVSPropertyOp9
 70
     1
102
RTVSPropertyOp10
 70
     1
102
RTVSPropertyOp11
 70
     1
102
RTVSPropertyOp12
 70
     1
102
RTVSPropertyOp13
 70
     1
102
RTVSPropertyOp14
 70
     1
102
RTVSPropertyOp15
 70
     1
102
RTVSPropertyOp16
 70
     1
102
RTVSPropertyOp17
 70
     1
102
RTVSPropertyOp18
 70
     1
102
RTVSPropertyOp19
 70
     1
102
RTVSPropertyOp20
 70
     1
102
RTVSPropertyOp21
 70
     1
102
RTVSPropertyOp22
 70
     1
102
RTVSPropertyOp23
 70
     1
102
RTVSPropertyOp24
 70
     1
102
RTVSPropertyOp25
 70
     1
102
RTVSPropertyOp26
 70
     1
102
RTVSPropertyOp27
 70
     1
102
RTVSPropertyOp28
 70
     1
102
RTVSPropertyOp29
 70
     1
102
RTVSPropertyOp30
 70
     1
102
RTVSPropertyOp31
 70
     1
102
RTVSPropertyOp32
 70
     1
  0
XRECORD
  5
F10CAD
102
{ACAD_REACTORS
330
F10CAC
102
}
330
F10CAC
100
AcDbXrecord
280
     1
102
RTVSPropertyOp0
 70
     1
102
RTVSPropertyOp1
 70
     1
102
RTVSPropertyOp2
 70
     1
102
RTVSPropertyOp3
 70
     1
102
RTVSPropertyOp4
 70
     1
102
RTVSPropertyOp5
 70
     1
102
RTVSPropertyOp6
 70
     1
102
RTVSPropertyOp7
 70
     1
102
RTVSPropertyOp8
 70
     1
102
RTVSPropertyOp9
 70
     1
102
RTVSPropertyOp10
 70
     1
102
RTVSPropertyOp11
 70
     1
102
RTVSPropertyOp12
 70
     1
102
RTVSPropertyOp13
 70
     1
102
RTVSPropertyOp14
 70
     1
102
RTVSPropertyOp15
 70
     1
102
RTVSPropertyOp16
 70
     1
102
RTVSPropertyOp17
 70
     1
102
RTVSPropertyOp18
 70
     1
102
RTVSPropertyOp19
 70
     1
102
RTVSPropertyOp20
 70
     1
102
RTVSPropertyOp21
 70
     1
102
RTVSPropertyOp22
 70
     1
102
RTVSPropertyOp23
 70
     1
102
RTVSPropertyOp24
 70
     1
102
RTVSPropertyOp25
 70
     1
102
RTVSPropertyOp26
 70
     1
102
RTVSPropertyOp27
 70
     1
102
RTVSPropertyOp28
 70
     1
102
RTVSPropertyOp29
 70
     1
102
RTVSPropertyOp30
 70
     1
102
RTVSPropertyOp31
 70
     1
102
RTVSPropertyOp32
 70
     1
  0
XRECORD
  5
F10CAB
102
{ACAD_REACTORS
330
F10CAA
102
}
330
F10CAA
100
AcDbXrecord
280
     1
102
RTVSPropertyOp0
 70
     1
102
RTVSPropertyOp1
 70
     1
102
RTVSPropertyOp2
 70
     1
102
RTVSPropertyOp3
 70
     1
102
RTVSPropertyOp4
 70
     1
102
RTVSPropertyOp5
 70
     1
102
RTVSPropertyOp6
 70
     1
102
RTVSPropertyOp7
 70
     1
102
RTVSPropertyOp8
 70
     1
102
RTVSPropertyOp9
 70
     1
102
RTVSPropertyOp10
 70
     1
102
RTVSPropertyOp11
 70
     1
102
RTVSPropertyOp12
 70
     1
102
RTVSPropertyOp13
 70
     1
102
RTVSPropertyOp14
 70
     1
102
RTVSPropertyOp15
 70
     1
102
RTVSPropertyOp16
 70
     1
102
RTVSPropertyOp17
 70
     1
102
RTVSPropertyOp18
 70
     1
102
RTVSPropertyOp19
 70
     1
102
RTVSPropertyOp20
 70
     1
102
RTVSPropertyOp21
 70
     1
102
RTVSPropertyOp22
 70
     1
102
RTVSPropertyOp23
 70
     1
102
RTVSPropertyOp24
 70
     1
102
RTVSPropertyOp25
 70
     1
102
RTVSPropertyOp26
 70
     1
102
RTVSPropertyOp27
 70
     1
102
RTVSPropertyOp28
 70
     1
102
RTVSPropertyOp29
 70
     1
102
RTVSPropertyOp30
 70
     1
102
RTVSPropertyOp31
 70
     1
102
RTVSPropertyOp32
 70
     1
  0
XRECORD
  5
F10CA5
102
{ACAD_REACTORS
330
F10CA4
102
}
330
F10CA4
100
AcDbXrecord
280
     1
102
RTVSPropertyOp0
 70
     1
102
RTVSPropertyOp1
 70
     1
102
RTVSPropertyOp2
 70
     1
102
RTVSPropertyOp3
 70
     1
102
RTVSPropertyOp4
 70
     1
102
RTVSPropertyOp5
 70
     1
102
RTVSPropertyOp6
 70
     1
102
RTVSPropertyOp7
 70
     1
102
RTVSPropertyOp8
 70
     1
102
RTVSPropertyOp9
 70
     1
102
RTVSPropertyOp10
 70
     1
102
RTVSPropertyOp11
 70
     1
102
RTVSPropertyOp12
 70
     1
102
RTVSPropertyOp13
 70
     1
102
RTVSPropertyOp14
 70
     1
102
RTVSPropertyOp15
 70
     1
102
RTVSPropertyOp16
 70
     1
102
RTVSPropertyOp17
 70
     1
102
RTVSPropertyOp18
 70
     1
102
RTVSPropertyOp19
 70
     1
102
RTVSPropertyOp20
 70
     1
102
RTVSPropertyOp21
 70
     1
102
RTVSPropertyOp22
 70
     1
102
RTVSPropertyOp23
 70
     1
102
RTVSPropertyOp24
 70
     1
102
RTVSPropertyOp25
 70
     1
102
RTVSPropertyOp26
 70
     1
102
RTVSPropertyOp27
 70
     1
102
RTVSPropertyOp28
 70
     1
102
RTVSPropertyOp29
 70
     1
102
RTVSPropertyOp30
 70
     1
102
RTVSPropertyOp31
 70
     1
102
RTVSPropertyOp32
 70
     1
  0
XRECORD
  5
F10CA7
102
{ACAD_REACTORS
330
F10CA6
102
}
330
F10CA6
100
AcDbXrecord
280
     1
102
RTVSPropertyOp0
 70
     1
102
RTVSPropertyOp1
 70
     1
102
RTVSPropertyOp2
 70
     1
102
RTVSPropertyOp3
 70
     1
102
RTVSPropertyOp4
 70
     1
102
RTVSPropertyOp5
 70
     1
102
RTVSPropertyOp6
 70
     1
102
RTVSPropertyOp7
 70
     1
102
RTVSPropertyOp8
 70
     1
102
RTVSPropertyOp9
 70
     1
102
RTVSPropertyOp10
 70
     1
102
RTVSPropertyOp11
 70
     1
102
RTVSPropertyOp12
 70
     1
102
RTVSPropertyOp13
 70
     1
102
RTVSPropertyOp14
 70
     1
102
RTVSPropertyOp15
 70
     1
102
RTVSPropertyOp16
 70
     1
102
RTVSPropertyOp17
 70
     1
102
RTVSPropertyOp18
 70
     1
102
RTVSPropertyOp19
 70
     1
102
RTVSPropertyOp20
 70
     1
102
RTVSPropertyOp21
 70
     1
102
RTVSPropertyOp22
 70
     1
102
RTVSPropertyOp23
 70
     1
102
RTVSPropertyOp24
 70
     1
102
RTVSPropertyOp25
 70
     1
102
RTVSPropertyOp26
 70
     1
102
RTVSPropertyOp27
 70
     1
102
RTVSPropertyOp28
 70
     1
102
RTVSPropertyOp29
 70
     1
102
RTVSPropertyOp30
 70
     1
102
RTVSPropertyOp31
 70
     1
102
RTVSPropertyOp32
 70
     1
  0
XRECORD
  5
F10C8E
102
{ACAD_REACTORS
330
F10C8D
102
}
330
F10C8D
100
AcDbXrecord
280
     1
102
RTVSPropertyOp0
 70
     1
102
RTVSPropertyOp1
 70
     1
102
RTVSPropertyOp2
 70
     1
102
RTVSPropertyOp3
 70
     1
102
RTVSPropertyOp4
 70
     1
102
RTVSPropertyOp5
 70
     1
102
RTVSPropertyOp6
 70
     1
102
RTVSPropertyOp7
 70
     1
102
RTVSPropertyOp8
 70
     1
102
RTVSPropertyOp9
 70
     1
102
RTVSPropertyOp10
 70
     1
102
RTVSPropertyOp11
 70
     1
102
RTVSPropertyOp12
 70
     1
102
RTVSPropertyOp13
 70
     1
102
RTVSPropertyOp14
 70
     1
102
RTVSPropertyOp15
 70
     1
102
RTVSPropertyOp16
 70
     1
102
RTVSPropertyOp17
 70
     1
102
RTVSPropertyOp18
 70
     1
102
RTVSPropertyOp19
 70
     1
102
RTVSPropertyOp20
 70
     1
102
RTVSPropertyOp21
 70
     1
102
RTVSPropertyOp22
 70
     1
102
RTVSPropertyOp23
 70
     1
102
RTVSPropertyOp24
 70
     1
102
RTVSPropertyOp25
 70
     1
102
RTVSPropertyOp26
 70
     1
102
RTVSPropertyOp27
 70
     1
102
RTVSPropertyOp28
 70
     1
102
RTVSPropertyOp29
 70
     1
102
RTVSPropertyOp30
 70
     1
102
RTVSPropertyOp31
 70
     1
102
RTVSPropertyOp32
 70
     1
  0
XRECORD
  5
F10CA1
102
{ACAD_REACTORS
330
F10CA0
102
}
330
F10CA0
100
AcDbXrecord
280
     1
102
RTVSPropertyOp0
 70
     1
102
RTVSPropertyOp1
 70
     1
102
RTVSPropertyOp2
 70
     1
102
RTVSPropertyOp3
 70
     1
102
RTVSPropertyOp4
 70
     1
102
RTVSPropertyOp5
 70
     1
102
RTVSPropertyOp6
 70
     1
102
RTVSPropertyOp7
 70
     1
102
RTVSPropertyOp8
 70
     1
102
RTVSPropertyOp9
 70
     1
102
RTVSPropertyOp10
 70
     1
102
RTVSPropertyOp11
 70
     1
102
RTVSPropertyOp12
 70
     1
102
RTVSPropertyOp13
 70
     1
102
RTVSPropertyOp14
 70
     1
102
RTVSPropertyOp15
 70
     1
102
RTVSPropertyOp16
 70
     1
102
RTVSPropertyOp17
 70
     1
102
RTVSPropertyOp18
 70
     1
102
RTVSPropertyOp19
 70
     1
102
RTVSPropertyOp20
 70
     1
102
RTVSPropertyOp21
 70
     1
102
RTVSPropertyOp22
 70
     1
102
RTVSPropertyOp23
 70
     1
102
RTVSPropertyOp24
 70
     1
102
RTVSPropertyOp25
 70
     1
102
RTVSPropertyOp26
 70
     1
102
RTVSPropertyOp27
 70
     1
102
RTVSPropertyOp28
 70
     1
102
RTVSPropertyOp29
 70
     1
102
RTVSPropertyOp30
 70
     1
102
RTVSPropertyOp31
 70
     1
102
RTVSPropertyOp32
 70
     1
  0
XRECORD
  5
F10CA9
102
{ACAD_REACTORS
330
F10CA8
102
}
330
F10CA8
100
AcDbXrecord
280
     1
102
RTVSPropertyOp0
 70
     1
102
RTVSPropertyOp1
 70
     1
102
RTVSPropertyOp2
 70
     1
102
RTVSPropertyOp3
 70
     1
102
RTVSPropertyOp4
 70
     1
102
RTVSPropertyOp5
 70
     1
102
RTVSPropertyOp6
 70
     1
102
RTVSPropertyOp7
 70
     1
102
RTVSPropertyOp8
 70
     1
102
RTVSPropertyOp9
 70
     1
102
RTVSPropertyOp10
 70
     1
102
RTVSPropertyOp11
 70
     1
102
RTVSPropertyOp12
 70
     1
102
RTVSPropertyOp13
 70
     1
102
RTVSPropertyOp14
 70
     1
102
RTVSPropertyOp15
 70
     1
102
RTVSPropertyOp16
 70
     1
102
RTVSPropertyOp17
 70
     1
102
RTVSPropertyOp18
 70
     1
102
RTVSPropertyOp19
 70
     1
102
RTVSPropertyOp20
 70
     1
102
RTVSPropertyOp21
 70
     1
102
RTVSPropertyOp22
 70
     1
102
RTVSPropertyOp23
 70
     1
102
RTVSPropertyOp24
 70
     1
102
RTVSPropertyOp25
 70
     1
102
RTVSPropertyOp26
 70
     1
102
RTVSPropertyOp27
 70
     1
102
RTVSPropertyOp28
 70
     1
102
RTVSPropertyOp29
 70
     1
102
RTVSPropertyOp30
 70
     1
102
RTVSPropertyOp31
 70
     1
102
RTVSPropertyOp32
 70
     1
  0
ENDSEC
  0
EOF
